  0
SECTION
  2
HEADER
  9
$ACADVER
  1
AC1014
  9
$ACADMAINTVER
 70
     9
  9
$DWGCODEPAGE
  3
ANSI_1252
  9
$INSBASE
 10
0.0
 20
0.0
 30
0.0
  9
$EXTMIN
 10
-43.53390333407219
 20
-44.50385170032052
 30
-0.0000000000112498
  9
$EXTMAX
 10
98.45268820025353
 20
43.53023529140204
 30
0.0000000000002956
  9
$LIMMIN
 10
0.0
 20
0.0
  9
$LIMMAX
 10
594.0
 20
420.0
  9
$ORTHOMODE
 70
     0
  9
$REGENMODE
 70
     1
  9
$FILLMODE
 70
     1
  9
$QTEXTMODE
 70
     0
  9
$MIRRTEXT
 70
     1
  9
$DRAGMODE
 70
     2
  9
$LTSCALE
 40
25.0
  9
$OSMODE
 70
   167
  9
$ATTMODE
 70
     1
  9
$TEXTSIZE
 40
0.2
  9
$TRACEWID
 40
0.05
  9
$TEXTSTYLE
  7
STANDARD
  9
$CLAYER
  8
0
  9
$CELTYPE
  6
BYLAYER
  9
$CECOLOR
 62
   256
  9
$CELTSCALE
 40
1.0
  9
$DELOBJ
 70
     1
  9
$DISPSILH
 70
     0
  9
$DIMSCALE
 40
1.0
  9
$DIMASZ
 40
2.5
  9
$DIMEXO
 40
3.712499999999999
  9
$DIMDLI
 40
22.572
  9
$DIMRND
 40
0.0
  9
$DIMDLE
 40
0.0
  9
$DIMEXE
 40
10.692
  9
$DIMTP
 40
0.01
  9
$DIMTM
 40
0.01
  9
$DIMTXT
 40
3.5
  9
$DIMCEN
 40
5.346
  9
$DIMTSZ
 40
0.0
  9
$DIMTOL
 70
     1
  9
$DIMLIM
 70
     0
  9
$DIMTIH
 70
     1
  9
$DIMTOH
 70
     1
  9
$DIMSE1
 70
     0
  9
$DIMSE2
 70
     0
  9
$DIMTAD
 70
     0
  9
$DIMZIN
 70
     0
  9
$DIMBLK
  1
_ARROW_FILLED
  9
$DIMASO
 70
     1
  9
$DIMSHO
 70
     1
  9
$DIMPOST
  1

  9
$DIMAPOST
  1

  9
$DIMALT
 70
     0
  9
$DIMALTD
 70
     2
  9
$DIMALTF
 40
25.4
  9
$DIMLFAC
 40
1.0
  9
$DIMTOFL
 70
     0
  9
$DIMTVP
 40
0.0
  9
$DIMTIX
 70
     0
  9
$DIMSOXD
 70
     0
  9
$DIMSAH
 70
     0
  9
$DIMBLK1
  1

  9
$DIMBLK2
  1

  9
$DIMSTYLE
  2
STANDARD
  9
$DIMCLRD
 70
     0
  9
$DIMCLRE
 70
     0
  9
$DIMCLRT
 70
     0
  9
$DIMTFAC
 40
1.0
  9
$DIMGAP
 40
0.09
  9
$DIMJUST
 70
     0
  9
$DIMSD1
 70
     0
  9
$DIMSD2
 70
     0
  9
$DIMTOLJ
 70
     1
  9
$DIMTZIN
 70
     0
  9
$DIMALTZ
 70
     0
  9
$DIMALTTZ
 70
     0
  9
$DIMFIT
 70
     3
  9
$DIMUPT
 70
     0
  9
$DIMUNIT
 70
     2
  9
$DIMDEC
 70
     4
  9
$DIMTDEC
 70
     4
  9
$DIMALTU
 70
     2
  9
$DIMALTTD
 70
     2
  9
$DIMTXSTY
  7
STANDARD
  9
$DIMAUNIT
 70
     0
  9
$LUNITS
 70
     2
  9
$LUPREC
 70
     4
  9
$SKETCHINC
 40
0.1
  9
$FILLETRAD
 40
3.0
  9
$AUNITS
 70
     0
  9
$AUPREC
 70
     0
  9
$MENU
  1
.
  9
$ELEVATION
 40
0.0
  9
$PELEVATION
 40
0.0
  9
$THICKNESS
 40
0.0
  9
$LIMCHECK
 70
     0
  9
$BLIPMODE
 70
     0
  9
$CHAMFERA
 40
0.0
  9
$CHAMFERB
 40
0.0
  9
$CHAMFERC
 40
0.0
  9
$CHAMFERD
 40
0.0
  9
$SKPOLY
 70
     0
  9
$TDCREATE
 40
2454209.419650671
  9
$TDUPDATE
 40
2454209.680064803
  9
$TDINDWG
 40
0.1458561690
  9
$TDUSRTIMER
 40
0.1458561690
  9
$USRTIMER
 70
     1
  9
$ANGBASE
 50
0.0
  9
$ANGDIR
 70
     0
  9
$PDMODE
 70
     3
  9
$PDSIZE
 40
0.15
  9
$PLINEWID
 40
0.0
  9
$COORDS
 70
     0
  9
$SPLFRAME
 70
     0
  9
$SPLINETYPE
 70
     6
  9
$SPLINESEGS
 70
     8
  9
$ATTDIA
 70
     0
  9
$ATTREQ
 70
     1
  9
$HANDLING
 70
-16383
  9
$HANDSEED
  5
1A9C
  9
$SURFTAB1
 70
     6
  9
$SURFTAB2
 70
     6
  9
$SURFTYPE
 70
     6
  9
$SURFU
 70
     6
  9
$SURFV
 70
     6
  9
$UCSNAME
  2

  9
$UCSORG
 10
0.0
 20
0.0
 30
0.0
  9
$UCSXDIR
 10
1.0
 20
0.0
 30
0.0
  9
$UCSYDIR
 10
0.0
 20
1.0
 30
0.0
  9
$PUCSNAME
  2

  9
$PUCSORG
 10
0.0
 20
0.0
 30
0.0
  9
$PUCSXDIR
 10
1.0
 20
0.0
 30
0.0
  9
$PUCSYDIR
 10
0.0
 20
1.0
 30
0.0
  9
$USERI1
 70
     0
  9
$USERI2
 70
     0
  9
$USERI3
 70
     0
  9
$USERI4
 70
     0
  9
$USERI5
 70
     0
  9
$USERR1
 40
0.0
  9
$USERR2
 40
0.0
  9
$USERR3
 40
0.0
  9
$USERR4
 40
0.0
  9
$USERR5
 40
0.0
  9
$WORLDVIEW
 70
     1
  9
$SHADEDGE
 70
     3
  9
$SHADEDIF
 70
    70
  9
$TILEMODE
 70
     1
  9
$MAXACTVP
 70
    64
  9
$PINSBASE
 10
0.0
 20
0.0
 30
0.0
  9
$PLIMCHECK
 70
     0
  9
$PEXTMIN
 10
1.000000000000000E+20
 20
1.000000000000000E+20
 30
1.000000000000000E+20
  9
$PEXTMAX
 10
-1.000000000000000E+20
 20
-1.000000000000000E+20
 30
-1.000000000000000E+20
  9
$PLIMMIN
 10
0.0
 20
0.0
  9
$PLIMMAX
 10
12.0
 20
9.0
  9
$UNITMODE
 70
     0
  9
$VISRETAIN
 70
     1
  9
$PLINEGEN
 70
     0
  9
$PSLTSCALE
 70
     1
  9
$TREEDEPTH
 70
  3020
  9
$PICKSTYLE
 70
     1
  9
$CMLSTYLE
  2
STANDARD
  9
$CMLJUST
 70
     0
  9
$CMLSCALE
 40
1.0
  9
$PROXYGRAPHICS
 70
     1
  9
$MEASUREMENT
 70
     1
  0
ENDSEC
  0
SECTION
  2
CLASSES
  0
CLASS
  1
ACDBDICTIONARYWDFLT
  2
AcDbDictionaryWithDefault
  3
AutoCAD 2000
 90
        0
280
     0
281
     0
  0
CLASS
  1
ACDBPLACEHOLDER
  2
AcDbPlaceHolder
  3
AutoCAD 2000
 90
        0
280
     0
281
     0
  0
CLASS
  1
LAYOUT
  2
AcDbLayout
  3
AutoCAD 2000
 90
        0
280
     0
281
     0
  0
CLASS
  1
LONG_TRANSACTION
  2
AcDbLongTransaction
  3
AutoCAD 2000
 90
        0
280
     0
281
     0
  0
CLASS
  1
LWPOLYLINE
  2
AcDbPolyline
  3
AutoCAD 2000
 90
        0
280
     0
281
     1
  0
CLASS
  1
HATCH
  2
AcDbHatch
  3
AutoCAD 2000
 90
        0
280
     0
281
     1
  0
CLASS
  1
XRECORD
  2
AcDbXrecord
  3
AutoCAD 2000
 90
        0
280
     0
281
     0
  0
CLASS
  1
LONG_TRANSACTION
  2
AcDbLongTransaction
  3
AutoCAD 2000
 90
        0
280
     0
281
     0
  0
CLASS
  1
LWPOLYLINE
  2
AcDbPolyline
  3
AutoCAD 2000
 90
        0
280
     0
281
     1
  0
CLASS
  1
HATCH
  2
AcDbHatch
  3
AutoCAD 2000
 90
        0
280
     0
281
     1
  0
CLASS
  1
XRECORD
  2
AcDbXrecord
  3
AutoCAD 2000
 90
        0
280
     0
281
     0
  0
ENDSEC
  0
SECTION
  2
TABLES
  0
TABLE
  2
VPORT
  5
8
330
0
100
AcDbSymbolTable
 70
     2
  0
VPORT
  5
1A78
330
8
100
AcDbSymbolTableRecord
100
AcDbViewportTableRecord
  2
*ACTIVE
 70
     0
 10
0.0
 20
0.0
 11
1.0
 21
1.0
 12
27.45939243309067
 22
-0.486808204459237
 13
0.0
 23
0.0
 14
1.0
 24
1.0
 15
0.0
 25
0.0
 16
0.0
 26
0.0
 36
1.0
 17
0.0
 27
0.0
 37
0.0
 40
110.9447775205077
 41
1.285714285714285
 42
50.0
 43
0.0
 44
0.0
 50
0.0
 51
0.0
 71
     0
 72
 20000
 73
     1
 74
     1
 75
     0
 76
     0
 77
     0
 78
     0
  0
ENDTAB
  0
TABLE
  2
LTYPE
  5
5
330
0
100
AcDbSymbolTable
 70
     3
  0
LTYPE
  5
14
330
5
100
AcDbSymbolTableRecord
100
AcDbLinetypeTableRecord
  2
BYBLOCK
 70
     0
  3

 72
    65
 73
     0
 40
0.0
  0
LTYPE
  5
15
330
5
100
AcDbSymbolTableRecord
100
AcDbLinetypeTableRecord
  2
BYLAYER
 70
     0
  3

 72
    65
 73
     0
 40
0.0
  0
LTYPE
  5
16
330
5
100
AcDbSymbolTableRecord
100
AcDbLinetypeTableRecord
  2
CONTINUOUS
 70
     0
  3
Solid line
 72
    65
 73
     0
 40
0.0
  0
LTYPE
  5
1F5
330
5
100
AcDbSymbolTableRecord
100
AcDbLinetypeTableRecord
  2
CENTER
 70
     0
  3
____ _ ____ _ ____ _ ____ _ ____ _ ____ _ ____
 72
    65
 73
     4
 40
0.6
 49
0.375
 74
     0
 49
-0.075
 74
     0
 49
0.075
 74
     0
 49
-0.075
 74
     0
  0
LTYPE
  5
1F6
330
5
100
AcDbSymbolTableRecord
100
AcDbLinetypeTableRecord
  2
HIDDEN
 70
     0
  3
- - - - - - - - - - - - - - - - - - - -
 72
    65
 73
     2
 40
0.2
 49
0.1
 74
     0
 49
-0.1
 74
     0
  0
ENDTAB
  0
TABLE
  2
LAYER
  5
2
330
0
100
AcDbSymbolTable
 70
    12
  0
LAYER
  5
10
330
2
100
AcDbSymbolTableRecord
100
AcDbLayerTableRecord
  2
0
 70
     0
 62
     7
  6
CONTINUOUS
  0
LAYER
  5
10E6
330
2
100
AcDbSymbolTableRecord
100
AcDbLayerTableRecord
  2
1
 70
     0
 62
     4
  6
CONTINUOUS
  0
LAYER
  5
10E7
330
2
100
AcDbSymbolTableRecord
100
AcDbLayerTableRecord
  2
2
 70
     0
 62
     7
  6
CONTINUOUS
  0
LAYER
  5
10E8
330
2
100
AcDbSymbolTableRecord
100
AcDbLayerTableRecord
  2
4
 70
     0
 62
     2
  6
CENTER
  0
LAYER
  5
10E9
330
2
100
AcDbSymbolTableRecord
100
AcDbLayerTableRecord
  2
6
 70
     0
 62
     5
  6
CONTINUOUS
  0
LAYER
  5
10EA
330
2
100
AcDbSymbolTableRecord
100
AcDbLayerTableRecord
  2
CUT
 70
     0
 62
     1
  6
CONTINUOUS
  0
LAYER
  5
10EB
330
2
100
AcDbSymbolTableRecord
100
AcDbLayerTableRecord
  2
NOCUT
 70
     0
 62
     7
  6
CONTINUOUS
  0
LAYER
  5
10EC
330
2
100
AcDbSymbolTableRecord
100
AcDbLayerTableRecord
  2
SK3
 70
     0
 62
     1
  6
HIDDEN
  0
LAYER
  5
10ED
330
2
100
AcDbSymbolTableRecord
100
AcDbLayerTableRecord
  2
DEFPOINTS
 70
     0
 62
     7
  6
CONTINUOUS
  0
LAYER
  5
10EE
330
2
100
AcDbSymbolTableRecord
100
AcDbLayerTableRecord
  2
SK2
 70
     0
 62
     7
  6
CONTINUOUS
  0
LAYER
  5
10EF
330
2
100
AcDbSymbolTableRecord
100
AcDbLayerTableRecord
  2
SK1
 70
     0
 62
     4
  6
CONTINUOUS
  0
LAYER
  5
10F0
330
2
100
AcDbSymbolTableRecord
100
AcDbLayerTableRecord
  2
SK4
 70
     0
 62
     2
  6
CENTER
  0
ENDTAB
  0
TABLE
  2
STYLE
  5
3
330
0
100
AcDbSymbolTable
 70
     1
  0
STYLE
  5
11
330
3
100
AcDbSymbolTableRecord
100
AcDbTextStyleTableRecord
  2
STANDARD
 70
     0
 40
0.0
 41
0.8
 50
0.0
 71
     0
 42
0.2
  3
isocp.shx
  4

  0
ENDTAB
  0
TABLE
  2
VIEW
  5
6
330
0
100
AcDbSymbolTable
 70
     0
  0
ENDTAB
  0
TABLE
  2
UCS
  5
7
330
0
100
AcDbSymbolTable
 70
     0
  0
ENDTAB
  0
TABLE
  2
APPID
  5
9
330
0
100
AcDbSymbolTable
 70
     1
  0
APPID
  5
224
330
9
100
AcDbSymbolTableRecord
100
AcDbRegAppTableRecord
  2
ACAD
 70
     0
  0
ENDTAB
  0
TABLE
  2
DIMSTYLE
  5
A
330
0
100
AcDbSymbolTable
 70
     2
  0
DIMSTYLE
105
25A
330
A
100
AcDbSymbolTableRecord
100
AcDbDimStyleTableRecord
  2
STANDARD
 70
     0
  3

  4

  5
_ARROW_FILLED
  6
_ARROW_FILLED
  7
_ARROW_FILLED
 40
1.0
 41
2.5
 42
0.0625
 43
0.38
 44
0.18
 45
0.0
 46
0.0
 47
0.01
 48
0.01
140
3.5
141
0.09
142
0.0
143
25.4
144
1.0
145
0.0
146
1.0
147
0.09
 71
     1
 72
     0
 73
     0
 74
     0
 75
     0
 76
     0
 77
     1
 78
     8
170
     0
171
     2
172
     0
173
     0
174
     0
175
     0
176
     0
177
     0
178
     5
270
     2
271
     3
272
     3
273
     2
274
     2
340
11
275
     0
280
     0
281
     0
282
     0
283
     1
284
     8
285
     0
286
     0
287
     3
288
     0
  0
DIMSTYLE
105
10F1
102
{ACAD_REACTORS
330
1838
330
1839
330
183A
330
183B
330
183C
330
1847
102
}
330
A
100
AcDbSymbolTableRecord
100
AcDbDimStyleTableRecord
  2
ISO-25
 70
     0
  3

  4

  5

  6

  7

 40
1.0
 41
3.5
 42
0.625
 43
3.75
 44
1.25
 45
0.0
 46
0.0
 47
0.0
 48
0.0
140
3.5
141
2.5
142
0.0
143
0.03937007874016
144
1.0
145
0.0
146
1.0
147
0.625
 71
     0
 72
     0
 73
     0
 74
     0
 75
     0
 76
     0
 77
     1
 78
     8
170
     0
171
     3
172
     1
173
     0
174
     0
175
     0
176
   256
177
   256
178
   256
270
     2
271
     2
272
     2
273
     2
274
     3
340
11
275
     0
280
     0
281
     0
282
     0
283
     0
284
     8
285
     0
286
     0
287
     3
288
     0
  0
ENDTAB
  0
TABLE
  2
BLOCK_RECORD
  5
1
330
0
100
AcDbSymbolTable
 70
     8
  0
BLOCK_RECORD
  5
1F
102
{ACAD_XDICTIONARY
360
1A70
102
}
330
1
100
AcDbSymbolTableRecord
100
AcDbBlockTableRecord
  2
*MODEL_SPACE
  0
BLOCK_RECORD
  5
1B
102
{ACAD_XDICTIONARY
360
1A6E
102
}
330
1
100
AcDbSymbolTableRecord
100
AcDbBlockTableRecord
  2
*PAPER_SPACE
  0
BLOCK_RECORD
  5
225
330
1
100
AcDbSymbolTableRecord
100
AcDbBlockTableRecord
  2
_ARROW_FILLED
  0
BLOCK_RECORD
  5
109A
330
1
100
AcDbSymbolTableRecord
100
AcDbBlockTableRecord
  2
A$C6E7E3E58
  0
BLOCK_RECORD
  5
18B9
330
1
100
AcDbSymbolTableRecord
100
AcDbBlockTableRecord
  2
*D2
  0
BLOCK_RECORD
  5
18C7
330
1
100
AcDbSymbolTableRecord
100
AcDbBlockTableRecord
  2
*D3
  0
BLOCK_RECORD
  5
18D0
330
1
100
AcDbSymbolTableRecord
100
AcDbBlockTableRecord
  2
*D4
  0
BLOCK_RECORD
  5
18DC
330
1
100
AcDbSymbolTableRecord
100
AcDbBlockTableRecord
  2
*D5
  0
BLOCK_RECORD
  5
18E8
330
1
100
AcDbSymbolTableRecord
100
AcDbBlockTableRecord
  2
*D6
  0
BLOCK_RECORD
  5
18F4
330
1
100
AcDbSymbolTableRecord
100
AcDbBlockTableRecord
  2
*D7
  0
ENDTAB
  0
ENDSEC
  0
SECTION
  2
BLOCKS
  0
BLOCK
  5
20
330
1F
100
AcDbEntity
  8
0
100
AcDbBlockBegin
  2
*MODEL_SPACE
 70
     0
 10
0.0
 20
0.0
 30
0.0
  3
*MODEL_SPACE
  1

  0
ENDBLK
  5
21
330
1F
100
AcDbEntity
  8
0
100
AcDbBlockEnd
  0
BLOCK
  5
1C
330
1B
100
AcDbEntity
 67
     1
  8
0
100
AcDbBlockBegin
  2
*PAPER_SPACE
 70
     0
 10
0.0
 20
0.0
 30
0.0
  3
*PAPER_SPACE
  1

  0
ENDBLK
  5
1D
330
1B
100
AcDbEntity
 67
     1
  8
0
100
AcDbBlockEnd
  0
BLOCK
  5
8C7
330
225
100
AcDbEntity
  8
0
100
AcDbBlockBegin
  2
_ARROW_FILLED
 70
     0
 10
0.0
 20
0.0
 30
0.0
  3
_ARROW_FILLED
  1

  0
SOLID
  5
8C8
330
225
100
AcDbEntity
  8
0
  6
BYBLOCK
 62
     0
100
AcDbTrace
 10
0.0
 20
0.0
 30
0.0
 11
-1.0
 21
0.132
 31
0.0
 12
-1.0
 22
-0.132
 32
0.0
 13
-1.0
 23
-0.132
 33
0.0
  0
ENDBLK
  5
8C9
330
225
100
AcDbEntity
  8
0
  6
BYBLOCK
 62
     0
100
AcDbBlockEnd
  0
BLOCK
  5
109F
330
109A
100
AcDbEntity
  8
0
100
AcDbBlockBegin
  2
A$C6E7E3E58
 70
     0
 10
0.0
 20
0.0
 30
0.0
  3
A$C6E7E3E58
  1

  0
CIRCLE
  5
109B
330
109A
100
AcDbEntity
  8
1
100
AcDbCircle
 10
0.0
 20
0.0
 30
0.0
 40
2.950972054112601
  0
HATCH
  5
109C
330
109A
100
AcDbEntity
  8
1
100
AcDbHatch
 10
0.0
 20
0.0
 30
0.0
210
0.0
220
0.0
230
1.0
  2
SOLID
 70
     1
 71
     1
 91
        2
 92
        7
 72
     1
 73
     1
 93
        3
 10
0.0
 20
0.0
 42
0.0
 10
2.950972054112638
 20
0.0
 42
0.4142135623730966
 10
0.0
 20
2.950972054112526
 42
0.0
 97
        1
330
109E
 92
        7
 72
     1
 73
     1
 93
        3
 10
0.0
 20
-2.950972054112639
 42
0.0
 10
0.0
 20
0.0
 42
0.0
 10
-2.950972054112638
 20
0.0
 42
0.4142135623730966
 97
        1
330
109D
 75
     0
 76
     1
 47
0.1190009775223266
 98
        2
 10
0.7445530588120164
 20
0.9212244733764691
 10
-1.27946460185285
 20
-1.696796923046348
  0
LWPOLYLINE
  5
109D
102
{ACAD_REACTORS
330
109C
102
}
330
109A
100
AcDbEntity
  8
1
100
AcDbPolyline
 90
        3
 70
     1
 43
0.0
 10
0.0
 20
0.0
 10
-2.950972054112638
 20
0.0
 42
0.4142135623730966
 10
0.0
 20
-2.950972054112638
  0
LWPOLYLINE
  5
109E
102
{ACAD_REACTORS
330
109C
102
}
330
109A
100
AcDbEntity
  8
1
100
AcDbPolyline
 90
        3
 70
     1
 43
0.0
 10
0.0
 20
2.950972054112526
 10
0.0
 20
0.0
 10
2.950972054112638
 20
0.0
 42
0.4142135623730966
  0
ENDBLK
  5
10A0
330
109A
100
AcDbEntity
  8
0
100
AcDbBlockEnd
  0
BLOCK
  5
18C5
330
18B9
100
AcDbEntity
  8
0
100
AcDbBlockBegin
  2
*D2
 70
     1
 10
0.0
 20
0.0
 30
0.0
  3
*D2
  1

  0
LINE
  5
1900
330
18B9
100
AcDbEntity
  8
2
100
AcDbLine
 10
59.63932381009978
 20
7.25
 30
0.0
 11
72.65009801592483
 21
7.249999999999996
 31
0.0
  0
LINE
  5
1901
330
18B9
100
AcDbEntity
  8
2
100
AcDbLine
 10
59.63932381009978
 20
-7.25
 30
0.0
 11
72.65009801592483
 21
-7.250000000000002
 31
0.0
  0
LINE
  5
1902
330
18B9
100
AcDbEntity
  8
2
100
AcDbLine
 10
71.40009801592483
 20
10.74999999999999
 30
0.0
 11
71.40009801592483
 21
14.24999999999999
 31
0.0
  0
LINE
  5
1903
330
18B9
100
AcDbEntity
  8
2
100
AcDbLine
 10
71.40009801592483
 20
-10.74999999999999
 30
0.0
 11
71.40009801592483
 21
-14.25
 31
0.0
  0
LINE
  5
1904
330
18B9
100
AcDbEntity
  8
2
100
AcDbLine
 10
71.40009801592483
 20
7.249999999999996
 30
0.0
 11
71.40009801592483
 21
-7.250000000000002
 31
0.0
  0
SOLID
  5
1905
330
18B9
100
AcDbEntity
  8
2
100
AcDbTrace
 10
70.8167646825915
 20
10.74999999999999
 30
0.0
 11
71.98343134925815
 21
10.74999999999999
 31
0.0
 12
71.40009801592483
 22
7.249999999999996
 32
0.0
 13
71.40009801592483
 23
7.249999999999996
 33
0.0
  0
SOLID
  5
1906
330
18B9
100
AcDbEntity
  8
2
100
AcDbTrace
 10
70.8167646825915
 20
-10.74999999999999
 30
0.0
 11
71.98343134925815
 21
-10.74999999999999
 31
0.0
 12
71.40009801592483
 22
-7.250000000000002
 32
0.0
 13
71.40009801592483
 23
-7.250000000000002
 33
0.0
  0
MTEXT
  5
1907
330
18B9
100
AcDbEntity
  8
2
100
AcDbMText
 10
69.02509801592483
 20
0.0000000000000003
 30
0.0
 40
3.5
 41
0.0
 71
     5
 72
     1
  1
%%c14.5
 11
0.0000000000000001
 21
1.0
 31
0.0
1001
ACAD
1000
MTEXTBEGIN
1070
    73
1070
     1
1070
    44
1040
1.0
1070
    74
1070
     0
1000
MTEXTEND
1000
MTEXTBEGIN
1070
    73
1070
     1
1070
    44
1040
1.0
1070
    74
1070
     0
1000
MTEXTEND
  0
POINT
  5
1908
330
18B9
100
AcDbEntity
  8
DEFPOINTS
 62
     0
100
AcDbPoint
 10
59.01432381009978
 20
7.25
 30
0.0
  0
POINT
  5
1909
330
18B9
100
AcDbEntity
  8
DEFPOINTS
 62
     0
100
AcDbPoint
 10
59.01432381009978
 20
-7.25
 30
0.0
  0
POINT
  5
190A
330
18B9
100
AcDbEntity
  8
DEFPOINTS
 62
     0
100
AcDbPoint
 10
71.40009801592483
 20
-7.250000000000002
 30
0.0
  0
ENDBLK
  5
18C6
330
18B9
100
AcDbEntity
  8
0
100
AcDbBlockEnd
  0
BLOCK
  5
18CE
330
18C7
100
AcDbEntity
  8
0
100
AcDbBlockBegin
  2
*D3
 70
     1
 10
0.0
 20
0.0
 30
0.0
  3
*D3
  1

  0
LINE
  5
190B
330
18C7
100
AcDbEntity
  8
2
100
AcDbLine
 10
69.53170933726784
 20
29.58994770386562
 30
0.0
 11
62.11439649332034
 21
22.13238291393222
 31
0.0
  0
MTEXT
  5
190C
330
18C7
100
AcDbEntity
  8
2
100
AcDbMText
 10
65.37297556979742
 20
28.77701712623128
 30
0.0
 40
3.5
 41
0.0
 71
     5
 72
     1
  1
R1.2
 11
0.705190743259568
 21
0.7090176412622033
 31
0.0
1001
ACAD
1000
MTEXTBEGIN
1070
    73
1070
     1
1070
    44
1040
1.0
1070
    74
1070
     0
1000
MTEXTEND
1000
MTEXTBEGIN
1070
    73
1070
     1
1070
    44
1040
1.0
1070
    74
1070
     0
1000
MTEXTEND
  0
LINE
  5
190D
330
18C7
100
AcDbEntity
  8
2
100
AcDbLine
 10
58.80000000000022
 20
18.79999999999973
 30
0.0
 11
59.64622889191185
 21
19.65082116951451
 31
0.0
  0
SOLID
  5
190E
330
18C7
100
AcDbEntity
  8
2
100
AcDbTrace
 10
61.70080286925071
 20
22.54374418083365
 30
0.0
 11
62.52799011738996
 21
21.72102164703082
 31
0.0
 12
59.64622889191185
 22
19.65082116951451
 32
0.0
 13
59.64622889191185
 23
19.65082116951451
 33
0.0
  0
POINT
  5
190F
330
18C7
100
AcDbEntity
  8
DEFPOINTS
 62
     0
100
AcDbPoint
 10
59.64622889191185
 20
19.65082116951451
 30
0.0
  0
POINT
  5
1910
330
18C7
100
AcDbEntity
  8
DEFPOINTS
 62
     0
100
AcDbPoint
 10
58.80000000000022
 20
18.79999999999973
 30
0.0
  0
ENDBLK
  5
18CF
330
18C7
100
AcDbEntity
  8
0
100
AcDbBlockEnd
  0
BLOCK
  5
18DA
330
18D0
100
AcDbEntity
  8
0
100
AcDbBlockBegin
  2
*D4
 70
     1
 10
0.0
 20
0.0
 30
0.0
  3
*D4
  1

  0
LINE
  5
1911
330
18D0
100
AcDbEntity
  8
2
100
AcDbLine
 10
59.63932381009978
 20
20.0
 30
0.0
 11
81.55200459890361
 21
19.99999999999999
 31
0.0
  0
LINE
  5
1912
330
18D0
100
AcDbEntity
  8
2
100
AcDbLine
 10
60.13932381009979
 20
-20.0
 30
0.0
 11
81.55200459890361
 21
-20.0
 31
0.0
  0
LINE
  5
1913
330
18D0
100
AcDbEntity
  8
2
100
AcDbLine
 10
80.30200459890361
 20
16.49999999999999
 30
0.0
 11
80.30200459890361
 21
-16.5
 31
0.0
  0
SOLID
  5
1914
330
18D0
100
AcDbEntity
  8
2
100
AcDbTrace
 10
79.71867126557028
 20
16.49999999999999
 30
0.0
 11
80.88533793223694
 21
16.49999999999999
 31
0.0
 12
80.30200459890361
 22
19.99999999999999
 32
0.0
 13
80.30200459890361
 23
19.99999999999999
 33
0.0
  0
SOLID
  5
1915
330
18D0
100
AcDbEntity
  8
2
100
AcDbTrace
 10
79.71867126557028
 20
-16.5
 30
0.0
 11
80.88533793223694
 21
-16.5
 31
0.0
 12
80.30200459890361
 22
-20.0
 32
0.0
 13
80.30200459890361
 23
-20.0
 33
0.0
  0
MTEXT
  5
1916
330
18D0
100
AcDbEntity
  8
2
100
AcDbMText
 10
77.92700459890361
 20
-0.523750293832677
 30
0.0
 40
3.5
 41
0.0
 71
     5
 72
     1
  1
%%c40
 11
0.0000000000000001
 21
1.0
 31
0.0
1001
ACAD
1000
MTEXTBEGIN
1070
    73
1070
     1
1070
    44
1040
1.0
1070
    74
1070
     0
1000
MTEXTEND
1000
MTEXTBEGIN
1070
    73
1070
     1
1070
    44
1040
1.0
1070
    74
1070
     0
1000
MTEXTEND
  0
POINT
  5
1917
330
18D0
100
AcDbEntity
  8
DEFPOINTS
 62
     0
100
AcDbPoint
 10
59.01432381009978
 20
20.0
 30
0.0
  0
POINT
  5
1918
330
18D0
100
AcDbEntity
  8
DEFPOINTS
 62
     0
100
AcDbPoint
 10
59.51432381009979
 20
-20.0
 30
0.0
  0
POINT
  5
1919
330
18D0
100
AcDbEntity
  8
DEFPOINTS
 62
     0
100
AcDbPoint
 10
80.30200459890361
 20
-20.0
 30
0.0
  0
ENDBLK
  5
18DB
330
18D0
100
AcDbEntity
  8
0
100
AcDbBlockEnd
  0
BLOCK
  5
18E6
330
18DC
100
AcDbEntity
  8
0
100
AcDbBlockBegin
  2
*D5
 70
     1
 10
0.0
 20
0.0
 30
0.0
  3
*D5
  1

  0
LINE
  5
1A43
330
18DC
100
AcDbEntity
  8
2
100
AcDbLine
 10
0.0
 20
0.625
 30
0.0
 11
0.0000000000000025
 21
40.63869783093969
 31
0.0
  0
LINE
  5
1A44
330
18DC
100
AcDbEntity
  8
2
100
AcDbLine
 10
60.0
 20
0.625
 30
0.0
 11
60.0
 21
40.63869783093969
 31
0.0
  0
LINE
  5
1A45
330
18DC
100
AcDbEntity
  8
2
100
AcDbLine
 10
3.500000000000001
 20
39.38869783093969
 30
0.0
 11
56.5
 21
39.38869783093969
 31
0.0
  0
SOLID
  5
1A46
330
18DC
100
AcDbEntity
  8
2
100
AcDbTrace
 10
3.500000000000001
 20
39.97203116427302
 30
0.0
 11
3.500000000000001
 21
38.80536449760635
 31
0.0
 12
0.0000000000000024
 22
39.38869783093969
 32
0.0
 13
0.0000000000000024
 23
39.38869783093969
 33
0.0
  0
SOLID
  5
1A47
330
18DC
100
AcDbEntity
  8
2
100
AcDbTrace
 10
56.5
 20
39.97203116427302
 30
0.0
 11
56.5
 21
38.80536449760635
 31
0.0
 12
60.0
 22
39.38869783093969
 32
0.0
 13
60.0
 23
39.38869783093969
 33
0.0
  0
MTEXT
  5
1A48
330
18DC
100
AcDbEntity
  8
2
100
AcDbMText
 10
31.44688746607593
 20
41.76369783093969
 30
0.0
 40
3.5
 41
0.0
 71
     5
 72
     1
  1
60
1001
ACAD
1000
MTEXTBEGIN
1070
    73
1070
     1
1070
    44
1040
1.0
1070
    74
1070
     0
1000
MTEXTEND
1000
MTEXTBEGIN
1070
    73
1070
     1
1070
    44
1040
1.0
1070
    74
1070
     0
1000
MTEXTEND
  0
POINT
  5
1A49
330
18DC
100
AcDbEntity
  8
DEFPOINTS
 62
     0
100
AcDbPoint
 10
0.0
 20
0.0
 30
0.0
  0
POINT
  5
1A4A
330
18DC
100
AcDbEntity
  8
DEFPOINTS
 62
     0
100
AcDbPoint
 10
60.0
 20
0.0
 30
0.0
  0
POINT
  5
1A4B
330
18DC
100
AcDbEntity
  8
DEFPOINTS
 62
     0
100
AcDbPoint
 10
60.0
 20
39.38869783093969
 30
0.0
  0
ENDBLK
  5
18E7
330
18DC
100
AcDbEntity
  8
0
100
AcDbBlockEnd
  0
BLOCK
  5
18F2
330
18E8
100
AcDbEntity
  8
0
100
AcDbBlockBegin
  2
*D6
 70
     1
 10
0.0
 20
0.0
 30
0.0
  3
*D6
  1

  0
LINE
  5
1923
330
18E8
100
AcDbEntity
  8
SK2
100
AcDbLine
 10
-23.625
 20
-8.0
 30
0.0
 11
-40.66289937032063
 21
-7.999999999999993
 31
0.0
  0
LINE
  5
1924
330
18E8
100
AcDbEntity
  8
SK2
100
AcDbLine
 10
-23.625
 20
8.0
 30
0.0
 11
-40.66289937032063
 21
8.000000000000005
 31
0.0
  0
LINE
  5
1925
330
18E8
100
AcDbEntity
  8
SK2
100
AcDbLine
 10
-39.41289937032063
 20
-4.499999999999993
 30
0.0
 11
-39.41289937032063
 21
4.500000000000004
 31
0.0
  0
SOLID
  5
1926
330
18E8
100
AcDbEntity
  8
SK2
100
AcDbTrace
 10
-39.99623270365397
 20
-4.499999999999993
 30
0.0
 11
-38.82956603698731
 21
-4.499999999999993
 31
0.0
 12
-39.41289937032063
 22
-7.999999999999993
 32
0.0
 13
-39.41289937032063
 23
-7.999999999999993
 33
0.0
  0
SOLID
  5
1927
330
18E8
100
AcDbEntity
  8
SK2
100
AcDbTrace
 10
-39.99623270365397
 20
4.500000000000004
 30
0.0
 11
-38.82956603698731
 21
4.500000000000004
 31
0.0
 12
-39.41289937032063
 22
8.000000000000001
 32
0.0
 13
-39.41289937032063
 23
8.000000000000001
 33
0.0
  0
MTEXT
  5
1928
330
18E8
100
AcDbEntity
  8
SK2
100
AcDbMText
 10
-41.78789937032063
 20
-0.5688086973000281
 30
0.0
 40
3.5
 41
0.0
 71
     5
 72
     1
  1
M16
 11
0.0000000000000001
 21
1.0
 31
0.0
1001
ACAD
1000
MTEXTBEGIN
1070
    73
1070
     1
1070
    44
1040
1.0
1070
    74
1070
     0
1000
MTEXTEND
1000
MTEXTBEGIN
1070
    73
1070
     1
1070
    44
1040
1.0
1070
    74
1070
     0
1000
MTEXTEND
  0
POINT
  5
1929
330
18E8
100
AcDbEntity
  8
DEFPOINTS
 62
     0
100
AcDbPoint
 10
-23.0
 20
-8.0
 30
0.0
  0
POINT
  5
192A
330
18E8
100
AcDbEntity
  8
DEFPOINTS
 62
     0
100
AcDbPoint
 10
-23.0
 20
8.0
 30
0.0
  0
POINT
  5
192B
330
18E8
100
AcDbEntity
  8
DEFPOINTS
 62
     0
100
AcDbPoint
 10
-39.41289937032063
 20
8.000000000000001
 30
0.0
  0
ENDBLK
  5
18F3
330
18E8
100
AcDbEntity
  8
0
100
AcDbBlockEnd
  0
BLOCK
  5
18FE
330
18F4
100
AcDbEntity
  8
0
100
AcDbBlockBegin
  2
*D7
 70
     1
 10
0.0
 20
0.0
 30
0.0
  3
*D7
  1

  0
LINE
  5
192C
330
18F4
100
AcDbEntity
  8
2
100
AcDbLine
 10
59.99999999999997
 20
0.625
 30
0.0
 11
59.99999999999997
 21
33.27398752576664
 31
0.0
  0
LINE
  5
192D
330
18F4
100
AcDbEntity
  8
2
100
AcDbLine
 10
20.0
 20
0.6250000000500222
 30
0.0
 11
20.00000000000001
 21
33.27398752576664
 31
0.0
  0
LINE
  5
192E
330
18F4
100
AcDbEntity
  8
2
100
AcDbLine
 10
56.49999999999997
 20
32.02398752576664
 30
0.0
 11
23.5
 21
32.02398752576664
 31
0.0
  0
SOLID
  5
192F
330
18F4
100
AcDbEntity
  8
2
100
AcDbTrace
 10
56.49999999999997
 20
32.60732085909998
 30
0.0
 11
56.49999999999997
 21
31.44065419243331
 31
0.0
 12
59.99999999999997
 22
32.02398752576664
 32
0.0
 13
59.99999999999997
 23
32.02398752576664
 33
0.0
  0
SOLID
  5
1930
330
18F4
100
AcDbEntity
  8
2
100
AcDbTrace
 10
23.5
 20
32.60732085909998
 30
0.0
 11
23.5
 21
31.44065419243331
 31
0.0
 12
20.00000000000001
 22
32.02398752576664
 32
0.0
 13
20.00000000000001
 23
32.02398752576664
 33
0.0
  0
MTEXT
  5
1931
330
18F4
100
AcDbEntity
  8
2
100
AcDbMText
 10
39.12575255395754
 20
34.39898752576664
 30
0.0
 40
3.5
 41
0.0
 71
     5
 72
     1
  1
40
1001
ACAD
1000
MTEXTBEGIN
1070
    73
1070
     1
1070
    44
1040
1.0
1070
    74
1070
     0
1000
MTEXTEND
1000
MTEXTBEGIN
1070
    73
1070
     1
1070
    44
1040
1.0
1070
    74
1070
     0
1000
MTEXTEND
  0
POINT
  5
1932
330
18F4
100
AcDbEntity
  8
DEFPOINTS
 62
     0
100
AcDbPoint
 10
59.99999999999997
 20
0.0
 30
0.0
  0
POINT
  5
1933
330
18F4
100
AcDbEntity
  8
DEFPOINTS
 62
     0
100
AcDbPoint
 10
20.0
 20
0.0000000000500222
 30
0.0
  0
POINT
  5
1934
330
18F4
100
AcDbEntity
  8
DEFPOINTS
 62
     0
100
AcDbPoint
 10
20.00000000000001
 20
32.02398752576664
 30
0.0
  0
ENDBLK
  5
18FF
330
18F4
100
AcDbEntity
  8
0
100
AcDbBlockEnd
  0
ENDSEC
  0
SECTION
  2
ENTITIES
  0
MTEXT
  5
1837
330
1F
100
AcDbEntity
  8
6
100
AcDbMText
 10
94.63881967671371
 20
-1.657273645063581
 30
0.0
 40
4.0
 41
0.0
 71
     1
 72
     5
  1
Z=2
 11
0.0000000000000001
 21
1.0
 31
0.0
1001
ACAD
1000
MTEXTBEGIN
1070
    73
1070
     1
1070
    44
1040
1.0
1070
    74
1070
     0
1000
MTEXTEND
1000
MTEXTBEGIN
1070
    73
1070
     1
1070
    44
1040
1.0
1070
    74
1070
     0
1000
MTEXTEND
1000
MTEXTBEGIN
1070
    73
1070
     1
1070
    44
1040
1.0
1070
    74
1070
     0
1000
MTEXTEND
  0
DIMENSION
  5
1838
330
1F
100
AcDbEntity
  8
2
100
AcDbDimension
  2
*D2
 10
71.40009801592483
 20
-7.250000000000002
 30
0.0
 11
71.40009801592483
 21
0.0
 31
0.0
 70
   160
  1
%%c<>
  3
ISO-25
100
AcDbAlignedDimension
 13
59.01432381009978
 23
7.25
 33
0.0
 14
59.01432381009978
 24
-7.25
 34
0.0
 50
270.0
100
AcDbRotatedDimension
  0
DIMENSION
  5
1839
330
1F
100
AcDbEntity
  8
2
100
AcDbDimension
  2
*D3
 10
58.80000000000022
 20
18.79999999999973
 30
0.0
 11
65.37297556979742
 21
28.77701712623128
 31
0.0
 70
    36
  3
ISO-25
100
AcDbRadialDimension
 15
59.64622889191185
 25
19.65082116951451
 35
0.0
 40
0.0
  0
DIMENSION
  5
183A
330
1F
100
AcDbEntity
  8
2
100
AcDbDimension
  2
*D4
 10
80.30200459890361
 20
-20.0
 30
0.0
 11
80.30200459890361
 21
-0.5237502938326771
 31
0.0
 70
   160
  1
%%c<>
  3
ISO-25
100
AcDbAlignedDimension
 13
59.01432381009978
 23
20.0
 33
0.0
 14
59.51432381009979
 24
-20.0
 34
0.0
 50
270.0
100
AcDbRotatedDimension
  0
DIMENSION
  5
183B
330
1F
100
AcDbEntity
  8
2
100
AcDbDimension
  2
*D5
 10
60.0
 20
39.38869783093969
 30
0.0
 11
31.44688746607593
 21
39.38869783093969
 31
0.0
 70
   160
  1
<>
  3
ISO-25
100
AcDbAlignedDimension
 13
0.0
 23
0.0
 33
0.0
 14
60.0
 24
0.0
 34
0.0
100
AcDbRotatedDimension
  0
DIMENSION
  5
183C
330
1F
100
AcDbEntity
  8
SK2
100
AcDbDimension
  2
*D6
 10
-39.41289937032063
 20
8.000000000000001
 30
0.0
 11
-39.41289937032063
 21
-0.5688086973000283
 31
0.0
 70
   160
  1
M<>
  3
ISO-25
100
AcDbAlignedDimension
 13
-23.0
 23
-8.0
 33
0.0
 14
-23.0
 24
8.0
 34
0.0
 50
90.0
100
AcDbRotatedDimension
  0
LINE
  5
183D
330
1F
100
AcDbEntity
  8
SK4
100
AcDbLine
 10
0.0
 20
0.0
 30
0.0
 11
-27.00000000000001
 21
0.0
 31
0.0
  0
LWPOLYLINE
  5
183E
330
1F
100
AcDbEntity
  8
1
100
AcDbPolyline
 90
        7
 70
     0
 43
0.0
 10
22.71421356229999
 20
18.66520160920003
 10
22.0866849905
 20
18.03348338880005
 10
21.46825445269998
 20
17.41054317089992
 10
20.85890483699999
 20
16.79637707719995
 10
20.2586874797
 20
16.19099674280005
 10
19.6676537173
 20
15.59441380320004
 10
19.0857864376
 20
15.00662437970003
  0
LWPOLYLINE
  5
183F
330
1F
100
AcDbEntity
  8
1
100
AcDbPolyline
 90
        7
 70
     0
 43
0.0
 10
22.71421356229999
 20
-18.68598112990001
 10
22.0866842178
 20
-18.05493185030002
 10
21.4682534733
 20
-17.43265137520006
 10
20.8589044574
 20
-16.81913608889998
 10
20.25868778429999
 20
-16.21439683860001
 10
19.6676540682
 20
-15.61844447130011
 10
19.0857864376
 20
-15.03127537140005
  0
LWPOLYLINE
  5
1840
330
1F
100
AcDbEntity
  8
1
100
AcDbPolyline
 90
        7
 70
     0
 43
0.0
 10
22.71421356229999
 20
1.288775278899946
 10
22.0371880056
 20
1.68398121659993
 10
21.38910598000001
 20
2.069085169499998
 10
20.7699941574
 20
2.443960733500034
 10
20.17977252209998
 20
2.808987121199947
 10
19.61836105819999
 20
3.164543545099945
 10
19.0857864376
 20
3.510503601100026
  0
LINE
  5
1841
330
1F
100
AcDbEntity
  8
SK4
100
AcDbLine
 10
4.999999999859511
 20
0.0
 30
0.0
 11
59.09950634597757
 21
-15.54240219025041
 31
0.0
  0
LINE
  5
1842
330
1F
100
AcDbEntity
  8
4
100
AcDbLine
 10
61.1616422474179
 20
0.0
 30
0.0
 11
0.0
 21
0.0
 31
0.0
  0
LINE
  5
1843
330
1F
100
AcDbEntity
  8
1
100
AcDbLine
 10
57.2380219344
 20
4.655676673899961
 30
0.0
 11
11.86527501929998
 21
4.655676673899961
 31
0.0
  0
LWPOLYLINE
  5
1844
330
1F
100
AcDbEntity
  8
NOCUT
100
AcDbPolyline
 90
       30
 70
     1
 43
0.0
 10
0.500000002200011
 20
14.5
 10
0.0000000000000284
 20
13.99999999789997
 10
0.0
 20
0.0
 10
58.50708095729999
 20
0.0
 10
58.50708095729999
 20
18.8089703939288
 42
0.4143411275340064
 10
58.00686319977761
 20
19.30897034651047
 10
33.97066549939998
 20
19.29850221980007
 10
29.04894895340001
 20
19.2911435699001
 10
24.12842712469998
 20
19.27764398520001
 10
24.01612369299998
 20
19.27409924090011
 10
23.9045049556
 20
19.26429339210017
 10
23.79338860719999
 20
19.24819517980005
 10
23.68332156410001
 20
19.22589838090004
 10
23.5746836682
 20
19.19744724890005
 10
23.46779383719999
 20
19.16295909410007
 10
23.36299210090001
 20
19.12251496790007
 10
23.2605949636
 20
19.07626790080007
 10
23.1609326298
 20
19.02433544450014
 10
23.06430402909999
 20
18.96690508749998
 10
22.97101893189998
 20
18.90412331000003
 10
22.88137501939998
 20
18.83623068930001
 10
22.79582334679998
 20
18.76355280470011
 10
22.71421356229999
 20
18.68598112990001
 10
22.0866842178
 20
18.05493185030012
 10
21.4682534733
 20
17.43265137520006
 10
20.8589044574
 20
16.81913608890011
 10
20.25868778429999
 20
16.21439683860011
 10
19.6676540682
 20
15.61844447130011
 10
19.43960870104173
 20
15.3883213540671
 42
-0.2000912087867966
 10
17.30869028488617
 20
14.5
  0
LINE
  5
1845
330
1F
100
AcDbEntity
  8
SK4
100
AcDbLine
 10
4.999999999859511
 20
0.0
 30
0.0
 11
59.09950634597757
 21
15.54240219025041
 31
0.0
  0
TEXT
  5
1846
330
1F
100
AcDbEntity
  8
6
100
AcDbText
 10
-13.5483024301167
 20
-44.5183833939011
 30
0.0
 40
5.0
  1
15C1J040060X8R01
 41
0.8
100
AcDbText
  0
DIMENSION
  5
1847
330
1F
100
AcDbEntity
  8
2
100
AcDbDimension
  2
*D7
 10
20.00000000000001
 20
32.02398752576664
 30
0.0
 11
39.12575255395754
 21
32.02398752576664
 31
0.0
 70
   160
  3
ISO-25
100
AcDbAlignedDimension
 13
59.99999999999997
 23
0.0
 33
0.0
 14
20.0
 24
0.0000000000500222
 34
0.0
 50
180.0
100
AcDbRotatedDimension
  0
LINE
  5
1848
330
1F
100
AcDbEntity
  8
1
100
AcDbLine
 10
17.0
 20
-14.04805186149997
 30
0.0
 11
17.0
 21
1.429370261800044
 31
0.0
  0
LINE
  5
1849
330
1F
100
AcDbEntity
  8
1
100
AcDbLine
 10
6.0
 20
-14.04805186149997
 30
0.0
 11
6.0
 21
1.429370261800044
 31
0.0
  0
LINE
  5
184A
330
1F
100
AcDbEntity
  8
1
100
AcDbLine
 10
19.0857864376
 20
3.510503601100026
 30
0.0
 11
19.0857864376
 21
-15.03127537140005
 31
0.0
  0
LINE
  5
184B
330
1F
100
AcDbEntity
  8
1
100
AcDbLine
 10
17.67157287519999
 20
-14.43416396569999
 30
0.0
 11
17.67157287519999
 21
3.903325684600075
 31
0.0
  0
LINE
  5
184C
330
1F
100
AcDbEntity
  8
SK1
100
AcDbLine
 10
-2.0
 20
8.5
 30
0.0
 11
-2.0
 21
-8.5
 31
0.0
  0
LINE
  5
184D
330
1F
100
AcDbEntity
  8
SK1
100
AcDbLine
 10
-5.599999999999994
 20
8.5
 30
0.0
 11
-5.599999999999994
 21
-8.5
 31
0.0
  0
LINE
  5
184E
330
1F
100
AcDbEntity
  8
SK1
100
AcDbLine
 10
-6.0
 20
8.269059892400035
 30
0.0
 11
-6.0
 21
-8.269059892299992
 31
0.0
  0
LINE
  5
184F
330
1F
100
AcDbEntity
  8
SK1
100
AcDbLine
 10
-10.7
 20
8.0
 30
0.0
 11
-10.7
 21
-8.0
 31
0.0
  0
LINE
  5
1850
330
1F
100
AcDbEntity
  8
1
100
AcDbLine
 10
0.500000002200011
 20
14.5
 30
0.0
 11
0.5000000021999825
 21
-14.5
 31
0.0
  0
LINE
  5
1851
330
1F
100
AcDbEntity
  8
1
100
AcDbLine
 10
0.0000000000000284
 20
13.99999999789997
 30
0.0
 11
0.0
 21
-13.99999999789997
 31
0.0
  0
LINE
  5
1852
330
1F
100
AcDbEntity
  8
SK1
100
AcDbLine
 10
-22.5
 20
8.0
 30
0.0
 11
-22.5
 21
-8.0
 31
0.0
  0
LINE
  5
1853
330
1F
100
AcDbEntity
  8
SK1
100
AcDbLine
 10
-24.0
 20
6.499707940399956
 30
0.0
 11
-24.0
 21
-6.499707940300027
 31
0.0
  0
LINE
  5
1854
330
1F
100
AcDbEntity
  8
SK1
100
AcDbLine
 10
-2.0
 20
-8.5
 30
0.0
 11
-5.599999999999994
 21
-8.5
 31
0.0
  0
LINE
  5
1855
330
1F
100
AcDbEntity
  8
SK1
100
AcDbLine
 10
-10.7
 20
-8.0
 30
0.0
 11
-22.5
 21
-8.0
 31
0.0
  0
LINE
  5
1856
330
1F
100
AcDbEntity
  8
SK1
100
AcDbLine
 10
-22.5
 20
-8.0
 30
0.0
 11
-24.0
 21
-6.5
 31
0.0
  0
LINE
  5
1857
330
1F
100
AcDbEntity
  8
SK1
100
AcDbLine
 10
-7.0
 20
-6.674999999999953
 30
0.0
 11
-8.960786437700024
 21
-6.674999999999953
 31
0.0
  0
LINE
  5
1858
330
1F
100
AcDbEntity
  8
SK1
100
AcDbLine
 10
-9.667893218800003
 20
-6.967893218800099
 30
0.0
 11
-10.7
 21
-8.0
 31
0.0
  0
ARC
  5
1859
330
1F
100
AcDbEntity
  8
SK1
100
AcDbCircle
 10
-8.960786437700008
 20
-7.674999999999953
 30
0.0
 40
1.0
100
AcDbArc
 50
90.0
 51
134.9999999999996
  0
ARC
  5
185A
330
1F
100
AcDbEntity
  8
SK1
100
AcDbCircle
 10
-6.999999999999985
 20
-7.674999999999953
 30
0.0
 40
1.0
100
AcDbArc
 50
0.0
 51
90.0
  0
LINE
  5
185B
330
1F
100
AcDbEntity
  8
SK1
100
AcDbLine
 10
-5.599999999999994
 20
-8.5
 30
0.0
 11
-6.0
 21
-8.269059892299992
 31
0.0
  0
LWPOLYLINE
  5
185C
330
1F
100
AcDbEntity
  8
1
100
AcDbPolyline
 90
       12
 70
     0
 43
0.0
 10
7.521481375699977
 20
-14.49999175710002
 10
7.855210592999982
 20
-14.49794483310006
 10
8.354727867199981
 20
-14.48963210579995
 10
8.869159627899987
 20
-14.47693859640003
 10
9.399236648099986
 20
-14.46173379890001
 10
9.942572633099983
 20
-14.44578113550004
 10
10.49793288999998
 20
-14.43061694769994
 10
11.06259338559999
 20
-14.41752832190002
 10
11.63415343809998
 20
-14.40758236560009
 10
12.21040830099997
 20
-14.40147417670003
 10
12.78797737859997
 20
-14.39964897530011
 10
13.36798753619999
 20
-14.40221622569993
  0
LINE
  5
185D
330
1F
100
AcDbEntity
  8
1
100
AcDbLine
 10
17.0
 20
-14.04805186149997
 30
0.0
 11
6.0
 21
-14.04805186149997
 31
0.0
  0
LINE
  5
185E
330
1F
100
AcDbEntity
  8
1
100
AcDbLine
 10
7.528989300799992
 20
-14.5
 30
0.0
 11
0.5000000021999825
 21
-14.5
 31
0.0
  0
ARC
  5
185F
330
1F
100
AcDbEntity
  8
SK1
100
AcDbCircle
 10
-0.2999999999999971
 20
-8.700000000000045
 30
0.0
 40
0.4
100
AcDbArc
 50
41.40962210930153
 51
90.0
  0
LINE
  5
1860
330
1F
100
AcDbEntity
  8
SK1
100
AcDbLine
 10
-1.304456457500009
 20
-8.313629669399913
 30
0.0
 11
-1.200928839500021
 21
-8.299999999999952
 31
0.0
  0
LINE
  5
1861
330
1F
100
AcDbEntity
  8
SK1
100
AcDbLine
 10
-0.3000000000000114
 20
-8.299999999999952
 30
0.0
 11
-1.200928839500021
 21
-8.299999999999952
 31
0.0
  0
LINE
  5
1862
330
1F
100
AcDbEntity
  8
1
100
AcDbLine
 10
-0.0000027036000176
 20
-14.00000270149996
 30
0.0
 11
0.4999972019999747
 21
-14.50000280009999
 31
0.0
  0
LINE
  5
1863
330
1F
100
AcDbEntity
  8
SK1
100
AcDbLine
 10
-1.304456457500009
 20
-8.313629669399913
 30
0.0
 11
-2.0
 21
-8.5
 31
0.0
  0
LWPOLYLINE
  5
1864
330
1F
100
AcDbEntity
  8
1
100
AcDbPolyline
 90
        7
 70
     0
 43
0.0
 10
17.67157287519999
 20
-14.43416396569999
 10
16.9533389741
 20
-14.4292733446
 10
16.23549231299998
 20
-14.42420906920006
 10
15.5180296451
 20
-14.41897106739998
 10
14.80096071119999
 20
-14.41355955590006
 10
14.08429525229998
 20
-14.40797475179999
 10
13.3680300215
 20
-14.40221658259997
  0
LWPOLYLINE
  5
1865
330
1F
100
AcDbEntity
  8
1
100
AcDbPolyline
 90
       15
 70
     0
 43
0.0
 10
17.67157287519999
 20
-14.43416396569999
 10
17.78401355090001
 20
-14.43809890269994
 10
17.8957500959
 20
-14.44831400409998
 10
18.00696763849997
 20
-14.46484434019998
 10
18.11711079349998
 20
-14.48758469950007
 10
18.22579207260001
 20
-14.51648366440007
 10
18.3326929139
 20
-14.55141492289999
 10
18.43746778510001
 20
-14.59228725360003
 10
18.5398101092
 20
-14.63894396740011
 10
18.63939294619999
 20
-14.6912587493
 10
18.73593185279998
 20
-14.74904925530006
 10
18.8291292856
 20
-14.81216754939998
 10
18.91869760449998
 20
-14.88038409240004
 10
19.00420163589999
 20
-14.95338517670005
 10
19.0857864376
 20
-15.03127537140005
  0
LINE
  5
1866
330
1F
100
AcDbEntity
  8
SK3
100
AcDbLine
 10
-22.50000000000003
 20
2.999999999999771
 30
0.0
 11
18.99999999999996
 21
2.999999999999771
 31
0.0
  0
LINE
  5
1867
330
1F
100
AcDbEntity
  8
SK3
100
AcDbLine
 10
-22.50000000000003
 20
-3.000000000000226
 30
0.0
 11
18.99999999999996
 21
-3.000000000000226
 31
0.0
  0
LINE
  5
1868
330
1F
100
AcDbEntity
  8
SK1
100
AcDbLine
 10
-2.0
 20
8.5
 30
0.0
 11
-5.599999999999994
 21
8.5
 31
0.0
  0
INSERT
  5
1869
330
1F
100
AcDbEntity
  8
1
100
AcDbBlockReference
  2
A$C6E7E3E58
 10
-0.0000000000000284
 20
0.0
 30
0.0
  0
LINE
  5
186A
330
1F
100
AcDbEntity
  8
SK1
100
AcDbLine
 10
-10.7
 20
8.0
 30
0.0
 11
-22.5
 21
8.0
 31
0.0
  0
LINE
  5
186B
330
1F
100
AcDbEntity
  8
SK1
100
AcDbLine
 10
-22.5
 20
8.0
 30
0.0
 11
-24.0
 21
6.5
 31
0.0
  0
ARC
  5
186C
330
1F
100
AcDbEntity
  8
SK3
100
AcDbCircle
 10
-22.50000000000003
 20
4.999999999999771
 30
0.0
 40
2.0
100
AcDbArc
 50
221.4096221093035
 51
270.0
  0
ARC
  5
186D
330
1F
100
AcDbEntity
  8
SK3
100
AcDbCircle
 10
-22.50000000000003
 20
-5.000000000000226
 30
0.0
 40
2.0
100
AcDbArc
 50
90.0
 51
138.5903778906964
  0
ARC
  5
186E
330
1F
100
AcDbEntity
  8
SK1
100
AcDbCircle
 10
-6.999999999999985
 20
7.674999999999953
 30
0.0
 40
1.0
100
AcDbArc
 50
270.0
 51
0.0
  0
LINE
  5
186F
330
1F
100
AcDbEntity
  8
SK1
100
AcDbLine
 10
-9.667893218800003
 20
6.96789321890003
 30
0.0
 11
-10.7
 21
8.0
 31
0.0
  0
LINE
  5
1870
330
1F
100
AcDbEntity
  8
SK1
100
AcDbLine
 10
-7.0
 20
6.674999999999953
 30
0.0
 11
-8.960786437700024
 21
6.674999999999953
 31
0.0
  0
ARC
  5
1871
330
1F
100
AcDbEntity
  8
SK1
100
AcDbCircle
 10
-8.960786437700008
 20
7.674999999999953
 30
0.0
 40
1.0
100
AcDbArc
 50
225.0000000000003
 51
270.0
  0
LINE
  5
1872
330
1F
100
AcDbEntity
  8
SK1
100
AcDbLine
 10
-5.599999999999994
 20
8.5
 30
0.0
 11
-6.0
 21
8.269059892400035
 31
0.0
  0
LWPOLYLINE
  5
1873
330
1F
100
AcDbEntity
  8
1
100
AcDbPolyline
 90
        5
 70
     0
 43
0.0
 10
7.745087522599987
 20
5.280081531299969
 10
8.250666480199981
 20
5.093753745200046
 10
8.768345597199981
 20
4.939701698800035
 10
9.296831251799973
 20
4.817901340700018
 10
9.550168083299979
 20
4.771807956800103
  0
LWPOLYLINE
  5
1874
330
1F
100
AcDbEntity
  8
1
100
AcDbPolyline
 90
       13
 70
     0
 43
0.0
 10
7.182894841500027
 20
14.49999304189998
 10
7.367785729399996
 20
14.49915980219998
 10
7.85182107570003
 20
14.49155197510003
 10
8.351117813800016
 20
14.47797329679997
 10
8.865863665999993
 20
14.46058467119996
 10
9.396186111100007
 20
14.4412703424
 10
9.939866097800004
 20
14.42181076039992
 10
10.49564385730001
 20
14.40376190270001
 10
11.0607690209
 20
14.38842416479997
 10
11.63281398260002
 20
14.3768843025
 10
12.20955068540001
 20
14.36983725219988
 10
12.78756221250002
 20
14.36773414420008
 10
13.36798753620001
 20
14.37068309159997
  0
LWPOLYLINE
  5
1875
330
1F
100
AcDbEntity
  8
1
100
AcDbPolyline
 90
        7
 70
     0
 43
0.0
 10
11.77153361889998
 20
3.903325684600075
 10
11.07804871389997
 20
3.936883979799971
 10
10.38606761259998
 20
4.050013590599974
 10
9.688596172799977
 20
4.242101102899937
 10
9.006616821400001
 20
4.512253112699909
 10
8.361111985399986
 20
4.859018913699968
 10
7.745087522599987
 20
5.280081531299969
  0
LINE
  5
1876
330
1F
100
AcDbEntity
  8
1
100
AcDbLine
 10
17.0
 20
1.429370261800044
 30
0.0
 11
6.0
 21
1.429370261800044
 31
0.0
  0
LWPOLYLINE
  5
1877
330
1F
100
AcDbEntity
  8
1
100
AcDbPolyline
 90
       23
 70
     0
 43
0.0
 10
7.745087522599987
 20
5.280081531299969
 10
7.317468495999975
 20
5.473873522000075
 10
6.910314820699994
 20
5.688155622799967
 10
6.523687128399983
 20
5.922644361399988
 10
6.157403523999987
 20
6.176148021800031
 10
5.811202047699993
 20
6.447425592400008
 10
5.485383524299976
 20
6.735900696500036
 10
5.180138430599981
 20
7.040304271100013
 10
4.895535850499981
 20
7.360871193699948
 10
4.631235423299982
 20
7.697457128100039
 10
4.388655960999982
 20
8.048910295099972
 10
4.168680156299983
 20
8.414320889199983
 10
3.972576007099973
 20
8.791708876199891
 10
3.801639582399984
 20
9.179523254600098
 10
3.656669360299986
 20
9.57450080679996
 10
3.538997189299976
 20
9.974236502800069
 10
3.448319027299987
 20
10.37403548240001
 10
3.385388762899991
 20
10.76977268259997
 10
3.348364451700006
 20
11.15802297649997
 10
3.336598846799971
 20
11.53600396189994
 10
3.347261743799974
 20
11.89864221879997
 10
3.376926444799976
 20
12.24094767010001
 10
3.426735182499982
 20
12.56314659760005
  0
LINE
  5
1878
330
1F
100
AcDbEntity
  8
1
100
AcDbLine
 10
7.190663703700009
 20
14.5
 30
0.0
 11
0.500000002200011
 21
14.5
 31
0.0
  0
ARC
  5
1879
330
1F
100
AcDbEntity
  8
SK1
100
AcDbCircle
 10
-0.2999999999999971
 20
8.700000000000045
 30
0.0
 40
0.4
100
AcDbArc
 50
270.0
 51
318.5903778906985
  0
LINE
  5
187A
330
1F
100
AcDbEntity
  8
1
100
AcDbLine
 10
-0.0000027035999892
 20
14.00000270160001
 30
0.0
 11
0.4999972020000031
 21
14.50000280020002
 31
0.0
  0
LINE
  5
187B
330
1F
100
AcDbEntity
  8
SK1
100
AcDbLine
 10
-0.3000000000000114
 20
8.299999999999952
 30
0.0
 11
-1.200928839500021
 21
8.299999999999952
 31
0.0
  0
LINE
  5
187C
330
1F
100
AcDbEntity
  8
SK1
100
AcDbLine
 10
-1.304456457500009
 20
8.31362966949996
 30
0.0
 11
-1.200928839500021
 21
8.299999999999952
 31
0.0
  0
LINE
  5
187D
330
1F
100
AcDbEntity
  8
SK1
100
AcDbLine
 10
-1.304456457500009
 20
8.31362966949996
 30
0.0
 11
-2.0
 21
8.5
 31
0.0
  0
LWPOLYLINE
  5
187E
330
1F
100
AcDbEntity
  8
1
100
AcDbPolyline
 90
        7
 70
     0
 43
0.0
 10
3.426735182499982
 20
12.56314659760005
 10
3.446185676599981
 20
12.66515100250001
 10
3.4672617242
 20
12.7655409893
 10
3.49000024
 20
12.86422804109997
 10
3.51429047969998
 20
12.96108514249999
 10
3.540021698699973
 20
13.05598708889998
 10
3.567230811799987
 20
13.14884454210005
  0
LWPOLYLINE
  5
187F
330
1F
100
AcDbEntity
  8
1
100
AcDbPolyline
 90
       14
 70
     0
 43
0.0
 10
3.567230811799987
 20
13.14884454210005
 10
3.661979774000001
 20
13.3837612725
 10
3.791469743999981
 20
13.59276507410004
 10
3.956256108100006
 20
13.77693974249996
 10
4.154672707500026
 20
13.93721503489996
 10
4.384996587100005
 20
14.07458884869993
 10
4.647953521600014
 20
14.1904008504
 10
4.943639934000032
 20
14.2860319115
 10
5.272220924200012
 20
14.36223460280007
 10
5.63490928020002
 20
14.42031200149994
 10
6.028658360500003
 20
14.4612001465
 10
6.452911703700009
 20
14.48655242380004
 10
6.901411557200018
 20
14.49838291529998
 10
7.182894841500027
 20
14.49999304189998
  0
LINE
  5
1880
330
1F
100
AcDbEntity
  8
1
100
AcDbLine
 10
17.67157287519999
 20
3.903325684600075
 30
0.0
 11
11.77153361889998
 21
3.903325684600075
 31
0.0
  0
LWPOLYLINE
  5
1881
330
1F
100
AcDbEntity
  8
1
100
AcDbPolyline
 90
        5
 70
     0
 43
0.0
 10
11.86527501929998
 20
4.655676673899961
 10
11.62913629479999
 20
4.655780936599966
 10
11.39044058619997
 20
4.65610942289993
 10
11.14918789369996
 20
4.656662132900008
 10
10.90537821729998
 20
4.657439066500045
  0
LWPOLYLINE
  5
1882
330
1F
100
AcDbEntity
  8
1
100
AcDbPolyline
 90
        4
 70
     0
 43
0.0
 10
9.550168083299979
 20
4.771807956800103
 10
9.83167359219999
 20
4.729935709599999
 10
10.36829642939997
 20
4.676748674600047
 10
10.90537821729998
 20
4.657439066500045
  0
LWPOLYLINE
  5
1883
330
1F
100
AcDbEntity
  8
1
100
AcDbPolyline
 90
        9
 70
     0
 43
0.0
 10
19.0857864376
 20
3.510503601100026
 10
18.93396490549999
 20
3.601040887999943
 10
18.77203179989999
 20
3.680324493499938
 10
18.59899025509999
 20
3.74865688549994
 10
18.41783086849998
 20
3.805130660000031
 10
18.2293171628
 20
3.848954329299998
 10
18.0391334959
 20
3.880082611800048
 10
17.85396109160001
 20
3.898167757999998
 10
17.67157287519999
 20
3.903325684600075
  0
LWPOLYLINE
  5
1884
330
1F
100
AcDbEntity
  8
1
100
AcDbPolyline
 90
        7
 70
     0
 43
0.0
 10
17.67157287519999
 20
14.40787802329998
 10
16.95333897410002
 20
14.40211162069999
 10
16.23549231300001
 20
14.39617206299999
 10
15.51802964510001
 20
14.39005927380003
 10
14.80096071120001
 20
14.38377348199991
 10
14.08429525230002
 20
14.37731491630006
 10
13.36803002150003
 20
14.37068350039998
  0
LWPOLYLINE
  5
1885
330
1F
100
AcDbEntity
  8
1
100
AcDbPolyline
 90
       15
 70
     0
 43
0.0
 10
17.67157287519999
 20
14.40787802329998
 10
17.7840135622
 20
14.41194958310006
 10
17.8957501209
 20
14.42229949340003
 10
18.00696768119999
 20
14.43896304569999
 10
18.11711085349998
 20
14.46183436559999
 10
18.22579214609999
 20
14.49086157049998
 10
18.3326929957
 20
14.52591797700006
 10
18.43746786639998
 20
14.56691195400003
 10
18.5398101834
 20
14.61368646150003
 10
18.6393930064
 20
14.6661148027
 10
18.73593189590001
 20
14.72401431610001
 10
18.82912931160001
 20
14.78723672520003
 10
18.91869761590001
 20
14.8555521777
 10
19.004201639
 20
14.92864648609996
 10
19.0857864376
 20
15.00662437970003
  0
LWPOLYLINE
  5
1886
330
1F
100
AcDbEntity
  8
1
100
AcDbPolyline
 90
       11
 70
     0
 43
0.0
 10
58.00708095730001
 20
-10.42465162229996
 10
57.85680625510001
 20
-9.392088971199996
 10
57.71173479609998
 20
-8.328533608899986
 10
57.57162249709999
 20
-7.231918002400107
 10
57.43720160789999
 20
-6.108444750699958
 10
57.30896966109999
 20
-4.962061626700005
 10
57.18738672439999
 20
-3.797465576400098
 10
57.07294913209999
 20
-2.619088737900028
 10
56.9660456165
 20
-1.431673308400035
 10
56.8672996265
 20
-0.2422163114000568
 10
56.7765033457
 20
0.9516145940999647
  0
LINE
  5
1887
330
1F
100
AcDbEntity
  8
1
100
AcDbLine
 10
58.50708095729999
 20
5.661866977700014
 30
0.0
 11
58.50708095729999
 21
-18.08487805109995
 31
0.0
  0
LINE
  5
1888
330
1F
100
AcDbEntity
  8
1
100
AcDbLine
 10
24.12842712469998
 20
0.9516145940999647
 30
0.0
 11
24.12842712469998
 21
-19.27764398520001
 31
0.0
  0
LINE
  5
1889
330
1F
100
AcDbEntity
  8
1
100
AcDbLine
 10
22.71421356229999
 20
-18.68598112990001
 30
0.0
 11
22.71421356229999
 21
1.288775278899946
 31
0.0
  0
LINE
  5
188A
330
1F
100
AcDbEntity
  8
1
100
AcDbLine
 10
43.86434965869998
 20
-19.29999999999995
 30
0.0
 11
37.4089945813
 21
-19.29999999999995
 31
0.0
  0
LWPOLYLINE
  5
188B
330
1F
100
AcDbEntity
  8
1
100
AcDbPolyline
 90
        4
 70
     0
 43
0.0
 10
37.4084515782
 20
-19.29999942749997
 10
33.97066549939998
 20
-19.29850221979995
 10
29.04894895340001
 20
-19.29114356989997
 10
24.12842712469998
 20
-19.27764398520001
  0
LWPOLYLINE
  5
188C
330
1F
100
AcDbEntity
  8
1
100
AcDbPolyline
 90
       15
 70
     0
 43
0.0
 10
22.71421356229999
 20
-18.68598112990001
 10
22.79582334679998
 20
-18.76355280469998
 10
22.88137501939998
 20
-18.83623068930001
 10
22.97101893189998
 20
-18.90412330999993
 10
23.06430402909999
 20
-18.96690508749998
 10
23.1609326298
 20
-19.02433544450001
 10
23.2605949636
 20
-19.07626790080007
 10
23.36299210090001
 20
-19.12251496789996
 10
23.46779383719999
 20
-19.16295909409996
 10
23.5746836682
 20
-19.19744724890005
 10
23.68332156410001
 20
-19.22589838089993
 10
23.79338860719999
 20
-19.24819517979995
 10
23.9045049556
 20
-19.26429339210005
 10
24.01612369299998
 20
-19.2740992409
 10
24.12842712469998
 20
-19.27764398520001
  0
LINE
  5
188D
330
1F
100
AcDbEntity
  8
1
100
AcDbLine
 10
58.50708095729999
 20
-18.08487805109995
 30
0.0
 11
48.56087736760001
 21
-18.08487805109995
 31
0.0
  0
LINE
  5
188E
330
1F
100
AcDbEntity
  8
1
100
AcDbLine
 10
46.98401062179999
 20
-19.93487805109998
 30
0.0
 11
58.75082379010001
 21
-19.93487805109998
 31
0.0
  0
LWPOLYLINE
  5
188F
330
1F
100
AcDbEntity
  8
1
100
AcDbPolyline
 90
       17
 70
     0
 43
0.0
 10
45.73483408129999
 20
-18.68265150659999
 10
45.74102566519999
 20
-18.80740932219998
 10
45.75895475000002
 20
-18.92937680499994
 10
45.78881427760001
 20
-19.04908431180001
 10
45.8300254217
 20
-19.16494077219998
 10
45.88228654709999
 20
-19.27583120250005
 10
45.94495902219999
 20
-19.38085769890006
 10
46.0175610358
 20
-19.47900777580002
 10
46.09932049080001
 20
-19.56951019539996
 10
46.18960288660001
 20
-19.65146813099999
 10
46.2875136211
 20
-19.7242458636
 10
46.3922831296
 20
-19.78706964189996
 10
46.50290179869998
 20
-19.83945673549998
 10
46.6184741169
 20
-19.8807673153999
 10
46.73788821400001
 20
-19.91069892680002
 10
46.85955741879999
 20
-19.92867137229994
 10
46.98401062179999
 20
-19.93487805109998
  0
LINE
  5
1890
330
1F
100
AcDbEntity
  8
1
100
AcDbLine
 10
45.73483408129999
 20
-18.56224063600007
 30
0.0
 11
45.73483408129999
 21
-18.68265150659999
 31
0.0
  0
LWPOLYLINE
  5
1891
330
1F
100
AcDbEntity
  8
1
100
AcDbPolyline
 90
       17
 70
     0
 43
0.0
 10
43.84616445369998
 20
-19.29998746960007
 10
43.8832137285
 20
-19.29508969300002
 10
43.99576357420001
 20
-19.25875162460011
 10
44.15812140369999
 20
-19.19319954280001
 10
44.36191984819999
 20
-19.10514848770003
 10
44.6008068784
 20
-19.00049815040006
 10
44.87152559920001
 20
-18.88521871109992
 10
45.1690847417
 20
-18.76498322090003
 10
45.4923353986
 20
-18.64424354309994
 10
45.84019805439999
 20
-18.52661094929999
 10
46.2074732656
 20
-18.41670075470005
 10
46.5900401984
 20
-18.31870967660005
 10
46.98358350809999
 20
-18.23534036850003
 10
47.3851682782
 20
-18.16921756040004
 10
47.78653239019999
 20
-18.12158947850002
 10
48.177280367
 20
-18.09319276490009
 10
48.56087736760001
 20
-18.08487805109995
  0
LINE
  5
1892
330
1F
100
AcDbEntity
  8
1
100
AcDbLine
 10
60.0
 20
-18.68265115050007
 30
0.0
 11
60.0
 21
-6.887104601700003
 31
0.0
  0
LWPOLYLINE
  5
1893
330
1F
100
AcDbEntity
  8
1
100
AcDbPolyline
 90
       17
 70
     0
 43
0.0
 10
58.75082379010001
 20
-19.93487805109998
 10
58.8752777112
 20
-19.92867134900007
 10
58.9969480933
 20
-19.91069848429992
 10
59.1163640006
 20
-19.88076604360003
 10
59.23193824080001
 20
-19.83945426670003
 10
59.34255854869999
 20
-19.78706552549998
 10
59.44732920689999
 20
-19.72424001090007
 10
59.54524019619999
 20
-19.65146071069989
 10
59.6355221575
 20
-19.56950160740007
 10
59.71728044869998
 20
-19.47899875100006
 10
59.7898808992
 20
-19.38084892819994
 10
59.8525516427
 20
-19.27582358280005
 10
59.9048111247
 20
-19.16493479359997
 10
59.9460210746
 20
-19.04908025880001
 10
59.9758797745
 20
-18.92937456410004
 10
59.9938084402
 20
-18.80740825530006
 10
60.0
 20
-18.68265115050007
  0
LWPOLYLINE
  5
1894
330
1F
100
AcDbEntity
  8
1
100
AcDbPolyline
 90
       17
 70
     0
 43
0.0
 10
60.0
 20
-6.887104601700003
 10
59.99380841629999
 20
-6.762346783999987
 10
59.9758793318
 20
-6.640379299800088
 10
59.9460198043
 20
-6.520671792399981
 10
59.90480866039999
 20
-6.404815331999996
 10
59.8525475351
 20
-6.293924901499963
 10
59.7898750601
 20
-6.188898404800056
 10
59.7172730465
 20
-6.090748327600067
 10
59.63551359149999
 20
-6.000245907800035
 10
59.54523119560001
 20
-5.91828797200003
 10
59.44732046110001
 20
-5.845510239200053
 10
59.34255095250001
 20
-5.782686460700005
 10
59.23193228329999
 20
-5.730299366899997
 10
59.1163599648
 20
-5.688988786899925
 10
58.9969458676
 20
-5.659057175500037
 10
58.87527666289999
 20
-5.641084729900057
 10
58.75082346020001
 20
-5.634878051100031
  0
LINE
  5
1895
330
1F
100
AcDbEntity
  8
1
100
AcDbLine
 10
58.75082346020001
 20
-5.634878051100031
 30
0.0
 11
58.50708095729999
 21
-5.634878051100031
 31
0.0
  0
LWPOLYLINE
  5
1896
330
1F
100
AcDbEntity
  8
1
100
AcDbPolyline
 90
       57
 70
     0
 43
0.0
 10
58.50708095729999
 20
-12.99445034130008
 10
58.50620121319999
 20
-13.01231479529997
 10
58.5044019208
 20
-13.02338540089999
 10
58.50157779459999
 20
-13.02700194420002
 10
58.4980446919
 20
-13.02514506710007
 10
58.49405469269999
 20
-13.01938741270009
 10
58.48969384390001
 20
-13.01029276229996
 10
58.4851493341
 20
-12.99894056130006
 10
58.4803698181
 20
-12.98535646009997
 10
58.47536013000001
 20
-12.96989341999994
 10
58.47013892070001
 20
-12.95264895490003
 10
58.46472421849999
 20
-12.93381728839994
 10
58.45912272559999
 20
-12.9134612532
 10
58.45334500639999
 20
-12.89169177179997
 10
58.4473975022
 20
-12.8685587983
 10
58.441287354
 20
-12.84413200020003
 10
58.43502302730001
 20
-12.81846315990002
 10
58.42861154770001
 20
-12.79160645980005
 10
58.42206437569999
 20
-12.76362436730005
 10
58.41539048429999
 20
-12.73457183489995
 10
58.4086043616
 20
-12.70452558880003
 10
58.4017178881
 20
-12.6735506932
 10
58.39474785920001
 20
-12.64173708589999
 10
58.3877087902
 20
-12.6091621846001
 10
58.38061940269999
 20
-12.57592861300008
 10
58.37349977279999
 20
-12.54214284010003
 10
58.36636035240001
 20
-12.50787074740002
 10
58.3592328717
 20
-12.47328241690002
 10
58.35207357129998
 20
-12.43817171600005
 10
58.3448628405
 20
-12.40245953060002
 10
58.3375599637
 20
-12.36593488790004
 10
58.33012909699998
 20
-12.3284248699
 10
58.32253601529999
 20
-12.289736198
 10
58.3147458065
 20
-12.24968598350005
 10
58.306724687
 20
-12.20807013759997
 10
58.2984383962
 20
-12.16469568579998
 10
58.28985345250001
 20
-12.11934639710011
 10
58.2809359203
 20
-12.07181771620003
 10
58.27165290029999
 20
-12.02188164130006
 10
58.2619709014
 20
-11.96932211700003
 10
58.25185776330001
 20
-11.91389874829997
 10
58.24128056140001
 20
-11.8553835875
 10
58.2302080971
 20
-11.79352323750003
 10
58.21860817510001
 20
-11.72807728020005
 10
58.20645086109999
 20
-11.65877883159998
 10
58.19370490899999
 20
-11.58537438239999
 10
58.180342059
 20
-11.50758339060007
 10
58.16633231319999
 20
-11.42513875040003
 10
58.1516496405
 20
-11.33774664439999
 10
58.1362656978
 20
-11.2451261717
 10
58.12015742359999
 20
-11.14697147790001
 10
58.1032986803
 20
-11.04298821810004
 10
58.08567035229999
 20
-10.93286096280007
 10
58.06724924449999
 20
-10.81628312880001
 10
58.0480214581
 20
-10.69293383290005
 10
58.02796265849997
 20
-10.56233711260005
 10
58.00708095730001
 20
-10.42465162229996
  0
LINE
  5
1897
330
1F
100
AcDbEntity
  8
1
100
AcDbLine
 10
43.81768274359999
 20
19.29967895610002
 30
0.0
 11
42.2255041229
 21
19.29999905859994
 31
0.0
  0
LINE
  5
1898
330
1F
100
AcDbEntity
  8
1
100
AcDbLine
 10
56.7765033457
 20
0.9516145940999647
 30
0.0
 11
24.12842712469998
 21
0.9516145940999647
 31
0.0
  0
LWPOLYLINE
  5
1899
330
1F
100
AcDbEntity
  8
1
100
AcDbPolyline
 90
       15
 70
     0
 43
0.0
 10
22.71421356229999
 20
18.66520160920003
 10
22.795823345
 20
18.74286106349996
 10
22.8813750142
 20
18.81563228300001
 10
22.9710189212
 20
18.88362396060005
 10
23.06430401209998
 20
18.9465100171999
 10
23.16093260649998
 20
19.0040495497999
 10
23.26059493500001
 20
19.05609572260003
 10
23.3629920697
 20
19.10246071139998
 10
23.46779380590001
 20
19.14302657889992
 10
23.5746836401
 20
19.17763993109996
 10
23.68332154109998
 20
19.20621931359994
 10
23.7933885907
 20
19.22864704390008
 10
23.90450494580001
 20
19.24487841149994
 10
24.01612368849999
 20
19.25481898630005
 10
24.12842712469998
 20
19.25850024500005
  0
LWPOLYLINE
  5
189A
330
1F
100
AcDbEntity
  8
1
100
AcDbPolyline
 90
        9
 70
     0
 43
0.0
 10
24.12842712469998
 20
0.9516145940999647
 10
23.94129289579999
 20
0.9563265483000121
 10
23.7536969881
 20
0.9718838116000368
 10
23.56403142859998
 20
0.9982987980999952
 10
23.37712013619998
 20
1.035534265000022
 10
23.1966242438
 20
1.083778451599981
 10
23.02442413609998
 20
1.142367325599934
 10
22.86400817099999
 20
1.210624440700029
 10
22.71421356229999
 20
1.288775278899946
  0
LWPOLYLINE
  5
189B
330
1F
100
AcDbEntity
  8
1
100
AcDbPolyline
 90
        5
 70
     0
 43
0.0
 10
42.2255041229
 20
19.29999905859994
 10
38.8935767641
 20
19.29859209050005
 10
33.97066550119999
 20
19.29136668339992
 10
29.04894895469999
 20
19.27800273489992
 10
24.12842712469998
 20
19.25850024500005
  0
LWPOLYLINE
  5
189C
330
1F
100
AcDbEntity
  8
1
100
AcDbPolyline
 90
       17
 70
     0
 43
0.0
 10
58.75082379010001
 20
19.95998647999998
 10
58.8752777112
 20
19.95393260579998
 10
58.9969480933
 20
19.93611096390008
 10
59.1163640006
 20
19.90632881609997
 10
59.23193824080001
 20
19.86516437699992
 10
59.34255854869999
 20
19.81291861479997
 10
59.44732920689999
 20
19.75023053009998
 10
59.54524019619999
 20
19.67758180420003
 10
59.6355221575
 20
19.59574536309991
 10
59.71728044869998
 20
19.50535606769994
 10
59.7898808992
 20
19.40730979449995
 10
59.8525516427
 20
19.30237692790001
 10
59.9048111247
 20
19.19156880460002
 10
59.9460210746
 20
19.07578220719995
 10
59.9758797745
 20
18.95613118359995
 10
59.9938084402
 20
18.83420533079992
 10
60.0
 20
18.70947478330004
  0
LWPOLYLINE
  5
189D
330
1F
100
AcDbEntity
  8
1
100
AcDbPolyline
 90
       17
 70
     0
 43
0.0
 10
45.73483408129999
 20
18.6920660572
 10
45.74102566519999
 20
18.8168124276999
 10
45.75895475000002
 20
18.93878321469992
 10
45.78881427760001
 20
19.05850892989996
 10
45.8300254217
 20
19.17439803849993
 10
45.88228654709999
 20
19.28533535859992
 10
45.94495902219999
 20
19.39042234390001
 10
46.0175610358
 20
19.48864607489996
 10
46.09932049080001
 20
19.57923448909991
 10
46.18960288660001
 20
19.66129012190003
 10
46.2875136211
 20
19.73417625949991
 10
46.3922831296
 20
19.79711832919997
 10
46.50290179869998
 20
19.84963244210007
 10
46.6184741169
 20
19.89107777359993
 10
46.73788821400001
 20
19.92115055809994
 10
46.85955741879999
 20
19.93926875039994
 10
46.98401062179999
 20
19.94562636549994
  0
LWPOLYLINE
  5
189E
330
1F
100
AcDbEntity
  8
1
100
AcDbPolyline
 90
       10
 70
     0
 43
0.0
 10
43.82255116029998
 20
19.29999963930004
 10
43.8727520044
 20
19.28738680719993
 10
43.97505814229999
 20
19.24341437420001
 10
44.1265500676
 20
19.17084891909996
 10
44.32138104929999
 20
19.07448950989998
 10
44.55568727910001
 20
18.96024645579996
 10
44.8254689
 20
18.83376244689998
 10
45.12689126439999
 20
18.70135819719996
 10
45.45559493579999
 20
18.56840693410004
 10
45.73483408129999
 20
18.4667727850001
  0
LWPOLYLINE
  5
189F
330
1F
100
AcDbEntity
  8
CUT
100
AcDbPolyline
 90
      277
 70
     1
 43
0.0
 10
51.44728500000001
 20
19.96531100000003
 10
52.25878900000001
 20
19.968523
 10
53.476045
 20
19.97364300000003
 10
54.28755000000001
 20
19.97725700000001
 10
55.099054
 20
19.98103100000003
 10
56.316311
 20
19.98699399999998
 10
57.12781500000001
 20
19.99116900000001
 10
57.93931900000001
 20
19.99550399999998
 10
58.75082400000001
 20
20.0
 10
58.78533780490001
 20
19.99966337580008
 10
58.819832
 20
19.99842699999998
 10
58.85394678549999
 20
19.99630528400007
 10
58.88799300000001
 20
19.99328000000001
 10
58.92170854099997
 20
19.98937249419998
 10
58.95530700000001
 20
19.98455999999998
 10
58.98864461529999
 20
19.97886041890001
 10
59.02181399999999
 20
19.97225300000001
 10
59.05490137060001
 20
19.96470920159993
 10
59.087771
 20
19.95626600000002
 10
59.1204119368
 20
19.94693845460005
 10
59.15279099999999
 20
19.93673899999999
 10
59.1847222088
 20
19.92573139199999
 10
59.216343
 20
19.91386199999998
 10
59.24747053549999
 20
19.90119290530003
 10
59.27823899999999
 20
19.88767500000006
 10
59.30873331229999
 20
19.87326817339998
 10
59.338825
 20
19.85803800000008
 10
59.3684644212
 20
19.84202031250004
 10
59.39766099999999
 20
19.82520899999997
 10
59.4262129697
 20
19.80772221300003
 10
59.454275
 20
19.78946000000006
 10
59.4818364459
 20
19.77041623900003
 10
59.508865
 20
19.75062300000002
 10
59.5354256585
 20
19.73004188970003
 10
59.56141999999999
 20
19.70875000000001
 10
59.58677480479999
 20
19.68681148220002
 10
59.61152199999999
 20
19.66419000000007
 10
59.63551918990001
 20
19.64101101749997
 10
59.65886999999999
 20
19.61718100000006
 10
59.68166384389999
 20
19.59260179509998
 10
59.70377899999999
 20
19.56740999999998
 10
59.72524797530001
 20
19.54157878080001
 10
59.74600999999999
 20
19.51517599999998
 10
59.7659834685
 20
19.48830419720001
 10
59.785211
 20
19.46089400000005
 10
59.80365717699999
 20
19.43298231699998
 10
59.82133100000001
 20
19.40457500000001
 10
59.8383296344
 20
19.37552388669995
 10
59.85453699999999
 20
19.34602400000004
 10
59.8699571599
 20
19.31606981419997
 10
59.884556
 20
19.285707
 10
59.89826508180001
 20
19.25506805810005
 10
59.91112699999999
 20
19.22406399999998
 10
59.92318975589999
 20
19.19256570510003
 10
59.934392
 20
19.160751
 10
59.9447870956
 20
19.12848640970003
 10
59.95431100000001
 20
19.095954
 10
59.9629500142
 20
19.06318984910001
 10
59.97069
 20
19.03020200000003
 10
59.9774929483
 20
18.99712752640003
 10
59.98338799999999
 20
18.96387900000002
 10
59.98839580550001
 20
18.93036635690008
 10
59.992498
 20
18.89673100000003
 10
59.9957185681
 20
18.86276097619997
 10
59.99803499999999
 20
18.82871699999998
 10
59.99946754909999
 20
18.79428887799996
 10
60.0
 20
18.75983600000006
 10
60.0
 20
7.093815000000062
 10
59.99946744049999
 20
7.060214769899971
 10
59.99803499999999
 20
7.026640000000043
 10
59.99571793649999
 20
6.993415673100003
 10
59.992498
 20
6.960267000000044
 10
59.9883945937
 20
6.927417840400038
 10
59.98338799999999
 20
6.894694000000073
 10
59.9774910989
 20
6.862197808800032
 10
59.97069
 20
6.829879000000004
 10
59.9629466932
 20
6.797610866399963
 10
59.95430999999999
 20
6.765570000000025
 10
59.9447825253
 20
6.733719812300022
 10
59.934391
 20
6.702140999999982
 10
59.9231838389
 20
6.670966189000067
 10
59.91112499999999
 20
6.640111000000048
 10
59.89825706779999
 20
6.609700264000024
 10
59.884553
 20
6.579656999999997
 10
59.869947225
 20
6.549843655199993
 10
59.85453299999999
 20
6.520440000000008
 10
59.83831785549999
 20
6.491439412799991
 10
59.82132599999999
 20
6.462887000000022
 10
59.8036436456
 20
6.434924457500073
 10
59.78520500000001
 20
6.407455000000027
 10
59.76596823600001
 20
6.380434791799983
 10
59.746003
 20
6.353948000000058
 10
59.7252312106
 20
6.327878656000052
 10
59.703771
 20
6.302372999999986
 10
59.68164629149999
 20
6.277453594899952
 10
59.65886199999999
 20
6.25313600000004
 10
59.63550104279999
 20
6.229513986699997
 10
59.611513
 20
6.206529000000045
 10
59.5867562964
 20
6.184050685600026
 10
59.56141099999999
 20
6.162238000000002
 10
59.5354075677
 20
6.141022447599993
 10
59.50885599999999
 20
6.120497
 10
59.48181888349999
 20
6.100709915700007
 10
59.45426600000001
 20
6.081647999999972
 10
59.42619640050001
 20
6.063319937299978
 10
59.397652
 20
6.045740000000022
 10
59.36845002560001
 20
6.028789737900068
 10
59.338818
 20
6.012603000000012
 10
59.3087213047
 20
5.99715970080001
 10
59.27823199999999
 20
5.982507000000055
 10
59.24746058260001
 20
5.968702234200009
 10
59.216337
 20
5.955711000000063
 10
59.18471559070001
 20
5.943477382600008
 10
59.152787
 20
5.932069000000067
 10
59.12040823529999
 20
5.9214287044
 10
59.087767
 20
5.911623000000076
 10
59.05490068729999
 20
5.902665505700043
 10
59.02181200000001
 20
5.894569000000046
 10
58.98864700609999
 20
5.887375109999991
 10
58.95530500000001
 20
5.88105100000007
 10
58.9217134243
 20
5.875577878500052
 10
58.88799200000001
 20
5.870973000000049
 10
58.85395453510001
 20
5.867213073600055
 10
58.819832
 20
5.864322000000014
 10
58.78534737250001
 20
5.862277431500046
 10
58.75082300000001
 20
5.861100000000077
 10
58.34507099999999
 20
5.853356000000076
 10
57.93931900000001
 20
5.845740999999974
 10
57.53356700000001
 20
5.838253000000007
 10
57.12781500000001
 20
5.830894000000057
 10
56.722063
 20
5.823664000000007
 10
56.31630999999999
 20
5.816562999999972
 10
55.91055800000001
 20
5.809592000000066
 10
55.504806
 20
5.802751000000057
 10
55.099054
 20
5.796041000000058
 10
54.693302
 20
5.789463000000067
 10
54.28754900000001
 20
5.783015999999975
 10
53.88179700000002
 20
5.776701000000002
 10
53.476045
 20
5.770519000000034
 10
53.070293
 20
5.764470000000073
 10
52.664541
 20
5.758554000000001
 10
52.25878900000001
 20
5.752773000000047
 10
51.85303600000001
 20
5.747124999999981
 10
51.44728400000001
 20
5.741612000000031
 10
51.041532
 20
5.736235000000077
 10
50.63578000000001
 20
5.730992000000012
 10
50.230028
 20
5.725886000000058
 10
49.82427600000001
 20
5.72091499999999
 10
49.418523
 20
5.716081000000031
 10
49.01277100000001
 20
5.711384000000066
 10
48.60701900000001
 20
5.70682499999998
 10
48.20126700000002
 20
5.702402000000005
 10
47.79551500000001
 20
5.698118000000022
 10
47.38976199999999
 20
5.693972000000029
 10
46.98401000000001
 20
5.68996400000003
 10
46.94949811359999
 20
5.690156843300087
 10
46.91500200000001
 20
5.691245999999977
 10
46.88088935990001
 20
5.693218041599947
 10
46.84684100000001
 20
5.696090000000026
 10
46.81312773820001
 20
5.699840819299992
 10
46.779527
 20
5.704494000000067
 10
46.74619173099999
 20
5.710031769999999
 10
46.71302
 20
5.716476000000056
 10
46.67993503330001
 20
5.723852798899997
 10
46.647063
 20
5.732127999999987
 10
46.6144243066
 20
5.741284407600004
 10
46.58204300000001
 20
5.751312999999981
 10
46.55011446859999
 20
5.762148664099981
 10
46.518492
 20
5.773847000000046
 10
46.4873659632
 20
5.786343772300027
 10
46.45659499999999
 20
5.799691000000052
 10
46.42610240039998
 20
5.813925549099963
 10
46.396009
 20
5.828985999999987
 10
46.36637165849999
 20
5.844832915700067
 10
46.337174
 20
5.861476000000036
 10
46.3086227606
 20
5.878795631999992
 10
46.28055900000001
 20
5.896893999999973
 10
46.25299849050001
 20
5.915774439599998
 10
46.225969
 20
5.935408000000052
 10
46.1994090997
 20
5.955829875400012
 10
46.17341399999999
 20
5.976966000000062
 10
46.1480595981
 20
5.998750635000077
 10
46.12331200000001
 20
6.021222000000078
 10
46.09931497829999
 20
6.044254631400008
 10
46.07596400000001
 20
6.067942000000016
 10
46.0531701072
 20
6.092380953900032
 10
46.031055
 20
6.117435999999997
 10
46.00958580929999
 20
6.143134597200059
 10
45.98882399999999
 20
6.169407999999974
 10
45.96885024819999
 20
6.196154868500002
 10
45.94962299999999
 20
6.223442999999973
 10
45.9311761861
 20
6.251238262300034
 10
45.91350300000001
 20
6.279532000000018
 10
45.89650440299999
 20
6.308475020800074
 10
45.88029800000001
 20
6.337869000000067
 10
45.86487688010001
 20
6.367723288799991
 10
45.850278
 20
6.397988000000053
 10
45.8365682612
 20
6.428535611900087
 10
45.82370700000001
 20
6.459450000000059
 10
45.81164371919999
 20
6.490865191100056
 10
45.80044199999999
 20
6.522598000000016
 10
45.79004639839999
 20
6.554787624600066
 10
45.78052299999999
 20
6.58724600000005
 10
45.77188361109999
 20
6.619943329600005
 10
45.76414399999999
 20
6.652865000000018
 10
45.75734075989999
 20
6.685879762000012
 10
45.751446
 20
6.71906899999999
 10
45.746437945
 20
6.752529513300032
 10
45.74233600000001
 20
6.786113
 10
45.7391152926
 20
6.820037960899981
 10
45.73679900000001
 20
6.854037000000062
 10
45.7353664341
 20
6.888425616900007
 10
45.73483399999999
 20
6.922839000000068
 10
45.73483399999999
 20
18.69585400000005
 10
45.7353665967
 20
18.73043284720005
 10
45.73679900000001
 20
18.76498700000001
 10
45.7391157009
 20
18.79917129700004
 10
45.74233600000001
 20
18.83328200000005
 10
45.74643862849997
 20
18.86707051749999
 10
45.751446
 20
18.90073700000003
 10
45.75734152689999
 20
18.93415150459998
 10
45.76414399999999
 20
18.96739300000001
 10
45.7718851658
 20
19.00056156449999
 10
45.780524
 20
19.03350799999998
 10
45.7900485417
 20
19.06623392530002
 10
45.800443
 20
19.09869400000001
 10
45.81164623490001
 20
19.13071250500001
 10
45.82370899999999
 20
19.162417
 10
45.8365719091
 20
19.19363459809994
 10
45.85028100000001
 20
19.22449000000004
 10
45.86488133359999
 20
19.25507804820005
 10
45.88030200000001
 20
19.28526099999998
 10
45.8965097169
 20
19.31499539900005
 10
45.91350799999999
 20
19.34428500000001
 10
45.9311822338
 20
19.37293474210003
 10
45.94962899999999
 20
19.40109300000004
 10
45.96885677609999
 20
19.42875340860006
 10
45.98883100000001
 20
19.45587999999998
 10
46.00959309470002
 20
19.48254130140003
 10
46.031063
 20
19.50863600000002
 10
46.0531774164
 20
19.53409270090002
 10
46.07597199999999
 20
19.558942
 10
46.09932213879999
 20
19.58304245099998
 10
46.123321
 20
19.60649699999998
 10
46.14806666439998
 20
19.62939496479998
 10
46.173423
 20
19.65161499999998
 10
46.19941559299999
 20
19.67318829190003
 10
46.22597800000001
 20
19.69405600000003
 10
46.25300446289998
 20
19.71413466340004
 10
46.280568
 20
19.73346900000001
 10
46.30862745369999
 20
19.75202002629998
 10
46.33718200000001
 20
19.76980000000003
 10
46.3663753414
 20
19.78690361400003
 10
46.396017
 20
19.80321800000001
 10
46.4261051232
 20
19.81874373089999
 10
46.456602
 20
19.83344999999997
 10
46.48736656209999
 20
19.84726333230003
 10
46.51849700000001
 20
19.86023099999998
 10
46.55011326420001
 20
19.87239795970003
 10
46.58204699999999
 20
19.88370600000006
 10
46.6144222956
 20
19.89420512239996
 10
46.64706699999999
 20
19.90383400000007
 10
46.679931716
 20
19.91257503899999
 10
46.71302200000001
 20
19.92041800000003
 10
46.74618740129999
 20
19.92732162790001
 10
46.77952900000001
 20
19.93331799999998
 10
46.81312294989999
 20
19.93842533860004
 10
46.84684200000001
 20
19.94262700000001
 10
46.88088428869999
 20
19.94594579379996
 10
46.91500300000001
 20
19.94835999999996
 10
46.94949335639999
 20
19.94988985350005
 10
46.98401099999999
 20
19.95051899999998
 10
47.389763
 20
19.95166200000005
 10
47.79551500000001
 20
19.95284600000001
 10
48.60701900000001
 20
19.95533399999998
 10
49.41852400000001
 20
19.95798300000001
 10
50.63578000000001
 20
19.96225900000001
  0
LWPOLYLINE
  5
18A0
330
1F
100
AcDbEntity
  8
1
100
AcDbPolyline
 90
       41
 70
     0
 43
0.0
 10
56.7701218957
 20
12.81180733280007
 10
56.75792268990001
 20
13.12062386210003
 10
56.72191853560001
 20
13.42563237540002
 10
56.66188871080001
 20
13.7277540819
 10
56.57849538179999
 20
14.02422535439995
 10
56.4720388886
 20
14.31315764969997
 10
56.3433839884
 20
14.59284692389997
 10
56.1931221391
 20
14.86147533609994
 10
56.02237357829999
 20
15.1174957339
 10
55.83200631819999
 20
15.35920573980001
 10
55.623368493
 20
15.58525318950001
 10
55.3975832959
 20
15.79409308649997
 10
55.156193562
 20
15.98460154949998
 10
54.90055000879999
 20
16.15542900649994
 10
54.63235218260003
 20
16.3057075321999
 10
54.35314506600001
 20
16.43431621000002
 10
54.0647430681
 20
16.54066444239993
 10
53.7688473939
 20
16.62388756869995
 10
53.4673426386
 20
16.6836868614
 10
53.1620443403
 20
16.71947520649996
 10
52.85486087529999
 20
16.73125310239993
 10
52.5476774104
 20
16.7187254385999
 10
52.2423791121
 20
16.68219192669994
 10
51.9408743568
 20
16.6216567266
 10
51.64497868260001
 20
16.53771138339993
 10
51.3565766847
 20
16.4306592245
 10
51.07736956810001
 20
16.30136906289999
 10
50.80917174189997
 20
16.15043592469987
 10
50.5535281887
 20
15.97898449750005
 10
50.31213845479999
 20
15.78788685469999
 10
50.08635325770001
 20
15.57849586509996
 10
49.87771543250001
 20
15.35193917600008
 10
49.68734817240001
 20
15.10976452499994
 10
49.5165996116
 20
14.85332736710006
 10
49.36633776229999
 20
14.58433219850007
 10
49.2376828621
 20
14.30432890569999
 10
49.1312263689
 20
14.01513677320008
 10
49.04783303990001
 20
13.71846195579996
 10
48.98780321510002
 20
13.41619372960008
 10
48.9517990608
 20
13.11109733789999
 10
48.93959985490001
 20
12.80225103309999
  0
LINE
  5
18A1
330
1F
100
AcDbEntity
  8
1
100
AcDbLine
 10
58.5863211363
 20
18.56314805340002
 30
0.0
 11
47.12340105289999
 21
18.54915880730003
 31
0.0
  0
LINE
  5
18A2
330
1F
100
AcDbEntity
  8
1
100
AcDbLine
 10
47.12340061429999
 20
7.050910312500035
 30
0.0
 11
58.58632069779999
 21
7.064899558600018
 31
0.0
  0
LINE
  5
18A3
330
1F
100
AcDbEntity
  8
1
100
AcDbLine
 10
58.75082346020001
 20
5.662164438899933
 30
0.0
 11
46.98401027529999
 21
5.647804324300067
 31
0.0
  0
LWPOLYLINE
  5
18A4
330
1F
100
AcDbEntity
  8
1
100
AcDbPolyline
 90
       35
 70
     0
 43
0.0
 10
48.93959985490001
 20
12.80225103309999
 10
48.9517990608
 20
12.49343450380001
 10
48.98780321510002
 20
12.18842599050002
 10
49.04783303990001
 20
11.88630428399993
 10
49.1312263689
 20
11.58983301159991
 10
49.2376828621
 20
11.30090071619997
 10
49.36633776229999
 20
11.02121144199998
 10
49.5165996116
 20
10.75258302990005
 10
49.68734817240001
 20
10.49656263199995
 10
49.87771543250001
 20
10.25485262609993
 10
50.08635325770001
 20
10.02880517649998
 10
50.31213845479999
 20
9.81996527939998
 10
50.5535281887
 20
9.629456816400079
 10
50.80917174189997
 20
9.458629359399992
 10
51.07736956810001
 20
9.308350833699931
 10
51.3565766847
 20
9.17974215589993
 10
51.64497868260001
 20
9.073393923500018
 10
51.9408743568
 20
8.99017079719988
 10
52.2423791121
 20
8.930371504500042
 10
52.5476774104
 20
8.894583159399983
 10
52.85486087529999
 20
8.882805263500017
 10
53.1620443403
 20
8.89533292729993
 10
53.4673426386
 20
8.931866439200007
 10
53.7688473939
 20
8.99240163929994
 10
54.0647430681
 20
9.076346982500011
 10
54.35314506600001
 20
9.183399141400061
 10
54.63235218260003
 20
9.312689302999956
 10
54.90055000879999
 20
9.46362244119996
 10
55.156193562
 20
9.635073868400011
 10
55.3975832959
 20
9.826171511199961
 10
55.623368493
 20
10.03556250079997
 10
55.83200631819999
 20
10.26211919000002
 10
56.02237357829999
 20
10.5042938409
 10
56.1931221391
 20
10.7607309988
 10
56.3087972785
 20
10.96324690000004
  0
LINE
  5
18A5
330
1F
100
AcDbEntity
  8
1
100
AcDbLine
 10
47.1188675864
 20
18.54460986959998
 30
0.0
 11
47.1188675863
 21
7.055448625099983
 31
0.0
  0
LINE
  5
18A6
330
1F
100
AcDbEntity
  8
1
100
AcDbLine
 10
45.73483408129999
 20
6.898316022000017
 30
0.0
 11
45.73483408129999
 21
18.6920660572
 31
0.0
  0
LWPOLYLINE
  5
18A7
330
1F
100
AcDbEntity
  8
1
100
AcDbPolyline
 90
       17
 70
     0
 43
0.0
 10
46.98401027529999
 20
5.647804324300067
 10
46.8595563598
 20
5.653858199299974
 10
46.73788598129998
 20
5.671679841800027
 10
46.6184700751
 20
5.701461990000098
 10
46.50289583510001
 20
5.742626429499978
 10
46.39227552789999
 20
5.794872191999957
 10
46.28750487029999
 20
5.857560276899902
 10
46.18959388159999
 20
5.930209002900027
 10
46.09931192099999
 20
6.012045444000022
 10
46.0175536304
 20
6.10243473929995
 10
45.94495318039998
 20
6.200481012299974
 10
45.8822824374
 20
6.305413878699938
 10
45.8300229557
 20
6.416222001599977
 10
45.78881300619999
 20
6.532008598599985
 10
45.7589543066
 20
6.651659621899965
 10
45.7410256409
 20
6.773585474500008
 10
45.73483408129999
 20
6.898316022000017
  0
LWPOLYLINE
  5
18A8
330
1F
100
AcDbEntity
  8
1
100
AcDbPolyline
 90
        7
 70
     0
 43
0.0
 10
47.1188675863
 20
7.055448625099983
 10
47.11913775270001
 20
7.054285287599896
 10
47.1196181513
 20
7.053267558200102
 10
47.1203238731
 20
7.052379337599972
 10
47.1212096453
 20
7.051668923999955
 10
47.12223019549999
 20
7.051184615399961
 10
47.12340061429999
 20
7.050910312500035
  0
LWPOLYLINE
  5
18A9
330
1F
100
AcDbEntity
  8
1
100
AcDbPolyline
 90
        7
 70
     0
 43
0.0
 10
47.12340105289999
 20
18.54915880730003
 10
47.12224004350001
 20
18.54888660560003
 10
47.12122405369999
 20
18.54840386739998
 10
47.12033700250001
 20
18.54769544750001
 10
47.11962713289999
 20
18.54680678119996
 10
47.11914268789999
 20
18.54578330359992
 10
47.1188675864
 20
18.54460986959998
  0
LINE
  5
18AA
330
1F
100
AcDbEntity
  8
1
100
AcDbLine
 10
60.0
 20
18.70947478330004
 30
0.0
 11
60.0
 21
6.915724753400012
 31
0.0
  0
LINE
  5
18AB
330
1F
100
AcDbEntity
  8
1
100
AcDbLine
 10
58.59085416430001
 20
7.069448496299968
 30
0.0
 11
58.59085416430001
 21
18.55860974079996
 31
0.0
  0
LINE
  5
18AC
330
1F
100
AcDbEntity
  8
1
100
AcDbLine
 10
57.2380219344
 20
4.655676673899961
 30
0.0
 11
58.4257236035
 21
4.473847071699992
 31
0.0
  0
LINE
  5
18AD
330
1F
100
AcDbEntity
  8
1
100
AcDbLine
 10
58.50708095729999
 20
4.059120002699954
 30
0.0
 11
58.44620535669999
 21
4.49507774220001
 31
0.0
  0
LWPOLYLINE
  5
18AE
330
1F
100
AcDbEntity
  8
1
100
AcDbPolyline
 90
       17
 70
     0
 43
0.0
 10
60.0
 20
6.915724753400012
 10
59.99380841629999
 20
6.790978380700038
 10
59.9758793318
 20
6.669007592199932
 10
59.9460198043
 20
6.549281876599933
 10
59.90480866039999
 20
6.433392767899931
 10
59.8525475351
 20
6.322455447500032
 10
59.7898750601
 20
6.217368461999968
 10
59.7172730465
 20
6.119144730700098
 10
59.63551359149999
 20
6.028556316299954
 10
59.54523119560001
 20
5.946500683200043
 10
59.44732046110001
 20
5.873614545500004
 10
59.34255095250001
 20
5.810672475599973
 10
59.23193228329999
 20
5.758158362500013
 10
59.1163599648
 20
5.716713030899995
 10
58.9969458676
 20
5.686640246299929
 10
58.87527666289999
 20
5.668522053999936
 10
58.75082346020001
 20
5.662164438899933
  0
LWPOLYLINE
  5
18AF
330
1F
100
AcDbEntity
  8
1
100
AcDbPolyline
 90
        4
 70
     0
 43
0.0
 10
58.44620535669999
 20
4.49507774220001
 10
58.4416191795
 20
4.485282569899935
 10
58.43667682830001
 20
4.47847906740003
 10
58.431378303
 20
4.47466723469995
  0
LINE
  5
18B0
330
1F
100
AcDbEntity
  8
1
100
AcDbLine
 10
58.50708095729999
 20
4.495152034200032
 30
0.0
 11
58.44620535669999
 21
4.49507774220001
 31
0.0
  0
LINE
  5
18B1
330
1F
100
AcDbEntity
  8
1
100
AcDbLine
 10
58.42732442159999
 20
4.473774652499969
 30
0.0
 11
58.4257236035
 21
4.473847071699992
 31
0.0
  0
LWPOLYLINE
  5
18B2
330
1F
100
AcDbEntity
  8
1
100
AcDbPolyline
 90
        7
 70
     0
 43
0.0
 10
58.58632069779999
 20
7.064899558600018
 10
58.58748170720001
 20
7.065171760300017
 10
58.58849769699999
 20
7.065654498499952
 10
58.5893847482
 20
7.066362918400044
 10
58.5900946177
 20
7.067251584699986
 10
58.5905790628
 20
7.068275062400061
 10
58.59085416430001
 20
7.069448496299968
  0
LINE
  5
18B3
330
1F
100
AcDbEntity
  8
1
100
AcDbLine
 10
58.431378303
 20
4.47466723469995
 30
0.0
 11
58.42732442159999
 21
4.473774652499969
 31
0.0
  0
LINE
  5
18B4
330
1F
100
AcDbEntity
  8
1
100
AcDbLine
 10
57.2380219344
 20
4.655676673899961
 30
0.0
 11
56.7765033457
 21
0.9516145940999647
 31
0.0
  0
LWPOLYLINE
  5
18B5
330
1F
100
AcDbEntity
  8
1
100
AcDbPolyline
 90
        7
 70
     0
 43
0.0
 10
58.59085416430001
 20
18.55860974079996
 10
58.590583998
 20
18.55977307839998
 10
58.5901035994
 20
18.56079080769996
 10
58.5893978776
 20
18.56167902829996
 10
58.5885121053
 20
18.56238944200003
 10
58.58749155519999
 20
18.56287375049999
 10
58.5863211363
 20
18.56314805340002
  0
LWPOLYLINE
  5
18B6
330
1F
100
AcDbEntity
  8
1
100
AcDbPolyline
 90
        8
 70
     0
 43
0.0
 10
56.3087972785
 20
10.96324690000004
 10
56.3433839884
 20
11.02972616739998
 10
56.4720388886
 20
11.30972946020005
 10
56.57849538179999
 20
11.59892159269998
 10
56.66188871080001
 20
11.89559641009998
 10
56.72191853560001
 20
12.19786463629997
 10
56.75792268990001
 20
12.50296102799995
 10
56.7701218957
 20
12.81180733280007
  0
LINE
  5
18B7
330
1F
100
AcDbEntity
  8
1
100
AcDbLine
 10
46.98401062179999
 20
19.94562636549994
 30
0.0
 11
58.75082379010001
 21
19.95998647999998
 31
0.0
  0
TEXT
  5
18B8
330
1F
100
AcDbEntity
  8
6
100
AcDbText
 10
72.5528420698907
 20
31.11515832354348
 30
0.0
 40
3.5
  1
SPLT140512-PH
 41
0.8
100
AcDbText
  0
ENDSEC
  0
SECTION
  2
OBJECTS
  0
DICTIONARY
  5
108C
330
0
100
AcDbDictionary
  3
ACAD_GROUP
350
108D
  3
ACAD_LAYOUT
350
1095
  3
ACAD_MLINESTYLE
350
108E
  3
ACAD_PLOTSETTINGS
350
1096
  3
ACAD_PLOTSTYLENAME
350
1093
  3
ACDBHEADERROUNDTRIPXREC
350
1A79
  0
DICTIONARY
  5
1A70
330
1F
100
AcDbDictionary
280
     1
  3
ACAD_LAYOUTSELFREF
360
1A9B
  0
DICTIONARY
  5
1A6E
330
1B
100
AcDbDictionary
280
     1
  3
ACAD_LAYOUTSELFREF
360
1A9A
  0
DICTIONARY
  5
108D
102
{ACAD_REACTORS
330
108C
102
}
330
108C
100
AcDbDictionary
  0
DICTIONARY
  5
1095
102
{ACAD_REACTORS
330
108C
102
}
330
108C
100
AcDbDictionary
  0
DICTIONARY
  5
108E
102
{ACAD_REACTORS
330
108C
102
}
330
108C
100
AcDbDictionary
  3
STANDARD
350
108F
  0
DICTIONARY
  5
1096
102
{ACAD_REACTORS
330
108C
102
}
330
108C
100
AcDbDictionary
  0
ACDBDICTIONARYWDFLT
  5
1093
102
{ACAD_REACTORS
330
108C
102
}
330
108C
100
AcDbDictionary
281
     1
  3
Normal
350
1094
100
AcDbDictionaryWithDefault
340
1094
  0
DICTIONARY
  5
1A79
102
{ACAD_REACTORS
330
108C
102
}
330
108C
100
AcDbDictionary
  3
CEPSNTYPE
350
1A83
  3
DIMSTYLEDATA
350
1A87
  3
FINGERPRINTGUID
350
1A84
  3
HYPERLINKBASE
350
1A7C
  3
INSUNITS
350
1A82
  3
LAYOUTDICT
350
1A7E
  3
LWETCUNION
350
1A81
  3
PLOTSETDICT
350
1A7F
  3
PLOTSTYLNAMDICT
350
1A80
  3
PSVPSCALE
350
1A86
  3
PUCSBASE
350
1A8A
  3
PUCSORGBACK
350
1A90
  3
PUCSORGBOTTOM
350
1A8C
  3
PUCSORGFRONT
350
1A8F
  3
PUCSORGLEFT
350
1A8D
  3
PUCSORGRIGHT
350
1A8E
  3
PUCSORGTOP
350
1A8B
  3
PUCSORTHOREF
350
1A88
  3
PUCSORTHOVIEW
350
1A89
  3
STYLESHEET
350
1A7D
  3
TSTACKALIGN
350
1A7A
  3
TSTACKSIZE
350
1A7B
  3
UCSBASE
350
1A93
  3
UCSORGBACK
350
1A99
  3
UCSORGBOTTOM
350
1A95
  3
UCSORGFRONT
350
1A98
  3
UCSORGLEFT
350
1A96
  3
UCSORGRIGHT
350
1A97
  3
UCSORGTOP
350
1A94
  3
UCSORTHOREF
350
1A91
  3
UCSORTHOVIEW
350
1A92
  3
VERSIONGUID
350
1A85
  0
XRECORD
  5
1A9B
102
{ACAD_REACTORS
330
1A70
102
}
330
1A70
100
AcDbXrecord
340
1F
  0
XRECORD
  5
1A9A
102
{ACAD_REACTORS
330
1A6E
102
}
330
1A6E
100
AcDbXrecord
340
1B
  0
MLINESTYLE
  5
108F
102
{ACAD_REACTORS
330
108E
102
}
330
108E
100
AcDbMlineStyle
  2
STANDARD
 70
     0
  3

 62
   256
 51
90.0
 52
90.0
 71
     2
 49
0.5
 62
   256
  6
BYLAYER
 49
-0.5
 62
   256
  6
BYLAYER
  0
ACDBPLACEHOLDER
  5
1094
102
{ACAD_REACTORS
330
1093
102
}
330
1093
100
AcDbPlaceHolder
280
     0
  0
XRECORD
  5
1A83
102
{ACAD_REACTORS
330
1A79
102
}
330
1A79
100
AcDbXrecord
 90
        0
  0
XRECORD
  5
1A87
102
{ACAD_REACTORS
330
1A79
102
}
330
1A79
100
AcDbXrecord
1000
DSTYLE
1002
{
1070
   341
340
225
1070
   342
340
225
1002
}
  0
XRECORD
  5
1A84
102
{ACAD_REACTORS
330
1A79
102
}
330
1A79
100
AcDbXrecord
  1
{78F24A92-2EE3-4913-8485-491A8FB9CF06}
  0
XRECORD
  5
1A7C
102
{ACAD_REACTORS
330
1A79
102
}
330
1A79
100
AcDbXrecord
  1

  0
XRECORD
  5
1A82
102
{ACAD_REACTORS
330
1A79
102
}
330
1A79
100
AcDbXrecord
 90
        0
  0
XRECORD
  5
1A7E
102
{ACAD_REACTORS
330
1A79
102
}
330
1A79
100
AcDbXrecord
340
1095
  0
XRECORD
  5
1A81
102
{ACAD_REACTORS
330
1A79
102
}
330
1A79
100
AcDbXrecord
 90
    10781
  0
XRECORD
  5
1A7F
102
{ACAD_REACTORS
330
1A79
102
}
330
1A79
100
AcDbXrecord
340
1096
  0
XRECORD
  5
1A80
102
{ACAD_REACTORS
330
1A79
102
}
330
1A79
100
AcDbXrecord
340
1093
  0
XRECORD
  5
1A86
102
{ACAD_REACTORS
330
1A79
102
}
330
1A79
100
AcDbXrecord
 40
0.0
  0
XRECORD
  5
1A8A
102
{ACAD_REACTORS
330
1A79
102
}
330
1A79
100
AcDbXrecord
340
0
  0
XRECORD
  5
1A90
102
{ACAD_REACTORS
330
1A79
102
}
330
1A79
100
AcDbXrecord
 10
0.0
 20
0.0
 30
0.0
  0
XRECORD
  5
1A8C
102
{ACAD_REACTORS
330
1A79
102
}
330
1A79
100
AcDbXrecord
 10
0.0
 20
0.0
 30
0.0
  0
XRECORD
  5
1A8F
102
{ACAD_REACTORS
330
1A79
102
}
330
1A79
100
AcDbXrecord
 10
0.0
 20
0.0
 30
0.0
  0
XRECORD
  5
1A8D
102
{ACAD_REACTORS
330
1A79
102
}
330
1A79
100
AcDbXrecord
 10
0.0
 20
0.0
 30
0.0
  0
XRECORD
  5
1A8E
102
{ACAD_REACTORS
330
1A79
102
}
330
1A79
100
AcDbXrecord
 10
0.0
 20
0.0
 30
0.0
  0
XRECORD
  5
1A8B
102
{ACAD_REACTORS
330
1A79
102
}
330
1A79
100
AcDbXrecord
 10
0.0
 20
0.0
 30
0.0
  0
XRECORD
  5
1A88
102
{ACAD_REACTORS
330
1A79
102
}
330
1A79
100
AcDbXrecord
340
0
  0
XRECORD
  5
1A89
102
{ACAD_REACTORS
330
1A79
102
}
330
1A79
100
AcDbXrecord
 70
     0
  0
XRECORD
  5
1A7D
102
{ACAD_REACTORS
330
1A79
102
}
330
1A79
100
AcDbXrecord
  1

  0
XRECORD
  5
1A7A
102
{ACAD_REACTORS
330
1A79
102
}
330
1A79
100
AcDbXrecord
 90
        1
  0
XRECORD
  5
1A7B
102
{ACAD_REACTORS
330
1A79
102
}
330
1A79
100
AcDbXrecord
 90
       70
  0
XRECORD
  5
1A93
102
{ACAD_REACTORS
330
1A79
102
}
330
1A79
100
AcDbXrecord
340
0
  0
XRECORD
  5
1A99
102
{ACAD_REACTORS
330
1A79
102
}
330
1A79
100
AcDbXrecord
 10
0.0
 20
0.0
 30
0.0
  0
XRECORD
  5
1A95
102
{ACAD_REACTORS
330
1A79
102
}
330
1A79
100
AcDbXrecord
 10
0.0
 20
0.0
 30
0.0
  0
XRECORD
  5
1A98
102
{ACAD_REACTORS
330
1A79
102
}
330
1A79
100
AcDbXrecord
 10
0.0
 20
0.0
 30
0.0
  0
XRECORD
  5
1A96
102
{ACAD_REACTORS
330
1A79
102
}
330
1A79
100
AcDbXrecord
 10
0.0
 20
0.0
 30
0.0
  0
XRECORD
  5
1A97
102
{ACAD_REACTORS
330
1A79
102
}
330
1A79
100
AcDbXrecord
 10
0.0
 20
0.0
 30
0.0
  0
XRECORD
  5
1A94
102
{ACAD_REACTORS
330
1A79
102
}
330
1A79
100
AcDbXrecord
 10
0.0
 20
0.0
 30
0.0
  0
XRECORD
  5
1A91
102
{ACAD_REACTORS
330
1A79
102
}
330
1A79
100
AcDbXrecord
340
0
  0
XRECORD
  5
1A92
102
{ACAD_REACTORS
330
1A79
102
}
330
1A79
100
AcDbXrecord
 70
     0
  0
XRECORD
  5
1A85
102
{ACAD_REACTORS
330
1A79
102
}
330
1A79
100
AcDbXrecord
  1
{EFC48ADA-5D7C-46EF-A23D-01FDE44AADB5}
  0
ENDSEC
  0
EOF
