  0
SECTION
  2
HEADER
  9
$ACADVER
  1
AC1014
  9
$ACADMAINTVER
 70
     9
  9
$DWGCODEPAGE
  3
ANSI_1252
  9
$INSBASE
 10
0.0
 20
0.0
 30
0.0
  9
$EXTMIN
 10
-82.97686342644396
 20
-47.56929160050003
 30
-0.0000000000000129
  9
$EXTMAX
 10
106.1183385001737
 20
79.9885955271343
 30
0.0000000000000023
  9
$LIMMIN
 10
0.0
 20
0.0
  9
$LIMMAX
 10
210.0
 20
297.0
  9
$ORTHOMODE
 70
     0
  9
$REGENMODE
 70
     1
  9
$FILLMODE
 70
     1
  9
$QTEXTMODE
 70
     0
  9
$MIRRTEXT
 70
     1
  9
$DRAGMODE
 70
     2
  9
$LTSCALE
 40
1.0
  9
$OSMODE
 70
  2599
  9
$ATTMODE
 70
     1
  9
$TEXTSIZE
 40
2.5
  9
$TRACEWID
 40
1.0
  9
$TEXTSTYLE
  7
STANDARD
  9
$CLAYER
  8
0
  9
$CELTYPE
  6
BYLAYER
  9
$CECOLOR
 62
   256
  9
$CELTSCALE
 40
1.0
  9
$DELOBJ
 70
     1
  9
$DISPSILH
 70
     0
  9
$DIMSCALE
 40
1.0
  9
$DIMASZ
 40
2.5
  9
$DIMEXO
 40
0.0
  9
$DIMDLI
 40
10.0
  9
$DIMRND
 40
0.0
  9
$DIMDLE
 40
0.0
  9
$DIMEXE
 40
1.0
  9
$DIMTP
 40
0.1
  9
$DIMTM
 40
0.1
  9
$DIMTXT
 40
3.5
  9
$DIMCEN
 40
0.0
  9
$DIMTSZ
 40
0.0
  9
$DIMTOL
 70
     0
  9
$DIMLIM
 70
     0
  9
$DIMTIH
 70
     0
  9
$DIMTOH
 70
     0
  9
$DIMSE1
 70
     0
  9
$DIMSE2
 70
     0
  9
$DIMTAD
 70
     1
  9
$DIMZIN
 70
     8
  9
$DIMBLK
  1

  9
$DIMASO
 70
     1
  9
$DIMSHO
 70
     1
  9
$DIMPOST
  1

  9
$DIMAPOST
  1
"
  9
$DIMALT
 70
     0
  9
$DIMALTD
 70
     2
  9
$DIMALTF
 40
0.0393701
  9
$DIMLFAC
 40
1.0
  9
$DIMTOFL
 70
     1
  9
$DIMTVP
 40
0.0
  9
$DIMTIX
 70
     0
  9
$DIMSOXD
 70
     0
  9
$DIMSAH
 70
     0
  9
$DIMBLK1
  1

  9
$DIMBLK2
  1

  9
$DIMSTYLE
  2
AM_DIN
  9
$DIMCLRD
 70
   256
  9
$DIMCLRE
 70
   256
  9
$DIMCLRT
 70
     2
  9
$DIMTFAC
 40
0.71
  9
$DIMGAP
 40
1.5
  9
$DIMJUST
 70
     0
  9
$DIMSD1
 70
     0
  9
$DIMSD2
 70
     0
  9
$DIMTOLJ
 70
     1
  9
$DIMTZIN
 70
     8
  9
$DIMALTZ
 70
     8
  9
$DIMALTTZ
 70
     8
  9
$DIMFIT
 70
     5
  9
$DIMUPT
 70
     0
  9
$DIMUNIT
 70
     2
  9
$DIMDEC
 70
     2
  9
$DIMTDEC
 70
     2
  9
$DIMALTU
 70
     2
  9
$DIMALTTD
 70
     2
  9
$DIMTXSTY
  7
STANDARD
  9
$DIMAUNIT
 70
     0
  9
$LUNITS
 70
     2
  9
$LUPREC
 70
     2
  9
$SKETCHINC
 40
1.0
  9
$FILLETRAD
 40
2.5
  9
$AUNITS
 70
     0
  9
$AUPREC
 70
     0
  9
$MENU
  1
.
  9
$ELEVATION
 40
0.0
  9
$PELEVATION
 40
0.0
  9
$THICKNESS
 40
0.0
  9
$LIMCHECK
 70
     0
  9
$BLIPMODE
 70
     0
  9
$CHAMFERA
 40
2.5
  9
$CHAMFERB
 40
2.5
  9
$CHAMFERC
 40
0.0
  9
$CHAMFERD
 40
0.0
  9
$SKPOLY
 70
     0
  9
$TDCREATE
 40
2453447.430070810
  9
$TDUPDATE
 40
2453793.332333206
  9
$TDINDWG
 40
0.1992910069
  9
$TDUSRTIMER
 40
0.1992666667
  9
$USRTIMER
 70
     1
  9
$ANGBASE
 50
0.0
  9
$ANGDIR
 70
     0
  9
$PDMODE
 70
     0
  9
$PDSIZE
 40
0.0
  9
$PLINEWID
 40
0.0
  9
$COORDS
 70
     0
  9
$SPLFRAME
 70
     0
  9
$SPLINETYPE
 70
     6
  9
$SPLINESEGS
 70
     8
  9
$ATTDIA
 70
     1
  9
$ATTREQ
 70
     1
  9
$HANDLING
 70
 22529
  9
$HANDSEED
  5
91E8
  9
$SURFTAB1
 70
     6
  9
$SURFTAB2
 70
     6
  9
$SURFTYPE
 70
     6
  9
$SURFU
 70
     6
  9
$SURFV
 70
     6
  9
$UCSNAME
  2

  9
$UCSORG
 10
0.0
 20
0.0
 30
0.0
  9
$UCSXDIR
 10
1.0
 20
0.0
 30
0.0
  9
$UCSYDIR
 10
0.0
 20
1.0
 30
0.0
  9
$PUCSNAME
  2

  9
$PUCSORG
 10
0.0
 20
0.0
 30
0.0
  9
$PUCSXDIR
 10
1.0
 20
0.0
 30
0.0
  9
$PUCSYDIR
 10
0.0
 20
1.0
 30
0.0
  9
$USERI1
 70
     0
  9
$USERI2
 70
     0
  9
$USERI3
 70
     0
  9
$USERI4
 70
     0
  9
$USERI5
 70
     0
  9
$USERR1
 40
0.0
  9
$USERR2
 40
0.0
  9
$USERR3
 40
0.0
  9
$USERR4
 40
0.0
  9
$USERR5
 40
0.0
  9
$WORLDVIEW
 70
     1
  9
$SHADEDGE
 70
     3
  9
$SHADEDIF
 70
    70
  9
$TILEMODE
 70
     1
  9
$MAXACTVP
 70
    64
  9
$PINSBASE
 10
0.0
 20
0.0
 30
0.0
  9
$PLIMCHECK
 70
     0
  9
$PEXTMIN
 10
1.000000000000000E+20
 20
1.000000000000000E+20
 30
1.000000000000000E+20
  9
$PEXTMAX
 10
-1.000000000000000E+20
 20
-1.000000000000000E+20
 30
-1.000000000000000E+20
  9
$PLIMMIN
 10
0.0
 20
0.0
  9
$PLIMMAX
 10
420.0
 20
297.0
  9
$UNITMODE
 70
     0
  9
$VISRETAIN
 70
     1
  9
$PLINEGEN
 70
     0
  9
$PSLTSCALE
 70
     1
  9
$TREEDEPTH
 70
  3020
  9
$PICKSTYLE
 70
     0
  9
$CMLSTYLE
  2
STANDARD
  9
$CMLJUST
 70
     0
  9
$CMLSCALE
 40
1.0
  9
$PROXYGRAPHICS
 70
     1
  9
$MEASUREMENT
 70
     1
  0
ENDSEC
  0
SECTION
  2
CLASSES
  0
CLASS
  1
ACDBDICTIONARYWDFLT
  2
AcDbDictionaryWithDefault
  3
AutoCAD 2000
 90
        0
280
     0
281
     0
  0
CLASS
  1
ACDBPLACEHOLDER
  2
AcDbPlaceHolder
  3
AutoCAD 2000
 90
        0
280
     0
281
     0
  0
CLASS
  1
LAYOUT
  2
AcDbLayout
  3
AutoCAD 2000
 90
        0
280
     0
281
     0
  0
CLASS
  1
AMGSETTINGSOBJ
  2
AmgSettingsObj
  3
"AcadM|Product Description: AutoCAD Mechanical 2000|Company: Autodesk"
 90
        0
280
     0
281
     0
  0
CLASS
  1
ACME_DOCUMENT
  2
AcMeDbDoc
  3
AcMeServices
 90
        0
280
     0
281
     0
  0
CLASS
  1
ACMESCOPE
  2
AcMeScope
  3
AcMeServices
 90
        0
280
     0
281
     0
  0
CLASS
  1
ACMECOMMANDHISTORY
  2
AcMeCommandHistory
  3
AcMeServices
 90
        0
280
     0
281
     0
  0
CLASS
  1
ACIMSYSVARMAN
  2
AcImSysVarManager
  3
AcMeServices
 90
        0
280
     0
281
     0
  0
CLASS
  1
ACIMREALSYSVAR
  2
AcImRealSysVar
  3
AcMeServices
 90
        0
280
     0
281
     0
  0
CLASS
  1
ACIMINTSYSVAR
  2
AcImIntSysVar
  3
AcMeServices
 90
        0
280
     0
281
     0
  0
CLASS
  1
ACMEDRAWINGMAN
  2
AcMeDrawingMan
  3
AcMeServices
 90
        0
280
     0
281
     0
  0
CLASS
  1
ACMEVIEW
  2
AcMeView
  3
AcMeServices
 90
        0
280
     0
281
     0
  0
CLASS
  1
ACDBENTITYCACHE
  2
AcMeEntityCache
  3
AcMeServices
 90
        0
280
     0
281
     0
  0
CLASS
  1
GSMANAGER
  2
AcMeGSManager
  3
AcMeServices
 90
        0
280
     0
281
     0
  0
CLASS
  1
AMDTINTERNALREACTOR
  2
AmdtInternalReactor
  3
AcMeServices
 90
        0
280
     0
281
     0
  0
CLASS
  1
ACMESTATEMGR
  2
AcMeStateMgr
  3
AcMeServices
 90
        0
280
     0
281
     0
  0
CLASS
  1
ACGREFMASTER
  2
AcGrefMaster
  3
AcAttribServices
 90
        0
280
     0
281
     0
  0
CLASS
  1
ACME_DATABASE
  2
AcMeDbDatabase
  3
AcMeServices
 90
        0
280
     0
281
     0
  0
CLASS
  1
ACRFINSADJUSTERMGR
  2
AcRfInsAdjusterMgr
  3
AcMeServices
 90
        0
280
     0
281
     0
  0
CLASS
  1
ACGREFACADMASTER
  2
AcGrefacadMaster
  3
AcGrefServices
 90
        0
280
     0
281
     0
  0
CLASS
  1
AMIMASTER
  2
AmiMaster
  3
AmiServices
 90
        0
280
     0
281
     0
  0
CLASS
  1
ACMDATADICTIONARY
  2
AcmDataDictionary
  3
"AcmSymBB|Product Description: AutoCAD Mechanical 2000|Company: Autodesk"
 90
        0
280
     0
281
     0
  0
CLASS
  1
ACMDATAENTRYBLOCK
  2
AcmDataEntryBlock
  3
"AcmSymBB|Product Description: AutoCAD Mechanical 2000|Company: Autodesk"
 90
        0
280
     0
281
     0
  0
CLASS
  1
ACIMSTRSYSVAR
  2
AcImStrSysVar
  3
AcMeServices
 90
        0
280
     0
281
     0
  0
CLASS
  1
ACMSTANDARDANSI
  2
AcmStandardANSI
  3
"Amdt_StdImp|Product Description: AutoCAD Mechanical 2000|Company: Autodesk"
 90
        0
280
     0
281
     0
  0
CLASS
  1
AMGOBJPROPCFG
  2
AmgObjPropCfg
  3
"AmgLay|Product Description: AutoCAD Mechanical 2000|Company: Autodesk"
 90
        1
280
     0
281
     0
  0
CLASS
  1
ACMSURFSTANDARDANSI
  2
AcmSurfTextStdANSI
  3
"Amdt_StdImp|Product Description: AutoCAD Mechanical 2000|Company: Autodesk"
 90
        0
280
     0
281
     0
  0
CLASS
  1
ACMFCFSTANDARDANSI
  2
AcmFCFStdANSI
  3
"Amdt_StdImp|Product Description: AutoCAD Mechanical 2000|Company: Autodesk"
 90
        0
280
     0
281
     0
  0
CLASS
  1
ACMWELDSTANDARDANSI
  2
AcmWeldingStdANSI
  3
"Amdt_StdImp|Product Description: AutoCAD Mechanical 2000|Company: Autodesk"
 90
        0
280
     0
281
     0
  0
CLASS
  1
ACMIDSTANDARDANSI
  2
AcmIdStdANSI
  3
"Amdt_StdImp|Product Description: AutoCAD Mechanical 2000|Company: Autodesk"
 90
        0
280
     0
281
     0
  0
CLASS
  1
ACMDATUMSTANDARDANSI
  2
AcmDatumStdANSI
  3
"Amdt_StdImp|Product Description: AutoCAD Mechanical 2000|Company: Autodesk"
 90
        0
280
     0
281
     0
  0
CLASS
  1
ACMBOMSTANDARDANSI
  2
AcmBOMStdANSI
  3
"Amdt_StdImp|Product Description: AutoCAD Mechanical 2000|Company: Autodesk"
 90
        0
280
     0
281
     0
  0
CLASS
  1
ACMDETAILSTANDARDANSI
  2
AmdtDetailSymStdANSI
  3
"Amdt_StdImp|Product Description: AutoCAD Mechanical 2000|Company: Autodesk"
 90
        0
280
     0
281
     0
  0
CLASS
  1
ACMSECTIONSTANDARDANSI
  2
AmdtSectionSymStdANSI
  3
"Amdt_StdImp|Product Description: AutoCAD Mechanical 2000|Company: Autodesk"
 90
        0
280
     0
281
     0
  0
CLASS
  1
ACMCENTERLINESTANDARDANSI
  2
AmdtCenterLineStdANSI
  3
"Amdt_StdImp|Product Description: AutoCAD Mechanical 2000|Company: Autodesk"
 90
        0
280
     0
281
     0
  0
CLASS
  1
ACMNOTESTANDARDANSI
  2
AmdtNoteStdANSI
  3
"Amdt_StdImp|Product Description: AutoCAD Mechanical 2000|Company: Autodesk"
 90
        0
280
     0
281
     0
  0
CLASS
  1
ACAMGLAYSTD
  2
AcAmgLayStd
  3
"AcAmgLayStd|Product Description: AutoCAD Mechanical 2000|Company: Autodesk"
 90
        0
280
     0
281
     0
  0
CLASS
  1
ACAMGDIMSTD
  2
AcAmgDimStd
  3
"AcAmgDimStd|Product Description: AutoCAD Mechanical 2000|Company: Autodesk"
 90
        0
280
     0
281
     0
  0
CLASS
  1
ACAMGHOLECHARTSTDANSI
  2
AcAmgHoleChartStdANSI
  3
ACMSYMBB_MODULE_NAME
 90
        0
280
     0
281
     0
  0
CLASS
  1
ACAMGTITLESTD
  2
AcAmgTitleStd
  3
"TITLEAPP"
 90
        0
280
     0
281
     0
  0
CLASS
  1
ACAMGFILTERDAT
  2
AcAmgFilterDat
  3
"AcadM|Product Description: AutoCAD Mechanical 2000|Company: Autodesk"
 90
        0
280
     0
281
     0
  0
CLASS
  1
LAYER_INDEX
  2
AcDbLayerIndex
  3
AutoCAD 2000
 90
        0
280
     0
281
     0
  0
CLASS
  1
IDBUFFER
  2
AcDbIdBuffer
  3
AutoCAD 2000
 90
        0
280
     0
281
     0
  0
CLASS
  1
DICTIONARYVAR
  2
AcDbDictionaryVar
  3
AutoCAD 2000
 90
        0
280
     0
281
     0
  0
CLASS
  1
ACMSTANDARDDIN
  2
AcmStandardDIN
  3
"Amdt_StdImp|Product Description: AutoCAD Mechanical 2000|Company: Autodesk"
 90
        0
280
     0
281
     0
  0
CLASS
  1
AMDTEDGESTANDARDDIN
  2
AmdtEdgeStdDIN
  3
"Amdt_StdImp|Product Description: AutoCAD Mechanical 2000|Company: Autodesk"
 90
        0
280
     0
281
     0
  0
CLASS
  1
ACMSURFSTANDARDDIN
  2
AcmSurfTextStdDIN
  3
"Amdt_StdImp|Product Description: AutoCAD Mechanical 2000|Company: Autodesk"
 90
        0
280
     0
281
     0
  0
CLASS
  1
ACMFCFSTANDARDDIN
  2
AcmFCFStdDIN
  3
"Amdt_StdImp|Product Description: AutoCAD Mechanical 2000|Company: Autodesk"
 90
        0
280
     0
281
     0
  0
CLASS
  1
ACMWELDSTANDARDDIN
  2
AcmWeldingStdDIN
  3
"Amdt_StdImp|Product Description: AutoCAD Mechanical 2000|Company: Autodesk"
 90
        0
280
     0
281
     0
  0
CLASS
  1
ACMIDSTANDARDDIN
  2
AcmIdStdDIN
  3
"Amdt_StdImp|Product Description: AutoCAD Mechanical 2000|Company: Autodesk"
 90
        0
280
     0
281
     0
  0
CLASS
  1
ACMDATUMSTANDARDDIN
  2
AcmDatumStdDIN
  3
"Amdt_StdImp|Product Description: AutoCAD Mechanical 2000|Company: Autodesk"
 90
        0
280
     0
281
     0
  0
CLASS
  1
ACMBOMSTANDARDDIN
  2
AcmBOMStdDIN
  3
"Amdt_StdImp|Product Description: AutoCAD Mechanical 2000|Company: Autodesk"
 90
        0
280
     0
281
     0
  0
CLASS
  1
ACMDETAILSTANDARDDIN
  2
AmdtDetailSymStdDIN
  3
"Amdt_StdImp|Product Description: AutoCAD Mechanical 2000|Company: Autodesk"
 90
        0
280
     0
281
     0
  0
CLASS
  1
ACMSECTIONSTANDARDDIN
  2
AmdtSectionSymStdDIN
  3
"Amdt_StdImp|Product Description: AutoCAD Mechanical 2000|Company: Autodesk"
 90
        0
280
     0
281
     0
  0
CLASS
  1
ACMCENTERLINESTANDARDDIN
  2
AmdtCenterLineStdDIN
  3
"Amdt_StdImp|Product Description: AutoCAD Mechanical 2000|Company: Autodesk"
 90
        0
280
     0
281
     0
  0
CLASS
  1
ACMNOTESTANDARDDIN
  2
AmdtNoteStdDIN
  3
"Amdt_StdImp|Product Description: AutoCAD Mechanical 2000|Company: Autodesk"
 90
        0
280
     0
281
     0
  0
CLASS
  1
ACAMGHOLECHARTSTDDIN
  2
AcAmgHoleChartStdDIN
  3
ACMSYMBB_MODULE_NAME
 90
        0
280
     0
281
     0
  0
CLASS
  1
AMDTFORMULAUPDATEDISPATCHER
  2
AmdtFormulaUpdateDispatcher
  3
AcMeServices
 90
        0
280
     0
281
     0
  0
CLASS
  1
LONG_TRANSACTION
  2
AcDbLongTransaction
  3
AutoCAD 2000
 90
        0
280
     0
281
     0
  0
CLASS
  1
LWPOLYLINE
  2
AcDbPolyline
  3
AutoCAD 2000
 90
        0
280
     0
281
     1
  0
CLASS
  1
HATCH
  2
AcDbHatch
  3
AutoCAD 2000
 90
        0
280
     0
281
     1
  0
CLASS
  1
XRECORD
  2
AcDbXrecord
  3
AutoCAD 2000
 90
        0
280
     0
281
     0
  0
ENDSEC
  0
SECTION
  2
TABLES
  0
TABLE
  2
VPORT
  5
6A1E
330
0
100
AcDbSymbolTable
 70
     4
  0
VPORT
  5
91C3
330
6A1E
100
AcDbSymbolTableRecord
100
AcDbViewportTableRecord
  2
*ACTIVE
 70
     0
 10
0.0
 20
0.0
 11
1.0
 21
1.0
 12
63.51156828677805
 22
124.7153541997499
 13
0.0
 23
0.0
 14
2.5
 24
2.5
 15
10.0
 25
10.0
 16
0.0
 26
0.0
 36
1.0
 17
0.0
 27
0.0
 37
0.0
 40
348.4192278195
 41
1.716417910447761
 42
50.0
 43
0.0
 44
0.0
 50
0.0
 51
0.0
 71
    16
 72
 10000
 73
     1
 74
     3
 75
     0
 76
     0
 77
     0
 78
     0
  0
ENDTAB
  0
TABLE
  2
LTYPE
  5
6A1B
330
0
100
AcDbSymbolTable
 70
    16
  0
LTYPE
  5
6A29
330
6A1B
100
AcDbSymbolTableRecord
100
AcDbLinetypeTableRecord
  2
BYBLOCK
 70
     0
  3

 72
    65
 73
     0
 40
0.0
  0
LTYPE
  5
6A2A
330
6A1B
100
AcDbSymbolTableRecord
100
AcDbLinetypeTableRecord
  2
BYLAYER
 70
     0
  3

 72
    65
 73
     0
 40
0.0
  0
LTYPE
  5
6A2B
330
6A1B
100
AcDbSymbolTableRecord
100
AcDbLinetypeTableRecord
  2
CONTINUOUS
 70
     0
  3
Solid line
 72
    65
 73
     0
 40
0.0
  0
LTYPE
  5
6A39
330
6A1B
100
AcDbSymbolTableRecord
100
AcDbLinetypeTableRecord
  2
AMCONSTR
 70
     0
  3
_______________________
 72
    65
 73
     2
 40
9999.0
 49
9999.0
 74
     0
 49
0.0
 74
     0
  0
LTYPE
  5
6A43
330
6A1B
100
AcDbSymbolTableRecord
100
AcDbLinetypeTableRecord
  2
CENTER
 70
     0
  3
__ . __
 72
    65
 73
     4
 40
7.0
 49
4.0
 74
     0
 49
-1.0
 74
     0
 49
1.0
 74
     0
 49
-1.0
 74
     0
  0
LTYPE
  5
6A45
330
6A1B
100
AcDbSymbolTableRecord
100
AcDbLinetypeTableRecord
  2
PHANTOM2
 70
     0
  3
Phantom (.5x) ___ _ _ ___ _ _ ___ _ _ ___ _ _
 72
    65
 73
     6
 40
1.25
 49
0.625
 74
     0
 49
-0.125
 74
     0
 49
0.125
 74
     0
 49
-0.125
 74
     0
 49
0.125
 74
     0
 49
-0.125
 74
     0
  0
LTYPE
  5
6A46
330
6A1B
100
AcDbSymbolTableRecord
100
AcDbLinetypeTableRecord
  2
ACANSTGB
 70
     0
  3
__ . . __ . .
 72
    65
 73
     6
 40
0.35433070866
 49
0.15748031496
 74
     0
 49
-0.03937007874
 74
     0
 49
0.03937007874
 74
     0
 49
-0.03937007874
 74
     0
 49
0.03937007874
 74
     0
 49
-0.03937007874
 74
     0
  0
LTYPE
  5
6A47
330
6A1B
100
AcDbSymbolTableRecord
100
AcDbLinetypeTableRecord
  2
ACANSTGL
 70
     0
  3
_ _ _ _ _
 72
    65
 73
     2
 40
0.11811023622
 49
0.07874015748
 74
     0
 49
-0.03937007874
 74
     0
  0
LTYPE
  5
6A48
330
6A1B
100
AcDbSymbolTableRecord
100
AcDbLinetypeTableRecord
  2
DASHED
 70
     0
  3
__ __ __ __ __ __ __ __ __ __ __ __ __ __ __ __
 72
    65
 73
     2
 40
19.05
 49
12.7
 74
     0
 49
-6.349999999999998
 74
     0
  0
LTYPE
  5
6D97
330
6A1B
100
AcDbSymbolTableRecord
100
AcDbLinetypeTableRecord
  2
ACDINWELD
 70
     0
  3
_ _ _ _ _
 72
    65
 73
     2
 40
2.0
 49
2.0
 74
     0
 49
-1.0
 74
     0
  0
LTYPE
  5
6D98
330
6A1B
100
AcDbSymbolTableRecord
100
AcDbLinetypeTableRecord
  2
ACDINTGB
 70
     0
  3
__ . . __ . .
 72
    65
 73
     6
 40
9.0
 49
4.0
 74
     0
 49
-1.0
 74
     0
 49
1.0
 74
     0
 49
-1.0
 74
     0
 49
1.0
 74
     0
 49
-1.0
 74
     0
  0
LTYPE
  5
6D99
330
6A1B
100
AcDbSymbolTableRecord
100
AcDbLinetypeTableRecord
  2
ACDINTGL
 70
     0
  3
_ _ _ _ _
 72
    65
 73
     2
 40
3.0
 49
2.0
 74
     0
 49
-1.0
 74
     0
  0
LTYPE
  5
7F02
330
6A1B
100
AcDbSymbolTableRecord
100
AcDbLinetypeTableRecord
  2
AMZIGZAG
 70
     0
  3
/\/-/\/-/\/-/\/-/\/-/\/
 72
    65
 73
     2
 40
11.00009999999999
 49
0.0001
 74
     4
 75
   135
340
6A5B
 46
0.04
 50
0.0
 44
0.0
 45
0.0
 49
-11.0
 74
     0
  0
LTYPE
  5
7F03
330
6A1B
100
AcDbSymbolTableRecord
100
AcDbLinetypeTableRecord
  2
AM_DIN_F_W050
 70
     0
  3
__ __ __ __ __ __ __ __ __ __ __ __ __ __ __
 72
    65
 73
     2
 40
6.25
 49
4.75
 74
     0
 49
-1.5
 74
     0
  0
LTYPE
  5
7F04
330
6A1B
100
AcDbSymbolTableRecord
100
AcDbLinetypeTableRecord
  2
AM_DIN_G_W050
 70
     0
  3
____ . ____ . ____ . ____ . ____ . ____ . ____
 72
    65
 73
     4
 40
13.75
 49
9.75
 74
     0
 49
-1.5
 74
     0
 49
1.0
 74
     0
 49
-1.5
 74
     0
  0
LTYPE
  5
7F05
330
6A1B
100
AcDbSymbolTableRecord
100
AcDbLinetypeTableRecord
  2
AM_DIN_K_W050
 70
     0
  3
_____ . . _____ . . _____ . . ____ .. ____
 72
    65
 73
     6
 40
16.25
 49
9.75
 74
     0
 49
-1.5
 74
     0
 49
1.0
 74
     0
 49
-1.5
 74
     0
 49
1.0
 74
     0
 49
-1.5
 74
     0
  0
LTYPE
  5
7F06
330
6A1B
100
AcDbSymbolTableRecord
100
AcDbLinetypeTableRecord
  2
AM_DIN_G_W050X2
 70
     0
  3
__ . __ . __ . __ . __ . __
 72
    65
 73
     4
 40
6.875
 49
4.75
 74
     0
 49
-0.875
 74
     0
 49
0.375
 74
     0
 49
-0.875
 74
     0
  0
LTYPE
  5
7F07
330
6A1B
100
AcDbSymbolTableRecord
100
AcDbLinetypeTableRecord
  2
AM_DIN_F_W050X2
 70
     0
  3
 _ _ _ _ _ _ _ _ _ _ _ _
 72
    65
 73
     2
 40
3.125
 49
2.25
 74
     0
 49
-0.875
 74
     0
  0
ENDTAB
  0
TABLE
  2
LAYER
  5
6A18
330
0
100
AcDbSymbolTable
 70
    12
  0
LAYER
  5
6A26
330
6A18
100
AcDbSymbolTableRecord
100
AcDbLayerTableRecord
  2
0
 70
     0
 62
     7
  6
CONTINUOUS
  0
LAYER
  5
6A4B
330
6A18
100
AcDbSymbolTableRecord
100
AcDbLayerTableRecord
  2
DEFPOINTS
 70
     0
 62
     7
  6
CONTINUOUS
  0
LAYER
  5
6A4C
330
6A18
100
AcDbSymbolTableRecord
100
AcDbLayerTableRecord
  2
1
 70
     0
 62
     4
  6
CONTINUOUS
  0
LAYER
  5
6A4D
330
6A18
100
AcDbSymbolTableRecord
100
AcDbLayerTableRecord
  2
2
 70
     0
 62
     7
  6
CONTINUOUS
  0
LAYER
  5
6A4F
330
6A18
100
AcDbSymbolTableRecord
100
AcDbLayerTableRecord
  2
4
 70
     0
 62
     2
  6
CENTER
  0
LAYER
  5
6A50
330
6A18
100
AcDbSymbolTableRecord
100
AcDbLayerTableRecord
  2
6
 70
     0
 62
     5
  6
CONTINUOUS
  0
LAYER
  5
6A53
330
6A18
100
AcDbSymbolTableRecord
100
AcDbLayerTableRecord
  2
SK1
 70
     0
 62
     4
  6
CONTINUOUS
  0
LAYER
  5
6A54
330
6A18
100
AcDbSymbolTableRecord
100
AcDbLayerTableRecord
  2
SK2
 70
     0
 62
     7
  6
CONTINUOUS
  0
LAYER
  5
6A55
330
6A18
100
AcDbSymbolTableRecord
100
AcDbLayerTableRecord
  2
SK3
 70
     0
 62
     1
  6
DASHED
  0
LAYER
  5
6A56
330
6A18
100
AcDbSymbolTableRecord
100
AcDbLayerTableRecord
  2
SK4
 70
     0
 62
     2
  6
CENTER
  0
LAYER
  5
6A57
330
6A18
100
AcDbSymbolTableRecord
100
AcDbLayerTableRecord
  2
CUT
 70
     0
 62
     1
  6
CONTINUOUS
  0
LAYER
  5
6A58
330
6A18
100
AcDbSymbolTableRecord
100
AcDbLayerTableRecord
  2
NOCUT
 70
     0
 62
     7
  6
CONTINUOUS
  0
ENDTAB
  0
TABLE
  2
STYLE
  5
6A19
330
0
100
AcDbSymbolTable
 70
     6
  0
STYLE
  5
6A27
330
6A19
100
AcDbSymbolTableRecord
100
AcDbTextStyleTableRecord
  2
STANDARD
 70
     0
 40
0.0
 41
1.0
 50
0.0
 71
     0
 42
2.5
  3
ISOCP.SHX
  4

  0
STYLE
  5
6A5B
330
6A19
100
AcDbSymbolTableRecord
100
AcDbTextStyleTableRecord
  2

 70
     1
 40
0.0
 41
1.0
 50
0.0
 71
     0
 42
2.5
  3
ltypeshp.shx
  4

  0
STYLE
  5
6A5E
330
6A19
100
AcDbSymbolTableRecord
100
AcDbTextStyleTableRecord
  2
ACANSTS
 70
     0
 40
1.0
 41
1.0
 50
0.0
 71
     0
 42
0.2
  3
romans.shx
  4

  0
STYLE
  5
6A5F
330
6A19
100
AcDbSymbolTableRecord
100
AcDbTextStyleTableRecord
  2
ACANSGDT
 70
     0
 40
0.0
 41
1.0
 50
0.0
 71
     0
 42
0.2
  3
amgdtans.shx
  4

  0
STYLE
  5
6D9A
330
6A19
100
AcDbSymbolTableRecord
100
AcDbTextStyleTableRecord
  2
ACDINTS
 70
     0
 40
1.0
 41
1.0
 50
0.0
 71
     0
 42
2.5
  3
isocp.shx
  4

  0
STYLE
  5
6D9B
330
6A19
100
AcDbSymbolTableRecord
100
AcDbTextStyleTableRecord
  2
ACDINGDT
 70
     0
 40
0.0
 41
1.0
 50
0.0
 71
     0
 42
2.5
  3
amgdt.shx
  4

  0
ENDTAB
  0
TABLE
  2
VIEW
  5
6A1C
330
0
100
AcDbSymbolTable
 70
     6
  0
VIEW
  5
6A60
330
6A1C
100
AcDbSymbolTableRecord
100
AcDbViewTableRecord
  2
AM_VIEW1
 70
     0
 40
148.5
 10
131.508173076923
 20
222.75
 41
263.016346153846
 11
0.0
 21
0.0
 31
1.0
 12
0.0
 22
0.0
 32
0.0
 42
50.0
 43
0.0
 44
0.0
 50
0.0
 71
    16
  0
VIEW
  5
6A61
330
6A1C
100
AcDbSymbolTableRecord
100
AcDbViewTableRecord
  2
AM_VIEW2
 70
     0
 40
148.5
 10
78.4918269230769
 20
222.75
 41
263.016346153846
 11
0.0
 21
0.0
 31
1.0
 12
0.0
 22
0.0
 32
0.0
 42
50.0
 43
0.0
 44
0.0
 50
0.0
 71
    16
  0
VIEW
  5
6A62
330
6A1C
100
AcDbSymbolTableRecord
100
AcDbViewTableRecord
  2
AM_VIEW3
 70
     0
 40
148.5
 10
131.508173076923
 20
74.25
 41
263.016346153846
 11
0.0
 21
0.0
 31
1.0
 12
0.0
 22
0.0
 32
0.0
 42
50.0
 43
0.0
 44
0.0
 50
0.0
 71
    16
  0
VIEW
  5
6A63
330
6A1C
100
AcDbSymbolTableRecord
100
AcDbViewTableRecord
  2
AM_VIEW4
 70
     0
 40
148.5
 10
78.4918269230769
 20
74.25
 41
263.016346153846
 11
0.0
 21
0.0
 31
1.0
 12
0.0
 22
0.0
 32
0.0
 42
50.0
 43
0.0
 44
0.0
 50
0.0
 71
    16
  0
VIEW
  5
6A64
330
6A1C
100
AcDbSymbolTableRecord
100
AcDbViewTableRecord
  2
AM_VIEW5
 70
     0
 40
148.5
 10
105.0
 20
148.5
 41
263.016346153846
 11
0.0
 21
0.0
 31
1.0
 12
0.0
 22
0.0
 32
0.0
 42
50.0
 43
0.0
 44
0.0
 50
0.0
 71
    16
  0
VIEW
  5
6A65
330
6A1C
100
AcDbSymbolTableRecord
100
AcDbViewTableRecord
  2
AM_VIEW6
 70
     0
 40
296.9970299999999
 10
105.0
 20
148.5
 41
526.0274319807693
 11
0.0
 21
0.0
 31
1.0
 12
0.0
 22
0.0
 32
0.0
 42
50.0
 43
0.0
 44
0.0
 50
0.0
 71
    16
  0
ENDTAB
  0
TABLE
  2
UCS
  5
6A1D
330
0
100
AcDbSymbolTable
 70
     0
  0
ENDTAB
  0
TABLE
  2
APPID
  5
6A1F
330
0
100
AcDbSymbolTable
 70
    44
  0
APPID
  5
6A28
330
6A1F
100
AcDbSymbolTableRecord
100
AcDbRegAppTableRecord
  2
ACAD
 70
     0
  0
APPID
  5
6A66
330
6A1F
100
AcDbSymbolTableRecord
100
AcDbRegAppTableRecord
  2
MCAD_NO_VIS
 70
     0
  0
APPID
  5
6A67
330
6A1F
100
AcDbSymbolTableRecord
100
AcDbRegAppTableRecord
  2
ACAD_TEMP_GRAPHIC
 70
     0
  0
APPID
  5
6A68
330
6A1F
100
AcDbSymbolTableRecord
100
AcDbRegAppTableRecord
  2
ACATTRIBSERVICES
 70
     0
  0
APPID
  5
6A69
330
6A1F
100
AcDbSymbolTableRecord
100
AcDbRegAppTableRecord
  2
GENIUS_GENDIMSH_14
 70
     0
  0
APPID
  5
6A6A
330
6A1F
100
AcDbSymbolTableRecord
100
AcDbRegAppTableRecord
  2
GENIUS_GENBLLY_14
 70
     0
  0
APPID
  5
6A6B
330
6A1F
100
AcDbSymbolTableRecord
100
AcDbRegAppTableRecord
  2
GENIUS_GENTRA_14
 70
     0
  0
APPID
  5
6A6C
330
6A1F
100
AcDbSymbolTableRecord
100
AcDbRegAppTableRecord
  2
GENIUS_GENODEF_13
 70
     0
  0
APPID
  5
6A6D
330
6A1F
100
AcDbSymbolTableRecord
100
AcDbRegAppTableRecord
  2
GENIUS_GENOLIS_13
 70
     0
  0
APPID
  5
6A6E
330
6A1F
100
AcDbSymbolTableRecord
100
AcDbRegAppTableRecord
  2
GENIUS_GENOENT_13
 70
     0
  0
APPID
  5
6A6F
330
6A1F
100
AcDbSymbolTableRecord
100
AcDbRegAppTableRecord
  2
GENIUS_GENOBJ-N-TIT_13
 70
     0
  0
APPID
  5
6A70
330
6A1F
100
AcDbSymbolTableRecord
100
AcDbRegAppTableRecord
  2
GENIUS_GENTITLE_13
 70
     0
  0
APPID
  5
6A71
330
6A1F
100
AcDbSymbolTableRecord
100
AcDbRegAppTableRecord
  2
GENIUS_GENOREF_13
 70
     0
  0
APPID
  5
6A72
330
6A1F
100
AcDbSymbolTableRecord
100
AcDbRegAppTableRecord
  2
GENIUS_GENSCREG_15
 70
     0
  0
APPID
  5
6A73
330
6A1F
100
AcDbSymbolTableRecord
100
AcDbRegAppTableRecord
  2
GENIUS_GENOBJ-N-SDF_13
 70
     0
  0
APPID
  5
6A74
330
6A1F
100
AcDbSymbolTableRecord
100
AcDbRegAppTableRecord
  2
ACADIGES
 70
     0
  0
APPID
  5
6A75
330
6A1F
100
AcDbSymbolTableRecord
100
AcDbRegAppTableRecord
  2
GENIUS_GENOBJ-N-HTC_13
 70
     0
  0
APPID
  5
6A76
330
6A1F
100
AcDbSymbolTableRecord
100
AcDbRegAppTableRecord
  2
GENIUS_GENHATCH_13
 70
     0
  0
APPID
  5
6DA2
330
6A1F
100
AcDbSymbolTableRecord
100
AcDbRegAppTableRecord
  2
GENIUS_GENOBJ-N-CRS_13
 70
     0
  0
APPID
  5
6DA3
330
6A1F
100
AcDbSymbolTableRecord
100
AcDbRegAppTableRecord
  2
GENIUS_GENOBJ-N-FIL_13
 70
     0
  0
APPID
  5
6DD2
330
6A1F
100
AcDbSymbolTableRecord
100
AcDbRegAppTableRecord
  2
GENIUS_GENFIL_13
 70
     0
  0
APPID
  5
6DD3
330
6A1F
100
AcDbSymbolTableRecord
100
AcDbRegAppTableRecord
  2
GENIUS_GENOBJ-N-CHA_13
 70
     0
  0
APPID
  5
7FE2
330
6A1F
100
AcDbSymbolTableRecord
100
AcDbRegAppTableRecord
  2
GENIUS12
 70
     0
  0
APPID
  5
7FE3
330
6A1F
100
AcDbSymbolTableRecord
100
AcDbRegAppTableRecord
  2
GENIUS_GENCFG_13
 70
     0
  0
APPID
  5
7FE4
330
6A1F
100
AcDbSymbolTableRecord
100
AcDbRegAppTableRecord
  2
GENIUS_GENCFG0_13
 70
     0
  0
APPID
  5
7FE5
330
6A1F
100
AcDbSymbolTableRecord
100
AcDbRegAppTableRecord
  2
GENIUS_GENCFG1_13
 70
     0
  0
APPID
  5
7FE6
330
6A1F
100
AcDbSymbolTableRecord
100
AcDbRegAppTableRecord
  2
GENIUS_GENCFG2_13
 70
     0
  0
APPID
  5
7FE7
330
6A1F
100
AcDbSymbolTableRecord
100
AcDbRegAppTableRecord
  2
GENIUS_GENCFG3_13
 70
     0
  0
APPID
  5
7FE8
330
6A1F
100
AcDbSymbolTableRecord
100
AcDbRegAppTableRecord
  2
GENIUS_GENCFG4_13
 70
     0
  0
APPID
  5
7FE9
330
6A1F
100
AcDbSymbolTableRecord
100
AcDbRegAppTableRecord
  2
GENIUS_GEVCFG0_13
 70
     0
  0
APPID
  5
7FEA
330
6A1F
100
AcDbSymbolTableRecord
100
AcDbRegAppTableRecord
  2
GENIUS_GEFCFG0_13
 70
     0
  0
APPID
  5
7FEB
330
6A1F
100
AcDbSymbolTableRecord
100
AcDbRegAppTableRecord
  2
GENIUS_GENOBJ-F-SUF_13
 70
     0
  0
APPID
  5
7FEC
330
6A1F
100
AcDbSymbolTableRecord
100
AcDbRegAppTableRecord
  2
GENIUS_GENDIM_13
 70
     0
  0
APPID
  5
7FED
330
6A1F
100
AcDbSymbolTableRecord
100
AcDbRegAppTableRecord
  2
GENIUS_GENDTOL_13
 70
     0
  0
APPID
  5
7FEE
330
6A1F
100
AcDbSymbolTableRecord
100
AcDbRegAppTableRecord
  2
GENIUS_GE3DTOL_13
 70
     0
  0
APPID
  5
7FEF
330
6A1F
100
AcDbSymbolTableRecord
100
AcDbRegAppTableRecord
  2
AD_DRAW
 70
     0
  0
APPID
  5
7FF0
330
6A1F
100
AcDbSymbolTableRecord
100
AcDbRegAppTableRecord
  2
ASURF_PCURVE_APPNAME
 70
     0
  0
APPID
  5
7FF1
330
6A1F
100
AcDbSymbolTableRecord
100
AcDbRegAppTableRecord
  2
AMG_3D2D_5_0
 70
     0
  0
APPID
  5
7FF2
330
6A1F
100
AcDbSymbolTableRecord
100
AcDbRegAppTableRecord
  2
DESIGNERASSEMBLIES
 70
     0
  0
APPID
  5
7FF3
330
6A1F
100
AcDbSymbolTableRecord
100
AcDbRegAppTableRecord
  2
ACADM_DIM_EDIT
 70
     0
  0
APPID
  5
7FF4
330
6A1F
100
AcDbSymbolTableRecord
100
AcDbRegAppTableRecord
  2
AMDT_DM_ADJ
 70
     0
  0
APPID
  5
8053
330
6A1F
100
AcDbSymbolTableRecord
100
AcDbRegAppTableRecord
  2
GENIUS_GENOBJ-N-CEN_13
 70
     0
  0
APPID
  5
8651
330
6A1F
100
AcDbSymbolTableRecord
100
AcDbRegAppTableRecord
  2
AD_SKETCHDIM
 70
     0
  0
APPID
  5
8652
330
6A1F
100
AcDbSymbolTableRecord
100
AcDbRegAppTableRecord
  2
GEV_VCCNULL_SWITCH_OFF
 70
     0
  0
ENDTAB
  0
TABLE
  2
DIMSTYLE
  5
6A20
330
0
100
AcDbSymbolTable
 70
    14
  0
DIMSTYLE
105
6A77
102
{ACAD_REACTORS
330
81C5
330
9034
330
906D
330
90AE
330
9103
330
9157
102
}
330
6A20
100
AcDbSymbolTableRecord
100
AcDbDimStyleTableRecord
  2
AM_DIN
 70
     0
  3

  4
"
  5

  6

  7

 40
1.0
 41
2.5
 42
0.0
 43
10.0
 44
1.0
 45
0.0
 46
0.0
 47
0.1
 48
0.1
140
3.5
141
0.0
142
0.0
143
0.0393701
144
1.0
145
0.0
146
0.71
147
1.5
 71
     0
 72
     0
 73
     0
 74
     0
 75
     0
 76
     0
 77
     1
 78
     8
170
     0
171
     2
172
     1
173
     0
174
     0
175
     0
176
   256
177
   256
178
     2
270
     2
271
     2
272
     2
273
     2
274
     2
340
6A27
275
     0
280
     0
281
     0
282
     0
283
     1
284
     8
285
     8
286
     8
287
     5
288
     0
  0
DIMSTYLE
105
6A7E
330
6A20
100
AcDbSymbolTableRecord
100
AcDbDimStyleTableRecord
  2
STANDARD
 70
     0
  3

  4

  5

  6

  7

 40
1.0
 41
0.18
 42
0.0625
 43
0.38
 44
0.18
 45
0.0
 46
0.0
 47
0.0
 48
0.0
140
0.18
141
0.09
142
0.0
143
25.4
144
1.0
145
0.0
146
1.0
147
0.09
 71
     0
 72
     0
 73
     1
 74
     1
 75
     0
 76
     0
 77
     0
 78
     0
170
     0
171
     2
172
     0
173
     0
174
     0
175
     0
176
     0
177
     0
178
     0
270
     2
271
     2
272
     2
273
     2
274
     2
340
6A27
275
     0
280
     0
281
     0
282
     0
283
     1
284
     8
285
     8
286
     8
287
     5
288
     0
  0
DIMSTYLE
105
6A7F
330
6A20
100
AcDbSymbolTableRecord
100
AcDbDimStyleTableRecord
  2
AM_ANSI
 70
     0
  3

  4
mm
  5

  6

  7

 40
1.0
 41
0.1
 42
0.05
 43
0.5
 44
0.1
 45
0.0
 46
0.0
 47
0.1
 48
0.1
140
0.12
141
0.0
142
0.0
143
25.4
144
1.0
145
0.0
146
0.71
147
0.06
 71
     0
 72
     0
 73
     1
 74
     1
 75
     0
 76
     0
 77
     0
 78
     7
170
     0
171
     2
172
     0
173
     0
174
     0
175
     0
176
   256
177
   256
178
     2
270
     2
271
     2
272
     2
273
     2
274
     2
340
6A27
275
     0
280
     0
281
     0
282
     0
283
     1
284
     8
285
     8
286
     8
287
     5
288
     0
  0
DIMSTYLE
105
6A80
330
6A20
100
AcDbSymbolTableRecord
100
AcDbDimStyleTableRecord
  2
AM_ANSI$3
 70
     0
  3

  4
mm
  5

  6

  7

 40
1.0
 41
0.1
 42
0.05
 43
0.5
 44
0.1
 45
0.0
 46
0.0
 47
0.1
 48
0.1
140
0.12
141
0.0
142
0.0
143
25.4
144
1.0
145
0.0
146
0.71
147
0.06
 71
     0
 72
     0
 73
     1
 74
     1
 75
     0
 76
     0
 77
     0
 78
     7
170
     0
171
     2
172
     0
173
     0
174
     0
175
     0
176
   256
177
   256
178
     2
270
     2
271
     2
272
     2
273
     2
274
     2
340
6A27
275
     0
280
     0
281
     0
282
     0
283
     1
284
     8
285
     8
286
     8
287
     5
288
     0
  0
DIMSTYLE
105
6A81
330
6A20
100
AcDbSymbolTableRecord
100
AcDbDimStyleTableRecord
  2
AM_ANSI$4
 70
     0
  3

  4
mm
  5

  6

  7

 40
1.0
 41
0.1
 42
0.05
 43
0.5
 44
0.1
 45
0.0
 46
0.0
 47
0.1
 48
0.1
140
0.12
141
0.0
142
0.0
143
25.4
144
1.0
145
0.0
146
0.71
147
0.06
 71
     0
 72
     0
 73
     1
 74
     1
 75
     0
 76
     0
 77
     0
 78
     7
170
     0
171
     2
172
     0
173
     0
174
     0
175
     0
176
   256
177
   256
178
     2
270
     2
271
     2
272
     2
273
     2
274
     2
340
6A27
275
     0
280
     0
281
     0
282
     0
283
     1
284
     8
285
     8
286
     8
287
     5
288
     0
  0
DIMSTYLE
105
6A82
330
6A20
100
AcDbSymbolTableRecord
100
AcDbDimStyleTableRecord
  2
AM_ANSI$7
 70
     0
  3

  4
mm
  5

  6

  7

 40
1.0
 41
0.1
 42
0.05
 43
0.5
 44
0.1
 45
0.0
 46
0.0
 47
0.1
 48
0.1
140
0.24
141
0.0
142
0.0
143
25.4
144
1.0
145
0.0
146
0.71
147
0.06
 71
     0
 72
     0
 73
     1
 74
     1
 75
     0
 76
     0
 77
     0
 78
     7
170
     0
171
     2
172
     0
173
     0
174
     0
175
     0
176
   256
177
   256
178
     2
270
     2
271
     2
272
     2
273
     2
274
     2
340
6A27
275
     0
280
     0
281
     0
282
     0
283
     1
284
     8
285
     8
286
     8
287
     5
288
     0
  0
DIMSTYLE
105
6A83
330
6A20
100
AcDbSymbolTableRecord
100
AcDbDimStyleTableRecord
  2
AM_ANSI$SF
 70
     0
  3

  4
mm
  5

  6

  7

 40
1.0
 41
0.1
 42
0.05
 43
0.5
 44
0.1
 45
0.0
 46
0.0
 47
0.1
 48
0.1
140
0.12
141
0.0
142
0.0
143
25.4
144
1.0
145
0.0
146
0.71
147
0.06
 71
     0
 72
     0
 73
     1
 74
     1
 75
     1
 76
     1
 77
     0
 78
     7
170
     0
171
     2
172
     0
173
     0
174
     0
175
     0
176
   256
177
   256
178
     2
270
     2
271
     2
272
     2
273
     2
274
     2
340
6A27
275
     0
280
     0
281
     0
282
     0
283
     1
284
     8
285
     8
286
     8
287
     5
288
     0
  0
DIMSTYLE
105
6A84
330
6A20
100
AcDbSymbolTableRecord
100
AcDbDimStyleTableRecord
  2
AM_ANSI$SH
 70
     0
  3

  4
mm
  5

  6

  7

 40
1.0
 41
0.1
 42
0.05
 43
0.5
 44
0.1
 45
0.0
 46
0.0
 47
0.1
 48
0.1
140
0.12
141
0.0
142
0.0
143
25.4
144
1.0
145
0.0
146
0.71
147
0.06
 71
     0
 72
     0
 73
     1
 74
     1
 75
     1
 76
     1
 77
     0
 78
     7
170
     0
171
     2
172
     0
173
     1
174
     0
175
     0
176
   256
177
   256
178
     2
270
     2
271
     2
272
     2
273
     2
274
     2
340
6A27
275
     0
280
     0
281
     0
282
     0
283
     1
284
     8
285
     8
286
     8
287
     5
288
     0
  0
DIMSTYLE
105
6D9C
330
6A20
100
AcDbSymbolTableRecord
100
AcDbDimStyleTableRecord
  2
AM_DIN$3
 70
     0
  3

  4
"
  5

  6

  7

 40
1.0
 41
3.5
 42
0.0
 43
10.0
 44
1.0
 45
0.0
 46
0.0
 47
0.1
 48
0.1
140
3.5
141
0.0
142
0.0
143
0.0393701
144
1.0
145
0.0
146
0.71
147
1.5
 71
     0
 72
     0
 73
     0
 74
     1
 75
     0
 76
     0
 77
     1
 78
     8
170
     0
171
     2
172
     0
173
     0
174
     0
175
     0
176
   256
177
   256
178
     2
270
     2
271
     2
272
     2
273
     2
274
     2
340
6A27
275
     0
280
     0
281
     0
282
     0
283
     0
284
     8
285
     0
286
     0
287
     0
288
     1
  0
DIMSTYLE
105
6D9D
330
6A20
100
AcDbSymbolTableRecord
100
AcDbDimStyleTableRecord
  2
AM_DIN$4
 70
     0
  3

  4
"
  5

  6

  7

 40
1.0
 41
3.5
 42
0.0
 43
10.0
 44
1.0
 45
0.0
 46
0.0
 47
0.1
 48
0.1
140
3.5
141
0.0
142
0.0
143
0.0393701
144
1.0
145
0.0
146
0.71
147
1.5
 71
     0
 72
     0
 73
     0
 74
     1
 75
     0
 76
     0
 77
     1
 78
     8
170
     0
171
     2
172
     0
173
     0
174
     0
175
     0
176
   256
177
   256
178
     2
270
     2
271
     2
272
     2
273
     2
274
     2
340
6A27
275
     0
280
     0
281
     0
282
     0
283
     0
284
     8
285
     0
286
     0
287
     0
288
     1
  0
DIMSTYLE
105
6D9E
330
6A20
100
AcDbSymbolTableRecord
100
AcDbDimStyleTableRecord
  2
AM_DIN$6
 70
     0
  3

  4
"
  5

  6

  7

 40
1.0
 41
3.5
 42
0.0
 43
0.0
 44
1.0
 45
0.0
 46
0.0
 47
0.1
 48
0.1
140
3.5
141
0.0
142
0.0
143
0.0393701
144
1.0
145
0.0
146
0.71
147
1.5
 71
     0
 72
     0
 73
     0
 74
     0
 75
     0
 76
     0
 77
     0
 78
     8
170
     0
171
     2
172
     1
173
     0
174
     0
175
     0
176
   256
177
   256
178
     2
270
     2
271
     2
272
     2
273
     2
274
     2
340
6A27
275
     0
280
     0
281
     0
282
     0
283
     0
284
     8
285
     0
286
     0
287
     3
288
     0
  0
DIMSTYLE
105
6D9F
330
6A20
100
AcDbSymbolTableRecord
100
AcDbDimStyleTableRecord
  2
AM_DIN$7
 70
     0
  3

  4
"
  5

  6

  7

 40
1.0
 41
3.5
 42
0.0
 43
10.0
 44
1.0
 45
0.0
 46
0.0
 47
0.1
 48
0.1
140
3.5
141
0.0
142
0.0
143
0.0393701
144
1.0
145
0.0
146
0.71
147
1.5
 71
     0
 72
     0
 73
     0
 74
     0
 75
     0
 76
     0
 77
     1
 78
     8
170
     0
171
     2
172
     1
173
     0
174
     0
175
     0
176
   256
177
   256
178
     2
270
     2
271
     2
272
     2
273
     2
274
     2
340
6A27
275
     0
280
     0
281
     0
282
     0
283
     0
284
     8
285
     0
286
     0
287
     3
288
     0
  0
DIMSTYLE
105
6DA0
330
6A20
100
AcDbSymbolTableRecord
100
AcDbDimStyleTableRecord
  2
AM_DIN$SF
 70
     0
  3

  4
"
  5

  6

  7

 40
1.0
 41
2.5
 42
1.0
 43
10.0
 44
1.0
 45
0.0
 46
0.0
 47
0.1
 48
0.1
140
3.5
141
0.0
142
0.0
143
0.0393701
144
1.0
145
0.0
146
0.71
147
1.5
 71
     0
 72
     0
 73
     0
 74
     0
 75
     1
 76
     1
 77
     1
 78
     8
170
     0
171
     2
172
     1
173
     0
174
     0
175
     0
176
   256
177
   256
178
     2
270
     2
271
     2
272
     3
273
     2
274
     4
340
6A27
275
     0
280
     0
281
     0
282
     0
283
     0
284
     8
285
     0
286
     0
287
     3
288
     0
  0
DIMSTYLE
105
6DA1
330
6A20
100
AcDbSymbolTableRecord
100
AcDbDimStyleTableRecord
  2
AM_DIN$SH
 70
     0
  3

  4
"
  5

  6
GENAXEH
  7

 40
1.0
 41
2.5
 42
1.0
 43
10.0
 44
1.0
 45
0.0
 46
0.0
 47
0.1
 48
0.1
140
3.5
141
0.0
142
0.0
143
0.0393701
144
2.0
145
0.0
146
0.71
147
1.5
 71
     0
 72
     0
 73
     0
 74
     0
 75
     1
 76
     1
 77
     1
 78
     8
170
     0
171
     2
172
     1
173
     1
174
     0
175
     0
176
   256
177
   256
178
     2
270
     2
271
     2
272
     3
273
     2
274
     4
340
6A27
275
     0
280
     0
281
     0
282
     0
283
     0
284
     8
285
     0
286
     0
287
     3
288
     0
  0
ENDTAB
  0
TABLE
  2
BLOCK_RECORD
  5
6A17
330
0
100
AcDbSymbolTable
 70
     7
  0
BLOCK_RECORD
  5
6A34
102
{ACAD_XDICTIONARY
360
6B62
102
}
330
6A17
100
AcDbSymbolTableRecord
100
AcDbBlockTableRecord
  2
*MODEL_SPACE
  0
BLOCK_RECORD
  5
6A30
102
{ACAD_XDICTIONARY
360
91E5
102
}
330
6A17
100
AcDbSymbolTableRecord
100
AcDbBlockTableRecord
  2
*PAPER_SPACE
  0
BLOCK_RECORD
  5
6D93
330
6A17
100
AcDbSymbolTableRecord
100
AcDbBlockTableRecord
  2
GENAXEH
  0
BLOCK_RECORD
  5
81C6
330
6A17
100
AcDbSymbolTableRecord
100
AcDbBlockTableRecord
  2
*D1
  0
BLOCK_RECORD
  5
9035
330
6A17
100
AcDbSymbolTableRecord
100
AcDbBlockTableRecord
  2
*D2
  0
BLOCK_RECORD
  5
906E
330
6A17
100
AcDbSymbolTableRecord
100
AcDbBlockTableRecord
  2
*D3
  0
BLOCK_RECORD
  5
90AF
330
6A17
100
AcDbSymbolTableRecord
100
AcDbBlockTableRecord
  2
*D4
  0
BLOCK_RECORD
  5
9104
330
6A17
100
AcDbSymbolTableRecord
100
AcDbBlockTableRecord
  2
*D5
  0
BLOCK_RECORD
  5
9158
330
6A17
100
AcDbSymbolTableRecord
100
AcDbBlockTableRecord
  2
*D6
  0
ENDTAB
  0
ENDSEC
  0
SECTION
  2
BLOCKS
  0
BLOCK
  5
6A35
330
6A34
100
AcDbEntity
  8
0
100
AcDbBlockBegin
  2
*MODEL_SPACE
 70
     0
 10
0.0
 20
0.0
 30
0.0
  3
*MODEL_SPACE
  1

  0
ENDBLK
  5
6A36
330
6A34
100
AcDbEntity
  8
0
100
AcDbBlockEnd
  0
BLOCK
  5
6A31
330
6A30
100
AcDbEntity
 67
     1
  8
0
100
AcDbBlockBegin
  2
*PAPER_SPACE
 70
     0
 10
0.0
 20
0.0
 30
0.0
  3
*PAPER_SPACE
  1

  0
ENDBLK
  5
6A32
330
6A30
100
AcDbEntity
 67
     1
  8
0
100
AcDbBlockEnd
  0
BLOCK
  5
6D95
330
6D93
100
AcDbEntity
  8
0
100
AcDbBlockBegin
  2
GENAXEH
 70
     0
 10
0.0
 20
0.0
 30
0.0
  3
GENAXEH
  1

  0
LINE
  5
6D94
330
6D93
100
AcDbEntity
  8
0
100
AcDbLine
 10
-1.0
 20
0.0
 30
0.0
 11
1.0
 21
0.0
 31
0.0
  0
ENDBLK
  5
6D96
330
6D93
100
AcDbEntity
  8
0
100
AcDbBlockEnd
  0
BLOCK
  5
81D0
330
81C6
100
AcDbEntity
  8
0
100
AcDbBlockBegin
  2
*D1
 70
     1
 10
0.0
 20
0.0
 30
0.0
  3
*D1
  1

  0
LINE
  5
87E5
330
81C6
100
AcDbEntity
  8
SK2
100
AcDbLine
 10
-59.0
 20
16.00000000000003
 30
0.0
 11
-78.95709209529195
 21
16.00000000000003
 31
0.0
  0
LINE
  5
87E6
330
81C6
100
AcDbEntity
  8
SK2
100
AcDbLine
 10
-59.00000000000003
 20
-15.99999999999996
 30
0.0
 11
-78.95709209529195
 21
-15.99999999999996
 31
0.0
  0
LINE
  5
87E7
330
81C6
100
AcDbEntity
  8
SK2
100
AcDbLine
 10
-77.95709209529196
 20
13.50000000000003
 30
0.0
 11
-77.95709209529196
 21
-13.49999999999996
 31
0.0
  0
SOLID
  5
87E8
330
81C6
100
AcDbEntity
  8
SK2
100
AcDbTrace
 10
-78.37375876195863
 20
13.50000000000003
 30
0.0
 11
-77.54042542862528
 21
13.50000000000003
 31
0.0
 12
-77.95709209529196
 22
16.00000000000003
 32
0.0
 13
-77.95709209529196
 23
16.00000000000003
 33
0.0
  0
SOLID
  5
87E9
330
81C6
100
AcDbEntity
  8
SK2
100
AcDbTrace
 10
-78.37375876195863
 20
-13.49999999999996
 30
0.0
 11
-77.54042542862528
 21
-13.49999999999996
 31
0.0
 12
-77.95709209529196
 22
-15.99999999999996
 32
0.0
 13
-77.95709209529196
 23
-15.99999999999996
 33
0.0
  0
MTEXT
  5
87EA
330
81C6
100
AcDbEntity
  8
SK2
 62
     2
100
AcDbMText
 10
-81.20743658348093
 20
0.000000000000022
 30
0.0
 40
3.5
 41
0.0
 71
     5
 72
     1
  1
\A1;%%c32
 11
0.0000000000000001
 21
1.0
 31
0.0
1001
ACAD
1000
MTEXTBEGIN
1070
    73
1070
     1
1070
    44
1040
1.0
1070
    74
1070
     0
1000
MTEXTEND
  0
POINT
  5
87EB
330
81C6
100
AcDbEntity
  8
DEFPOINTS
 62
     0
100
AcDbPoint
 10
-59.0
 20
16.00000000000003
 30
0.0
  0
POINT
  5
87EC
330
81C6
100
AcDbEntity
  8
DEFPOINTS
 62
     0
100
AcDbPoint
 10
-59.00000000000003
 20
-15.99999999999996
 30
0.0
  0
POINT
  5
87ED
330
81C6
100
AcDbEntity
  8
DEFPOINTS
 62
     0
100
AcDbPoint
 10
-77.95709209529196
 20
-15.99999999999996
 30
0.0
  0
ENDBLK
  5
81D1
330
81C6
100
AcDbEntity
  8
0
100
AcDbBlockEnd
  0
BLOCK
  5
903F
330
9035
100
AcDbEntity
  8
0
100
AcDbBlockBegin
  2
*D2
 70
     1
 10
0.0
 20
0.0
 30
0.0
  3
*D2
  1

  0
LINE
  5
9054
330
9035
100
AcDbEntity
  8
SK2
100
AcDbLine
 10
-60.00000000000003
 20
-15.0
 30
0.0
 11
-60.00000000000003
 21
-47.55987083162392
 31
0.0
  0
LINE
  5
9055
330
9035
100
AcDbEntity
  8
SK2
100
AcDbLine
 10
59.99999999999999
 20
-19.99999999999992
 30
0.0
 11
59.99999999999999
 21
-47.55987083162392
 31
0.0
  0
LINE
  5
9056
330
9035
100
AcDbEntity
  8
SK2
100
AcDbLine
 10
-57.50000000000003
 20
-46.55987083162393
 30
0.0
 11
57.49999999999999
 21
-46.55987083162393
 31
0.0
  0
SOLID
  5
9057
330
9035
100
AcDbEntity
  8
SK2
100
AcDbTrace
 10
-57.50000000000003
 20
-46.14320416495726
 30
0.0
 11
-57.50000000000003
 21
-46.97653749829059
 31
0.0
 12
-60.00000000000003
 22
-46.55987083162393
 32
0.0
 13
-60.00000000000003
 23
-46.55987083162393
 33
0.0
  0
SOLID
  5
9058
330
9035
100
AcDbEntity
  8
SK2
100
AcDbTrace
 10
57.49999999999999
 20
-46.14320416495726
 30
0.0
 11
57.49999999999999
 21
-46.97653749829059
 31
0.0
 12
59.99999999999999
 22
-46.55987083162393
 32
0.0
 13
59.99999999999999
 23
-46.55987083162393
 33
0.0
  0
MTEXT
  5
9059
330
9035
100
AcDbEntity
  8
SK2
 62
     2
100
AcDbMText
 10
-0.0000000000000211
 20
-43.30952634343494
 30
0.0
 40
3.5
 41
0.0
 71
     5
 72
     1
  1
\A1;120
1001
ACAD
1000
MTEXTBEGIN
1070
    73
1070
     1
1070
    44
1040
1.0
1070
    74
1070
     0
1000
MTEXTEND
  0
POINT
  5
905A
330
9035
100
AcDbEntity
  8
DEFPOINTS
 62
     0
100
AcDbPoint
 10
-60.00000000000003
 20
-15.0
 30
0.0
  0
POINT
  5
905B
330
9035
100
AcDbEntity
  8
DEFPOINTS
 62
     0
100
AcDbPoint
 10
59.99999999999999
 20
-19.99999999999992
 30
0.0
  0
POINT
  5
905C
330
9035
100
AcDbEntity
  8
DEFPOINTS
 62
     0
100
AcDbPoint
 10
59.99999999999999
 20
-46.55987083162393
 30
0.0
  0
ENDBLK
  5
9040
330
9035
100
AcDbEntity
  8
0
100
AcDbBlockEnd
  0
BLOCK
  5
9078
330
906E
100
AcDbEntity
  8
0
100
AcDbBlockBegin
  2
*D3
 70
     1
 10
0.0
 20
0.0
 30
0.0
  3
*D3
  1

  0
LINE
  5
91A7
330
906E
100
AcDbEntity
  8
2
100
AcDbLine
 10
59.99999999999987
 20
20.00000000000007
 30
0.0
 11
102.1650024071234
 21
20.00000000000006
 31
0.0
  0
LINE
  5
91A8
330
906E
100
AcDbEntity
  8
2
100
AcDbLine
 10
59.99999999999999
 20
-19.99999999999992
 30
0.0
 11
102.1650024071234
 21
-19.99999999999993
 31
0.0
  0
LINE
  5
91A9
330
906E
100
AcDbEntity
  8
2
100
AcDbLine
 10
101.1650024071234
 20
17.50000000000006
 30
0.0
 11
101.1650024071234
 21
-17.49999999999993
 31
0.0
  0
SOLID
  5
91AA
330
906E
100
AcDbEntity
  8
2
100
AcDbTrace
 10
100.7483357404567
 20
17.50000000000006
 30
0.0
 11
101.5816690737901
 21
17.50000000000006
 31
0.0
 12
101.1650024071234
 22
20.00000000000006
 32
0.0
 13
101.1650024071234
 23
20.00000000000006
 33
0.0
  0
SOLID
  5
91AB
330
906E
100
AcDbEntity
  8
2
100
AcDbTrace
 10
100.7483357404567
 20
-17.49999999999993
 30
0.0
 11
101.5816690737901
 21
-17.49999999999993
 31
0.0
 12
101.1650024071234
 22
-19.99999999999993
 32
0.0
 13
101.1650024071234
 23
-19.99999999999993
 33
0.0
  0
MTEXT
  5
91AC
330
906E
100
AcDbEntity
  8
2
 62
     2
100
AcDbMText
 10
97.91500240712345
 20
0.0000000000000795
 30
0.0
 40
3.5
 41
0.0
 71
     5
 72
     1
  1
\A1;%%c40
 11
0.0000000000000001
 21
1.0
 31
0.0
1001
ACAD
1000
MTEXTBEGIN
1070
    73
1070
     1
1070
    44
1040
1.0
1070
    74
1070
     0
1000
MTEXTEND
  0
POINT
  5
91AD
330
906E
100
AcDbEntity
  8
DEFPOINTS
 62
     0
100
AcDbPoint
 10
59.99999999999987
 20
20.00000000000007
 30
0.0
  0
POINT
  5
91AE
330
906E
100
AcDbEntity
  8
DEFPOINTS
 62
     0
100
AcDbPoint
 10
59.99999999999999
 20
-19.99999999999992
 30
0.0
  0
POINT
  5
91AF
330
906E
100
AcDbEntity
  8
DEFPOINTS
 62
     0
100
AcDbPoint
 10
101.1650024071234
 20
-19.99999999999993
 30
0.0
  0
ENDBLK
  5
9079
330
906E
100
AcDbEntity
  8
0
100
AcDbBlockEnd
  0
BLOCK
  5
90B9
330
90AF
100
AcDbEntity
  8
0
100
AcDbBlockBegin
  2
*D4
 70
     1
 10
0.0
 20
0.0
 30
0.0
  3
*D4
  1

  0
LINE
  5
919E
330
90AF
100
AcDbEntity
  8
2
100
AcDbLine
 10
59.99999999999987
 20
7.250000000000074
 30
0.0
 11
85.75657335571913
 21
7.250000000000067
 31
0.0
  0
LINE
  5
919F
330
90AF
100
AcDbEntity
  8
2
100
AcDbLine
 10
59.99999999999999
 20
-7.249999999999925
 30
0.0
 11
85.75657335571913
 21
-7.249999999999932
 31
0.0
  0
LINE
  5
91A0
330
90AF
100
AcDbEntity
  8
2
100
AcDbLine
 10
84.75657335571913
 20
4.750000000000067
 30
0.0
 11
84.75657335571913
 21
-4.749999999999932
 31
0.0
  0
MTEXT
  5
91A1
330
90AF
100
AcDbEntity
  8
2
 62
     2
100
AcDbMText
 10
80.91935660641837
 20
-0.4175214456803343
 30
0.0
 40
3.5
 41
0.0
 71
     5
 72
     1
  1
\A1;%%c14.5
 11
0.0000000000000001
 21
1.0
 31
0.0
1001
ACAD
1000
MTEXTBEGIN
1070
    73
1070
     1
1070
    44
1040
1.0
1070
    74
1070
     0
1000
MTEXTEND
  0
SOLID
  5
91A2
330
90AF
100
AcDbEntity
  8
2
100
AcDbTrace
 10
84.33990668905245
 20
4.750000000000067
 30
0.0
 11
85.17324002238579
 21
4.750000000000067
 31
0.0
 12
84.75657335571913
 22
7.250000000000067
 32
0.0
 13
84.75657335571913
 23
7.250000000000067
 33
0.0
  0
SOLID
  5
91A3
330
90AF
100
AcDbEntity
  8
2
100
AcDbTrace
 10
84.33990668905245
 20
-4.749999999999932
 30
0.0
 11
85.17324002238579
 21
-4.749999999999932
 31
0.0
 12
84.75657335571913
 22
-7.249999999999932
 32
0.0
 13
84.75657335571913
 23
-7.249999999999932
 33
0.0
  0
POINT
  5
91A4
330
90AF
100
AcDbEntity
  8
DEFPOINTS
 62
     0
100
AcDbPoint
 10
59.99999999999987
 20
7.250000000000074
 30
0.0
  0
POINT
  5
91A5
330
90AF
100
AcDbEntity
  8
DEFPOINTS
 62
     0
100
AcDbPoint
 10
59.99999999999999
 20
-7.249999999999925
 30
0.0
  0
POINT
  5
91A6
330
90AF
100
AcDbEntity
  8
DEFPOINTS
 62
     0
100
AcDbPoint
 10
84.75657335571913
 20
-7.249999999999932
 30
0.0
  0
ENDBLK
  5
90BA
330
90AF
100
AcDbEntity
  8
0
100
AcDbBlockEnd
  0
BLOCK
  5
910E
330
9104
100
AcDbEntity
  8
0
100
AcDbBlockBegin
  2
*D5
 70
     1
 10
0.0
 20
0.0
 30
0.0
  3
*D5
  1

  0
LINE
  5
9178
330
9104
100
AcDbEntity
  8
2
100
AcDbLine
 10
59.99999999999987
 20
20.00000000000007
 30
0.0
 11
59.99999999999987
 21
76.00000000000008
 31
0.0
  0
LINE
  5
9179
330
9104
100
AcDbEntity
  8
2
100
AcDbLine
 10
0.0000000000000568
 20
15.99999999999999
 30
0.0
 11
0.0000000000000605
 21
76.00000000000008
 31
0.0
  0
LINE
  5
917A
330
9104
100
AcDbEntity
  8
2
100
AcDbLine
 10
57.49999999999987
 20
75.00000000000008
 30
0.0
 11
2.50000000000006
 21
75.00000000000008
 31
0.0
  0
SOLID
  5
917B
330
9104
100
AcDbEntity
  8
2
100
AcDbTrace
 10
57.49999999999987
 20
75.41666666666675
 30
0.0
 11
57.49999999999987
 21
74.58333333333341
 31
0.0
 12
59.99999999999987
 22
75.00000000000008
 32
0.0
 13
59.99999999999987
 23
75.00000000000008
 33
0.0
  0
SOLID
  5
917C
330
9104
100
AcDbEntity
  8
2
100
AcDbTrace
 10
2.50000000000006
 20
75.41666666666675
 30
0.0
 11
2.50000000000006
 21
74.58333333333341
 31
0.0
 12
0.0000000000000605
 22
75.00000000000008
 32
0.0
 13
0.0000000000000605
 23
75.00000000000008
 33
0.0
  0
MTEXT
  5
917D
330
9104
100
AcDbEntity
  8
2
 62
     2
100
AcDbMText
 10
29.99999999999996
 20
78.25000000000009
 30
0.0
 40
3.5
 41
0.0
 71
     5
 72
     1
  1
\A1;60
1001
ACAD
1000
MTEXTBEGIN
1070
    73
1070
     1
1070
    44
1040
1.0
1070
    74
1070
     0
1000
MTEXTEND
  0
POINT
  5
917E
330
9104
100
AcDbEntity
  8
DEFPOINTS
 62
     0
100
AcDbPoint
 10
59.99999999999987
 20
20.00000000000007
 30
0.0
  0
POINT
  5
917F
330
9104
100
AcDbEntity
  8
DEFPOINTS
 62
     0
100
AcDbPoint
 10
0.0000000000000568
 20
15.99999999999999
 30
0.0
  0
POINT
  5
9180
330
9104
100
AcDbEntity
  8
DEFPOINTS
 62
     0
100
AcDbPoint
 10
0.0000000000000605
 20
75.00000000000008
 30
0.0
  0
ENDBLK
  5
910F
330
9104
100
AcDbEntity
  8
0
100
AcDbBlockEnd
  0
BLOCK
  5
9162
330
9158
100
AcDbEntity
  8
0
100
AcDbBlockBegin
  2
*D6
 70
     1
 10
0.0
 20
0.0
 30
0.0
  3
*D6
  1

  0
LINE
  5
9181
330
9158
100
AcDbEntity
  8
2
100
AcDbLine
 10
59.99999999999987
 20
20.00000000000007
 30
0.0
 11
59.99999999999987
 21
61.00000000000008
 31
0.0
  0
LINE
  5
9182
330
9158
100
AcDbEntity
  8
2
100
AcDbLine
 10
19.99999999999987
 20
18.91746801395361
 30
0.0
 11
19.99999999999987
 21
61.00000000000008
 31
0.0
  0
LINE
  5
9183
330
9158
100
AcDbEntity
  8
2
100
AcDbLine
 10
57.49999999999987
 20
60.00000000000008
 30
0.0
 11
22.49999999999987
 21
60.00000000000008
 31
0.0
  0
SOLID
  5
9184
330
9158
100
AcDbEntity
  8
2
100
AcDbTrace
 10
57.49999999999987
 20
60.41666666666674
 30
0.0
 11
57.49999999999987
 21
59.58333333333342
 31
0.0
 12
59.99999999999987
 22
60.00000000000008
 32
0.0
 13
59.99999999999987
 23
60.00000000000008
 33
0.0
  0
SOLID
  5
9185
330
9158
100
AcDbEntity
  8
2
100
AcDbTrace
 10
22.49999999999987
 20
60.41666666666674
 30
0.0
 11
22.49999999999987
 21
59.58333333333342
 31
0.0
 12
19.99999999999987
 22
60.00000000000008
 32
0.0
 13
19.99999999999987
 23
60.00000000000008
 33
0.0
  0
MTEXT
  5
9186
330
9158
100
AcDbEntity
  8
2
 62
     2
100
AcDbMText
 10
39.99999999999987
 20
63.25000000000009
 30
0.0
 40
3.5
 41
0.0
 71
     5
 72
     1
  1
\A1;40
1001
ACAD
1000
MTEXTBEGIN
1070
    73
1070
     1
1070
    44
1040
1.0
1070
    74
1070
     0
1000
MTEXTEND
  0
POINT
  5
9187
330
9158
100
AcDbEntity
  8
DEFPOINTS
 62
     0
100
AcDbPoint
 10
59.99999999999987
 20
20.00000000000007
 30
0.0
  0
POINT
  5
9188
330
9158
100
AcDbEntity
  8
DEFPOINTS
 62
     0
100
AcDbPoint
 10
19.99999999999987
 20
18.91746801395361
 30
0.0
  0
POINT
  5
9189
330
9158
100
AcDbEntity
  8
DEFPOINTS
 62
     0
100
AcDbPoint
 10
19.99999999999987
 20
60.00000000000008
 30
0.0
  0
ENDBLK
  5
9163
330
9158
100
AcDbEntity
  8
0
100
AcDbBlockEnd
  0
ENDSEC
  0
SECTION
  2
ENTITIES
  0
LINE
  5
7B98
330
6A34
100
AcDbEntity
  8
SK4
100
AcDbLine
 10
0.0
 20
0.0000000000001137
 30
0.0
 11
-62.4249186784946
 21
0.0
 31
0.0
  0
LINE
  5
7BB0
330
6A34
100
AcDbEntity
  8
4
100
AcDbLine
 10
61.6486877606831
 20
0.0000000000000734
 30
0.0
 11
0.0
 21
0.0000000000001137
 31
0.0
  0
LINE
  5
800E
330
6A34
100
AcDbEntity
  8
SK1
100
AcDbLine
 10
-59.0
 20
16.00000000000003
 30
0.0
 11
-60.0
 21
15.00000000000002
 31
0.0
  0
LINE
  5
800F
330
6A34
100
AcDbEntity
  8
SK1
100
AcDbLine
 10
-60.0
 20
15.00000000000002
 30
0.0
 11
-60.00000000000003
 21
-15.0
 31
0.0
  0
LINE
  5
8010
330
6A34
100
AcDbEntity
  8
SK1
100
AcDbLine
 10
-60.00000000000003
 20
-15.0
 30
0.0
 11
-59.00000000000003
 21
-15.99999999999997
 31
0.0
  0
LINE
  5
8011
330
6A34
100
AcDbEntity
  8
SK1
100
AcDbLine
 10
-59.00000000000003
 20
-15.99999999999997
 30
0.0
 11
-59.00000000000003
 21
-7.749999999999943
 31
0.0
  0
LINE
  5
8012
330
6A34
100
AcDbEntity
  8
SK1
100
AcDbLine
 10
-59.0
 20
16.00000000000003
 30
0.0
 11
-59.0
 21
7.750000000000028
 31
0.0
  0
LINE
  5
8013
330
6A34
100
AcDbEntity
  8
SK1
100
AcDbLine
 10
-60.00000000000003
 20
-7.749999999999971
 30
0.0
 11
-40.99999999999781
 21
-7.749999999999971
 31
0.0
  0
LINE
  5
8014
330
6A34
100
AcDbEntity
  8
SK1
100
AcDbLine
 10
-40.99999999999781
 20
-7.749999999999971
 30
0.0
 11
-40.99999999999778
 21
7.750000000000113
 31
0.0
  0
LINE
  5
8015
330
6A34
100
AcDbEntity
  8
SK1
100
AcDbLine
 10
-40.99999999999778
 20
7.750000000000113
 30
0.0
 11
-60.0
 21
7.750000000000028
 31
0.0
  0
LINE
  5
8016
330
6A34
100
AcDbEntity
  8
SK1
100
AcDbLine
 10
-16.99999999999778
 20
7.750000000000056
 30
0.0
 11
-30.99999999999778
 21
7.75
 31
0.0
  0
LINE
  5
8017
330
6A34
100
AcDbEntity
  8
SK1
100
AcDbLine
 10
-30.99999999999778
 20
7.75
 30
0.0
 11
-30.99999999999781
 21
-7.749999999999971
 31
0.0
  0
LINE
  5
8018
330
6A34
100
AcDbEntity
  8
SK1
100
AcDbLine
 10
-30.99999999999781
 20
-7.749999999999971
 30
0.0
 11
-16.99999999999781
 21
-7.75
 31
0.0
  0
LINE
  5
8019
330
6A34
100
AcDbEntity
  8
SK1
100
AcDbLine
 10
-16.99999999999781
 20
-7.75
 30
0.0
 11
-16.99999999999778
 21
7.750000000000056
 31
0.0
  0
ARC
  5
801B
330
6A34
100
AcDbEntity
  8
SK1
100
AcDbCircle
 10
-31.01562499999792
 20
0.0000000000000284
 30
0.0
 40
16.01562500000011
100
AcDbArc
 50
331.0594117998681
 51
28.94058820013178
  0
ARC
  5
801C
330
6A34
100
AcDbEntity
  8
SK1
100
AcDbCircle
 10
-16.98437499999806
 20
0.0000000000000284
 30
0.0
 40
16.01562499999976
100
AcDbArc
 50
151.0594117998682
 51
208.940588200132
  0
ARC
  5
801D
330
6A34
100
AcDbEntity
  8
SK1
100
AcDbCircle
 10
-55.01562499999775
 20
0.0000000000000853
 30
0.0
 40
16.01562499999996
100
AcDbArc
 50
331.0594117998681
 51
28.94058820013178
  0
DIMENSION
  5
81C5
330
6A34
100
AcDbEntity
  8
SK2
100
AcDbDimension
  2
*D1
 10
-77.95709209529196
 20
-15.99999999999996
 30
0.0
 11
-81.20743658348093
 21
0.000000000000022
 31
0.0
 70
    32
  1
%%c<>
  3
AM_DIN
100
AcDbAlignedDimension
 13
-59.0
 23
16.00000000000003
 33
0.0
 14
-59.00000000000003
 24
-15.99999999999996
 34
0.0
 50
89.99999999999996
100
AcDbRotatedDimension
  0
LINE
  5
8309
330
6A34
100
AcDbEntity
  8
SK1
100
AcDbLine
 10
0.0000000000000568
 20
16.0
 30
0.0
 11
-59.0
 21
16.00000000000003
 31
0.0
  0
LINE
  5
830A
330
6A34
100
AcDbEntity
  8
SK1
100
AcDbLine
 10
-0.0000000000000002
 20
-16.0
 30
0.0
 11
-59.00000000000003
 21
-15.99999999999997
 31
0.0
  0
TEXT
  5
8C63
330
6A34
100
AcDbEntity
  8
6
100
AcDbText
 10
63.05824448268902
 20
-27.47931317800103
 30
0.0
 40
3.5
  1
15C1J04060W6R01
100
AcDbText
  0
LINE
  5
8C65
330
6A34
100
AcDbEntity
  8
1
100
AcDbLine
 10
58.7554897714364
 20
2.774480826605214
 30
0.0
 11
19.24636966894647
 21
2.774480826605242
 31
0.0
  0
LINE
  5
8C68
330
6A34
100
AcDbEntity
  8
1
100
AcDbLine
 10
8.888209830557574
 20
18.91746801395361
 30
0.0
 11
45.69997999999987
 21
18.91746801395361
 31
0.0
  0
LINE
  5
8C69
330
6A34
100
AcDbEntity
  8
NOCUT
100
AcDbLine
 10
58.75548977143642
 20
-0.0000000000001421
 30
0.0
 11
-0.0000000000001705
 21
-0.0000000000000853
 31
0.0
  0
LINE
  5
8C6C
330
6A34
100
AcDbEntity
  8
1
100
AcDbLine
 10
0.0000000000000568
 20
15.99999999999999
 30
0.0
 11
0.0000000000000568
 21
-16.0
 31
0.0
  0
LINE
  5
8C6D
330
6A34
100
AcDbEntity
  8
SK1
100
AcDbLine
 10
-2.262823140784121
 20
-2.262823140784348
 30
0.0
 11
2.262823140784234
 21
2.262823140784036
 31
0.0
  0
LINE
  5
8C70
330
6A34
100
AcDbEntity
  8
SK1
100
AcDbLine
 10
-2.262823140784234
 20
2.262823140784149
 30
0.0
 11
2.262823140784121
 21
-2.262823140784206
 31
0.0
  0
CIRCLE
  5
8C71
330
6A34
100
AcDbEntity
  8
SK1
100
AcDbCircle
 10
-0.0000000000000568
 20
-0.0000000000000284
 30
0.0
 40
3.200115174948665
  0
LINE
  5
8C72
330
6A34
100
AcDbEntity
  8
NOCUT
100
AcDbLine
 10
-0.0000000000001705
 20
-0.0000000000000853
 30
0.0
 11
-0.0000000000001705
 21
-15.9999999999997
 31
0.0
  0
CIRCLE
  5
8C87
330
6A34
100
AcDbEntity
  8
SK1
100
AcDbCircle
 10
59.99999999999999
 20
-19.99999999999992
 30
0.0
 40
0.4637693698488208
  0
LINE
  5
8C88
330
6A34
100
AcDbEntity
  8
SK1
100
AcDbLine
 10
59.53623063015117
 20
-19.99999999999992
 30
0.0
 11
60.46376936984881
 21
-19.99999999999992
 31
0.0
  0
LINE
  5
8C89
330
6A34
100
AcDbEntity
  8
SK1
100
AcDbLine
 10
59.99999999999999
 20
-20.46376936984874
 30
0.0
 11
59.99999999999999
 21
-19.5362306301511
 31
0.0
  0
LINE
  5
8C8A
330
6A34
100
AcDbEntity
  8
1
100
AcDbLine
 10
58.75548977143642
 20
-18.91746801395346
 30
0.0
 11
58.7554897714364
 21
5.699980000000071
 31
0.0
  0
CIRCLE
  5
8C98
330
6A34
100
AcDbEntity
  8
SK1
100
AcDbCircle
 10
59.99999999999987
 20
20.00000000000007
 30
0.0
 40
0.4637693698488208
  0
LINE
  5
8C99
330
6A34
100
AcDbEntity
  8
SK1
100
AcDbLine
 10
59.53623063015105
 20
20.00000000000007
 30
0.0
 11
60.46376936984869
 21
20.00000000000007
 31
0.0
  0
LINE
  5
8C9A
330
6A34
100
AcDbEntity
  8
SK1
100
AcDbLine
 10
59.99999999999987
 20
20.46376936984889
 30
0.0
 11
59.99999999999987
 21
19.53623063015125
 31
0.0
  0
LINE
  5
8CC2
330
6A34
100
AcDbEntity
  8
NOCUT
100
AcDbLine
 10
58.75548977143642
 20
-0.0000000000001421
 30
0.0
 11
58.75548977143637
 21
-18.91746801395346
 31
0.0
  0
TEXT
  5
8DD1
330
6A34
100
AcDbEntity
  8
6
100
AcDbText
 10
65.20809529694969
 20
23.90195267157344
 30
0.0
 40
2.5
  1
SPLT140512N
100
AcDbText
  0
TEXT
  5
8DD2
330
6A34
100
AcDbEntity
  8
6
100
AcDbText
 10
106.1399794863362
 20
-4.986938144875464
 30
0.0
 40
3.5
  1
Z=3
 50
90.0
100
AcDbText
  0
LINE
  5
8E9A
330
6A34
100
AcDbEntity
  8
NOCUT
100
AcDbLine
 10
-0.0000000000001573
 20
0.0000000000001137
 30
0.0
 11
58.75548977143642
 21
-0.0000000000001421
 31
0.0
  0
LINE
  5
8F81
330
6A34
100
AcDbEntity
  8
1
100
AcDbLine
 10
0.0000000000000568
 20
16.0
 30
0.0
 11
8.88820983055757
 21
18.91746801395361
 31
0.0
  0
ARC
  5
8F89
330
6A34
100
AcDbEntity
  8
CUT
100
AcDbCircle
 10
59.00521599999994
 20
19.00521600000009
 30
0.0
 40
0.9947839999999999
100
AcDbArc
 50
0.0
 51
90.0
1001
GENIUS_GENODEF_13
1002
{
1000
HIER
1070
     0
1002
}
1002
{
1000
MANEDIT
1070
     0
1002
}
1002
{
1000
NOSEL
1070
     0
1002
}
1002
{
1000
BEHIND
1070
     0
1002
}
1002
{
1000
OTHER
1070
     0
1002
}
1002
{
1000
REACTOR
1002
}
1001
GENIUS_GENOBJ-N-FIL_13
1002
{
1000
OWNER
1000
GEN
1002
}
  0
ARC
  5
8F8A
330
6A34
100
AcDbEntity
  8
1
100
AcDbCircle
 10
59.00521599999994
 20
19.00521600000009
 30
0.0
 40
0.9947839999999999
100
AcDbArc
 50
0.0
 51
90.0
1001
GENIUS_GENODEF_13
1002
{
1000
HIER
1070
     0
1002
}
1002
{
1000
MANEDIT
1070
     0
1002
}
1002
{
1000
NOSEL
1070
     0
1002
}
1002
{
1000
BEHIND
1070
     0
1002
}
1002
{
1000
OTHER
1070
     0
1002
}
1002
{
1000
REACTOR
1002
}
1001
GENIUS_GENOBJ-N-FIL_13
1002
{
1000
OWNER
1000
GEN
1002
}
  0
ARC
  5
8F8D
330
6A34
100
AcDbEntity
  8
CUT
100
AcDbCircle
 10
46.69476399999989
 20
19.00521600000009
 30
0.0
 40
0.9947839999999999
100
AcDbArc
 50
90.0
 51
180.0
1001
GENIUS_GENOBJ-N-FIL_13
1002
{
1000
OWNER
1000
GEN
1002
}
1001
GENIUS_GENODEF_13
1002
{
1000
HIER
1070
     0
1002
}
1002
{
1000
MANEDIT
1070
     0
1002
}
1002
{
1000
NOSEL
1070
     0
1002
}
1002
{
1000
BEHIND
1070
     0
1002
}
1002
{
1000
OTHER
1070
     0
1002
}
1002
{
1000
REACTOR
1002
}
  0
ARC
  5
8F8E
330
6A34
100
AcDbEntity
  8
1
100
AcDbCircle
 10
46.69476399999989
 20
19.00521600000009
 30
0.0
 40
0.9947839999999999
100
AcDbArc
 50
90.0
 51
180.0
1001
GENIUS_GENOBJ-N-FIL_13
1002
{
1000
OWNER
1000
GEN
1002
}
1001
GENIUS_GENODEF_13
1002
{
1000
HIER
1070
     0
1002
}
1002
{
1000
MANEDIT
1070
     0
1002
}
1002
{
1000
NOSEL
1070
     0
1002
}
1002
{
1000
BEHIND
1070
     0
1002
}
1002
{
1000
OTHER
1070
     0
1002
}
1002
{
1000
REACTOR
1002
}
  0
LINE
  5
8F8F
330
6A34
100
AcDbEntity
  8
CUT
100
AcDbLine
 10
46.69476399999989
 20
5.699980000000072
 30
0.0
 11
59.00521599999994
 21
5.699980000000072
 31
0.0
  0
LINE
  5
8F90
330
6A34
100
AcDbEntity
  8
1
100
AcDbLine
 10
46.69476399999989
 20
5.699980000000072
 30
0.0
 11
59.00521599999994
 21
5.699980000000072
 31
0.0
  0
CIRCLE
  5
8F91
330
6A34
100
AcDbEntity
  8
1
100
AcDbCircle
 10
52.84998999999988
 20
12.84999000000007
 30
0.0
 40
4.041309999999999
  0
LINE
  5
8F92
330
6A34
100
AcDbEntity
  8
CUT
100
AcDbLine
 10
45.69997999999988
 20
19.00521600000009
 30
0.0
 11
45.69997999999988
 21
6.694764000000088
 31
0.0
  0
LINE
  5
8F93
330
6A34
100
AcDbEntity
  8
1
100
AcDbLine
 10
45.69997999999988
 20
19.00521600000009
 30
0.0
 11
45.69997999999988
 21
6.694764000000088
 31
0.0
  0
ARC
  5
8F94
330
6A34
100
AcDbEntity
  8
CUT
100
AcDbCircle
 10
46.69476399999989
 20
6.694764000000088
 30
0.0
 40
0.9947839999999999
100
AcDbArc
 50
180.0
 51
270.0
1001
GENIUS_GENOBJ-N-FIL_13
1002
{
1000
OWNER
1000
GEN
1002
}
1001
GENIUS_GENODEF_13
1002
{
1000
HIER
1070
     0
1002
}
1002
{
1000
MANEDIT
1070
     0
1002
}
1002
{
1000
NOSEL
1070
     0
1002
}
1002
{
1000
BEHIND
1070
     0
1002
}
1002
{
1000
OTHER
1070
     0
1002
}
1002
{
1000
REACTOR
1002
}
  0
ARC
  5
8F95
330
6A34
100
AcDbEntity
  8
1
100
AcDbCircle
 10
46.69476399999989
 20
6.694764000000088
 30
0.0
 40
0.9947839999999999
100
AcDbArc
 50
180.0
 51
270.0
1001
GENIUS_GENOBJ-N-FIL_13
1002
{
1000
OWNER
1000
GEN
1002
}
1001
GENIUS_GENODEF_13
1002
{
1000
HIER
1070
     0
1002
}
1002
{
1000
MANEDIT
1070
     0
1002
}
1002
{
1000
NOSEL
1070
     0
1002
}
1002
{
1000
BEHIND
1070
     0
1002
}
1002
{
1000
OTHER
1070
     0
1002
}
1002
{
1000
REACTOR
1002
}
  0
LINE
  5
8F96
330
6A34
100
AcDbEntity
  8
CUT
100
AcDbLine
 10
59.99999999999987
 20
6.694764000000088
 30
0.0
 11
59.99999999999987
 21
19.00521600000009
 31
0.0
  0
LINE
  5
8F97
330
6A34
100
AcDbEntity
  8
1
100
AcDbLine
 10
59.99999999999987
 20
6.694764000000088
 30
0.0
 11
59.99999999999987
 21
19.00521600000009
 31
0.0
  0
ARC
  5
8F98
330
6A34
100
AcDbEntity
  8
CUT
100
AcDbCircle
 10
59.00521599999994
 20
6.694764000000052
 30
0.0
 40
0.9947839999999999
100
AcDbArc
 50
269.9999999999967
 51
0.0000000000016284
1001
GENIUS_GENOBJ-N-FIL_13
1002
{
1000
OWNER
1000
GEN
1002
}
1001
GENIUS_GENODEF_13
1002
{
1000
HIER
1070
     0
1002
}
1002
{
1000
MANEDIT
1070
     0
1002
}
1002
{
1000
NOSEL
1070
     0
1002
}
1002
{
1000
BEHIND
1070
     0
1002
}
1002
{
1000
OTHER
1070
     0
1002
}
1002
{
1000
REACTOR
1002
}
  0
ARC
  5
8F99
330
6A34
100
AcDbEntity
  8
1
100
AcDbCircle
 10
59.00521599999994
 20
6.694764000000052
 30
0.0
 40
0.9947839999999999
100
AcDbArc
 50
269.9999999999967
 51
0.0000000000016284
1001
GENIUS_GENOBJ-N-FIL_13
1002
{
1000
OWNER
1000
GEN
1002
}
1001
GENIUS_GENODEF_13
1002
{
1000
HIER
1070
     0
1002
}
1002
{
1000
MANEDIT
1070
     0
1002
}
1002
{
1000
NOSEL
1070
     0
1002
}
1002
{
1000
BEHIND
1070
     0
1002
}
1002
{
1000
OTHER
1070
     0
1002
}
1002
{
1000
REACTOR
1002
}
  0
LINE
  5
8F9A
330
6A34
100
AcDbEntity
  8
CUT
100
AcDbLine
 10
46.69476399999989
 20
20.00000000000007
 30
0.0
 11
59.00521599999994
 21
20.00000000000007
 31
0.0
  0
LINE
  5
8F9B
330
6A34
100
AcDbEntity
  8
1
100
AcDbLine
 10
46.69476399999989
 20
20.00000000000007
 30
0.0
 11
59.00521599999994
 21
20.00000000000007
 31
0.0
  0
ARC
  5
8FB6
330
6A34
100
AcDbEntity
  8
1
100
AcDbCircle
 10
19.99365331245705
 20
11.5708945260128
 30
0.0
 40
8.828098708951069
100
AcDbArc
 50
123.6765939029644
 51
265.1441983215734
  0
ARC
  5
8FC0
330
6A34
100
AcDbEntity
  8
1
100
AcDbCircle
 10
59.00521599999997
 20
-6.694763999999903
 30
0.0
 40
0.9947839999999999
100
AcDbArc
 50
0.0
 51
90.0
1001
GENIUS_GENODEF_13
1002
{
1000
HIER
1070
     0
1002
}
1002
{
1000
MANEDIT
1070
     0
1002
}
1002
{
1000
NOSEL
1070
     0
1002
}
1002
{
1000
BEHIND
1070
     0
1002
}
1002
{
1000
OTHER
1070
     0
1002
}
1002
{
1000
REACTOR
1002
}
1001
GENIUS_GENOBJ-N-FIL_13
1002
{
1000
OWNER
1000
GEN
1002
}
  0
ARC
  5
8FC1
330
6A34
100
AcDbEntity
  8
SK3
100
AcDbCircle
 10
46.69476399999993
 20
-6.694763999999938
 30
0.0
 40
0.9947839999999999
100
AcDbArc
 50
90.0
 51
180.0
1001
GENIUS_GENOBJ-N-FIL_13
1002
{
1000
OWNER
1000
GEN
1002
}
1001
GENIUS_GENODEF_13
1002
{
1000
HIER
1070
     0
1002
}
1002
{
1000
MANEDIT
1070
     0
1002
}
1002
{
1000
NOSEL
1070
     0
1002
}
1002
{
1000
BEHIND
1070
     0
1002
}
1002
{
1000
OTHER
1070
     0
1002
}
1002
{
1000
REACTOR
1002
}
  0
CIRCLE
  5
8FC2
330
6A34
100
AcDbEntity
  8
SK3
100
AcDbCircle
 10
52.84998999999999
 20
-12.84998999999897
 30
0.0
 40
4.041309999999999
  0
LINE
  5
8FC4
330
6A34
100
AcDbEntity
  8
1
 48
0.3
100
AcDbLine
 10
46.69476399999993
 20
-19.99999999999992
 30
0.0
 11
59.00521599999997
 21
-19.99999999999992
 31
0.0
  0
LINE
  5
8FC5
330
6A34
100
AcDbEntity
  8
SK3
 48
0.3
100
AcDbLine
 10
45.69998
 20
-6.694763999999903
 30
0.0
 11
45.69998
 21
-18.91746801395344
 31
0.0
  0
ARC
  5
8FC6
330
6A34
100
AcDbEntity
  8
1
100
AcDbCircle
 10
46.69476399999993
 20
-19.00521599999991
 30
0.0
 40
0.9947839999999999
100
AcDbArc
 50
180.0
 51
270.0
1001
GENIUS_GENOBJ-N-FIL_13
1002
{
1000
OWNER
1000
GEN
1002
}
1001
GENIUS_GENODEF_13
1002
{
1000
HIER
1070
     0
1002
}
1002
{
1000
MANEDIT
1070
     0
1002
}
1002
{
1000
NOSEL
1070
     0
1002
}
1002
{
1000
BEHIND
1070
     0
1002
}
1002
{
1000
OTHER
1070
     0
1002
}
1002
{
1000
REACTOR
1002
}
  0
LINE
  5
8FC7
330
6A34
100
AcDbEntity
  8
1
 48
0.3
100
AcDbLine
 10
45.69998
 20
-18.91746801395344
 30
0.0
 11
45.69998
 21
-19.00521599999991
 31
0.0
  0
LINE
  5
8FC8
330
6A34
100
AcDbEntity
  8
1
 48
0.3
100
AcDbLine
 10
59.99999999999999
 20
-19.00521599999991
 30
0.0
 11
59.99999999999999
 21
-6.694763999999903
 31
0.0
  0
ARC
  5
8FCC
330
6A34
100
AcDbEntity
  8
1
100
AcDbCircle
 10
59.00521599999997
 20
-19.00521599999994
 30
0.0
 40
0.9947839999999999
100
AcDbArc
 50
269.9999999999967
 51
0.0000000000016284
1001
GENIUS_GENOBJ-N-FIL_13
1002
{
1000
OWNER
1000
GEN
1002
}
1001
GENIUS_GENODEF_13
1002
{
1000
HIER
1070
     0
1002
}
1002
{
1000
MANEDIT
1070
     0
1002
}
1002
{
1000
NOSEL
1070
     0
1002
}
1002
{
1000
BEHIND
1070
     0
1002
}
1002
{
1000
OTHER
1070
     0
1002
}
1002
{
1000
REACTOR
1002
}
  0
LINE
  5
8FCD
330
6A34
100
AcDbEntity
  8
SK3
 48
0.3
100
AcDbLine
 10
46.69476399999993
 20
-5.699979999999925
 30
0.0
 11
58.75548977143641
 21
-5.699979999999925
 31
0.0
  0
LINE
  5
8FCE
330
6A34
100
AcDbEntity
  8
1
 48
0.3
100
AcDbLine
 10
58.7554897714364
 20
-5.699979999999925
 30
0.0
 11
59.00521599999997
 21
-5.699979999999925
 31
0.0
  0
LINE
  5
8FEF
330
6A34
100
AcDbEntity
  8
1
100
AcDbLine
 10
8.888209830557549
 20
-18.91746801395339
 30
0.0
 11
58.75548977143642
 21
-18.91746801395346
 31
0.0
  0
LINE
  5
8FF0
330
6A34
100
AcDbEntity
  8
1
100
AcDbLine
 10
0.0000000000000359
 20
-15.99999999999977
 30
0.0
 11
8.888209830557546
 21
-18.91746801395339
 31
0.0
  0
LINE
  5
8FF1
330
6A34
100
AcDbEntity
  8
SK3
 48
0.3
100
AcDbLine
 10
58.7554897714364
 20
-2.774480826605063
 30
0.0
 11
19.24636966894647
 21
-2.77448082660504
 31
0.0
  0
ARC
  5
8FF2
330
6A34
100
AcDbEntity
  8
SK3
 48
0.3
100
AcDbCircle
 10
19.99365331245704
 20
-11.5708945260126
 30
0.0
 40
8.828098708951069
100
AcDbArc
 50
94.85580167842652
 51
236.3234060970355
  0
LINE
  5
8FFC
330
6A34
100
AcDbEntity
  8
1
100
AcDbLine
 10
8.888209830557574
 20
18.91746801395361
 30
0.0
 11
8.888209830557549
 21
-18.91746801395339
 31
0.0
  0
LINE
  5
9005
330
6A34
100
AcDbEntity
  8
NOCUT
100
AcDbLine
 10
-0.0000000000001705
 20
-15.9999999999997
 30
0.0
 11
8.888209830557546
 21
-18.91746801395339
 31
0.0
  0
LINE
  5
9006
330
6A34
100
AcDbEntity
  8
NOCUT
100
AcDbLine
 10
8.888209830557546
 20
-18.91746801395339
 30
0.0
 11
58.75548977143636
 21
-18.91746801395346
 31
0.0
  0
DIMENSION
  5
9034
330
6A34
100
AcDbEntity
  8
SK2
100
AcDbDimension
  2
*D2
 10
59.99999999999999
 20
-46.55987083162393
 30
0.0
 11
-0.0000000000000211
 21
-43.30952634343494
 31
0.0
 70
    32
  3
AM_DIN
100
AcDbAlignedDimension
 13
-60.00000000000003
 23
-15.0
 33
0.0
 14
59.99999999999999
 24
-19.99999999999992
 34
0.0
 50
0.0000000000001132
100
AcDbRotatedDimension
  0
DIMENSION
  5
906D
330
6A34
100
AcDbEntity
  8
2
100
AcDbDimension
  2
*D3
 10
101.1650024071234
 20
-19.99999999999993
 30
0.0
 11
97.91500240712345
 21
0.0000000000000795
 31
0.0
 70
    32
  1
%%c<>
  3
AM_DIN
100
AcDbAlignedDimension
 13
59.99999999999987
 23
20.00000000000007
 33
0.0
 14
59.99999999999999
 24
-19.99999999999992
 34
0.0
 50
90.0
100
AcDbRotatedDimension
  0
DIMENSION
  5
90AE
330
6A34
100
AcDbEntity
  8
2
100
AcDbDimension
  2
*D4
 10
84.75657335571913
 20
-7.249999999999932
 30
0.0
 11
80.91935660641837
 21
-0.4175214456803343
 31
0.0
 70
   160
  1
%%c<>
  3
AM_DIN
100
AcDbAlignedDimension
 13
59.99999999999987
 23
7.250000000000074
 33
0.0
 14
59.99999999999999
 24
-7.249999999999925
 34
0.0
 50
89.99999999999994
100
AcDbRotatedDimension
  0
DIMENSION
  5
9103
330
6A34
100
AcDbEntity
  8
2
100
AcDbDimension
  2
*D5
 10
0.0000000000000605
 20
75.00000000000008
 30
0.0
 11
29.99999999999996
 21
78.25000000000009
 31
0.0
 70
    32
  3
AM_DIN
100
AcDbAlignedDimension
 13
59.99999999999987
 23
20.00000000000007
 33
0.0
 14
0.0000000000000568
 24
15.99999999999999
 34
0.0
100
AcDbRotatedDimension
  0
DIMENSION
  5
9157
330
6A34
100
AcDbEntity
  8
2
100
AcDbDimension
  2
*D6
 10
19.99999999999987
 20
60.00000000000008
 30
0.0
 11
39.99999999999987
 21
63.25000000000009
 31
0.0
 70
    32
  3
AM_DIN
100
AcDbAlignedDimension
 13
59.99999999999987
 23
20.00000000000007
 33
0.0
 14
19.99999999999987
 24
18.91746801395361
 34
0.0
100
AcDbRotatedDimension
  0
ENDSEC
  0
SECTION
  2
OBJECTS
  0
DICTIONARY
  5
6A22
330
0
100
AcDbDictionary
  3
ACAD_GROUP
350
6A23
  3
ACAD_LAYOUT
350
6A2F
  3
ACAD_MLINESTYLE
350
6A2C
  3
ACAD_PLOTSETTINGS
350
6A2E
  3
ACAD_PLOTSTYLENAME
350
6A24
  3
ACDBHEADERROUNDTRIPXREC
350
91C4
  3
ACDBVARIABLEDICTIONARY
350
6B78
  3
ACMDICTIONARY
350
6B39
  3
AMG
350
6B22
  3
AMGSNAPSETTINGS
350
6B59
  3
DWGPROPS
350
91C0
  0
DICTIONARY
  5
6B62
330
6A34
100
AcDbDictionary
280
     1
  3
ACAD_INDEX
360
6B63
  3
ACAD_LAYOUTSELFREF
360
91E7
  0
DICTIONARY
  5
91E5
330
6A30
100
AcDbDictionary
280
     1
  3
ACAD_LAYOUTSELFREF
360
91E6
  0
DICTIONARY
  5
6A23
102
{ACAD_REACTORS
330
6A22
102
}
330
6A22
100
AcDbDictionary
  0
DICTIONARY
  5
6A2F
102
{ACAD_REACTORS
330
6A22
102
}
330
6A22
100
AcDbDictionary
  0
DICTIONARY
  5
6A2C
102
{ACAD_REACTORS
330
6A22
102
}
330
6A22
100
AcDbDictionary
  3
STANDARD
350
6A2D
  0
DICTIONARY
  5
6A2E
102
{ACAD_REACTORS
330
6A22
102
}
330
6A22
100
AcDbDictionary
  0
ACDBDICTIONARYWDFLT
  5
6A24
102
{ACAD_REACTORS
330
6A22
102
}
330
6A22
100
AcDbDictionary
281
     1
  3
Normal
350
6A25
100
AcDbDictionaryWithDefault
340
6A25
  0
DICTIONARY
  5
91C4
102
{ACAD_REACTORS
330
6A22
102
}
330
6A22
100
AcDbDictionary
  3
CEPSNTYPE
350
91CE
  3
DIMSTYLEDATA
350
91D2
  3
FINGERPRINTGUID
350
91CF
  3
HYPERLINKBASE
350
91C7
  3
INSUNITS
350
91CD
  3
LAYOUTDICT
350
91C9
  3
LWETCUNION
350
91CC
  3
PLOTSETDICT
350
91CA
  3
PLOTSTYLNAMDICT
350
91CB
  3
PSVPSCALE
350
91D1
  3
PUCSBASE
350
91D5
  3
PUCSORGBACK
350
91DB
  3
PUCSORGBOTTOM
350
91D7
  3
PUCSORGFRONT
350
91DA
  3
PUCSORGLEFT
350
91D8
  3
PUCSORGRIGHT
350
91D9
  3
PUCSORGTOP
350
91D6
  3
PUCSORTHOREF
350
91D3
  3
PUCSORTHOVIEW
350
91D4
  3
STYLESHEET
350
91C8
  3
TSTACKALIGN
350
91C5
  3
TSTACKSIZE
350
91C6
  3
UCSBASE
350
91DE
  3
UCSORGBACK
350
91E4
  3
UCSORGBOTTOM
350
91E0
  3
UCSORGFRONT
350
91E3
  3
UCSORGLEFT
350
91E1
  3
UCSORGRIGHT
350
91E2
  3
UCSORGTOP
350
91DF
  3
UCSORTHOREF
350
91DC
  3
UCSORTHOVIEW
350
91DD
  3
VERSIONGUID
350
91D0
  0
DICTIONARY
  5
6B78
102
{ACAD_REACTORS
330
6A22
102
}
330
6A22
100
AcDbDictionary
  3
DIMASSOC
350
6B7A
  3
INDEXCTL
350
6B79
  0
DICTIONARY
  5
6B39
102
{ACAD_REACTORS
330
6A22
102
}
330
6A22
100
AcDbDictionary
  3
ACMSTDDICTIONARY
350
6B3F
  0
DICTIONARY
  5
6B22
102
{ACAD_REACTORS
330
6A22
102
}
330
6A22
100
AcDbDictionary
  3
ACMGSETTINGS
350
6B23
  0
DICTIONARY
  5
6B59
102
{ACAD_REACTORS
330
6A22
102
}
330
6A22
100
AcDbDictionary
  0
XRECORD
  5
91C0
102
{ACAD_REACTORS
330
6A22
102
}
330
6A22
100
AcDbXrecord
  1
DWGPROPS COOKIE
  2

  3

  4

  6

  7

  8

  9

300
AmdtFileType=84
301
=
302
=
303
=
304
=
305
=
306
=
307
=
308
=
309
=
 40
0.1980125578703704
 41
2453447.43007081
 42
2453792.664105208
  1

 90
        1
  0
DICTIONARY
  5
6B63
102
{ACAD_REACTORS
330
6B62
102
}
330
6B62
100
AcDbDictionary
  3
*A1
350
6B64
  0
XRECORD
  5
91E7
102
{ACAD_REACTORS
330
6B62
102
}
330
6B62
100
AcDbXrecord
340
6A34
  0
XRECORD
  5
91E6
102
{ACAD_REACTORS
330
91E5
102
}
330
91E5
100
AcDbXrecord
340
6A30
  0
MLINESTYLE
  5
6A2D
102
{ACAD_REACTORS
330
6A2C
102
}
330
6A2C
100
AcDbMlineStyle
  2
STANDARD
 70
     0
  3

 62
   256
 51
90.0
 52
90.0
 71
     2
 49
0.5
 62
   256
  6
BYLAYER
 49
-0.5
 62
   256
  6
BYLAYER
  0
ACDBPLACEHOLDER
  5
6A25
102
{ACAD_REACTORS
330
6A24
102
}
330
6A24
100
AcDbPlaceHolder
280
     0
  0
XRECORD
  5
91CE
102
{ACAD_REACTORS
330
91C4
102
}
330
91C4
100
AcDbXrecord
 90
        0
  0
XRECORD
  5
91D2
102
{ACAD_REACTORS
330
91C4
102
}
330
91C4
100
AcDbXrecord
1000
DSTYLE
1002
{
1070
   279
 70
     2
1002
}
  0
XRECORD
  5
91CF
102
{ACAD_REACTORS
330
91C4
102
}
330
91C4
100
AcDbXrecord
  1
{5E8163B8-4D8F-4110-B677-A6458ADDE735}
  0
XRECORD
  5
91C7
102
{ACAD_REACTORS
330
91C4
102
}
330
91C4
100
AcDbXrecord
  1

  0
XRECORD
  5
91CD
102
{ACAD_REACTORS
330
91C4
102
}
330
91C4
100
AcDbXrecord
 90
        4
  0
XRECORD
  5
91C9
102
{ACAD_REACTORS
330
91C4
102
}
330
91C4
100
AcDbXrecord
340
6A2F
  0
XRECORD
  5
91CC
102
{ACAD_REACTORS
330
91C4
102
}
330
91C4
100
AcDbXrecord
 90
    10781
  0
XRECORD
  5
91CA
102
{ACAD_REACTORS
330
91C4
102
}
330
91C4
100
AcDbXrecord
340
6A2E
  0
XRECORD
  5
91CB
102
{ACAD_REACTORS
330
91C4
102
}
330
91C4
100
AcDbXrecord
340
6A24
  0
XRECORD
  5
91D1
102
{ACAD_REACTORS
330
91C4
102
}
330
91C4
100
AcDbXrecord
 40
0.0
  0
XRECORD
  5
91D5
102
{ACAD_REACTORS
330
91C4
102
}
330
91C4
100
AcDbXrecord
340
0
  0
XRECORD
  5
91DB
102
{ACAD_REACTORS
330
91C4
102
}
330
91C4
100
AcDbXrecord
 10
0.0
 20
0.0
 30
0.0
  0
XRECORD
  5
91D7
102
{ACAD_REACTORS
330
91C4
102
}
330
91C4
100
AcDbXrecord
 10
0.0
 20
0.0
 30
0.0
  0
XRECORD
  5
91DA
102
{ACAD_REACTORS
330
91C4
102
}
330
91C4
100
AcDbXrecord
 10
0.0
 20
0.0
 30
0.0
  0
XRECORD
  5
91D8
102
{ACAD_REACTORS
330
91C4
102
}
330
91C4
100
AcDbXrecord
 10
0.0
 20
0.0
 30
0.0
  0
XRECORD
  5
91D9
102
{ACAD_REACTORS
330
91C4
102
}
330
91C4
100
AcDbXrecord
 10
0.0
 20
0.0
 30
0.0
  0
XRECORD
  5
91D6
102
{ACAD_REACTORS
330
91C4
102
}
330
91C4
100
AcDbXrecord
 10
0.0
 20
0.0
 30
0.0
  0
XRECORD
  5
91D3
102
{ACAD_REACTORS
330
91C4
102
}
330
91C4
100
AcDbXrecord
340
0
  0
XRECORD
  5
91D4
102
{ACAD_REACTORS
330
91C4
102
}
330
91C4
100
AcDbXrecord
 70
     0
  0
XRECORD
  5
91C8
102
{ACAD_REACTORS
330
91C4
102
}
330
91C4
100
AcDbXrecord
  1

  0
XRECORD
  5
91C5
102
{ACAD_REACTORS
330
91C4
102
}
330
91C4
100
AcDbXrecord
 90
        1
  0
XRECORD
  5
91C6
102
{ACAD_REACTORS
330
91C4
102
}
330
91C4
100
AcDbXrecord
 90
       70
  0
XRECORD
  5
91DE
102
{ACAD_REACTORS
330
91C4
102
}
330
91C4
100
AcDbXrecord
340
0
  0
XRECORD
  5
91E4
102
{ACAD_REACTORS
330
91C4
102
}
330
91C4
100
AcDbXrecord
 10
0.0
 20
0.0
 30
0.0
  0
XRECORD
  5
91E0
102
{ACAD_REACTORS
330
91C4
102
}
330
91C4
100
AcDbXrecord
 10
0.0
 20
0.0
 30
0.0
  0
XRECORD
  5
91E3
102
{ACAD_REACTORS
330
91C4
102
}
330
91C4
100
AcDbXrecord
 10
0.0
 20
0.0
 30
0.0
  0
XRECORD
  5
91E1
102
{ACAD_REACTORS
330
91C4
102
}
330
91C4
100
AcDbXrecord
 10
0.0
 20
0.0
 30
0.0
  0
XRECORD
  5
91E2
102
{ACAD_REACTORS
330
91C4
102
}
330
91C4
100
AcDbXrecord
 10
0.0
 20
0.0
 30
0.0
  0
XRECORD
  5
91DF
102
{ACAD_REACTORS
330
91C4
102
}
330
91C4
100
AcDbXrecord
 10
0.0
 20
0.0
 30
0.0
  0
XRECORD
  5
91DC
102
{ACAD_REACTORS
330
91C4
102
}
330
91C4
100
AcDbXrecord
340
0
  0
XRECORD
  5
91DD
102
{ACAD_REACTORS
330
91C4
102
}
330
91C4
100
AcDbXrecord
 70
     0
  0
XRECORD
  5
91D0
102
{ACAD_REACTORS
330
91C4
102
}
330
91C4
100
AcDbXrecord
  1
{46E61CD6-3318-4B32-A7BC-3FEAB776663D}
  0
DICTIONARYVAR
  5
6B7A
102
{ACAD_REACTORS
330
6B78
102
}
330
6B78
100
DictionaryVariables
280
     0
  1
1
  0
DICTIONARYVAR
  5
6B79
102
{ACAD_REACTORS
330
6B78
102
}
330
6B78
100
DictionaryVariables
280
     0
  1
1
  0
DICTIONARY
  5
6B3F
102
{ACAD_REACTORS
330
6B39
102
}
330
6B39
100
AcDbDictionary
  0
DICTIONARY
  5
6B23
102
{ACAD_REACTORS
330
6B22
102
}
330
6B22
100
AcDbDictionary
  3
DWGSETTINGS
350
6B24
  0
LAYER_INDEX
  5
6B64
102
{ACAD_REACTORS
330
6B63
102
}
330
6B63
100
AcDbIndex
 40
2453793.332333206
100
AcDbLayerIndex
  8
0
360
6B65
 90
        0
  8
DEFPOINTS
360
6B66
 90
        0
  8
1
360
6B67
 90
       25
  8
2
360
6B68
 90
        4
  8
4
360
6B69
 90
        1
  8
6
360
6B6A
 90
        3
  8
SK1
360
6B6B
 90
       26
  8
SK2
360
6B6C
 90
        2
  8
SK3
360
6B6D
 90
        6
  8
SK4
360
6B6E
 90
        1
  8
CUT
360
6B6F
 90
        8
  8
NOCUT
360
6B70
 90
        6
  0
XRECORD
  5
6B24
102
{ACAD_REACTORS
330
6B23
102
}
330
6B23
100
AcDbXrecord
  1
VERSION
140
15.0
  1
PRODUCT
  2
AutoCAD Mechanical 2000
  0
IDBUFFER
  5
6B65
330
0
100
AcDbIdBuffer
  0
IDBUFFER
  5
6B66
330
0
100
AcDbIdBuffer
  0
IDBUFFER
  5
6B67
330
0
100
AcDbIdBuffer
330
8FFC
330
8C65
330
8C68
330
8C6C
330
8C8A
330
8F81
330
8F8A
330
8F8E
330
8F90
330
8F91
330
8F93
330
8F95
330
8F97
330
8F99
330
8F9B
330
8FB6
330
8FC0
330
8FC4
330
8FC6
330
8FC7
330
8FC8
330
8FCC
330
8FCE
330
8FEF
330
8FF0
  0
IDBUFFER
  5
6B68
330
0
100
AcDbIdBuffer
330
906D
330
90AE
330
9103
330
9157
  0
IDBUFFER
  5
6B69
330
0
100
AcDbIdBuffer
330
7BB0
  0
IDBUFFER
  5
6B6A
330
0
100
AcDbIdBuffer
330
8C63
330
8DD1
330
8DD2
  0
IDBUFFER
  5
6B6B
330
0
100
AcDbIdBuffer
330
800E
330
800F
330
8010
330
8011
330
8012
330
8013
330
8014
330
8015
330
8016
330
8017
330
8018
330
8019
330
801B
330
801C
330
801D
330
8309
330
830A
330
8C6D
330
8C70
330
8C71
330
8C87
330
8C88
330
8C89
330
8C98
330
8C99
330
8C9A
  0
IDBUFFER
  5
6B6C
330
0
100
AcDbIdBuffer
330
81C5
330
9034
  0
IDBUFFER
  5
6B6D
330
0
100
AcDbIdBuffer
330
8FC1
330
8FC2
330
8FC5
330
8FCD
330
8FF1
330
8FF2
  0
IDBUFFER
  5
6B6E
330
0
100
AcDbIdBuffer
330
7B98
  0
IDBUFFER
  5
6B6F
330
0
100
AcDbIdBuffer
330
8F89
330
8F8D
330
8F8F
330
8F92
330
8F94
330
8F96
330
8F98
330
8F9A
  0
IDBUFFER
  5
6B70
330
0
100
AcDbIdBuffer
330
8C69
330
8C72
330
8CC2
330
8E9A
330
9005
330
9006
  0
ENDSEC
  0
EOF
