  0
SECTION
  2
HEADER
  9
$ACADVER
  1
AC1015
  9
$ACADMAINTVER
 70
    20
  9
$DWGCODEPAGE
  3
ANSI_1252
  9
$INSBASE
 10
0.0
 20
0.0
 30
0.0
  9
$EXTMIN
 10
-33.14605828150366
 20
-33.4515609857383
 30
-0.0015258207003583
  9
$EXTMAX
 10
95.19623916687805
 20
38.65034381024134
 30
0.0000000349246037
  9
$LIMMIN
 10
0.0
 20
0.0
  9
$LIMMAX
 10
594.0
 20
420.0
  9
$ORTHOMODE
 70
     0
  9
$REGENMODE
 70
     1
  9
$FILLMODE
 70
     1
  9
$QTEXTMODE
 70
     0
  9
$MIRRTEXT
 70
     1
  9
$LTSCALE
 40
10.0
  9
$ATTMODE
 70
     1
  9
$TEXTSIZE
 40
0.2
  9
$TRACEWID
 40
0.05
  9
$TEXTSTYLE
  7
STANDARD
  9
$CLAYER
  8
0
  9
$CELTYPE
  6
ByLayer
  9
$CECOLOR
 62
   256
  9
$CELTSCALE
 40
1.0
  9
$DISPSILH
 70
     0
  9
$DIMSCALE
 40
1.0
  9
$DIMASZ
 40
2.5
  9
$DIMEXO
 40
0.625
  9
$DIMDLI
 40
3.75
  9
$DIMRND
 40
0.0
  9
$DIMDLE
 40
0.0
  9
$DIMEXE
 40
1.25
  9
$DIMTP
 40
0.0
  9
$DIMTM
 40
0.0
  9
$DIMTXT
 40
2.5
  9
$DIMCEN
 40
2.5
  9
$DIMTSZ
 40
0.0
  9
$DIMTOL
 70
     0
  9
$DIMLIM
 70
     0
  9
$DIMTIH
 70
     0
  9
$DIMTOH
 70
     0
  9
$DIMSE1
 70
     0
  9
$DIMSE2
 70
     0
  9
$DIMTAD
 70
     1
  9
$DIMZIN
 70
     8
  9
$DIMBLK
  1

  9
$DIMASO
 70
     1
  9
$DIMSHO
 70
     1
  9
$DIMPOST
  1

  9
$DIMAPOST
  1

  9
$DIMALT
 70
     0
  9
$DIMALTD
 70
     3
  9
$DIMALTF
 40
0.03937007874016
  9
$DIMLFAC
 40
1.0
  9
$DIMTOFL
 70
     1
  9
$DIMTVP
 40
0.0
  9
$DIMTIX
 70
     0
  9
$DIMSOXD
 70
     0
  9
$DIMSAH
 70
     0
  9
$DIMBLK1
  1

  9
$DIMBLK2
  1

  9
$DIMSTYLE
  2
ISO-25
  9
$DIMCLRD
 70
     0
  9
$DIMCLRE
 70
     0
  9
$DIMCLRT
 70
     0
  9
$DIMTFAC
 40
1.0
  9
$DIMGAP
 40
0.625
  9
$DIMJUST
 70
     0
  9
$DIMSD1
 70
     0
  9
$DIMSD2
 70
     0
  9
$DIMTOLJ
 70
     0
  9
$DIMTZIN
 70
     8
  9
$DIMALTZ
 70
     0
  9
$DIMALTTZ
 70
     0
  9
$DIMUPT
 70
     0
  9
$DIMDEC
 70
     2
  9
$DIMTDEC
 70
     2
  9
$DIMALTU
 70
     2
  9
$DIMALTTD
 70
     3
  9
$DIMTXSTY
  7
STANDARD
  9
$DIMAUNIT
 70
     0
  9
$DIMADEC
 70
     0
  9
$DIMALTRND
 40
0.0
  9
$DIMAZIN
 70
     0
  9
$DIMDSEP
 70
    44
  9
$DIMATFIT
 70
     3
  9
$DIMFRAC
 70
     0
  9
$DIMLDRBLK
  1

  9
$DIMLUNIT
 70
     2
  9
$DIMLWD
 70
    -2
  9
$DIMLWE
 70
    -2
  9
$DIMTMOVE
 70
     0
  9
$LUNITS
 70
     2
  9
$LUPREC
 70
     4
  9
$SKETCHINC
 40
0.1
  9
$FILLETRAD
 40
0.0
  9
$AUNITS
 70
     0
  9
$AUPREC
 70
     0
  9
$MENU
  1
ACAD
  9
$ELEVATION
 40
0.0
  9
$PELEVATION
 40
0.0
  9
$THICKNESS
 40
0.0
  9
$LIMCHECK
 70
     0
  9
$CHAMFERA
 40
0.0
  9
$CHAMFERB
 40
0.0
  9
$CHAMFERC
 40
0.0
  9
$CHAMFERD
 40
0.0
  9
$SKPOLY
 70
     0
  9
$TDCREATE
 40
2305814.125509387
  9
$TDUCREATE
 40
6.0000000000
  9
$TDUPDATE
 40
2454210.326059132
  9
$TDUUPDATE
 40
2454210.242725798
  9
$TDINDWG
 40
0.0237243866
  9
$TDUSRTIMER
 40
0.0237242130
  9
$USRTIMER
 70
     1
  9
$ANGBASE
 50
0.0
  9
$ANGDIR
 70
     0
  9
$PDMODE
 70
     0
  9
$PDSIZE
 40
0.15
  9
$PLINEWID
 40
0.0
  9
$SPLFRAME
 70
     0
  9
$SPLINETYPE
 70
     6
  9
$SPLINESEGS
 70
     8
  9
$HANDSEED
  5
5099
  9
$SURFTAB1
 70
     6
  9
$SURFTAB2
 70
     6
  9
$SURFTYPE
 70
     6
  9
$SURFU
 70
     6
  9
$SURFV
 70
     6
  9
$UCSBASE
  2

  9
$UCSNAME
  2

  9
$UCSORG
 10
0.0
 20
0.0
 30
0.0
  9
$UCSXDIR
 10
1.0
 20
0.0
 30
0.0
  9
$UCSYDIR
 10
0.0
 20
1.0
 30
0.0
  9
$UCSORTHOREF
  2

  9
$UCSORTHOVIEW
 70
     0
  9
$UCSORGTOP
 10
0.0
 20
0.0
 30
0.0
  9
$UCSORGBOTTOM
 10
0.0
 20
0.0
 30
0.0
  9
$UCSORGLEFT
 10
0.0
 20
0.0
 30
0.0
  9
$UCSORGRIGHT
 10
0.0
 20
0.0
 30
0.0
  9
$UCSORGFRONT
 10
0.0
 20
0.0
 30
0.0
  9
$UCSORGBACK
 10
0.0
 20
0.0
 30
0.0
  9
$PUCSBASE
  2

  9
$PUCSNAME
  2

  9
$PUCSORG
 10
0.0
 20
0.0
 30
0.0
  9
$PUCSXDIR
 10
1.0
 20
0.0
 30
0.0
  9
$PUCSYDIR
 10
0.0
 20
1.0
 30
0.0
  9
$PUCSORTHOREF
  2

  9
$PUCSORTHOVIEW
 70
     0
  9
$PUCSORGTOP
 10
0.0
 20
0.0
 30
0.0
  9
$PUCSORGBOTTOM
 10
0.0
 20
0.0
 30
0.0
  9
$PUCSORGLEFT
 10
0.0
 20
0.0
 30
0.0
  9
$PUCSORGRIGHT
 10
0.0
 20
0.0
 30
0.0
  9
$PUCSORGFRONT
 10
0.0
 20
0.0
 30
0.0
  9
$PUCSORGBACK
 10
0.0
 20
0.0
 30
0.0
  9
$USERI1
 70
     0
  9
$USERI2
 70
     0
  9
$USERI3
 70
     0
  9
$USERI4
 70
     0
  9
$USERI5
 70
     0
  9
$USERR1
 40
0.0
  9
$USERR2
 40
0.0
  9
$USERR3
 40
0.0
  9
$USERR4
 40
0.0
  9
$USERR5
 40
0.0
  9
$WORLDVIEW
 70
     1
  9
$SHADEDGE
 70
     3
  9
$SHADEDIF
 70
    70
  9
$TILEMODE
 70
     1
  9
$MAXACTVP
 70
    16
  9
$PINSBASE
 10
0.0
 20
0.0
 30
0.0
  9
$PLIMCHECK
 70
     0
  9
$PEXTMIN
 10
0.0
 20
0.0
 30
0.0
  9
$PEXTMAX
 10
0.0
 20
0.0
 30
0.0
  9
$PLIMMIN
 10
0.0
 20
0.0
  9
$PLIMMAX
 10
12.0
 20
9.0
  9
$UNITMODE
 70
     0
  9
$VISRETAIN
 70
     0
  9
$PLINEGEN
 70
     1
  9
$PSLTSCALE
 70
     0
  9
$TREEDEPTH
 70
  3020
  9
$CMLSTYLE
  2
Standard
  9
$CMLJUST
 70
     0
  9
$CMLSCALE
 40
1.0
  9
$PROXYGRAPHICS
 70
     1
  9
$MEASUREMENT
 70
     0
  9
$CELWEIGHT
370
    -1
  9
$ENDCAPS
280
     0
  9
$JOINSTYLE
280
     0
  9
$LWDISPLAY
290
     0
  9
$INSUNITS
 70
     0
  9
$HYPERLINKBASE
  1

  9
$STYLESHEET
  1

  9
$XEDIT
290
     1
  9
$CEPSNTYPE
380
     0
  9
$PSTYLEMODE
290
     1
  9
$FINGERPRINTGUID
  2
{D4A1652E-0E03-427D-95FA-9CA00CA7E0F6}
  9
$VERSIONGUID
  2
{E90E0EEA-DF59-48FA-84F4-E9D1CB929804}
  9
$EXTNAMES
290
     1
  9
$PSVPSCALE
 40
0.0
  9
$OLESTARTUP
290
     0
  0
ENDSEC
  0
SECTION
  2
CLASSES
  0
CLASS
  1
ACDBDICTIONARYWDFLT
  2
AcDbDictionaryWithDefault
  3
ObjectDBX Classes
 90
        0
280
     0
281
     0
  0
CLASS
  1
TABLESTYLE
  2
AcDbTableStyle
  3
ObjectDBX Classes
 90
     2047
280
     0
281
     0
  0
CLASS
  1
DICTIONARYVAR
  2
AcDbDictionaryVar
  3
ObjectDBX Classes
 90
        0
280
     0
281
     0
  0
CLASS
  1
SORTENTSTABLE
  2
AcDbSortentsTable
  3
ObjectDBX Classes
 90
        0
280
     0
281
     0
  0
CLASS
  1
ACDBPLACEHOLDER
  2
AcDbPlaceHolder
  3
ObjectDBX Classes
 90
        0
280
     0
281
     0
  0
CLASS
  1
LAYOUT
  2
AcDbLayout
  3
ObjectDBX Classes
 90
        0
280
     0
281
     0
  0
ENDSEC
  0
SECTION
  2
TABLES
  0
TABLE
  2
VPORT
  5
8
330
0
100
AcDbSymbolTable
 70
     6
  0
VPORT
  5
5093
330
8
100
AcDbSymbolTableRecord
100
AcDbViewportTableRecord
  2
*Active
 70
     0
 10
0.0
 20
0.0
 11
1.0
 21
1.0
 12
31.02509044268721
 22
2.59939141225152
 13
0.0
 23
0.0
 14
1.0
 24
1.0
 15
0.0
 25
0.0
 16
0.0
 26
0.0
 36
1.0
 17
0.0
 27
0.0
 37
0.0
 40
85.16706860813298
 41
1.514429109159347
 42
50.0
 43
0.0
 44
0.0
 50
0.0
 51
0.0
 71
     0
 72
   100
 73
     1
 74
     1
 75
     0
 76
     0
 77
     0
 78
     0
281
     0
 65
     1
110
0.0
120
0.0
130
0.0
111
1.0
121
0.0
131
0.0
112
0.0
122
1.0
132
0.0
 79
     0
146
0.0
  0
ENDTAB
  0
TABLE
  2
LTYPE
  5
5
330
0
100
AcDbSymbolTable
 70
     6
  0
LTYPE
  5
13
330
5
100
AcDbSymbolTableRecord
100
AcDbLinetypeTableRecord
  2
ByBlock
 70
     0
  3

 72
    65
 73
     0
 40
0.0
  0
LTYPE
  5
14
330
5
100
AcDbSymbolTableRecord
100
AcDbLinetypeTableRecord
  2
ByLayer
 70
     0
  3

 72
    65
 73
     0
 40
0.0
  0
LTYPE
  5
15
330
5
100
AcDbSymbolTableRecord
100
AcDbLinetypeTableRecord
  2
CONTINUOUS
 70
     0
  3
Solid line
 72
    65
 73
     0
 40
0.0
  0
LTYPE
  5
27
330
5
100
AcDbSymbolTableRecord
100
AcDbLinetypeTableRecord
  2
CENTER
 70
     0
  3
____ _ ____ _ ____ _ ____ _ ____ _ ____ _ ____
 72
    65
 73
     4
 40
0.6
 49
0.375
 74
     0
 49
-0.075
 74
     0
 49
0.075
 74
     0
 49
-0.075
 74
     0
  0
LTYPE
  5
28
330
5
100
AcDbSymbolTableRecord
100
AcDbLinetypeTableRecord
  2
HIDDEN
 70
     0
  3
- - - - - - - - - - - - - - - - - - - -
 72
    65
 73
     2
 40
0.2
 49
0.1
 74
     0
 49
-0.1
 74
     0
  0
ENDTAB
  0
TABLE
  2
LAYER
  5
2
330
0
100
AcDbSymbolTable
 70
    18
  0
LAYER
  5
10
330
2
100
AcDbSymbolTableRecord
100
AcDbLayerTableRecord
  2
0
 70
     0
 62
     7
  6
CONTINUOUS
370
    -3
390
F
  0
LAYER
  5
2C
330
2
100
AcDbSymbolTableRecord
100
AcDbLayerTableRecord
  2
SK1
 70
     0
 62
     4
  6
CONTINUOUS
370
    -3
390
F
  0
LAYER
  5
2D
330
2
100
AcDbSymbolTableRecord
100
AcDbLayerTableRecord
  2
1
 70
     0
 62
     4
  6
CONTINUOUS
370
    -3
390
F
  0
LAYER
  5
2E
330
2
100
AcDbSymbolTableRecord
100
AcDbLayerTableRecord
  2
2
 70
     0
 62
     7
  6
CONTINUOUS
370
    -3
390
F
  0
LAYER
  5
2F
330
2
100
AcDbSymbolTableRecord
100
AcDbLayerTableRecord
  2
SK2
 70
     0
 62
     7
  6
CONTINUOUS
370
    -3
390
F
  0
LAYER
  5
30
330
2
100
AcDbSymbolTableRecord
100
AcDbLayerTableRecord
  2
3
 70
     0
 62
     1
  6
HIDDEN
370
    -3
390
F
  0
LAYER
  5
31
330
2
100
AcDbSymbolTableRecord
100
AcDbLayerTableRecord
  2
SK3
 70
     0
 62
     1
  6
HIDDEN
370
    -3
390
F
  0
LAYER
  5
32
330
2
100
AcDbSymbolTableRecord
100
AcDbLayerTableRecord
  2
4
 70
     0
 62
     2
  6
CENTER
370
    -3
390
F
  0
LAYER
  5
33
330
2
100
AcDbSymbolTableRecord
100
AcDbLayerTableRecord
  2
SK4
 70
     0
 62
     2
  6
CENTER
370
    -3
390
F
  0
LAYER
  5
36
330
2
100
AcDbSymbolTableRecord
100
AcDbLayerTableRecord
  2
6
 70
     0
 62
     5
  6
CONTINUOUS
370
    -3
390
F
  0
LAYER
  5
4CFA
330
2
100
AcDbSymbolTableRecord
100
AcDbLayerTableRecord
  2
Defpoints
 70
     0
 62
     7
  6
CONTINUOUS
290
     0
370
    -3
390
F
  0
LAYER
  5
4CFB
330
2
100
AcDbSymbolTableRecord
100
AcDbLayerTableRecord
  2
CUT
 70
     0
 62
     1
  6
CONTINUOUS
370
    -3
390
F
  0
LAYER
  5
4CFC
330
2
100
AcDbSymbolTableRecord
100
AcDbLayerTableRecord
  2
NOCUT
 70
     0
 62
     7
  6
CONTINUOUS
370
    -3
390
F
  0
ENDTAB
  0
TABLE
  2
STYLE
  5
3
330
0
100
AcDbSymbolTable
 70
     3
  0
STYLE
  5
11
330
3
100
AcDbSymbolTableRecord
100
AcDbTextStyleTableRecord
  2
STANDARD
 70
     0
 40
0.0
 41
0.8
 50
0.0
 71
     0
 42
0.2
  3
ISOCP
  4

  0
ENDTAB
  0
TABLE
  2
VIEW
  5
6
330
0
100
AcDbSymbolTable
 70
     0
  0
ENDTAB
  0
TABLE
  2
UCS
  5
7
330
0
100
AcDbSymbolTable
 70
     0
  0
ENDTAB
  0
TABLE
  2
APPID
  5
9
330
0
100
AcDbSymbolTable
 70
     1
  0
APPID
  5
12
330
9
100
AcDbSymbolTableRecord
100
AcDbRegAppTableRecord
  2
ACAD
 70
     0
  0
ENDTAB
  0
TABLE
  2
DIMSTYLE
  5
A
330
0
100
AcDbSymbolTable
 70
     2
100
AcDbDimStyleTable
 71
     2
340
4CFD
340
3A
  0
DIMSTYLE
105
3A
330
A
100
AcDbSymbolTableRecord
100
AcDbDimStyleTableRecord
  2
STANDARD
 70
     0
279
     2
340
11
  0
DIMSTYLE
105
4CFD
102
{ACAD_REACTORS
330
4D01
330
4D00
330
4CFF
330
4DE3
330
4DE4
330
7A9
330
7B8
330
7AA
330
5055
330
5074
102
}
330
A
100
AcDbSymbolTableRecord
100
AcDbDimStyleTableRecord
  2
ISO-25
 70
     0
 41
2.5
 42
0.625
 43
3.75
 44
1.25
 73
     0
 74
     0
 77
     1
 78
     8
140
2.5
141
2.5
143
0.03937007874016
147
0.625
171
     3
172
     1
271
     2
272
     2
274
     3
278
    44
283
     0
284
     8
340
11
  0
ENDTAB
  0
TABLE
  2
BLOCK_RECORD
  5
1
330
0
100
AcDbSymbolTable
 70
    88
  0
BLOCK_RECORD
  5
22
102
{ACAD_XDICTIONARY
360
4F56
102
}
330
1
100
AcDbSymbolTableRecord
100
AcDbBlockTableRecord
  2
*Model_Space
340
25
  0
BLOCK_RECORD
  5
1E
330
1
100
AcDbSymbolTableRecord
100
AcDbBlockTableRecord
  2
*Paper_Space
340
21
  0
BLOCK_RECORD
  5
4CD3
330
1
100
AcDbSymbolTableRecord
100
AcDbBlockTableRecord
  2
nullp
340
0
310
2800000020000000200000000100080000000000000400000000000000000000000000000000000000000000000080000080000000808000800000008000800080800000C0C0C000C0DCC000F0CAA6000020400000206000002080000020A0000020C0000020E00000400000004020000040400000406000004080000040A0
310
000040C0000040E00000600000006020000060400000606000006080000060A0000060C0000060E00000800000008020000080400000806000008080000080A0000080C0000080E00000A0000000A0200000A0400000A0600000A0800000A0A00000A0C00000A0E00000C0000000C0200000C0400000C0600000C0800000C0
310
A00000C0C00000C0E00000E0000000E0200000E0400000E0600000E0800000E0A00000E0C00000E0E00040000000400020004000400040006000400080004000A0004000C0004000E00040200000402020004020400040206000402080004020A0004020C0004020E000404000004040200040404000404060004040800040
310
40A0004040C0004040E00040600000406020004060400040606000406080004060A0004060C0004060E00040800000408020004080400040806000408080004080A0004080C0004080E00040A0000040A0200040A0400040A0600040A0800040A0A00040A0C00040A0E00040C0000040C0200040C0400040C0600040C08000
310
40C0A00040C0C00040C0E00040E0000040E0200040E0400040E0600040E0800040E0A00040E0C00040E0E00080000000800020008000400080006000800080008000A0008000C0008000E00080200000802020008020400080206000802080008020A0008020C0008020E00080400000804020008040400080406000804080
310
008040A0008040C0008040E00080600000806020008060400080606000806080008060A0008060C0008060E00080800000808020008080400080806000808080008080A0008080C0008080E00080A0000080A0200080A0400080A0600080A0800080A0A00080A0C00080A0E00080C0000080C0200080C0400080C0600080C0
310
800080C0A00080C0C00080C0E00080E0000080E0200080E0400080E0600080E0800080E0A00080E0C00080E0E000C0000000C0002000C0004000C0006000C0008000C000A000C000C000C000E000C0200000C0202000C0204000C0206000C0208000C020A000C020C000C020E000C0400000C0402000C0404000C0406000C0
310
408000C040A000C040C000C040E000C0600000C0602000C0604000C0606000C0608000C060A000C060C000C060E000C0800000C0802000C0804000C0806000C0808000C080A000C080C000C080E000C0A00000C0A02000C0A04000C0A06000C0A08000C0A0A000C0A0C000C0A0E000C0C00000C0C02000C0C04000C0C06000
310
C0C08000C0C0A000F0FBFF00A4A0A000808080000000FF0000FF000000FFFF00FF000000FF00FF00FFFF0000FFFFFF0000000000000000000000000000000000000000000000000000000000000000000000000000000000000000000000FEFEFE00000000000000000000000000000000000000000000000000FEFEFEFEFE
310
FEFEFEFE000000000000000000000000000000000000000000FEFEFEFEFEFEFEFEFE0000FEFE000000000000000000000000000000000000FEFEFEFEFEFEFEFEFEFE00000000FEFE00000000000000000000000000000000FEFEFEFEFEFEFEFEFEFE000000000000FEFE00000000000000000000000000FEFEFEFEFEFEFEFE
310
FEFEFE0000000000000000FEFE00000000000000000000FEFEFEFEFEFEFEFEFEFEFEFE000000000000000000FE000000000000000000FEFEFEFEFEFEFEFEFEFEFEFEFE00000000000000000000FE00000000000000FEFEFEFEFEFEFEFEFEFEFEFEFEFE00000000000000000000FE000000000000FEFEFEFEFEFEFEFEFEFEFE
310
FEFEFEFE0000000000000000000000FE0000000000FEFEFEFEFEFEFEFEFEFEFEFEFEFEFE0000000000000000000000FE0000000000FEFEFEFEFEFEFEFEFEFEFEFEFEFEFE0000000000000000000000FE00000000FEFEFEFEFEFEFEFEFEFEFEFEFEFEFEFE000000000000000000000000FE000000FEFEFEFEFEFEFEFEFEFEFE
310
FEFEFEFEFE000000000000000000000000FE000000FEFEFEFEFEFEFEFEFEFEFEFEFEFEFEFE00000000000000000000000000FE0000FEFEFEFEFEFEFEFEFEFEFEFEFEFEFEFEFEFEFEFEFEFEFEFEFEFEFEFEFEFE000000FE000000000000000000000000FEFEFEFEFEFEFEFEFEFEFEFEFEFEFEFE000000FE0000000000000000
310
00000000FEFEFEFEFEFEFEFEFEFEFEFEFEFEFEFE000000FE000000000000000000000000FEFEFEFEFEFEFEFEFEFEFEFEFEFEFE00000000FE000000000000000000000000FEFEFEFEFEFEFEFEFEFEFEFEFEFEFE0000000000FE0000000000000000000000FEFEFEFEFEFEFEFEFEFEFEFEFEFEFE000000000000FE0000000000
310
0000000000FEFEFEFEFEFEFEFEFEFEFEFEFEFE00000000000000FE00000000000000000000FEFEFEFEFEFEFEFEFEFEFEFEFE000000000000000000FE000000000000000000FEFEFEFEFEFEFEFEFEFEFEFE0000000000000000000000FE0000000000000000FEFEFEFEFEFEFEFEFEFEFEFE000000000000000000000000FE00
310
000000000000FEFEFEFEFEFEFEFEFEFEFE00000000000000000000000000FE00000000000000FEFEFEFEFEFEFEFEFE00000000000000000000000000000000FEFEFEFEFE0000FEFEFEFEFEFEFEFE00000000000000000000000000000000000000000000FEFEFEFEFEFEFEFEFE000000000000000000000000000000000000
310
00000000000000FEFEFEFE000000000000000000000000000000000000000000000000000000000000000000000000000000000000000000
102
{BLKREFS
331
4DE1
331
4ECC
102
}
  0
BLOCK_RECORD
  5
4CDC
330
1
100
AcDbSymbolTableRecord
100
AcDbBlockTableRecord
  2
nullp1
340
0
310
2800000020000000200000000100080000000000000400000000000000000000000000000000000000000000000080000080000000808000800000008000800080800000C0C0C000C0DCC000F0CAA6000020400000206000002080000020A0000020C0000020E00000400000004020000040400000406000004080000040A0
310
000040C0000040E00000600000006020000060400000606000006080000060A0000060C0000060E00000800000008020000080400000806000008080000080A0000080C0000080E00000A0000000A0200000A0400000A0600000A0800000A0A00000A0C00000A0E00000C0000000C0200000C0400000C0600000C0800000C0
310
A00000C0C00000C0E00000E0000000E0200000E0400000E0600000E0800000E0A00000E0C00000E0E00040000000400020004000400040006000400080004000A0004000C0004000E00040200000402020004020400040206000402080004020A0004020C0004020E000404000004040200040404000404060004040800040
310
40A0004040C0004040E00040600000406020004060400040606000406080004060A0004060C0004060E00040800000408020004080400040806000408080004080A0004080C0004080E00040A0000040A0200040A0400040A0600040A0800040A0A00040A0C00040A0E00040C0000040C0200040C0400040C0600040C08000
310
40C0A00040C0C00040C0E00040E0000040E0200040E0400040E0600040E0800040E0A00040E0C00040E0E00080000000800020008000400080006000800080008000A0008000C0008000E00080200000802020008020400080206000802080008020A0008020C0008020E00080400000804020008040400080406000804080
310
008040A0008040C0008040E00080600000806020008060400080606000806080008060A0008060C0008060E00080800000808020008080400080806000808080008080A0008080C0008080E00080A0000080A0200080A0400080A0600080A0800080A0A00080A0C00080A0E00080C0000080C0200080C0400080C0600080C0
310
800080C0A00080C0C00080C0E00080E0000080E0200080E0400080E0600080E0800080E0A00080E0C00080E0E000C0000000C0002000C0004000C0006000C0008000C000A000C000C000C000E000C0200000C0202000C0204000C0206000C0208000C020A000C020C000C020E000C0400000C0402000C0404000C0406000C0
310
408000C040A000C040C000C040E000C0600000C0602000C0604000C0606000C0608000C060A000C060C000C060E000C0800000C0802000C0804000C0806000C0808000C080A000C080C000C080E000C0A00000C0A02000C0A04000C0A06000C0A08000C0A0A000C0A0C000C0A0E000C0C00000C0C02000C0C04000C0C06000
310
C0C08000C0C0A000F0FBFF00A4A0A000808080000000FF0000FF000000FFFF00FF000000FF00FF00FFFF0000FFFFFF00000000000000000000000000000000000000000000000000000000000000000000000000000000000000000000000000FE0000000000000000000000000000000000000000000000000000000000FE
310
FEFEFEFE000000000000000000000000000000000000000000FEFEFEFEFEFE0000FE0000FEFE000000000000000000000000000000000000FE0000000000000000FE00000000FEFE00000000000000000000000000000000FE0000000000000000FE000000000000FEFE00000000000000000000000000FE00000000000000
310
0000FE0000000000000000FEFE00000000000000000000FE00000000000000000000FE000000000000000000FE000000000000000000FE0000000000000000000000FE00000000000000000000FE0000000000000000FE0000000000000000000000FE00000000000000000000FE00000000000000FE000000000000000000
310
000000FE0000000000000000000000FE0000000000FE00000000000000000000000000FE0000000000000000000000FE0000000000FE00000000000000000000000000FE0000000000000000000000FE0000000000FE00000000000000000000000000FE000000000000000000000000FE00000000FE000000000000000000
310
00000000FE000000000000000000000000FE00000000FE00000000000000000000000000FE00000000000000000000000000FE0000FEFEFEFEFEFEFEFEFEFEFEFEFEFEFEFEFEFEFEFEFEFEFEFEFEFEFEFEFEFE000000FE00000000000000000000000000FE00000000000000000000000000FE000000FE0000000000000000
310
0000000000FE000000000000000000000000FE00000000FE00000000000000000000000000FE000000000000000000000000FE00000000FE00000000000000000000000000FE0000000000000000000000FE000000000000FE000000000000000000000000FE0000000000000000000000FE00000000000000FE0000000000
310
000000000000FE00000000000000000000FE0000000000000000FE0000000000000000000000FE00000000000000000000FE000000000000000000FE00000000000000000000FE000000000000000000FE0000000000000000000000FE000000000000000000FE000000000000000000FE000000000000000000000000FE00
310
00000000000000FE00000000000000FEFE00000000000000000000000000FE0000000000000000FE0000000000FEFE00000000000000000000000000000000FEFEFEFEFE000000FE000000FEFE0000000000000000000000000000000000000000000000FEFEFEFEFEFEFE0000000000000000000000000000000000000000
310
0000000000000000FE0000000000000000000000000000000000000000000000000000000000000000000000000000000000000000000000
102
{BLKREFS
331
4DE2
331
4ECD
102
}
  0
BLOCK_RECORD
  5
4ED0
330
1
100
AcDbSymbolTableRecord
100
AcDbBlockTableRecord
  2
*D72
340
0
  0
BLOCK_RECORD
  5
4EDC
330
1
100
AcDbSymbolTableRecord
100
AcDbBlockTableRecord
  2
*D73
340
0
  0
BLOCK_RECORD
  5
4EE8
330
1
100
AcDbSymbolTableRecord
100
AcDbBlockTableRecord
  2
*D74
340
0
  0
BLOCK_RECORD
  5
4EF4
330
1
100
AcDbSymbolTableRecord
100
AcDbBlockTableRecord
  2
*D75
340
0
  0
BLOCK_RECORD
  5
4F00
330
1
100
AcDbSymbolTableRecord
100
AcDbBlockTableRecord
  2
*D76
340
0
  0
BLOCK_RECORD
  5
4F59
330
1
100
AcDbSymbolTableRecord
100
AcDbBlockTableRecord
  2
*D79
340
0
  0
BLOCK_RECORD
  5
4F66
330
1
100
AcDbSymbolTableRecord
100
AcDbBlockTableRecord
  2
*D80
340
0
  0
BLOCK_RECORD
  5
4F73
330
1
100
AcDbSymbolTableRecord
100
AcDbBlockTableRecord
  2
*D81
340
0
  0
BLOCK_RECORD
  5
5056
330
1
100
AcDbSymbolTableRecord
100
AcDbBlockTableRecord
  2
*D86
340
0
  0
BLOCK_RECORD
  5
5075
330
1
100
AcDbSymbolTableRecord
100
AcDbBlockTableRecord
  2
*D87
340
0
  0
ENDTAB
  0
ENDSEC
  0
SECTION
  2
BLOCKS
  0
BLOCK
  5
23
330
22
100
AcDbEntity
  8
0
100
AcDbBlockBegin
  2
*Model_Space
 70
     0
 10
0.0
 20
0.0
 30
0.0
  3
*Model_Space
  1

  0
ENDBLK
  5
24
330
22
100
AcDbEntity
  8
0
100
AcDbBlockEnd
  0
BLOCK
  5
1F
330
1E
100
AcDbEntity
 67
     1
  8
0
100
AcDbBlockBegin
  2
*Paper_Space
 70
     0
 10
0.0
 20
0.0
 30
0.0
  3
*Paper_Space
  1

  0
ENDBLK
  5
20
330
1E
100
AcDbEntity
 67
     1
  8
0
100
AcDbBlockEnd
  0
BLOCK
  5
4CD4
330
4CD3
100
AcDbEntity
  8
0
100
AcDbBlockBegin
  2
nullp
 70
     0
 10
0.0
 20
0.0
 30
0.0
  3
nullp
  1

  0
HATCH
  5
4CD5
330
4CD3
100
AcDbEntity
  8
1
100
AcDbHatch
 10
0.0
 20
0.0
 30
0.0
210
0.0
220
0.0
230
1.0
  2
SOLID
 70
     1
 71
     0
 91
        2
 92
        7
 72
     1
 73
     1
 93
        3
 10
271.9386450411704
 20
389.8959796344513
 42
0.0
 10
274.8896170952829
 20
389.8959796344513
 42
0.4142135623730966
 10
271.9386450411704
 20
392.8469516885638
 42
0.0
 97
        0
 92
        7
 72
     1
 73
     1
 93
        3
 10
271.9386450411704
 20
386.9450075803387
 42
0.0
 10
271.9386450411704
 20
389.8959796344513
 42
0.0
 10
268.9876729870576
 20
389.8959796344513
 42
0.4142135623730966
 97
        0
 75
     0
 76
     1
 47
0.1190009775223266
 98
        2
 10
272.6831980999823
 20
390.8172041078278
 10
270.6591804393174
 20
388.1991827114049
  0
LWPOLYLINE
  5
4CD6
330
4CD3
100
AcDbEntity
  8
1
100
AcDbPolyline
 90
        3
 70
     1
 43
0.0
 10
271.9386450411702
 20
389.8959796344513
 10
268.9876729870576
 20
389.8959796344513
 42
0.4142135623730966
 10
271.9386450411702
 20
386.9450075803387
  0
LINE
  5
4CD7
330
4CD3
100
AcDbEntity
  8
1
100
AcDbLine
 10
271.9386450411702
 20
392.8469516885638
 30
0.0
 11
271.9386450411702
 21
386.9450075803387
 31
0.0
  0
LWPOLYLINE
  5
4CD8
330
4CD3
100
AcDbEntity
  8
1
100
AcDbPolyline
 90
        3
 70
     1
 43
0.0
 10
271.9386450411702
 20
392.8469516885638
 10
271.9386450411702
 20
389.8959796344513
 10
274.8896170952829
 20
389.8959796344513
 42
0.4142135623730966
  0
LINE
  5
4CD9
330
4CD3
100
AcDbEntity
  8
1
100
AcDbLine
 10
268.9876729870575
 20
389.8959796344513
 30
0.0
 11
274.8896170952828
 21
389.8959796344513
 31
0.0
  0
CIRCLE
  5
4CDA
330
4CD3
100
AcDbEntity
  8
1
100
AcDbCircle
 10
271.9386450411704
 20
389.8959796344513
 30
0.0
 40
2.950972054112601
  0
ENDBLK
  5
4CDB
330
4CD3
100
AcDbEntity
  8
0
100
AcDbBlockEnd
  0
BLOCK
  5
4CDD
330
4CDC
100
AcDbEntity
  8
0
100
AcDbBlockBegin
  2
nullp1
 70
     0
 10
0.0
 20
0.0
 30
0.0
  3
nullp1
  1

  0
LINE
  5
4CDE
330
4CDC
100
AcDbEntity
  8
1
100
AcDbLine
 10
442.6007601796219
 20
432.5849634019313
 30
0.0
 11
443.5282989193195
 21
432.5849634019313
 31
0.0
  0
CIRCLE
  5
4CDF
330
4CDC
100
AcDbEntity
  8
1
100
AcDbCircle
 10
443.0645295494706
 20
432.5849634019313
 30
0.0
 40
0.463769369848821
  0
LINE
  5
4CE0
330
4CDC
100
AcDbEntity
  8
1
100
AcDbLine
 10
443.0645295494706
 20
433.0487327717801
 30
0.0
 11
443.0645295494706
 21
432.1211940320826
 31
0.0
  0
ENDBLK
  5
4CE1
330
4CDC
100
AcDbEntity
  8
0
100
AcDbBlockEnd
  0
BLOCK
  5
4EDA
330
4ED0
100
AcDbEntity
  8
0
100
AcDbBlockBegin
  2
*D72
 70
     1
 10
0.0
 20
0.0
 30
0.0
  3
*D72
  1

  0
LINE
  5
4F0C
330
4ED0
100
AcDbEntity
  8
2
 62
     0
370
    -2
100
AcDbLine
 10
429.844032384261
 20
486.3203833896049
 30
0.0
 11
437.5840267656008
 21
486.3203833896049
 31
0.0
  0
LINE
  5
4F0D
330
4ED0
100
AcDbEntity
  8
2
 62
     0
370
    -2
100
AcDbLine
 10
429.844032384261
 20
495.3203833896049
 30
0.0
 11
437.5840267656008
 21
495.3203833896049
 31
0.0
  0
LINE
  5
4F0E
330
4ED0
100
AcDbEntity
  8
2
 62
     0
370
    -2
100
AcDbLine
 10
436.3340267656008
 20
488.8203833896049
 30
0.0
 11
436.3340267656008
 21
492.8203833896049
 31
0.0
  0
SOLID
  5
4F0F
330
4ED0
100
AcDbEntity
  8
2
 62
     0
100
AcDbTrace
 10
435.9173600989342
 20
488.8203833896049
 30
0.0
 11
436.7506934322675
 21
488.8203833896049
 31
0.0
 12
436.3340267656008
 22
486.3203833896049
 32
0.0
 13
436.3340267656008
 23
486.3203833896049
 33
0.0
  0
SOLID
  5
4F10
330
4ED0
100
AcDbEntity
  8
2
 62
     0
100
AcDbTrace
 10
435.9173600989342
 20
492.8203833896049
 30
0.0
 11
436.7506934322675
 21
492.8203833896049
 31
0.0
 12
436.3340267656008
 22
495.3203833896049
 32
0.0
 13
436.3340267656008
 23
495.3203833896049
 33
0.0
  0
MTEXT
  5
4F11
330
4ED0
100
AcDbEntity
  8
2
 62
     0
100
AcDbMText
 10
434.4590267656008
 20
490.8203833896051
 30
0.0
 40
2.5
 41
0.0
 71
     5
 72
     1
  1
%%c9
 11
0.0000000000000001
 21
1.0
 31
0.0
 73
     1
 44
1.0
1001
ACAD
1000
MTEXTBEGIN
1070
    73
1070
     1
1070
    44
1040
1.0
1070
    74
1070
     0
1000
MTEXTEND
  0
POINT
  5
4F12
330
4ED0
100
AcDbEntity
  8
Defpoints
 62
     0
100
AcDbPoint
 10
429.2190323842611
 20
486.3203833896049
 30
0.0
  0
POINT
  5
4F13
330
4ED0
100
AcDbEntity
  8
Defpoints
 62
     0
100
AcDbPoint
 10
429.2190323842611
 20
495.3203833896049
 30
0.0
  0
POINT
  5
4F14
330
4ED0
100
AcDbEntity
  8
Defpoints
 62
     0
100
AcDbPoint
 10
436.3340267656008
 20
495.3203833896049
 30
0.0
  0
ENDBLK
  5
4EDB
330
4ED0
100
AcDbEntity
  8
0
100
AcDbBlockEnd
  0
BLOCK
  5
4EE6
330
4EDC
100
AcDbEntity
  8
0
100
AcDbBlockBegin
  2
*D73
 70
     1
 10
0.0
 20
0.0
 30
0.0
  3
*D73
  1

  0
LINE
  5
4F15
330
4EDC
100
AcDbEntity
  8
0
 62
     0
370
    -2
100
AcDbLine
 10
426.2318664126264
 20
506.4453833896049
 30
0.0
 11
426.2318664126264
 21
514.9950583604805
 31
0.0
  0
LINE
  5
4F16
330
4EDC
100
AcDbEntity
  8
0
 62
     0
370
    -2
100
AcDbLine
 10
396.2318664126265
 20
506.4453833896049
 30
0.0
 11
396.2318664126265
 21
514.9950583604805
 31
0.0
  0
LINE
  5
4F17
330
4EDC
100
AcDbEntity
  8
0
 62
     0
370
    -2
100
AcDbLine
 10
423.7318664126264
 20
513.7450583604805
 30
0.0
 11
398.7318664126265
 21
513.7450583604805
 31
0.0
  0
SOLID
  5
4F18
330
4EDC
100
AcDbEntity
  8
0
 62
     0
100
AcDbTrace
 10
423.7318664126264
 20
514.1617250271472
 30
0.0
 11
423.7318664126264
 21
513.3283916938139
 31
0.0
 12
426.2318664126264
 22
513.7450583604805
 32
0.0
 13
426.2318664126264
 23
513.7450583604805
 33
0.0
  0
SOLID
  5
4F19
330
4EDC
100
AcDbEntity
  8
0
 62
     0
100
AcDbTrace
 10
398.7318664126265
 20
514.1617250271472
 30
0.0
 11
398.7318664126265
 21
513.3283916938139
 31
0.0
 12
396.2318664126265
 22
513.7450583604805
 32
0.0
 13
396.2318664126265
 23
513.7450583604805
 33
0.0
  0
MTEXT
  5
4F1A
330
4EDC
100
AcDbEntity
  8
0
 62
     0
100
AcDbMText
 10
411.2318664126264
 20
515.6200583604806
 30
0.0
 40
2.5
 41
0.0
 71
     5
 72
     1
  1
30
 73
     1
 44
1.0
1001
ACAD
1000
MTEXTBEGIN
1070
    73
1070
     1
1070
    44
1040
1.0
1070
    74
1070
     0
1000
MTEXTEND
  0
POINT
  5
4F1B
330
4EDC
100
AcDbEntity
  8
Defpoints
 62
     0
100
AcDbPoint
 10
426.2318664126264
 20
505.8203833896049
 30
0.0
  0
POINT
  5
4F1C
330
4EDC
100
AcDbEntity
  8
Defpoints
 62
     0
100
AcDbPoint
 10
396.2318664126265
 20
505.8203833896049
 30
0.0
  0
POINT
  5
4F1D
330
4EDC
100
AcDbEntity
  8
Defpoints
 62
     0
100
AcDbPoint
 10
396.2318664126265
 20
513.7450583604805
 30
0.0
  0
ENDBLK
  5
4EE7
330
4EDC
100
AcDbEntity
  8
0
100
AcDbBlockEnd
  0
BLOCK
  5
4EF2
330
4EE8
100
AcDbEntity
  8
0
100
AcDbBlockBegin
  2
*D74
 70
     1
 10
0.0
 20
0.0
 30
0.0
  3
*D74
  1

  0
LINE
  5
4F1E
330
4EE8
100
AcDbEntity
  8
SK2
 62
     0
370
    -2
100
AcDbLine
 10
357.6068664126264
 20
482.8203833896049
 30
0.0
 11
347.1144691958265
 21
482.8203833896049
 31
0.0
  0
LINE
  5
4F1F
330
4EE8
100
AcDbEntity
  8
SK2
 62
     0
370
    -2
100
AcDbLine
 10
357.6068664126264
 20
498.8203833896049
 30
0.0
 11
347.1144691958265
 21
498.8203833896049
 31
0.0
  0
LINE
  5
4F20
330
4EE8
100
AcDbEntity
  8
SK2
 62
     0
370
    -2
100
AcDbLine
 10
348.3644691958265
 20
485.3203833896049
 30
0.0
 11
348.3644691958265
 21
496.320383389605
 31
0.0
  0
SOLID
  5
4F21
330
4EE8
100
AcDbEntity
  8
SK2
 62
     0
100
AcDbTrace
 10
347.9478025291598
 20
485.3203833896049
 30
0.0
 11
348.7811358624932
 21
485.3203833896049
 31
0.0
 12
348.3644691958265
 22
482.8203833896049
 32
0.0
 13
348.3644691958265
 23
482.8203833896049
 33
0.0
  0
SOLID
  5
4F22
330
4EE8
100
AcDbEntity
  8
SK2
 62
     0
100
AcDbTrace
 10
347.9478025291598
 20
496.320383389605
 30
0.0
 11
348.7811358624932
 21
496.320383389605
 31
0.0
 12
348.3644691958265
 22
498.8203833896049
 32
0.0
 13
348.3644691958265
 23
498.8203833896049
 33
0.0
  0
MTEXT
  5
4F23
330
4EE8
100
AcDbEntity
  8
SK2
 62
     0
100
AcDbMText
 10
346.4894691958264
 20
490.7998637486049
 30
0.0
 40
2.5
 41
0.0
 71
     5
 72
     1
  1
M16
 11
0.0000000000000001
 21
1.0
 31
0.0
 73
     1
 44
1.0
1001
ACAD
1000
MTEXTBEGIN
1070
    73
1070
     1
1070
    44
1040
1.0
1070
    74
1070
     0
1000
MTEXTEND
  0
POINT
  5
4F24
330
4EE8
100
AcDbEntity
  8
Defpoints
 62
     0
100
AcDbPoint
 10
358.2318664126264
 20
482.8203833896049
 30
0.0
  0
POINT
  5
4F25
330
4EE8
100
AcDbEntity
  8
Defpoints
 62
     0
100
AcDbPoint
 10
358.2318664126264
 20
498.8203833896049
 30
0.0
  0
POINT
  5
4F26
330
4EE8
100
AcDbEntity
  8
Defpoints
 62
     0
100
AcDbPoint
 10
348.3644691958265
 20
498.8203833896049
 30
0.0
  0
ENDBLK
  5
4EF3
330
4EE8
100
AcDbEntity
  8
0
100
AcDbBlockEnd
  0
BLOCK
  5
4EFE
330
4EF4
100
AcDbEntity
  8
0
100
AcDbBlockBegin
  2
*D75
 70
     1
 10
0.0
 20
0.0
 30
0.0
  3
*D75
  1

  0
LINE
  5
4F27
330
4EF4
100
AcDbEntity
  8
2
 62
     0
370
    -2
100
AcDbLine
 10
381.2318664126264
 20
508.073727379523
 30
0.0
 11
381.2318664126264
 21
523.3416078046968
 31
0.0
  0
LINE
  5
4F28
330
4EF4
100
AcDbEntity
  8
2
 62
     0
370
    -2
100
AcDbLine
 10
426.2318664126264
 20
490.945383389605
 30
0.0
 11
426.2318664126264
 21
523.3416078046968
 31
0.0
  0
LINE
  5
4F29
330
4EF4
100
AcDbEntity
  8
2
 62
     0
370
    -2
100
AcDbLine
 10
383.7318664126264
 20
522.0916078046967
 30
0.0
 11
423.7318664126264
 21
522.0916078046967
 31
0.0
  0
SOLID
  5
4F2A
330
4EF4
100
AcDbEntity
  8
2
 62
     0
100
AcDbTrace
 10
383.7318664126264
 20
522.5082744713634
 30
0.0
 11
383.7318664126264
 21
521.6749411380301
 31
0.0
 12
381.2318664126264
 22
522.0916078046967
 32
0.0
 13
381.2318664126264
 23
522.0916078046967
 33
0.0
  0
SOLID
  5
4F2B
330
4EF4
100
AcDbEntity
  8
2
 62
     0
100
AcDbTrace
 10
423.7318664126264
 20
522.5082744713634
 30
0.0
 11
423.7318664126264
 21
521.6749411380301
 31
0.0
 12
426.2318664126264
 22
522.0916078046967
 32
0.0
 13
426.2318664126264
 23
522.0916078046967
 33
0.0
  0
MTEXT
  5
4F2C
330
4EF4
100
AcDbEntity
  8
2
 62
     0
100
AcDbMText
 10
405.2095012901505
 20
523.9666078046967
 30
0.0
 40
2.5
 41
0.0
 71
     5
 72
     1
  1
45
 73
     1
 44
1.0
1001
ACAD
1000
MTEXTBEGIN
1070
    73
1070
     1
1070
    44
1040
1.0
1070
    74
1070
     0
1000
MTEXTEND
  0
POINT
  5
4F2D
330
4EF4
100
AcDbEntity
  8
Defpoints
 62
     0
100
AcDbPoint
 10
381.2318664126264
 20
507.4487273795231
 30
0.0
  0
POINT
  5
4F2E
330
4EF4
100
AcDbEntity
  8
Defpoints
 62
     0
100
AcDbPoint
 10
426.2318664126264
 20
490.3203833896049
 30
0.0
  0
POINT
  5
4F2F
330
4EF4
100
AcDbEntity
  8
Defpoints
 62
     0
100
AcDbPoint
 10
426.2318664126264
 20
522.0916078046967
 30
0.0
  0
ENDBLK
  5
4EFF
330
4EF4
100
AcDbEntity
  8
0
100
AcDbBlockEnd
  0
BLOCK
  5
4F0A
330
4F00
100
AcDbEntity
  8
0
100
AcDbBlockBegin
  2
*D76
 70
     1
 10
0.0
 20
0.0
 30
0.0
  3
*D76
  1

  0
LINE
  5
4F30
330
4F00
100
AcDbEntity
  8
2
 62
     0
370
    -2
100
AcDbLine
 10
427.3568664126264
 20
475.8203833896049
 30
0.0
 11
441.9868664126265
 21
475.8203833896049
 31
0.0
  0
LINE
  5
4F31
330
4F00
100
AcDbEntity
  8
2
 62
     0
370
    -2
100
AcDbLine
 10
424.4143554652478
 20
505.8203833896049
 30
0.0
 11
441.9868664126265
 21
505.8203833896049
 31
0.0
  0
LINE
  5
4F32
330
4F00
100
AcDbEntity
  8
2
 62
     0
370
    -2
100
AcDbLine
 10
440.7368664126265
 20
478.3203833896049
 30
0.0
 11
440.7368664126265
 21
503.3203833896049
 31
0.0
  0
SOLID
  5
4F33
330
4F00
100
AcDbEntity
  8
2
 62
     0
100
AcDbTrace
 10
440.3201997459598
 20
478.3203833896049
 30
0.0
 11
441.1535330792932
 21
478.3203833896049
 31
0.0
 12
440.7368664126265
 22
475.8203833896049
 32
0.0
 13
440.7368664126265
 23
475.8203833896049
 33
0.0
  0
SOLID
  5
4F34
330
4F00
100
AcDbEntity
  8
2
 62
     0
100
AcDbTrace
 10
440.3201997459598
 20
503.3203833896049
 30
0.0
 11
441.1535330792932
 21
503.3203833896049
 31
0.0
 12
440.7368664126265
 22
505.8203833896049
 32
0.0
 13
440.7368664126265
 23
505.8203833896049
 33
0.0
  0
MTEXT
  5
4F35
330
4F00
100
AcDbEntity
  8
2
 62
     0
100
AcDbMText
 10
438.8618664126264
 20
490.8203833896049
 30
0.0
 40
2.5
 41
0.0
 71
     5
 72
     1
  1
%%c30
 11
0.0000000000000001
 21
1.0
 31
0.0
 73
     1
 44
1.0
1001
ACAD
1000
MTEXTBEGIN
1070
    73
1070
     1
1070
    44
1040
1.0
1070
    74
1070
     0
1000
MTEXTEND
  0
POINT
  5
4F36
330
4F00
100
AcDbEntity
  8
Defpoints
 62
     0
100
AcDbPoint
 10
426.7318664126263
 20
475.8203833896049
 30
0.0
  0
POINT
  5
4F37
330
4F00
100
AcDbEntity
  8
Defpoints
 62
     0
100
AcDbPoint
 10
423.7893554652478
 20
505.8203833896049
 30
0.0
  0
POINT
  5
4F38
330
4F00
100
AcDbEntity
  8
Defpoints
 62
     0
100
AcDbPoint
 10
440.7368664126265
 20
505.8203833896049
 30
0.0
  0
ENDBLK
  5
4F0B
330
4F00
100
AcDbEntity
  8
0
100
AcDbBlockEnd
  0
BLOCK
  5
4F64
330
4F59
100
AcDbEntity
  8
0
100
AcDbBlockBegin
  2
*D79
 70
     1
 10
0.0
 20
0.0
 30
0.0
  3
*D79
  1

  0
LINE
  5
502B
330
4F59
100
AcDbEntity
  8
2
 62
     0
370
    -2
100
AcDbLine
 10
50.0
 20
0.125
 30
0.0
 11
50.0
 21
35.89574820312686
 31
0.0
  0
LINE
  5
502C
330
4F59
100
AcDbEntity
  8
2
 62
     0
370
    -2
100
AcDbLine
 10
0.0
 20
12.37333752492662
 30
0.0
 11
0.0000000000000015
 21
35.89574820312686
 31
0.0
  0
LINE
  5
502D
330
4F59
100
AcDbEntity
  8
2
 62
     0
370
    -2
100
AcDbLine
 10
47.5
 20
34.64574820312686
 30
0.0
 11
2.500000000000001
 21
34.64574820312686
 31
0.0
  0
SOLID
  5
502E
330
4F59
100
AcDbEntity
  8
2
 62
     0
100
AcDbTrace
 10
47.5
 20
35.06241486979352
 30
0.0
 11
47.5
 21
34.22908153646019
 31
0.0
 12
50.0
 22
34.64574820312686
 32
0.0
 13
50.0
 23
34.64574820312686
 33
0.0
  0
SOLID
  5
502F
330
4F59
100
AcDbEntity
  8
2
 62
     0
100
AcDbTrace
 10
2.500000000000001
 20
35.06241486979352
 30
0.0
 11
2.500000000000001
 21
34.22908153646019
 31
0.0
 12
0.0000000000000014
 22
34.64574820312686
 32
0.0
 13
0.0000000000000014
 23
34.64574820312686
 33
0.0
  0
MTEXT
  5
5030
330
4F59
100
AcDbEntity
  8
2
 62
     0
100
AcDbMText
 10
25.0
 20
36.52074820312686
 30
0.0
 40
2.5
 41
0.0
 71
     5
 72
     1
  1
50 
 73
     1
 44
1.0
1001
ACAD
1000
MTEXTBEGIN
1070
    73
1070
     1
1070
    44
1040
1.0
1070
    74
1070
     0
1000
MTEXTEND
  0
POINT
  5
5031
330
4F59
100
AcDbEntity
  8
Defpoints
 62
     0
100
AcDbPoint
 10
50.0
 20
-0.5
 30
0.0
  0
POINT
  5
5032
330
4F59
100
AcDbEntity
  8
Defpoints
 62
     0
100
AcDbPoint
 10
0.0
 20
11.74833752492662
 30
0.0
  0
POINT
  5
5033
330
4F59
100
AcDbEntity
  8
Defpoints
 62
     0
100
AcDbPoint
 10
0.0000000000000014
 20
34.64574820312686
 30
0.0
  0
ENDBLK
  5
4F65
330
4F59
100
AcDbEntity
  8
0
100
AcDbBlockEnd
  0
BLOCK
  5
4F71
330
4F66
100
AcDbEntity
  8
0
100
AcDbBlockBegin
  2
*D80
 70
     1
 10
0.0
 20
0.0
 30
0.0
  3
*D80
  1

  0
LINE
  5
5034
330
4F66
100
AcDbEntity
  8
SK2
 62
     0
370
    -2
100
AcDbLine
 10
-23.625
 20
-8.0
 30
0.0
 11
-31.36293739650001
 21
-7.999999999999998
 31
0.0
  0
LINE
  5
5035
330
4F66
100
AcDbEntity
  8
SK2
 62
     0
370
    -2
100
AcDbLine
 10
-23.625
 20
8.0
 30
0.0
 11
-31.3629373965
 21
8.000000000000001
 31
0.0
  0
LINE
  5
5036
330
4F66
100
AcDbEntity
  8
SK2
 62
     0
370
    -2
100
AcDbLine
 10
-30.1129373965
 20
-5.499999999999998
 30
0.0
 11
-30.1129373965
 21
5.500000000000001
 31
0.0
  0
SOLID
  5
5037
330
4F66
100
AcDbEntity
  8
SK2
 62
     0
100
AcDbTrace
 10
-30.52960406316667
 20
-5.499999999999998
 30
0.0
 11
-29.69627072983334
 21
-5.499999999999999
 31
0.0
 12
-30.11293739650001
 22
-7.999999999999998
 32
0.0
 13
-30.11293739650001
 23
-7.999999999999998
 33
0.0
  0
SOLID
  5
5038
330
4F66
100
AcDbEntity
  8
SK2
 62
     0
100
AcDbTrace
 10
-30.52960406316667
 20
5.500000000000001
 30
0.0
 11
-29.69627072983334
 21
5.5
 31
0.0
 12
-30.1129373965
 22
8.000000000000001
 32
0.0
 13
-30.1129373965
 23
8.000000000000001
 33
0.0
  0
MTEXT
  5
5039
330
4F66
100
AcDbEntity
  8
SK2
 62
     0
100
AcDbMText
 10
-31.9879373965
 20
0.403895710900031
 30
0.0
 40
2.5
 41
0.0
 71
     5
 72
     1
  1
M16
 11
0.0000000000000001
 21
1.0
 31
0.0
 73
     1
 44
1.0
1001
ACAD
1000
MTEXTBEGIN
1070
    73
1070
     1
1070
    44
1040
1.0
1070
    74
1070
     0
1000
MTEXTEND
  0
POINT
  5
503A
330
4F66
100
AcDbEntity
  8
Defpoints
 62
     0
100
AcDbPoint
 10
-23.0
 20
-8.0
 30
0.0
  0
POINT
  5
503B
330
4F66
100
AcDbEntity
  8
Defpoints
 62
     0
100
AcDbPoint
 10
-23.0
 20
8.0
 30
0.0
  0
POINT
  5
503C
330
4F66
100
AcDbEntity
  8
Defpoints
 62
     0
100
AcDbPoint
 10
-30.1129373965
 20
8.000000000000001
 30
0.0
  0
ENDBLK
  5
4F72
330
4F66
100
AcDbEntity
  8
0
100
AcDbBlockEnd
  0
BLOCK
  5
4F7E
330
4F73
100
AcDbEntity
  8
0
100
AcDbBlockBegin
  2
*D81
 70
     1
 10
0.0
 20
0.0
 30
0.0
  3
*D81
  1

  0
LINE
  5
506B
330
4F73
100
AcDbEntity
  8
2
 62
     0
370
    -2
100
AcDbLine
 10
51.125
 20
-18.0
 30
0.0
 11
66.27487692310001
 21
-18.0
 31
0.0
  0
LINE
  5
506C
330
4F73
100
AcDbEntity
  8
2
 62
     0
370
    -2
100
AcDbLine
 10
48.85343107301173
 20
18.0
 30
0.0
 11
66.27487692310001
 21
18.0
 31
0.0
  0
LINE
  5
506D
330
4F73
100
AcDbEntity
  8
2
 62
     0
370
    -2
100
AcDbLine
 10
65.02487692310001
 20
-15.5
 30
0.0
 11
65.02487692310001
 21
15.5
 31
0.0
  0
SOLID
  5
506E
330
4F73
100
AcDbEntity
  8
2
 62
     0
100
AcDbTrace
 10
64.60821025643333
 20
-15.5
 30
0.0
 11
65.44154358976668
 21
-15.5
 31
0.0
 12
65.02487692310001
 22
-18.0
 32
0.0
 13
65.02487692310001
 23
-18.0
 33
0.0
  0
SOLID
  5
506F
330
4F73
100
AcDbEntity
  8
2
 62
     0
100
AcDbTrace
 10
64.60821025643333
 20
15.5
 30
0.0
 11
65.44154358976668
 21
15.5
 31
0.0
 12
65.02487692310001
 22
18.0
 32
0.0
 13
65.02487692310001
 23
18.0
 33
0.0
  0
MTEXT
  5
5070
330
4F73
100
AcDbEntity
  8
2
 62
     0
100
AcDbMText
 10
63.14987692310001
 20
0.3612461539000267
 30
0.0
 40
2.5
 41
0.0
 71
     5
 72
     1
  1
%%c36
 11
0.0000000000000001
 21
1.0
 31
0.0
 73
     1
 44
1.0
1001
ACAD
1000
MTEXTBEGIN
1070
    73
1070
     1
1070
    44
1040
1.0
1070
    74
1070
     0
1000
MTEXTEND
  0
POINT
  5
5071
330
4F73
100
AcDbEntity
  8
Defpoints
 62
     0
100
AcDbPoint
 10
50.5
 20
-18.0
 30
0.0
  0
POINT
  5
5072
330
4F73
100
AcDbEntity
  8
Defpoints
 62
     0
100
AcDbPoint
 10
48.22843107301173
 20
18.0
 30
0.0
  0
POINT
  5
5073
330
4F73
100
AcDbEntity
  8
Defpoints
 62
     0
100
AcDbPoint
 10
65.02487692310001
 20
18.0
 30
0.0
  0
ENDBLK
  5
4F7F
330
4F73
100
AcDbEntity
  8
0
100
AcDbBlockEnd
  0
BLOCK
  5
5060
330
5056
100
AcDbEntity
  8
0
100
AcDbBlockBegin
  2
*D86
 70
     1
 10
0.0
 20
0.0
 30
0.0
  3
*D86
  1

  0
LINE
  5
508A
330
5056
100
AcDbEntity
  8
2
 62
     0
370
    -2
100
AcDbLine
 10
52.7978116808141
 20
-7.5
 30
0.0
 11
61.73479887845269
 21
-7.500000000000002
 31
0.0
  0
LINE
  5
508B
330
5056
100
AcDbEntity
  8
2
 62
     0
370
    -2
100
AcDbLine
 10
52.7978116808141
 20
7.5
 30
0.0
 11
61.73479887845269
 21
7.499999999999997
 31
0.0
  0
LINE
  5
508C
330
5056
100
AcDbEntity
  8
2
 62
     0
370
    -2
100
AcDbLine
 10
60.48479887845269
 20
-5.000000000000002
 30
0.0
 11
60.48479887845269
 21
4.999999999999997
 31
0.0
  0
SOLID
  5
508D
330
5056
100
AcDbEntity
  8
2
 62
     0
100
AcDbTrace
 10
60.06813221178603
 20
-5.000000000000002
 30
0.0
 11
60.90146554511935
 21
-5.000000000000002
 31
0.0
 12
60.48479887845269
 22
-7.500000000000002
 32
0.0
 13
60.48479887845269
 23
-7.500000000000002
 33
0.0
  0
SOLID
  5
508E
330
5056
100
AcDbEntity
  8
2
 62
     0
100
AcDbTrace
 10
60.06813221178603
 20
4.999999999999997
 30
0.0
 11
60.90146554511935
 21
4.999999999999997
 31
0.0
 12
60.48479887845269
 22
7.499999999999997
 32
0.0
 13
60.48479887845269
 23
7.499999999999997
 33
0.0
  0
MTEXT
  5
508F
330
5056
100
AcDbEntity
  8
2
 62
     0
100
AcDbMText
 10
58.60979887845269
 20
0.0000000000000072
 30
0.0
 40
2.5
 41
0.0
 71
     5
 72
     1
  1
%%c15
 11
0.0000000000000001
 21
1.0
 31
0.0
 73
     1
 44
1.0
1001
ACAD
1000
MTEXTBEGIN
1070
    73
1070
     1
1070
    44
1040
1.0
1070
    74
1070
     0
1000
MTEXTEND
  0
POINT
  5
5090
330
5056
100
AcDbEntity
  8
Defpoints
 62
     0
100
AcDbPoint
 10
52.1728116808141
 20
-7.5
 30
0.0
  0
POINT
  5
5091
330
5056
100
AcDbEntity
  8
Defpoints
 62
     0
100
AcDbPoint
 10
52.1728116808141
 20
7.5
 30
0.0
  0
POINT
  5
5092
330
5056
100
AcDbEntity
  8
Defpoints
 62
     0
100
AcDbPoint
 10
60.48479887845269
 20
7.499999999999997
 30
0.0
  0
ENDBLK
  5
5061
330
5056
100
AcDbEntity
  8
0
100
AcDbBlockEnd
  0
BLOCK
  5
507F
330
5075
100
AcDbEntity
  8
0
100
AcDbBlockBegin
  2
*D87
 70
     1
 10
0.0
 20
0.0
 30
0.0
  3
*D87
  1

  0
LINE
  5
5081
330
5075
100
AcDbEntity
  8
2
 62
     0
370
    -2
100
AcDbLine
 10
50.0
 20
18.625
 30
0.0
 11
50.0
 21
27.84337539780745
 31
0.0
  0
LINE
  5
5082
330
5075
100
AcDbEntity
  8
2
 62
     0
370
    -2
100
AcDbLine
 10
14.0
 20
18.625
 30
0.0
 11
14.0
 21
27.84337539780745
 31
0.0
  0
LINE
  5
5083
330
5075
100
AcDbEntity
  8
2
 62
     0
370
    -2
100
AcDbLine
 10
47.5
 20
26.59337539780745
 30
0.0
 11
16.5
 21
26.59337539780745
 31
0.0
  0
SOLID
  5
5084
330
5075
100
AcDbEntity
  8
2
 62
     0
100
AcDbTrace
 10
47.5
 20
27.01004206447412
 30
0.0
 11
47.5
 21
26.17670873114078
 31
0.0
 12
50.0
 22
26.59337539780745
 32
0.0
 13
50.0
 23
26.59337539780745
 33
0.0
  0
SOLID
  5
5085
330
5075
100
AcDbEntity
  8
2
 62
     0
100
AcDbTrace
 10
16.5
 20
27.01004206447412
 30
0.0
 11
16.5
 21
26.17670873114078
 31
0.0
 12
14.0
 22
26.59337539780745
 32
0.0
 13
14.0
 23
26.59337539780745
 33
0.0
  0
MTEXT
  5
5086
330
5075
100
AcDbEntity
  8
2
 62
     0
100
AcDbMText
 10
32.0
 20
28.46837539780745
 30
0.0
 40
2.5
 41
0.0
 71
     5
 72
     1
  1
36
 73
     1
 44
1.0
1001
ACAD
1000
MTEXTBEGIN
1070
    73
1070
     1
1070
    44
1040
1.0
1070
    74
1070
     0
1000
MTEXTEND
  0
POINT
  5
5087
330
5075
100
AcDbEntity
  8
Defpoints
 62
     0
100
AcDbPoint
 10
50.0
 20
18.0
 30
0.0
  0
POINT
  5
5088
330
5075
100
AcDbEntity
  8
Defpoints
 62
     0
100
AcDbPoint
 10
14.0
 20
18.0
 30
0.0
  0
POINT
  5
5089
330
5075
100
AcDbEntity
  8
Defpoints
 62
     0
100
AcDbPoint
 10
14.0
 20
26.59337539780745
 30
0.0
  0
ENDBLK
  5
5080
330
5075
100
AcDbEntity
  8
0
100
AcDbBlockEnd
  0
ENDSEC
  0
SECTION
  2
ENTITIES
  0
DIMENSION
  5
7A9
330
22
100
AcDbEntity
  8
2
100
AcDbDimension
  2
*D79
 10
0.0000000000000014
 20
34.64574820312686
 30
0.0
 11
25.0
 21
34.64574820312686
 31
0.0
 70
   160
  1
<> 
 71
     5
 42
50.0
  3
ISO-25
100
AcDbAlignedDimension
 13
50.0
 23
-0.5
 33
0.0
 14
0.0
 24
11.74833752492662
 34
0.0
 50
180.0
100
AcDbRotatedDimension
  0
DIMENSION
  5
7AA
330
22
100
AcDbEntity
  8
SK2
100
AcDbDimension
  2
*D80
 10
-30.1129373965
 20
8.000000000000001
 30
0.0
 11
-30.1129373965
 21
0.4038957109000308
 31
0.0
 70
   160
  1
M<>
 71
     5
 42
16.0
  3
ISO-25
100
AcDbAlignedDimension
 13
-23.0
 23
-8.0
 33
0.0
 14
-23.0
 24
8.0
 34
0.0
 50
90.0
100
AcDbRotatedDimension
  0
DIMENSION
  5
7B8
330
22
100
AcDbEntity
  8
2
100
AcDbDimension
  2
*D81
 10
65.02487692310001
 20
18.0
 30
0.0
 11
65.02487692310001
 21
0.3612461539000265
 31
0.0
 70
   160
  1
%%c<>
 71
     5
 42
36.0
  3
ISO-25
100
AcDbAlignedDimension
 13
50.5
 23
-18.0
 33
0.0
 14
48.22843107301173
 24
18.0
 34
0.0
 50
90.0
100
AcDbRotatedDimension
  0
TEXT
  5
7E0
330
22
100
AcDbEntity
  8
6
100
AcDbText
 10
-6.651489224613154
 20
-33.58606596951955
 30
0.0
 40
3.5
  1
15C1G036050X8R01
 41
1.199999999999999
 72
     1
 11
16.44851077538681
 21
-33.58606596951955
 31
0.0
100
AcDbText
  0
TEXT
  5
835
330
22
100
AcDbEntity
  8
6
100
AcDbText
 10
57.54576700605196
 20
35.67018690099275
 30
0.0
 40
3.0
  1
SHLT110408N-PH1
 41
1.199999999999999
100
AcDbText
  0
LWPOLYLINE
  5
1187
330
22
100
AcDbEntity
  8
CUT
100
AcDbPolyline
 90
      277
 70
     1
 43
0.0
 10
49.99999999999997
 20
-7.386564000000078
 10
49.99964896879996
 20
-7.365519509000023
 10
49.99874299999999
 20
-7.344491000000061
 10
49.997292719
 20
-7.323705674800066
 10
49.995285
 20
-7.30296700000008
 10
49.99273474419999
 20
-7.282441059600046
 10
49.98962699999998
 20
-7.261992000000077
 10
49.98597705450001
 20
-7.241724200700048
 10
49.98176899999998
 20
-7.221565000000055
 10
49.97699068419999
 20
-7.201490715500028
 10
49.97165599999999
 20
-7.181557000000054
 10
49.96573697329998
 20
-7.161660362900022
 10
49.95927599999999
 20
-7.141933000000051
 10
49.95227904969997
 20
-7.122371783100049
 10
49.944758
 20
-7.10300600000005
 10
49.93675500549997
 20
-7.083937258800062
 10
49.928235
 20
-7.065094000000044
 10
49.91923542299997
 20
-7.046570555600055
 10
49.909729
 20
-7.028302000000053
 10
49.8996571017
 20
-7.010180504900063
 10
49.88909699999999
 20
-6.992339000000072
 10
49.87803633769999
 20
-6.974744260300042
 10
49.86650999999998
 20
-6.957451000000048
 10
49.8545606378
 20
-6.940520221200074
 10
49.84215900000001
 20
-6.923918000000071
 10
49.82936677629997
 20
-6.907732024100084
 10
49.81613899999999
 20
-6.891900000000077
 10
49.80238863789998
 20
-6.876323163700078
 10
49.78822499999998
 20
-6.861121000000082
 10
49.77360628649998
 20
-6.846240536700065
 10
49.75859999999997
 20
-6.831751000000053
 10
49.74323795319998
 20
-6.817681979500036
 10
49.72750599999997
 20
-6.804028000000073
 10
49.7114851176
 20
-6.790863212200008
 10
49.69511599999998
 20
-6.778134000000079
 10
49.67829464179999
 20
-6.765763262600046
 10
49.66115099999999
 20
-6.753843000000074
 10
49.64361047729997
 20
-6.742316078900046
 10
49.625775
 20
-6.731251000000042
 10
49.60766019319999
 20
-6.72065742860002
 10
49.58927199999999
 20
-6.710546000000078
 10
49.57070691129999
 20
-6.700973079900052
 10
49.55189299999998
 20
-6.691899000000034
 10
49.53272871139998
 20
-6.683278756500044
 10
49.51334399999999
 20
-6.675166000000047
 10
49.49363325459998
 20
-6.66751162980006
 10
49.47373099999999
 20
-6.660370000000057
 10
49.45363889669997
 20
-6.653742464800075
 10
49.43337999999997
 20
-6.64764400000007
 10
49.41306497139999
 20
-6.642111328000055
 10
49.39260999999999
 20
-6.637121000000036
 10
49.37205296749997
 20
-6.63268234770004
 10
49.35138599999999
 20
-6.628787000000045
 10
49.3305217061
 20
-6.625416026400046
 10
49.30957699999999
 20
-6.622588000000064
 10
49.28840661859999
 20
-6.620285123600012
 10
49.26718399999998
 20
-6.618525000000033
 10
49.24570681849999
 20
-6.617291064700054
 10
49.22420600000001
 20
-6.616597000000069
 10
48.88212300000001
 20
-6.611049000000036
 10
48.540041
 20
-6.605584000000078
 10
48.197958
 20
-6.600201000000083
 10
47.855875
 20
-6.594900000000052
 10
47.51379199999999
 20
-6.589681000000041
 10
47.17170999999999
 20
-6.584546000000045
 10
46.82962699999999
 20
-6.57949300000007
 10
46.48754399999998
 20
-6.574524000000053
 10
46.14546199999998
 20
-6.569638000000054
 10
45.80337899999998
 20
-6.564835000000073
 10
45.46129599999997
 20
-6.56011600000005
 10
45.11921299999997
 20
-6.555481000000042
 10
44.77713099999997
 20
-6.55093000000005
 10
44.43504799999999
 20
-6.546464000000071
 10
44.09296499999999
 20
-6.54208200000005
 10
43.75088299999998
 20
-6.537784000000044
 10
43.40879999999998
 20
-6.533571000000051
 10
43.06671699999998
 20
-6.529443000000071
 10
42.724635
 20
-6.525400000000047
 10
42.382552
 20
-6.521442000000035
 10
42.040469
 20
-6.517570000000034
 10
41.698386
 20
-6.513783000000046
 10
41.35630399999999
 20
-6.510082000000068
 10
41.01422099999999
 20
-6.506467000000043
 10
40.67213799999999
 20
-6.502938000000085
 10
40.33005599999998
 20
-6.499495000000081
 10
39.98797299999998
 20
-6.496138000000087
 10
39.64588999999998
 20
-6.492868000000044
 10
39.30380699999998
 20
-6.489684000000067
 10
39.28231285139998
 20
-6.489835577900009
 10
39.26082899999997
 20
-6.490539000000069
 10
39.23961237379998
 20
-6.491785440200089
 10
39.21843599999997
 20
-6.493588000000045
 10
39.19749609729999
 20
-6.495931300700078
 10
39.17662599999997
 20
-6.498832000000049
 10
39.15596298479997
 20
-6.502271363300053
 10
39.13540099999997
 20
-6.506270000000085
 10
39.11494910950001
 20
-6.51083341580005
 10
39.09463
 20
-6.515956000000073
 10
39.07437315799999
 20
-6.521655847000033
 10
39.05427799999998
 20
-6.52790200000004
 10
39.03437727939999
 20
-6.534677407400067
 10
39.01466500000001
 20
-6.541983000000072
 10
38.99528045269997
 20
-6.54976468180007
 10
38.976115
 20
-6.55807100000004
 10
38.95730025589998
 20
-6.566849982500059
 10
38.93873499999998
 20
-6.576145000000053
 10
38.9203456386
 20
-6.585995775500066
 10
38.902232
 20
-6.596345000000042
 10
38.88439412770001
 20
-6.607185018200084
 10
38.86685499999999
 20
-6.618502000000034
 10
38.84970865069997
 20
-6.630234017400027
 10
38.83288999999999
 20
-6.642431000000044
 10
38.81651763959999
 20
-6.655010669900036
 10
38.80049999999997
 20
-6.668039000000078
 10
38.78476437969997
 20
-6.681579712600068
 10
38.76940599999997
 20
-6.69554700000009
 10
38.75439619989999
 20
-6.709959508500048
 10
38.73978199999999
 20
-6.724773000000084
 10
38.7256141316
 20
-6.739935384800048
 10
38.71186800000001
 20
-6.755481000000088
 10
38.69863581079997
 20
-6.771309943600044
 10
38.68584799999999
 20
-6.787500000000079
 10
38.67344248959998
 20
-6.804135404400028
 10
38.661498
 20
-6.821105000000045
 10
38.64996804649999
 20
-6.838466718300026
 10
38.63891199999997
 20
-6.856134000000054
 10
38.6283483803
 20
-6.874078028400049
 10
38.618281
 20
-6.892305000000078
 10
38.60877147099998
 20
-6.910709693700027
 10
38.59977599999999
 20
-6.92937100000006
 10
38.59125274329997
 20
-6.948383862400021
 10
38.58325299999999
 20
-6.96762300000006
 10
38.57572965590001
 20
-6.987190248200079
 10
38.56873599999997
 20
-7.006953000000066
 10
38.56227260569998
 20
-7.026912604000017
 10
38.55635599999999
 20
-7.047041000000035
 10
38.55101991360001
 20
-7.067235137000011
 10
38.54624399999997
 20
-7.087569000000087
 10
38.54203465239999
 20
-7.108015718000046
 10
38.53838599999998
 20
-7.128570000000081
 10
38.53527729179999
 20
-7.149334506600041
 10
38.53272799999999
 20
-7.170175000000085
 10
38.53071977829998
 20
-7.191255503300055
 10
38.52926999999997
 20
-7.212382000000047
 10
38.52836386709999
 20
-7.233779173000073
 10
38.52801299999999
 20
-7.255192000000079
 10
38.52801299999999
 20
-17.17435800000004
 10
38.5283639809
 20
-17.19588630020007
 10
38.52926999999997
 20
-17.21739900000005
 10
38.53072003119999
 20
-17.23865333130004
 10
38.53272799999999
 20
-17.25986200000005
 10
38.53527765659999
 20
-17.28084169280004
 10
38.53838599999998
 20
-17.30174600000004
 10
38.54203565639997
 20
-17.32245329080007
 10
38.54624499999997
 20
-17.34305400000005
 10
38.55102164740001
 20
-17.36355261400001
 10
38.55635699999999
 20
-17.38391300000006
 10
38.56227423659999
 20
-17.40422045470001
 10
38.56873699999997
 20
-17.42436100000009
 10
38.57573177579999
 20
-17.44431507920007
 10
38.58325499999998
 20
-17.46407600000003
 10
38.5912553469
 20
-17.4835157013
 10
38.59977799999999
 20
-17.50273200000004
 10
38.6087744484
 20
-17.52160411810001
 10
38.61828399999999
 20
-17.54022300000008
 10
38.62835225929999
 20
-17.55867253330007
 10
38.638916
 20
-17.57684300000005
 10
38.64997270719996
 20
-17.59474266760003
 10
38.66150300000001
 20
-17.61234100000007
 10
38.67344800559997
 20
-17.62955120340007
 10
38.68585399999998
 20
-17.64643200000006
 10
38.69864140029998
 20
-17.66286961950004
 10
38.711874
 20
-17.67895100000004
 10
38.72561997169999
 20
-17.69475301980003
 10
38.739789
 20
-17.71017700000004
 10
38.7544022626
 20
-17.72525484180005
 10
38.76941299999998
 20
-17.73993700000005
 10
38.78476999259999
 20
-17.75417367630001
 10
38.80050700000001
 20
-17.76798900000005
 10
38.81652292429999
 20
-17.78129073340005
 10
38.83289699999997
 20
-17.79414900000006
 10
38.84971361139998
 20
-17.80662544490002
 10
38.866862
 20
-17.81864200000007
 10
38.88439822489997
 20
-17.83024371030007
 10
38.90223799999998
 20
-17.84137300000009
 10
38.92034883049999
 20
-17.85200920790004
 10
38.938741
 20
-17.86215100000004
 10
38.9573026532
 20
-17.87173325410003
 10
38.97612000000001
 20
-17.88080300000007
 10
38.99528209709999
 20
-17.88939890550006
 10
39.01467
 20
-17.89747300000005
 10
39.03437827809998
 20
-17.90506997960006
 10
39.05428199999997
 20
-17.91213900000008
 10
39.07437286679999
 20
-17.91867567810004
 10
39.09463299999999
 20
-17.92466700000005
 10
39.11494771259999
 20
-17.93007593090004
 10
39.13540299999997
 20
-17.93492600000007
 10
39.15596109250001
 20
-17.93920794890005
 10
39.176628
 20
-17.94293000000005
 10
39.19749375320001
 20
-17.94611100130004
 10
39.218437
 20
-17.94873300000006
 10
39.2396096592
 20
-17.95081320540004
 10
39.26082999999997
 20
-17.95233500000006
 10
39.28230976239999
 20
-17.95331314900005
 10
39.30380699999998
 20
-17.95373600000005
 10
40.33005599999998
 20
-17.95728500000007
 10
41.01422099999999
 20
-17.95981000000006
 10
41.698386
 20
-17.96246100000007
 10
42.382552
 20
-17.96524000000005
 10
43.06671699999998
 20
-17.96814600000004
 10
43.75088299999998
 20
-17.97117900000006
 10
44.43504799999999
 20
-17.97433800000004
 10
45.11921299999997
 20
-17.97762500000004
 10
46.14546199999998
 20
-17.98279100000008
 10
46.82962699999999
 20
-17.98639400000007
 10
47.51379199999999
 20
-17.99012400000004
 10
48.197958
 20
-17.99397900000008
 10
48.88212300000001
 20
-17.99796200000008
 10
49.22420600000001
 20
-18.00000000000006
 10
49.24570111199997
 20
-17.99977868650006
 10
49.26718399999998
 20
-17.99900300000007
 10
49.2884021527
 20
-17.99768285270005
 10
49.30957799999998
 20
-17.99580500000007
 10
49.33051853779997
 20
-17.99338546290005
 10
49.35138699999999
 20
-17.99040700000006
 10
49.3720512088
 20
-17.98688773560002
 10
49.39261199999998
 20
-17.98280800000003
 10
49.41306510269999
 20
-17.97816187230006
 10
49.43338299999999
 20
-17.97295600000007
 10
49.45364110099998
 20
-17.96717046160006
 10
49.47373500000001
 20
-17.96083800000008
 10
49.49363682449998
 20
-17.95397441790004
 10
49.51334799999997
 20
-17.94658100000004
 10
49.53273417209996
 20
-17.93871111260006
 10
49.55189899999999
 20
-17.93031700000006
 10
49.570714256
 20
-17.92144912440005
 10
49.58927800000001
 20
-17.91206600000004
 10
49.60766884569998
 20
-17.90212577710002
 10
49.62578199999999
 20
-17.89168800000004
 10
49.64362019559999
 20
-17.88075790310006
 10
49.66115799999997
 20
-17.86935200000005
 10
49.67830547039998
 20
-17.85753114480008
 10
49.69512399999999
 20
-17.84524700000008
 10
49.71149704019999
 20
-17.83258018940006
 10
49.72751399999999
 20
-17.81946600000003
 10
49.74324957339999
 20
-17.80583896870007
 10
49.75860699999998
 20
-17.79178700000005
 10
49.77361703759999
 20
-17.77728958850002
 10
49.78823099999999
 20
-17.76239300000009
 10
49.80239907239999
 20
-17.74714878960003
 10
49.81614499999998
 20
-17.73152300000004
 10
49.82937734569998
 20
-17.71561480460008
 10
49.84216499999999
 20
-17.69934700000004
 10
49.8545704494
 20
-17.68263480200005
 10
49.86651499999999
 20
-17.66559000000006
 10
49.87804496729999
 20
-17.64815464650002
 10
49.88910099999998
 20
-17.63041500000008
 10
49.89966439869999
 20
-17.61239981330004
 10
49.90973199999999
 20
-17.59410300000007
 10
49.91924192659999
 20
-17.57563178700002
 10
49.928238
 20
-17.55690500000008
 10
49.9367606937
 20
-17.53782824630002
 10
49.94476
 20
-17.51852600000006
 10
49.95228300419999
 20
-17.49889831940004
 10
49.95927699999999
 20
-17.47907600000007
 10
49.96574027349999
 20
-17.45905962330005
 10
49.971657
 20
-17.43887500000005
 10
49.97699278579998
 20
-17.41862811290002
 10
49.98176899999998
 20
-17.39824200000004
 10
49.9859787952
 20
-17.37774614030007
 10
49.98962800000001
 20
-17.35714300000006
 10
49.9927361952
 20
-17.33633341330005
 10
49.995285
 20
-17.31544800000006
 10
49.99729303339998
 20
-17.29432442460006
 10
49.99874299999999
 20
-17.27315500000009
 10
49.99964920489998
 20
-17.25171883470006
 10
49.99999999999997
 20
-17.23026700000008
  0
LINE
  5
21D1
330
22
100
AcDbEntity
  8
3
100
AcDbLine
 10
21.0
 20
3.0
 30
0.0
 11
0.0
 21
3.0
 31
0.0
  0
LINE
  5
21D5
330
22
100
AcDbEntity
  8
3
100
AcDbLine
 10
21.0
 20
-3.000000000000056
 30
0.0
 11
0.0
 21
-3.0
 31
0.0
  0
LINE
  5
21DC
330
22
100
AcDbEntity
  8
3
100
AcDbLine
 10
22.8025818571
 20
0.0
 30
0.0
 11
21.0
 21
3.0
 31
0.0
  0
LINE
  5
21DD
330
22
100
AcDbEntity
  8
3
100
AcDbLine
 10
21.0
 20
-3.000000000000056
 30
0.0
 11
21.0
 21
3.0
 31
0.0
  0
LINE
  5
21DE
330
22
100
AcDbEntity
  8
3
100
AcDbLine
 10
22.8025818571
 20
0.0
 30
0.0
 11
21.0
 21
-3.000000000000056
 31
0.0
  0
LINE
  5
21EF
330
22
100
AcDbEntity
  8
SK3
100
AcDbLine
 10
-22.5
 20
-3.0
 30
0.0
 11
-22.5
 21
3.0
 31
0.0
  0
LWPOLYLINE
  5
3C48
330
22
100
AcDbEntity
  8
1
100
AcDbPolyline
 90
        7
 70
     0
 43
0.0
 10
49.84740689370003
 20
-17.18847703849997
 10
49.85302581410002
 20
-17.17983242059995
 10
49.85842172280001
 20
-17.17086326549997
 10
49.863595994
 20
-17.16158112249997
 10
49.8685445053
 20
-17.15195134339996
 10
49.87326313450001
 20
-17.14193928010002
 10
49.8777532556
 20
-17.13155648199995
  0
LWPOLYLINE
  5
3C51
330
22
100
AcDbEntity
  8
1
100
AcDbPolyline
 90
       19
 70
     0
 43
0.0
 10
49.84740689370003
 20
-17.18847703849997
 10
49.83250625090002
 20
-17.2107383572
 10
49.81585178580002
 20
-17.23549826290002
 10
49.79719323130002
 20
-17.26259717699997
 10
49.7764953738
 20
-17.29143780830003
 10
49.75383841540002
 20
-17.32150783629998
 10
49.72923544620002
 20
-17.35234290269994
 10
49.70280024020002
 20
-17.38349943529999
 10
49.67476104100001
 20
-17.41448301190002
 10
49.64551622470003
 20
-17.44473950209999
 10
49.61512231969999
 20
-17.47428583570001
 10
49.58358736460002
 20
-17.50304199269993
 10
49.55139427390003
 20
-17.53069440429999
 10
49.51893931340004
 20
-17.55707268019995
 10
49.48672066780003
 20
-17.58200649839995
 10
49.45523340290001
 20
-17.60546609389996
 10
49.42501040610003
 20
-17.62734570199995
 10
49.39668490640002
 20
-17.64765182739995
 10
49.37041927090001
 20
-17.66662941639998
  0
LWPOLYLINE
  5
3C66
330
22
100
AcDbEntity
  8
1
100
AcDbPolyline
 90
        7
 70
     0
 43
0.0
 10
49.30463826270003
 20
-17.70607096339995
 10
49.31632554890001
 20
-17.70023605400001
 10
49.32771157190001
 20
-17.69410374429998
 10
49.33878531670001
 20
-17.68767222709999
 10
49.34957982820003
 20
-17.68094692389996
 10
49.36012815129998
 20
-17.673933256
 10
49.37041927090001
 20
-17.66662941639998
  0
LWPOLYLINE
  5
3C6F
330
22
100
AcDbEntity
  8
1
100
AcDbPolyline
 90
       11
 70
     0
 43
0.0
 10
49.0869372981
 20
-16.71906027689999
 10
49.12022256250003
 20
-16.70310422400001
 10
49.15061227710001
 20
-16.68408031870001
 10
49.17828494440001
 20
-16.66185087169998
 10
49.2027050563
 20
-16.6368289504
 10
49.22336339110001
 20
-16.60934106440004
 10
49.2403595925
 20
-16.57950919809997
 10
49.25362656550001
 20
-16.54756992260002
 10
49.26315530380001
 20
-16.51350598699997
 10
49.26891051460001
 20
-16.4773866978
 10
49.27090396229999
 20
-16.43918895289999
  0
LWPOLYLINE
  5
3C7C
330
22
100
AcDbEntity
  8
1
100
AcDbPolyline
 90
        7
 70
     0
 43
0.0
 10
48.7404888172
 20
16.70651846850001
 10
48.74012408520002
 20
16.70738928980006
 10
48.739767954
 20
16.70808994959998
 10
48.73951866850001
 20
16.70856396279998
 10
48.73908149410002
 20
16.70898078520002
 10
48.73816169600002
 20
16.70950987260005
 10
48.7368575191
 20
16.71009473970002
  0
LWPOLYLINE
  5
3C85
330
22
100
AcDbEntity
  8
1
100
AcDbPolyline
 90
       15
 70
     0
 43
0.0
 10
50.0
 20
-7.211194823499965
 10
49.99495427780002
 20
-7.122601668799973
 10
49.98046645470001
 20
-7.036521823200018
 10
49.95634051570002
 20
-6.952473845300005
 10
49.92316450560003
 20
-6.871902059099966
 10
49.88124480450003
 20
-6.795828854199953
 10
49.83123039150001
 20
-6.7250385918
 10
49.77361118640001
 20
-6.660441230099991
 10
49.70917074760001
 20
-6.602682367699969
 10
49.63855348480001
 20
-6.552547347799986
 10
49.56266676340002
 20
-6.51052689529996
 10
49.48229294740002
 20
-6.477271133399938
 10
49.39845145120003
 20
-6.453087209399996
 10
49.31258250280001
 20
-6.438564460000009
 10
49.22420602600002
 20
-6.433506439700011
  0
LWPOLYLINE
  5
3C96
330
22
100
AcDbEntity
  8
1
100
AcDbPolyline
 90
        7
 70
     0
 43
0.0
 10
49.8777532556
 20
-17.13155648199995
 10
49.87934131290001
 20
-17.16202470620004
 10
49.88099463410003
 20
-17.19222686249998
 10
49.8827129604
 20
-17.22209685519993
 10
49.8844970682
 20
-17.25183297080002
 10
49.88634773390001
 20
-17.28163349589994
 10
49.88826469870002
 20
-17.31143233489996
  0
LWPOLYLINE
  5
3C9F
330
22
100
AcDbEntity
  8
1
100
AcDbPolyline
 90
       11
 70
     0
 43
0.0
 10
49.27090396229999
 20
-7.927823926500025
 10
49.26903983260001
 20
-7.890446465800039
 10
49.26344390370002
 20
-7.854839876399978
 10
49.25414817379999
 20
-7.820961855400014
 10
49.24105664810003
 20
-7.788939310899934
 10
49.22400616450002
 20
-7.758723166500033
 10
49.20323022240001
 20
-7.730799072900026
 10
49.17877698400002
 20
-7.705588373300031
 10
49.15103929880001
 20
-7.683234914400031
 10
49.12047718299999
 20
-7.664058527699978
 10
49.0869372981
 20
-7.647952602600014
  0
LWPOLYLINE
  5
3CAC
330
22
100
AcDbEntity
  8
1
100
AcDbPolyline
 90
        9
 70
     0
 43
0.0
 10
48.73550095160002
 20
7.711865975699993
 10
48.74100624600004
 20
7.59671746570001
 10
48.74548260610004
 20
7.472863206699969
 10
48.7488683578
 20
7.342298166500029
 10
48.7511014314
 20
7.207035342499978
 10
48.75213234440002
 20
7.06911284510005
 10
48.75196058250003
 20
6.930677122799977
 10
48.75059815540002
 20
6.793905066700006
 10
48.74805711690004
 20
6.660954761200059
  0
LWPOLYLINE
  5
3CB7
330
22
100
AcDbEntity
  8
1
100
AcDbPolyline
 90
       21
 70
     0
 43
0.0
 10
49.81183836690002
 20
7.309517698299998
 10
49.81274562670001
 20
7.256652834500073
 10
49.80930900330003
 20
7.204191320900065
 10
49.8015061156
 20
7.151934524000012
 10
49.78940410700002
 20
7.100478344199984
 10
49.77301824130001
 20
7.050236454000014
 10
49.75248177760002
 20
7.001556903899995
 10
49.72786641280004
 20
6.954827675599972
 10
49.69937209710002
 20
6.910342648499977
 10
49.6671101508
 20
6.868413249100058
 10
49.63141816080002
 20
6.829374817300049
 10
49.59259250400001
 20
6.793612420999977
 10
49.55086812970001
 20
6.76128830250002
 10
49.506417714
 20
6.732618501100034
 10
49.4597244528
 20
6.707826693599997
 10
49.41124741740003
 20
6.687209455900017
 10
49.36123165650002
 20
6.670764129600001
 10
49.30992007100002
 20
6.658571378899978
 10
49.25777817470001
 20
6.650677810700017
 10
49.20542075840001
 20
6.647166106399993
 10
49.15264289190003
 20
6.648008705599977
  0
LWPOLYLINE
  5
3CCE
330
22
100
AcDbEntity
  8
1
100
AcDbPolyline
 90
       39
 70
     0
 43
0.0
 10
50.0
 20
-7.211194736500033
 10
49.99984636920001
 20
-7.200990732399986
 10
49.99941470350001
 20
-7.19122889909994
 10
49.99868520580003
 20
-7.181843082600039
 10
49.9977172673
 20
-7.173031744899958
 10
49.99655543210002
 20
-7.165025276200026
 10
49.99522444390001
 20
-7.157661737299974
 10
49.99376258090001
 20
-7.15088443299993
 10
49.99217378370002
 20
-7.14460802169998
 10
49.99047434700003
 20
-7.138741090199971
 10
49.98866548649999
 20
-7.133245157299938
 10
49.98675399400003
 20
-7.128059311200047
 10
49.9847394356
 20
-7.123159431299939
 10
49.98262437900002
 20
-7.118506790100013
 10
49.98040661080001
 20
-7.114084296299949
 10
49.97808576540001
 20
-7.109865621500034
 10
49.97565886710001
 20
-7.105839749599965
 10
49.97312363600002
 20
-7.101988794799979
 10
49.97047761950003
 20
-7.09830703909995
 10
49.96771874940003
 20
-7.094784181199997
 10
49.96484359240003
 20
-7.091416086100025
 10
49.96184935230002
 20
-7.088195920399982
 10
49.95873205010003
 20
-7.085121479000008
 10
49.95548837210001
 20
-7.082188552499985
 10
49.95211352730001
 20
-7.079396319199986
 10
49.9486032968
 20
-7.076742281999941
 10
49.9449526505
 20
-7.0742272576
 10
49.94115679180004
 20
-7.071850480299985
 10
49.93721080120002
 20
-7.069614200700016
 10
49.93310997809999
 20
-7.06751939190002
 10
49.92884887020003
 20
-7.065569121900011
 10
49.92442260020002
 20
-7.063765514400017
 10
49.91982474260002
 20
-7.062112374700006
 10
49.91504970420002
 20
-7.060612633499999
 10
49.9100901114
 20
-7.05927103739998
 10
49.90493921850003
 20
-7.058091341999954
 10
49.89958954830001
 20
-7.05707945040001
 10
49.89403015940002
 20
-7.056243412399965
 10
49.88826469870002
 20
-7.055580544499946
  0
LWPOLYLINE
  5
3CF7
330
22
100
AcDbEntity
  8
1
100
AcDbPolyline
 90
       13
 70
     0
 43
0.0
 10
49.79842925470001
 20
7.715013297600023
 10
49.79853416750001
 20
7.681320455900049
 10
49.79884533700005
 20
7.647641449100035
 10
49.79936686600002
 20
7.613984980900056
 10
49.8000864457
 20
7.580324940600007
 10
49.8009957447
 20
7.546642113100006
 10
49.80208693320003
 20
7.512924516400005
 10
49.80335502850002
 20
7.479153519199996
 10
49.80478315780004
 20
7.445329854600004
 10
49.8063561488
 20
7.411443706200032
 10
49.80806391800001
 20
7.377508091399988
 10
49.8098894313
 20
7.343533973600017
 10
49.81183836690002
 20
7.309517698299998
  0
LINE
  5
3D06
330
22
100
AcDbEntity
  8
1
100
AcDbLine
 10
50.0
 20
-17.15581805599998
 30
0.0
 11
50.0
 21
-7.211194823499965
 31
0.0
  0
LINE
  5
3D07
330
22
100
AcDbEntity
  8
1
100
AcDbLine
 10
50.0
 20
17.1811289922
 30
0.0
 11
50.0
 21
7.238020374000029
 31
0.0
  0
LINE
  5
3D08
330
22
100
AcDbEntity
  8
1
100
AcDbLine
 10
49.88826469870002
 20
-17.31143233489996
 30
0.0
 11
49.88826469870002
 21
-7.055580544499946
 31
0.0
  0
LINE
  5
3D09
330
22
100
AcDbEntity
  8
1
100
AcDbLine
 10
49.8777532556
 20
-17.13155648199995
 30
0.0
 11
49.8777532556
 21
-7.235456397399957
 31
0.0
  0
LINE
  5
3D0A
330
22
100
AcDbEntity
  8
1
100
AcDbLine
 10
49.79842925470001
 20
16.70364407830004
 30
0.0
 11
49.79842925470001
 21
7.715013297600023
 31
0.0
  0
LINE
  5
3D0B
330
22
100
AcDbEntity
  8
1
100
AcDbLine
 10
49.27090396229999
 20
-16.43918895289999
 30
0.0
 11
49.27090396229999
 21
-7.927823926500025
 31
0.0
  0
LINE
  5
3D0C
330
22
100
AcDbEntity
  8
1
100
AcDbLine
 10
48.74008754240003
 20
7.715511138599993
 30
0.0
 11
48.7404888172
 21
16.70651846850001
 31
0.0
  0
LINE
  5
3D0D
330
22
100
AcDbEntity
  8
1
100
AcDbLine
 10
48.6027140022
 20
-16.19715971459999
 30
0.0
 11
48.6027140022
 21
-16.18350643970001
 31
0.0
  0
LINE
  5
3D0E
330
22
100
AcDbEntity
  8
1
100
AcDbLine
 10
48.6027140022
 20
6.458745200500061
 30
0.0
 11
48.6027140022
 21
-16.18350643970001
 31
0.0
  0
LWPOLYLINE
  5
3D0F
330
22
100
AcDbEntity
  8
1
100
AcDbPolyline
 90
       53
 70
     0
 43
0.0
 10
48.6027140022
 20
-9.817646092699988
 10
48.60190529260001
 20
-9.834858135499928
 10
48.60012614950003
 20
-9.845309300100041
 10
48.59724641400001
 20
-9.848356067499992
 10
48.59365656250003
 20
-9.845928994699988
 10
48.58971935710002
 20
-9.839609644099937
 10
48.5853877824
 20
-9.82980147989997
 10
48.58074219479999
 20
-9.817447451599946
 10
48.57576324090001
 20
-9.802510665599982
 10
48.57043195440002
 20
-9.785162142899991
 10
48.56482753
 20
-9.76572108909994
 10
48.5590155415
 20
-9.744510378299992
 10
48.55301788540001
 20
-9.721690026299938
 10
48.54689798160001
 20
-9.697596912399944
 10
48.54059683450003
 20
-9.672023319599986
 10
48.53408051470001
 20
-9.644893926699978
 10
48.52733724310002
 20
-9.616148425699975
 10
48.52034203459999
 20
-9.585697244299979
 10
48.51310057720002
 20
-9.55355285500002
 10
48.5056112846
 20
-9.519707027200013
 10
48.4978709943
 20
-9.484132298499957
 10
48.48987598940002
 20
-9.446803809899961
 10
48.48162634650001
 20
-9.407705520999968
 10
48.47312155930001
 20
-9.366822593999984
 10
48.46435965969999
 20
-9.324126561399964
 10
48.45534115480001
 20
-9.279604804699999
 10
48.44605811299999
 20
-9.233194939199961
 10
48.4365042713
 20
-9.18484717580003
 10
48.42667513130002
 20
-9.134511110099992
 10
48.4165646431
 20
-9.082132730099999
 10
48.40617119730001
 20
-9.027673070100036
 10
48.39549203300001
 20
-8.971090917699939
 10
48.38452455470002
 20
-8.912339001599946
 10
48.37326594810003
 20
-8.851372394599991
 10
48.36171410820004
 20
-8.788142851599957
 10
48.34986652740003
 20
-8.722603549700011
 10
48.33772159970002
 20
-8.654705294599978
 10
48.32527721069999
 20
-8.584399788700011
 10
48.31253237750002
 20
-8.511637518499981
 10
48.29948548500002
 20
-8.436369228300009
 10
48.28613631510001
 20
-8.358545847399966
 10
48.27248387630001
 20
-8.278117794699994
 10
48.25852887320002
 20
-8.195037345800017
 10
48.24427108000003
 20
-8.109255357999927
 10
48.22971229680002
 20
-8.02072650529999
 10
48.21485322130001
 20
-7.92940298809998
 10
48.19969693450002
 20
-7.835243084799969
 10
48.1842452304
 20
-7.738201391100005
 10
48.16850266770001
 20
-7.638241156099979
 10
48.15247231330002
 20
-7.535320520199945
 10
48.13616043780001
 20
-7.429409406200022
 10
48.11957524570002
 20
-7.32045827989998
 10
48.1027140022
 20
-7.208483652699953
  0
LWPOLYLINE
  5
3D46
330
22
100
AcDbEntity
  8
1
100
AcDbPolyline
 90
       15
 70
     0
 43
0.0
 10
50.0
 20
7.238020374000029
 10
49.99495427780002
 20
7.149434554700007
 10
49.98046645470001
 20
7.063350138700059
 10
49.95634051570002
 20
6.97928551870001
 10
49.92316450560003
 20
6.898685516200032
 10
49.88124480450003
 20
6.822572739199983
 10
49.83123039150001
 20
6.75173222129996
 10
49.77361118640001
 20
6.6870743801
 10
49.70917074760001
 20
6.629245672100012
 10
49.63855348480001
 20
6.579032107399996
 10
49.56266676340002
 20
6.536925443300049
 10
49.48229294740002
 20
6.503576658899987
 10
49.39845145120003
 20
6.479294098799982
 10
49.31258250280001
 20
6.464668767600016
 10
49.22420602600002
 20
6.459503663799978
  0
LWPOLYLINE
  5
3D57
330
22
100
AcDbEntity
  8
1
100
AcDbPolyline
 90
       13
 70
     0
 43
0.0
 10
49.81183836680003
 20
17.10917240340006
 10
49.8098875298
 20
17.07512056730002
 10
49.80805920630001
 20
17.04108260160007
 10
49.80634720879999
 20
17.00704662959998
 10
49.80477009960001
 20
16.97304828160003
 10
49.80333923030002
 20
16.9391155614
 10
49.8020700454
 20
16.90525947190002
 10
49.8009805421
 20
16.87150840090004
 10
49.80007441440003
 20
16.83783819780001
 10
49.79935891960002
 20
16.80424420080004
 10
49.79884136489999
 20
16.7706963315
 10
49.79853269240002
 20
16.73715900320002
 10
49.79842925470001
 20
16.70364407830004
  0
LWPOLYLINE
  5
3D66
330
22
100
AcDbEntity
  8
1
100
AcDbPolyline
 90
        7
 70
     0
 43
0.0
 10
49.88826469870002
 20
-7.055580544499946
 10
49.88634747370003
 20
-7.085383546699972
 10
49.88449663070003
 20
-7.115187068900013
 10
49.88271240860001
 20
-7.14492548390001
 10
49.88099409060001
 20
-7.174795673799962
 10
49.87934096000003
 20
-7.204994520800028
 10
49.8777532556
 20
-7.235456397399957
  0
LINE
  5
3D6F
330
22
100
AcDbEntity
  8
1
100
AcDbLine
 10
49.27090396229999
 20
-7.927823926500025
 30
0.0
 11
49.84740689370003
 21
-7.178535840999984
 31
0.0
  0
LINE
  5
3D70
330
22
100
AcDbEntity
  8
1
100
AcDbLine
 10
48.79391633940002
 20
-7.449671548499964
 30
0.0
 11
49.37041927090001
 21
-6.700383462999923
 31
0.0
  0
LINE
  5
3D71
330
22
100
AcDbEntity
  8
1
100
AcDbLine
 10
49.0869372981
 20
-7.647952602600014
 30
0.0
 11
48.6027140022
 21
-8.169853164899961
 31
0.0
  0
LINE
  5
3D72
330
22
100
AcDbEntity
  8
1
100
AcDbLine
 10
40.03792638610002
 20
-16.71906027689999
 30
0.0
 11
40.59496156780002
 21
-16.19715971459999
 31
0.0
  0
LINE
  5
3D73
330
22
100
AcDbEntity
  8
1
100
AcDbLine
 10
40.30328457050001
 20
-16.91734133089994
 30
0.0
 11
39.38486178710002
 21
-17.66662941639998
 31
0.0
  0
LINE
  5
3D74
330
22
100
AcDbEntity
  8
1
100
AcDbLine
 10
39.82629694760002
 20
-16.43918895289999
 30
0.0
 11
38.90787416430004
 21
-17.18847703849997
 31
0.0
  0
LWPOLYLINE
  5
3D75
330
22
100
AcDbEntity
  8
1
100
AcDbPolyline
 90
        9
 70
     0
 43
0.0
 10
48.74040664690003
 20
16.70640543460001
 10
48.85952684910001
 20
16.71236681739998
 10
48.98644177300003
 20
16.7032988263
 10
49.1192558692
 20
16.69839501429999
 10
49.25588216430003
 20
16.70221843960002
 10
49.3942638519
 20
16.70212876490001
 10
49.53225439690005
 20
16.70234024550001
 10
49.6676908988
 20
16.70284722960002
 10
49.79842925470001
 20
16.70364407770006
  0
LWPOLYLINE
  5
3D80
330
22
100
AcDbEntity
  8
1
100
AcDbPolyline
 90
       21
 70
     0
 43
0.0
 10
49.15264289480001
 20
17.76907244650004
 10
49.20538812030002
 20
17.77004615300001
 10
49.25772562770004
 20
17.76666553460001
 10
49.30985356970001
 20
17.75890840080001
 10
49.36117748840001
 20
17.74684132330003
 10
49.41128467510004
 20
17.73047909709999
 10
49.45982803610002
 20
17.70995486279997
 10
49.5064205635
 20
17.68534000900001
 10
49.5507692923
 20
17.65683458640001
 10
49.592563643
 20
17.62454979080002
 10
49.63146945260001
 20
17.58882357419998
 10
49.66710289360003
 20
17.54995252370003
 10
49.69930238030002
 20
17.50817192900001
 10
49.72785257700002
 20
17.4636545989
 10
49.75253090640001
 20
17.41688456360003
 10
49.7730420286
 20
17.36832158520002
 10
49.78938889450001
 20
17.31821127669997
 10
49.80149131979999
 20
17.26679699730005
 10
49.80930337110004
 20
17.21454527040004
 10
49.81274330400001
 20
17.16207219450007
 10
49.81183836680003
 20
17.10917240340006
  0
LWPOLYLINE
  5
3D97
330
22
100
AcDbEntity
  8
1
100
AcDbPolyline
 90
       13
 70
     0
 43
0.0
 10
48.74805711750003
 20
17.75513888489996
 10
48.78167313280002
 20
17.75528506260002
 10
48.81527559580002
 20
17.75563795250002
 10
48.84885582790002
 20
17.75620165639998
 10
48.88243986510002
 20
17.75696386910005
 10
48.91604686840003
 20
17.75791626340003
 10
48.949688783
 20
17.75905100620002
 10
48.98338419150002
 20
17.76036312590003
 10
49.01713234200002
 20
17.76183571050001
 10
49.05094301000002
 20
17.7634535647
 10
49.0848031955
 20
17.76520656600002
 10
49.11870193940001
 20
17.76707762809997
 10
49.15264289480001
 20
17.76907244650004
  0
LINE
  5
3DA6
330
22
100
AcDbEntity
  8
1
100
AcDbLine
 10
39.30380739600003
 20
17.94564539150002
 30
0.0
 11
49.22420602600002
 21
17.95775215809999
 31
0.0
  0
LINE
  5
3DA7
330
22
100
AcDbEntity
  8
1
100
AcDbLine
 10
39.7799563044
 20
17.74419429410005
 30
0.0
 11
48.74805711750003
 21
17.75513888489996
 31
0.0
  0
LINE
  5
3DA8
330
22
100
AcDbEntity
  8
1
100
AcDbLine
 10
48.7368575191
 20
16.71009473970002
 30
0.0
 11
39.76638597470003
 21
16.69954940360003
 31
0.0
  0
LWPOLYLINE
  5
3DA9
330
22
100
AcDbEntity
  8
1
100
AcDbPolyline
 90
        5
 70
     0
 43
0.0
 10
34.99537634250004
 20
17.19999974809997
 10
32.40530914880003
 20
17.19904595830002
 10
28.65475387180004
 20
17.1942847418
 10
24.90455100170001
 20
17.18552481090006
 10
21.15470053840002
 20
17.17276616559997
  0
LINE
  5
3DB0
330
22
100
AcDbEntity
  8
1
100
AcDbLine
 10
36.15621683260002
 20
17.1998084603
 30
0.0
 11
34.99537634250004
 21
17.19999974809997
 31
0.0
  0
LWPOLYLINE
  5
3DB1
330
22
100
AcDbEntity
  8
1
100
AcDbPolyline
 90
        9
 70
     0
 43
0.0
 10
39.76249444460001
 20
16.69544887010005
 10
39.65443048270003
 20
16.70113299940004
 10
39.53642262740002
 20
16.69176610670001
 10
39.41038281560003
 20
16.68654639160002
 10
39.27821988660003
 20
16.69004178889997
 10
39.14190002500001
 20
16.68961687090007
 10
39.0035659564
 20
16.68949112730001
 10
38.86540460020001
 20
16.68966421510004
 10
38.7295841673
 20
16.69013575720004
  0
LWPOLYLINE
  5
3DBC
330
22
100
AcDbEntity
  8
1
100
AcDbPolyline
 90
       15
 70
     0
 43
0.0
 10
49.22420602600002
 20
17.95775215809999
 10
49.3125833722
 20
17.95280274020007
 10
49.39845353169999
 20
17.93838654640001
 10
49.48229677290001
 20
17.91430769930002
 10
49.56267229030004
 20
17.88115383160004
 10
49.6385601847
 20
17.83923077989999
 10
49.70917800559999
 20
17.7891880542
 10
49.7736180114
 20
17.73151558800003
 10
49.83123617610002
 20
17.66699794739998
 10
49.88124906960002
 20
17.59628006140002
 10
49.92316716240003
 20
17.52027077500003
 10
49.95634191490001
 20
17.43975345169997
 10
49.98046692810001
 20
17.3557494657
 10
49.99495430080003
 20
17.26970162450004
 10
50.0
 20
17.1811289922
  0
LWPOLYLINE
  5
3DCD
330
22
100
AcDbEntity
  8
1
100
AcDbPolyline
 90
       13
 70
     0
 43
0.0
 10
39.37537053010002
 20
17.75714034970002
 10
39.4093422167
 20
17.75522650559998
 10
39.44330021370002
 20
17.75343543860003
 10
39.4772563633
 20
17.75176096180002
 10
39.51117513900002
 20
17.75022163650004
 10
39.54502861490002
 20
17.748828806
 10
39.57880583200003
 20
17.74759793710001
 10
39.61247848920002
 20
17.74654703350001
 10
39.64607068650003
 20
17.74567982709999
 10
39.67958708380002
 20
17.74500359749999
 10
39.71305769990002
 20
17.74452570530002
 10
39.74651805330001
 20
17.74425716090002
 10
39.7799563044
 20
17.74419429410005
  0
LINE
  5
3DDC
330
22
100
AcDbEntity
  8
1
100
AcDbLine
 10
38.52801342200002
 20
16.33438546989998
 30
0.0
 11
38.38262043510002
 21
16.36519296989996
 31
0.0
  0
LINE
  5
3DDD
330
22
100
AcDbEntity
  8
1
100
AcDbLine
 10
38.38262043510002
 20
16.36519296989996
 30
0.0
 11
38.10280431600001
 21
16.4300124403
 31
0.0
  0
LWPOLYLINE
  5
3DE0
330
22
100
AcDbEntity
  8
1
100
AcDbPolyline
 90
       10
 70
     0
 43
0.0
 10
36.15963635780003
 20
17.1999997469
 10
36.20521188430001
 20
17.18859955940002
 10
36.29895473980003
 20
17.15037134270005
 10
36.43982846070003
 20
17.08790234120005
 10
36.62068386230001
 20
17.00569040230005
 10
36.83598112250002
 20
16.90964024930002
 10
37.08327521520002
 20
16.80409943169997
 10
37.35935730010002
 20
16.69358048139997
 10
37.66097899840003
 20
16.58253321370006
 10
37.98561871219999
 20
16.47514314090006
  0
LWPOLYLINE
  5
3E47
330
22
100
AcDbEntity
  8
1
100
AcDbPolyline
 90
        5
 70
     0
 43
0.0
 10
38.10280431600001
 20
16.4300124403
 10
37.80070682840003
 20
16.5118230658
 10
37.23566835900002
 20
16.6998023461
 10
36.6875050271
 20
16.92913081099999
 10
36.15621683260002
 20
17.1998084603
  0
LINE
  5
3E4E
330
22
100
AcDbEntity
  8
1
100
AcDbLine
 10
37.98561871219999
 20
16.47514314090006
 30
0.0
 11
38.2858175792
 21
16.38761737450005
 31
0.0
  0
LWPOLYLINE
  5
3E4F
330
22
100
AcDbEntity
  8
1
100
AcDbPolyline
 90
       11
 70
     0
 43
0.0
 10
39.76273811520002
 20
16.69632287069999
 10
39.67790569440001
 20
16.72921913179999
 10
39.58543524330003
 20
16.76491833040001
 10
39.4865152877
 20
16.80296338430003
 10
39.38230916700002
 20
16.84290688210001
 10
39.273957881
 20
16.88430984180001
 10
39.16273719230003
 20
16.92668298529997
 10
39.05004533140001
 20
16.96949538140001
 10
38.93717288660003
 20
17.0122582381
 10
38.82542871300001
 20
17.05447562419999
 10
38.71617505520004
 20
17.09563135420001
  0
LWPOLYLINE
  5
3F50
330
22
100
AcDbEntity
  8
1
100
AcDbPolyline
 90
       11
 70
     0
 43
0.0
 10
48.73640234230001
 20
7.71194938870002
 10
48.76918580810002
 20
7.62070870680003
 10
48.81766637870004
 20
7.522819536900044
 10
48.86410828470002
 20
7.419209657300029
 10
48.90344295300002
 20
7.311596623500008
 10
48.94710601090003
 20
7.200822759100049
 10
48.99058877150003
 20
7.088327102899995
 10
49.03336332500003
 20
6.975506919100041
 10
49.07495579930003
 20
6.863639761099989
 10
49.11488328149999
 20
6.754023379000045
 10
49.15264289190003
 20
6.648008705599977
  0
LWPOLYLINE
  5
3F5D
330
22
100
AcDbEntity
  8
1
100
AcDbPolyline
 90
       41
 70
     0
 43
0.0
 10
47.47559585860003
 20
12.20964302679999
 10
47.46555003730003
 20
12.46394774879997
 10
47.43590127959999
 20
12.71511663989997
 10
47.38646782490002
 20
12.9639082987
 10
47.31779495500001
 20
13.20804692920001
 10
47.23012999429999
 20
13.44597735090002
 10
47.12418505440001
 20
13.676296315
 10
47.00044719000001
 20
13.89750686300004
 10
46.85983889610002
 20
14.10833494360003
 10
46.70307496489999
 20
14.30737868
 10
46.53126556000001
 20
14.4935245899
 10
46.34533561020004
 20
14.66550039739997
 10
46.14655561190002
 20
14.82238060660006
 10
45.93603785590002
 20
14.96305386989996
 10
45.71518188750002
 20
15.08680546700003
 10
45.48525997130002
 20
15.19271234370001
 10
45.24776623970001
 20
15.2802881536
 10
45.00410160379999
 20
15.34882086470003
 10
44.7558179929
 20
15.39806448040002
 10
44.50441046940002
 20
15.42753552330004
 10
44.25145054570001
 20
15.43723440349998
 10
43.99849062210001
 20
15.42691810320002
 10
43.74708309850001
 20
15.39683342929999
 10
43.49879948760002
 20
15.34698380739996
 10
43.25513485170001
 20
15.27785636390001
 10
43.01764112010002
 20
15.18970088349999
 10
42.78771920389999
 20
15.0832328175
 10
42.56686323550002
 20
14.95894215910005
 10
42.35634547960001
 20
14.81775506770003
 10
42.15756548130002
 20
14.66038967980006
 10
41.9716355315
 20
14.48796005779996
 10
41.79982612650002
 20
14.30139479849998
 10
41.64306219530002
 20
14.10196843550005
 10
41.50245390140002
 20
13.8907971607
 10
41.37871603700003
 20
13.66928459550001
 10
41.27277109710002
 20
13.43870704290003
 10
41.1851061364
 20
13.20056264999999
 10
41.11643326649999
 20
12.95625640410003
 10
41.06699981180002
 20
12.70734408890001
 10
41.03735105410001
 20
12.45610283169998
 10
41.0273052329
 20
12.2017735901
  0
LINE
  5
4050
330
22
100
AcDbEntity
  8
1
100
AcDbLine
 10
48.1027140022
 20
-16.18350643970001
 30
0.0
 11
48.1027140022
 21
-7.208483652699953
 31
0.0
  0
LWPOLYLINE
  5
414C
330
22
100
AcDbEntity
  8
1
100
AcDbPolyline
 90
        9
 70
     0
 43
0.0
 10
48.73640234230001
 20
16.71041401910003
 10
48.74911648220001
 20
16.82289519430003
 10
48.74548260610004
 20
16.94451553760001
 10
48.74466298140001
 20
17.07338827820001
 10
48.7511014314
 20
17.20753869739997
 10
48.75213234440002
 20
17.34494660200005
 10
48.75196058250003
 20
17.4834680614
 10
48.75059815540002
 20
17.62092018940001
 10
48.74805711690004
 20
17.75513888489996
  0
LINE
  5
4157
330
22
100
AcDbEntity
  8
1
100
AcDbLine
 10
47.26421188010002
 20
5.358138060700014
 30
0.0
 11
46.98051448640001
 21
3.081235713099999
 31
0.0
  0
LWPOLYLINE
  5
4158
330
22
100
AcDbEntity
  8
1
100
AcDbPolyline
 90
        7
 70
     0
 43
0.0
 10
38.765310376
 20
-17.31143233489996
 10
38.78249555530004
 20
-17.28162905789998
 10
38.7990856559
 20
-17.25182537019998
 10
38.81507853270003
 20
-17.22208689860002
 10
38.8304806205
 20
-17.19221676260002
 10
38.84529835370003
 20
-17.16201808139999
 10
38.85952958760004
 20
-17.13155648199995
  0
LWPOLYLINE
  5
4161
330
22
100
AcDbEntity
  8
1
100
AcDbPolyline
 90
        7
 70
     0
 43
0.0
 10
49.30463826270003
 20
-6.6609419161
 10
49.32870947629999
 20
-6.653011142600007
 10
49.35225522080003
 20
-6.644754506999959
 10
49.37521058660002
 20
-6.636173298499954
 10
49.39777030270002
 20
-6.627263649599967
 10
49.4201290979
 20
-6.61802169309999
 10
49.44222206280002
 20
-6.60844871799992
  0
LWPOLYLINE
  5
416A
330
22
100
AcDbEntity
  8
1
100
AcDbPolyline
 90
       11
 70
     0
 43
0.0
 10
48.74040664690003
 20
16.70640543460001
 10
48.83512270210002
 20
16.73328958580003
 10
48.9362426454
 20
16.77632995459999
 10
49.04237994450003
 20
16.8184826424
 10
49.15171659340001
 20
16.85482937870006
 10
49.26362360410002
 20
16.89650114139999
 10
49.37655753760004
 20
16.93914784040004
 10
49.48912578250002
 20
16.98223514110003
 10
49.60006234659999
 20
17.0252711315
 10
49.70807993870002
 20
17.06775671360003
 10
49.81183836680003
 20
17.10917240349999
  0
LWPOLYLINE
  5
4177
330
22
100
AcDbEntity
  8
1
100
AcDbPolyline
 90
       21
 70
     0
 43
0.0
 10
17.2864537348
 20
14.45104106090002
 10
17.3908261748
 20
14.45435629080003
 10
17.49487776130002
 20
14.4631431368
 10
17.59883440790003
 20
14.47743233760002
 10
17.70201837370001
 20
14.49713167679999
 10
17.80390349460001
 20
14.52220026650002
 10
17.90426095340001
 20
14.55251486099996
 10
18.00267449520004
 20
14.58793186370002
 10
18.09918026860003
 20
14.62847144030002
 10
18.19385279390002
 20
14.67418844190001
 10
18.28616070020001
 20
14.72483521550003
 10
18.37570378070001
 20
14.78027635879999
 10
18.46216306360003
 20
14.84022997030001
 10
18.54505872240003
 20
14.90435638540003
 10
18.62447311470001
 20
14.97269348989999
 10
18.70043815990001
 20
15.04526177379995
 10
18.77262534600004
 20
15.12177375950006
 10
18.84081644900001
 20
15.20209491650001
 10
18.90471252510002
 20
15.28578689239998
 10
18.96389542900002
 20
15.37230609150003
 10
19.01850454240002
 20
15.46183371239999
  0
LWPOLYLINE
  5
418E
330
22
100
AcDbEntity
  8
1
100
AcDbPolyline
 90
        7
 70
     0
 43
0.0
 10
17.2864537348
 20
14.45104106090002
 10
16.4406571273
 20
14.44605328870006
 10
15.59523869520001
 20
14.4408250939
 10
14.7501872791
 20
14.43535634470004
 10
13.90553635700001
 20
14.42964743610002
 10
13.0613194066
 20
14.42369876319998
 10
12.21752526860001
 20
14.4175101943
  0
LINE
  5
4197
330
22
100
AcDbEntity
  8
1
100
AcDbLine
 10
6.925435867400011
 20
14.5
 30
0.0
 11
0.5
 21
14.5
 31
0.0
  0
LWPOLYLINE
  5
4198
330
22
100
AcDbEntity
  8
1
100
AcDbPolyline
 90
       20
 70
     0
 43
0.0
 10
6.922413894399994
 20
14.49999936379998
 10
7.098949424099998
 20
14.49941211840007
 10
7.354264146299982
 20
14.49687572750002
 10
7.615001218200006
 20
14.49266347669999
 10
7.880161424199997
 20
14.48713855230005
 10
8.149690809300011
 20
14.48062758970002
 10
8.423319675000016
 20
14.4734389514
 10
8.700696035899994
 20
14.4658611932
 10
8.981483460199996
 20
14.45816124750001
 10
9.26536558890001
 20
14.45058135430002
 10
9.551871747800021
 20
14.44334362800004
 10
9.841128450399992
 20
14.43663634000001
 10
10.13330585579999
 20
14.43061971480006
 10
10.42780235419999
 20
14.42545069480002
 10
10.72423632479999
 20
14.42125999069998
 10
11.02211795990001
 20
14.41814575820001
 10
11.32106835159999
 20
14.41618643510003
 10
11.62037318049999
 20
14.41542090220002
 10
11.9190867472
 20
14.41586529779999
 10
12.21752428490001
 20
14.41751018660005
  0
LWPOLYLINE
  5
42CE
330
22
100
AcDbEntity
  8
1
100
AcDbPolyline
 90
       11
 70
     0
 43
0.0
 10
48.74016297620002
 20
7.715093746200011
 10
48.83514571150001
 20
7.67966415910007
 10
48.93624269620002
 20
7.641811941400021
 10
49.04218154800003
 20
7.602015104000031
 10
49.15171659750001
 20
7.560741606600061
 10
49.2636236038
 20
7.518451206500003
 10
49.37655753980002
 20
7.475650468900028
 10
49.48912578720001
 20
7.432868924300009
 10
49.60006235320003
 20
7.390589226299994
 10
49.70807994320001
 20
7.349301924800045
 10
49.81183836680003
 20
7.309517701099991
  0
LWPOLYLINE
  5
42DB
330
22
100
AcDbEntity
  8
1
100
AcDbPolyline
 90
        7
 70
     0
 43
0.0
 10
49.8777532556
 20
-7.235456397399957
 10
49.87326380370001
 20
-7.225074993399971
 10
49.86854555799999
 20
-7.21506367149999
 10
49.8635971274
 20
-7.205433891900042
 10
49.85842268500002
 20
-7.196151273899999
 10
49.85302640420002
 20
-7.187181436800017
 10
49.84740689370003
 20
-7.178535840999984
  0
LWPOLYLINE
  5
42E4
330
22
100
AcDbEntity
  8
1
100
AcDbPolyline
 90
       39
 70
     0
 43
0.0
 10
49.44222206280002
 20
-6.60844871799992
 10
49.43832797430002
 20
-6.5994366635
 10
49.4343769079
 20
-6.590745839299984
 10
49.43036826050001
 20
-6.582381939299978
 10
49.42630384130001
 20
-6.574327882099964
 10
49.42218527990002
 20
-6.56657197629994
 10
49.4180125117
 20
-6.559103745499953
 10
49.41378607250001
 20
-6.551911678300029
 10
49.40950579150001
 20
-6.544987187199978
 10
49.40517191010002
 20
-6.538320407900016
 10
49.40078372720001
 20
-6.531903659600004
 10
49.39634119160001
 20
-6.525728414199988
 10
49.3918425947
 20
-6.519787349199987
 10
49.38728734130001
 20
-6.514072753199968
 10
49.38267204000002
 20
-6.508577265399992
 10
49.37799472430004
 20
-6.503293146299938
 10
49.37325052360001
 20
-6.49821382150003
 10
49.3684359588
 20
-6.493331875899968
 10
49.36354488900002
 20
-6.488642091900032
 10
49.35857279910002
 20
-6.484138213300013
 10
49.35351133170001
 20
-6.479815941599952
 10
49.34835451000004
 20
-6.47567000570001
 10
49.34309067700002
 20
-6.471697066399997
 10
49.33771250130002
 20
-6.467893154600005
 10
49.3322010292
 20
-6.464254889000017
 10
49.326543625
 20
-6.460777716899997
 10
49.32071400260003
 20
-6.457461183600003
 10
49.31469426460001
 20
-6.454302059099973
 10
49.30844660920001
 20
-6.451304117099994
 10
49.30194630570003
 20
-6.44846647129998
 10
49.29513624400001
 20
-6.445799871699989
 10
49.28797885370002
 20
-6.443306280299964
 10
49.28039078480003
 20
-6.441011174300001
 10
49.2722893623
 20
-6.438920619599969
 10
49.26363499130002
 20
-6.437094812600037
 10
49.2542694709
 20
-6.435572035800021
 10
49.24446594510001
 20
-6.434424096999975
 10
49.23447237570002
 20
-6.433746136100012
 10
49.22420610879999
 20
-6.433506439700011
  0
LWPOLYLINE
  5
436B
330
22
100
AcDbEntity
  8
1
100
AcDbPolyline
 90
        5
 70
     0
 43
0.0
 10
48.58777237320001
 20
-6.304122812499997
 10
48.59157822170002
 20
-6.329133394300015
 10
48.59533710940002
 20
-6.354312252600038
 10
48.59904903620003
 20
-6.379659387299966
 10
48.6027140022
 20
-6.405174798399968
  0
LWPOLYLINE
  5
4372
330
22
100
AcDbEntity
  8
1
100
AcDbPolyline
 90
        9
 70
     0
 43
0.0
 10
48.1027140022
 20
-7.208483652699953
 10
47.9261724883
 20
-5.982798538700023
 10
47.75905249110002
 20
-4.731019988900015
 10
47.60093491150001
 20
-3.449415341299982
 10
47.4530770471
 20
-2.14918258199998
 10
47.31634786
 20
-0.8373190735999855
 10
47.19149325710001
 20
0.4773059759999683
 10
47.07967824430002
 20
1.782090697200032
 10
46.98051448640001
 20
3.081235713099999
  0
LWPOLYLINE
  5
437D
330
22
100
AcDbEntity
  8
1
100
AcDbPolyline
 90
       15
 70
     0
 43
0.0
 10
48.40019779160002
 20
-7.915455958999984
 10
48.3694685522
 20
-7.699089846200024
 10
48.34203306910001
 20
-7.470783496599949
 10
48.31752163930002
 20
-7.227519668499951
 10
48.29704337150002
 20
-6.978350087100011
 10
48.28143805860003
 20
-6.728633849799962
 10
48.27114394530003
 20
-6.486431599000013
 10
48.26692722340002
 20
-6.259395159599989
 10
48.26864384539999
 20
-6.054110081299938
 10
48.27663433420003
 20
-5.878739762199984
 10
48.29021116990003
 20
-5.736202481500015
 10
48.3091018922
 20
-5.632368278199976
 10
48.33240184560003
 20
-5.566545271899997
 10
48.35938823020001
 20
-5.540841928600002
 10
48.37002151810003
 20
-5.541027132199985
  0
LWPOLYLINE
  5
43CA
330
22
100
AcDbEntity
  8
1
100
AcDbPolyline
 90
       41
 70
     0
 43
0.0
 10
41.0273052329
 20
12.2017735901
 10
41.03735105410001
 20
11.94746886809997
 10
41.06699981180002
 20
11.69629997700002
 10
41.11643326649999
 20
11.44750831819999
 10
41.1851061364
 20
11.20336968779997
 10
41.27277109710002
 20
10.96543926599997
 10
41.37871603700003
 20
10.73512030190005
 10
41.50245390140002
 20
10.51390975390001
 10
41.64306219530002
 20
10.30308167330002
 10
41.79982612650002
 20
10.10403793690005
 10
41.9716355315
 20
9.91789202700005
 10
42.15756548130002
 20
9.745916219600019
 10
42.35634547960001
 20
9.589036010400036
 10
42.56686323550002
 20
9.448362747000032
 10
42.78771920389999
 20
9.324611149899965
 10
43.01764112010002
 20
9.218704273300033
 10
43.25513485170001
 20
9.131128463300001
 10
43.49879948760002
 20
9.062595752200024
 10
43.74708309850001
 20
9.013352136500031
 10
43.99849062210001
 20
8.983881093600018
 10
44.25145054570001
 20
8.974182213400069
 10
44.50441046940002
 20
8.984498513700032
 10
44.7558179929
 20
9.01458318760001
 10
45.00410160379999
 20
9.06443280960002
 10
45.24776623970001
 20
9.133560253000041
 10
45.48525997130002
 20
9.221715733499991
 10
45.71518188750002
 20
9.328183799400051
 10
45.93603785590002
 20
9.452474457899995
 10
46.14655561190002
 20
9.593661549199964
 10
46.34533561020004
 20
9.751026937099993
 10
46.53126556000001
 20
9.923456559100031
 10
46.70307496489999
 20
10.11002181840007
 10
46.85983889610002
 20
10.3094481814
 10
47.00044719000001
 20
10.52061945620005
 10
47.12418505440001
 20
10.74213202139998
 10
47.23012999429999
 20
10.97270957410006
 10
47.31779495500001
 20
11.2108539669
 10
47.38646782490002
 20
11.45516021279997
 10
47.43590127959999
 20
11.70407252800004
 10
47.46555003730003
 20
11.95531378520007
 10
47.47559585860003
 20
12.20964302679999
  0
LINE
  5
447C
330
22
100
AcDbEntity
  8
1
100
AcDbLine
 10
40.59496156780002
 20
-16.18350643970001
 30
0.0
 11
40.59496156780002
 21
-16.19715971459999
 31
0.0
  0
LWPOLYLINE
  5
44FB
330
22
100
AcDbEntity
  8
1
100
AcDbPolyline
 90
       39
 70
     0
 43
0.0
 10
39.21135301190003
 20
-17.75856416150003
 10
39.20877876220001
 20
-17.76757658069999
 10
39.20649207270003
 20
-17.77626773229997
 10
39.20449763410002
 20
-17.78463192129999
 10
39.20278137420002
 20
-17.79268623269996
 10
39.2013332697
 20
-17.80044235989999
 10
39.20014586389999
 20
-17.8079107822
 10
39.19921035710002
 20
-17.81510301349999
 10
39.19852075510002
 20
-17.82202764319999
 10
39.19806973450003
 20
-17.82869453820001
 10
39.19785248260001
 20
-17.83511138
 10
39.19786292820001
 20
-17.84128669799997
 10
39.19809752320004
 20
-17.84722781589994
 10
39.19855132640001
 20
-17.85294244629995
 10
39.19922244550003
 20
-17.85843795139999
 10
39.20010729070003
 20
-17.86372207229993
 10
39.2012060129
 20
-17.86880138419997
 10
39.2025167681
 20
-17.87368330319998
 10
39.20404195160001
 20
-17.87837304750002
 10
39.20578158680001
 20
-17.88287687409996
 10
39.2077409451
 20
-17.88719908239994
 10
39.20992221900002
 20
-17.8913449442
 10
39.21233466770002
 20
-17.89531779919997
 10
39.21498277220002
 20
-17.8991216169
 10
39.21788305890002
 20
-17.90275977979996
 10
39.22104489530003
 20
-17.90623684209998
 10
39.22449423900003
 20
-17.90955325830003
 10
39.22824666770003
 20
-17.91271225870002
 10
39.23234268810001
 20
-17.91571006970002
 10
39.23680639310001
 20
-17.91854757769994
 10
39.2417026009
 20
-17.92121403319999
 10
39.24707028789999
 20
-17.92370747409995
 10
39.25301107170003
 20
-17.92600242489999
 10
39.25961197790002
 20
-17.92809281879994
 10
39.26695575930001
 20
-17.9299184669
 10
39.27522803330001
 20
-17.93144108600001
 10
39.28420723180003
 20
-17.93258889319998
 10
39.29371369760003
 20
-17.93326677639999
 10
39.30380731640003
 20
-17.93350643970001
  0
LWPOLYLINE
  5
454E
330
22
100
AcDbEntity
  8
1
100
AcDbPolyline
 90
       11
 70
     0
 43
0.0
 10
48.73727405
 20
16.71017085440002
 10
48.77654357530002
 20
16.79905931830001
 10
48.81766639900002
 20
16.89503300809997
 10
48.86013261600002
 20
16.99686854610002
 10
48.90344295450001
 20
17.10336838569998
 10
48.94710601080001
 20
17.21335703800003
 10
48.99058877250002
 20
17.32552914360002
 10
49.03336332690003
 20
17.43848473580004
 10
49.07495580190001
 20
17.55093893510002
 10
49.11488328320001
 20
17.66158740190002
 10
49.15264289190003
 20
17.76907244629996
  0
LWPOLYLINE
  5
456B
330
22
100
AcDbEntity
  8
1
100
AcDbPolyline
 90
        9
 70
     0
 43
0.0
 10
39.76241231950002
 20
7.705914536200054
 10
39.65440298110002
 20
7.704401986900052
 10
39.53642262740002
 20
7.703135327200016
 10
39.41038463800001
 20
7.702132360200039
 10
39.27821988660003
 20
7.701411009400032
 10
39.14190002500001
 20
7.700986091400011
 10
39.0035659564
 20
7.700860347900004
 10
38.86540460020001
 20
7.701033435700026
 10
38.7295841673
 20
7.701504977700039
  0
LINE
  5
4576
330
22
100
AcDbEntity
  8
1
100
AcDbLine
 10
38.16277052390001
 20
10.23704923209999
 30
0.0
 11
38.38262043510002
 21
10.23731753499999
 31
0.0
  0
LINE
  5
4577
330
22
100
AcDbEntity
  8
1
100
AcDbLine
 10
38.20375164500001
 20
10.04723523950002
 30
0.0
 11
38.52801342200002
 21
10.04763096570002
 31
0.0
  0
LINE
  5
4578
330
22
100
AcDbEntity
  8
1
100
AcDbLine
 10
38.45923553730001
 20
9.983471304000033
 30
0.0
 11
38.52801342200002
 21
9.983555239899999
 31
0.0
  0
LINE
  5
4579
330
22
100
AcDbEntity
  8
1
100
AcDbLine
 10
38.48016247940001
 20
9.678294027499987
 30
0.0
 11
38.52801342200002
 21
9.678352424299987
 31
0.0
  0
LINE
  5
457A
330
22
100
AcDbEntity
  8
1
100
AcDbLine
 10
39.76604357230002
 20
7.701321877300017
 30
0.0
 11
48.73651511670002
 21
7.711867213300024
 31
0.0
  0
LINE
  5
457B
330
22
100
AcDbEntity
  8
SK1
100
AcDbLine
 10
-2.0
 20
8.5
 30
0.0
 11
-5.599999999999994
 21
8.5
 31
0.0
  0
LINE
  5
457C
330
22
100
AcDbEntity
  8
SK1
100
AcDbLine
 10
-0.2999999999999829
 20
8.300000000000011
 30
0.0
 11
-1.200928839499994
 21
8.300000000000011
 31
0.0
  0
LINE
  5
457D
330
22
100
AcDbEntity
  8
SK1
100
AcDbLine
 10
-10.69999999999999
 20
8.0
 30
0.0
 11
-22.5
 21
8.0
 31
0.0
  0
LWPOLYLINE
  5
45B3
330
22
100
AcDbEntity
  8
1
100
AcDbPolyline
 90
       13
 70
     0
 43
0.0
 10
49.15264289190003
 20
6.648008705599977
 10
49.11867120530001
 20
6.649922549800066
 10
49.08471320820002
 20
6.651713616699964
 10
49.05075705870001
 20
6.653388093499984
 10
49.01683828300003
 20
6.654927418900001
 10
48.98298480710002
 20
6.656320249299994
 10
48.94920759000001
 20
6.65755111819999
 10
48.91553493280003
 20
6.658602021799993
 10
48.88194273549999
 20
6.659469228200009
 10
48.84842633819999
 20
6.660145457800012
 10
48.81495572210003
 20
6.660623350100024
 10
48.78149536870001
 20
6.660891894500025
 10
48.74805711750003
 20
6.660954761200059
  0
LWPOLYLINE
  5
45C2
330
22
100
AcDbEntity
  8
1
100
AcDbPolyline
 90
        9
 70
     0
 43
0.0
 10
48.74040664690003
 20
7.715967746800004
 10
48.85952684910001
 20
7.707524189600007
 10
48.98644177300003
 20
7.714668046900044
 10
49.1192558692
 20
7.718197029000009
 10
49.25588216430003
 20
7.713587660100017
 10
49.3942638519
 20
7.71349798540001
 10
49.53225439690005
 20
7.713709466000011
 10
49.6676908988
 20
7.714216450200069
 10
49.79842925470001
 20
7.715013298200005
  0
LWPOLYLINE
  5
45CD
330
22
100
AcDbEntity
  8
1
100
AcDbPolyline
 90
       39
 70
     0
 43
0.0
 10
3.595778255600009
 20
13.23350058379998
 10
3.6360665423
 20
13.22790179440005
 10
3.689282907700004
 20
13.22233598470001
 10
3.755343946900012
 20
13.21681225489999
 10
3.8341382694
 20
13.21133961499998
 10
3.925540623800003
 20
13.20592701930002
 10
4.029398297699998
 20
13.2005832913
 10
4.145545021800018
 20
13.19531717929999
 10
4.273787758799983
 20
13.19013726270003
 10
4.413920304699985
 20
13.18505202709997
 10
4.565710557599999
 20
13.18006975180003
 10
4.728913726299992
 20
13.17519860390001
 10
4.903260160599984
 20
13.17044650879995
 10
5.088468080500007
 20
13.16582126200006
 10
5.28423204820001
 20
13.16133038270004
 10
5.490235135700004
 20
13.15698124419998
 10
5.706138112100006
 20
13.15278091059997
 10
5.931590971100007
 20
13.14873628430001
 10
6.166222904699992
 20
13.14485392849997
 10
6.409653113800004
 20
13.1411402297
 10
6.661481635200004
 20
13.13760120720002
 10
6.921299363900004
 20
13.13424269000001
 10
7.188679793299996
 20
13.13107011390002
 10
7.463188185000007
 20
13.12808871239997
 10
7.744374274300014
 20
13.12530330270005
 10
8.031780528199988
 20
13.12271848849997
 10
8.324935865100002
 20
13.12033843660003
 10
8.623362945400003
 20
13.1181670908
 10
8.926572946899995
 20
13.11620794059996
 10
9.234071841000002
 20
13.11446424429999
 10
9.545356257800023
 20
13.11293879099997
 10
9.859918706499996
 20
13.11163413220004
 10
10.17724455480001
 20
13.11055233840005
 10
10.49681616360001
 20
13.10969523760002
 10
10.81811100709998
 20
13.10906416849997
 10
11.14060468010001
 20
13.10866022350001
 10
11.46377014750001
 20
13.10848400050003
 10
11.78707965570001
 20
13.10853584950007
 10
12.11000520850001
 20
13.10881562360004
  0
LINE
  5
45F6
330
22
100
AcDbEntity
  8
1
100
AcDbLine
 10
3.564157542999993
 20
13.23875115739997
 30
0.0
 11
3.595778255600009
 21
13.23350058379998
 31
0.0
  0
LINE
  5
45F7
330
22
100
AcDbEntity
  8
1
100
AcDbLine
 10
38.45923553730001
 20
9.983471304000033
 30
0.0
 11
38.20375164500001
 21
10.04723523950002
 31
0.0
  0
LINE
  5
465C
330
22
100
AcDbEntity
  8
1
100
AcDbLine
 10
38.52801342200002
 20
10.11210756050002
 30
0.0
 11
38.38262043510002
 21
10.23731753499999
 31
0.0
  0
LWPOLYLINE
  5
465D
330
22
100
AcDbEntity
  8
1
100
AcDbPolyline
 90
       11
 70
     0
 43
0.0
 10
49.0869372981
 20
-7.647952602600014
 10
49.06851296180002
 20
-7.612069334099942
 10
49.04724460950001
 20
-7.579308468499959
 10
49.02298534870005
 20
-7.549479533900012
 10
48.99617585700003
 20
-7.523153945499927
 10
48.9671526633
 20
-7.500867805899929
 10
48.9360813216
 20
-7.482536581100021
 10
48.90326788470003
 20
-7.468262257499986
 10
48.86862738410002
 20
-7.458021375999976
 10
48.83217900020003
 20
-7.451825790100031
 10
48.79391633940002
 20
-7.449671548499964
  0
LWPOLYLINE
  5
466A
330
22
100
AcDbEntity
  8
1
100
AcDbPolyline
 90
        7
 70
     0
 43
0.0
 10
39.76241231950002
 20
7.704898049500059
 10
39.76277702320002
 20
7.704027290100043
 10
39.76313313740002
 20
7.703326667300018
 10
39.76338242010001
 20
7.702852660299981
 10
39.76381959730003
 20
7.702435831699972
 10
39.76473939550002
 20
7.701906744300003
 10
39.76604357230002
 20
7.701321877300017
  0
LWPOLYLINE
  5
4673
330
22
100
AcDbEntity
  8
1
100
AcDbPolyline
 90
       11
 70
     0
 43
0.0
 10
39.76649874910001
 20
16.69946722819998
 10
39.74343517690002
 20
16.78828200910004
 10
39.70401155720001
 20
16.88391073590003
 10
39.66479189490002
 20
16.98571808040003
 10
39.63058281150001
 20
17.09205186520006
 10
39.59047547390003
 20
17.20193828919997
 10
39.5487059605
 20
17.31400635120002
 10
39.50580779350003
 20
17.42685738660003
 10
39.46227944040001
 20
17.53920770330001
 10
39.41862537490002
 20
17.64975416999999
 10
39.37537053
 20
17.75714034970002
  0
LWPOLYLINE
  5
4680
330
22
100
AcDbEntity
  8
1
100
AcDbPolyline
 90
       11
 70
     0
 43
0.0
 10
39.82629694760002
 20
-16.43918895289999
 10
39.82844138350003
 20
-16.47656641359998
 10
39.83487876330002
 20
-16.51217300309997
 10
39.84557227729999
 20
-16.54605102409994
 10
39.86063235490002
 20
-16.57807356849997
 10
39.88024669250001
 20
-16.60828971299998
 10
39.90414667990001
 20
-16.63621380649999
 10
39.93227691280003
 20
-16.66142450620003
 10
39.96418546960001
 20
-16.68377796499999
 10
39.99934316200003
 20
-16.70295435179997
 10
40.03792638610002
 20
-16.71906027689999
  0
LWPOLYLINE
  5
468D
330
22
100
AcDbEntity
  8
1
100
AcDbPolyline
 90
       15
 70
     0
 43
0.0
 10
38.52801342200002
 20
-17.15581805589994
 10
38.53305914410004
 20
-17.24441121059999
 10
38.54754696719999
 20
-17.33049105629999
 10
38.57167290620004
 20
-17.41453903409996
 10
38.6048489163
 20
-17.4951108203
 10
38.64676861750002
 20
-17.57118402519995
 10
38.6967830305
 20
-17.64197428769995
 10
38.75440223560003
 20
-17.70657164940002
 10
38.8188426744
 20
-17.76433051179998
 10
38.8894599372
 20
-17.81446553159998
 10
38.96534665860002
 20
-17.85648598419999
 10
39.04572047459999
 20
-17.88974174610001
 10
39.12956197070002
 20
-17.91392567010001
 10
39.2154309192
 20
-17.92844841940001
 10
39.30380739600003
 20
-17.93350643970001
  0
LWPOLYLINE
  5
469E
330
22
100
AcDbEntity
  8
1
100
AcDbPolyline
 90
       39
 70
     0
 43
0.0
 10
38.52801342200002
 20
-17.15581812989995
 10
38.52833964890002
 20
-17.1660215082
 10
38.52925628850002
 20
-17.17578279769998
 10
38.53080537190005
 20
-17.18516814099996
 10
38.53286080590001
 20
-17.1939791103
 10
38.53532802480001
 20
-17.2019853667
 10
38.53815447800002
 20
-17.20934878579999
 10
38.5412588831
 20
-17.2161260176
 10
38.5446328703
 20
-17.22240240019994
 10
38.54824183580002
 20
-17.22826932909993
 10
38.55208319820003
 20
-17.23376528309995
 10
38.55614253410002
 20
-17.23895116669996
 10
38.56042076480003
 20
-17.24385109830001
 10
38.56491243650001
 20
-17.24850380099997
 10
38.56962225110004
 20
-17.25292636549994
 10
38.57455098510002
 20
-17.25714511849998
 10
38.5797049601
 20
-17.26117107589994
 10
38.58508901990001
 20
-17.26502212339994
 10
38.59070837350003
 20
-17.26870397739998
 10
38.59656741350003
 20
-17.27222693799996
 10
38.6026734326
 20
-17.27559513949995
 10
38.60903237100001
 20
-17.27881541459999
 10
38.61565267930001
 20
-17.28188996769995
 10
38.6225413958
 20
-17.28482300690001
 10
38.6297086971
 20
-17.28761535360002
 10
38.63716354430002
 20
-17.29026950419995
 10
38.64491662220002
 20
-17.29278464139997
 10
38.65297811990001
 20
-17.29516153029999
 10
38.66135848610003
 20
-17.29739791930001
 10
38.67006770540001
 20
-17.2994928343
 10
38.67911735900003
 20
-17.30144320659997
 10
38.68851780660003
 20
-17.3032469112
 10
38.69828269730002
 20
-17.30490014219998
 10
38.70842391240001
 20
-17.3063999679
 10
38.71895711530005
 20
-17.30774164049995
 10
38.72989663560003
 20
-17.30892140349999
 10
38.74125835610002
 20
-17.30993335209996
 10
38.75306551870003
 20
-17.31076943459999
 10
38.765310376
 20
-17.31143233489996
  0
LWPOLYLINE
  5
46C7
330
22
100
AcDbEntity
  8
1
100
AcDbPolyline
 90
       21
 70
     0
 43
0.0
 10
38.71617505500001
 20
17.09563135709999
 10
38.71526779520002
 20
17.14849622080004
 10
38.71870441860003
 20
17.20095773450004
 10
38.72650730640001
 20
17.25321453139997
 10
38.73860931490003
 20
17.30467071110001
 10
38.75499518060002
 20
17.35491260139997
 10
38.77553164440002
 20
17.40359215149999
 10
38.80014700920003
 20
17.45032137970003
 10
38.82864132490002
 20
17.49480640690001
 10
38.86090327110003
 20
17.53673580629999
 10
38.89659526120002
 20
17.57577423809999
 10
38.93542091789999
 20
17.61153663440001
 10
38.97714529230001
 20
17.64386075290002
 10
39.02159570790002
 20
17.67253055430001
 10
39.06828896920001
 20
17.69732236179999
 10
39.11676600450002
 20
17.71793959940004
 10
39.16678176549999
 20
17.73438492580004
 10
39.21809335100002
 20
17.74657767640002
 10
39.27023524730001
 20
17.75447124470003
 10
39.32259266360001
 20
17.75798294890001
 10
39.37537053010002
 20
17.75714034970002
  0
LWPOLYLINE
  5
46DE
330
22
100
AcDbEntity
  8
1
100
AcDbPolyline
 90
       17
 70
     0
 43
0.0
 10
38.48016247940001
 20
9.678294027499987
 10
38.48006171050002
 20
9.70771984099997
 10
38.47976037410001
 20
9.736912568000036
 10
38.47926137230002
 20
9.76559106640002
 10
38.47856951080002
 20
9.79347914660002
 10
38.47769145260003
 20
9.820308231200044
 10
38.4766356538
 20
9.845819941400009
 10
38.4754122823
 20
9.869768585500025
 10
38.47403312
 20
9.891923524999981
 10
38.47251144890001
 20
9.912071395700024
 10
38.47086192340004
 20
9.930018162500005
 10
38.46910042960002
 20
9.945590988400056
 10
38.46724393139999
 20
9.958639898499995
 10
38.46531030800003
 20
9.96903922460001
 10
38.46331818120001
 20
9.97668881559997
 10
38.4612867363
 20
9.98151500160003
 10
38.45923553730001
 20
9.983471304000033
  0
LWPOLYLINE
  5
46F1
330
22
100
AcDbEntity
  8
1
100
AcDbPolyline
 90
       13
 70
     0
 43
0.0
 10
38.7295841673
 20
16.69013575780002
 10
38.72947925440002
 20
16.72382859950005
 10
38.72916808500003
 20
16.75750760620002
 10
38.728646556
 20
16.79116407450004
 10
38.72792697630001
 20
16.82482411469999
 10
38.72701767730001
 20
16.85850694230004
 10
38.72592648870003
 20
16.89222453900004
 10
38.72465839350002
 20
16.92599553620005
 10
38.72323026420003
 20
16.95981920080004
 10
38.72165727309999
 20
16.99370534920001
 10
38.719949504
 20
17.027640964
 10
38.71812399060002
 20
17.06161508180002
 10
38.71617505500001
 20
17.09563135709999
  0
LINE
  5
4700
330
22
100
AcDbEntity
  8
1
100
AcDbLine
 10
39.82629694760002
 20
-16.21096058120002
 30
0.0
 11
39.82629694760002
 21
-16.43918895289999
 31
0.0
  0
LINE
  5
4701
330
22
100
AcDbEntity
  8
1
100
AcDbLine
 10
39.76281354900002
 20
16.6959054783
 30
0.0
 11
39.76241231950002
 21
7.704898049500059
 31
0.0
  0
LINE
  5
4702
330
22
100
AcDbEntity
  8
1
100
AcDbLine
 10
38.85952958760004
 20
-16.34681739389998
 30
0.0
 11
38.85952958760004
 21
-17.13155648199995
 31
0.0
  0
LINE
  5
4703
330
22
100
AcDbEntity
  8
1
100
AcDbLine
 10
38.765310376
 20
-16.3647478085
 30
0.0
 11
38.765310376
 21
-17.31143233489996
 31
0.0
  0
LINE
  5
4704
330
22
100
AcDbEntity
  8
1
100
AcDbLine
 10
38.7295841673
 20
7.7015049771
 30
0.0
 11
38.7295841673
 21
16.69013575780002
 31
0.0
  0
LINE
  5
4705
330
22
100
AcDbEntity
  8
1
100
AcDbLine
 10
38.52801342200002
 20
7.224020063199986
 30
0.0
 11
38.52801342200002
 21
17.16712868129997
 31
0.0
  0
LINE
  5
4706
330
22
100
AcDbEntity
  8
1
100
AcDbLine
 10
38.52801342200002
 20
-16.4177168196
 30
0.0
 11
38.52801342200002
 21
-17.15581805589994
 31
0.0
  0
LINE
  5
4707
330
22
100
AcDbEntity
  8
1
100
AcDbLine
 10
38.38262043510002
 20
16.36519296989996
 30
0.0
 11
38.38262043510002
 21
10.23731753499999
 31
0.0
  0
LWPOLYLINE
  5
4708
330
22
100
AcDbEntity
  8
1
100
AcDbPolyline
 90
       13
 70
     0
 43
0.0
 10
38.48016247940001
 20
7.278659559100049
 10
38.48006171060001
 20
7.249284087900036
 10
38.47976037490003
 20
7.220241811100038
 10
38.47926137420001
 20
7.191812421000008
 10
38.47856951390003
 20
7.164269708599988
 10
38.4776914569
 20
7.137878925500046
 10
38.47663565930003
 20
7.112894230300014
 10
38.47541228880002
 20
7.089556240200067
 10
38.47403312720002
 20
7.06808971419997
 10
38.47251145640001
 20
7.048701388099971
 10
38.47086193090002
 20
7.03157798340004
 10
38.4691004366
 20
7.01688440950005
 10
38.46860987050002
 20
7.013681198700055
  0
LWPOLYLINE
  5
4717
330
22
100
AcDbEntity
  8
1
100
AcDbPolyline
 90
        9
 70
     0
 43
0.0
 10
39.76649874910001
 20
7.70100259779997
 10
39.76484084970002
 20
7.585761994599977
 10
39.77738179430003
 20
7.46191861590006
 10
39.78497570340002
 20
7.331355142399957
 10
39.78300061959999
 20
7.196090751700012
 10
39.78403153250003
 20
7.058168254300028
 10
39.78385977070002
 20
6.919732532000068
 10
39.78249734360003
 20
6.78296047590004
 10
39.77995630510003
 20
6.650010170400037
  0
LWPOLYLINE
  5
4722
330
22
100
AcDbEntity
  8
1
100
AcDbPolyline
 90
        9
 70
     0
 43
0.0
 10
39.76740013980003
 20
16.69955064129999
 10
39.77290543420003
 20
16.81195111710002
 10
39.77738179430003
 20
16.93357094679999
 10
39.78076754600002
 20
17.06244594809999
 10
39.78300061959999
 20
17.19659410660006
 10
39.78403153250003
 20
17.33400201120003
 10
39.78385977070002
 20
17.47252347059998
 10
39.78249734360003
 20
17.60997559859999
 10
39.77995630510003
 20
17.74419429410005
  0
LWPOLYLINE
  5
472D
330
22
100
AcDbEntity
  8
1
100
AcDbPolyline
 90
       15
 70
     0
 43
0.0
 10
38.52801342200002
 20
17.16712868129997
 10
38.53305914410004
 20
17.25571450059999
 10
38.54754696719999
 20
17.34179891669998
 10
38.57167290620004
 20
17.42586353669998
 10
38.6048489163
 20
17.50646353920001
 10
38.64676861750002
 20
17.58257631620006
 10
38.6967830305
 20
17.65341683400004
 10
38.75440223560003
 20
17.71807467529999
 10
38.8188426744
 20
17.77590338319999
 10
38.8894599372
 20
17.82611694800005
 10
38.96534665860002
 20
17.86822361209999
 10
39.04572047459999
 20
17.90157239640001
 10
39.12956197070002
 20
17.92585495650001
 10
39.2154309192
 20
17.94048028770004
 10
39.30380739600003
 20
17.94564539150002
  0
LWPOLYLINE
  5
473E
330
22
100
AcDbEntity
  8
1
100
AcDbPolyline
 90
       13
 70
     0
 43
0.0
 10
38.71617505520004
 20
7.295976651900048
 10
38.71812589220002
 20
7.330028488099969
 10
38.7199542157
 20
7.364066453799978
 10
38.72166621320003
 20
7.398102425700017
 10
38.72324332229999
 20
7.432100773700028
 10
38.72467419170002
 20
7.466033494000043
 10
38.72594337660002
 20
7.499889583499964
 10
38.72703287990001
 20
7.533640654500061
 10
38.72793900760001
 20
7.56731085749999
 10
38.7286545023
 20
7.600904854500072
 10
38.72917205700003
 20
7.634452723899983
 10
38.72948072950004
 20
7.66799005209998
 10
38.7295841673
 20
7.7015049771
  0
LINE
  5
474D
330
22
100
AcDbEntity
  8
1
100
AcDbLine
 10
38.34064953190003
 20
7.013525037100009
 30
0.0
 11
38.16277052390001
 21
6.278425765999998
 31
0.0
  0
LWPOLYLINE
  5
474E
330
22
100
AcDbEntity
  8
1
100
AcDbPolyline
 90
       11
 70
     0
 43
0.0
 10
39.76562704140003
 20
7.701245762499979
 10
39.73650783060003
 20
7.609823972600054
 10
39.70401154050001
 20
7.511697263600012
 10
39.6685642196
 20
7.408109942200042
 10
39.63058281000002
 20
7.300280103000034
 10
39.59047547400002
 20
7.189404010299995
 10
39.54870595970002
 20
7.076804310599982
 10
39.50580779170002
 20
6.963879570000017
 10
39.46227943790001
 20
6.85190852940002
 10
39.41862537310001
 20
6.742190147200005
 10
39.37537053
 20
6.63607660910003
  0
LINE
  5
47E5
330
22
100
AcDbEntity
  8
1
100
AcDbLine
 10
48.6027140022
 20
5.168569904500031
 30
0.0
 11
48.60100818730001
 21
5.168440938599985
 31
0.0
  0
LWPOLYLINE
  5
47E6
330
22
100
AcDbEntity
  8
1
100
AcDbPolyline
 90
       21
 70
     0
 43
0.0
 10
39.37537052720001
 20
6.636076608899998
 10
39.32262530170002
 20
6.635102902399978
 10
39.27028779420002
 20
6.638483520699992
 10
39.21815985230001
 20
6.646240654599978
 10
39.16683593350001
 20
6.658307732000025
 10
39.11672874690004
 20
6.674669958200013
 10
39.06818538580001
 20
6.695194192600013
 10
39.02159285850002
 20
6.719809046299985
 10
38.97724412960002
 20
6.748314469000035
 10
38.93544977900001
 20
6.78059926450004
 10
38.89654396940003
 20
6.816325481100022
 10
38.86091052840001
 20
6.855196531699959
 10
38.82871104170002
 20
6.896977126399974
 10
38.80016084490001
 20
6.941494456500038
 10
38.7754825156
 20
6.988264491699965
 10
38.75497139340001
 20
7.036827470100035
 10
38.73862452740002
 20
7.086937778600031
 10
38.72652210210001
 20
7.138352058000009
 10
38.71871005090003
 20
7.190603784899963
 10
38.71527011789999
 20
7.243076860900032
 10
38.71617505520004
 20
7.295976651900048
  0
LWPOLYLINE
  5
47FD
330
22
100
AcDbEntity
  8
1
100
AcDbPolyline
 90
       13
 70
     0
 43
0.0
 10
39.7799563044
 20
6.650010170400037
 10
39.74634028920002
 20
6.649863992800021
 10
39.71273782620002
 20
6.649511102900021
 10
39.679157594
 20
6.64894739890002
 10
39.64557355690002
 20
6.648185186299997
 10
39.61196655360004
 20
6.647232792000068
 10
39.57832463900002
 20
6.646098049199963
 10
39.54462923040001
 20
6.644785929400029
 10
39.5108810799
 20
6.643313344899979
 10
39.47707041200004
 20
6.6416954906
 10
39.44321022650001
 20
6.639942489400027
 10
39.40931148260001
 20
6.638071427300019
 10
39.37537052720001
 20
6.636076608899998
  0
LINE
  5
480C
330
22
100
AcDbEntity
  8
1
100
AcDbLine
 10
38.52801342200002
 20
7.278717955999979
 30
0.0
 11
38.48016247940001
 21
7.278659559100049
 31
0.0
  0
LINE
  5
480D
330
22
100
AcDbEntity
  8
1
100
AcDbLine
 10
38.34064953190003
 20
7.013525037100009
 30
0.0
 11
38.55777316940004
 21
7.013790012799972
 31
0.0
  0
LINE
  5
480E
330
22
100
AcDbEntity
  8
1
100
AcDbLine
 10
48.74805711750003
 20
6.660954761200059
 30
0.0
 11
39.7799563044
 21
6.650010170400037
 31
0.0
  0
LINE
  5
480F
330
22
100
AcDbEntity
  8
1
100
AcDbLine
 10
49.22420602600002
 20
6.459503663799978
 30
0.0
 11
39.30380739600003
 21
6.447396897200007
 31
0.0
  0
LINE
  5
4810
330
22
100
AcDbEntity
  8
1
100
AcDbLine
 10
48.6027140022
 20
6.291166580599963
 30
0.0
 11
38.16277052390001
 21
6.278425765999998
 31
0.0
  0
LINE
  5
4811
330
22
100
AcDbEntity
  8
1
100
AcDbLine
 10
48.6027140022
 20
5.954447597000068
 30
0.0
 11
16.6118965306
 21
5.915406900900052
 31
0.0
  0
LINE
  5
4812
330
22
100
AcDbEntity
  8
SK1
100
AcDbLine
 10
-23.5
 20
7.0
 30
0.0
 11
-9.699999999999988
 21
7.0
 31
0.0
  0
LINE
  5
4813
330
22
100
AcDbEntity
  8
SK1
100
AcDbLine
 10
-7.0
 20
6.675000000000011
 30
0.0
 11
-8.960786437600006
 21
6.675000000000011
 31
0.0
  0
LINE
  5
4814
330
22
100
AcDbEntity
  8
1
100
AcDbLine
 10
17.2864537348
 20
4.901254409999978
 30
0.0
 11
10.88960767599999
 21
4.901254409999978
 31
0.0
  0
LINE
  5
4815
330
22
100
AcDbEntity
  8
1
100
AcDbLine
 10
47.26421188010002
 20
5.358138060700014
 30
0.0
 11
10.89163851239999
 21
5.358143868900015
 31
0.0
  0
LWPOLYLINE
  5
481E
330
22
100
AcDbEntity
  8
1
100
AcDbPolyline
 90
       55
 70
     0
 43
0.0
 10
38.16277052390001
 20
6.278425765999998
 10
38.04775336070003
 20
6.281653873000038
 10
37.93351128200004
 20
6.291529377900019
 10
37.81985313710001
 20
6.308085829700019
 10
37.707352378
 20
6.331222581699989
 10
37.59639651170002
 20
6.360894555900017
 10
37.48735222320002
 20
6.396968594800057
 10
37.3805991232
 20
6.439354828899979
 10
37.27648594230001
 20
6.487878315200021
 10
37.17537926120002
 20
6.542405608099954
 10
37.07760513990002
 20
6.602722344899973
 10
36.98351217210001
 20
6.668653308600028
 10
36.89339933780002
 20
6.739947615400012
 10
36.80759252920001
 20
6.816390646600041
 10
36.72635960330001
 20
6.897698390299979
 10
36.64999934389999
 20
6.983619728199983
 10
36.57874486240002
 20
7.073841361099994
 10
36.51286379370004
 20
7.168079067000064
 10
36.4525513513
 20
7.26599449620005
 10
36.39804040160001
 20
7.367274166699985
 10
36.34948562049999
 20
7.471559254100043
 10
36.30708195710003
 20
7.57851125540003
 10
36.27094145750002
 20
7.687755723999998
 10
36.24121851700002
 20
7.798933713899998
 10
36.21798103710001
 20
7.911660219700024
 10
36.20134077150002
 20
8.025560706500016
 10
36.19132055830002
 20
8.140244816900008
 10
36.18798799850003
 20
8.255327491900004
 10
36.19132055830002
 20
8.370418300999972
 10
36.20134077150002
 20
8.485126868599991
 10
36.21798103710001
 20
8.599067970600003
 10
36.24121851700002
 20
8.711851194100063
 10
36.27094145750002
 20
8.82310173120004
 10
36.30708195710003
 20
8.932434410900043
 10
36.34948562049999
 20
9.039489910300005
 10
36.39804040160001
 20
9.143893509400015
 10
36.4525513513
 20
9.245306229199968
 10
36.51286379370004
 20
9.343368868000027
 10
36.57874486240002
 20
9.437767375200053
 10
36.64999934389999
 20
9.528162924800028
 10
36.72635960330001
 20
9.614270641400025
 10
36.80759252920001
 20
9.695776657000067
 10
36.89339933780002
 20
9.772429124000041
 10
36.98351217210001
 20
9.843943376600066
 10
37.07760513990002
 20
9.910104000700016
 10
37.17537926120002
 20
9.970659382799965
 10
37.27648594230001
 20
10.02543345520007
 10
37.3805991232
 20
10.07421105900005
 10
37.48735222320002
 20
10.1168578543
 10
37.59639651170002
 20
10.15319804649999
 10
37.707352378
 20
10.18314083989998
 10
37.81985313710001
 20
10.20655218169997
 10
37.93351128200004
 20
10.22338604830003
 10
38.04775336070003
 20
10.23354039320003
 10
38.16277052390001
 20
10.23704923209999
  0
LWPOLYLINE
  5
4857
330
22
100
AcDbEntity
  8
1
100
AcDbPolyline
 90
        9
 70
     0
 43
0.0
 10
10.88960767599999
 20
4.901254409999978
 10
10.3428176786
 20
4.923049354900001
 10
9.79215441010001
 20
4.997989967500018
 10
9.233482107300005
 20
5.125025139500053
 10
8.679208059699988
 20
5.305766508299996
 10
8.137625475600003
 20
5.542589700900066
 10
7.616940835500003
 20
5.830233242100007
 10
7.129496383000002
 20
6.163888462499983
 10
6.6711780368
 20
6.542705243600039
  0
LWPOLYLINE
  5
4862
330
22
100
AcDbEntity
  8
1
100
AcDbPolyline
 90
       15
 70
     0
 43
0.0
 10
39.30380739600003
 20
6.447396897200007
 10
39.21543004969999
 20
6.452346315200031
 10
39.12955989030002
 20
6.466762509000034
 10
39.04571664910003
 20
6.490841355999975
 10
38.96534113170003
 20
6.5239952238
 10
38.88945323730002
 20
6.565918275500052
 10
38.81883541640002
 20
6.615961001200048
 10
38.75439541060001
 20
6.673633467400009
 10
38.69677724590003
 20
6.738151107900023
 10
38.6467643524
 20
6.808868994000022
 10
38.60484625960001
 20
6.884878280400016
 10
38.57167150710001
 20
6.965395603700017
 10
38.54754649390003
 20
7.0493995896
 10
38.53305912120004
 20
7.135447430900057
 10
38.52801342200002
 20
7.224020063199986
  0
LINE
  5
4873
330
22
100
AcDbEntity
  8
1
100
AcDbLine
 10
48.60100818730001
 20
5.168440938599985
 30
0.0
 11
48.59930955770003
 21
5.168561304899981
 31
0.0
  0
LINE
  5
4874
330
22
100
AcDbEntity
  8
1
100
AcDbLine
 10
48.59930955770003
 20
5.168561304899981
 30
0.0
 11
47.26421188010002
 21
5.358138060700014
 31
0.0
  0
LWPOLYLINE
  5
4875
330
22
100
AcDbEntity
  8
1
100
AcDbPolyline
 90
        7
 70
     0
 43
0.0
 10
49.37041927090001
 20
-6.700383462999923
 10
49.36012958040001
 20
-6.693080575099997
 10
49.34958222540001
 20
-6.686067499899991
 10
49.33878832430003
 20
-6.679342450499973
 10
49.3277145216
 20
-6.672910787499972
 10
49.3163274615
 20
-6.666777871699991
 10
49.30463826270003
 20
-6.6609419161
  0
LWPOLYLINE
  5
487E
330
22
100
AcDbEntity
  8
1
100
AcDbPolyline
 90
       19
 70
     0
 43
0.0
 10
49.37041927090001
 20
-6.700383462999923
 10
49.39667089390002
 20
-6.719349822999959
 10
49.42497136760002
 20
-6.739639125999985
 10
49.45515308400001
 20
-6.761489660599977
 10
49.4866030727
 20
-6.784917299200003
 10
49.51880479250002
 20
-6.809833690099992
 10
49.5512609223
 20
-6.836207200599972
 10
49.58348399720001
 20
-6.863877347799984
 10
49.61504832750001
 20
-6.892657435199964
 10
49.64544993750002
 20
-6.922206976500035
 10
49.67468993990002
 20
-6.952453808299992
 10
49.70270628330002
 20
-6.983408580899947
 10
49.72912607890001
 20
-7.014536962999954
 10
49.75373685530001
 20
-7.045373775999962
 10
49.77641312030002
 20
-7.075462984000012
 10
49.79714140230001
 20
-7.104339606899998
 10
49.81582658940002
 20
-7.131477497899993
 10
49.83249636260001
 20
-7.156261221500017
 10
49.84740689370003
 20
-7.178535840999984
  0
LWPOLYLINE
  5
4893
330
22
100
AcDbEntity
  8
1
100
AcDbPolyline
 90
        9
 70
     0
 43
0.0
 10
48.6027140022
 20
-8.670512635599948
 10
48.57842435640001
 20
-8.639419879799959
 10
48.5535309171
 20
-8.588989081399972
 10
48.52788950840002
 20
-8.518637545700016
 10
48.5019326579
 20
-8.430113357299944
 10
48.47598122250002
 20
-8.32471577589996
 10
48.45022603850003
 20
-8.203208582099989
 10
48.4250021185
 20
-8.066938251500005
 10
48.40019779160002
 20
-7.915455958999984
  0
LINE
  5
489E
330
22
100
AcDbEntity
  8
1
100
AcDbLine
 10
38.20375164500001
 20
10.04723523950002
 30
0.0
 11
38.16277052390001
 21
10.23704923209999
 31
0.0
  0
LINE
  5
499E
330
22
100
AcDbEntity
  8
SK1
100
AcDbLine
 10
-1.304456457500009
 20
-8.313629669400029
 30
0.0
 11
-2.0
 21
-8.5
 31
0.0
  0
LINE
  5
499F
330
22
100
AcDbEntity
  8
4
100
AcDbLine
 10
52.71994769418836
 20
8.095088750352772
 30
0.0
 11
15.07836036059998
 21
-0.6811914690999288
 31
0.0
  0
LINE
  5
49A0
330
22
100
AcDbEntity
  8
1
100
AcDbLine
 10
46.98051448640001
 20
3.081235713099999
 30
0.0
 11
21.15470053840002
 21
3.081235713099999
 31
0.0
  0
LINE
  5
49A1
330
22
100
AcDbEntity
  8
1
100
AcDbLine
 10
17.0
 20
2.182586566699967
 30
0.0
 11
6.0
 21
2.182586566699967
 31
0.0
  0
LINE
  5
49A2
330
22
100
AcDbEntity
  8
1
100
AcDbLine
 10
48.60271400120002
 20
0.0
 30
0.0
 11
50.0
 21
0.0
 31
0.0
  0
LINE
  5
49A3
330
22
100
AcDbEntity
  8
4
100
AcDbLine
 10
52.1728116808141
 20
0.0
 30
0.0
 11
0.0
 21
0.0
 31
0.0
  0
LWPOLYLINE
  5
49A4
330
22
100
AcDbEntity
  8
1
100
AcDbPolyline
 90
        9
 70
     0
 43
0.0
 10
21.15470053840002
 20
3.081235713099999
 10
20.91179863640002
 20
3.089483969800028
 10
20.66800462899999
 20
3.119061896900007
 10
20.41912921840003
 20
3.170189371500043
 10
20.17774029850003
 20
3.242206762399973
 10
19.95421469800001
 20
3.335116790599954
 10
19.75093631560003
 20
3.447152275699977
 10
19.57447834840002
 20
3.576326159800032
 10
19.4226497308
 20
3.723300795500051
  0
LWPOLYLINE
  5
49AF
330
22
100
AcDbEntity
  8
1
100
AcDbPolyline
 90
        3
 70
     0
 43
0.0
 10
9.565824722800016
 20
5.467686277099971
 10
10.14083842560001
 20
5.39326798090002
 10
10.89163851239999
 20
5.358143868900015
  0
LWPOLYLINE
  5
49B4
330
22
100
AcDbEntity
  8
1
100
AcDbPolyline
 90
        8
 70
     0
 43
0.0
 10
48.37002151810003
 20
-5.541027132199985
 10
48.38924301830002
 20
-5.552727248599978
 10
48.42112480030002
 20
-5.60130717559997
 10
48.45438092180001
 20
-5.683779345499942
 10
48.48827276200001
 20
-5.79794108989995
 10
48.52221680970001
 20
-5.941099265599973
 10
48.55527963200001
 20
-6.109398085699979
 10
48.58777237320001
 20
-6.304122812499997
  0
LINE
  5
49BE
330
22
100
AcDbEntity
  8
1
100
AcDbLine
 10
49.0869372981
 20
-16.71906027689999
 30
0.0
 11
48.6027140022
 21
-16.19715971459999
 31
0.0
  0
LINE
  5
49BF
330
22
100
AcDbEntity
  8
1
100
AcDbLine
 10
49.84740689370003
 20
-17.18847703849997
 30
0.0
 11
49.27090396229999
 21
-16.43918895289999
 31
0.0
  0
LINE
  5
49C0
330
22
100
AcDbEntity
  8
1
100
AcDbLine
 10
49.37041927090001
 20
-17.66662941639998
 30
0.0
 11
48.79391633940002
 21
-16.91734133089994
 31
0.0
  0
LWPOLYLINE
  5
49C1
330
22
100
AcDbEntity
  8
1
100
AcDbPolyline
 90
       11
 70
     0
 43
0.0
 10
40.03792638610002
 20
-16.71906027689999
 10
40.05134454180001
 20
-16.75494354529996
 10
40.06804232920001
 20
-16.78770441099999
 10
40.08814006740002
 20
-16.81753334559999
 10
40.11127679870003
 20
-16.84385893400002
 10
40.13719078730002
 20
-16.86614507360002
 10
40.16570468590003
 20
-16.88447629839993
 10
40.19652666979999
 20
-16.89875062199996
 10
40.22973843480002
 20
-16.90899150349997
 10
40.26532245430002
 20
-16.91518708940003
 10
40.30328457050001
 20
-16.91734133089994
  0
LWPOLYLINE
  5
49CE
330
22
100
AcDbEntity
  8
1
100
AcDbPolyline
 90
        7
 70
     0
 43
0.0
 10
48.73651511670002
 20
7.711867213300024
 10
48.73738433139999
 20
7.712233812700048
 10
48.73808378760003
 20
7.712591595700018
 10
48.73855701550002
 20
7.712842026600014
 10
48.73897342430002
 20
7.713280712799985
 10
48.73950242320001
 20
7.714203262099999
 10
48.74008754240003
 20
7.715511138599993
  0
LINE
  5
49D7
330
22
100
AcDbEntity
  8
4
100
AcDbLine
 10
15.07836036059998
 20
0.6811914691999732
 30
0.0
 11
52.71994769418836
 21
-8.095088750252728
 31
0.0
  0
LINE
  5
49D8
330
22
100
AcDbEntity
  8
SK1
100
AcDbLine
 10
-1.304456457500009
 20
8.313629669500073
 30
0.0
 11
-2.0
 21
8.5
 31
0.0
  0
LWPOLYLINE
  5
49D9
330
22
100
AcDbEntity
  8
1
100
AcDbPolyline
 90
        3
 70
     0
 43
0.0
 10
9.299161381299995
 20
5.57420886760002
 10
9.617190683100005
 20
5.486828089500079
 10
9.87192487850001
 20
5.428070782799977
  0
LWPOLYLINE
  5
49DE
330
22
100
AcDbEntity
  8
1
100
AcDbPolyline
 90
       31
 70
     0
 43
0.0
 10
16.6118965306
 20
5.915406900900052
 10
16.3460895517
 20
6.050321815699987
 10
16.08586050630001
 20
6.194879141099988
 10
15.83103394780002
 20
6.349189547399987
 10
15.58213621549998
 20
6.512921023400053
 10
15.33952707239999
 20
6.685865101100034
 10
15.10353080129999
 20
6.867761820700025
 10
14.8744902187
 20
7.058376205500053
 10
14.65270948739999
 20
7.257424839300028
 10
14.43851297419999
 20
7.46464776480002
 10
14.2321828833
 20
7.679739629500033
 10
14.03402330170002
 20
7.902416978000019
 10
13.84429294700001
 20
8.132354161200055
 10
13.66327398839999
 20
8.369245722000073
 10
13.49120015739998
 20
8.612747629300031
 10
13.3283300747
 20
8.862534243499965
 10
13.17487124190001
 20
9.118244933300047
 10
13.03105730620001
 20
9.379535624800041
 10
12.8970684516
 20
9.646031006500038
 10
12.77311226239999
 20
9.917370031699988
 10
12.6593401842
 20
10.19316583120002
 10
12.5559319665
 20
10.4730441785
 10
12.46301028100001
 20
10.75660609940001
 10
12.3807264683
 20
11.04346507629998
 10
12.3091742711
 20
11.3332095142
 10
12.24847858410001
 20
11.62543011040003
 10
12.1986972912
 20
11.91973347090004
 10
12.15991775270001
 20
12.21578544350001
 10
12.13217643360002
 20
12.51299899950004
 10
12.115547117
 20
12.81058842459998
 10
12.11000520850001
 20
13.10881562360004
  0
LWPOLYLINE
  5
49FF
330
22
100
AcDbEntity
  8
1
100
AcDbPolyline
 90
       11
 70
     0
 43
0.0
 10
39.76249444460001
 20
7.70501118230004
 10
39.67749828280003
 20
7.675701129999993
 10
39.58543529030004
 20
7.630400317900011
 10
39.48652023480003
 20
7.586445094999987
 10
39.38230917100003
 20
7.548819109800035
 10
39.27395788070001
 20
7.506259906799982
 10
39.16273719450004
 20
7.463185613900009
 10
39.05004533620001
 20
7.420129164900004
 10
38.93717289330002
 20
7.377576333000035
 10
38.82542871770002
 20
7.336020835400006
 10
38.71617505520004
 20
7.295976651900048
  0
LINE
  5
4A0C
330
22
100
AcDbEntity
  8
1
100
AcDbLine
 10
49.22420602600002
 20
-6.433506439700011
 30
0.0
 11
48.6027140022
 21
-6.433506439700011
 31
0.0
  0
LINE
  5
4A0D
330
22
100
AcDbEntity
  8
1
100
AcDbLine
 10
49.44222206280002
 20
-6.60844871799992
 30
0.0
 11
48.6027140022
 21
-6.60844871799992
 31
0.0
  0
LINE
  5
4A0E
330
22
100
AcDbEntity
  8
1
100
AcDbLine
 10
49.30463826270003
 20
-6.6609419161
 30
0.0
 11
48.6027140022
 21
-6.6609419161
 31
0.0
  0
LINE
  5
4A0F
330
22
100
AcDbEntity
  8
SK1
100
AcDbLine
 10
-7.0
 20
-6.675000000000011
 30
0.0
 11
-8.960786437600006
 21
-6.675000000000011
 31
0.0
  0
LINE
  5
4A10
330
22
100
AcDbEntity
  8
SK1
100
AcDbLine
 10
-23.5
 20
-7.0
 30
0.0
 11
-9.699999999999988
 21
-7.0
 31
0.0
  0
LINE
  5
4A11
330
22
100
AcDbEntity
  8
1
100
AcDbLine
 10
48.79391633940002
 20
-7.449671548499964
 30
0.0
 11
48.6027140022
 21
-7.449671548499964
 31
0.0
  0
LINE
  5
4A12
330
22
100
AcDbEntity
  8
SK1
100
AcDbLine
 10
-10.69999999999999
 20
-8.0
 30
0.0
 11
-22.5
 21
-8.0
 31
0.0
  0
LINE
  5
4A13
330
22
100
AcDbEntity
  8
SK1
100
AcDbLine
 10
-0.2999999999999829
 20
-8.300000000000011
 30
0.0
 11
-1.200928839499994
 21
-8.300000000000011
 31
0.0
  0
LWPOLYLINE
  5
4A14
330
22
100
AcDbEntity
  8
1
100
AcDbPolyline
 90
        6
 70
     0
 43
0.0
 10
6.6711780368
 20
6.542705243600039
 10
7.291534699700008
 20
6.201041068000051
 10
7.954541239200011
 20
5.909293463799997
 10
8.6624276844
 20
5.671366395800021
 10
9.397628822099989
 20
5.497420288000057
 10
9.565824722800016
 20
5.467686277099971
  0
LWPOLYLINE
  5
4A1C
330
22
100
AcDbEntity
  8
1
100
AcDbPolyline
 90
        5
 70
     0
 43
0.0
 10
39.38486178710002
 20
-17.66662941639998
 10
39.3665644454
 20
-17.6476630564
 10
39.34534710460003
 20
-17.62737375349997
 10
39.32136772900003
 20
-17.60552321879998
 10
39.267286458
 20
-17.55717918940002
  0
LWPOLYLINE
  5
4A23
330
22
100
AcDbEntity
  8
1
100
AcDbPolyline
 90
       11
 70
     0
 43
0.0
 10
19.01850454240002
 20
4.192331238300027
 10
18.89501581920001
 20
4.321517894300029
 10
18.75605483620001
 20
4.439108385999986
 10
18.60053047069999
 20
4.54555197860003
 10
18.43171609020004
 20
4.639500876699969
 10
18.2519954155
 20
4.719906827600027
 10
18.06294626330003
 20
4.786320467600035
 10
17.8640102388
 20
4.838068697600022
 10
17.66397969730002
 20
4.87477447110001
 10
17.47253664060002
 20
4.895761198599984
 10
17.2864537348
 20
4.901254409999978
  0
LWPOLYLINE
  5
4A30
330
22
100
AcDbEntity
  8
1
100
AcDbPolyline
 90
        7
 70
     0
 43
0.0
 10
39.38486178710002
 20
-17.66662941639998
 10
39.39181902680002
 20
-17.67393235099996
 10
39.39916616350001
 20
-17.68094545370002
 10
39.40689126570001
 20
-17.68767051099996
 10
39.41503012750002
 20
-17.69410216349996
 10
39.42361854289999
 20
-17.70023505220001
 10
39.43264458050001
 20
-17.70607096339995
  0
LWPOLYLINE
  5
4A39
330
22
100
AcDbEntity
  8
1
100
AcDbPolyline
 90
        7
 70
     0
 43
0.0
 10
19.4226497308
 20
3.723300795500051
 10
19.3529033401
 20
3.802945587200042
 10
19.28411448650001
 20
3.881998970300003
 10
19.21628503900001
 20
3.960458893199984
 10
19.149409391
 20
4.038331510200066
 10
19.08348193580002
 20
4.115622975800022
 10
19.01850454240002
 20
4.192331238300027
  0
LWPOLYLINE
  5
4A42
330
22
100
AcDbEntity
  8
1
100
AcDbPolyline
 90
        7
 70
     0
 43
0.0
 10
38.85952958760004
 20
-17.13155648199995
 10
38.86668164830002
 20
-17.14193781559998
 10
38.87419821980001
 20
-17.15194909799993
 10
38.88208151770001
 20
-17.16157887150001
 10
38.89032489520003
 20
-17.17086150909995
 10
38.89892170550002
 20
-17.17983138400001
 10
38.90787416430004
 20
-17.18847703849997
  0
LINE
  5
4A4B
330
22
100
AcDbEntity
  8
1
100
AcDbLine
 10
21.15470053840002
 20
3.081235713099999
 30
0.0
 11
21.15470053840002
 21
-17.18703628790001
 31
0.0
  0
LINE
  5
4A4C
330
22
100
AcDbEntity
  8
SK1
100
AcDbLine
 10
-2.0
 20
-8.5
 30
0.0
 11
-5.599999999999994
 21
-8.5
 31
0.0
  0
LWPOLYLINE
  5
4A76
330
22
100
AcDbEntity
  8
1
100
AcDbPolyline
 90
        7
 70
     0
 43
0.0
 10
49.44222206280002
 20
-17.75856416150003
 10
49.42012514740003
 20
-17.7489895425
 10
49.39776355780003
 20
-17.7397465011
 10
49.37520180640001
 20
-17.7308362343
 10
49.35224635650001
 20
-17.72225515150001
 10
49.32870367110002
 20
-17.71399966229995
 10
49.30463826270003
 20
-17.70607096339995
  0
LWPOLYLINE
  5
4A7F
330
22
100
AcDbEntity
  8
1
100
AcDbPolyline
 90
       35
 70
     0
 43
0.0
 10
6.6711780368
 20
6.542705243600039
 10
6.452739492999995
 20
6.684685248600032
 10
6.241619093300016
 20
6.832556322399966
 10
6.037792273600018
 20
6.986236082099992
 10
5.84133272690002
 20
7.14539206720002
 10
5.652288245800008
 20
7.309733145800009
 10
5.470711966700008
 20
7.479004422300022
 10
5.296667788200011
 20
7.652905314199983
 10
5.130171217099984
 20
7.831228670299992
 10
4.971226364199992
 20
8.013748234800061
 10
4.81993131690001
 20
8.200155151800004
 10
4.676434767399996
 20
8.390023711900028
 10
4.540589012499992
 20
8.583418739800038
 10
4.412322820300005
 20
8.780160537100016
 10
4.2915554697
 20
8.980422556600046
 10
4.178068507000006
 20
9.184446427799969
 10
4.072203898700024
 20
9.391629772200019
 10
3.974219759699991
 20
9.601467952399957
 10
3.884149191700004
 20
9.813808205399993
 10
3.802108897599993
 20
10.02824582430003
 10
3.728106187999998
 20
10.24484718160005
 10
3.662132375800013
 20
10.46356448419999
 10
3.604352156499999
 20
10.68400064280001
 10
3.554894965699986
 20
10.90579348169996
 10
3.513857895800015
 20
11.12848381370003
 10
3.481371289799994
 20
11.35171040580002
 10
3.457464832800013
 20
11.57448461289999
 10
3.442266774199993
 20
11.7958542581
 10
3.435611764100002
 20
12.01520587470003
 10
3.437475835100002
 20
12.23185496309997
 10
3.447563089599981
 20
12.44476709640003
 10
3.465734868700025
 20
12.65299628480005
 10
3.4914954889
 20
12.85544793040003
 10
3.524235309099992
 20
13.0509970201
 10
3.564157542999993
 20
13.23875115739997
  0
LWPOLYLINE
  5
4AA4
330
22
100
AcDbEntity
  8
1
100
AcDbPolyline
 90
       14
 70
     0
 43
0.0
 10
39.267286458
 20
-17.55717918940002
 10
39.23816050120001
 20
-17.53080567879999
 10
39.20829844910003
 20
-17.50313553159998
 10
39.17813789490003
 20
-17.47435544429999
 10
39.14820509200001
 20
-17.44480590299997
 10
39.11849186469999
 20
-17.41455907109997
 10
39.08906571610004
 20
-17.3836042986
 10
39.06027954460001
 20
-17.35247591640001
 10
39.03233743100003
 20
-17.32163910339994
 10
39.00536383740001
 20
-17.29154989549994
 10
38.9793579931
 20
-17.26267327260001
 10
38.95446890390002
 20
-17.23553538150003
 10
38.93072372910001
 20
-17.21075165799993
 10
38.90787416430004
 20
-17.18847703849997
  0
LINE
  5
4AB4
330
22
100
AcDbEntity
  8
1
100
AcDbLine
 10
19.4226497308
 20
-16.1807853615
 30
0.0
 11
19.4226497308
 21
3.723300795500051
 31
0.0
  0
LINE
  5
4AB5
330
22
100
AcDbEntity
  8
1
100
AcDbLine
 10
19.01850454240002
 20
4.192331238300027
 30
0.0
 11
19.01850454240002
 21
-15.47845060349999
 31
0.0
  0
LINE
  5
4AB6
330
22
100
AcDbEntity
  8
1
100
AcDbLine
 10
17.2864537348
 20
-14.46961808139997
 30
0.0
 11
17.2864537348
 21
4.901254409999978
 31
0.0
  0
LINE
  5
4AB7
330
22
100
AcDbEntity
  8
1
100
AcDbLine
 10
17.0
 20
-13.84081037970003
 30
0.0
 11
17.0
 21
2.182586566699967
 31
0.0
  0
LWPOLYLINE
  5
4AB8
330
22
100
AcDbEntity
  8
1
100
AcDbPolyline
 90
        7
 70
     0
 43
0.0
 10
39.76638597470003
 20
16.69954940360003
 10
39.76551676000003
 20
16.69918280420001
 10
39.76481730380001
 20
16.69882502120003
 10
39.7643440759
 20
16.69857459040003
 10
39.76392766710001
 20
16.69813590410007
 10
39.76339866820001
 20
16.69721335480005
 10
39.76281354900002
 20
16.6959054783
  0
LWPOLYLINE
  5
4AC1
330
22
100
AcDbEntity
  8
1
100
AcDbPolyline
 90
       11
 70
     0
 43
0.0
 10
9.269923324500012
 20
-14.46916180169995
 10
9.555695213600017
 20
-14.46341773220001
 10
9.844276717199988
 20
-14.45801324169997
 10
10.13594621000001
 20
-14.45310637879998
 10
10.43003379219999
 20
-14.44885240580004
 10
10.726140789
 20
-14.44538092440001
 10
11.02373189970001
 20
-14.44278934239997
 10
11.32239287459998
 20
-14.44115552900001
 10
11.6213618859
 20
-14.44051795370001
 10
11.9196265338
 20
-14.44089226519998
 10
12.21752428490001
 20
-14.44226911830003
  0
LINE
  5
4ACE
330
22
100
AcDbEntity
  8
1
100
AcDbLine
 10
40.17098057770001
 20
-16.18862311970002
 30
0.0
 11
40.49480857120002
 21
-16.18350643970001
 31
0.0
  0
LWPOLYLINE
  5
4ACF
330
22
100
AcDbEntity
  8
1
100
AcDbPolyline
 90
        8
 70
     0
 43
0.0
 10
7.287415257100008
 20
-14.49999925729997
 10
7.359856579300014
 20
-14.49990850929998
 10
7.621107538899991
 20
-14.49845320139997
 10
7.886645119999997
 20
-14.4955018851
 10
8.156333814899994
 20
-14.49138687010003
 10
8.429735122799996
 20
-14.48642117269997
 10
8.706643165900004
 20
-14.48089076229996
 10
9.269923324500012
 20
-14.46916180169995
  0
LINE
  5
4ADA
330
22
100
AcDbEntity
  8
1
100
AcDbLine
 10
17.0
 20
-13.84081037970003
 30
0.0
 11
6.0
 21
-13.84081037970003
 31
0.0
  0
LINE
  5
4ADB
330
22
100
AcDbEntity
  8
1
100
AcDbLine
 10
7.290015838500011
 20
-14.5
 30
0.0
 11
0.5
 21
-14.5
 31
0.0
  0
LINE
  5
4ADC
330
22
100
AcDbEntity
  8
1
100
AcDbLine
 10
48.6027140022
 20
-16.18350643970001
 30
0.0
 11
40.49480857120002
 21
-16.18350643970001
 31
0.0
  0
LINE
  5
4ADD
330
22
100
AcDbEntity
  8
1
100
AcDbLine
 10
40.59496156780002
 20
-16.19715971459999
 30
0.0
 11
48.6027140022
 21
-16.19715971459999
 31
0.0
  0
LWPOLYLINE
  5
4ADE
330
22
100
AcDbEntity
  8
1
100
AcDbPolyline
 90
        7
 70
     0
 43
0.0
 10
17.2864537348
 20
-14.46961808139997
 10
16.4406571273
 20
-14.46566190940001
 10
15.59523869520001
 20
-14.46146481639999
 10
14.7501872791
 20
-14.45702668460001
 10
13.90553635700001
 20
-14.45234786790001
 10
13.0613194066
 20
-14.44742872069997
 10
12.21752526860001
 20
-14.44226912479996
  0
LWPOLYLINE
  5
4B07
330
22
100
AcDbEntity
  8
1
100
AcDbPolyline
 90
       21
 70
     0
 43
0.0
 10
17.2864537348
 20
-14.46961808139997
 10
17.3908261748
 20
-14.4728064217
 10
17.49487776120003
 20
-14.48146760319997
 10
17.59883440790003
 20
-14.49563209349998
 10
17.70201837370001
 20
-14.51520848960001
 10
17.80390349470002
 20
-14.54015653929997
 10
17.90426095350003
 20
-14.5703532576
 10
18.00267449530003
 20
-14.60565553399999
 10
18.09918026860003
 20
-14.64608349309998
 10
18.19385279390002
 20
-14.69169190359997
 10
18.28616070020001
 20
-14.74223372309996
 10
18.37570378080002
 20
-14.79757401760003
 10
18.46216306370002
 20
-14.85743123139997
 10
18.5450587226
 20
-14.9214662343
 10
18.62447311490001
 20
-14.98971681709997
 10
18.70043815990001
 20
-15.06220343389998
 10
18.77262534600004
 20
-15.13863896430001
 10
18.8408164489
 20
-15.21888912409997
 10
18.90471252510002
 20
-15.30251585849998
 10
18.9638954289
 20
-15.38897599969999
 10
19.01850454240002
 20
-15.47845060349999
  0
LWPOLYLINE
  5
4B1E
330
22
100
AcDbEntity
  8
1
100
AcDbPolyline
 90
       17
 70
     0
 43
0.0
 10
16.23991590700001
 20
5.358138060700014
 10
16.2399684813
 20
5.359359311699961
 10
16.24372655420001
 20
5.386537155700011
 10
16.2499958944
 20
5.414899073400022
 10
16.258935167
 20
5.444591619500044
 10
16.27059237559999
 20
5.475842199100043
 10
16.285160456
 20
5.508685014899981
 10
16.30280914069999
 20
5.5432709488
 10
16.3236458472
 20
5.579511836100039
 10
16.3478174439
 20
5.617383949000043
 10
16.37537438520002
 20
5.656773075700016
 10
16.4064382567
 20
5.697593659599988
 10
16.4409459709
 20
5.73963958820002
 10
16.478960771
 20
5.782743348799954
 10
16.52023504229999
 20
5.826599655999984
 10
16.5645216975
 20
5.87083880489996
 10
16.61189963789999
 20
5.915406904700034
  0
LINE
  5
4B31
330
22
100
AcDbEntity
  8
1
100
AcDbLine
 10
19.4226497308
 20
16.16455471660003
 30
0.0
 11
19.01850454240002
 21
15.46183371239999
 31
0.0
  0
LWPOLYLINE
  5
4B32
330
22
100
AcDbEntity
  8
1
100
AcDbPolyline
 90
       21
 70
     0
 43
0.0
 10
19.4226497308
 20
16.16455471660003
 10
19.4772714179
 20
16.25406200040004
 10
19.53645888800003
 20
16.3405392217
 10
19.60035146930002
 20
16.42416616840006
 10
19.6685311777
 20
16.50440347669996
 10
19.74069869700002
 20
16.58081572940005
 10
19.81663735180001
 20
16.65327087459997
 10
19.89601907510001
 20
16.7214842386
 10
19.97887872430002
 20
16.78547826950006
 10
20.06530114230003
 20
16.84529348820001
 10
20.15480830550001
 20
16.9005910024
 10
20.24708335850002
 20
16.95109045200007
 10
20.3417276385
 20
16.99665676150005
 10
20.43821091300001
 20
17.03704320489999
 10
20.53661103620004
 20
17.07230437370003
 10
20.63696653490001
 20
17.1024606958
 10
20.73886515960001
 20
17.12736793599998
 10
20.8420823097
 20
17.14690293249998
 10
20.94609356590002
 20
17.16102289290001
 10
21.05022473140002
 20
17.16963348980005
 10
21.15470053840002
 20
17.17276616559997
  0
LWPOLYLINE
  5
4B49
330
22
100
AcDbEntity
  8
1
100
AcDbPolyline
 90
        7
 70
     0
 43
0.0
 10
39.43264458050001
 20
-17.70607096339995
 10
39.39592698620004
 20
-17.71400165739999
 10
39.3592150879
 20
-17.72225824359998
 10
39.3225758506
 20
-17.73083943120002
 10
39.285808379
 20
-17.73974909239996
 10
39.24871177770001
 20
-17.74899109940003
 10
39.21135301190003
 20
-17.75856416150003
  0
LWPOLYLINE
  5
4B52
330
22
100
AcDbEntity
  8
1
100
AcDbPolyline
 90
       16
 70
     0
 43
0.0
 10
36.1794841446
 20
-17.19999220489995
 10
36.21176932150002
 20
-17.1959759165
 10
36.31274607780003
 20
-17.1659160396
 10
36.4622194497
 20
-17.11071308970003
 10
36.65097239230002
 20
-17.03596929470001
 10
36.87157815440003
 20
-16.9478129272
 10
37.12173820309999
 20
-16.85094496839997
 10
37.39688833470001
 20
-16.74979932679997
 10
37.69639881110004
 20
-16.64815479290001
 10
38.0197136704
 20
-16.54886936619999
 10
38.36204738010002
 20
-16.45602409919996
 10
38.72081523630001
 20
-16.37321546909993
 10
39.08885879120004
 20
-16.30317483279998
 10
39.46258060740002
 20
-16.24889175970003
 10
39.82871294990003
 20
-16.21070862159996
 10
40.17098057770001
 20
-16.18862311970002
  0
LWPOLYLINE
  5
4B64
330
22
100
AcDbEntity
  8
1
100
AcDbPolyline
 90
       39
 70
     0
 43
0.0
 10
49.88826469870002
 20
-17.31143233489996
 10
49.89402114670003
 20
-17.31077069089997
 10
49.89957237800002
 20
-17.30993634639998
 10
49.90491475430002
 20
-17.30892664719999
 10
49.91005919010001
 20
-17.30774955589993
 10
49.91501315530001
 20
-17.3064109151
 10
49.91978334470002
 20
-17.30491443069996
 10
49.924377114
 20
-17.30326478320001
 10
49.9287999505
 20
-17.30146489229997
 10
49.9330581575
 20
-17.29951855049995
 10
49.93715664180001
 20
-17.29742781979996
 10
49.94110085210002
 20
-17.2951957189
 10
49.94489546660003
 20
-17.29282317069999
 10
49.94854541220002
 20
-17.29031235489998
 10
49.95205539190002
 20
-17.28766252059995
 10
49.9554303511
 20
-17.28487448179999
 10
49.9586744897
 20
-17.28194572289999
 10
49.96179254500003
 20
-17.27887542510001
 10
49.9647878504
 20
-17.27565931099997
 10
49.96766440270002
 20
-17.27229510669997
 10
49.97042494840002
 20
-17.26877598229993
 10
49.97307285510001
 20
-17.26509784379999
 10
49.9756102563
 20
-17.26125020949996
 10
49.97803968720001
 20
-17.25722716059999
 10
49.9803633093
 20
-17.25301091369999
 10
49.9825840323
 20
-17.2485904399
 10
49.98470214630001
 20
-17.24393955709996
 10
49.98671971450002
 20
-17.23904148879995
 10
49.98863432700002
 20
-17.23385699049993
 10
49.99044654990001
 20
-17.22836159319996
 10
49.9921495179
 20
-17.22249419489998
 10
49.99374197780003
 20
-17.21621643199995
 10
49.99520765940002
 20
-17.20943562099995
 10
49.99654268720002
 20
-17.20206670999999
 10
49.99770862380001
 20
-17.19404844059994
 10
49.99868101700002
 20
-17.18520857479996
 10
49.99941403530002
 20
-17.17579499930002
 10
49.99984694850002
 20
-17.16602199709996
 10
50.0
 20
-17.15581814049994
  0
LWPOLYLINE
  5
4B8D
330
22
100
AcDbEntity
  8
1
100
AcDbPolyline
 90
       15
 70
     0
 43
0.0
 10
49.22420602600002
 20
-17.93350643970001
 10
49.3125833722
 20
-17.92844839650001
 10
49.39845353169999
 20
-17.91392519559997
 10
49.48229677290001
 20
-17.88974034349996
 10
49.56267229030004
 20
-17.85648332099998
 10
49.6385601847
 20
-17.81446125620005
 10
49.70917800559999
 20
-17.76432471309999
 10
49.7736180114
 20
-17.70656480779996
 10
49.83123617610002
 20
-17.64196701190002
 10
49.88124906960002
 20
-17.57117730900001
 10
49.92316716240003
 20
-17.49510528000002
 10
49.95634191490001
 20
-17.41453519930002
 10
49.98046692810001
 20
-17.3304889707
 10
49.99495430080003
 20
-17.24441033900001
 10
50.0
 20
-17.15581805599998
  0
LWPOLYLINE
  5
4B9E
330
22
100
AcDbEntity
  8
1
100
AcDbPolyline
 90
       11
 70
     0
 43
0.0
 10
48.79391633940002
 20
-16.91734133089994
 10
48.8321652255
 20
-16.91518840539998
 10
48.8685999239
 20
-16.90899788699994
 10
48.90322597810001
 20
-16.89876615919996
 10
48.93602675830002
 20
-16.88450407129994
 10
48.96708831649999
 20
-16.86618963169997
 10
48.99610815150001
 20
-16.84391774549993
 10
49.02292625720003
 20
-16.817598411
 10
49.04720120080003
 20
-16.78776435719999
 10
49.06848886850003
 20
-16.75498115349995
 10
49.0869372981
 20
-16.71906027689999
  0
LWPOLYLINE
  5
4BAB
330
22
100
AcDbEntity
  8
1
100
AcDbPolyline
 90
       39
 70
     0
 43
0.0
 10
49.22420610919999
 20
-17.93350643970001
 10
49.23447029720001
 20
-17.93326596859998
 10
49.2444497449
 20
-17.93259027339997
 10
49.25422153990002
 20
-17.93144837720001
 10
49.26355441980001
 20
-17.92993321109998
 10
49.27219364610002
 20
-17.92811446659993
 10
49.28028673400001
 20
-17.92603088610002
 10
49.28786864860001
 20
-17.92374238580004
 10
49.295022302
 20
-17.92125513699994
 10
49.3018296948
 20
-17.91859464870003
 10
49.30832852700001
 20
-17.91576282419998
 10
49.31457573150002
 20
-17.91277029619999
 10
49.32059560959999
 20
-17.90961638559997
 10
49.32642534230001
 20
-17.90630511339998
 10
49.33208322270002
 20
-17.90283301269994
 10
49.33759571700003
 20
-17.89919951069999
 10
49.34297548700005
 20
-17.89539994559999
 10
49.3482416567
 20
-17.89143074499998
 10
49.35340130530002
 20
-17.88728806860001
 10
49.35846586880001
 20
-17.8829686775
 10
49.3634414005
 20
-17.87846719449999
 10
49.3683362877
 20
-17.8737792393
 10
49.37315496450003
 20
-17.8688985814
 10
49.37790349010004
 20
-17.86382003129995
 10
49.38258537620004
 20
-17.85853608529999
 10
49.38720548350002
 20
-17.85304013609999
 10
49.39176582340002
 20
-17.84732430499997
 10
49.39626985520002
 20
-17.84138107860002
 10
49.40071809620002
 20
-17.83520275289999
 10
49.40511221600002
 20
-17.82878196569999
 10
49.4094522167
 20
-17.82211017779997
 10
49.4137387188
 20
-17.8151797507
 10
49.41797153670001
 20
-17.80798061919995
 10
49.4221508892
 20
-17.80050402220001
 10
49.42627618390003
 20
-17.79273840940004
 10
49.43034746440003
 20
-17.78467321409994
 10
49.43436304170001
 20
-17.77629672469999
 10
49.4383210318
 20
-17.76759180290003
 10
49.44222206280002
 20
-17.75856416150003
  0
LINE
  5
4BD4
330
22
100
AcDbEntity
  8
1
100
AcDbLine
 10
40.30328457050001
 20
-16.91734133089994
 30
0.0
 11
48.79391633940002
 21
-16.91734133089994
 31
0.0
  0
LINE
  5
4BD5
330
22
100
AcDbEntity
  8
1
100
AcDbLine
 10
36.19698228850001
 20
-17.19999999999999
 30
0.0
 11
30.7027259532
 21
-17.19999999999999
 31
0.0
  0
LINE
  5
4BD6
330
22
100
AcDbEntity
  8
1
100
AcDbLine
 10
39.43264458050001
 20
-17.70607096339995
 30
0.0
 11
49.30463826270003
 21
-17.70607096339995
 31
0.0
  0
LINE
  5
4BD7
330
22
100
AcDbEntity
  8
1
100
AcDbLine
 10
39.21135301190003
 20
-17.75856416150003
 30
0.0
 11
49.44222206280002
 21
-17.75856416150003
 31
0.0
  0
LINE
  5
4BD8
330
22
100
AcDbEntity
  8
1
100
AcDbLine
 10
39.30380739600003
 20
-17.93350643970001
 30
0.0
 11
49.22420602600002
 21
-17.93350643970001
 31
0.0
  0
LWPOLYLINE
  5
4BD9
330
22
100
AcDbEntity
  8
1
100
AcDbPolyline
 90
        4
 70
     0
 43
0.0
 10
30.70258607250003
 20
-17.20000000519997
 10
28.65475390950002
 20
-17.19940374909993
 10
24.90455102990001
 20
-17.1952198953
 10
21.15470053840002
 20
-17.18703628790001
  0
LWPOLYLINE
  5
4BDF
330
22
100
AcDbEntity
  8
1
100
AcDbPolyline
 90
       21
 70
     0
 43
0.0
 10
19.4226497308
 20
-16.1807853615
 10
19.4772714179
 20
-16.27023960979994
 10
19.53645888800003
 20
-16.35665776120004
 10
19.60035146930002
 20
-16.44021946079999
 10
19.6685311777
 20
-16.5203857729
 10
19.74069869700002
 20
-16.59672157919999
 10
19.81663735170002
 20
-16.66909507239995
 10
19.89601907500002
 20
-16.7372219357
 10
19.9788787242
 20
-16.80112457799993
 10
20.06530114230003
 20
-16.86084342309999
 10
20.15480830550001
 20
-16.9160401103
 10
20.24708335850002
 20
-16.96643462359998
 10
20.3417276385
 20
-17.0118923535
 10
20.43821091289999
 20
-17.05216718359998
 10
20.53661103620004
 20
-17.08731361870002
 10
20.63696653480002
 20
-17.11735204280001
 10
20.73886515960001
 20
-17.14213870199995
 10
20.8420823097
 20
-17.16155068979992
 10
20.94609356590002
 20
-17.17554584729993
 10
21.05022473140002
 20
-17.18403065569998
 10
21.15470053840002
 20
-17.18703628790001
  0
LINE
  5
4BF6
330
22
100
AcDbEntity
  8
1
100
AcDbLine
 10
19.4226497308
 20
-16.1807853615
 30
0.0
 11
19.01850454240002
 21
-15.47845060349999
 31
0.0
  0
LWPOLYLINE
  5
4BF7
330
22
100
AcDbEntity
  8
1
100
AcDbPolyline
 90
        7
 70
     0
 43
0.0
 10
12.11000520850001
 20
13.10881562360004
 10
12.11298907220001
 20
13.32780096919998
 10
12.12195455420001
 20
13.5465173
 10
12.13690836719999
 20
13.76503850860001
 10
12.15783037379998
 20
13.98314291720004
 10
12.1847004368
 20
14.20060884830002
 10
12.21752526860001
 20
14.4175101943
  0
LINE
  5
4C00
330
22
100
AcDbEntity
  8
1
100
AcDbLine
 10
10.94653444810001
 20
5.358138060700014
 30
0.0
 11
10.88960767599999
 21
4.901254409999978
 31
0.0
  0
LINE
  5
4C01
330
22
100
AcDbEntity
  8
1
100
AcDbLine
 10
6.0
 20
-13.84081037970003
 30
0.0
 11
6.0
 21
2.182586566699967
 31
0.0
  0
LINE
  5
4C02
330
22
100
AcDbEntity
  8
SK1
100
AcDbLine
 10
-9.667893218799974
 20
-6.967893218799986
 30
0.0
 11
-10.69999999999999
 21
-8.0
 31
0.0
  0
LINE
  5
4C03
330
22
100
AcDbEntity
  8
SK1
100
AcDbLine
 10
-5.599999999999994
 20
8.5
 30
0.0
 11
-6.0
 21
8.26905989239998
 31
0.0
  0
LINE
  5
4C04
330
22
100
AcDbEntity
  8
SK1
100
AcDbLine
 10
-5.599999999999994
 20
-8.5
 30
0.0
 11
-6.0
 21
-8.269059892299935
 31
0.0
  0
LINE
  5
4C05
330
22
100
AcDbEntity
  8
SK1
100
AcDbLine
 10
-9.667893218799974
 20
6.967893218899973
 30
0.0
 11
-10.69999999999999
 21
8.0
 31
0.0
  0
LWPOLYLINE
  5
4C06
330
22
100
AcDbEntity
  8
1
100
AcDbPolyline
 90
       32
 70
     0
 43
0.0
 10
3.595778255600009
 20
13.23350058379998
 10
3.602595541400006
 20
12.90295946150002
 10
3.623035751600014
 20
12.57299970270003
 10
3.657063964299993
 20
12.2441850381
 10
3.704622043
 20
11.91707724200006
 10
3.765628735500001
 20
11.5922351726
 10
3.839979812800009
 20
11.2702138171
 10
3.927548247499998
 20
10.95156334370006
 10
4.028184430200013
 20
10.63682816120001
 10
4.1417164259
 20
10.32654598959999
 10
4.267950266900015
 20
10.02124694060001
 10
4.406670284799986
 20
9.721452612600046
 10
4.5576394789
 20
9.427675199199995
 10
4.720599920799998
 20
9.140416614100047
 10
4.895273195300006
 20
8.86016763379996
 10
5.081360876100006
 20
8.587407059000042
 10
5.278545035500002
 20
8.322600896500034
 10
5.486488787599995
 20
8.066201563300012
 10
5.704836864100002
 20
7.818647113300016
 10
5.933216220899993
 20
7.580360489199961
 10
6.171236675699987
 20
7.351748799599988
 10
6.418491574500023
 20
7.133202623700015
 10
6.674558486600005
 20
6.925095344100043
 10
6.938999925800004
 20
6.7277825086
 10
7.211364098500013
 20
6.541601222700023
 10
7.491185674999996
 20
6.366869574199995
 10
7.777986584899991
 20
6.203886089000036
 10
8.071276833500007
 20
6.052929221900058
 10
8.370555339399999
 20
5.914256879899994
 10
8.675310790400004
 20
5.788105982600029
 10
8.9850225168
 20
5.67469205650002
 10
9.299161381299995
 20
5.57420886760002
  0
LWPOLYLINE
  5
4C28
330
22
100
AcDbEntity
  8
1
100
AcDbPolyline
 90
        5
 70
     0
 43
0.0
 10
3.596941248700005
 20
13.37005341100001
 10
3.596432446199997
 20
13.33591711470001
 10
3.596069009199993
 20
13.30177913010004
 10
3.595850944400012
 20
13.26764007919996
 10
3.595778255600009
 20
13.23350058379998
  0
LWPOLYLINE
  5
4C2F
330
22
100
AcDbEntity
  8
1
100
AcDbPolyline
 90
        7
 70
     0
 43
0.0
 10
3.564157542999993
 20
13.23875115739997
 10
3.569411861800006
 20
13.26100463489996
 10
3.574750712499991
 20
13.283112114
 10
3.580174731699997
 20
13.30507214200003
 10
3.585682009700008
 20
13.32688331540004
 10
3.591270636399997
 20
13.34854422620003
 10
3.596941248700005
 20
13.37005341100001
  0
LWPOLYLINE
  5
4C38
330
22
100
AcDbEntity
  8
1
100
AcDbPolyline
 90
       25
 70
     0
 43
0.0
 10
3.596941248700005
 20
13.37005341100001
 10
3.630014774699986
 20
13.47377118280002
 10
3.672931741399992
 20
13.57258573889999
 10
3.725672778500012
 20
13.66653063160004
 10
3.788295997000005
 20
13.75541748029997
 10
3.860814482800009
 20
13.83911722800002
 10
3.943343941299985
 20
13.91764066900003
 10
4.036024310800002
 20
13.99101909629996
 10
4.138795979000008
 20
14.05913675520003
 10
4.251608485399998
 20
14.12193351010001
 10
4.374574312999982
 20
14.17947826900001
 10
4.507853676299987
 20
14.23186273639999
 10
4.651252920600001
 20
14.27906928160001
 10
4.804652693999997
 20
14.32114882109999
 10
4.967990303100009
 20
14.35823183320002
 10
5.141302424999992
 20
14.39047997650004
 10
5.324171595800009
 20
14.41802714490001
 10
5.516244566500006
 20
14.44105570410005
 10
5.717365369600003
 20
14.45982857840005
 10
5.927365124999994
 20
14.47461619720002
 10
6.145929322200004
 20
14.48570557850002
 10
6.372862299199994
 20
14.49340332800005
 10
6.607638631300005
 20
14.49802795690004
 10
6.849897622399993
 20
14.49991496340004
 10
6.922413894399994
 20
14.49999936379998
  0
LINE
  5
4C53
330
22
100
AcDbEntity
  8
1
100
AcDbLine
 10
0.5
 20
14.5
 30
0.0
 11
0.5
 21
-14.5
 31
0.0
  0
LINE
  5
4C54
330
22
100
AcDbEntity
  8
1
100
AcDbLine
 10
0.0
 20
14.0
 30
0.0
 11
0.0
 21
-14.0
 31
0.0
  0
LINE
  5
4C55
330
22
100
AcDbEntity
  8
SK1
100
AcDbLine
 10
-0.2999999999999829
 20
8.300000000000011
 30
0.0
 11
-0.2999999999999829
 21
-8.300000000000011
 31
0.0
  0
LINE
  5
4C56
330
22
100
AcDbEntity
  8
SK1
100
AcDbLine
 10
-1.200928839499994
 20
8.300000000000011
 30
0.0
 11
-1.200928839499994
 21
-8.300000000000011
 31
0.0
  0
LINE
  5
4C57
330
22
100
AcDbEntity
  8
SK1
100
AcDbLine
 10
-1.304456457500009
 20
8.313629669500073
 30
0.0
 11
-1.304456457500009
 21
-8.313629669400029
 31
0.0
  0
LINE
  5
4C58
330
22
100
AcDbEntity
  8
SK1
100
AcDbLine
 10
-2.0
 20
8.5
 30
0.0
 11
-2.0
 21
-8.5
 31
0.0
  0
LINE
  5
4C59
330
22
100
AcDbEntity
  8
1
100
AcDbLine
 10
0.5
 20
14.5
 30
0.0
 11
0.0
 21
14.0
 31
0.0
  0
LINE
  5
4C5A
330
22
100
AcDbEntity
  8
1
100
AcDbLine
 10
0.5
 20
-14.5
 30
0.0
 11
0.0
 21
-14.0
 31
0.0
  0
LINE
  5
4C5B
330
22
100
AcDbEntity
  8
SK1
100
AcDbLine
 10
-5.599999999999994
 20
8.5
 30
0.0
 11
-5.599999999999994
 21
-8.5
 31
0.0
  0
LINE
  5
4C5C
330
22
100
AcDbEntity
  8
SK1
100
AcDbLine
 10
-6.0
 20
8.26905989239998
 30
0.0
 11
-6.0
 21
-8.269059892299935
 31
0.0
  0
LINE
  5
4C5D
330
22
100
AcDbEntity
  8
SK1
100
AcDbLine
 10
-7.0
 20
6.675000000000011
 30
0.0
 11
-7.0
 21
-6.675000000000011
 31
0.0
  0
LINE
  5
4C5E
330
22
100
AcDbEntity
  8
SK1
100
AcDbLine
 10
-8.960786437600006
 20
6.675000000000011
 30
0.0
 11
-8.960786437600006
 21
-6.675000000000011
 31
0.0
  0
LINE
  5
4C5F
330
22
100
AcDbEntity
  8
SK1
100
AcDbLine
 10
-9.667893218799974
 20
6.967893218899973
 30
0.0
 11
-9.667893218799974
 21
-6.967893218799986
 31
0.0
  0
LINE
  5
4C60
330
22
100
AcDbEntity
  8
SK1
100
AcDbLine
 10
-9.699999999999988
 20
7.0
 30
0.0
 11
-9.699999999999988
 21
-7.0
 31
0.0
  0
LINE
  5
4C61
330
22
100
AcDbEntity
  8
SK1
100
AcDbLine
 10
-10.69999999999999
 20
8.0
 30
0.0
 11
-10.69999999999999
 21
-8.0
 31
0.0
  0
LINE
  5
4C62
330
22
100
AcDbEntity
  8
SK1
100
AcDbLine
 10
-22.5
 20
8.0
 30
0.0
 11
-24.0
 21
6.5
 31
0.0
  0
LINE
  5
4C63
330
22
100
AcDbEntity
  8
SK1
100
AcDbLine
 10
-22.5
 20
-8.0
 30
0.0
 11
-24.0
 21
-6.5
 31
0.0
  0
LINE
  5
4C64
330
22
100
AcDbEntity
  8
SK1
100
AcDbLine
 10
-22.5
 20
8.0
 30
0.0
 11
-22.5
 21
-8.0
 31
0.0
  0
LINE
  5
4C65
330
22
100
AcDbEntity
  8
SK1
100
AcDbLine
 10
-23.5
 20
7.0
 30
0.0
 11
-23.5
 21
-7.0
 31
0.0
  0
LINE
  5
4C66
330
22
100
AcDbEntity
  8
SK1
100
AcDbLine
 10
-24.0
 20
6.5
 30
0.0
 11
-24.0
 21
-6.5
 31
0.0
  0
ARC
  5
4C89
330
22
100
AcDbEntity
  8
SK3
100
AcDbCircle
 10
-22.5
 20
4.999999999999943
 30
0.0
 40
2.0
100
AcDbArc
 50
221.4096221093
 51
270.0
  0
ARC
  5
4C8A
330
22
100
AcDbEntity
  8
SK3
100
AcDbCircle
 10
-22.5
 20
-5.0
 30
0.0
 40
2.0
100
AcDbArc
 50
90.0
 51
138.5903778906999
  0
ARC
  5
4CA1
330
22
100
AcDbEntity
  8
SK1
100
AcDbCircle
 10
-0.2999999999999829
 20
8.699999999999988
 30
0.0
 40
0.4
100
AcDbArc
 50
270.0
 51
318.5903778907
  0
ARC
  5
4CA2
330
22
100
AcDbEntity
  8
SK1
100
AcDbCircle
 10
-1.200928839499994
 20
8.699999999999988
 30
0.0
 40
0.4
100
AcDbArc
 50
255.0
 51
270.0
  0
ARC
  5
4CA3
330
22
100
AcDbEntity
  8
SK1
100
AcDbCircle
 10
-7.000000000000014
 20
7.675000000000011
 30
0.0
 40
1.0
100
AcDbArc
 50
270.0
 51
0.0
  0
ARC
  5
4CA4
330
22
100
AcDbEntity
  8
SK1
100
AcDbCircle
 10
-8.96078643760002
 20
7.675000000000011
 30
0.0
 40
1.0
100
AcDbArc
 50
225.0
 51
270.0
  0
ARC
  5
4CA5
330
22
100
AcDbEntity
  8
SK1
100
AcDbCircle
 10
-0.2999999999999829
 20
-8.699999999999988
 30
0.0
 40
0.4
100
AcDbArc
 50
41.40962210930005
 51
90.0
  0
ARC
  5
4CA6
330
22
100
AcDbEntity
  8
SK1
100
AcDbCircle
 10
-1.200928839499994
 20
-8.699999999999988
 30
0.0
 40
0.4
100
AcDbArc
 50
90.0
 51
104.9999999999999
  0
ARC
  5
4CA7
330
22
100
AcDbEntity
  8
SK1
100
AcDbCircle
 10
-7.000000000000014
 20
-7.675000000000011
 30
0.0
 40
1.0
100
AcDbArc
 50
0.0
 51
90.0
  0
ARC
  5
4CA8
330
22
100
AcDbEntity
  8
SK1
100
AcDbCircle
 10
-8.96078643760002
 20
-7.675000000000011
 30
0.0
 40
1.0
100
AcDbArc
 50
90.0
 51
134.9999999999999
  0
TEXT
  5
4ECB
330
22
100
AcDbEntity
  8
6
100
AcDbText
 10
82.55365790243889
 20
0.1010859810941724
 30
0.0
 40
3.5
  1
Z=2
 50
90.0
 41
1.199999999999999
100
AcDbText
  0
INSERT
  5
4ECC
330
22
100
AcDbEntity
  8
1
100
AcDbBlockReference
  2
nullp
 10
-271.9386450411704
 20
-389.8959796344513
 30
0.0
  0
INSERT
  5
4ECD
330
22
100
AcDbEntity
  8
0
100
AcDbBlockReference
  2
nullp1
 10
-393.0645295494706
 20
-450.5849634019313
 30
0.0
  0
LINE
  5
4F55
330
22
100
AcDbEntity
  8
SK3
100
AcDbLine
 10
0.0
 20
3.0
 30
0.0
 11
-22.5
 21
3.0
 31
0.0
  0
LINE
  5
4F58
330
22
100
AcDbEntity
  8
SK3
100
AcDbLine
 10
0.0
 20
-3.0
 30
0.0
 11
-22.5
 21
-3.0
 31
0.0
  0
LINE
  5
5004
330
22
100
AcDbEntity
  8
SK4
100
AcDbLine
 10
0.0
 20
0.0
 30
0.0
 11
-27.00000000000003
 21
0.0
 31
0.0
  0
LWPOLYLINE
  5
501E
330
22
100
AcDbEntity
  8
NOCUT
100
AcDbPolyline
 90
       10
 70
   129
 43
0.0
 10
19.01850454236887
 20
15.49999999999994
 42
-0.2679491924311228
 10
17.2864537348
 20
14.5
 10
0.5
 20
14.5
 10
0.0
 20
14.0
 10
0.0
 20
0.0
 10
48.6027140022
 20
-0.0000000000000568
 10
48.60271400219997
 20
16.69999999999999
 42
0.4142135623730951
 10
48.1027140022
 20
17.19999999999999
 10
21.15470053840002
 20
17.19999999999999
 42
0.2679491924311228
 10
19.4226497308
 20
16.19999999999999
  0
DIMENSION
  5
5055
330
22
100
AcDbEntity
  8
2
100
AcDbDimension
  2
*D86
 10
60.48479887845269
 20
7.499999999999997
 30
0.0
 11
58.60979887845269
 21
0.0000000000000072
 31
0.0
 70
    32
  1
%%c<>
 71
     5
 42
15.0
  3
ISO-25
100
AcDbAlignedDimension
 13
52.1728116808141
 23
-7.5
 33
0.0
 14
52.1728116808141
 24
7.5
 34
0.0
 50
90.0
100
AcDbRotatedDimension
  0
DIMENSION
  5
5074
330
22
100
AcDbEntity
  8
2
100
AcDbDimension
  2
*D87
 10
14.0
 20
26.59337539780745
 30
0.0
 11
32.0
 21
28.46837539780745
 31
0.0
 70
    32
 71
     5
 42
36.0
  3
ISO-25
100
AcDbAlignedDimension
 13
50.0
 23
18.0
 33
0.0
 14
14.0
 24
18.0
 34
0.0
100
AcDbRotatedDimension
  0
ENDSEC
  0
SECTION
  2
OBJECTS
  0
DICTIONARY
  5
C
330
0
100
AcDbDictionary
281
     1
  3
ACAD_COLOR
350
1B
  3
ACAD_GROUP
350
D
  3
ACAD_LAYOUT
350
19
  3
ACAD_MATERIAL
350
1A
  3
ACAD_MLINESTYLE
350
16
  3
ACAD_PLOTSETTINGS
350
18
  3
ACAD_PLOTSTYLENAME
350
E
  3
ACAD_TABLESTYLE
350
1C
  3
ACDBHEADERROUNDTRIPXREC
350
5094
  3
AcDbVariableDictionary
350
4CAD
  0
DICTIONARY
  5
4F56
330
22
100
AcDbDictionary
280
     1
281
     1
  3
ACAD_SORTENTS
360
4F57
  0
DICTIONARY
  5
1B
102
{ACAD_REACTORS
330
C
102
}
330
C
100
AcDbDictionary
281
     1
  0
DICTIONARY
  5
D
102
{ACAD_REACTORS
330
C
102
}
330
C
100
AcDbDictionary
281
     1
  0
DICTIONARY
  5
19
102
{ACAD_REACTORS
330
C
102
}
330
C
100
AcDbDictionary
281
     1
  3
Layout1
350
21
  3
Model
350
25
  0
DICTIONARY
  5
1A
102
{ACAD_REACTORS
330
C
102
}
330
C
100
AcDbDictionary
281
     1
  0
DICTIONARY
  5
16
102
{ACAD_REACTORS
330
C
102
}
330
C
100
AcDbDictionary
281
     1
  3
Standard
350
17
  0
DICTIONARY
  5
18
102
{ACAD_REACTORS
330
C
102
}
330
C
100
AcDbDictionary
281
     1
  0
ACDBDICTIONARYWDFLT
  5
E
102
{ACAD_REACTORS
330
C
102
}
330
C
100
AcDbDictionary
281
     1
  3
Normal
350
F
100
AcDbDictionaryWithDefault
340
F
  0
DICTIONARY
  5
1C
102
{ACAD_REACTORS
330
C
102
}
330
C
100
AcDbDictionary
281
     1
  3
Standard
350
1D
  0
DICTIONARY
  5
5094
102
{ACAD_REACTORS
330
C
102
}
330
C
100
AcDbDictionary
281
     1
  0
DICTIONARY
  5
4CAD
102
{ACAD_REACTORS
330
C
102
}
330
C
100
AcDbDictionary
281
     1
  3
CTABLESTYLE
350
4CAE
  3
DIMASSOC
350
5046
  3
PROJECTNAME
350
5047
  0
SORTENTSTABLE
  5
4F57
102
{ACAD_REACTORS
330
4F56
102
}
330
4F56
100
AcDbSortentsTable
330
22
331
4BF7
  5
4C62
331
4B07
  5
4C28
331
454E
  5
468D
331
3C9F
  5
3D75
331
3DB0
  5
42E4
331
47E5
  5
48D0
331
4C5D
  5
4CA1
331
474D
  5
489E
331
4ADC
  5
4C04
331
4680
  5
480C
331
4A0F
  5
4ADB
331
46DE
  5
4810
331
4198
  5
45F6
331
4A4B
  5
4B8D
331
4722
  5
4875
331
4579
  5
4700
331
3D0E
  5
3DDE
331
4700
  5
4812
331
4CA8
  5
5023
331
4874
  5
4A0C
331
4B49
  5
4C54
331
4C5B
  5
4C89
331
43CA
  5
466A
331
42DB
  5
45F8
331
4ADA
  5
4C02
331
4AB8
  5
4BDF
331
465C
  5
474E
331
4A0D
  5
4AD9
331
4C06
  5
4C7D
331
437D
  5
465D
331
4C28
  5
4C7E
331
4577
  5
46DE
331
3D0C
  5
3DDC
331
7A9
  5
7A9
331
4BD9
  5
4C5F
331
49D8
  5
4AB7
331
4C59
  5
4C87
331
4A14
  5
4B07
331
4AB6
  5
4BD8
331
4C04
  5
4C7B
331
3E4E
  5
454E
331
469E
  5
480E
331
3CCE
  5
3DA6
331
4050
  5
4579
331
3CAC
  5
3D80
331
4161
  5
457D
331
4814
  5
49C1
331
4CA6
  5
4E04
331
468D
  5
480D
331
3D0A
  5
3DBC
331
7B8
  5
7B8
331
4A12
  5
4ADE
331
4C57
  5
4C85
331
472D
  5
487E
331
3CF7
  5
3DA7
331
4C02
  5
4C65
331
4AB4
  5
4BD6
331
49A3
  5
4A23
331
4A23
  5
4B32
331
473E
  5
4893
331
3DDD
  5
43A1
331
21D5
  5
21EA
331
4CA4
  5
4E02
331
49B4
  5
4A4C
331
4812
  5
49BF
331
4BD7
  5
4C5D
331
3D08
  5
3DB0
331
4A10
  5
4ADC
331
3DA8
  5
41AE
331
4C55
  5
4C83
331
4A76
  5
4BAB
331
49A1
  5
4A14
331
3D75
  5
416A
331
4C00
  5
4C63
331
4C66
  5
4DF9
331
4B32
  5
4C53
331
3D97
  5
418E
331
414C
  5
457A
331
3D06
  5
3DA8
331
4CA2
  5
4E00
331
4BD5
  5
4C5B
331
4F55
  5
21E6
331
4810
  5
49B4
331
4C53
  5
4C81
331
4A30
  5
4B49
331
47FD
  5
49A1
331
418E
  5
45C2
331
49C1
  5
4AB4
331
499F
  5
4A12
331
4ECC
  5
5025
331
4B52
  5
4C55
331
21D1
  5
21E5
331
3D73
  5
4158
331
4C64
  5
4DEB
331
45B3
  5
4706
331
42E4
  5
462B
331
4AC1
  5
4BF6
331
45F6
  5
4717
331
4707
  5
4862
331
3DA6
  5
4197
331
3CB7
  5
3D97
331
480E
  5
49A4
331
416A
  5
457E
331
3DE0
  5
447C
331
4B9E
  5
4C58
331
45C2
  5
4707
331
49BF
  5
4A6C
331
4C62
  5
4CA8
331
3D71
  5
400F
331
3D57
  5
3E4F
331
4B8D
  5
4C57
331
5004
  5
4A39
331
480C
  5
49A2
331
4C2F
  5
4C7F
331
4705
  5
481E
331
3D46
  5
3E2B
331
4ACE
  5
4BF7
331
4857
  5
49D9
331
3D6F
  5
3E9E
331
456B
  5
469E
331
447C
  5
4673
331
4157
  5
457B
331
4C60
  5
4CA5
331
49CE
  5
4AB5
331
3D80
  5
4177
331
46C7
  5
480F
331
4703
  5
4815
331
457C
  5
4703
331
3D66
  5
3E5C
331
21DE
  5
3C6F
331
21EF
  5
3D46
331
4C89
  5
4DFD
331
49FF
  5
4ACE
331
3DB1
  5
430D
331
47E6
  5
49A0
331
4C5E
  5
4CA2
331
474E
  5
489F
331
4BAB
  5
4C59
331
4A7F
  5
4BD4
331
4177
  5
45B3
331
4ADD
  5
4C05
331
4A4C
  5
4B9E
331
457A
  5
4701
331
3D0F
  5
3DDF
331
21DC
  5
3C51
331
4701
  5
4813
331
4BF6
  5
4C61
331
4875
  5
4A0D
331
3C7C
  5
3D72
331
4A39
  5
4B52
331
3F50
  5
4577
331
4C5C
  5
4C8A
331
465D
  5
475B
331
45CD
  5
4708
331
4ADB
  5
4C03
331
4197
  5
45CD
331
4A0E
  5
4ADA
331
4578
  5
46F1
331
3D0D
  5
3DDD
331
7AA
  5
7AA
331
49D9
  5
4AB8
331
4873
  5
49FF
331
436B
  5
462C
331
501E
  5
4DFC
331
4C5A
  5
4C88
331
4C38
  5
4C80
331
3C48
  5
3D66
331
4AB7
  5
4BD9
331
3E4F
  5
456B
331
4C05
  5
4C7C
331
4A0C
  5
4ACF
331
4862
  5
49DE
331
3D0B
  5
3DCD
331
4CA7
  5
4E05
331
4815
  5
49CE
331
4576
  5
46C7
331
4BD8
  5
4C5E
331
4A13
  5
4AE7
331
4F58
  5
21EB
331
4893
  5
4A0F
331
4C58
  5
4C86
331
3DCD
  5
437D
331
4C03
  5
4C66
331
4AB5
  5
4BD7
331
49A4
  5
4A42
331
3F5D
  5
4578
331
3DBC
  5
4325
331
4CA5
  5
4E03
331
4AA4
  5
4BD5
331
4813
  5
49C0
331
466A
  5
4785
331
49D7
  5
4AB6
331
3D09
  5
3DB1
331
4A11
  5
4ADD
331
3DA9
  5
41D3
331
4C56
  5
4C84
331
4C01
  5
4C64
331
49A2
  5
4A1C
331
3DDC
  5
438E
331
4CA3
  5
4E01
331
4811
  5
49BE
331
4BD6
  5
4C5C
331
3D07
  5
3DA9
331
3C66
  5
3D70
331
4C54
  5
4C82
331
4B64
  5
4C56
331
4708
  5
4873
331
49A0
  5
4A13
331
4ECD
  5
5054
331
3D74
  5
4161
331
4B31
  5
4C38
331
487E
  5
4A0E
331
3C85
  5
3D73
331
4C65
  5
4DEE
331
4A42
  5
4B64
331
4CA1
  5
4DFF
331
480F
  5
49AF
331
4BD4
  5
4C5A
331
45F7
  5
4722
331
3DA7
  5
4198
331
3C96
  5
3D74
331
499E
  5
4A11
331
481E
  5
49D8
331
49C0
  5
4AA4
331
3E47
  5
44D2
331
4ECB
  5
5024
331
3D72
  5
40A9
331
4717
  5
4874
331
489E
  5
4A10
331
4C63
  5
4DEA
331
4B1E
  5
4C2F
331
49AF
  5
4A4B
331
4706
  5
4857
331
480D
  5
49A3
331
3C51
  5
3D6F
331
4ACF
  5
4C01
331
49BE
  5
4A4D
331
4673
  5
47FD
331
3D70
  5
3F88
331
4A1C
  5
4B31
331
4372
  5
465C
331
4C61
  5
4CA6
331
4158
  5
457C
331
457D
  5
4704
331
4704
  5
4816
331
1187
  5
21D0
331
4C8A
  5
4DFE
331
4BDF
  5
4C60
331
49DE
  5
4AC1
331
46F1
  5
4811
331
4C5F
  5
4CA4
331
3C6F
  5
3D71
331
4ADE
  5
4C06
331
44FB
  5
4680
331
4702
  5
4814
331
457B
  5
4702
331
21DD
  5
3C66
331
42CE
  5
45F7
331
835
  5
835
331
7E0
  5
7E0
  0
LAYOUT
  5
21
102
{ACAD_XDICTIONARY
360
5095
102
}
102
{ACAD_REACTORS
330
19
102
}
330
19
100
AcDbPlotSettings
  1

  2
\\ingdom02\ITB3
  4

  6

 40
0.0
 41
0.0
 42
0.0
 43
0.0
 44
0.0
 45
0.0
 46
0.0
 47
0.0
 48
0.0
 49
0.0
140
0.0
141
0.0
142
1.0
143
1.0
 70
   688
 72
     0
 73
     0
 74
     5
  7

 75
    16
147
1.0
148
0.0
149
0.0
100
AcDbLayout
  1
Layout1
 70
     0
 71
     1
 10
0.0
 20
0.0
 11
12.0
 21
9.0
 12
0.0
 22
0.0
 32
0.0
 14
0.0
 24
0.0
 34
0.0
 15
0.0
 25
0.0
 35
0.0
146
0.0
 13
0.0
 23
0.0
 33
0.0
 16
1.0
 26
0.0
 36
0.0
 17
0.0
 27
1.0
 37
0.0
 76
     0
330
1E
  0
LAYOUT
  5
25
102
{ACAD_XDICTIONARY
360
5097
102
}
102
{ACAD_REACTORS
330
19
102
}
330
19
100
AcDbPlotSettings
  1

  2
\\ingdom02\ITB3
  4

  6

 40
0.0
 41
0.0
 42
0.0
 43
0.0
 44
0.0
 45
0.0
 46
0.0
 47
0.0
 48
0.0
 49
0.0
140
0.0
141
0.0
142
1.0
143
1.0
 70
  1712
 72
     0
 73
     0
 74
     0
  7

 75
     0
147
1.0
148
0.0
149
0.0
100
AcDbLayout
  1
Model
 70
     1
 71
     0
 10
0.0
 20
0.0
 11
12.0
 21
9.0
 12
0.0
 22
0.0
 32
0.0
 14
0.0
 24
0.0
 34
0.0
 15
0.0
 25
0.0
 35
0.0
146
0.0
 13
0.0
 23
0.0
 33
0.0
 16
1.0
 26
0.0
 36
0.0
 17
0.0
 27
1.0
 37
0.0
 76
     0
330
22
  0
MLINESTYLE
  5
17
102
{ACAD_REACTORS
330
16
102
}
330
16
100
AcDbMlineStyle
  2
STANDARD
 70
     0
  3

 62
   256
 51
90.0
 52
90.0
 71
     2
 49
0.5
 62
   256
  6
BYLAYER
 49
-0.5
 62
   256
  6
BYLAYER
  0
ACDBPLACEHOLDER
  5
F
102
{ACAD_REACTORS
330
E
102
}
330
E
  0
TABLESTYLE
  5
1D
102
{ACAD_REACTORS
330
1C
102
}
330
1C
100
AcDbTableStyle
  3
Standard
 70
     0
 71
     0
 40
0.06
 41
0.06
280
     0
281
     0
  7
STANDARD
140
0.18
170
     2
 62
     0
 63
     7
283
     0
274
    -2
284
     1
 64
     0
275
    -2
285
     1
 65
     0
276
    -2
286
     1
 66
     0
277
    -2
287
     1
 67
     0
278
    -2
288
     1
 68
     0
279
    -2
289
     1
 69
     0
  7
STANDARD
140
0.25
170
     5
 62
     0
 63
     7
283
     0
274
    -2
284
     1
 64
     0
275
    -2
285
     1
 65
     0
276
    -2
286
     1
 66
     0
277
    -2
287
     1
 67
     0
278
    -2
288
     1
 68
     0
279
    -2
289
     1
 69
     0
  7
STANDARD
140
0.18
170
     5
 62
     0
 63
     7
283
     0
274
    -2
284
     1
 64
     0
275
    -2
285
     1
 65
     0
276
    -2
286
     1
 66
     0
277
    -2
287
     1
 67
     0
278
    -2
288
     1
 68
     0
279
    -2
289
     1
 69
     0
  0
DICTIONARYVAR
  5
4CAE
102
{ACAD_REACTORS
330
4CAD
102
}
330
4CAD
100
DictionaryVariables
280
     0
  1
STANDARD
  0
DICTIONARYVAR
  5
5046
102
{ACAD_REACTORS
330
4CAD
102
}
330
4CAD
100
DictionaryVariables
280
     0
  1
1
  0
DICTIONARYVAR
  5
5047
102
{ACAD_REACTORS
330
4CAD
102
}
330
4CAD
100
DictionaryVariables
280
     0
  1

  0
DICTIONARY
  5
5095
330
21
100
AcDbDictionary
280
     1
281
     1
  3
ACAD_XREC_ROUNDTRIP
360
5096
  0
DICTIONARY
  5
5097
330
25
100
AcDbDictionary
280
     1
281
     1
  3
ACAD_XREC_ROUNDTRIP
360
5098
  0
XRECORD
  5
5096
102
{ACAD_REACTORS
330
5095
102
}
330
5095
100
AcDbXrecord
280
     1
102
SHADEPLOT
 70
     0
102
SHADEPLOTRESLEVEL
 70
     2
102
SHADEPLOTCUSTOMDPI
 70
   300
  0
XRECORD
  5
5098
102
{ACAD_REACTORS
330
5097
102
}
330
5097
100
AcDbXrecord
280
     1
102
SHADEPLOT
 70
     0
102
SHADEPLOTRESLEVEL
 70
     2
102
SHADEPLOTCUSTOMDPI
 70
   300
  0
ENDSEC
  0
EOF
