  0
SECTION
  2
HEADER
  9
$ACADVER
  1
AC1015
  9
$ACADMAINTVER
 70
    20
  9
$DWGCODEPAGE
  3
ANSI_1252
  9
$INSBASE
 10
0.0
 20
0.0
 30
0.0
  9
$EXTMIN
 10
-34.82284678121255
 20
-31.14031197262602
 30
-0.0015258207003583
  9
$EXTMAX
 10
98.54981616629608
 20
32.26042006810712
 30
0.0000000349246037
  9
$LIMMIN
 10
0.0
 20
0.0
  9
$LIMMAX
 10
594.0
 20
420.0
  9
$ORTHOMODE
 70
     0
  9
$REGENMODE
 70
     1
  9
$FILLMODE
 70
     1
  9
$QTEXTMODE
 70
     0
  9
$MIRRTEXT
 70
     1
  9
$LTSCALE
 40
10.0
  9
$ATTMODE
 70
     1
  9
$TEXTSIZE
 40
0.2
  9
$TRACEWID
 40
0.05
  9
$TEXTSTYLE
  7
STANDARD
  9
$CLAYER
  8
0
  9
$CELTYPE
  6
ByLayer
  9
$CECOLOR
 62
   256
  9
$CELTSCALE
 40
1.0
  9
$DISPSILH
 70
     0
  9
$DIMSCALE
 40
1.0
  9
$DIMASZ
 40
2.5
  9
$DIMEXO
 40
0.625
  9
$DIMDLI
 40
3.75
  9
$DIMRND
 40
0.0
  9
$DIMDLE
 40
0.0
  9
$DIMEXE
 40
1.25
  9
$DIMTP
 40
0.0
  9
$DIMTM
 40
0.0
  9
$DIMTXT
 40
2.5
  9
$DIMCEN
 40
2.5
  9
$DIMTSZ
 40
0.0
  9
$DIMTOL
 70
     0
  9
$DIMLIM
 70
     0
  9
$DIMTIH
 70
     0
  9
$DIMTOH
 70
     0
  9
$DIMSE1
 70
     0
  9
$DIMSE2
 70
     0
  9
$DIMTAD
 70
     1
  9
$DIMZIN
 70
     8
  9
$DIMBLK
  1

  9
$DIMASO
 70
     1
  9
$DIMSHO
 70
     1
  9
$DIMPOST
  1

  9
$DIMAPOST
  1

  9
$DIMALT
 70
     0
  9
$DIMALTD
 70
     3
  9
$DIMALTF
 40
0.03937007874016
  9
$DIMLFAC
 40
1.0
  9
$DIMTOFL
 70
     1
  9
$DIMTVP
 40
0.0
  9
$DIMTIX
 70
     0
  9
$DIMSOXD
 70
     0
  9
$DIMSAH
 70
     0
  9
$DIMBLK1
  1

  9
$DIMBLK2
  1

  9
$DIMSTYLE
  2
ISO-25
  9
$DIMCLRD
 70
     0
  9
$DIMCLRE
 70
     0
  9
$DIMCLRT
 70
     0
  9
$DIMTFAC
 40
1.0
  9
$DIMGAP
 40
0.625
  9
$DIMJUST
 70
     0
  9
$DIMSD1
 70
     0
  9
$DIMSD2
 70
     0
  9
$DIMTOLJ
 70
     0
  9
$DIMTZIN
 70
     8
  9
$DIMALTZ
 70
     0
  9
$DIMALTTZ
 70
     0
  9
$DIMUPT
 70
     0
  9
$DIMDEC
 70
     2
  9
$DIMTDEC
 70
     2
  9
$DIMALTU
 70
     2
  9
$DIMALTTD
 70
     3
  9
$DIMTXSTY
  7
STANDARD
  9
$DIMAUNIT
 70
     0
  9
$DIMADEC
 70
     0
  9
$DIMALTRND
 40
0.0
  9
$DIMAZIN
 70
     0
  9
$DIMDSEP
 70
    44
  9
$DIMATFIT
 70
     3
  9
$DIMFRAC
 70
     0
  9
$DIMLDRBLK
  1

  9
$DIMLUNIT
 70
     2
  9
$DIMLWD
 70
    -2
  9
$DIMLWE
 70
    -2
  9
$DIMTMOVE
 70
     0
  9
$LUNITS
 70
     2
  9
$LUPREC
 70
     4
  9
$SKETCHINC
 40
0.1
  9
$FILLETRAD
 40
0.0
  9
$AUNITS
 70
     0
  9
$AUPREC
 70
     0
  9
$MENU
  1
ACAD
  9
$ELEVATION
 40
0.0
  9
$PELEVATION
 40
0.0
  9
$THICKNESS
 40
0.0
  9
$LIMCHECK
 70
     0
  9
$CHAMFERA
 40
0.0
  9
$CHAMFERB
 40
0.0
  9
$CHAMFERC
 40
0.0
  9
$CHAMFERD
 40
0.0
  9
$SKPOLY
 70
     0
  9
$TDCREATE
 40
2305814.125509387
  9
$TDUCREATE
 40
6.0000000000
  9
$TDUPDATE
 40
2454210.355548125
  9
$TDUUPDATE
 40
2454210.272214792
  9
$TDINDWG
 40
0.0532191667
  9
$TDUSRTIMER
 40
0.0532189931
  9
$USRTIMER
 70
     1
  9
$ANGBASE
 50
0.0
  9
$ANGDIR
 70
     0
  9
$PDMODE
 70
     0
  9
$PDSIZE
 40
3.0
  9
$PLINEWID
 40
0.0
  9
$SPLFRAME
 70
     0
  9
$SPLINETYPE
 70
     6
  9
$SPLINESEGS
 70
     8
  9
$HANDSEED
  5
3803
  9
$SURFTAB1
 70
     6
  9
$SURFTAB2
 70
     6
  9
$SURFTYPE
 70
     6
  9
$SURFU
 70
     6
  9
$SURFV
 70
     6
  9
$UCSBASE
  2

  9
$UCSNAME
  2

  9
$UCSORG
 10
0.0
 20
0.0
 30
0.0
  9
$UCSXDIR
 10
1.0
 20
0.0
 30
0.0
  9
$UCSYDIR
 10
0.0
 20
1.0
 30
0.0
  9
$UCSORTHOREF
  2

  9
$UCSORTHOVIEW
 70
     0
  9
$UCSORGTOP
 10
0.0
 20
0.0
 30
0.0
  9
$UCSORGBOTTOM
 10
0.0
 20
0.0
 30
0.0
  9
$UCSORGLEFT
 10
0.0
 20
0.0
 30
0.0
  9
$UCSORGRIGHT
 10
0.0
 20
0.0
 30
0.0
  9
$UCSORGFRONT
 10
0.0
 20
0.0
 30
0.0
  9
$UCSORGBACK
 10
0.0
 20
0.0
 30
0.0
  9
$PUCSBASE
  2

  9
$PUCSNAME
  2

  9
$PUCSORG
 10
0.0
 20
0.0
 30
0.0
  9
$PUCSXDIR
 10
1.0
 20
0.0
 30
0.0
  9
$PUCSYDIR
 10
0.0
 20
1.0
 30
0.0
  9
$PUCSORTHOREF
  2

  9
$PUCSORTHOVIEW
 70
     0
  9
$PUCSORGTOP
 10
0.0
 20
0.0
 30
0.0
  9
$PUCSORGBOTTOM
 10
0.0
 20
0.0
 30
0.0
  9
$PUCSORGLEFT
 10
0.0
 20
0.0
 30
0.0
  9
$PUCSORGRIGHT
 10
0.0
 20
0.0
 30
0.0
  9
$PUCSORGFRONT
 10
0.0
 20
0.0
 30
0.0
  9
$PUCSORGBACK
 10
0.0
 20
0.0
 30
0.0
  9
$USERI1
 70
     0
  9
$USERI2
 70
     0
  9
$USERI3
 70
     0
  9
$USERI4
 70
     0
  9
$USERI5
 70
     0
  9
$USERR1
 40
0.0
  9
$USERR2
 40
0.0
  9
$USERR3
 40
0.0
  9
$USERR4
 40
0.0
  9
$USERR5
 40
0.0
  9
$WORLDVIEW
 70
     1
  9
$SHADEDGE
 70
     3
  9
$SHADEDIF
 70
    70
  9
$TILEMODE
 70
     1
  9
$MAXACTVP
 70
    16
  9
$PINSBASE
 10
0.0
 20
0.0
 30
0.0
  9
$PLIMCHECK
 70
     0
  9
$PEXTMIN
 10
0.0
 20
0.0
 30
0.0
  9
$PEXTMAX
 10
0.0
 20
0.0
 30
0.0
  9
$PLIMMIN
 10
0.0
 20
0.0
  9
$PLIMMAX
 10
12.0
 20
9.0
  9
$UNITMODE
 70
     0
  9
$VISRETAIN
 70
     0
  9
$PLINEGEN
 70
     1
  9
$PSLTSCALE
 70
     0
  9
$TREEDEPTH
 70
  3020
  9
$CMLSTYLE
  2
Standard
  9
$CMLJUST
 70
     0
  9
$CMLSCALE
 40
1.0
  9
$PROXYGRAPHICS
 70
     1
  9
$MEASUREMENT
 70
     0
  9
$CELWEIGHT
370
    -1
  9
$ENDCAPS
280
     0
  9
$JOINSTYLE
280
     0
  9
$LWDISPLAY
290
     0
  9
$INSUNITS
 70
     0
  9
$HYPERLINKBASE
  1

  9
$STYLESHEET
  1

  9
$XEDIT
290
     1
  9
$CEPSNTYPE
380
     0
  9
$PSTYLEMODE
290
     1
  9
$FINGERPRINTGUID
  2
{E1BCAB64-B23B-4002-A6F3-AC8E515648A3}
  9
$VERSIONGUID
  2
{87DBB47A-A403-4918-B8AE-6F5AB52F7F5B}
  9
$EXTNAMES
290
     1
  9
$PSVPSCALE
 40
0.0
  9
$OLESTARTUP
290
     0
  0
ENDSEC
  0
SECTION
  2
CLASSES
  0
CLASS
  1
ACDBDICTIONARYWDFLT
  2
AcDbDictionaryWithDefault
  3
ObjectDBX Classes
 90
        0
280
     0
281
     0
  0
CLASS
  1
TABLESTYLE
  2
AcDbTableStyle
  3
ObjectDBX Classes
 90
     2047
280
     0
281
     0
  0
CLASS
  1
SORTENTSTABLE
  2
AcDbSortentsTable
  3
ObjectDBX Classes
 90
        0
280
     0
281
     0
  0
CLASS
  1
DICTIONARYVAR
  2
AcDbDictionaryVar
  3
ObjectDBX Classes
 90
        0
280
     0
281
     0
  0
CLASS
  1
ACDBPLACEHOLDER
  2
AcDbPlaceHolder
  3
ObjectDBX Classes
 90
        0
280
     0
281
     0
  0
CLASS
  1
LAYOUT
  2
AcDbLayout
  3
ObjectDBX Classes
 90
        0
280
     0
281
     0
  0
ENDSEC
  0
SECTION
  2
TABLES
  0
TABLE
  2
VPORT
  5
8
330
0
100
AcDbSymbolTable
 70
     7
  0
VPORT
  5
37FD
330
8
100
AcDbSymbolTableRecord
100
AcDbViewportTableRecord
  2
*Active
 70
     0
 10
0.0
 20
0.0
 11
1.0
 21
1.0
 12
31.86348469254176
 22
0.5600540477405467
 13
0.0
 23
0.0
 14
1.0
 24
1.0
 15
0.0
 25
0.0
 16
0.0
 26
0.0
 36
1.0
 17
0.0
 27
0.0
 37
0.0
 40
88.50518466266626
 41
1.514429109159347
 42
50.0
 43
0.0
 44
0.0
 50
0.0
 51
0.0
 71
     0
 72
   100
 73
     1
 74
     1
 75
     0
 76
     0
 77
     0
 78
     0
281
     0
 65
     1
110
0.0
120
0.0
130
0.0
111
1.0
121
0.0
131
0.0
112
0.0
122
1.0
132
0.0
 79
     0
146
0.0
  0
ENDTAB
  0
TABLE
  2
LTYPE
  5
5
330
0
100
AcDbSymbolTable
 70
     6
  0
LTYPE
  5
13
330
5
100
AcDbSymbolTableRecord
100
AcDbLinetypeTableRecord
  2
ByBlock
 70
     0
  3

 72
    65
 73
     0
 40
0.0
  0
LTYPE
  5
14
330
5
100
AcDbSymbolTableRecord
100
AcDbLinetypeTableRecord
  2
ByLayer
 70
     0
  3

 72
    65
 73
     0
 40
0.0
  0
LTYPE
  5
15
330
5
100
AcDbSymbolTableRecord
100
AcDbLinetypeTableRecord
  2
CONTINUOUS
 70
     0
  3
Solid line
 72
    65
 73
     0
 40
0.0
  0
LTYPE
  5
27
330
5
100
AcDbSymbolTableRecord
100
AcDbLinetypeTableRecord
  2
CENTER
 70
     0
  3
____ _ ____ _ ____ _ ____ _ ____ _ ____ _ ____
 72
    65
 73
     4
 40
0.6
 49
0.375
 74
     0
 49
-0.075
 74
     0
 49
0.075
 74
     0
 49
-0.075
 74
     0
  0
LTYPE
  5
28
330
5
100
AcDbSymbolTableRecord
100
AcDbLinetypeTableRecord
  2
HIDDEN
 70
     0
  3
- - - - - - - - - - - - - - - - - - - -
 72
    65
 73
     2
 40
0.2
 49
0.1
 74
     0
 49
-0.1
 74
     0
  0
ENDTAB
  0
TABLE
  2
LAYER
  5
2
330
0
100
AcDbSymbolTable
 70
    18
  0
LAYER
  5
10
330
2
100
AcDbSymbolTableRecord
100
AcDbLayerTableRecord
  2
0
 70
     0
 62
     7
  6
CONTINUOUS
370
    -3
390
F
  0
LAYER
  5
2C
330
2
100
AcDbSymbolTableRecord
100
AcDbLayerTableRecord
  2
SK1
 70
     0
 62
     4
  6
CONTINUOUS
370
    -3
390
F
  0
LAYER
  5
2D
330
2
100
AcDbSymbolTableRecord
100
AcDbLayerTableRecord
  2
1
 70
     0
 62
     4
  6
CONTINUOUS
370
    -3
390
F
  0
LAYER
  5
2E
330
2
100
AcDbSymbolTableRecord
100
AcDbLayerTableRecord
  2
2
 70
     0
 62
     7
  6
CONTINUOUS
370
    -3
390
F
  0
LAYER
  5
2F
330
2
100
AcDbSymbolTableRecord
100
AcDbLayerTableRecord
  2
SK2
 70
     0
 62
     7
  6
CONTINUOUS
370
    -3
390
F
  0
LAYER
  5
30
330
2
100
AcDbSymbolTableRecord
100
AcDbLayerTableRecord
  2
3
 70
     0
 62
     1
  6
HIDDEN
370
    -3
390
F
  0
LAYER
  5
31
330
2
100
AcDbSymbolTableRecord
100
AcDbLayerTableRecord
  2
SK3
 70
     0
 62
     1
  6
HIDDEN
370
    -3
390
F
  0
LAYER
  5
32
330
2
100
AcDbSymbolTableRecord
100
AcDbLayerTableRecord
  2
4
 70
     0
 62
     2
  6
CENTER
370
    -3
390
F
  0
LAYER
  5
33
330
2
100
AcDbSymbolTableRecord
100
AcDbLayerTableRecord
  2
SK4
 70
     0
 62
     2
  6
CENTER
370
    -3
390
F
  0
LAYER
  5
36
330
2
100
AcDbSymbolTableRecord
100
AcDbLayerTableRecord
  2
6
 70
     0
 62
     5
  6
CONTINUOUS
370
    -3
390
F
  0
LAYER
  5
3407
330
2
100
AcDbSymbolTableRecord
100
AcDbLayerTableRecord
  2
Defpoints
 70
     0
 62
     7
  6
CONTINUOUS
290
     0
370
    -3
390
F
  0
LAYER
  5
3408
330
2
100
AcDbSymbolTableRecord
100
AcDbLayerTableRecord
  2
CUT
 70
     0
 62
     1
  6
CONTINUOUS
370
    -3
390
F
  0
LAYER
  5
3409
330
2
100
AcDbSymbolTableRecord
100
AcDbLayerTableRecord
  2
NOCUT
 70
     0
 62
     7
  6
CONTINUOUS
370
    -3
390
F
  0
ENDTAB
  0
TABLE
  2
STYLE
  5
3
330
0
100
AcDbSymbolTable
 70
     3
  0
STYLE
  5
11
330
3
100
AcDbSymbolTableRecord
100
AcDbTextStyleTableRecord
  2
STANDARD
 70
     0
 40
0.0
 41
0.8
 50
0.0
 71
     0
 42
0.2
  3
ISOCP
  4

  0
ENDTAB
  0
TABLE
  2
VIEW
  5
6
330
0
100
AcDbSymbolTable
 70
     0
  0
ENDTAB
  0
TABLE
  2
UCS
  5
7
330
0
100
AcDbSymbolTable
 70
     0
  0
ENDTAB
  0
TABLE
  2
APPID
  5
9
330
0
100
AcDbSymbolTable
 70
     1
  0
APPID
  5
12
330
9
100
AcDbSymbolTableRecord
100
AcDbRegAppTableRecord
  2
ACAD
 70
     0
  0
ENDTAB
  0
TABLE
  2
DIMSTYLE
  5
A
330
0
100
AcDbSymbolTable
 70
     2
100
AcDbDimStyleTable
 71
     1
340
340A
  0
DIMSTYLE
105
3A
330
A
100
AcDbSymbolTableRecord
100
AcDbDimStyleTableRecord
  2
STANDARD
 70
     0
279
     2
340
11
  0
DIMSTYLE
105
340A
102
{ACAD_REACTORS
330
340E
330
340D
330
340C
330
34F0
330
34F1
330
773
330
775
330
794
330
37AA
330
37D2
102
}
330
A
100
AcDbSymbolTableRecord
100
AcDbDimStyleTableRecord
  2
ISO-25
 70
     0
 41
2.5
 42
0.625
 43
3.75
 44
1.25
 73
     0
 74
     0
 77
     1
 78
     8
140
2.5
141
2.5
143
0.03937007874016
147
0.625
171
     3
172
     1
271
     2
272
     2
274
     3
278
    44
283
     0
284
     8
340
11
  0
ENDTAB
  0
TABLE
  2
BLOCK_RECORD
  5
1
330
0
100
AcDbSymbolTable
 70
    79
  0
BLOCK_RECORD
  5
22
102
{ACAD_XDICTIONARY
360
36CE
102
}
330
1
100
AcDbSymbolTableRecord
100
AcDbBlockTableRecord
  2
*Model_Space
340
25
  0
BLOCK_RECORD
  5
1E
330
1
100
AcDbSymbolTableRecord
100
AcDbBlockTableRecord
  2
*Paper_Space
340
21
  0
BLOCK_RECORD
  5
33E0
330
1
100
AcDbSymbolTableRecord
100
AcDbBlockTableRecord
  2
nullp
340
0
310
2800000020000000200000000100080000000000000400000000000000000000000000000000000000000000000080000080000000808000800000008000800080800000C0C0C000C0DCC000F0CAA6000020400000206000002080000020A0000020C0000020E00000400000004020000040400000406000004080000040A0
310
000040C0000040E00000600000006020000060400000606000006080000060A0000060C0000060E00000800000008020000080400000806000008080000080A0000080C0000080E00000A0000000A0200000A0400000A0600000A0800000A0A00000A0C00000A0E00000C0000000C0200000C0400000C0600000C0800000C0
310
A00000C0C00000C0E00000E0000000E0200000E0400000E0600000E0800000E0A00000E0C00000E0E00040000000400020004000400040006000400080004000A0004000C0004000E00040200000402020004020400040206000402080004020A0004020C0004020E000404000004040200040404000404060004040800040
310
40A0004040C0004040E00040600000406020004060400040606000406080004060A0004060C0004060E00040800000408020004080400040806000408080004080A0004080C0004080E00040A0000040A0200040A0400040A0600040A0800040A0A00040A0C00040A0E00040C0000040C0200040C0400040C0600040C08000
310
40C0A00040C0C00040C0E00040E0000040E0200040E0400040E0600040E0800040E0A00040E0C00040E0E00080000000800020008000400080006000800080008000A0008000C0008000E00080200000802020008020400080206000802080008020A0008020C0008020E00080400000804020008040400080406000804080
310
008040A0008040C0008040E00080600000806020008060400080606000806080008060A0008060C0008060E00080800000808020008080400080806000808080008080A0008080C0008080E00080A0000080A0200080A0400080A0600080A0800080A0A00080A0C00080A0E00080C0000080C0200080C0400080C0600080C0
310
800080C0A00080C0C00080C0E00080E0000080E0200080E0400080E0600080E0800080E0A00080E0C00080E0E000C0000000C0002000C0004000C0006000C0008000C000A000C000C000C000E000C0200000C0202000C0204000C0206000C0208000C020A000C020C000C020E000C0400000C0402000C0404000C0406000C0
310
408000C040A000C040C000C040E000C0600000C0602000C0604000C0606000C0608000C060A000C060C000C060E000C0800000C0802000C0804000C0806000C0808000C080A000C080C000C080E000C0A00000C0A02000C0A04000C0A06000C0A08000C0A0A000C0A0C000C0A0E000C0C00000C0C02000C0C04000C0C06000
310
C0C08000C0C0A000F0FBFF00A4A0A000808080000000FF0000FF000000FFFF00FF000000FF00FF00FFFF0000FFFFFF0000000000000000000000000000000000000000000000000000000000000000000000000000000000000000000000FEFEFE00000000000000000000000000000000000000000000000000FEFEFEFEFE
310
FEFEFEFE000000000000000000000000000000000000000000FEFEFEFEFEFEFEFEFE0000FEFE000000000000000000000000000000000000FEFEFEFEFEFEFEFEFEFE00000000FEFE00000000000000000000000000000000FEFEFEFEFEFEFEFEFEFE000000000000FEFE00000000000000000000000000FEFEFEFEFEFEFEFE
310
FEFEFE0000000000000000FEFE00000000000000000000FEFEFEFEFEFEFEFEFEFEFEFE000000000000000000FE000000000000000000FEFEFEFEFEFEFEFEFEFEFEFEFE00000000000000000000FE00000000000000FEFEFEFEFEFEFEFEFEFEFEFEFEFE00000000000000000000FE000000000000FEFEFEFEFEFEFEFEFEFEFE
310
FEFEFEFE0000000000000000000000FE0000000000FEFEFEFEFEFEFEFEFEFEFEFEFEFEFE0000000000000000000000FE0000000000FEFEFEFEFEFEFEFEFEFEFEFEFEFEFE0000000000000000000000FE00000000FEFEFEFEFEFEFEFEFEFEFEFEFEFEFEFE000000000000000000000000FE000000FEFEFEFEFEFEFEFEFEFEFE
310
FEFEFEFEFE000000000000000000000000FE000000FEFEFEFEFEFEFEFEFEFEFEFEFEFEFEFE00000000000000000000000000FE0000FEFEFEFEFEFEFEFEFEFEFEFEFEFEFEFEFEFEFEFEFEFEFEFEFEFEFEFEFEFE000000FE000000000000000000000000FEFEFEFEFEFEFEFEFEFEFEFEFEFEFEFE000000FE0000000000000000
310
00000000FEFEFEFEFEFEFEFEFEFEFEFEFEFEFEFE000000FE000000000000000000000000FEFEFEFEFEFEFEFEFEFEFEFEFEFEFE00000000FE000000000000000000000000FEFEFEFEFEFEFEFEFEFEFEFEFEFEFE0000000000FE0000000000000000000000FEFEFEFEFEFEFEFEFEFEFEFEFEFEFE000000000000FE0000000000
310
0000000000FEFEFEFEFEFEFEFEFEFEFEFEFEFE00000000000000FE00000000000000000000FEFEFEFEFEFEFEFEFEFEFEFEFE000000000000000000FE000000000000000000FEFEFEFEFEFEFEFEFEFEFEFE0000000000000000000000FE0000000000000000FEFEFEFEFEFEFEFEFEFEFEFE000000000000000000000000FE00
310
000000000000FEFEFEFEFEFEFEFEFEFEFE00000000000000000000000000FE00000000000000FEFEFEFEFEFEFEFEFE00000000000000000000000000000000FEFEFEFEFE0000FEFEFEFEFEFEFEFE00000000000000000000000000000000000000000000FEFEFEFEFEFEFEFEFE000000000000000000000000000000000000
310
00000000000000FEFEFEFE000000000000000000000000000000000000000000000000000000000000000000000000000000000000000000
102
{BLKREFS
331
34EE
331
35D9
102
}
  0
BLOCK_RECORD
  5
33E9
330
1
100
AcDbSymbolTableRecord
100
AcDbBlockTableRecord
  2
nullp1
340
0
310
2800000020000000200000000100080000000000000400000000000000000000000000000000000000000000000080000080000000808000800000008000800080800000C0C0C000C0DCC000F0CAA6000020400000206000002080000020A0000020C0000020E00000400000004020000040400000406000004080000040A0
310
000040C0000040E00000600000006020000060400000606000006080000060A0000060C0000060E00000800000008020000080400000806000008080000080A0000080C0000080E00000A0000000A0200000A0400000A0600000A0800000A0A00000A0C00000A0E00000C0000000C0200000C0400000C0600000C0800000C0
310
A00000C0C00000C0E00000E0000000E0200000E0400000E0600000E0800000E0A00000E0C00000E0E00040000000400020004000400040006000400080004000A0004000C0004000E00040200000402020004020400040206000402080004020A0004020C0004020E000404000004040200040404000404060004040800040
310
40A0004040C0004040E00040600000406020004060400040606000406080004060A0004060C0004060E00040800000408020004080400040806000408080004080A0004080C0004080E00040A0000040A0200040A0400040A0600040A0800040A0A00040A0C00040A0E00040C0000040C0200040C0400040C0600040C08000
310
40C0A00040C0C00040C0E00040E0000040E0200040E0400040E0600040E0800040E0A00040E0C00040E0E00080000000800020008000400080006000800080008000A0008000C0008000E00080200000802020008020400080206000802080008020A0008020C0008020E00080400000804020008040400080406000804080
310
008040A0008040C0008040E00080600000806020008060400080606000806080008060A0008060C0008060E00080800000808020008080400080806000808080008080A0008080C0008080E00080A0000080A0200080A0400080A0600080A0800080A0A00080A0C00080A0E00080C0000080C0200080C0400080C0600080C0
310
800080C0A00080C0C00080C0E00080E0000080E0200080E0400080E0600080E0800080E0A00080E0C00080E0E000C0000000C0002000C0004000C0006000C0008000C000A000C000C000C000E000C0200000C0202000C0204000C0206000C0208000C020A000C020C000C020E000C0400000C0402000C0404000C0406000C0
310
408000C040A000C040C000C040E000C0600000C0602000C0604000C0606000C0608000C060A000C060C000C060E000C0800000C0802000C0804000C0806000C0808000C080A000C080C000C080E000C0A00000C0A02000C0A04000C0A06000C0A08000C0A0A000C0A0C000C0A0E000C0C00000C0C02000C0C04000C0C06000
310
C0C08000C0C0A000F0FBFF00A4A0A000808080000000FF0000FF000000FFFF00FF000000FF00FF00FFFF0000FFFFFF00000000000000000000000000000000000000000000000000000000000000000000000000000000000000000000000000FE0000000000000000000000000000000000000000000000000000000000FE
310
FEFEFEFE000000000000000000000000000000000000000000FEFEFEFEFEFE0000FE0000FEFE000000000000000000000000000000000000FE0000000000000000FE00000000FEFE00000000000000000000000000000000FE0000000000000000FE000000000000FEFE00000000000000000000000000FE00000000000000
310
0000FE0000000000000000FEFE00000000000000000000FE00000000000000000000FE000000000000000000FE000000000000000000FE0000000000000000000000FE00000000000000000000FE0000000000000000FE0000000000000000000000FE00000000000000000000FE00000000000000FE000000000000000000
310
000000FE0000000000000000000000FE0000000000FE00000000000000000000000000FE0000000000000000000000FE0000000000FE00000000000000000000000000FE0000000000000000000000FE0000000000FE00000000000000000000000000FE000000000000000000000000FE00000000FE000000000000000000
310
00000000FE000000000000000000000000FE00000000FE00000000000000000000000000FE00000000000000000000000000FE0000FEFEFEFEFEFEFEFEFEFEFEFEFEFEFEFEFEFEFEFEFEFEFEFEFEFEFEFEFEFE000000FE00000000000000000000000000FE00000000000000000000000000FE000000FE0000000000000000
310
0000000000FE000000000000000000000000FE00000000FE00000000000000000000000000FE000000000000000000000000FE00000000FE00000000000000000000000000FE0000000000000000000000FE000000000000FE000000000000000000000000FE0000000000000000000000FE00000000000000FE0000000000
310
000000000000FE00000000000000000000FE0000000000000000FE0000000000000000000000FE00000000000000000000FE000000000000000000FE00000000000000000000FE000000000000000000FE0000000000000000000000FE000000000000000000FE000000000000000000FE000000000000000000000000FE00
310
00000000000000FE00000000000000FEFE00000000000000000000000000FE0000000000000000FE0000000000FEFE00000000000000000000000000000000FEFEFEFEFE000000FE000000FEFE0000000000000000000000000000000000000000000000FEFEFEFEFEFEFE0000000000000000000000000000000000000000
310
0000000000000000FE0000000000000000000000000000000000000000000000000000000000000000000000000000000000000000000000
102
{BLKREFS
331
34EF
331
35DA
102
}
  0
BLOCK_RECORD
  5
3646
330
1
100
AcDbSymbolTableRecord
100
AcDbBlockTableRecord
  2
*D70
340
0
  0
BLOCK_RECORD
  5
3652
330
1
100
AcDbSymbolTableRecord
100
AcDbBlockTableRecord
  2
*D71
340
0
  0
BLOCK_RECORD
  5
365E
330
1
100
AcDbSymbolTableRecord
100
AcDbBlockTableRecord
  2
*D72
340
0
  0
BLOCK_RECORD
  5
37AB
330
1
100
AcDbSymbolTableRecord
100
AcDbBlockTableRecord
  2
*D77
340
0
  0
BLOCK_RECORD
  5
37D3
330
1
100
AcDbSymbolTableRecord
100
AcDbBlockTableRecord
  2
*D78
340
0
  0
ENDTAB
  0
ENDSEC
  0
SECTION
  2
BLOCKS
  0
BLOCK
  5
23
330
22
100
AcDbEntity
  8
0
100
AcDbBlockBegin
  2
*Model_Space
 70
     0
 10
0.0
 20
0.0
 30
0.0
  3
*Model_Space
  1

  0
ENDBLK
  5
24
330
22
100
AcDbEntity
  8
0
100
AcDbBlockEnd
  0
BLOCK
  5
1F
330
1E
100
AcDbEntity
 67
     1
  8
0
100
AcDbBlockBegin
  2
*Paper_Space
 70
     0
 10
0.0
 20
0.0
 30
0.0
  3
*Paper_Space
  1

  0
ENDBLK
  5
20
330
1E
100
AcDbEntity
 67
     1
  8
0
100
AcDbBlockEnd
  0
BLOCK
  5
33E1
330
33E0
100
AcDbEntity
  8
0
100
AcDbBlockBegin
  2
nullp
 70
     0
 10
0.0
 20
0.0
 30
0.0
  3
nullp
  1

  0
HATCH
  5
33E2
330
33E0
100
AcDbEntity
  8
1
100
AcDbHatch
 10
0.0
 20
0.0
 30
0.0
210
0.0
220
0.0
230
1.0
  2
SOLID
 70
     1
 71
     0
 91
        2
 92
        7
 72
     1
 73
     1
 93
        3
 10
271.9386450411704
 20
389.8959796344513
 42
0.0
 10
274.8896170952829
 20
389.8959796344513
 42
0.4142135623730966
 10
271.9386450411704
 20
392.8469516885638
 42
0.0
 97
        0
 92
        7
 72
     1
 73
     1
 93
        3
 10
271.9386450411704
 20
386.9450075803387
 42
0.0
 10
271.9386450411704
 20
389.8959796344513
 42
0.0
 10
268.9876729870576
 20
389.8959796344513
 42
0.4142135623730966
 97
        0
 75
     0
 76
     1
 47
0.1190009775223266
 98
        2
 10
272.6831980999823
 20
390.8172041078278
 10
270.6591804393174
 20
388.1991827114049
  0
LWPOLYLINE
  5
33E3
330
33E0
100
AcDbEntity
  8
1
100
AcDbPolyline
 90
        3
 70
     1
 43
0.0
 10
271.9386450411702
 20
389.8959796344513
 10
268.9876729870576
 20
389.8959796344513
 42
0.4142135623730966
 10
271.9386450411702
 20
386.9450075803387
  0
LINE
  5
33E4
330
33E0
100
AcDbEntity
  8
1
100
AcDbLine
 10
271.9386450411702
 20
392.8469516885638
 30
0.0
 11
271.9386450411702
 21
386.9450075803387
 31
0.0
  0
LWPOLYLINE
  5
33E5
330
33E0
100
AcDbEntity
  8
1
100
AcDbPolyline
 90
        3
 70
     1
 43
0.0
 10
271.9386450411702
 20
392.8469516885638
 10
271.9386450411702
 20
389.8959796344513
 10
274.8896170952829
 20
389.8959796344513
 42
0.4142135623730966
  0
LINE
  5
33E6
330
33E0
100
AcDbEntity
  8
1
100
AcDbLine
 10
268.9876729870575
 20
389.8959796344513
 30
0.0
 11
274.8896170952828
 21
389.8959796344513
 31
0.0
  0
CIRCLE
  5
33E7
330
33E0
100
AcDbEntity
  8
1
100
AcDbCircle
 10
271.9386450411704
 20
389.8959796344513
 30
0.0
 40
2.950972054112601
  0
ENDBLK
  5
33E8
330
33E0
100
AcDbEntity
  8
0
100
AcDbBlockEnd
  0
BLOCK
  5
33EA
330
33E9
100
AcDbEntity
  8
0
100
AcDbBlockBegin
  2
nullp1
 70
     0
 10
0.0
 20
0.0
 30
0.0
  3
nullp1
  1

  0
LINE
  5
33EB
330
33E9
100
AcDbEntity
  8
1
100
AcDbLine
 10
442.6007601796219
 20
432.5849634019313
 30
0.0
 11
443.5282989193195
 21
432.5849634019313
 31
0.0
  0
CIRCLE
  5
33EC
330
33E9
100
AcDbEntity
  8
1
100
AcDbCircle
 10
443.0645295494706
 20
432.5849634019313
 30
0.0
 40
0.463769369848821
  0
LINE
  5
33ED
330
33E9
100
AcDbEntity
  8
1
100
AcDbLine
 10
443.0645295494706
 20
433.0487327717801
 30
0.0
 11
443.0645295494706
 21
432.1211940320826
 31
0.0
  0
ENDBLK
  5
33EE
330
33E9
100
AcDbEntity
  8
0
100
AcDbBlockEnd
  0
BLOCK
  5
3650
330
3646
100
AcDbEntity
  8
0
100
AcDbBlockBegin
  2
*D70
 70
     1
 10
0.0
 20
0.0
 30
0.0
  3
*D70
  1

  0
LINE
  5
3786
330
3646
100
AcDbEntity
  8
SK2
 62
     0
370
    -2
100
AcDbLine
 10
-23.62500000000003
 20
-8.000000000000056
 30
0.0
 11
-33.05016552704544
 21
-8.000000000000055
 31
0.0
  0
LINE
  5
3787
330
3646
100
AcDbEntity
  8
SK2
 62
     0
370
    -2
100
AcDbLine
 10
-23.62500000000003
 20
7.999999999999943
 30
0.0
 11
-33.05016552704544
 21
7.999999999999945
 31
0.0
  0
LINE
  5
3788
330
3646
100
AcDbEntity
  8
SK2
 62
     0
370
    -2
100
AcDbLine
 10
-31.80016552704544
 20
-5.500000000000055
 30
0.0
 11
-31.80016552704544
 21
5.499999999999945
 31
0.0
  0
SOLID
  5
3789
330
3646
100
AcDbEntity
  8
SK2
 62
     0
100
AcDbTrace
 10
-32.2168321937121
 20
-5.500000000000055
 30
0.0
 11
-31.38349886037877
 21
-5.500000000000055
 31
0.0
 12
-31.80016552704544
 22
-8.000000000000055
 32
0.0
 13
-31.80016552704544
 23
-8.000000000000055
 33
0.0
  0
SOLID
  5
378A
330
3646
100
AcDbEntity
  8
SK2
 62
     0
100
AcDbTrace
 10
-32.2168321937121
 20
5.499999999999945
 30
0.0
 11
-31.38349886037877
 21
5.499999999999945
 31
0.0
 12
-31.80016552704544
 22
7.999999999999945
 32
0.0
 13
-31.80016552704544
 23
7.999999999999945
 33
0.0
  0
MTEXT
  5
378B
330
3646
100
AcDbEntity
  8
SK2
 62
     0
100
AcDbMText
 10
-33.67516552704544
 20
0.1189238852999213
 30
0.0
 40
2.5
 41
0.0
 71
     5
 72
     1
  1
M16
 11
0.0000000000000001
 21
1.0
 31
0.0
 73
     1
 44
1.0
1001
ACAD
1000
MTEXTBEGIN
1070
    73
1070
     1
1070
    44
1040
1.0
1070
    74
1070
     0
1000
MTEXTEND
  0
POINT
  5
378C
330
3646
100
AcDbEntity
  8
Defpoints
 62
     0
100
AcDbPoint
 10
-23.00000000000003
 20
-8.000000000000056
 30
0.0
  0
POINT
  5
378D
330
3646
100
AcDbEntity
  8
Defpoints
 62
     0
100
AcDbPoint
 10
-23.00000000000003
 20
7.999999999999943
 30
0.0
  0
POINT
  5
378E
330
3646
100
AcDbEntity
  8
Defpoints
 62
     0
100
AcDbPoint
 10
-31.80016552704544
 20
7.999999999999945
 30
0.0
  0
ENDBLK
  5
3651
330
3646
100
AcDbEntity
  8
0
100
AcDbBlockEnd
  0
BLOCK
  5
365C
330
3652
100
AcDbEntity
  8
0
100
AcDbBlockBegin
  2
*D71
 70
     1
 10
0.0
 20
0.0
 30
0.0
  3
*D71
  1

  0
LINE
  5
378F
330
3652
100
AcDbEntity
  8
2
 62
     0
370
    -2
100
AcDbLine
 10
-0.0000000000000284
 20
12.55492545894304
 30
0.0
 11
-0.0000000000000273
 21
30.47446362837292
 31
0.0
  0
LINE
  5
3790
330
3652
100
AcDbEntity
  8
2
 62
     0
370
    -2
100
AcDbLine
 10
50.0
 20
0.1249999999999432
 30
0.0
 11
50.0
 21
30.47446362837292
 31
0.0
  0
LINE
  5
3791
330
3652
100
AcDbEntity
  8
2
 62
     0
370
    -2
100
AcDbLine
 10
2.499999999999972
 20
29.22446362837291
 30
0.0
 11
47.5
 21
29.22446362837291
 31
0.0
  0
SOLID
  5
3792
330
3652
100
AcDbEntity
  8
2
 62
     0
100
AcDbTrace
 10
2.499999999999972
 20
29.64113029503959
 30
0.0
 11
2.499999999999972
 21
28.80779696170625
 31
0.0
 12
-0.0000000000000274
 22
29.22446362837291
 32
0.0
 13
-0.0000000000000274
 23
29.22446362837291
 33
0.0
  0
SOLID
  5
3793
330
3652
100
AcDbEntity
  8
2
 62
     0
100
AcDbTrace
 10
47.5
 20
29.64113029503959
 30
0.0
 11
47.5
 21
28.80779696170625
 31
0.0
 12
50.0
 22
29.22446362837291
 32
0.0
 13
50.0
 23
29.22446362837291
 33
0.0
  0
MTEXT
  5
3794
330
3652
100
AcDbEntity
  8
2
 62
     0
100
AcDbMText
 10
25.7661657191957
 20
31.09946362837292
 30
0.0
 40
2.5
 41
0.0
 71
     5
 72
     1
  1
50
 73
     1
 44
1.0
1001
ACAD
1000
MTEXTBEGIN
1070
    73
1070
     1
1070
    44
1040
1.0
1070
    74
1070
     0
1000
MTEXTEND
  0
POINT
  5
3795
330
3652
100
AcDbEntity
  8
Defpoints
 62
     0
100
AcDbPoint
 10
-0.0000000000000284
 20
11.92992545894304
 30
0.0
  0
POINT
  5
3796
330
3652
100
AcDbEntity
  8
Defpoints
 62
     0
100
AcDbPoint
 10
50.0
 20
-0.5000000000000569
 30
0.0
  0
POINT
  5
3797
330
3652
100
AcDbEntity
  8
Defpoints
 62
     0
100
AcDbPoint
 10
50.0
 20
29.22446362837291
 30
0.0
  0
ENDBLK
  5
365D
330
3652
100
AcDbEntity
  8
0
100
AcDbBlockEnd
  0
BLOCK
  5
3668
330
365E
100
AcDbEntity
  8
0
100
AcDbBlockBegin
  2
*D72
 70
     1
 10
0.0
 20
0.0
 30
0.0
  3
*D72
  1

  0
LINE
  5
37C9
330
365E
100
AcDbEntity
  8
2
 62
     0
370
    -2
100
AcDbLine
 10
51.125
 20
-16.50000000000005
 30
0.0
 11
70.86354965264084
 21
-16.50000000000006
 31
0.0
  0
LINE
  5
37CA
330
365E
100
AcDbEntity
  8
2
 62
     0
370
    -2
100
AcDbLine
 10
49.58828248466921
 20
16.49999999999994
 30
0.0
 11
70.86354965264084
 21
16.49999999999994
 31
0.0
  0
LINE
  5
37CB
330
365E
100
AcDbEntity
  8
2
 62
     0
370
    -2
100
AcDbLine
 10
69.61354965264084
 20
-14.00000000000006
 30
0.0
 11
69.61354965264084
 21
13.99999999999994
 31
0.0
  0
SOLID
  5
37CC
330
365E
100
AcDbEntity
  8
2
 62
     0
100
AcDbTrace
 10
69.19688298597417
 20
-14.00000000000006
 30
0.0
 11
70.03021631930751
 21
-14.00000000000006
 31
0.0
 12
69.61354965264084
 22
-16.50000000000006
 32
0.0
 13
69.61354965264084
 23
-16.50000000000006
 33
0.0
  0
SOLID
  5
37CD
330
365E
100
AcDbEntity
  8
2
 62
     0
100
AcDbTrace
 10
69.19688298597417
 20
13.99999999999994
 30
0.0
 11
70.03021631930751
 21
13.99999999999994
 31
0.0
 12
69.61354965264084
 22
16.49999999999994
 32
0.0
 13
69.61354965264084
 23
16.49999999999994
 33
0.0
  0
MTEXT
  5
37CE
330
365E
100
AcDbEntity
  8
2
 62
     0
100
AcDbMText
 10
67.73854965264084
 20
0.4980023052024196
 30
0.0
 40
2.5
 41
0.0
 71
     5
 72
     1
  1
%%c33
 11
0.0000000000000001
 21
1.0
 31
0.0
 73
     1
 44
1.0
1001
ACAD
1000
MTEXTBEGIN
1070
    73
1070
     1
1070
    44
1040
1.0
1070
    74
1070
     0
1000
MTEXTEND
  0
POINT
  5
37CF
330
365E
100
AcDbEntity
  8
Defpoints
 62
     0
100
AcDbPoint
 10
50.5
 20
-16.50000000000005
 30
0.0
  0
POINT
  5
37D0
330
365E
100
AcDbEntity
  8
Defpoints
 62
     0
100
AcDbPoint
 10
48.96328248466921
 20
16.49999999999994
 30
0.0
  0
POINT
  5
37D1
330
365E
100
AcDbEntity
  8
Defpoints
 62
     0
100
AcDbPoint
 10
69.61354965264084
 20
16.49999999999994
 30
0.0
  0
ENDBLK
  5
3669
330
365E
100
AcDbEntity
  8
0
100
AcDbBlockEnd
  0
BLOCK
  5
37B5
330
37AB
100
AcDbEntity
  8
0
100
AcDbBlockBegin
  2
*D77
 70
     1
 10
0.0
 20
0.0
 30
0.0
  3
*D77
  1

  0
LINE
  5
37E8
330
37AB
100
AcDbEntity
  8
2
 62
     0
370
    -2
100
AcDbLine
 10
51.82907785824411
 20
-6.000000000000056
 30
0.0
 11
63.19038492741651
 21
-6.00000000000006
 31
0.0
  0
LINE
  5
37E9
330
37AB
100
AcDbEntity
  8
2
 62
     0
370
    -2
100
AcDbLine
 10
51.82907785824411
 20
5.999999999999943
 30
0.0
 11
63.19038492741651
 21
5.999999999999939
 31
0.0
  0
LINE
  5
37EA
330
37AB
100
AcDbEntity
  8
2
 62
     0
370
    -2
100
AcDbLine
 10
61.94038492741651
 20
-3.500000000000059
 30
0.0
 11
61.94038492741651
 21
3.49999999999994
 31
0.0
  0
SOLID
  5
37EB
330
37AB
100
AcDbEntity
  8
2
 62
     0
100
AcDbTrace
 10
61.52371826074985
 20
-3.500000000000059
 30
0.0
 11
62.35705159408318
 21
-3.500000000000059
 31
0.0
 12
61.94038492741651
 22
-6.000000000000059
 32
0.0
 13
61.94038492741651
 23
-6.000000000000059
 33
0.0
  0
SOLID
  5
37EC
330
37AB
100
AcDbEntity
  8
2
 62
     0
100
AcDbTrace
 10
61.52371826074985
 20
3.49999999999994
 30
0.0
 11
62.35705159408318
 21
3.49999999999994
 31
0.0
 12
61.94038492741651
 22
5.99999999999994
 32
0.0
 13
61.94038492741651
 23
5.99999999999994
 33
0.0
  0
MTEXT
  5
37ED
330
37AB
100
AcDbEntity
  8
2
 62
     0
100
AcDbMText
 10
60.06513886442439
 20
-0.0000000000000497
 30
0.0
 40
2.5
 41
0.0
 71
     5
 72
     1
  1
%%c12
 11
0.0000000000000001
 21
1.0
 31
0.0
 73
     1
 44
1.0
1001
ACAD
1000
MTEXTBEGIN
1070
    73
1070
     1
1070
    44
1040
1.0
1070
    74
1070
     0
1000
MTEXTEND
  0
POINT
  5
37EE
330
37AB
100
AcDbEntity
  8
Defpoints
 62
     0
100
AcDbPoint
 10
51.20407785824411
 20
-6.000000000000056
 30
0.0
  0
POINT
  5
37EF
330
37AB
100
AcDbEntity
  8
Defpoints
 62
     0
100
AcDbPoint
 10
51.20407785824411
 20
5.999999999999943
 30
0.0
  0
POINT
  5
37F0
330
37AB
100
AcDbEntity
  8
Defpoints
 62
     0
100
AcDbPoint
 10
61.94038492741651
 20
5.99999999999994
 30
0.0
  0
ENDBLK
  5
37B6
330
37AB
100
AcDbEntity
  8
0
100
AcDbBlockEnd
  0
BLOCK
  5
37DD
330
37D3
100
AcDbEntity
  8
0
100
AcDbBlockBegin
  2
*D78
 70
     1
 10
0.0
 20
0.0
 30
0.0
  3
*D78
  1

  0
LINE
  5
37DF
330
37D3
100
AcDbEntity
  8
2
 62
     0
370
    -2
100
AcDbLine
 10
50.0
 20
17.12499999999994
 30
0.0
 11
50.0
 21
24.26674725799307
 31
0.0
  0
LINE
  5
37E0
330
37D3
100
AcDbEntity
  8
2
 62
     0
370
    -2
100
AcDbLine
 10
17.0
 20
17.12499999999995
 30
0.0
 11
17.0
 21
24.26674725799307
 31
0.0
  0
LINE
  5
37E1
330
37D3
100
AcDbEntity
  8
2
 62
     0
370
    -2
100
AcDbLine
 10
47.5
 20
23.01674725799307
 30
0.0
 11
19.5
 21
23.01674725799307
 31
0.0
  0
SOLID
  5
37E2
330
37D3
100
AcDbEntity
  8
2
 62
     0
100
AcDbTrace
 10
47.5
 20
23.43341392465974
 30
0.0
 11
47.5
 21
22.60008059132641
 31
0.0
 12
50.0
 22
23.01674725799307
 32
0.0
 13
50.0
 23
23.01674725799307
 33
0.0
  0
SOLID
  5
37E3
330
37D3
100
AcDbEntity
  8
2
 62
     0
100
AcDbTrace
 10
19.5
 20
23.43341392465974
 30
0.0
 11
19.5
 21
22.60008059132641
 31
0.0
 12
17.0
 22
23.01674725799307
 32
0.0
 13
17.0
 23
23.01674725799307
 33
0.0
  0
MTEXT
  5
37E4
330
37D3
100
AcDbEntity
  8
2
 62
     0
100
AcDbMText
 10
33.5
 20
24.89174725799307
 30
0.0
 40
2.5
 41
0.0
 71
     5
 72
     1
  1
33
 73
     1
 44
1.0
1001
ACAD
1000
MTEXTBEGIN
1070
    73
1070
     1
1070
    44
1040
1.0
1070
    74
1070
     0
1000
MTEXTEND
  0
POINT
  5
37E5
330
37D3
100
AcDbEntity
  8
Defpoints
 62
     0
100
AcDbPoint
 10
50.0
 20
16.49999999999994
 30
0.0
  0
POINT
  5
37E6
330
37D3
100
AcDbEntity
  8
Defpoints
 62
     0
100
AcDbPoint
 10
17.0
 20
16.49999999999995
 30
0.0
  0
POINT
  5
37E7
330
37D3
100
AcDbEntity
  8
Defpoints
 62
     0
100
AcDbPoint
 10
17.0
 20
23.01674725799307
 30
0.0
  0
ENDBLK
  5
37DE
330
37D3
100
AcDbEntity
  8
0
100
AcDbBlockEnd
  0
ENDSEC
  0
SECTION
  2
ENTITIES
  0
DIMENSION
  5
773
330
22
100
AcDbEntity
  8
SK2
100
AcDbDimension
  2
*D70
 10
-31.80016552704544
 20
7.999999999999945
 30
0.0
 11
-31.80016552704544
 21
0.118923885299921
 31
0.0
 70
   160
  1
M<>
 71
     5
 42
16.0
  3
ISO-25
100
AcDbAlignedDimension
 13
-23.00000000000003
 23
-8.000000000000056
 33
0.0
 14
-23.00000000000003
 24
7.999999999999943
 34
0.0
 50
90.0
100
AcDbRotatedDimension
  0
DIMENSION
  5
775
330
22
100
AcDbEntity
  8
2
100
AcDbDimension
  2
*D71
 10
50.0
 20
29.22446362837291
 30
0.0
 11
25.7661657191957
 21
29.22446362837291
 31
0.0
 70
   160
  1
<>
 71
     5
 42
50.00000000000003
  3
ISO-25
100
AcDbAlignedDimension
 13
-0.0000000000000284
 23
11.92992545894304
 33
0.0
 14
50.0
 24
-0.5000000000000569
 34
0.0
100
AcDbRotatedDimension
  0
DIMENSION
  5
794
330
22
100
AcDbEntity
  8
2
100
AcDbDimension
  2
*D72
 10
69.61354965264084
 20
16.49999999999994
 30
0.0
 11
69.61354965264084
 21
0.4980023052024194
 31
0.0
 70
   160
  1
%%c<>
 71
     5
 42
33.0
  3
ISO-25
100
AcDbAlignedDimension
 13
50.5
 23
-16.50000000000005
 33
0.0
 14
48.96328248466921
 24
16.49999999999994
 34
0.0
 50
90.0
100
AcDbRotatedDimension
  0
TEXT
  5
7A8
330
22
100
AcDbEntity
  8
6
100
AcDbText
 10
-1.689762352562834
 20
-31.30003389673465
 30
0.0
 40
3.5
  1
15C1G033050X8R01
 41
1.199999999999999
 72
     1
 11
21.41023764743713
 21
-31.30003389673465
 31
0.0
100
AcDbText
  0
TEXT
  5
7F9
330
22
100
AcDbEntity
  8
6
100
AcDbText
 10
60.90171328931868
 20
28.81127570008113
 30
0.0
 40
3.0
  1
SHLT110408N-PH1
 41
1.199999999999999
100
AcDbText
  0
LWPOLYLINE
  5
11EE
330
22
100
AcDbEntity
  8
CUT
100
AcDbPolyline
 90
      276
 70
     1
 43
0.0
 10
49.99999999999994
 20
-5.891476000000068
 10
49.99964897289999
 20
-5.870537470900046
 10
49.99874299999999
 20
-5.849615000000028
 10
49.99729273609995
 20
-5.82893555220005
 10
49.99528499999996
 20
-5.80830300000008
 10
49.99273470769998
 20
-5.787882866100062
 10
49.98962699999998
 20
-5.767540000000053
 10
49.98597698969996
 20
-5.747376928500045
 10
49.98176899999998
 20
-5.727323000000069
 10
49.97699055319998
 20
-5.707353379200014
 10
49.97165599999999
 20
-5.68752500000005
 10
49.96573675889999
 20
-5.667732481400037
 10
49.95927599999999
 20
-5.648110000000031
 10
49.95227879349994
 20
-5.628651855500038
 10
49.94475799999998
 20
-5.609390000000075
 10
49.93675455089999
 20
-5.590422354200029
 10
49.92823499999997
 20
-5.571681000000069
 10
49.91923484779994
 20
-5.553255162400034
 10
49.90972899999997
 20
-5.535085000000037
 10
49.89965649459998
 20
-5.517059102900077
 10
49.88909699999993
 20
-5.499314000000026
 10
49.87803548319999
 20
-5.48181201340003
 10
49.86651000000001
 20
-5.464612000000045
 10
49.85455969589998
 20
-5.447769036400075
 10
49.84215899999998
 20
-5.431255000000078
 10
49.82936577309999
 20
-5.415152422300025
 10
49.81613899999996
 20
-5.39940400000006
 10
49.8023875083
 20
-5.383906222100051
 10
49.78822499999996
 20
-5.368783000000064
 10
49.77360506639996
 20
-5.353976787700048
 10
49.75859999999994
 20
-5.33956100000006
 10
49.74323661419998
 20
-5.325559973600036
 10
49.72750600000001
 20
-5.311973000000079
 10
49.71148381220001
 20
-5.298869327400041
 10
49.69511599999998
 20
-5.286200000000064
 10
49.67829328239997
 20
-5.273884175100022
 10
49.66115099999996
 20
-5.262017000000071
 10
49.64360921369996
 20
-5.250537598300013
 10
49.62577499999998
 20
-5.239518000000032
 10
49.6076589978
 20
-5.228965135000066
 10
49.58927199999999
 20
-5.218892000000039
 10
49.57070571309998
 20
-5.209351651500014
 10
49.55189299999995
 20
-5.200307000000066
 10
49.53272767419997
 20
-5.191710971400027
 10
49.51334399999996
 20
-5.183619000000078
 10
49.49363239889999
 20
-5.175980434300072
 10
49.47373099999999
 20
-5.168851000000074
 10
49.45363820669996
 20
-5.162230933300008
 10
49.43338
 20
-5.15613600000006
 10
49.41306446549998
 20
-5.150601965500072
 10
49.39260999999999
 20
-5.145606000000043
 10
49.37205269060001
 20
-5.141157020500031
 10
49.35138599999999
 20
-5.137247000000058
 10
49.33052165499998
 20
-5.13385675880005
 10
49.30957699999999
 20
-5.131005000000072
 10
49.28840679779995
 20
-5.12867372840003
 10
49.26718399999998
 20
-5.126881000000082
 10
49.24570723810001
 20
-5.125610324400042
 10
49.22420599999998
 20
-5.124876000000028
 10
48.88212299999998
 20
-5.118646000000069
 10
48.54004099999997
 20
-5.112521000000072
 10
48.19795799999997
 20
-5.106501000000037
 10
47.85587499999997
 20
-5.100586000000078
 10
47.51379199999997
 20
-5.094776000000081
 10
47.17170999999996
 20
-5.089072000000044
 10
46.82962699999996
 20
-5.08347400000008
 10
46.48754399999996
 20
-5.077983000000074
 10
46.14546199999995
 20
-5.072598000000027
 10
45.80337899999995
 20
-5.067321000000049
 10
45.461296
 20
-5.062151000000028
 10
45.119213
 20
-5.057090000000073
 10
44.77713099999999
 20
-5.052136000000075
 10
44.43504799999999
 20
-5.047291000000029
 10
44.09296499999999
 20
-5.042554000000052
 10
43.75088299999998
 20
-5.037927000000081
 10
43.40879999999998
 20
-5.033409000000062
 10
43.06671699999998
 20
-5.02900100000005
 10
42.72463499999997
 20
-5.024703000000044
 10
42.38255199999997
 20
-5.020516000000043
 10
42.04046899999997
 20
-5.01643800000005
 10
41.69838599999997
 20
-5.012472000000059
 10
41.35630399999996
 20
-5.008617000000072
 10
41.01422099999996
 20
-5.004873000000031
 10
40.67213799999996
 20
-5.00124100000005
 10
40.33005599999995
 20
-4.997720000000072
 10
39.98797299999996
 20
-4.994312000000036
 10
39.64588999999995
 20
-4.991016000000058
 10
39.30380699999995
 20
-4.987832000000082
 10
39.28231281999996
 20
-4.987985007200052
 10
39.260829
 20
-4.988690000000076
 10
39.23961236589997
 20
-4.98993800300002
 10
39.218436
 20
-4.991742000000044
 10
39.19749604229997
 20
-4.994086608000031
 10
39.176626
 20
-4.996989000000041
 10
39.15596296070004
 20
-5.000430836800035
 10
39.13540099999995
 20
-5.004432000000065
 10
39.11494905570004
 20
-5.008997362300021
 10
39.09463
 20
-5.014122000000043
 10
39.0743730035
 20
-5.019824960500045
 10
39.05427800000001
 20
-5.026075000000048
 10
39.03437720029996
 20
-5.032854855700065
 10
39.01466499999998
 20
-5.040165000000058
 10
38.99528039019998
 20
-5.047951180800055
 10
38.976115
 20
-5.05626200000006
 10
38.95730010969998
 20
-5.065045825600009
 10
38.93873500000001
 20
-5.074346000000048
 10
38.92034550149998
 20
-5.084202669900037
 10
38.90223199999997
 20
-5.094558000000063
 10
38.88439399290002
 20
-5.105404445600015
 10
38.86685499999999
 20
-5.11672800000008
 10
38.84970842410002
 20
-5.128467345400054
 10
38.83288999999996
 20
-5.140672000000051
 10
38.81651753699998
 20
-5.153260178500033
 10
38.8005
 20
-5.166297000000042
 10
38.78476423219996
 20
-5.17984618920002
 10
38.76940599999995
 20
-5.193822000000068
 10
38.75439595929999
 20
-5.208244395100052
 10
38.73978199999999
 20
-5.223068000000068
 10
38.72561408270002
 20
-5.238240969600042
 10
38.71186799999998
 20
-5.253797000000076
 10
38.69863563869996
 20
-5.269636430000048
 10
38.68584800000002
 20
-5.285837000000071
 10
38.67344234160004
 20
-5.302484406300038
 10
38.661498
 20
-5.319466000000034
 10
38.64996796559996
 20
-5.336839779400065
 10
38.63891199999995
 20
-5.354519000000038
 10
38.62834825199997
 20
-5.372476050900047
 10
38.61828099999997
 20
-5.390716000000054
 10
38.60877144249997
 20
-5.40913377190003
 10
38.59977599999997
 20
-5.427808000000027
 10
38.59125263030001
 20
-5.446834393900076
 10
38.58325299999996
 20
-5.466087000000072
 10
38.57572960919998
 20
-5.485668800600024
 10
38.568736
 20
-5.505446000000063
 10
38.56227263060004
 20
-5.525419672300074
 10
38.55635599999999
 20
-5.545562000000074
 10
38.55101987109998
 20
-5.565770174400029
 10
38.54624399999995
 20
-5.586118000000055
 10
38.5420346423
 20
-5.606579253100051
 10
38.538386
 20
-5.627148000000033
 10
38.5352773066
 20
-5.647926535400074
 10
38.53272799999997
 20
-5.66878100000008
 10
38.53071975899997
 20
-5.689876016300047
 10
38.52927
 20
-5.711017000000026
 10
38.52836390390002
 20
-5.732428181400052
 10
38.52801299999999
 20
-5.753855000000044
 10
38.52801299999999
 20
-15.67874000000006
 10
38.52836396280003
 20
-15.70027530020007
 10
38.52927
 20
-15.72179500000004
 10
38.53072003699998
 20
-15.7430558222
 10
38.53272799999997
 20
-15.76427100000006
 10
38.53527759399998
 20
-15.78525669340007
 10
38.538386
 20
-15.80616700000007
 10
38.54203566769996
 20
-15.82687877260002
 10
38.54624499999994
 20
-15.84748400000006
 10
38.5510215791
 20
-15.86798761910006
 10
38.55635699999999
 20
-15.88835300000005
 10
38.56227413530002
 20
-15.90866346910007
 10
38.568737
 20
-15.92880700000006
 10
38.57573174340001
 20
-15.9487635822
 10
38.58325499999995
 20
-15.96852700000005
 10
38.59125531679996
 20
-15.98796869870006
 10
38.59977799999996
 20
-16.00718700000004
 10
38.60877431269995
 20
-16.02606068130006
 10
38.61828399999996
 20
-16.04468100000008
 10
38.62835219929997
 20
-16.06313055890007
 10
38.638916
 20
-16.08130100000005
 10
38.6499726257
 20
-16.09920072770006
 10
38.66150299999998
 20
-16.11679900000007
 10
38.67344786400003
 20
-16.13400781370006
 10
38.685854
 20
-16.15088700000007
 10
38.69864138780002
 20
-16.16732265180008
 10
38.71187400000002
 20
-16.18340200000005
 10
38.72561986390002
 20
-16.19920165190007
 10
38.73978899999997
 20
-16.21462300000007
 10
38.75440224760001
 20
-16.22969739260003
 10
38.76941299999998
 20
-16.24437600000004
 10
38.78476992329996
 20
-16.25860931890002
 10
38.80050699999998
 20
-16.27242100000006
 10
38.8165228126
 20
-16.28571794580006
 10
38.83289699999995
 20
-16.29857100000004
 10
38.84971363829999
 20
-16.31104201560004
 10
38.86686200000003
 20
-16.32305300000007
 10
38.88439818800004
 20
-16.33464889210006
 10
38.90223799999996
 20
-16.34577200000007
 10
38.92034879880004
 20
-16.35640143400002
 10
38.938741
 20
-16.36653600000005
 10
38.95730273949999
 20
-16.37611077290006
 10
38.97611999999998
 20
-16.38517300000006
 10
38.99528211219996
 20
-16.39376163260005
 10
39.01466999999997
 20
-16.40182800000008
 10
39.03437830439998
 20
-16.40941620100005
 10
39.054282
 20
-16.41647600000004
 10
39.07437298259998
 20
-16.42300372310001
 10
39.09463299999999
 20
-16.42898600000006
 10
39.11494779189997
 20
-16.43438561800002
 10
39.135403
 20
-16.43922600000007
 10
39.15596120410004
 20
-16.44349808100003
 10
39.176628
 20
-16.44721000000004
 10
39.19749387580004
 20
-16.45038062730003
 10
39.218437
 20
-16.45299200000005
 10
39.23960979470002
 20
-16.45506131580004
 10
39.26083
 20
-16.45657200000005
 10
39.28230990870003
 20
-16.45753874490003
 10
39.30380699999995
 20
-16.45795000000004
 10
39.98797299999996
 20
-16.45991500000008
 10
41.01422099999996
 20
-16.46312200000005
 10
41.69838599999997
 20
-16.46543400000007
 10
42.38255199999997
 20
-16.46788500000008
 10
43.40879999999998
 20
-16.47182000000003
 10
44.09296499999999
 20
-16.47461700000008
 10
45.119213
 20
-16.47907200000003
 10
45.80337899999995
 20
-16.48221400000005
 10
46.48754399999996
 20
-16.48549500000007
 10
47.51379199999997
 20
-16.49067600000006
 10
48.19795799999997
 20
-16.49430200000006
 10
48.88212299999998
 20
-16.49806600000005
 10
49.22420599999998
 20
-16.50000000000005
 10
49.24570119429995
 20
-16.49977230190006
 10
49.26718399999998
 20
-16.49899000000005
 10
49.28840226009999
 20
-16.49766301500006
 10
49.30957799999998
 20
-16.49577800000003
 10
49.3305186389
 20
-16.49335100210004
 10
49.35138699999999
 20
-16.49036500000005
 10
49.37205132599996
 20
-16.48683828700007
 10
49.39261199999998
 20
-16.48275100000006
 10
49.41306521299998
 20
-16.47809690120005
 10
49.43338299999999
 20
-16.47288300000008
 10
49.4536412214
 20
-16.46708947960002
 10
49.47373499999997
 20
-16.46074900000008
 10
49.49363694350001
 20
-16.45387695000005
 10
49.51334799999995
 20
-16.44647500000008
 10
49.53273429999995
 20
-16.43859662830005
 10
49.55189899999999
 20
-16.43019400000003
 10
49.57071439009997
 20
-16.42131715270005
 10
49.58927799999997
 20
-16.41192500000005
 10
49.607668913
 20
-16.40197567800004
 10
49.62578199999995
 20
-16.39152900000005
 10
49.64362033689997
 20
-16.38058992740002
 10
49.66115799999994
 20
-16.36917500000004
 10
49.67830555059999
 20
-16.35734458710004
 10
49.69512399999996
 20
-16.34505100000007
 10
49.71149711189998
 20
-16.33237511100003
 10
49.72751399999999
 20
-16.31925200000006
 10
49.74324967460001
 20
-16.30561544770006
 10
49.75860699999998
 20
-16.29155400000007
 10
49.77361715029997
 20
-16.27704706200006
 10
49.78823099999994
 20
-16.26214100000004
 10
49.8023990991
 20
-16.24688670180006
 10
49.81614499999995
 20
-16.23125100000004
 10
49.8293773377
 20
-16.21533368790005
 10
49.84216499999996
 20
-16.19905700000004
 10
49.85457056209998
 20
-16.18233529440004
 10
49.86651499999999
 20
-16.16528100000005
 10
49.8780449404
 20
-16.14783604780007
 10
49.88910099999998
 20
-16.13008700000006
 10
49.89966444309999
 20
-16.11206276440003
 10
49.90973199999996
 20
-16.09375700000004
 10
49.91924195830001
 20
-16.07527624330004
 10
49.92823799999996
 20
-16.05654000000004
 10
49.93676069899999
 20
-16.03745418980003
 10
49.94475999999997
 20
-16.01814300000006
 10
49.95228301409998
 20
-15.99850578130008
 10
49.95927699999999
 20
-15.97867400000007
 10
49.96574022210001
 20
-15.95864906800005
 10
49.971657
 20
-15.93845600000003
 10
49.97699281089996
 20
-15.91820059210005
 10
49.98176899999998
 20
-15.89780600000006
 10
49.98597879660002
 20
-15.87730161720003
 10
49.98962799999998
 20
-15.85669000000007
 10
49.99273618599994
 20
-15.83587189750005
 10
49.99528499999996
 20
-15.81497800000005
 10
49.99729300449996
 20
-15.79384691290005
 10
49.99874299999999
 20
-15.77267000000006
 10
49.9996492464
 20
-15.75122583570004
 10
49.99999999999994
 20
-15.72976600000004
  0
LINE
  5
20E8
330
22
100
AcDbEntity
  8
3
100
AcDbLine
 10
8.999999999999971
 20
2.999999999999943
 30
0.0
 11
-0.0000000000000284
 21
2.999999999999943
 31
0.0
  0
LINE
  5
20EC
330
22
100
AcDbEntity
  8
3
100
AcDbLine
 10
10.80258185709996
 20
-0.0000000000000568
 30
0.0
 11
8.999999999999971
 21
-3.000000000000056
 31
0.0
  0
LINE
  5
20EE
330
22
100
AcDbEntity
  8
3
100
AcDbLine
 10
10.80258185709996
 20
-0.0000000000000568
 30
0.0
 11
8.999999999999971
 21
2.999999999999943
 31
0.0
  0
LINE
  5
20EF
330
22
100
AcDbEntity
  8
3
100
AcDbLine
 10
8.999999999999971
 20
2.999999999999943
 30
0.0
 11
8.999999999999971
 21
-3.000000000000056
 31
0.0
  0
LINE
  5
20F1
330
22
100
AcDbEntity
  8
3
100
AcDbLine
 10
8.999999999999971
 20
-3.000000000000056
 30
0.0
 11
-0.0000000000000284
 21
-3.000000000000056
 31
0.0
  0
LINE
  5
2106
330
22
100
AcDbEntity
  8
SK3
100
AcDbLine
 10
-22.50000000000003
 20
2.999999999999943
 30
0.0
 11
-22.50000000000003
 21
-3.000000000000056
 31
0.0
  0
LWPOLYLINE
  5
24CF
330
22
100
AcDbEntity
  8
1
100
AcDbPolyline
 90
        7
 70
     0
 43
0.0
 10
49.84740689380001
 20
-15.69999883540004
 10
49.85302581410002
 20
-15.69135421760006
 10
49.8584217229
 20
-15.6823850624001
 10
49.863595994
 20
-15.67310291940009
 10
49.8685445053
 20
-15.66347314030003
 10
49.87326313450001
 20
-15.65346107710002
 10
49.87775325570002
 20
-15.64307827890002
  0
LWPOLYLINE
  5
24D8
330
22
100
AcDbEntity
  8
1
100
AcDbPolyline
 90
       19
 70
     0
 43
0.0
 10
49.84740689380001
 20
-15.69999883540004
 10
49.8325062509
 20
-15.72226015410007
 10
49.81585178580002
 20
-15.74702005990008
 10
49.79719323140002
 20
-15.77411897390004
 10
49.7764953738
 20
-15.8029596052001
 10
49.7538384154
 20
-15.83302963330004
 10
49.72923544630001
 20
-15.86386469960001
 10
49.7028002403
 20
-15.89502123220006
 10
49.67476104099998
 20
-15.92600480880008
 10
49.64551622480001
 20
-15.95626129900006
 10
49.61512231970002
 20
-15.98580763260008
 10
49.58358736459999
 20
-16.01456378960006
 10
49.5513942739
 20
-16.04221620130011
 10
49.51893931340001
 20
-16.06859447710002
 10
49.4867206678
 20
-16.09352829530002
 10
49.45523340290001
 20
-16.11698789080003
 10
49.4250104061
 20
-16.13886749900007
 10
49.39668490639999
 20
-16.15917362430002
 10
49.37041927089999
 20
-16.1781512134001
  0
LWPOLYLINE
  5
24ED
330
22
100
AcDbEntity
  8
1
100
AcDbPolyline
 90
        7
 70
     0
 43
0.0
 10
49.30463826270003
 20
-16.21759276030002
 10
49.31632554890001
 20
-16.21175785100013
 10
49.32771157190001
 20
-16.20562554120005
 10
49.33878531669998
 20
-16.19919402410005
 10
49.34957982830002
 20
-16.19246872080003
 10
49.36012815130002
 20
-16.18545505300005
 10
49.37041927089999
 20
-16.1781512134001
  0
LWPOLYLINE
  5
24F6
330
22
100
AcDbEntity
  8
1
100
AcDbPolyline
 90
       11
 70
     0
 43
0.0
 10
49.08693729810003
 20
-15.23058207380006
 10
49.12022256259999
 20
-15.21462602100013
 10
49.15061227710001
 20
-15.19560211560008
 10
49.17828494440001
 20
-15.17337266860005
 10
49.20270505639999
 20
-15.14835074730007
 10
49.22336339120002
 20
-15.12086286140004
 10
49.2403595925
 20
-15.09103099500004
 10
49.25362656550001
 20
-15.05909171960002
 10
49.26315530380001
 20
-15.02502778390004
 10
49.26891051470002
 20
-14.98890849470007
 10
49.27090396230003
 20
-14.95071074990011
  0
LWPOLYLINE
  5
2503
330
22
100
AcDbEntity
  8
1
100
AcDbPolyline
 90
        7
 70
     0
 43
0.0
 10
48.74048881730002
 20
15.21477648659993
 10
48.74012408519999
 20
15.21564730779994
 10
48.73976795400003
 20
15.2163479676999
 10
48.7395186686
 20
15.21682198089991
 10
48.73908149410002
 20
15.21723880329989
 10
48.73816169599999
 20
15.21776789059993
 10
48.73685751910002
 20
15.2183527576999
  0
LWPOLYLINE
  5
250C
330
22
100
AcDbEntity
  8
1
100
AcDbPolyline
 90
       15
 70
     0
 43
0.0
 10
50.0
 20
-5.722716620400035
 10
49.99495427790001
 20
-5.634123465700042
 10
49.98046645479999
 20
-5.548043620100088
 10
49.95634051580001
 20
-5.463995642300062
 10
49.92316450570001
 20
-5.383423856100023
 10
49.8812448045
 20
-5.307350651200067
 10
49.83123039150001
 20
-5.23656038870007
 10
49.77361118650001
 20
-5.17196302700006
 10
49.70917074759999
 20
-5.114204164600039
 10
49.63855348480001
 20
-5.064069144700056
 10
49.56266676340002
 20
-5.02204869220003
 10
49.48229294739999
 20
-4.988792930300007
 10
49.39845145130002
 20
-4.964609006300065
 10
49.31258250280001
 20
-4.950086257000066
 10
49.2242060261
 20
-4.945028236700125
  0
LWPOLYLINE
  5
251D
330
22
100
AcDbEntity
  8
1
100
AcDbPolyline
 90
        7
 70
     0
 43
0.0
 10
49.87775325570002
 20
-15.64307827890002
 10
49.87934131290001
 20
-15.67354650320004
 10
49.88099463410001
 20
-15.70374865940005
 10
49.88271296040003
 20
-15.7336186521
 10
49.88449706830002
 20
-15.76335476780002
 10
49.886347734
 20
-15.79315529280001
 10
49.88826469880002
 20
-15.82295413180003
  0
LWPOLYLINE
  5
2526
330
22
100
AcDbEntity
  8
1
100
AcDbPolyline
 90
       11
 70
     0
 43
0.0
 10
49.27090396230003
 20
-6.439345723500082
 10
49.2690398327
 20
-6.401968262800039
 10
49.26344390380001
 20
-6.366361673300048
 10
49.2541481739
 20
-6.332483652300084
 10
49.24105664809999
 20
-6.300461107900048
 10
49.22400616450002
 20
-6.270244963400102
 10
49.20323022249999
 20
-6.242320869900083
 10
49.17877698410001
 20
-6.217110170200101
 10
49.15103929880001
 20
-6.194756711300101
 10
49.12047718310001
 20
-6.175580324600048
 10
49.08693729810003
 20
-6.159474399500084
  0
LWPOLYLINE
  5
2533
330
22
100
AcDbEntity
  8
1
100
AcDbPolyline
 90
        9
 70
     0
 43
0.0
 10
48.7355009517
 20
6.220123993699928
 10
48.74100624600001
 20
6.104975483699888
 10
48.74548260610001
 20
5.981121224799892
 10
48.74886835790002
 20
5.850556184599952
 10
48.75110143140003
 20
5.715293360499913
 10
48.7521323444
 20
5.577370863199973
 10
48.75196058259999
 20
5.438935140799912
 10
48.7505981555
 20
5.302163084799929
 10
48.74805711690001
 20
5.169212779299982
  0
LWPOLYLINE
  5
253E
330
22
100
AcDbEntity
  8
1
100
AcDbPolyline
 90
       21
 70
     0
 43
0.0
 10
49.81183836700001
 20
5.817775716299934
 10
49.81274562680003
 20
5.764910852599882
 10
49.80930900339998
 20
5.712449338999874
 10
49.8015061156
 20
5.660192542099935
 10
49.78940410710001
 20
5.608736362299907
 10
49.77301824140003
 20
5.558494472099937
 10
49.7524817776
 20
5.509814921999918
 10
49.72786641280001
 20
5.463085693699895
 10
49.6993720971
 20
5.418600666499912
 10
49.66711015090002
 20
5.376671267099936
 10
49.63141816080002
 20
5.337632835299928
 10
49.59259250409999
 20
5.3018704390999
 10
49.55086812970001
 20
5.269546320499898
 10
49.50641771410002
 20
5.240876519199957
 10
49.4597244528
 20
5.216084711599933
 10
49.41124741749999
 20
5.195467473999883
 10
49.36123165649999
 20
5.17902214759988
 10
49.30992007099999
 20
5.166829396999901
 10
49.25777817470001
 20
5.158935828699895
 10
49.20542075839998
 20
5.155424124499916
 10
49.1526428919
 20
5.1562667236999
  0
LWPOLYLINE
  5
2555
330
22
100
AcDbEntity
  8
1
100
AcDbPolyline
 90
       39
 70
     0
 43
0.0
 10
50.0
 20
-5.722716533400102
 10
49.99984636920001
 20
-5.712512529300056
 10
49.99941470350001
 20
-5.702750696000123
 10
49.9986852058
 20
-5.693364879600039
 10
49.99771726730003
 20
-5.684553541800028
 10
49.9965554321
 20
-5.676547073100095
 10
49.99522444390001
 20
-5.669183534200101
 10
49.99376258089998
 20
-5.662406230000044
 10
49.9921737837
 20
-5.656129818600049
 10
49.990474347
 20
-5.650262887100041
 10
49.98866548650003
 20
-5.644766954300052
 10
49.98675399410001
 20
-5.639581108200047
 10
49.9847394356
 20
-5.634681228200065
 10
49.98262437900002
 20
-5.630028587100014
 10
49.98040661080003
 20
-5.625606093300064
 10
49.97808576540001
 20
-5.621387418400104
 10
49.97565886710001
 20
-5.617361546600079
 10
49.97312363599999
 20
-5.613510591700105
 10
49.9704776195
 20
-5.609828836100064
 10
49.96771874940001
 20
-5.606305978100067
 10
49.96484359249999
 20
-5.602937883000095
 10
49.96184935229999
 20
-5.599717717400096
 10
49.95873205019998
 20
-5.596643275900078
 10
49.95548837219999
 20
-5.593710349400055
 10
49.95211352740003
 20
-5.590918116100056
 10
49.94860329690002
 20
-5.58826407890001
 10
49.94495265060002
 20
-5.585749054600057
 10
49.94115679180001
 20
-5.583372277200055
 10
49.93721080130001
 20
-5.581135997700073
 10
49.9331099782
 20
-5.579041188900021
 10
49.92884887030001
 20
-5.577090918800081
 10
49.92442260020002
 20
-5.575287311400018
 10
49.91982474260002
 20
-5.573634171600076
 10
49.91504970420002
 20
-5.572134430400069
 10
49.91009011140002
 20
-5.57079283430005
 10
49.9049392185
 20
-5.569613138900024
 10
49.8995895484
 20
-5.568601247400124
 10
49.89403015939998
 20
-5.567765209300034
 10
49.88826469880002
 20
-5.56710234150006
  0
LWPOLYLINE
  5
257E
330
22
100
AcDbEntity
  8
1
100
AcDbPolyline
 90
       13
 70
     0
 43
0.0
 10
49.79842925470001
 20
6.223271315599959
 10
49.7985341676
 20
6.189578473899928
 10
49.79884533700001
 20
6.155899467199958
 10
49.79936686599998
 20
6.122242998899935
 10
49.80008644570003
 20
6.08858295869993
 10
49.80099574480002
 20
6.054900131199929
 10
49.80208693330002
 20
6.021182534499928
 10
49.80335502850002
 20
5.987411537299919
 10
49.80478315780001
 20
5.953587872699927
 10
49.80635614889999
 20
5.919701724199967
 10
49.80806391800001
 20
5.885766109399924
 10
49.80988943140002
 20
5.851791991599895
 10
49.81183836700001
 20
5.817775716299934
  0
LINE
  5
258D
330
22
100
AcDbEntity
  8
1
100
AcDbLine
 10
50.0
 20
-15.66733985290006
 30
0.0
 11
50.0
 21
-5.722716620400035
 31
0.0
  0
LINE
  5
258E
330
22
100
AcDbEntity
  8
1
100
AcDbLine
 10
50.0
 20
15.68938701019994
 30
0.0
 11
50.0
 21
5.746278392099952
 31
0.0
  0
LINE
  5
258F
330
22
100
AcDbEntity
  8
1
100
AcDbLine
 10
49.88826469880002
 20
-15.82295413180003
 30
0.0
 11
49.88826469880002
 21
-5.56710234150006
 31
0.0
  0
LINE
  5
2590
330
22
100
AcDbEntity
  8
1
100
AcDbLine
 10
49.87775325570002
 20
-15.64307827890002
 30
0.0
 11
49.87775325570002
 21
-5.746978194400071
 31
0.0
  0
LINE
  5
2591
330
22
100
AcDbEntity
  8
1
100
AcDbLine
 10
49.79842925470001
 20
15.21190209629992
 30
0.0
 11
49.79842925470001
 21
6.223271315599959
 31
0.0
  0
LINE
  5
2592
330
22
100
AcDbEntity
  8
1
100
AcDbLine
 10
49.27090396230003
 20
-14.95071074990011
 30
0.0
 11
49.27090396230003
 21
-6.439345723500082
 31
0.0
  0
LINE
  5
2593
330
22
100
AcDbEntity
  8
1
100
AcDbLine
 10
48.74008754249999
 20
6.223769156699916
 30
0.0
 11
48.74048881730002
 21
15.21477648659993
 31
0.0
  0
LINE
  5
2594
330
22
100
AcDbEntity
  8
1
100
AcDbLine
 10
48.60271400220003
 20
-14.70868151150006
 30
0.0
 11
48.60271400220003
 21
-14.69502823670012
 31
0.0
  0
LINE
  5
2595
330
22
100
AcDbEntity
  8
1
100
AcDbLine
 10
48.60271400220003
 20
4.967003218499939
 30
0.0
 11
48.60271400220003
 21
-14.69502823670012
 31
0.0
  0
LWPOLYLINE
  5
2596
330
22
100
AcDbEntity
  8
1
100
AcDbPolyline
 90
       15
 70
     0
 43
0.0
 10
50.0
 20
5.746278392099952
 10
49.99495427790001
 20
5.65769257279993
 10
49.98046645479999
 20
5.571608156699937
 10
49.95634051580001
 20
5.487543536699945
 10
49.92316450570001
 20
5.406943534299955
 10
49.8812448045
 20
5.330830757299906
 10
49.83123039150001
 20
5.259990239399883
 10
49.77361118650001
 20
5.19533239819998
 10
49.70917074759999
 20
5.137503690199935
 10
49.63855348480001
 20
5.087290125499919
 10
49.56266676340002
 20
5.045183461299927
 10
49.48229294739999
 20
5.01183467699991
 10
49.39845145130002
 20
4.987552116899905
 10
49.31258250280001
 20
4.972926785699939
 10
49.2242060261
 20
4.967761681899901
  0
LWPOLYLINE
  5
25A7
330
22
100
AcDbEntity
  8
1
100
AcDbPolyline
 90
       13
 70
     0
 43
0.0
 10
49.8118383668
 20
15.61743042149987
 10
49.80988752980002
 20
15.58337858529995
 10
49.80805920630001
 20
15.54934061969999
 10
49.80634720890001
 20
15.51530464769991
 10
49.80477009969999
 20
15.48130629969995
 10
49.80333923029999
 20
15.44737357949992
 10
49.80207004550002
 20
15.41351748999995
 10
49.80098054219999
 20
15.3797664189999
 10
49.80007441450002
 20
15.34609621589993
 10
49.79935891970001
 20
15.31250221889996
 10
49.79884136500001
 20
15.27895434959993
 10
49.7985326925
 20
15.24541702129994
 10
49.79842925470001
 20
15.21190209629992
  0
LWPOLYLINE
  5
25B6
330
22
100
AcDbEntity
  8
1
100
AcDbPolyline
 90
        7
 70
     0
 43
0.0
 10
49.88826469880002
 20
-5.56710234150006
 10
49.88634747380001
 20
-5.596905343600042
 10
49.88449663080001
 20
-5.62670886590007
 10
49.88271240859998
 20
-5.65644728080008
 10
49.88099409060001
 20
-5.686317470700032
 10
49.87934096
 20
-5.716516317700097
 10
49.87775325570002
 20
-5.746978194400071
  0
LINE
  5
25BF
330
22
100
AcDbEntity
  8
1
100
AcDbLine
 10
49.27090396230003
 20
-6.439345723500082
 30
0.0
 11
49.84740689380001
 21
-5.690057637900054
 31
0.0
  0
LINE
  5
25C0
330
22
100
AcDbEntity
  8
1
100
AcDbLine
 10
48.79391633949999
 20
-5.961193345500078
 30
0.0
 11
49.37041927089999
 21
-5.211905259900106
 31
0.0
  0
LINE
  5
25C1
330
22
100
AcDbEntity
  8
1
100
AcDbLine
 10
49.08693729810003
 20
-6.159474399500084
 30
0.0
 11
48.60271400220003
 21
-6.681374961800031
 31
0.0
  0
LINE
  5
25C2
330
22
100
AcDbEntity
  8
1
100
AcDbLine
 10
40.0379263861
 20
-15.23058207380006
 30
0.0
 11
40.59496156779999
 21
-14.70868151150006
 31
0.0
  0
LINE
  5
25C3
330
22
100
AcDbEntity
  8
1
100
AcDbLine
 10
40.30328457049998
 20
-15.42886312780001
 30
0.0
 11
39.38486178709999
 21
-16.1781512134001
 31
0.0
  0
LINE
  5
25C4
330
22
100
AcDbEntity
  8
1
100
AcDbLine
 10
39.8262969477
 20
-14.95071074990011
 30
0.0
 11
38.90787416429999
 21
-15.69999883540004
 31
0.0
  0
LWPOLYLINE
  5
25C5
330
22
100
AcDbEntity
  8
1
100
AcDbPolyline
 90
       11
 70
     0
 43
0.0
 10
36.48593655900001
 20
-15.65931469920008
 10
36.7628859804
 20
-15.53551385400004
 10
37.0725847258
 20
-15.40539825670009
 10
37.40846355419999
 20
-15.27506347790006
 10
37.76427798890001
 20
-15.15100275330008
 10
38.1377998477
 20
-15.03652147550008
 10
38.52596626959999
 20
-14.93488435160009
 10
38.92503681369999
 20
-14.84886715770011
 10
39.3341213384
 20
-14.78072161510005
 10
39.74160608419999
 20
-14.73183709470004
 10
40.1340917686
 20
-14.70300464530004
  0
LWPOLYLINE
  5
25D2
330
22
100
AcDbEntity
  8
1
100
AcDbPolyline
 90
       21
 70
     0
 43
0.0
 10
49.15264289480001
 20
16.27733046449992
 10
49.2053881203
 20
16.27830417109999
 10
49.2577256278
 20
16.27492355269993
 10
49.30985356970001
 20
16.26716641889993
 10
49.3611774885
 20
16.25509934139995
 10
49.41128467510001
 20
16.23873711519991
 10
49.45982803620001
 20
16.21821288079991
 10
49.5064205635
 20
16.19359802709993
 10
49.55076929240002
 20
16.16509260439989
 10
49.592563643
 20
16.13280780889994
 10
49.63146945259999
 20
16.0970815922999
 10
49.6671028936
 20
16.05821054169996
 10
49.69930238029999
 20
16.01642994709993
 10
49.7278525771
 20
15.97191261699993
 10
49.75253090640001
 20
15.92514258169996
 10
49.7730420286
 20
15.87657960329989
 10
49.78938889460002
 20
15.82646929479989
 10
49.80149131990001
 20
15.77505501539997
 10
49.80930337110001
 20
15.72280328849996
 10
49.81274330409999
 20
15.67033021259988
 10
49.8118383668
 20
15.61743042149987
  0
LWPOLYLINE
  5
25E9
330
22
100
AcDbEntity
  8
1
100
AcDbPolyline
 90
       13
 70
     0
 43
0.0
 10
48.74805711759998
 20
16.26339690299988
 10
48.78167313280002
 20
16.26354308059996
 10
48.81527559580002
 20
16.26389597059995
 10
48.84885582800001
 20
16.2644596744999
 10
48.8824398651
 20
16.26522188709992
 10
48.91604686849999
 20
16.26617428139997
 10
48.94968878300002
 20
16.26730902419996
 10
48.98338419160001
 20
16.26862114399989
 10
49.01713234210001
 20
16.27009372859999
 10
49.05094301
 20
16.27171158279992
 10
49.08480319550003
 20
16.27346458399989
 10
49.1187019395
 20
16.27533564619989
 10
49.15264289480001
 20
16.27733046449992
  0
LINE
  5
25F8
330
22
100
AcDbEntity
  8
1
100
AcDbLine
 10
39.303807396
 20
16.45390340959994
 30
0.0
 11
49.22420602600002
 21
16.46601017619991
 31
0.0
  0
LINE
  5
25F9
330
22
100
AcDbEntity
  8
1
100
AcDbLine
 10
39.77995630449999
 20
16.25245231219998
 30
0.0
 11
48.74805711759998
 21
16.26339690299988
 31
0.0
  0
LWPOLYLINE
  5
25FA
330
22
100
AcDbEntity
  8
1
100
AcDbPolyline
 90
        5
 70
     0
 43
0.0
 10
35.67439591909999
 20
15.99945875789996
 10
31.90864765539999
 20
15.99512531599993
 10
28.14455230490001
 20
15.98646436569993
 10
24.38210986759998
 20
15.97347590729993
 10
20.62132034359999
 20
15.9561599404999
  0
LWPOLYLINE
  5
2601
330
22
100
AcDbEntity
  8
1
100
AcDbPolyline
 90
        9
 70
     0
 43
0.0
 10
39.76249444460001
 20
15.20370688819997
 10
39.6544304828
 20
15.20939101739992
 10
39.53642262749998
 20
15.20002412469995
 10
39.41038281569999
 20
15.19480440959995
 10
39.27821988669999
 20
15.19829980699995
 10
39.14190002499998
 20
15.19787488899988
 10
39.0035659564
 20
15.19774914539994
 10
38.8654046003
 20
15.19792223319996
 10
38.7295841673
 20
15.19839377519992
  0
LWPOLYLINE
  5
260C
330
22
100
AcDbEntity
  8
1
100
AcDbPolyline
 90
       15
 70
     0
 43
0.0
 10
49.22420602600002
 20
16.46601017619991
 10
49.3125833723
 20
16.46106075819995
 10
49.39845353169999
 20
16.44664456449993
 10
49.48229677290001
 20
16.42256571739995
 10
49.56267229030001
 20
16.38941184969997
 10
49.63856018470003
 20
16.34748879789998
 10
49.70917800560002
 20
16.29744607229992
 10
49.77361801140003
 20
16.23977360609996
 10
49.83123617610002
 20
16.1752559654999
 10
49.88124906959999
 20
16.1045380793999
 10
49.92316716240001
 20
16.0285287929999
 10
49.95634191490004
 20
15.94801146969996
 10
49.98046692810001
 20
15.86400748379992
 10
49.9949543008
 20
15.77795964259991
 10
50.0
 20
15.68938701019994
  0
LWPOLYLINE
  5
261D
330
22
100
AcDbEntity
  8
1
100
AcDbPolyline
 90
       13
 70
     0
 43
0.0
 10
39.37537053009999
 20
16.26539836779994
 10
39.40934221679999
 20
16.26348452359997
 10
39.4433002138
 20
16.26169345669996
 10
39.4772563633
 20
16.26001897989994
 10
39.51117513899999
 20
16.25847965459996
 10
39.54502861489999
 20
16.25708682409993
 10
39.578805832
 20
16.25585595519993
 10
39.61247848919999
 20
16.25480505159993
 10
39.6460706865
 20
16.25393784519991
 10
39.67958708379999
 20
16.25326161559991
 10
39.71305769989999
 20
16.25278372339994
 10
39.74651805330001
 20
16.25251517889995
 10
39.77995630449999
 20
16.25245231219998
  0
LINE
  5
262C
330
22
100
AcDbEntity
  8
1
100
AcDbLine
 10
38.52543948240001
 20
14.84368399259989
 30
0.0
 11
38.38262043509999
 21
14.87345098799989
 31
0.0
  0
LINE
  5
262D
330
22
100
AcDbEntity
  8
1
100
AcDbLine
 10
38.38262043509999
 20
14.87345098799989
 30
0.0
 11
38.1035352783
 21
14.93794150569994
 31
0.0
  0
LWPOLYLINE
  5
266D
330
22
100
AcDbEntity
  8
1
100
AcDbPolyline
 90
        7
 70
     0
 43
0.0
 10
38.1035352783
 20
14.93794150569994
 10
37.90318994009999
 20
14.99074126989995
 10
37.4341690656
 20
15.13656016509992
 10
36.97479442759999
 20
15.31126161849994
 10
36.5273561784
 20
15.51378379509992
 10
36.09414447019998
 20
15.74306485999995
 10
35.67439591909999
 20
15.99945875789996
  0
LINE
  5
2676
330
22
100
AcDbEntity
  8
1
100
AcDbLine
 10
38.06957999839998
 20
14.9594386533999
 30
0.0
 11
38.1066495147
 21
14.94898774379993
 31
0.0
  0
LWPOLYLINE
  5
2677
330
22
100
AcDbEntity
  8
1
100
AcDbPolyline
 90
       11
 70
     0
 43
0.0
 10
35.67439591909999
 20
15.99945875789996
 10
35.7377940927
 20
15.97827429229988
 10
35.84422248199999
 20
15.92821074879992
 10
35.99493164559999
 20
15.85141794689991
 10
36.18616990759998
 20
15.7519401676999
 10
36.41451405519999
 20
15.63518897529997
 10
36.68022925789998
 20
15.50530173349995
 10
36.98478872109999
 20
15.36601339749995
 10
37.3211451247
 20
15.22410998879991
 10
37.68487665079999
 20
15.08702987689992
 10
38.06957999839998
 20
14.9594386533999
  0
LWPOLYLINE
  5
2684
330
22
100
AcDbEntity
  8
1
100
AcDbPolyline
 90
       11
 70
     0
 43
0.0
 10
39.76273811529998
 20
15.20458088879991
 10
39.6779056945
 20
15.23747714989992
 10
39.5854352433
 20
15.27317634839994
 10
39.48651528779999
 20
15.31122140239995
 10
39.38230916710001
 20
15.35116490009989
 10
39.273957881
 20
15.39256785989994
 10
39.16273719239999
 20
15.43494100329991
 10
39.05004533139999
 20
15.47775339949993
 10
38.93717288659999
 20
15.52051625619992
 10
38.8254287131
 20
15.56273364219999
 10
38.71617505519998
 20
15.60388937229993
  0
LWPOLYLINE
  5
26D3
330
22
100
AcDbEntity
  8
1
100
AcDbPolyline
 90
       11
 70
     0
 43
0.0
 10
48.73640234239999
 20
6.220207406799943
 10
48.76918580810002
 20
6.128966724899953
 10
48.81766637870001
 20
6.031077554999967
 10
48.86410828469999
 20
5.927467675299965
 10
48.90344295310001
 20
5.819854641599931
 10
48.9471060109
 20
5.709080777099927
 10
48.99058877160001
 20
5.596585120999918
 10
49.03336332500001
 20
5.483764937199964
 10
49.07495579939999
 20
5.371897779199912
 10
49.11488328150003
 20
5.262281397099968
 10
49.15264289199999
 20
5.1562667236999
  0
LWPOLYLINE
  5
26E0
330
22
100
AcDbEntity
  8
1
100
AcDbPolyline
 90
       41
 70
     0
 43
0.0
 10
47.4755958586
 20
10.71790104489992
 10
47.46555003730001
 20
10.97220576689989
 10
47.43590127960001
 20
11.22337465789996
 10
47.3864678249
 20
11.47216631679998
 10
47.31779495499998
 20
11.71630494719994
 10
47.23012999429999
 20
11.95423536899989
 10
47.12418505439998
 20
12.18455433309992
 10
47.00044719000001
 20
12.40576488109997
 10
46.85983889619999
 20
12.6165929615999
 10
46.70307496500001
 20
12.81563669809992
 10
46.53126555999998
 20
13.00178260799993
 10
46.34533561020001
 20
13.17375841539996
 10
46.1465556119
 20
13.33063862459994
 10
45.93603785600001
 20
13.47131188799989
 10
45.71518188759998
 20
13.5950634850999
 10
45.48525997129999
 20
13.70097036169994
 10
45.24776623980002
 20
13.78854617169992
 10
45.00410160380002
 20
13.85707888279995
 10
44.75581799300002
 20
13.90632249849995
 10
44.50441046939999
 20
13.93579354139996
 10
44.25145054570001
 20
13.94549242159991
 10
43.99849062210001
 20
13.93517612129995
 10
43.74708309849999
 20
13.90509144739991
 10
43.49879948769998
 20
13.85524182539995
 10
43.25513485169998
 20
13.78611438199994
 10
43.01764112019998
 20
13.69795890149987
 10
42.78771920389999
 20
13.59149083549994
 10
42.56686323549999
 20
13.46720017709992
 10
42.35634547959998
 20
13.3260130857999
 10
42.15756548129999
 20
13.16864769789998
 10
41.9716355315
 20
12.99621807589995
 10
41.79982612649999
 20
12.80965281659991
 10
41.64306219529999
 20
12.61022645359998
 10
41.50245390149999
 20
12.39905517879992
 10
41.37871603709998
 20
12.17754261359994
 10
41.2727710972
 20
11.94696506089991
 10
41.18510613649999
 20
11.70882066809991
 10
41.11643326660001
 20
11.46451442209996
 10
41.06699981189999
 20
11.21560210699994
 10
41.03735105419997
 20
10.9643608497999
 10
41.0273052329
 20
10.71003160809994
  0
LINE
  5
27D3
330
22
100
AcDbEntity
  8
1
100
AcDbLine
 10
48.10271400220003
 20
-14.69502823670012
 30
0.0
 11
48.10271400220003
 21
4.115498077999916
 31
0.0
  0
LWPOLYLINE
  5
28A9
330
22
100
AcDbEntity
  8
1
100
AcDbPolyline
 90
        9
 70
     0
 43
0.0
 10
48.73640234239999
 20
15.21867203719995
 10
48.74911648220001
 20
15.33115321239995
 10
48.74548260610001
 20
15.45277355569993
 10
48.7446629815
 20
15.58164629619989
 10
48.75110143140003
 20
15.71579671539996
 10
48.7521323444
 20
15.85320462009991
 10
48.75196058259999
 20
15.99172607939988
 10
48.7505981555
 20
16.12917820739994
 10
48.74805711690001
 20
16.26339690299988
  0
LWPOLYLINE
  5
28B4
330
22
100
AcDbEntity
  8
1
100
AcDbPolyline
 90
        7
 70
     0
 43
0.0
 10
38.765310376
 20
-15.82295413180003
 10
38.7824955554
 20
-15.7931508548001
 10
38.79908565589997
 20
-15.76334716710005
 10
38.81507853279999
 20
-15.73360869560008
 10
38.8304806205
 20
-15.70373855950009
 10
38.84529835379999
 20
-15.6735398784001
 10
38.85952958759998
 20
-15.64307827890002
  0
LWPOLYLINE
  5
28BD
330
22
100
AcDbEntity
  8
1
100
AcDbPolyline
 90
        9
 70
     0
 43
0.0
 10
48.74040664689999
 20
15.21466345269994
 10
48.85952684910003
 20
15.2206248354999
 10
48.98644177299999
 20
15.21155684439992
 10
49.1192558692
 20
15.20665303229992
 10
49.2558821643
 20
15.21047645759989
 10
49.39426385200002
 20
15.21038678299993
 10
49.53225439690001
 20
15.21059826349994
 10
49.6676908988
 20
15.21110524769994
 10
49.79842925470001
 20
15.21190209569994
  0
LWPOLYLINE
  5
28C8
330
22
100
AcDbEntity
  8
1
100
AcDbPolyline
 90
       15
 70
     0
 43
0.0
 10
17.8786796565
 20
14.43711934709995
 10
17.96296477109999
 20
14.44004929889996
 10
18.04672963070001
 20
14.44767930039995
 10
18.13011259309999
 20
14.46003463159991
 10
18.21269858479999
 20
14.47703945259991
 10
18.29419850830001
 20
14.49865720609995
 10
18.37437279229999
 20
14.52479532369989
 10
18.45296306419999
 20
14.55538796329989
 10
18.52973663009999
 20
14.59031838869992
 10
18.6044470068
 20
14.62949394459997
 10
18.67687719009999
 20
14.67277654679998
 10
18.74680084889999
 20
14.72005559979993
 10
18.81399948109998
 20
14.77115598219995
 10
18.8781423977
 20
14.82583920909991
 10
18.93933982819999
 20
14.88418477529996
  0
LWPOLYLINE
  5
28D9
330
22
100
AcDbEntity
  8
1
100
AcDbPolyline
 90
        7
 70
     0
 43
0.0
 10
17.8786796565
 20
14.43711934709995
 10
16.93691084740001
 20
14.4308243733999
 10
15.9956918549
 20
14.42423156479992
 10
15.055009447
 20
14.41734072899987
 10
14.11490331959999
 20
14.41015244289997
 10
13.17541316879999
 20
14.40266728339992
 10
12.23652576259999
 20
14.39488505809993
  0
LINE
  5
28E2
330
22
100
AcDbEntity
  8
1
100
AcDbLine
 10
48.73685751910002
 20
15.2183527576999
 30
0.0
 11
39.76638597479999
 21
15.20780742169995
 31
0.0
  0
LINE
  5
28E3
330
22
100
AcDbEntity
  8
1
100
AcDbLine
 10
6.293527302599983
 20
14.49999999999994
 30
0.0
 11
0.4999999999999716
 21
14.49999999999994
 31
0.0
  0
LWPOLYLINE
  5
28E4
330
22
100
AcDbEntity
  8
1
100
AcDbPolyline
 90
       13
 70
     0
 43
0.0
 10
6.290857080800009
 20
14.49999853449992
 10
6.635544117299986
 20
14.49787873169993
 10
7.098787589700009
 20
14.49001422209994
 10
7.5730548816
 20
14.47805490949992
 10
8.058820129600007
 20
14.46362275929994
 10
8.557057874099996
 20
14.4480940036999
 10
9.065137562499984
 20
14.43279406669995
 10
9.581071283499994
 20
14.41888186439991
 10
10.1039056532
 20
14.40725718889996
 10
10.63264802559999
 20
14.39864393479991
 10
11.16542827539999
 20
14.39354549989991
 10
11.69977026939998
 20
14.39227275529993
 10
12.23649938549999
 20
14.39488482699994
  0
LWPOLYLINE
  5
29F2
330
22
100
AcDbEntity
  8
1
100
AcDbPolyline
 90
       11
 70
     0
 43
0.0
 10
48.74016297620002
 20
6.223351764299934
 10
48.83514571150001
 20
6.187922177199993
 10
48.93624269630001
 20
6.150069959499944
 10
49.042181548
 20
6.110273122099954
 10
49.15171659749998
 20
6.068999624699983
 10
49.26362360390001
 20
6.026709224499938
 10
49.37655753980002
 20
5.983908486899906
 10
49.48912578730002
 20
5.941126942399932
 10
49.6000623532
 20
5.898847244399917
 10
49.70807994330002
 20
5.857559942899968
 10
49.8118383668
 20
5.817775719199914
  0
LWPOLYLINE
  5
2AB1
330
22
100
AcDbEntity
  8
1
100
AcDbPolyline
 90
       11
 70
     0
 43
0.0
 10
49.08693729810003
 20
-6.159474399500084
 10
49.0685129618
 20
-6.123591131100056
 10
49.04724460960003
 20
-6.090830265400029
 10
49.02298534870002
 20
-6.061001330800081
 10
48.99617585699999
 20
-6.034675742400111
 10
48.96715266340001
 20
-6.012389602800055
 10
48.93608132160003
 20
-5.99405837800009
 10
48.9032678847
 20
-5.979784054400056
 10
48.86862738410002
 20
-5.969543172900046
 10
48.8321790002
 20
-5.9633475870001
 10
48.79391633949999
 20
-5.961193345500078
  0
LWPOLYLINE
  5
2ABE
330
22
100
AcDbEntity
  8
1
100
AcDbPolyline
 90
        7
 70
     0
 43
0.0
 10
49.87775325570002
 20
-5.746978194400071
 10
49.87326380380003
 20
-5.73659679030004
 10
49.86854555800002
 20
-5.72658546840006
 10
49.86359712740003
 20
-5.716955688800112
 10
49.85842268510001
 20
-5.707673070800069
 10
49.85302640419999
 20
-5.698703233800074
 10
49.84740689380001
 20
-5.690057637900054
  0
LWPOLYLINE
  5
2AC7
330
22
100
AcDbEntity
  8
1
100
AcDbPolyline
 90
       39
 70
     0
 43
0.0
 10
49.4422220628
 20
-5.119970514900103
 10
49.43832797429999
 20
-5.11095846040007
 10
49.4343769079
 20
-5.102267636300098
 10
49.43036826060003
 20
-5.093903736300092
 10
49.42630384130001
 20
-5.085849679000034
 10
49.42218527990002
 20
-5.078093773300054
 10
49.41801251180002
 20
-5.07062554240008
 10
49.4137860726
 20
-5.063433475200099
 10
49.40950579150001
 20
-5.056508984200092
 10
49.40517191009999
 20
-5.049842204800086
 10
49.40078372720001
 20
-5.043425456500074
 10
49.39634119160001
 20
-5.037250211100058
 10
49.39184259470002
 20
-5.031309146100056
 10
49.38728734140003
 20
-5.025594550100038
 10
49.38267204000002
 20
-5.020099062300062
 10
49.3779947243
 20
-5.014814943300052
 10
49.37325052360001
 20
-5.009735618500087
 10
49.3684359588
 20
-5.004853672800038
 10
49.363544889
 20
-5.000163888800102
 10
49.35857279910002
 20
-4.995660010300014
 10
49.35351133180001
 20
-4.991337738500078
 10
49.34835451000001
 20
-4.987191802600079
 10
49.34309067699999
 20
-4.983218863300066
 10
49.33771250140001
 20
-4.979414951500075
 10
49.33220102919998
 20
-4.975776685900086
 10
49.326543625
 20
-4.972299513800066
 10
49.32071400259999
 20
-4.968982980500072
 10
49.31469426460001
 20
-4.965823856000099
 10
49.3084466093
 20
-4.962825914000063
 10
49.30194630580001
 20
-4.959988268300037
 10
49.29513624400001
 20
-4.957321668600059
 10
49.28797885370002
 20
-4.954828077200033
 10
49.28039078490002
 20
-4.952532971300115
 10
49.27228936230003
 20
-4.950442416500038
 10
49.26363499129999
 20
-4.948616609500106
 10
49.2542694709
 20
-4.94709383270009
 10
49.24446594510001
 20
-4.945945893900045
 10
49.23447237569999
 20
-4.945267933000081
 10
49.22420610880002
 20
-4.945028236700125
  0
LWPOLYLINE
  5
2B77
330
22
100
AcDbEntity
  8
1
100
AcDbPolyline
 90
       41
 70
     0
 43
0.0
 10
41.0273052329
 20
10.71003160809994
 10
41.03735105419997
 20
10.4557268861999
 10
41.06699981189999
 20
10.20455799509989
 10
41.11643326660001
 20
9.955766336299916
 10
41.18510613649999
 20
9.711627705799912
 10
41.2727710972
 20
9.473697284099898
 10
41.37871603709998
 20
9.243378319999976
 10
41.50245390149999
 20
9.022167771999932
 10
41.64306219529999
 20
8.81133969139995
 10
41.79982612649999
 20
8.612295954999979
 10
41.9716355315
 20
8.426150045099916
 10
42.15756548129999
 20
8.254174237599897
 10
42.35634547959998
 20
8.097294028399915
 10
42.56686323549999
 20
7.956620765099899
 10
42.78771920389999
 20
7.832869167999888
 10
43.01764112019998
 20
7.726962291299912
 10
43.25513485169998
 20
7.639386481399924
 10
43.49879948769998
 20
7.570853770299947
 10
43.74708309849999
 20
7.52161015449991
 10
43.99849062210001
 20
7.492139111699941
 10
44.25145054570001
 20
7.482440231499879
 10
44.50441046939999
 20
7.492756531799955
 10
44.75581799300002
 20
7.522841205699933
 10
45.00410160380002
 20
7.572690827599899
 10
45.24776623980002
 20
7.641818271099964
 10
45.48525997129999
 20
7.729973751499869
 10
45.71518188759998
 20
7.836441817499974
 10
45.93603785600001
 20
7.960732475899931
 10
46.1465556119
 20
8.101919567299887
 10
46.34533561020001
 20
8.259284955199916
 10
46.53126555999998
 20
8.431714577199954
 10
46.70307496500001
 20
8.61827983649988
 10
46.85983889619999
 20
8.817706199499923
 10
47.00044719000001
 20
9.028877474299974
 10
47.12418505439998
 20
9.250390039499905
 10
47.23012999429999
 20
9.480967592099943
 10
47.31779495499998
 20
9.719111984899939
 10
47.3864678249
 20
9.963418230899947
 10
47.43590127960001
 20
10.21233054609996
 10
47.46555003730001
 20
10.46357180329988
 10
47.4755958586
 20
10.71790104489992
  0
LINE
  5
2C29
330
22
100
AcDbEntity
  8
1
100
AcDbLine
 10
40.59496156779999
 20
-14.69502823670012
 30
0.0
 11
40.59496156779999
 21
-14.70868151150006
 31
0.0
  0
LWPOLYLINE
  5
2CA8
330
22
100
AcDbEntity
  8
1
100
AcDbPolyline
 90
       39
 70
     0
 43
0.0
 10
39.21135301199999
 20
-16.2700859584001
 10
39.2087787623
 20
-16.27909837760006
 10
39.20649207279999
 20
-16.2877895292001
 10
39.20449763419998
 20
-16.29615371830005
 10
39.20278137419998
 20
-16.30420802970007
 10
39.2013332697
 20
-16.31196415690004
 10
39.20014586400001
 20
-16.31943257910007
 10
39.1992103572
 20
-16.32662481040006
 10
39.19852075509999
 20
-16.3335494402001
 10
39.1980697345
 20
-16.34021633510008
 10
39.19785248259998
 20
-16.34663317690007
 10
39.19786292820001
 20
-16.3528084949001
 10
39.19809752320001
 20
-16.35874961280001
 10
39.19855132640001
 20
-16.36446424320002
 10
39.1992224455
 20
-16.36995974830006
 10
39.2001072907
 20
-16.37524386920012
 10
39.20120601299999
 20
-16.38032318110004
 10
39.20251676820001
 20
-16.38520510010005
 10
39.20404195160001
 20
-16.38989484440009
 10
39.20578158679999
 20
-16.39439867100009
 10
39.2077409451
 20
-16.39872087930007
 10
39.20992221910001
 20
-16.40286674110007
 10
39.21233466779998
 20
-16.40683959610004
 10
39.2149827723
 20
-16.41064341380007
 10
39.21788305889999
 20
-16.41428157670009
 10
39.22104489539999
 20
-16.41775863900005
 10
39.224494239
 20
-16.42107505530004
 10
39.2282466678
 20
-16.42423405560009
 10
39.23234268810001
 20
-16.42723186660009
 10
39.2368063932
 20
-16.43006937460001
 10
39.2417026009
 20
-16.43273583010006
 10
39.24707028789999
 20
-16.43522927110007
 10
39.25301107169998
 20
-16.43752422180006
 10
39.2596119779
 20
-16.43961461570006
 10
39.26695575939999
 20
-16.44144026390006
 10
39.27522803330001
 20
-16.44296288300006
 10
39.28420723189999
 20
-16.44411069010004
 10
39.29371369769999
 20
-16.4447885734001
 10
39.30380731650001
 20
-16.44502823670012
  0
LWPOLYLINE
  5
2D2B
330
22
100
AcDbEntity
  8
1
100
AcDbPolyline
 90
       11
 70
     0
 43
0.0
 10
48.73727405010001
 20
15.21842887249994
 10
48.77654357529999
 20
15.30731733639993
 10
48.81766639900002
 20
15.40329102609996
 10
48.86013261600002
 20
15.50512656409989
 10
48.90344295460002
 20
15.61162640369991
 10
48.94710601080001
 20
15.72161505609995
 10
48.9905887726
 20
15.83378716169994
 10
49.03336332699999
 20
15.94674275389997
 10
49.07495580190001
 20
16.05919695309995
 10
49.11488328330003
 20
16.16984541999994
 10
49.15264289199999
 20
16.27733046439988
  0
LWPOLYLINE
  5
2D38
330
22
100
AcDbEntity
  8
1
100
AcDbPolyline
 90
        7
 70
     0
 43
0.0
 10
49.30463826270003
 20
-5.17246371300007
 10
49.32870947630002
 20
-5.164532939500077
 10
49.3522552208
 20
-5.156276303900028
 10
49.37521058660002
 20
-5.147695095400024
 10
49.39777030270002
 20
-5.138785446500037
 10
49.42012909799998
 20
-5.12954349000006
 10
49.4422220628
 20
-5.119970514900103
  0
LWPOLYLINE
  5
2D41
330
22
100
AcDbEntity
  8
1
100
AcDbPolyline
 90
       11
 70
     0
 43
0.0
 10
48.74040664689999
 20
15.21466345269994
 10
48.83512270220001
 20
15.24154760379991
 10
48.93624264540003
 20
15.28458797259992
 10
49.04237994450003
 20
15.32674066039999
 10
49.15171659339998
 20
15.36308739679998
 10
49.2636236042
 20
15.40475915949992
 10
49.37655753760001
 20
15.44740585849996
 10
49.48912578249999
 20
15.49049315909991
 10
49.60006234670001
 20
15.53352914959993
 10
49.70807993880001
 20
15.57601473169995
 10
49.8118383668
 20
15.61743042149987
  0
LINE
  5
2D5E
330
22
100
AcDbEntity
  8
1
100
AcDbLine
 10
38.16277052390001
 20
8.745307250099926
 30
0.0
 11
38.38262043509999
 21
8.745575552999923
 31
0.0
  0
LINE
  5
2D5F
330
22
100
AcDbEntity
  8
1
100
AcDbLine
 10
38.2037516451
 20
8.555493257499961
 30
0.0
 11
38.52801342199999
 21
8.555888983699901
 31
0.0
  0
LINE
  5
2D60
330
22
100
AcDbEntity
  8
1
100
AcDbLine
 10
38.45923553730001
 20
8.491729322099956
 30
0.0
 11
38.52801342199999
 21
8.491813257999922
 31
0.0
  0
LINE
  5
2D61
330
22
100
AcDbEntity
  8
1
100
AcDbLine
 10
38.48016247949999
 20
8.186552045499922
 30
0.0
 11
38.52801342199999
 21
8.18661044239991
 31
0.0
  0
LINE
  5
2D62
330
22
100
AcDbEntity
  8
SK1
100
AcDbLine
 10
-2.000000000000028
 20
8.499999999999943
 30
0.0
 11
-5.600000000000022
 21
8.499999999999943
 31
0.0
  0
LINE
  5
2D63
330
22
100
AcDbEntity
  8
SK1
100
AcDbLine
 10
-0.3000000000000114
 20
8.299999999999954
 30
0.0
 11
-1.200928839400006
 21
8.299999999999954
 31
0.0
  0
LINE
  5
2D64
330
22
100
AcDbEntity
  8
SK1
100
AcDbLine
 10
-10.70000000000002
 20
7.999999999999943
 30
0.0
 11
-22.50000000000003
 21
7.999999999999943
 31
0.0
  0
LWPOLYLINE
  5
2D65
330
22
100
AcDbEntity
  8
1
100
AcDbPolyline
 90
       25
 70
     0
 43
0.0
 10
2.232230671499991
 20
11.95694853539999
 10
2.310722055300004
 20
11.94699218069996
 10
2.42552389459999
 20
11.93714377729992
 10
2.576190957999983
 20
11.92744371949993
 10
2.762082087199985
 20
11.91793160549991
 10
2.982460068699992
 20
11.90864652329992
 10
3.236399394100004
 20
11.89962631769992
 10
3.522883052499992
 20
11.89090811049993
 10
3.840716317399994
 20
11.88252737559992
 10
4.188618984899989
 20
11.8745186665999
 10
4.565146657300005
 20
11.86691450569998
 10
4.968776889699995
 20
11.85974631189992
 10
5.397839242599985
 20
11.85304312369993
 10
5.850593934100004
 20
11.84683271169996
 10
6.325171808199996
 20
11.84114015559993
 10
6.819644207999999
 20
11.83598912339994
 10
7.331973845299984
 20
11.83140032569997
 10
7.860074740899989
 20
11.82739294049992
 10
8.401774780399989
 20
11.82398297059996
 10
8.954864781200001
 20
11.82118479039997
 10
9.517073422399988
 20
11.81900943319994
 10
10.08610448169998
 20
11.81746623429996
 10
10.65962426959998
 20
11.81656107689991
 10
11.2352870032
 20
11.81629810449993
 10
11.81073599349997
 20
11.81667795519991
  0
LINE
  5
2D80
330
22
100
AcDbEntity
  8
1
100
AcDbLine
 10
38.45923553730001
 20
8.491729322099956
 30
0.0
 11
38.2037516451
 21
8.555493257499961
 31
0.0
  0
LWPOLYLINE
  5
2DC0
330
22
100
AcDbEntity
  8
1
100
AcDbPolyline
 90
       15
 70
     0
 43
0.0
 10
48.60271400220003
 20
4.10649952999995
 10
48.59945462800002
 20
4.107521912999914
 10
48.58998456520001
 20
4.108518673599974
 10
48.57416522830002
 20
4.109496409599955
 10
48.55241237359999
 20
4.110435327399954
 10
48.5249225743
 20
4.111320994299944
 10
48.49221479490004
 20
4.112143925699967
 10
48.4546876101
 20
4.112891967199971
 10
48.41289876240003
 20
4.113558695399945
 10
48.36735428080001
 20
4.114135094699975
 10
48.31860787910002
 20
4.114616787399938
 10
48.26718415780002
 20
4.114997465899932
 10
48.21367648629999
 20
4.115273904599973
 10
48.15894913060001
 20
4.115440109299981
 10
48.10271400220003
 20
4.115498077999916
  0
LINE
  5
2DD1
330
22
100
AcDbEntity
  8
1
100
AcDbLine
 10
38.52801342199999
 20
8.620365578599944
 30
0.0
 11
38.38262043509999
 21
8.745575552999923
 31
0.0
  0
LWPOLYLINE
  5
2DD2
330
22
100
AcDbEntity
  8
1
100
AcDbPolyline
 90
        7
 70
     0
 43
0.0
 10
39.7624123196
 20
6.213156067599925
 10
39.7627770233
 20
6.212285308099922
 10
39.76313313749998
 20
6.211584685299953
 10
39.76338242009999
 20
6.211110678299917
 10
39.76381959740002
 20
6.210693849799895
 10
39.76473939549999
 20
6.210164762399926
 10
39.76604357240001
 20
6.209579895299953
  0
LWPOLYLINE
  5
2DDB
330
22
100
AcDbEntity
  8
1
100
AcDbPolyline
 90
       11
 70
     0
 43
0.0
 10
39.76649874910001
 20
15.20772524629996
 10
39.7434351769
 20
15.29654002709992
 10
39.70401155729999
 20
15.39216875399989
 10
39.66479189489999
 20
15.49397609849996
 10
39.63058281150001
 20
15.60030988329987
 10
39.59047547399999
 20
15.71019630729989
 10
39.5487059605
 20
15.82226436929994
 10
39.5058077935
 20
15.93511540469996
 10
39.4622794405
 20
16.04746572139993
 10
39.41862537489999
 20
16.15801218809991
 10
39.37537053009999
 20
16.26539836779994
  0
LWPOLYLINE
  5
2DE8
330
22
100
AcDbEntity
  8
1
100
AcDbPolyline
 90
       11
 70
     0
 43
0.0
 10
39.8262969477
 20
-14.95071074990011
 10
39.82844138349998
 20
-14.98808821050005
 10
39.8348787633
 20
-15.02369480000004
 10
39.84557227729999
 20
-15.05757282100012
 10
39.86063235499998
 20
-15.08959536540004
 10
39.8802466926
 20
-15.1198115099001
 10
39.90414668
 20
-15.14773560350011
 10
39.9322769129
 20
-15.1729463031001
 10
39.9641854697
 20
-15.1952997620001
 10
39.99934316209999
 20
-15.21447614870004
 10
40.0379263861
 20
-15.23058207380006
  0
LWPOLYLINE
  5
2DF5
330
22
100
AcDbEntity
  8
1
100
AcDbPolyline
 90
       15
 70
     0
 43
0.0
 10
38.52801342199999
 20
-15.66733985290006
 10
38.5330591442
 20
-15.75593300760005
 10
38.54754696730001
 20
-15.84201285320006
 10
38.5716729063
 20
-15.92606083100008
 10
38.60484891639999
 20
-16.00663261730005
 10
38.64676861749999
 20
-16.08270582220007
 10
38.6967830305
 20
-16.15349608460002
 10
38.7544022356
 20
-16.21809344630008
 10
38.8188426744
 20
-16.27585230870005
 10
38.8894599372
 20
-16.32598732860003
 10
38.9653466586
 20
-16.36800778110006
 10
39.04572047459999
 20
-16.40126354300008
 10
39.12956197080001
 20
-16.42544746700008
 10
39.21543091929999
 20
-16.43997021640001
 10
39.303807396
 20
-16.44502823670012
  0
LWPOLYLINE
  5
2E06
330
22
100
AcDbEntity
  8
1
100
AcDbPolyline
 90
       39
 70
     0
 43
0.0
 10
38.52801342199999
 20
-15.66733992680002
 10
38.52833964889999
 20
-15.67754330510007
 10
38.5292562885
 20
-15.68730459460005
 10
38.53080537189999
 20
-15.69668993790003
 10
38.532860806
 20
-15.70550090720007
 10
38.53532802480001
 20
-15.71350716360007
 10
38.538154478
 20
-15.72087058270006
 10
38.54125888319999
 20
-15.72764781450007
 10
38.54463287029998
 20
-15.73392419710001
 10
38.54824183589997
 20
-15.73979112600011
 10
38.5520831982
 20
-15.74528708000002
 10
38.55614253409999
 20
-15.75047296360003
 10
38.5604207648
 20
-15.75537289530001
 10
38.5649124366
 20
-15.76002559790004
 10
38.56962225109999
 20
-15.76444816240007
 10
38.57455098519998
 20
-15.76866691550009
 10
38.57970496009997
 20
-15.77269287280001
 10
38.58508901990001
 20
-15.77654392030001
 10
38.59070837349998
 20
-15.78022577430005
 10
38.5965674135
 20
-15.78374873490008
 10
38.60267343269999
 20
-15.78711693640002
 10
38.6090323711
 20
-15.79033721150006
 10
38.61565267929999
 20
-15.79341176460002
 10
38.6225413958
 20
-15.79634480380008
 10
38.6297086971
 20
-15.79913715050009
 10
38.6371635443
 20
-15.80179130120007
 10
38.64491662219999
 20
-15.80430643830004
 10
38.65297811990001
 20
-15.80668332730005
 10
38.6613584861
 20
-15.80891971620008
 10
38.6700677055
 20
-15.81101463130011
 10
38.67911735909999
 20
-15.81296500350009
 10
38.6885178066
 20
-15.81476870820006
 10
38.69828269729999
 20
-15.8164219392001
 10
38.70842391240001
 20
-15.81792176480007
 10
38.7189571154
 20
-15.81926343750007
 10
38.7298966356
 20
-15.82044320050005
 10
38.74125835620001
 20
-15.82145514900003
 10
38.7530655187
 20
-15.82229123150006
 10
38.765310376
 20
-15.82295413180003
  0
LWPOLYLINE
  5
2E2F
330
22
100
AcDbEntity
  8
1
100
AcDbPolyline
 90
       21
 70
     0
 43
0.0
 10
38.7161750551
 20
15.60388937509992
 10
38.71526779529998
 20
15.65675423889996
 10
38.71870441869999
 20
15.70921575249997
 10
38.72650730640001
 20
15.76147254939991
 10
38.73860931499999
 20
15.81292872919994
 10
38.75499518070001
 20
15.86317061939991
 10
38.77553164439999
 20
15.91185016949992
 10
38.80014700919998
 20
15.95857939779995
 10
38.82864132489999
 20
16.00306442499993
 10
38.86090327119999
 20
16.04499382429998
 10
38.89659526119999
 20
16.08403225609999
 10
38.935420918
 20
16.11979465239994
 10
38.97714529230001
 20
16.1521187708999
 10
39.02159570800001
 20
16.18078857229989
 10
39.0682889693
 20
16.20558037989991
 10
39.11676600459998
 20
16.22619761749996
 10
39.16678176549999
 20
16.24264294389996
 10
39.21809335099999
 20
16.25483569449994
 10
39.27023524730001
 20
16.2627292626999
 10
39.32259266359998
 20
16.26624096699993
 10
39.37537053009999
 20
16.26539836779994
  0
LWPOLYLINE
  5
2E46
330
22
100
AcDbEntity
  8
1
100
AcDbPolyline
 90
       11
 70
     0
 43
0.0
 10
38.48016247949999
 20
8.186552045499922
 10
38.47990483410001
 20
8.23353954069995
 10
38.47913824200001
 20
8.279498654699978
 10
38.47788157929997
 20
8.323297721399967
 10
38.47616578910001
 20
8.363858262599876
 10
38.47403311999997
 20
8.400181543099961
 10
38.47153608529999
 20
8.43137316309992
 10
38.4687361702
 20
8.45666508149992
 10
38.46570231799999
 20
8.475434527399954
 10
38.4625092323
 20
8.487219334599956
 10
38.45923553730001
 20
8.491729322099956
  0
LWPOLYLINE
  5
2E53
330
22
100
AcDbEntity
  8
1
100
AcDbPolyline
 90
       13
 70
     0
 43
0.0
 10
38.7295841673
 20
15.19839377589994
 10
38.72947925449998
 20
15.23208661759992
 10
38.72916808509998
 20
15.26576562429994
 10
38.728646556
 20
15.29942209259991
 10
38.72792697629999
 20
15.33308213279997
 10
38.72701767730001
 20
15.36676496029992
 10
38.72592648879999
 20
15.40048255699992
 10
38.72465839349999
 20
15.43425355419993
 10
38.7232302642
 20
15.46807721879992
 10
38.72165727320001
 20
15.50196336719995
 10
38.71994950410002
 20
15.53589898209992
 10
38.71812399070001
 20
15.56987309989995
 10
38.7161750551
 20
15.60388937509992
  0
LINE
  5
2E62
330
22
100
AcDbEntity
  8
1
100
AcDbLine
 10
39.8262969477
 20
-14.72561560660006
 30
0.0
 11
39.8262969477
 21
-14.95071074990011
 31
0.0
  0
LINE
  5
2E63
330
22
100
AcDbEntity
  8
1
100
AcDbLine
 10
39.76281354899999
 20
15.20416349639993
 30
0.0
 11
39.7624123196
 21
6.213156067599925
 31
0.0
  0
LINE
  5
2E64
330
22
100
AcDbEntity
  8
1
100
AcDbLine
 10
38.85952958759998
 20
-14.86298683620009
 30
0.0
 11
38.85952958759998
 21
-15.64307827890002
 31
0.0
  0
LINE
  5
2E65
330
22
100
AcDbEntity
  8
1
100
AcDbLine
 10
38.765310376
 20
-14.88329520600013
 30
0.0
 11
38.765310376
 21
-15.82295413180003
 31
0.0
  0
LINE
  5
2E66
330
22
100
AcDbEntity
  8
1
100
AcDbLine
 10
38.7295841673
 20
6.209762995099879
 30
0.0
 11
38.7295841673
 21
15.19839377589994
 31
0.0
  0
LINE
  5
2E67
330
22
100
AcDbEntity
  8
1
100
AcDbLine
 10
38.52801342199999
 20
5.732278081299909
 30
0.0
 11
38.52801342199999
 21
15.67538669939989
 31
0.0
  0
LINE
  5
2E68
330
22
100
AcDbEntity
  8
1
100
AcDbLine
 10
38.52801342199999
 20
-14.93444310050006
 30
0.0
 11
38.52801342199999
 21
-15.66733985290006
 31
0.0
  0
LINE
  5
2E69
330
22
100
AcDbEntity
  8
1
100
AcDbLine
 10
38.38262043509999
 20
14.87345098799989
 30
0.0
 11
38.38262043509999
 21
8.745575552999923
 31
0.0
  0
LWPOLYLINE
  5
2E6A
330
22
100
AcDbEntity
  8
1
100
AcDbPolyline
 90
        9
 70
     0
 43
0.0
 10
38.48016247949999
 20
5.786917577199972
 10
38.47990483689997
 20
5.740058922599928
 10
38.47913825129999
 20
5.694482619199959
 10
38.47788159640001
 20
5.651310903999899
 10
38.47616581349999
 20
5.611606819299936
 10
38.4740331491
 20
5.576348025299921
 10
38.47153611569999
 20
5.54640273209992
 10
38.46873619799999
 20
5.52250831349994
 10
38.4686361432
 20
5.521939248799924
  0
LWPOLYLINE
  5
2E75
330
22
100
AcDbEntity
  8
1
100
AcDbPolyline
 90
        9
 70
     0
 43
0.0
 10
39.76649874910001
 20
6.209260615899893
 10
39.7648408497
 20
6.0940200126999
 10
39.7773817943
 20
5.970176633999869
 10
39.7849757034
 20
5.839613160499936
 10
39.78300061959999
 20
5.704348769699947
 10
39.78403153259998
 20
5.566426272399951
 10
39.78385977069999
 20
5.427990549999947
 10
39.7824973436
 20
5.291218493999906
 10
39.7799563051
 20
5.15826818849996
  0
LWPOLYLINE
  5
2E80
330
22
100
AcDbEntity
  8
1
100
AcDbPolyline
 90
        9
 70
     0
 43
0.0
 10
39.76740013980001
 20
15.20780865929998
 10
39.7729054342
 20
15.3202091350999
 10
39.7773817943
 20
15.44182896489991
 10
39.78076754599999
 20
15.57070396619991
 10
39.78300061959999
 20
15.70485212459994
 10
39.78403153259998
 20
15.84226002929995
 10
39.78385977069999
 20
15.98078148859997
 10
39.7824973436
 20
16.11823361659992
 10
39.7799563051
 20
16.25245231219998
  0
LWPOLYLINE
  5
2E8B
330
22
100
AcDbEntity
  8
1
100
AcDbPolyline
 90
       15
 70
     0
 43
0.0
 10
38.52801342199999
 20
15.67538669939989
 10
38.5330591442
 20
15.76397251869991
 10
38.54754696730001
 20
15.85005693479991
 10
38.5716729063
 20
15.9341215547999
 10
38.60484891639999
 20
16.01472155719995
 10
38.64676861749999
 20
16.09083433419994
 10
38.6967830305
 20
16.16167485209996
 10
38.7544022356
 20
16.22633269329992
 10
38.8188426744
 20
16.28416140129991
 10
38.8894599372
 20
16.33437496599993
 10
38.9653466586
 20
16.37648163019992
 10
39.04572047459999
 20
16.40983041449993
 10
39.12956197080001
 20
16.43411297459994
 10
39.21543091929999
 20
16.44873830579991
 10
39.303807396
 20
16.45390340959994
  0
LWPOLYLINE
  5
2E9C
330
22
100
AcDbEntity
  8
1
100
AcDbPolyline
 90
       13
 70
     0
 43
0.0
 10
38.71617505519998
 20
5.804234669999971
 10
38.71812589219999
 20
5.838286506199892
 10
38.7199542157
 20
5.87232447179997
 10
38.7216662132
 20
5.90636044379994
 10
38.72324332240001
 20
5.940358791799951
 10
38.72467419169999
 20
5.974291511999922
 10
38.72594337660002
 20
6.008147601499899
 10
38.72703287990001
 20
6.041898672499939
 10
38.72793900759999
 20
6.075568875599913
 10
38.72865450239999
 20
6.109162872599881
 10
38.72917205709999
 20
6.142710741899918
 10
38.7294807296
 20
6.176248070199903
 10
38.7295841673
 20
6.209762995099879
  0
LINE
  5
2EAB
330
22
100
AcDbEntity
  8
1
100
AcDbLine
 10
38.15101502959999
 20
4.738103260599928
 30
0.0
 11
38.34064953199998
 21
5.521783055099888
 31
0.0
  0
LWPOLYLINE
  5
2EAC
330
22
100
AcDbEntity
  8
1
100
AcDbPolyline
 90
       11
 70
     0
 43
0.0
 10
39.7656270414
 20
6.209503780599959
 10
39.7365078306
 20
6.118081990599932
 10
39.70401154050001
 20
6.019955281699935
 10
39.66856421969999
 20
5.916367960299965
 10
39.63058280999999
 20
5.808538121099957
 10
39.5904754741
 20
5.697662028399918
 10
39.54870595969999
 20
5.585062328699905
 10
39.50580779179998
 20
5.47213758809994
 10
39.46227943789998
 20
5.360166547499943
 10
39.41862537309999
 20
5.250448165199941
 10
39.37537053009999
 20
5.144334627099965
  0
LWPOLYLINE
  5
2F13
330
22
100
AcDbEntity
  8
1
100
AcDbPolyline
 90
       21
 70
     0
 43
0.0
 10
39.37537052720001
 20
5.144334626999921
 10
39.32262530169999
 20
5.14336092039997
 10
39.27028779429998
 20
5.146741538799915
 10
39.21815985230001
 20
5.154498672599913
 10
39.1668359336
 20
5.166565750099891
 10
39.11672874689998
 20
5.182927976299936
 10
39.0681853859
 20
5.203452210699936
 10
39.0215928586
 20
5.228067064399908
 10
38.97724412969998
 20
5.256572487099958
 10
38.93544977900001
 20
5.288857282599906
 10
38.8965439694
 20
5.324583499199945
 10
38.86091052839999
 20
5.363454549699952
 10
38.82871104169999
 20
5.40523514439991
 10
38.80016084499999
 20
5.449752474499916
 10
38.7754825156
 20
5.496522509799888
 10
38.75497139339998
 20
5.545085488199958
 10
38.73862452749998
 20
5.595195796699954
 10
38.7265221022
 20
5.646610076099989
 10
38.71871005089997
 20
5.698861802999886
 10
38.71527011800001
 20
5.751334878899967
 10
38.71617505519998
 20
5.804234669999971
  0
LWPOLYLINE
  5
2F2A
330
22
100
AcDbEntity
  8
1
100
AcDbPolyline
 90
       14
 70
     0
 43
0.0
 10
19.56066017179998
 20
4.107592214699991
 10
18.87826416709998
 20
4.095343411099975
 10
18.81421305359998
 20
4.094365862999893
 10
18.747074072
 20
4.093452305399978
 10
18.67718446999998
 20
4.09260735459992
 10
18.60476378099997
 20
4.091834400399989
 10
18.53005273209999
 20
4.091135583999914
 10
18.45328466959998
 20
4.090513646199894
 10
18.37470126990001
 20
4.089970178399937
 10
18.29454188749997
 20
4.089507308699921
 10
18.21304683470001
 20
4.089126167099948
 10
18.1304456659
 20
4.088828344499916
 10
18.04701000769998
 20
4.088614586199923
 10
17.96313152259998
 20
4.088486327499936
  0
LWPOLYLINE
  5
2F3A
330
22
100
AcDbEntity
  8
1
100
AcDbPolyline
 90
        9
 70
     0
 43
0.0
 10
39.7624123196
 20
6.214172554299977
 10
39.65440298119998
 20
6.212660004999975
 10
39.53642262749998
 20
6.211393345299939
 10
39.41038463799998
 20
6.210390378199974
 10
39.27821988669999
 20
6.209669027499955
 10
39.14190002499998
 20
6.209244109499934
 10
39.0035659564
 20
6.209118365899939
 10
38.8654046003
 20
6.209291453699904
 10
38.7295841673
 20
6.209762995799906
  0
LWPOLYLINE
  5
2F45
330
22
100
AcDbEntity
  8
1
100
AcDbPolyline
 90
       13
 70
     0
 43
0.0
 10
39.77995630449999
 20
5.15826818849996
 10
39.74634028919999
 20
5.1581220107999
 10
39.7127378262
 20
5.157769120899899
 10
39.67915759409999
 20
5.157205416999943
 10
39.64557355700001
 20
5.15644320439992
 10
39.61196655359998
 20
5.155490809999946
 10
39.57832463899999
 20
5.154356067299886
 10
39.5446292305
 20
5.153043947499952
 10
39.51088107999999
 20
5.151571362899971
 10
39.47707041199999
 20
5.149953508699923
 10
39.44321022650001
 20
5.14820050749995
 10
39.40931148259998
 20
5.146329445299954
 10
39.37537052720001
 20
5.144334626999921
  0
LWPOLYLINE
  5
2F54
330
22
100
AcDbEntity
  8
1
100
AcDbPolyline
 90
       14
 70
     0
 43
0.0
 10
20.53671983889998
 20
4.115455064799903
 10
20.4526458382
 20
4.115327022299936
 10
20.36894644859998
 20
4.115113440499897
 10
20.2860773486
 20
4.114815849199942
 10
20.20435873150001
 20
4.11443493479993
 10
20.12404516059999
 20
4.113972717399917
 10
20.04542544489999
 20
4.113430676499888
 10
19.96871704029999
 20
4.112811120099877
 10
19.8941717081
 20
4.112116055799901
 10
19.82197534159999
 20
4.111347864099911
 10
19.75233446099997
 20
4.110508666599912
 10
19.68543894599998
 20
4.109601246999943
 10
19.62157985619998
 20
4.108629532799966
 10
19.56066017179998
 20
4.107592214699991
  0
LINE
  5
2F64
330
22
100
AcDbEntity
  8
1
100
AcDbLine
 10
39.76604357240001
 20
6.209579895299953
 30
0.0
 11
48.73651511670002
 21
6.220125231399947
 31
0.0
  0
LINE
  5
2F65
330
22
100
AcDbEntity
  8
1
100
AcDbLine
 10
38.52794666929998
 20
5.786975892599912
 30
0.0
 11
38.48016247949999
 21
5.786917577199972
 31
0.0
  0
LINE
  5
2F66
330
22
100
AcDbEntity
  8
1
100
AcDbLine
 10
38.34064953199998
 20
5.521783055099888
 30
0.0
 11
38.5577731695
 21
5.522048030899895
 31
0.0
  0
LINE
  5
2F67
330
22
100
AcDbEntity
  8
1
100
AcDbLine
 10
36.68785832239999
 20
5.448012525899912
 30
0.0
 11
15.00301584619998
 21
5.421555084399926
 31
0.0
  0
LINE
  5
2F68
330
22
100
AcDbEntity
  8
1
100
AcDbLine
 10
48.74805711759998
 20
5.169212779299982
 30
0.0
 11
39.77995630449999
 21
5.15826818849996
 31
0.0
  0
LINE
  5
2F69
330
22
100
AcDbEntity
  8
1
100
AcDbLine
 10
49.2242060261
 20
4.967761681899901
 30
0.0
 11
39.303807396
 21
4.95565491529993
 31
0.0
  0
LINE
  5
2F6A
330
22
100
AcDbEntity
  8
1
100
AcDbLine
 10
38.15101502959999
 20
4.738103260599928
 30
0.0
 11
48.60271400220003
 21
4.750858421499913
 31
0.0
  0
LINE
  5
2F6B
330
22
100
AcDbEntity
  8
SK1
100
AcDbLine
 10
-23.50000000000003
 20
6.999999999999943
 30
0.0
 11
-9.700000000000017
 21
6.999999999999943
 31
0.0
  0
LINE
  5
2F6C
330
22
100
AcDbEntity
  8
SK1
100
AcDbLine
 10
-7.000000000000028
 20
6.674999999999954
 30
0.0
 11
-8.960786437600006
 21
6.674999999999954
 31
0.0
  0
LINE
  5
2F6D
330
22
100
AcDbEntity
  8
1
100
AcDbLine
 10
48.10271400220003
 20
4.115498077999916
 30
0.0
 11
20.53671983889998
 21
4.115455064799903
 31
0.0
  0
LINE
  5
2F6E
330
22
100
AcDbEntity
  8
1
100
AcDbLine
 10
17.96313152259998
 20
4.088486327499936
 30
0.0
 11
9.486830289700009
 21
4.088443089999941
 31
0.0
  0
LWPOLYLINE
  5
2F98
330
22
100
AcDbEntity
  8
1
100
AcDbPolyline
 90
       15
 70
     0
 43
0.0
 10
39.303807396
 20
4.95565491529993
 10
39.21543004980001
 20
4.960604333299897
 10
39.12955989029999
 20
4.975020526999912
 10
39.0457166491
 20
4.999099374099898
 10
38.96534113169997
 20
5.032253241799935
 10
38.88945323729999
 20
5.074176293499931
 10
38.81883541639999
 20
5.124219019199927
 10
38.75439541060001
 20
5.181891485399944
 10
38.6967772459
 20
5.246409125999946
 10
38.6467643524
 20
5.317127012099945
 10
38.60484625959998
 20
5.393136298399895
 10
38.57167150710001
 20
5.473653621699952
 10
38.5475464939
 20
5.557657607699923
 10
38.53305912119998
 20
5.643705448899936
 10
38.52801342199999
 20
5.732278081299909
  0
LWPOLYLINE
  5
2FA9
330
22
100
AcDbEntity
  8
1
100
AcDbPolyline
 90
       13
 70
     0
 43
0.0
 10
49.1526428919
 20
5.1562667236999
 10
49.11867120529999
 20
5.158180567899989
 10
49.08471320830003
 20
5.159971634799887
 10
49.05075705869998
 20
5.161646111599907
 10
49.016838283
 20
5.16318543689988
 10
48.9829848071
 20
5.164578267399917
 10
48.94920758999998
 20
5.165809136299913
 10
48.91553493279999
 20
5.166860039899916
 10
48.88194273550002
 20
5.167727246299932
 10
48.84842633820003
 20
5.168403475899935
 10
48.81495572209999
 20
5.16888136809996
 10
48.78149536870001
 20
5.169149912599891
 10
48.74805711759998
 20
5.169212779299982
  0
LWPOLYLINE
  5
2FB8
330
22
100
AcDbEntity
  8
1
100
AcDbPolyline
 90
        9
 70
     0
 43
0.0
 10
48.74040664689999
 20
6.224225764899927
 10
48.85952684910003
 20
6.215782207599886
 10
48.98644177299999
 20
6.222926064899922
 10
49.1192558692
 20
6.226455047099932
 10
49.2558821643
 20
6.22184567819994
 10
49.39426385200002
 20
6.221756003499933
 10
49.53225439690001
 20
6.221967484099934
 10
49.6676908988
 20
6.222474468199948
 10
49.79842925470001
 20
6.223271316299928
  0
LINE
  5
2FC3
330
22
100
AcDbEntity
  8
SK1
100
AcDbLine
 10
-1.304456457500009
 20
8.313629669499903
 30
0.0
 11
-1.200928839400006
 21
8.299999999999954
 31
0.0
  0
LINE
  5
2FC4
330
22
100
AcDbEntity
  8
1
100
AcDbLine
 10
2.038095296299985
 20
11.98918443399992
 30
0.0
 11
2.232230671499991
 21
11.95694853539999
 31
0.0
  0
LWPOLYLINE
  5
3004
330
22
100
AcDbEntity
  8
1
100
AcDbPolyline
 90
        7
 70
     0
 43
0.0
 10
49.37041927089999
 20
-5.211905259900106
 10
49.3601295805
 20
-5.204602372000067
 10
49.34958222540001
 20
-5.19758929680006
 10
49.33878832439998
 20
-5.190864247400099
 10
49.32771452160003
 20
-5.184432584500086
 10
49.3163274615
 20
-5.178299668600061
 10
49.30463826270003
 20
-5.17246371300007
  0
LWPOLYLINE
  5
300D
330
22
100
AcDbEntity
  8
1
100
AcDbPolyline
 90
       19
 70
     0
 43
0.0
 10
49.37041927089999
 20
-5.211905259900106
 10
49.39667089389999
 20
-5.230871619900085
 10
49.42497136770001
 20
-5.251160922900055
 10
49.45515308400001
 20
-5.273011457600091
 10
49.48660307280002
 20
-5.296439096100073
 10
49.51880479249999
 20
-5.321355487000062
 10
49.55126092230003
 20
-5.347728997500041
 10
49.58348399720001
 20
-5.375399144800098
 10
49.61504832750001
 20
-5.404179232100034
 10
49.64544993749999
 20
-5.433728773400105
 10
49.67468993990002
 20
-5.463975605300049
 10
49.70270628330002
 20
-5.494930377800017
 10
49.72912607899999
 20
-5.526058760000069
 10
49.75373685540001
 20
-5.556895573000076
 10
49.77641312030002
 20
-5.586984780900081
 10
49.7971414024
 20
-5.615861403800067
 10
49.8158265895
 20
-5.642999294900107
 10
49.83249636259998
 20
-5.667783018400086
 10
49.84740689380001
 20
-5.690057637900054
  0
LWPOLYLINE
  5
3022
330
22
100
AcDbEntity
  8
1
100
AcDbPolyline
 90
       11
 70
     0
 43
0.0
 10
36.68785832239999
 20
5.448012525899912
 10
36.80947196310001
 20
5.320088603299893
 10
36.9400955024
 20
5.202038319299958
 10
37.08109059669999
 20
5.093137077899939
 10
37.22894036589997
 20
4.996873436299949
 10
37.38127486069999
 20
4.915763926899899
 10
37.53614928639999
 20
4.849807928099949
 10
37.69075837189999
 20
4.799969218999876
 10
37.8452156946
 20
4.765055707899989
 10
37.9984982508
 20
4.744527371499884
 10
38.15101502959999
 20
4.738103260599928
  0
LWPOLYLINE
  5
302F
330
22
100
AcDbEntity
  8
1
100
AcDbPolyline
 90
       25
 70
     0
 43
0.0
 10
36.68785832239999
 20
5.448012525899912
 10
36.568607308
 20
5.595964014299966
 10
36.46487565339999
 20
5.753174249699952
 10
36.3762955288
 20
5.92042512699993
 10
36.30397042369998
 20
6.095370961199932
 10
36.24879127119999
 20
6.276504047399953
 10
36.21102791070001
 20
6.46209233909991
 10
36.1912685115
 20
6.650485334399888
 10
36.1894490171
 20
6.839930694999964
 10
36.20583330919999
 20
7.028695439199964
 10
36.24002574189999
 20
7.215070995999951
 10
36.29195623249998
 20
7.397305246399923
 10
36.36091197259998
 20
7.573795853299884
 10
36.44649144249999
 20
7.742835610099916
 10
36.54769069389999
 20
7.902987007199953
 10
36.66379141179999
 20
8.052650167399917
 10
36.79353517569999
 20
8.190604985999925
 10
36.935913099
 20
8.315417419099901
 10
37.08945826569999
 20
8.42612940609996
 10
37.25290833499997
 20
8.521525240299922
 10
37.4246406947
 20
8.600943815399944
 10
37.60318352720001
 20
8.663431821899905
 10
37.78682210799999
 20
8.708650163099946
 10
37.97307544059999
 20
8.735859864199937
 10
38.16277052390001
 20
8.745307250099926
  0
LINE
  5
304A
330
22
100
AcDbEntity
  8
1
100
AcDbLine
 10
49.84740689380001
 20
-15.69999883540004
 30
0.0
 11
49.27090396230003
 21
-14.95071074990011
 31
0.0
  0
LINE
  5
304B
330
22
100
AcDbEntity
  8
1
100
AcDbLine
 10
38.2037516451
 20
8.555493257499961
 30
0.0
 11
38.16277052390001
 21
8.745307250099926
 31
0.0
  0
LWPOLYLINE
  5
314B
330
22
100
AcDbEntity
  8
1
100
AcDbPolyline
 90
        7
 70
     0
 43
0.0
 10
48.73651511670002
 20
6.220125231399947
 10
48.73738433150001
 20
6.220491830799915
 10
48.7380837876
 20
6.220849613799941
 10
48.73855701549999
 20
6.22110004459995
 10
48.7389734244
 20
6.221538730899908
 10
48.73950242330002
 20
6.222461280199922
 10
48.74008754249999
 20
6.223769156699916
  0
LINE
  5
3154
330
22
100
AcDbEntity
  8
SK1
100
AcDbLine
 10
-1.304456457500009
 20
-8.313629669400029
 30
0.0
 11
-2.000000000000028
 21
-8.500000000000056
 31
0.0
  0
LINE
  5
3155
330
22
100
AcDbEntity
  8
4
100
AcDbLine
 10
1.017159175599999
 20
-0.3204069541000649
 30
0.0
 11
51.50726595734525
 21
5.103074311827072
 31
0.0
  0
LINE
  5
3156
330
22
100
AcDbEntity
  8
1
100
AcDbLine
 10
16.99999999999997
 20
1.429370261799988
 30
0.0
 11
5.999999999999971
 21
1.429370261799988
 31
0.0
  0
LINE
  5
3157
330
22
100
AcDbEntity
  8
SK4
100
AcDbLine
 10
-27.00000000000003
 20
-0.0000000000000568
 30
0.0
 11
0.0
 21
0.0
 31
0.0
  0
LWPOLYLINE
  5
3159
330
22
100
AcDbEntity
  8
1
100
AcDbPolyline
 90
        4
 70
     0
 43
0.0
 10
9.486830289700009
 20
4.088443089999941
 10
8.9741637212
 20
4.104889548999892
 10
8.468851494599988
 20
4.152757109599974
 10
8.166707223399981
 20
4.197047724499952
  0
LWPOLYLINE
  5
315F
330
22
100
AcDbEntity
  8
1
100
AcDbPolyline
 90
       31
 70
     0
 43
0.0
 10
8.166707223399981
 20
4.197047724499952
 10
7.969609482799995
 20
4.232384102199944
 10
7.480290066699978
 20
4.342297902999916
 10
7.003668289699987
 20
4.481562211699952
 10
6.541692036799986
 20
4.648527355399949
 10
6.096661080699988
 20
4.841801203099919
 10
5.670294801899984
 20
5.059313154199912
 10
5.265395007400002
 20
5.298533336499872
 10
4.881014190299993
 20
5.559134836299904
 10
4.516524816399993
 20
5.840475143099922
 10
4.173768774800009
 20
6.140466151499879
 10
3.854173028800005
 20
6.457271829899923
 10
3.558354822199987
 20
6.789093149499933
 10
3.286427976299989
 20
7.135921083599953
 10
3.041329722699998
 20
7.49016993999993
 10
2.826126387100003
 20
7.847629473099914
 10
2.640544509400001
 20
8.199455117799971
 10
2.4871944713
 20
8.535527237099927
 10
2.360491073300011
 20
8.858552145699945
 10
2.256609346600015
 20
9.167251157299915
 10
2.172878980799993
 20
9.463905616499914
 10
2.105820030099977
 20
9.749501264799903
 10
2.054036433199996
 20
10.02614800279997
 10
2.015171230600003
 20
10.29592261369993
 10
1.988627170699999
 20
10.55898508939992
 10
1.973233855899991
 20
10.81644634519995
 10
1.968353763999999
 20
11.06705380709996
 10
1.973244622699979
 20
11.31024283289997
 10
1.987050283799987
 20
11.54535364929995
 10
2.00852922849998
 20
11.77162301489994
 10
2.038095296299985
 20
11.98918443399992
  0
LINE
  5
3180
330
22
100
AcDbEntity
  8
1
100
AcDbLine
 10
49.08693729810003
 20
-15.23058207380006
 30
0.0
 11
48.60271400220003
 21
-14.70868151150006
 31
0.0
  0
LINE
  5
3181
330
22
100
AcDbEntity
  8
1
100
AcDbLine
 10
49.37041927089999
 20
-16.1781512134001
 30
0.0
 11
48.79391633949999
 21
-15.42886312780001
 31
0.0
  0
LWPOLYLINE
  5
3182
330
22
100
AcDbEntity
  8
1
100
AcDbPolyline
 90
       11
 70
     0
 43
0.0
 10
40.0379263861
 20
-15.23058207380006
 10
40.05134454189999
 20
-15.26646534230008
 10
40.06804232919998
 20
-15.29922620790006
 10
40.08814006749997
 20
-15.32905514250006
 10
40.1112767987
 20
-15.35538073090009
 10
40.13719078739998
 20
-15.37766687050009
 10
40.16570468589998
 20
-15.39599809530006
 10
40.1965266699
 20
-15.41027241890003
 10
40.22973843490001
 20
-15.42051330040004
 10
40.26532245429999
 20
-15.4267088863001
 10
40.30328457049998
 20
-15.42886312780001
  0
LWPOLYLINE
  5
318F
330
22
100
AcDbEntity
  8
1
100
AcDbPolyline
 90
       11
 70
     0
 43
0.0
 10
39.76249444460001
 20
6.213269200399963
 10
39.67749828289999
 20
6.183959148099916
 10
39.58543529029999
 20
6.138658335899947
 10
39.4865202348
 20
6.09470311309991
 10
39.38230917109999
 20
6.057077127899958
 10
39.2739578808
 20
6.014517924899962
 10
39.1627371946
 20
5.971443631999932
 10
39.05004533619999
 20
5.928387182899939
 10
38.93717289330002
 20
5.885834351099958
 10
38.82542871769999
 20
5.844278853499929
 10
38.71617505519998
 20
5.804234669999971
  0
LINE
  5
319C
330
22
100
AcDbEntity
  8
SK1
100
AcDbLine
 10
-1.304456457500009
 20
-8.313629669400029
 30
0.0
 11
-1.200928839400006
 21
-8.300000000000068
 31
0.0
  0
LINE
  5
319D
330
22
100
AcDbEntity
  8
4
100
AcDbLine
 10
1.017159175599999
 20
0.3204069541999388
 30
0.0
 11
51.50726595734525
 21
-5.103074311727141
 31
0.0
  0
LWPOLYLINE
  5
319E
330
22
100
AcDbEntity
  8
1
100
AcDbPolyline
 90
        3
 70
     0
 43
0.0
 10
7.964372909600001
 20
4.289169285499895
 10
8.516363143999996
 20
4.148633300899916
 10
8.520265534299994
 20
4.147886725499915
  0
LINE
  5
31A3
330
22
100
AcDbEntity
  8
SK1
100
AcDbLine
 10
-1.304456457500009
 20
8.313629669499903
 30
0.0
 11
-2.000000000000028
 21
8.499999999999943
 31
0.0
  0
LWPOLYLINE
  5
31A4
330
22
100
AcDbEntity
  8
1
100
AcDbPolyline
 90
        7
 70
     0
 43
0.0
 10
38.85952958759998
 20
-15.64307827890002
 10
38.86668164830002
 20
-15.65345961260004
 10
38.8741982199
 20
-15.66347089490011
 10
38.88208151769999
 20
-15.67310066840008
 10
38.8903248952
 20
-15.68238330600008
 10
38.89892170549999
 20
-15.69135318090008
 10
38.90787416429999
 20
-15.69999883540004
  0
LINE
  5
31AD
330
22
100
AcDbEntity
  8
1
100
AcDbLine
 10
49.2242060261
 20
-4.945028236700125
 30
0.0
 11
48.60271400220003
 21
-4.945028236700125
 31
0.0
  0
LINE
  5
31AE
330
22
100
AcDbEntity
  8
1
100
AcDbLine
 10
49.4422220628
 20
-5.119970514900103
 30
0.0
 11
48.60271400220003
 21
-5.119970514900103
 31
0.0
  0
LINE
  5
31AF
330
22
100
AcDbEntity
  8
1
100
AcDbLine
 10
49.30463826270003
 20
-5.17246371300007
 30
0.0
 11
48.60271400220003
 21
-5.17246371300007
 31
0.0
  0
LINE
  5
31B0
330
22
100
AcDbEntity
  8
1
100
AcDbLine
 10
48.79391633949999
 20
-5.961193345500078
 30
0.0
 11
48.60271400220003
 21
-5.961193345500078
 31
0.0
  0
LINE
  5
31B1
330
22
100
AcDbEntity
  8
SK1
100
AcDbLine
 10
-7.000000000000028
 20
-6.675000000000068
 30
0.0
 11
-8.960786437600006
 21
-6.675000000000068
 31
0.0
  0
LINE
  5
31B2
330
22
100
AcDbEntity
  8
SK1
100
AcDbLine
 10
-23.50000000000003
 20
-7.000000000000056
 30
0.0
 11
-9.700000000000017
 21
-7.000000000000056
 31
0.0
  0
LINE
  5
31B3
330
22
100
AcDbEntity
  8
SK1
100
AcDbLine
 10
-10.70000000000002
 20
-8.000000000000056
 30
0.0
 11
-22.50000000000003
 21
-8.000000000000056
 31
0.0
  0
LINE
  5
31B4
330
22
100
AcDbEntity
  8
SK1
100
AcDbLine
 10
-0.3000000000000114
 20
-8.300000000000068
 30
0.0
 11
-1.200928839400006
 21
-8.300000000000068
 31
0.0
  0
LWPOLYLINE
  5
31C9
330
22
100
AcDbEntity
  8
1
100
AcDbPolyline
 90
        7
 70
     0
 43
0.0
 10
49.4422220628
 20
-16.2700859584001
 10
49.4201251474
 20
-16.26051133940007
 10
49.39776355789999
 20
-16.25126829800007
 10
49.37520180650003
 20
-16.24235803120007
 10
49.35224635650001
 20
-16.23377694840008
 10
49.3287036712
 20
-16.22552145920008
 10
49.30463826270003
 20
-16.21759276030002
  0
LWPOLYLINE
  5
31D2
330
22
100
AcDbEntity
  8
1
100
AcDbPolyline
 90
       17
 70
     0
 43
0.0
 10
15.00301584619998
 20
5.421555084399926
 10
14.6404240841
 20
5.710597735099895
 10
14.29631863679998
 20
6.019121314099891
 10
13.9701742874
 20
6.347689972899956
 10
13.66356668649999
 20
6.694611256699943
 10
13.37761173979999
 20
7.058816804599928
 10
13.11316346539999
 20
7.438998485699926
 10
12.8712139868
 20
7.833959983799957
 10
12.65246489410001
 20
8.24229749449995
 10
12.45777314669999
 20
8.662684314799889
 10
12.2876647605
 20
9.093692824499953
 10
12.14283378409999
 20
9.533988507099934
 10
12.02363307869999
 20
9.981965349299969
 10
11.9305733107
 20
10.43628793509992
 10
11.86387511309999
 20
10.89480995539997
 10
11.8239781975
 20
11.35461603109996
 10
11.81073599349997
 20
11.81667795519991
  0
LWPOLYLINE
  5
31E5
330
22
100
AcDbEntity
  8
1
100
AcDbPolyline
 90
       14
 70
     0
 43
0.0
 10
39.26728645809999
 20
-16.06870098630009
 10
39.2381605013
 20
-16.04232747580005
 10
39.20829844919999
 20
-16.01465732860004
 10
39.17813789490001
 20
-15.98587724120006
 10
39.14820509199998
 20
-15.9563276999001
 10
39.11849186480001
 20
-15.92608086810009
 10
39.08906571609998
 20
-15.89512609550007
 10
39.06027954460001
 20
-15.86399771340007
 10
39.032337431
 20
-15.83316090030001
 10
39.00536383749997
 20
-15.80307169240012
 10
38.9793579931
 20
-15.77419506950008
 10
38.95446890400001
 20
-15.7470571784001
 10
38.9307237292
 20
-15.72227345490012
 10
38.90787416429999
 20
-15.69999883540004
  0
LWPOLYLINE
  5
31F5
330
22
100
AcDbEntity
  8
1
100
AcDbPolyline
 90
        5
 70
     0
 43
0.0
 10
39.38486178709999
 20
-16.1781512134001
 10
39.36656444549999
 20
-16.15918485340006
 10
39.34534710459999
 20
-16.13889555040003
 10
39.321367729
 20
-16.11704501580004
 10
39.26728645809999
 20
-16.06870098630009
  0
LWPOLYLINE
  5
31FC
330
22
100
AcDbEntity
  8
1
100
AcDbPolyline
 90
        7
 70
     0
 43
0.0
 10
39.38486178709999
 20
-16.1781512134001
 10
39.39181902689998
 20
-16.18545414800007
 10
39.39916616349999
 20
-16.19246725070002
 10
39.40689126570001
 20
-16.19919230790003
 10
39.41503012749999
 20
-16.20562396040003
 10
39.42361854289999
 20
-16.21175684910008
 10
39.4326445806
 20
-16.21759276030002
  0
LINE
  5
3205
330
22
100
AcDbEntity
  8
1
100
AcDbLine
 10
20.62132034359999
 20
4.115498077999916
 30
0.0
 11
20.62132034359999
 21
-15.97438678420008
 31
0.0
  0
LWPOLYLINE
  5
3206
330
22
100
AcDbEntity
  8
1
100
AcDbPolyline
 90
        7
 70
     0
 43
0.0
 10
39.76638597479999
 20
15.20780742169995
 10
39.76551676
 20
15.20744082229993
 10
39.7648173039
 20
15.20708303929996
 10
39.76434407599999
 20
15.2068326083999
 10
39.76392766710001
 20
15.20639392219999
 10
39.76339866820001
 20
15.20547137289998
 10
39.76281354899999
 20
15.20416349639993
  0
LINE
  5
320F
330
22
100
AcDbEntity
  8
SK1
100
AcDbLine
 10
-2.000000000000028
 20
-8.500000000000056
 30
0.0
 11
-5.600000000000022
 21
-8.500000000000056
 31
0.0
  0
LINE
  5
3226
330
22
100
AcDbEntity
  8
1
100
AcDbLine
 10
19.56066017179998
 20
-15.5298241059001
 30
0.0
 11
19.56066017179998
 21
4.107592214699991
 31
0.0
  0
LINE
  5
3227
330
22
100
AcDbEntity
  8
1
100
AcDbLine
 10
18.93933982819999
 20
4.096386488299913
 30
0.0
 11
18.93933982819999
 21
-14.90430131390002
 31
0.0
  0
LINE
  5
3228
330
22
100
AcDbEntity
  8
1
100
AcDbLine
 10
17.8786796565
 20
-14.45846240250006
 30
0.0
 11
17.8786796565
 21
4.088443089999941
 31
0.0
  0
LINE
  5
3229
330
22
100
AcDbEntity
  8
1
100
AcDbLine
 10
16.99999999999997
 20
-14.04805186150008
 30
0.0
 11
16.99999999999997
 21
1.429370261799988
 31
0.0
  0
LWPOLYLINE
  5
322A
330
22
100
AcDbEntity
  8
1
100
AcDbPolyline
 90
        5
 70
     0
 43
0.0
 10
35.68557503060001
 20
-15.99999819640004
 10
35.74960353519998
 20
-15.98759645470005
 10
35.8694384792
 20
-15.94184063860007
 10
36.0359110979
 20
-15.86801370610004
 10
36.48593655900001
 20
-15.65931469920008
  0
LWPOLYLINE
  5
3231
330
22
100
AcDbEntity
  8
1
100
AcDbPolyline
 90
       11
 70
     0
 43
0.0
 10
48.79391633949999
 20
-15.42886312780001
 10
48.8321652255
 20
-15.42671020230006
 10
48.86859992399999
 20
-15.42051968390001
 10
48.90322597810001
 20
-15.41028795620008
 10
48.9360267584
 20
-15.39602586820001
 10
48.96708831650002
 20
-15.37771142860004
 10
48.99610815159999
 20
-15.35543954240012
 10
49.0229262572
 20
-15.32912020790007
 10
49.04720120089999
 20
-15.29928615410006
 10
49.06848886849999
 20
-15.26650295050007
 10
49.08693729810003
 20
-15.23058207380006
  0
LINE
  5
323E
330
22
100
AcDbEntity
  8
1
100
AcDbLine
 10
40.1340917686
 20
-14.70300464530004
 30
0.0
 11
40.51604481909999
 21
-14.69502823670012
 31
0.0
  0
LWPOLYLINE
  5
323F
330
22
100
AcDbEntity
  8
1
100
AcDbPolyline
 90
       12
 70
     0
 43
0.0
 10
6.650874950499996
 20
-14.49999914530002
 10
6.722630320299998
 20
-14.49990544590008
 10
7.226453093200007
 20
-14.49555999090006
 10
7.743030189999984
 20
-14.48635805260005
 10
8.273929370099978
 20
-14.47421451380006
 10
8.816946328699998
 20
-14.46089900650008
 10
9.371190666399996
 20
-14.44792332240007
 10
9.934288427599994
 20
-14.43655926690007
 10
10.5041523591
 20
-14.42783598130006
 10
11.07903195449998
 20
-14.42244967000005
 10
11.65617517410001
 20
-14.42083691140004
 10
12.23649936449999
 20
-14.42310816450009
  0
LINE
  5
324D
330
22
100
AcDbEntity
  8
1
100
AcDbLine
 10
16.99999999999997
 20
-14.04805186150008
 30
0.0
 11
5.999999999999971
 21
-14.04805186150008
 31
0.0
  0
LINE
  5
324E
330
22
100
AcDbEntity
  8
1
100
AcDbLine
 10
6.652566229099988
 20
-14.50000000000005
 30
0.0
 11
0.4999999999999716
 21
-14.50000000000005
 31
0.0
  0
LINE
  5
324F
330
22
100
AcDbEntity
  8
1
100
AcDbLine
 10
48.60271400220003
 20
-14.69502823670012
 30
0.0
 11
40.51604481909999
 21
-14.69502823670012
 31
0.0
  0
LINE
  5
3250
330
22
100
AcDbEntity
  8
1
100
AcDbLine
 10
40.59496156779999
 20
-14.70868151150006
 30
0.0
 11
48.60271400220003
 21
-14.70868151150006
 31
0.0
  0
LINE
  5
3251
330
22
100
AcDbEntity
  8
1
100
AcDbLine
 10
40.30328457049998
 20
-15.42886312780001
 30
0.0
 11
48.79391633949999
 21
-15.42886312780001
 31
0.0
  0
LINE
  5
3252
330
22
100
AcDbEntity
  8
1
100
AcDbLine
 10
35.6934383947
 20
-16.00000000000006
 30
0.0
 11
33.56308446529999
 21
-16.00000000000006
 31
0.0
  0
LINE
  5
3253
330
22
100
AcDbEntity
  8
1
100
AcDbLine
 10
39.4326445806
 20
-16.21759276030002
 30
0.0
 11
49.30463826270003
 21
-16.21759276030002
 31
0.0
  0
LINE
  5
3254
330
22
100
AcDbEntity
  8
1
100
AcDbLine
 10
39.21135301199999
 20
-16.2700859584001
 30
0.0
 11
49.4422220628
 21
-16.2700859584001
 31
0.0
  0
LWPOLYLINE
  5
3255
330
22
100
AcDbEntity
  8
1
100
AcDbPolyline
 90
        5
 70
     0
 43
0.0
 10
33.56241744630001
 20
-15.99999911710006
 10
31.9086476777
 20
-15.99958104260008
 10
28.14455233460001
 20
-15.99551314150005
 10
24.38210988989999
 20
-15.98711505530002
 10
20.62132034359999
 20
-15.97438678420008
  0
LWPOLYLINE
  5
325C
330
22
100
AcDbEntity
  8
1
100
AcDbPolyline
 90
        7
 70
     0
 43
0.0
 10
17.8786796565
 20
-14.45846240250006
 10
16.93691084470001
 20
-14.45331597130007
 10
15.99569184949999
 20
-14.44787098870006
 10
15.05500943909999
 20
-14.44212727860002
 10
14.11490330879999
 20
-14.43608536950006
 10
13.1754131541
 20
-14.42974578980005
 10
12.23652574299999
 20
-14.42310836350009
  0
LWPOLYLINE
  5
3265
330
22
100
AcDbEntity
  8
1
100
AcDbPolyline
 90
       15
 70
     0
 43
0.0
 10
17.8786796565
 20
-14.45846240250006
 10
17.96296475749997
 20
-14.46128992360002
 10
18.0467296006
 20
-14.46881884290007
 10
18.13011254189999
 20
-14.48107427520006
 10
18.21269851279999
 20
-14.49798087640005
 10
18.29419842009997
 20
-14.51950243660007
 10
18.37437269419999
 20
-14.54554666810009
 10
18.4529629667
 20
-14.57604803630011
 10
18.5297365413
 20
-14.6108900721
 10
18.60444693490001
 20
-14.64998040930004
 10
18.67687713879999
 20
-14.69318120530005
 10
18.74680081809998
 20
-14.74038212400006
 10
18.81399946779999
 20
-14.79140828020007
 10
18.87814239409999
 20
-14.84602155220005
 10
18.93933982819999
 20
-14.90430131390002
  0
LWPOLYLINE
  5
327D
330
22
100
AcDbEntity
  8
1
100
AcDbPolyline
 90
        7
 70
     0
 43
0.0
 10
39.4326445806
 20
-16.21759276030002
 10
39.3959269863
 20
-16.22552345440005
 10
39.3592150879
 20
-16.23378004050005
 10
39.3225758506
 20
-16.24236122810009
 10
39.285808379
 20
-16.25127088930003
 10
39.2487117778
 20
-16.2605128963001
 10
39.21135301199999
 20
-16.2700859584001
  0
LWPOLYLINE
  5
3286
330
22
100
AcDbEntity
  8
1
100
AcDbPolyline
 90
       39
 70
     0
 43
0.0
 10
49.88826469880002
 20
-15.82295413180003
 10
49.89402114679998
 20
-15.82229248780004
 10
49.89957237800002
 20
-15.82145814330005
 10
49.90491475429999
 20
-15.82044844410006
 10
49.91005919009999
 20
-15.81927135280006
 10
49.91501315529998
 20
-15.81793271200007
 10
49.91978334469999
 20
-15.81643622760003
 10
49.9243771141
 20
-15.81478658020006
 10
49.9287999505
 20
-15.81298668930003
 10
49.9330581575
 20
-15.81104034740008
 10
49.9371566419
 20
-15.80894961670009
 10
49.9411008522
 20
-15.80671751580007
 10
49.94489546669999
 20
-15.8043449677001
 10
49.94854541219999
 20
-15.80183415190004
 10
49.95205539190002
 20
-15.79918431750002
 10
49.9554303511
 20
-15.7963962788001
 10
49.95867448970003
 20
-15.79346751980006
 10
49.9617925451
 20
-15.79039722200008
 10
49.96478785050001
 20
-15.78718110790004
 10
49.96766440270002
 20
-15.78381690360004
 10
49.97042494839999
 20
-15.78029777920011
 10
49.9730728552
 20
-15.77661964080005
 10
49.97561025630003
 20
-15.77277200640003
 10
49.97803968730003
 20
-15.76874895750006
 10
49.98036330940002
 20
-15.76453271060012
 10
49.98258403240001
 20
-15.76011223680007
 10
49.98470214630001
 20
-15.75546135410007
 10
49.98671971450002
 20
-15.75056328570002
 10
49.988634327
 20
-15.74537878750004
 10
49.99044654990001
 20
-15.73988339010009
 10
49.99214951799999
 20
-15.73401599180005
 10
49.99374197789999
 20
-15.72773822890002
 10
49.99520765939999
 20
-15.72095741790002
 10
49.99654268730001
 20
-15.71358850690006
 10
49.99770862390002
 20
-15.70557023750007
 10
49.99868101710001
 20
-15.69673037180007
 10
49.99941403530002
 20
-15.68731679620009
 10
49.99984694849999
 20
-15.67754379400003
 10
50.0
 20
-15.66733993740007
  0
LWPOLYLINE
  5
32AF
330
22
100
AcDbEntity
  8
1
100
AcDbPolyline
 90
       15
 70
     0
 43
0.0
 10
49.22420602600002
 20
-16.44502823670012
 10
49.3125833723
 20
-16.43997019340008
 10
49.39845353169999
 20
-16.42544699250004
 10
49.48229677290001
 20
-16.40126214040003
 10
49.56267229030001
 20
-16.36800511790005
 10
49.63856018470003
 20
-16.32598305310011
 10
49.70917800560002
 20
-16.27584651000006
 10
49.77361801140003
 20
-16.21808660470003
 10
49.83123617610002
 20
-16.15348880890002
 10
49.88124906959999
 20
-16.08269910590007
 10
49.92316716240001
 20
-16.00662707690009
 10
49.95634191490004
 20
-15.92605699620009
 10
49.98046692810001
 20
-15.84201076770006
 10
49.9949543008
 20
-15.75593213600012
 10
50.0
 20
-15.66733985290006
  0
LWPOLYLINE
  5
32C0
330
22
100
AcDbEntity
  8
1
100
AcDbPolyline
 90
       39
 70
     0
 43
0.0
 10
49.22420610930001
 20
-16.44502823670012
 10
49.23447029720001
 20
-16.44478776550005
 10
49.2444497449
 20
-16.44411207040002
 10
49.25422154
 20
-16.44297017410008
 10
49.26355441980001
 20
-16.44145500810009
 10
49.27219364610002
 20
-16.43963626350012
 10
49.28028673410003
 20
-16.43755268310008
 10
49.28786864860001
 20
-16.43526418270011
 10
49.295022302
 20
-16.43277693390001
 10
49.30182969490002
 20
-16.4301164456001
 10
49.3083285271
 20
-16.42728462110006
 10
49.3145757316
 20
-16.42429209310012
 10
49.32059560960002
 20
-16.42113818250004
 10
49.32642534230001
 20
-16.41782691040004
 10
49.33208322269999
 20
-16.41435480960001
 10
49.33759571700003
 20
-16.41072130760005
 10
49.34297548700001
 20
-16.40692174250006
 10
49.34824165680002
 20
-16.40295254190005
 10
49.35340130540001
 20
-16.39880986550008
 10
49.35846586880001
 20
-16.39449047440007
 10
49.36344140050002
 20
-16.38998899140006
 10
49.3683362877
 20
-16.38530103620007
 10
49.37315496450001
 20
-16.38042037830007
 10
49.3779034902
 20
-16.37534182820002
 10
49.38258537620001
 20
-16.37005788220006
 10
49.3872054835
 20
-16.3645619331001
 10
49.3917658234
 20
-16.35884610190004
 10
49.39626985530001
 20
-16.35290287550009
 10
49.40071809630001
 20
-16.34672454980005
 10
49.40511221599999
 20
-16.3403037627001
 10
49.4094522167
 20
-16.33363197470004
 10
49.4137387188
 20
-16.32670154760006
 10
49.41797153669998
 20
-16.31950241610002
 10
49.4221508892
 20
-16.31202581910008
 10
49.4262761839
 20
-16.30426020640004
 10
49.4303474644
 20
-16.29619501110005
 10
49.43436304169998
 20
-16.28781852160006
 10
49.43832103190001
 20
-16.2791135998001
 10
49.4422220628
 20
-16.2700859584001
  0
LINE
  5
32E9
330
22
100
AcDbEntity
  8
1
100
AcDbLine
 10
39.303807396
 20
-16.44502823670012
 30
0.0
 11
49.22420602600002
 21
-16.44502823670012
 31
0.0
  0
LWPOLYLINE
  5
32EB
330
22
100
AcDbEntity
  8
1
100
AcDbPolyline
 90
       14
 70
     0
 43
0.0
 10
14.19263457139999
 20
4.088443089999941
 10
14.1874439972
 20
4.127077421499905
 10
14.1893484654
 20
4.196386416299901
 10
14.20198741599998
 20
4.272839407599917
 10
14.2253933067
 20
4.356639467599904
 10
14.26041081619999
 20
4.44804949959996
 10
14.3077224136
 20
4.547662247299911
 10
14.36778004619998
 20
4.655020040399961
 10
14.44138972580001
 20
4.770022277499947
 10
14.5281645862
 20
4.891554148399904
 10
14.62819141359998
 20
5.018400135099909
 10
14.7409242057
 20
5.149731823499962
 10
14.8658170711
 20
5.284390698799938
 10
15.0030082241
 20
5.421555075099888
  0
LWPOLYLINE
  5
32FB
330
22
100
AcDbEntity
  8
1
100
AcDbPolyline
 90
        7
 70
     0
 43
0.0
 10
11.81073599349997
 20
11.81667795519991
 10
11.82254491910001
 20
12.25316750539997
 10
11.8581424166
 20
12.68777798659994
 10
11.9176467586
 20
13.12129340899992
 10
12.00070312719998
 20
13.55136174189988
 10
12.10695670429999
 20
13.97563095489994
 10
12.23652576259999
 20
14.39488505809993
  0
LINE
  5
3304
330
22
100
AcDbEntity
  8
1
100
AcDbLine
 10
19.56066017179998
 20
15.51037055099994
 30
0.0
 11
18.93933982819999
 21
14.88418477529996
 31
0.0
  0
LWPOLYLINE
  5
3305
330
22
100
AcDbEntity
  8
1
100
AcDbPolyline
 90
       15
 70
     0
 43
0.0
 10
19.56066017179998
 20
15.51037055099994
 10
19.62186692009999
 20
15.5686763775999
 10
19.6860291131
 20
15.62331550839991
 10
19.75325940269999
 20
15.67436939179998
 10
19.82321983339997
 20
15.72159368259991
 10
19.89568736070001
 20
15.76480791449995
 10
19.9704299032
 20
15.80390189949992
 10
20.04722335419999
 20
15.83873479839991
 10
20.12582074589997
 20
15.8692180976999
 10
20.20598510880001
 20
15.89523681499997
 10
20.2874623422
 20
15.91672951809994
 10
20.37001408329999
 20
15.93360787779994
 10
20.45335614909999
 20
15.94583760229989
 10
20.5370794479
 20
15.95334698959993
 10
20.62132034359999
 20
15.9561599404999
  0
LWPOLYLINE
  5
3316
330
22
100
AcDbEntity
  8
1
100
AcDbPolyline
 90
       15
 70
     0
 43
0.0
 10
19.56066017179998
 20
-15.5298241059001
 10
19.6218669232
 20
-15.58806411000006
 10
19.68602912429998
 20
-15.64263325460001
 10
19.7532594283
 20
-15.69361286410009
 10
19.82321987589998
 20
-15.74075896540006
 10
19.89568742009999
 20
-15.78389133380011
 10
19.97042997669999
 20
-15.8229000477001
 10
20.0472234346
 20
-15.85764451820006
 10
20.12582082679998
 20
-15.88803652180002
 10
20.20598518150001
 20
-15.91396134850009
 10
20.28746240149999
 20
-15.93535786860002
 10
20.37001412550001
 20
-15.95213803240011
 10
20.45335617390001
 20
-15.96426788970006
 10
20.5370794591
 20
-15.9716762278
 10
20.62132034359999
 20
-15.97438678420008
  0
LINE
  5
3327
330
22
100
AcDbEntity
  8
1
100
AcDbLine
 10
19.56066017179998
 20
-15.5298241059001
 30
0.0
 11
18.93933982819999
 21
-14.90430131390002
 31
0.0
  0
LINE
  5
3328
330
22
100
AcDbEntity
  8
1
100
AcDbLine
 10
5.999999999999971
 20
-14.04805186150008
 30
0.0
 11
5.999999999999971
 21
1.429370261799988
 31
0.0
  0
LINE
  5
3329
330
22
100
AcDbEntity
  8
SK1
100
AcDbLine
 10
-9.667893218799974
 20
-6.967893218800099
 30
0.0
 11
-10.70000000000002
 21
-8.000000000000056
 31
0.0
  0
LINE
  5
332A
330
22
100
AcDbEntity
  8
SK1
100
AcDbLine
 10
-5.600000000000022
 20
8.499999999999943
 30
0.0
 11
-6.000000000000028
 21
8.269059892399923
 31
0.0
  0
LINE
  5
332C
330
22
100
AcDbEntity
  8
SK1
100
AcDbLine
 10
-5.600000000000022
 20
-8.500000000000056
 30
0.0
 11
-6.000000000000028
 21
-8.269059892300049
 31
0.0
  0
LINE
  5
332D
330
22
100
AcDbEntity
  8
SK1
100
AcDbLine
 10
-9.667893218799974
 20
6.967893218899973
 30
0.0
 11
-10.70000000000002
 21
7.999999999999943
 31
0.0
  0
LWPOLYLINE
  5
332E
330
22
100
AcDbEntity
  8
1
100
AcDbPolyline
 90
       19
 70
     0
 43
0.0
 10
2.232230671499991
 20
11.95694853539999
 10
2.252564102400015
 20
11.38634680699994
 10
2.313460780799999
 20
10.81870236369991
 10
2.414610390999996
 20
10.25690779139995
 10
2.555497497900006
 20
9.703825866499869
 10
2.735404173099993
 20
9.16227496779993
 10
2.953413653300003
 20
8.635014714499902
 10
3.208415012300008
 20
8.124731903899942
 10
3.499108821499987
 20
7.634026820399981
 10
3.824013772
 20
7.165399984499913
 10
4.181474222599973
 20
6.721239411099986
 10
4.569668636699987
 20
6.303808440799912
 10
4.986618864700005
 20
5.915234206099967
 10
5.430200223699984
 20
5.55749679219997
 10
5.898152324800008
 20
5.232419146999916
 10
6.388090591399986
 20
4.941657791599936
 10
6.897518410299994
 20
4.686694379299979
 10
7.423839854199997
 20
4.468828145099905
 10
7.964372909600001
 20
4.289169285499895
  0
LWPOLYLINE
  5
3343
330
22
100
AcDbEntity
  8
1
100
AcDbPolyline
 90
        5
 70
     0
 43
0.0
 10
2.308807955800006
 20
13.06246651889995
 10
2.27533559859998
 20
12.78723353469996
 10
2.251398010299993
 20
12.51101487429997
 10
2.237023945700002
 20
12.2341423439999
 10
2.232230671499991
 20
11.95694853539999
  0
LINE
  5
334A
330
22
100
AcDbEntity
  8
1
100
AcDbLine
 10
0.4999999999999716
 20
14.49999999999994
 30
0.0
 11
0.4999999999999716
 21
-14.50000000000005
 31
0.0
  0
LINE
  5
334B
330
22
100
AcDbEntity
  8
1
100
AcDbLine
 10
-0.0000000000000284
 20
13.99983595929995
 30
0.0
 11
-0.0000000000000284
 21
-13.99983595920008
 31
0.0
  0
LINE
  5
334C
330
22
100
AcDbEntity
  8
SK1
100
AcDbLine
 10
-0.3000000000000114
 20
8.299999999999954
 30
0.0
 11
-0.3000000000000114
 21
-8.300000000000068
 31
0.0
  0
LINE
  5
334D
330
22
100
AcDbEntity
  8
SK1
100
AcDbLine
 10
-1.200928839400006
 20
8.299999999999954
 30
0.0
 11
-1.200928839400006
 21
-8.300000000000068
 31
0.0
  0
LINE
  5
334E
330
22
100
AcDbEntity
  8
SK1
100
AcDbLine
 10
-1.304456457500009
 20
8.313629669499903
 30
0.0
 11
-1.304456457500009
 21
-8.313629669400029
 31
0.0
  0
LINE
  5
334F
330
22
100
AcDbEntity
  8
SK1
100
AcDbLine
 10
-2.000000000000028
 20
8.499999999999943
 30
0.0
 11
-2.000000000000028
 21
-8.500000000000056
 31
0.0
  0
LWPOLYLINE
  5
3350
330
22
100
AcDbEntity
  8
1
100
AcDbPolyline
 90
        7
 70
     0
 43
0.0
 10
2.038095296299985
 20
11.98918443399992
 10
2.070194904700002
 20
12.17820391469996
 10
2.107665791199991
 20
12.3638572687999
 10
2.150661341300008
 20
12.54563956639993
 10
2.198721398999992
 20
12.72302854379995
 10
2.251385808799994
 20
12.89548729729989
 10
2.308807955800006
 20
13.06246651889995
  0
LWPOLYLINE
  5
3359
330
22
100
AcDbEntity
  8
1
100
AcDbPolyline
 90
       16
 70
     0
 43
0.0
 10
2.308807955800006
 20
13.06246651889995
 10
2.399623719499999
 20
13.2695628868999
 10
2.519942859100012
 20
13.46226813189992
 10
2.669800071899999
 20
13.64060610379994
 10
2.849091265899971
 20
13.80253503159991
 10
3.057648913799994
 20
13.94685997649992
 10
3.295698018300015
 20
14.07356097109994
 10
3.563806085500004
 20
14.18277201599994
 10
3.860778078999999
 20
14.27430321229991
 10
4.185895269599996
 20
14.34852447849994
 10
4.538296240999983
 20
14.40632170609996
 10
4.918390825999978
 20
14.44890186969997
 10
5.321646547900002
 20
14.47747351069995
 10
5.744863709199989
 20
14.49373477649988
 10
6.184453805199979
 20
14.49981676999994
 10
6.290857080800009
 20
14.49999853449992
  0
LINE
  5
336B
330
22
100
AcDbEntity
  8
1
100
AcDbLine
 10
0.4999999999999716
 20
14.49999999999994
 30
0.0
 11
-0.0000000000000284
 21
13.99999999999994
 31
0.0
  0
LINE
  5
336C
330
22
100
AcDbEntity
  8
1
100
AcDbLine
 10
0.4999999999999716
 20
-14.50000000000005
 30
0.0
 11
-0.0000000000000284
 21
-14.00000000000005
 31
0.0
  0
LINE
  5
336D
330
22
100
AcDbEntity
  8
SK1
100
AcDbLine
 10
-5.600000000000022
 20
8.499999999999943
 30
0.0
 11
-5.600000000000022
 21
-8.500000000000056
 31
0.0
  0
LINE
  5
336E
330
22
100
AcDbEntity
  8
SK1
100
AcDbLine
 10
-6.000000000000028
 20
8.269059892399923
 30
0.0
 11
-6.000000000000028
 21
-8.269059892300049
 31
0.0
  0
LINE
  5
336F
330
22
100
AcDbEntity
  8
SK1
100
AcDbLine
 10
-7.000000000000028
 20
6.674999999999954
 30
0.0
 11
-7.000000000000028
 21
-6.675000000000068
 31
0.0
  0
LINE
  5
3370
330
22
100
AcDbEntity
  8
SK1
100
AcDbLine
 10
-8.960786437600006
 20
6.674999999999954
 30
0.0
 11
-8.960786437600006
 21
-6.675000000000068
 31
0.0
  0
LINE
  5
3371
330
22
100
AcDbEntity
  8
SK1
100
AcDbLine
 10
-9.667893218799974
 20
6.967893218899973
 30
0.0
 11
-9.667893218799974
 21
-6.967893218800099
 31
0.0
  0
LINE
  5
3372
330
22
100
AcDbEntity
  8
SK1
100
AcDbLine
 10
-9.700000000000017
 20
6.999999999999943
 30
0.0
 11
-9.700000000000017
 21
-7.000000000000056
 31
0.0
  0
LINE
  5
3374
330
22
100
AcDbEntity
  8
SK1
100
AcDbLine
 10
-10.70000000000002
 20
7.999999999999943
 30
0.0
 11
-10.70000000000002
 21
-8.000000000000056
 31
0.0
  0
LINE
  5
3375
330
22
100
AcDbEntity
  8
SK1
100
AcDbLine
 10
-22.50000000000003
 20
7.999999999999943
 30
0.0
 11
-24.00000000000003
 21
6.499999999999943
 31
0.0
  0
LINE
  5
3376
330
22
100
AcDbEntity
  8
SK1
100
AcDbLine
 10
-22.50000000000003
 20
-8.000000000000056
 30
0.0
 11
-24.00000000000003
 21
-6.500000000000056
 31
0.0
  0
LINE
  5
3378
330
22
100
AcDbEntity
  8
SK1
100
AcDbLine
 10
-22.50000000000003
 20
7.999999999999943
 30
0.0
 11
-22.50000000000003
 21
-8.000000000000056
 31
0.0
  0
LINE
  5
3379
330
22
100
AcDbEntity
  8
SK1
100
AcDbLine
 10
-23.50000000000003
 20
6.999999999999943
 30
0.0
 11
-23.50000000000003
 21
-7.000000000000056
 31
0.0
  0
LINE
  5
337A
330
22
100
AcDbEntity
  8
SK1
100
AcDbLine
 10
-24.00000000000003
 20
6.499822829099912
 30
0.0
 11
-24.00000000000003
 21
-6.499822829000038
 31
0.0
  0
ARC
  5
339F
330
22
100
AcDbEntity
  8
SK3
100
AcDbCircle
 10
-22.50000000000003
 20
-5.000000000000056
 30
0.0
 40
2.0
100
AcDbArc
 50
90.0
 51
138.5903778906999
  0
ARC
  5
33A0
330
22
100
AcDbEntity
  8
SK3
100
AcDbCircle
 10
-22.50000000000003
 20
4.999999999999943
 30
0.0
 40
2.0
100
AcDbArc
 50
221.4096221093
 51
270.0
  0
ARC
  5
33B3
330
22
100
AcDbEntity
  8
SK1
100
AcDbCircle
 10
-0.3000000000000114
 20
8.699999999999931
 30
0.0
 40
0.4
100
AcDbArc
 50
270.0
 51
318.5903778907
  0
ARC
  5
33B4
330
22
100
AcDbEntity
  8
SK1
100
AcDbCircle
 10
-7.000000000000028
 20
7.674999999999954
 30
0.0
 40
1.0
100
AcDbArc
 50
270.0
 51
0.0
  0
ARC
  5
33B5
330
22
100
AcDbEntity
  8
SK1
100
AcDbCircle
 10
-8.960786437600006
 20
7.674999999999954
 30
0.0
 40
1.0
100
AcDbArc
 50
225.0
 51
270.0
  0
ARC
  5
33B6
330
22
100
AcDbEntity
  8
SK1
100
AcDbCircle
 10
-0.3000000000000114
 20
-8.700000000000045
 30
0.0
 40
0.4
100
AcDbArc
 50
41.40962210930005
 51
90.0
  0
ARC
  5
33B7
330
22
100
AcDbEntity
  8
SK1
100
AcDbCircle
 10
-7.000000000000028
 20
-7.675000000000068
 30
0.0
 40
1.0
100
AcDbArc
 50
0.0
 51
90.0
  0
ARC
  5
33B8
330
22
100
AcDbEntity
  8
SK1
100
AcDbCircle
 10
-8.960786437600006
 20
-7.675000000000068
 30
0.0
 40
1.0
100
AcDbArc
 50
90.0
 51
134.9999999999999
  0
TEXT
  5
35D8
330
22
100
AcDbEntity
  8
6
100
AcDbText
 10
81.15189516836975
 20
-4.311282846758274
 30
0.0
 40
3.5
  1
Z=2
 50
90.0
 41
1.199999999999999
100
AcDbText
  0
INSERT
  5
35D9
330
22
100
AcDbEntity
  8
1
100
AcDbBlockReference
  2
nullp
 10
-271.9386450411704
 20
-389.8959796344513
 30
0.0
  0
INSERT
  5
35DA
330
22
100
AcDbEntity
  8
0
100
AcDbBlockReference
  2
nullp1
 10
-393.0645295494706
 20
-449.0849634019313
 30
0.0
  0
LINE
  5
36CD
330
22
100
AcDbEntity
  8
4
100
AcDbLine
 10
0.0
 20
0.0
 30
0.0
 11
51.20407785824411
 21
-0.0000000000000568
 31
0.0
  0
LINE
  5
376D
330
22
100
AcDbEntity
  8
SK3
100
AcDbLine
 10
-0.0000000000000284
 20
2.999999999999943
 30
0.0
 11
-22.50000000000003
 21
2.999999999999943
 31
0.0
  0
LINE
  5
376E
330
22
100
AcDbEntity
  8
SK3
100
AcDbLine
 10
-0.0000000000000284
 20
-3.000000000000056
 30
0.0
 11
-22.50000000000003
 21
-3.000000000000056
 31
0.0
  0
LWPOLYLINE
  5
376F
330
22
100
AcDbEntity
  8
NOCUT
100
AcDbPolyline
 90
       11
 70
   128
 43
0.0
 10
19.56066017180004
 20
15.56066017169996
 10
18.93933982817984
 20
14.93933982822017
 42
-0.198912367379658
 10
17.87867965640001
 20
14.5
 10
0.5
 20
14.5
 10
0.0
 20
14.0
 10
0.0
 20
0.0
 10
48.60271400210002
 20
0.0
 10
48.60271400210002
 20
15.5
 42
0.4142135623730951
 10
48.10271400210002
 20
16.0
 10
20.6213203435
 20
16.0
 42
0.1989123673796576
 10
19.5606601717202
 20
15.56066017177983
  0
DIMENSION
  5
37AA
330
22
100
AcDbEntity
  8
2
100
AcDbDimension
  2
*D77
 10
61.94038492741651
 20
5.99999999999994
 30
0.0
 11
60.06513886442439
 21
-0.0000000000000497
 31
0.0
 70
    32
  1
%%c<>
 71
     5
 42
12.0
  3
ISO-25
100
AcDbAlignedDimension
 13
51.20407785824411
 23
-6.000000000000056
 33
0.0
 14
51.20407785824411
 24
5.999999999999943
 34
0.0
 50
90.0
100
AcDbRotatedDimension
  0
DIMENSION
  5
37D2
330
22
100
AcDbEntity
  8
2
100
AcDbDimension
  2
*D78
 10
17.0
 20
23.01674725799307
 30
0.0
 11
33.5
 21
24.89174725799307
 31
0.0
 70
    32
 71
     5
 42
33.0
  3
ISO-25
100
AcDbAlignedDimension
 13
50.0
 23
16.49999999999994
 33
0.0
 14
17.0
 24
16.49999999999995
 34
0.0
100
AcDbRotatedDimension
  0
ENDSEC
  0
SECTION
  2
OBJECTS
  0
DICTIONARY
  5
C
330
0
100
AcDbDictionary
281
     1
  3
ACAD_COLOR
350
1B
  3
ACAD_GROUP
350
D
  3
ACAD_LAYOUT
350
19
  3
ACAD_MATERIAL
350
1A
  3
ACAD_MLINESTYLE
350
16
  3
ACAD_PLOTSETTINGS
350
18
  3
ACAD_PLOTSTYLENAME
350
E
  3
ACAD_TABLESTYLE
350
1C
  3
ACDBHEADERROUNDTRIPXREC
350
37FE
  3
AcDbVariableDictionary
350
376A
  0
DICTIONARY
  5
36CE
330
22
100
AcDbDictionary
280
     1
281
     1
  3
ACAD_SORTENTS
360
36CF
  0
DICTIONARY
  5
1B
102
{ACAD_REACTORS
330
C
102
}
330
C
100
AcDbDictionary
281
     1
  0
DICTIONARY
  5
D
102
{ACAD_REACTORS
330
C
102
}
330
C
100
AcDbDictionary
281
     1
  0
DICTIONARY
  5
19
102
{ACAD_REACTORS
330
C
102
}
330
C
100
AcDbDictionary
281
     1
  3
Layout1
350
21
  3
Model
350
25
  0
DICTIONARY
  5
1A
102
{ACAD_REACTORS
330
C
102
}
330
C
100
AcDbDictionary
281
     1
  0
DICTIONARY
  5
16
102
{ACAD_REACTORS
330
C
102
}
330
C
100
AcDbDictionary
281
     1
  3
Standard
350
17
  0
DICTIONARY
  5
18
102
{ACAD_REACTORS
330
C
102
}
330
C
100
AcDbDictionary
281
     1
  0
ACDBDICTIONARYWDFLT
  5
E
102
{ACAD_REACTORS
330
C
102
}
330
C
100
AcDbDictionary
281
     1
  3
Normal
350
F
100
AcDbDictionaryWithDefault
340
F
  0
DICTIONARY
  5
1C
102
{ACAD_REACTORS
330
C
102
}
330
C
100
AcDbDictionary
281
     1
  3
Standard
350
1D
  0
DICTIONARY
  5
37FE
102
{ACAD_REACTORS
330
C
102
}
330
C
100
AcDbDictionary
281
     1
  0
DICTIONARY
  5
376A
102
{ACAD_REACTORS
330
C
102
}
330
C
100
AcDbDictionary
281
     1
  3
CTABLESTYLE
350
376B
  3
DIMASSOC
350
37A1
  3
PROJECTNAME
350
37A2
  0
SORTENTSTABLE
  5
36CF
102
{ACAD_REACTORS
330
36CE
102
}
330
36CE
100
AcDbSortentsTable
330
22
331
25F8
  5
28E4
331
2E6A
  5
2F6E
331
2D41
  5
2E64
331
3343
  5
3392
331
250C
  5
25C2
331
2D63
  5
2E6A
331
3376
  5
34FD
331
251D
  5
25C3
331
3004
  5
31A4
331
25BF
  5
26E0
331
3157
  5
31D2
331
2503
  5
25C1
331
2E68
  5
2F6C
331
31B3
  5
3252
331
2D61
  5
2E68
331
3255
  5
334D
331
2676
  5
2D38
331
339F
  5
3509
331
266D
  5
2D2B
331
3374
  5
34FB
331
28E4
  5
2DD2
331
2AC7
  5
2E06
331
3155
  5
31B4
331
36CD
  5
31E5
331
2EAC
  5
3004
331
3231
  5
3327
331
31F5
  5
3265
331
31B1
  5
3250
331
3253
  5
334B
331
2FC4
  5
31A3
331
3350
  5
3399
331
332E
  5
3391
331
3206
  5
32AF
331
3022
  5
31AE
331
2F2A
  5
3022
331
3372
  5
34FA
331
3286
  5
3359
331
2D5F
  5
2E66
331
28E2
  5
2DC0
331
32C0
  5
336C
331
3304
  5
3370
331
304B
  5
31B1
331
2DDB
  5
2F13
331
35DA
  5
37A9
331
3251
  5
3343
331
2DF5
  5
2F3A
331
332C
  5
3379
331
32AF
  5
336B
331
2E75
  5
2F98
331
3226
  5
32EB
331
3370
  5
33A0
331
334E
  5
3397
331
2E06
  5
2F45
331
2F6D
  5
3181
331
324F
  5
332D
331
2CA8
  5
2E53
331
35D8
  5
3775
331
332A
  5
3378
331
31A4
  5
323E
331
3182
  5
3211
331
2601
  5
2ABE
331
334C
  5
3395
331
336E
  5
339E
331
323E
  5
3328
331
2595
  5
2676
331
300D
  5
31AD
331
2526
  5
25C4
331
2F6B
  5
315F
331
302F
  5
31AF
331
7A8
  5
7A8
331
324D
  5
332A
331
3180
  5
320F
331
3328
  5
3375
331
334A
  5
3393
331
2F69
  5
3158
331
336C
  5
339C
331
2F13
  5
300D
331
2593
  5
262D
331
2DE8
  5
2F2A
331
29F2
  5
2DDB
331
2E46
  5
2F64
331
3359
  5
339A
331
3229
  5
3305
331
33B7
  5
350F
331
2D80
  5
2E8B
331
2533
  5
25C5
331
2555
  5
25E9
331
2F67
  5
3156
331
2591
  5
261D
331
325C
  5
334E
331
314B
  5
31B2
331
318F
  5
3227
331
2E66
  5
2F6A
331
320F
  5
32C0
331
11EE
  5
20E5
331
2E80
  5
2FA9
331
25C4
  5
28C8
331
3379
  5
34FF
331
2F98
  5
318F
331
25C2
  5
28B4
331
2E53
  5
2F65
331
33B5
  5
350D
331
32EB
  5
336E
331
319E
  5
322A
331
31FC
  5
327D
331
2F65
  5
3154
331
258F
  5
2601
331
2FA9
  5
319C
331
2E64
  5
2F68
331
261D
  5
2B77
331
31C9
  5
3254
331
31AF
  5
324E
331
260C
  5
2AC7
331
376E
  5
2106
331
20EE
  5
2100
331
25C0
  5
27D3
331
2FB8
  5
319D
331
33B3
  5
350B
331
25F9
  5
29F2
331
319C
  5
3228
331
32E9
  5
336D
331
2DC0
  5
2E9C
331
2D64
  5
2E75
331
258D
  5
25F9
331
2E62
  5
2F66
331
31AD
  5
323F
331
2DD1
  5
2EAB
331
262C
  5
2C29
331
2E2F
  5
2F54
331
20EC
  5
20FF
331
775
  5
775
331
2E69
  5
2F6D
331
31B4
  5
3253
331
2E8B
  5
2FB8
331
2D62
  5
2E69
331
2677
  5
2D41
331
33A0
  5
350A
331
2E9C
  5
2FC3
331
253E
  5
25D2
331
3375
  5
34FC
331
28A9
  5
2D62
331
24CF
  5
25A7
331
3156
  5
31B5
331
773
  5
773
331
31B2
  5
3251
331
2D60
  5
2E67
331
3254
  5
334C
331
2EAB
  5
2FC4
331
20E8
  5
20FC
331
31E5
  5
325C
331
3265
  5
334F
331
3154
  5
31B3
331
28E3
  5
2DD1
331
3305
  5
3371
331
31D2
  5
3255
331
31B0
  5
324F
331
3252
  5
334A
331
2FC3
  5
319E
331
2D2B
  5
2E62
331
332D
  5
337A
331
3205
  5
3286
331
3316
  5
3372
331
2684
  5
2D5E
331
334F
  5
3398
331
3227
  5
32FB
331
2F6E
  5
3182
331
257E
  5
25F8
331
3371
  5
34F9
331
2B77
  5
2E2F
331
2F3A
  5
302F
331
2D5E
  5
2E65
331
24ED
  5
25BF
331
304A
  5
31B0
331
35D9
  5
3776
331
3250
  5
332E
331
25A7
  5
2684
331
2AB1
  5
2DE8
331
334D
  5
3396
331
2F6C
  5
3180
331
2596
  5
2677
331
336F
  5
339F
331
323F
  5
3329
331
2106
  5
2595
331
2C29
  5
2E46
331
28B4
  5
2D63
331
324E
  5
332C
331
315F
  5
3206
331
3181
  5
3210
331
24D8
  5
25B6
331
3329
  5
3376
331
31A3
  5
3231
331
25E9
  5
28E3
331
334B
  5
3394
331
2F6A
  5
3159
331
336D
  5
339D
331
25B6
  5
26D3
331
2D38
  5
2E63
331
2594
  5
266D
331
322A
  5
3316
331
20F1
  5
2105
331
33B8
  5
3774
331
2F45
  5
304A
331
3327
  5
3374
331
25C5
  5
28D9
331
2592
  5
262C
331
336B
  5
339B
331
27D3
  5
2D61
331
2F68
  5
3157
331
26D3
  5
2D5F
331
7F9
  5
7F9
331
2E67
  5
2F6B
331
2ABE
  5
2DF5
331
794
  5
794
331
3228
  5
3304
331
337A
  5
3502
331
28C8
  5
2D65
331
25C3
  5
28BD
331
33B6
  5
350E
331
24F6
  5
25C0
331
2590
  5
260C
331
28D9
  5
2D80
331
327D
  5
3350
331
2F54
  5
304B
331
2E65
  5
2F69
331
376F
  5
3508
331
20EF
  5
2102
331
2F66
  5
3155
331
3378
  5
34FE
331
3159
  5
3205
331
25C1
  5
28A9
331
33B4
  5
350C
331
25FA
  5
2AB1
331
2D65
  5
2E80
331
2F64
  5
314B
331
28BD
  5
2D64
331
258E
  5
25FA
331
26E0
  5
2D60
331
2E63
  5
2F67
331
25D2
  5
28E2
331
31AE
  5
324D
331
262D
  5
2CA8
331
319D
  5
3229
331
32FB
  5
336F
331
2DD2
  5
2EAC
331
376D
  5
20FD
  0
LAYOUT
  5
21
102
{ACAD_XDICTIONARY
360
37FF
102
}
102
{ACAD_REACTORS
330
19
102
}
330
19
100
AcDbPlotSettings
  1

  2
\\ingdom02\ITB3
  4

  6

 40
0.0
 41
0.0
 42
0.0
 43
0.0
 44
0.0
 45
0.0
 46
0.0
 47
0.0
 48
0.0
 49
0.0
140
0.0
141
0.0
142
1.0
143
1.0
 70
   688
 72
     0
 73
     0
 74
     5
  7

 75
    16
147
1.0
148
0.0
149
0.0
100
AcDbLayout
  1
Layout1
 70
     0
 71
     1
 10
0.0
 20
0.0
 11
12.0
 21
9.0
 12
0.0
 22
0.0
 32
0.0
 14
0.0
 24
0.0
 34
0.0
 15
0.0
 25
0.0
 35
0.0
146
0.0
 13
0.0
 23
0.0
 33
0.0
 16
1.0
 26
0.0
 36
0.0
 17
0.0
 27
1.0
 37
0.0
 76
     0
330
1E
  0
LAYOUT
  5
25
102
{ACAD_XDICTIONARY
360
3801
102
}
102
{ACAD_REACTORS
330
19
102
}
330
19
100
AcDbPlotSettings
  1

  2
\\ingdom02\ITB3
  4

  6

 40
0.0
 41
0.0
 42
0.0
 43
0.0
 44
0.0
 45
0.0
 46
0.0
 47
0.0
 48
0.0
 49
0.0
140
0.0
141
0.0
142
1.0
143
1.0
 70
  1712
 72
     0
 73
     0
 74
     0
  7

 75
     0
147
1.0
148
0.0
149
0.0
100
AcDbLayout
  1
Model
 70
     1
 71
     0
 10
0.0
 20
0.0
 11
12.0
 21
9.0
 12
0.0
 22
0.0
 32
0.0
 14
0.0
 24
0.0
 34
0.0
 15
0.0
 25
0.0
 35
0.0
146
0.0
 13
0.0
 23
0.0
 33
0.0
 16
1.0
 26
0.0
 36
0.0
 17
0.0
 27
1.0
 37
0.0
 76
     0
330
22
  0
MLINESTYLE
  5
17
102
{ACAD_REACTORS
330
16
102
}
330
16
100
AcDbMlineStyle
  2
STANDARD
 70
     0
  3

 62
   256
 51
90.0
 52
90.0
 71
     2
 49
0.5
 62
   256
  6
BYLAYER
 49
-0.5
 62
   256
  6
BYLAYER
  0
ACDBPLACEHOLDER
  5
F
102
{ACAD_REACTORS
330
E
102
}
330
E
  0
TABLESTYLE
  5
1D
102
{ACAD_REACTORS
330
1C
102
}
330
1C
100
AcDbTableStyle
  3
Standard
 70
     0
 71
     0
 40
0.06
 41
0.06
280
     0
281
     0
  7
STANDARD
140
0.18
170
     2
 62
     0
 63
     7
283
     0
274
    -2
284
     1
 64
     0
275
    -2
285
     1
 65
     0
276
    -2
286
     1
 66
     0
277
    -2
287
     1
 67
     0
278
    -2
288
     1
 68
     0
279
    -2
289
     1
 69
     0
  7
STANDARD
140
0.25
170
     5
 62
     0
 63
     7
283
     0
274
    -2
284
     1
 64
     0
275
    -2
285
     1
 65
     0
276
    -2
286
     1
 66
     0
277
    -2
287
     1
 67
     0
278
    -2
288
     1
 68
     0
279
    -2
289
     1
 69
     0
  7
STANDARD
140
0.18
170
     5
 62
     0
 63
     7
283
     0
274
    -2
284
     1
 64
     0
275
    -2
285
     1
 65
     0
276
    -2
286
     1
 66
     0
277
    -2
287
     1
 67
     0
278
    -2
288
     1
 68
     0
279
    -2
289
     1
 69
     0
  0
DICTIONARYVAR
  5
376B
102
{ACAD_REACTORS
330
376A
102
}
330
376A
100
DictionaryVariables
280
     0
  1
STANDARD
  0
DICTIONARYVAR
  5
37A1
102
{ACAD_REACTORS
330
376A
102
}
330
376A
100
DictionaryVariables
280
     0
  1
1
  0
DICTIONARYVAR
  5
37A2
102
{ACAD_REACTORS
330
376A
102
}
330
376A
100
DictionaryVariables
280
     0
  1

  0
DICTIONARY
  5
37FF
330
21
100
AcDbDictionary
280
     1
281
     1
  3
ACAD_XREC_ROUNDTRIP
360
3800
  0
DICTIONARY
  5
3801
330
25
100
AcDbDictionary
280
     1
281
     1
  3
ACAD_XREC_ROUNDTRIP
360
3802
  0
XRECORD
  5
3800
102
{ACAD_REACTORS
330
37FF
102
}
330
37FF
100
AcDbXrecord
280
     1
102
SHADEPLOT
 70
     0
102
SHADEPLOTRESLEVEL
 70
     2
102
SHADEPLOTCUSTOMDPI
 70
   300
  0
XRECORD
  5
3802
102
{ACAD_REACTORS
330
3801
102
}
330
3801
100
AcDbXrecord
280
     1
102
SHADEPLOT
 70
     0
102
SHADEPLOTRESLEVEL
 70
     2
102
SHADEPLOTCUSTOMDPI
 70
   300
  0
ENDSEC
  0
EOF
