  0
SECTION
  2
HEADER
  9
$ACADVER
  1
AC1014
  9
$ACADMAINTVER
 70
     9
  9
$DWGCODEPAGE
  3
ANSI_1252
  9
$INSBASE
 10
0.0
 20
0.0
 30
0.0
  9
$EXTMIN
 10
-80.75722498229039
 20
-37.50859987792512
 30
-0.0015258207003583
  9
$EXTMAX
 10
82.2271643173209
 20
79.83328898853312
 30
0.0000000349246037
  9
$LIMMIN
 10
0.0
 20
0.0
  9
$LIMMAX
 10
210.0
 20
297.0
  9
$ORTHOMODE
 70
     0
  9
$REGENMODE
 70
     1
  9
$FILLMODE
 70
     1
  9
$QTEXTMODE
 70
     0
  9
$MIRRTEXT
 70
     1
  9
$DRAGMODE
 70
     2
  9
$LTSCALE
 40
1.0
  9
$OSMODE
 70
  2599
  9
$ATTMODE
 70
     1
  9
$TEXTSIZE
 40
2.5
  9
$TRACEWID
 40
1.0
  9
$TEXTSTYLE
  7
STANDARD
  9
$CLAYER
  8
0
  9
$CELTYPE
  6
BYLAYER
  9
$CECOLOR
 62
   256
  9
$CELTSCALE
 40
1.0
  9
$DELOBJ
 70
     1
  9
$DISPSILH
 70
     0
  9
$DIMSCALE
 40
1.0
  9
$DIMASZ
 40
2.5
  9
$DIMEXO
 40
0.0
  9
$DIMDLI
 40
10.0
  9
$DIMRND
 40
0.0
  9
$DIMDLE
 40
0.0
  9
$DIMEXE
 40
1.0
  9
$DIMTP
 40
0.1
  9
$DIMTM
 40
0.1
  9
$DIMTXT
 40
3.5
  9
$DIMCEN
 40
0.0
  9
$DIMTSZ
 40
0.0
  9
$DIMTOL
 70
     0
  9
$DIMLIM
 70
     0
  9
$DIMTIH
 70
     0
  9
$DIMTOH
 70
     0
  9
$DIMSE1
 70
     0
  9
$DIMSE2
 70
     0
  9
$DIMTAD
 70
     1
  9
$DIMZIN
 70
     8
  9
$DIMBLK
  1

  9
$DIMASO
 70
     1
  9
$DIMSHO
 70
     1
  9
$DIMPOST
  1

  9
$DIMAPOST
  1
"
  9
$DIMALT
 70
     0
  9
$DIMALTD
 70
     2
  9
$DIMALTF
 40
0.0393701
  9
$DIMLFAC
 40
1.0
  9
$DIMTOFL
 70
     1
  9
$DIMTVP
 40
0.0
  9
$DIMTIX
 70
     0
  9
$DIMSOXD
 70
     0
  9
$DIMSAH
 70
     0
  9
$DIMBLK1
  1

  9
$DIMBLK2
  1

  9
$DIMSTYLE
  2
AM_DIN
  9
$DIMCLRD
 70
   256
  9
$DIMCLRE
 70
   256
  9
$DIMCLRT
 70
     2
  9
$DIMTFAC
 40
0.71
  9
$DIMGAP
 40
1.5
  9
$DIMJUST
 70
     0
  9
$DIMSD1
 70
     0
  9
$DIMSD2
 70
     0
  9
$DIMTOLJ
 70
     1
  9
$DIMTZIN
 70
     8
  9
$DIMALTZ
 70
     8
  9
$DIMALTTZ
 70
     8
  9
$DIMFIT
 70
     5
  9
$DIMUPT
 70
     0
  9
$DIMUNIT
 70
     2
  9
$DIMDEC
 70
     2
  9
$DIMTDEC
 70
     2
  9
$DIMALTU
 70
     2
  9
$DIMALTTD
 70
     2
  9
$DIMTXSTY
  7
STANDARD
  9
$DIMAUNIT
 70
     0
  9
$LUNITS
 70
     2
  9
$LUPREC
 70
     2
  9
$SKETCHINC
 40
1.0
  9
$FILLETRAD
 40
0.8
  9
$AUNITS
 70
     0
  9
$AUPREC
 70
     0
  9
$MENU
  1
.
  9
$ELEVATION
 40
0.0
  9
$PELEVATION
 40
0.0
  9
$THICKNESS
 40
0.0
  9
$LIMCHECK
 70
     0
  9
$BLIPMODE
 70
     0
  9
$CHAMFERA
 40
2.5
  9
$CHAMFERB
 40
2.5
  9
$CHAMFERC
 40
0.0
  9
$CHAMFERD
 40
0.0
  9
$SKPOLY
 70
     0
  9
$TDCREATE
 40
2453447.430070810
  9
$TDUPDATE
 40
2453790.918695937
  9
$TDINDWG
 40
0.1536929514
  9
$TDUSRTIMER
 40
0.1536686111
  9
$USRTIMER
 70
     1
  9
$ANGBASE
 50
0.0
  9
$ANGDIR
 70
     0
  9
$PDMODE
 70
     0
  9
$PDSIZE
 40
0.0
  9
$PLINEWID
 40
0.0
  9
$COORDS
 70
     0
  9
$SPLFRAME
 70
     0
  9
$SPLINETYPE
 70
     6
  9
$SPLINESEGS
 70
     8
  9
$ATTDIA
 70
     1
  9
$ATTREQ
 70
     1
  9
$HANDLING
 70
 22529
  9
$HANDSEED
  5
854A
  9
$SURFTAB1
 70
     6
  9
$SURFTAB2
 70
     6
  9
$SURFTYPE
 70
     6
  9
$SURFU
 70
     6
  9
$SURFV
 70
     6
  9
$UCSNAME
  2

  9
$UCSORG
 10
0.0
 20
0.0
 30
0.0
  9
$UCSXDIR
 10
1.0
 20
0.0
 30
0.0
  9
$UCSYDIR
 10
0.0
 20
1.0
 30
0.0
  9
$PUCSNAME
  2

  9
$PUCSORG
 10
0.0
 20
0.0
 30
0.0
  9
$PUCSXDIR
 10
1.0
 20
0.0
 30
0.0
  9
$PUCSYDIR
 10
0.0
 20
1.0
 30
0.0
  9
$USERI1
 70
     0
  9
$USERI2
 70
     0
  9
$USERI3
 70
     0
  9
$USERI4
 70
     0
  9
$USERI5
 70
     0
  9
$USERR1
 40
0.0
  9
$USERR2
 40
0.0
  9
$USERR3
 40
0.0
  9
$USERR4
 40
0.0
  9
$USERR5
 40
0.0
  9
$WORLDVIEW
 70
     1
  9
$SHADEDGE
 70
     3
  9
$SHADEDIF
 70
    70
  9
$TILEMODE
 70
     1
  9
$MAXACTVP
 70
    64
  9
$PINSBASE
 10
0.0
 20
0.0
 30
0.0
  9
$PLIMCHECK
 70
     0
  9
$PEXTMIN
 10
1.000000000000000E+20
 20
1.000000000000000E+20
 30
1.000000000000000E+20
  9
$PEXTMAX
 10
-1.000000000000000E+20
 20
-1.000000000000000E+20
 30
-1.000000000000000E+20
  9
$PLIMMIN
 10
0.0
 20
0.0
  9
$PLIMMAX
 10
420.0
 20
297.0
  9
$UNITMODE
 70
     0
  9
$VISRETAIN
 70
     1
  9
$PLINEGEN
 70
     0
  9
$PSLTSCALE
 70
     1
  9
$TREEDEPTH
 70
  3020
  9
$PICKSTYLE
 70
     0
  9
$CMLSTYLE
  2
STANDARD
  9
$CMLJUST
 70
     0
  9
$CMLSCALE
 40
1.0
  9
$PROXYGRAPHICS
 70
     1
  9
$MEASUREMENT
 70
     1
  0
ENDSEC
  0
SECTION
  2
CLASSES
  0
CLASS
  1
ACDBDICTIONARYWDFLT
  2
AcDbDictionaryWithDefault
  3
AutoCAD 2000
 90
        0
280
     0
281
     0
  0
CLASS
  1
ACDBPLACEHOLDER
  2
AcDbPlaceHolder
  3
AutoCAD 2000
 90
        0
280
     0
281
     0
  0
CLASS
  1
LAYOUT
  2
AcDbLayout
  3
AutoCAD 2000
 90
        0
280
     0
281
     0
  0
CLASS
  1
AMGSETTINGSOBJ
  2
AmgSettingsObj
  3
"AcadM|Product Description: AutoCAD Mechanical 2000|Company: Autodesk"
 90
        0
280
     0
281
     0
  0
CLASS
  1
ACME_DOCUMENT
  2
AcMeDbDoc
  3
AcMeServices
 90
        0
280
     0
281
     0
  0
CLASS
  1
ACMESCOPE
  2
AcMeScope
  3
AcMeServices
 90
        0
280
     0
281
     0
  0
CLASS
  1
ACMECOMMANDHISTORY
  2
AcMeCommandHistory
  3
AcMeServices
 90
        0
280
     0
281
     0
  0
CLASS
  1
ACIMSYSVARMAN
  2
AcImSysVarManager
  3
AcMeServices
 90
        0
280
     0
281
     0
  0
CLASS
  1
ACIMREALSYSVAR
  2
AcImRealSysVar
  3
AcMeServices
 90
        0
280
     0
281
     0
  0
CLASS
  1
ACIMINTSYSVAR
  2
AcImIntSysVar
  3
AcMeServices
 90
        0
280
     0
281
     0
  0
CLASS
  1
ACMEDRAWINGMAN
  2
AcMeDrawingMan
  3
AcMeServices
 90
        0
280
     0
281
     0
  0
CLASS
  1
ACMEVIEW
  2
AcMeView
  3
AcMeServices
 90
        0
280
     0
281
     0
  0
CLASS
  1
ACDBENTITYCACHE
  2
AcMeEntityCache
  3
AcMeServices
 90
        0
280
     0
281
     0
  0
CLASS
  1
GSMANAGER
  2
AcMeGSManager
  3
AcMeServices
 90
        0
280
     0
281
     0
  0
CLASS
  1
AMDTINTERNALREACTOR
  2
AmdtInternalReactor
  3
AcMeServices
 90
        0
280
     0
281
     0
  0
CLASS
  1
ACMESTATEMGR
  2
AcMeStateMgr
  3
AcMeServices
 90
        0
280
     0
281
     0
  0
CLASS
  1
ACGREFMASTER
  2
AcGrefMaster
  3
AcAttribServices
 90
        0
280
     0
281
     0
  0
CLASS
  1
ACME_DATABASE
  2
AcMeDbDatabase
  3
AcMeServices
 90
        0
280
     0
281
     0
  0
CLASS
  1
ACRFINSADJUSTERMGR
  2
AcRfInsAdjusterMgr
  3
AcMeServices
 90
        0
280
     0
281
     0
  0
CLASS
  1
ACGREFACADMASTER
  2
AcGrefacadMaster
  3
AcGrefServices
 90
        0
280
     0
281
     0
  0
CLASS
  1
AMIMASTER
  2
AmiMaster
  3
AmiServices
 90
        0
280
     0
281
     0
  0
CLASS
  1
ACMDATADICTIONARY
  2
AcmDataDictionary
  3
"AcmSymBB|Product Description: AutoCAD Mechanical 2000|Company: Autodesk"
 90
        0
280
     0
281
     0
  0
CLASS
  1
ACMDATAENTRYBLOCK
  2
AcmDataEntryBlock
  3
"AcmSymBB|Product Description: AutoCAD Mechanical 2000|Company: Autodesk"
 90
        0
280
     0
281
     0
  0
CLASS
  1
ACIMSTRSYSVAR
  2
AcImStrSysVar
  3
AcMeServices
 90
        0
280
     0
281
     0
  0
CLASS
  1
ACMSTANDARDANSI
  2
AcmStandardANSI
  3
"Amdt_StdImp|Product Description: AutoCAD Mechanical 2000|Company: Autodesk"
 90
        0
280
     0
281
     0
  0
CLASS
  1
AMGOBJPROPCFG
  2
AmgObjPropCfg
  3
"AmgLay|Product Description: AutoCAD Mechanical 2000|Company: Autodesk"
 90
        1
280
     0
281
     0
  0
CLASS
  1
ACMSURFSTANDARDANSI
  2
AcmSurfTextStdANSI
  3
"Amdt_StdImp|Product Description: AutoCAD Mechanical 2000|Company: Autodesk"
 90
        0
280
     0
281
     0
  0
CLASS
  1
ACMFCFSTANDARDANSI
  2
AcmFCFStdANSI
  3
"Amdt_StdImp|Product Description: AutoCAD Mechanical 2000|Company: Autodesk"
 90
        0
280
     0
281
     0
  0
CLASS
  1
ACMWELDSTANDARDANSI
  2
AcmWeldingStdANSI
  3
"Amdt_StdImp|Product Description: AutoCAD Mechanical 2000|Company: Autodesk"
 90
        0
280
     0
281
     0
  0
CLASS
  1
ACMIDSTANDARDANSI
  2
AcmIdStdANSI
  3
"Amdt_StdImp|Product Description: AutoCAD Mechanical 2000|Company: Autodesk"
 90
        0
280
     0
281
     0
  0
CLASS
  1
ACMDATUMSTANDARDANSI
  2
AcmDatumStdANSI
  3
"Amdt_StdImp|Product Description: AutoCAD Mechanical 2000|Company: Autodesk"
 90
        0
280
     0
281
     0
  0
CLASS
  1
ACMBOMSTANDARDANSI
  2
AcmBOMStdANSI
  3
"Amdt_StdImp|Product Description: AutoCAD Mechanical 2000|Company: Autodesk"
 90
        0
280
     0
281
     0
  0
CLASS
  1
ACMDETAILSTANDARDANSI
  2
AmdtDetailSymStdANSI
  3
"Amdt_StdImp|Product Description: AutoCAD Mechanical 2000|Company: Autodesk"
 90
        0
280
     0
281
     0
  0
CLASS
  1
ACMSECTIONSTANDARDANSI
  2
AmdtSectionSymStdANSI
  3
"Amdt_StdImp|Product Description: AutoCAD Mechanical 2000|Company: Autodesk"
 90
        0
280
     0
281
     0
  0
CLASS
  1
ACMCENTERLINESTANDARDANSI
  2
AmdtCenterLineStdANSI
  3
"Amdt_StdImp|Product Description: AutoCAD Mechanical 2000|Company: Autodesk"
 90
        0
280
     0
281
     0
  0
CLASS
  1
ACMNOTESTANDARDANSI
  2
AmdtNoteStdANSI
  3
"Amdt_StdImp|Product Description: AutoCAD Mechanical 2000|Company: Autodesk"
 90
        0
280
     0
281
     0
  0
CLASS
  1
ACAMGLAYSTD
  2
AcAmgLayStd
  3
"AcAmgLayStd|Product Description: AutoCAD Mechanical 2000|Company: Autodesk"
 90
        0
280
     0
281
     0
  0
CLASS
  1
ACAMGDIMSTD
  2
AcAmgDimStd
  3
"AcAmgDimStd|Product Description: AutoCAD Mechanical 2000|Company: Autodesk"
 90
        0
280
     0
281
     0
  0
CLASS
  1
ACAMGHOLECHARTSTDANSI
  2
AcAmgHoleChartStdANSI
  3
ACMSYMBB_MODULE_NAME
 90
        0
280
     0
281
     0
  0
CLASS
  1
ACAMGTITLESTD
  2
AcAmgTitleStd
  3
"TITLEAPP"
 90
        0
280
     0
281
     0
  0
CLASS
  1
ACAMGFILTERDAT
  2
AcAmgFilterDat
  3
"AcadM|Product Description: AutoCAD Mechanical 2000|Company: Autodesk"
 90
        0
280
     0
281
     0
  0
CLASS
  1
LAYER_INDEX
  2
AcDbLayerIndex
  3
AutoCAD 2000
 90
        0
280
     0
281
     0
  0
CLASS
  1
IDBUFFER
  2
AcDbIdBuffer
  3
AutoCAD 2000
 90
        0
280
     0
281
     0
  0
CLASS
  1
DICTIONARYVAR
  2
AcDbDictionaryVar
  3
AutoCAD 2000
 90
        0
280
     0
281
     0
  0
CLASS
  1
ACMSTANDARDDIN
  2
AcmStandardDIN
  3
"Amdt_StdImp|Product Description: AutoCAD Mechanical 2000|Company: Autodesk"
 90
        0
280
     0
281
     0
  0
CLASS
  1
AMDTEDGESTANDARDDIN
  2
AmdtEdgeStdDIN
  3
"Amdt_StdImp|Product Description: AutoCAD Mechanical 2000|Company: Autodesk"
 90
        0
280
     0
281
     0
  0
CLASS
  1
ACMSURFSTANDARDDIN
  2
AcmSurfTextStdDIN
  3
"Amdt_StdImp|Product Description: AutoCAD Mechanical 2000|Company: Autodesk"
 90
        0
280
     0
281
     0
  0
CLASS
  1
ACMFCFSTANDARDDIN
  2
AcmFCFStdDIN
  3
"Amdt_StdImp|Product Description: AutoCAD Mechanical 2000|Company: Autodesk"
 90
        0
280
     0
281
     0
  0
CLASS
  1
ACMWELDSTANDARDDIN
  2
AcmWeldingStdDIN
  3
"Amdt_StdImp|Product Description: AutoCAD Mechanical 2000|Company: Autodesk"
 90
        0
280
     0
281
     0
  0
CLASS
  1
ACMIDSTANDARDDIN
  2
AcmIdStdDIN
  3
"Amdt_StdImp|Product Description: AutoCAD Mechanical 2000|Company: Autodesk"
 90
        0
280
     0
281
     0
  0
CLASS
  1
ACMDATUMSTANDARDDIN
  2
AcmDatumStdDIN
  3
"Amdt_StdImp|Product Description: AutoCAD Mechanical 2000|Company: Autodesk"
 90
        0
280
     0
281
     0
  0
CLASS
  1
ACMBOMSTANDARDDIN
  2
AcmBOMStdDIN
  3
"Amdt_StdImp|Product Description: AutoCAD Mechanical 2000|Company: Autodesk"
 90
        0
280
     0
281
     0
  0
CLASS
  1
ACMDETAILSTANDARDDIN
  2
AmdtDetailSymStdDIN
  3
"Amdt_StdImp|Product Description: AutoCAD Mechanical 2000|Company: Autodesk"
 90
        0
280
     0
281
     0
  0
CLASS
  1
ACMSECTIONSTANDARDDIN
  2
AmdtSectionSymStdDIN
  3
"Amdt_StdImp|Product Description: AutoCAD Mechanical 2000|Company: Autodesk"
 90
        0
280
     0
281
     0
  0
CLASS
  1
ACMCENTERLINESTANDARDDIN
  2
AmdtCenterLineStdDIN
  3
"Amdt_StdImp|Product Description: AutoCAD Mechanical 2000|Company: Autodesk"
 90
        0
280
     0
281
     0
  0
CLASS
  1
ACMNOTESTANDARDDIN
  2
AmdtNoteStdDIN
  3
"Amdt_StdImp|Product Description: AutoCAD Mechanical 2000|Company: Autodesk"
 90
        0
280
     0
281
     0
  0
CLASS
  1
ACAMGHOLECHARTSTDDIN
  2
AcAmgHoleChartStdDIN
  3
ACMSYMBB_MODULE_NAME
 90
        0
280
     0
281
     0
  0
CLASS
  1
AMDTFORMULAUPDATEDISPATCHER
  2
AmdtFormulaUpdateDispatcher
  3
AcMeServices
 90
        0
280
     0
281
     0
  0
CLASS
  1
LONG_TRANSACTION
  2
AcDbLongTransaction
  3
AutoCAD 2000
 90
        0
280
     0
281
     0
  0
CLASS
  1
LWPOLYLINE
  2
AcDbPolyline
  3
AutoCAD 2000
 90
        0
280
     0
281
     1
  0
CLASS
  1
HATCH
  2
AcDbHatch
  3
AutoCAD 2000
 90
        0
280
     0
281
     1
  0
CLASS
  1
XRECORD
  2
AcDbXrecord
  3
AutoCAD 2000
 90
        0
280
     0
281
     0
  0
ENDSEC
  0
SECTION
  2
TABLES
  0
TABLE
  2
VPORT
  5
6A1E
330
0
100
AcDbSymbolTable
 70
     4
  0
VPORT
  5
8525
330
6A1E
100
AcDbSymbolTableRecord
100
AcDbViewportTableRecord
  2
*ACTIVE
 70
     0
 10
0.0
 20
0.0
 11
1.0
 21
1.0
 12
64.62138750885481
 22
129.7457000610374
 13
0.0
 23
0.0
 14
2.5
 24
2.5
 15
10.0
 25
10.0
 16
0.0
 26
0.0
 36
1.0
 17
0.0
 27
0.0
 37
0.0
 40
338.2461261335444
 41
1.716417910447761
 42
50.0
 43
0.0
 44
0.0
 50
0.0
 51
0.0
 71
    16
 72
 10000
 73
     1
 74
     3
 75
     0
 76
     0
 77
     0
 78
     0
  0
ENDTAB
  0
TABLE
  2
LTYPE
  5
6A1B
330
0
100
AcDbSymbolTable
 70
    16
  0
LTYPE
  5
6A29
330
6A1B
100
AcDbSymbolTableRecord
100
AcDbLinetypeTableRecord
  2
BYBLOCK
 70
     0
  3

 72
    65
 73
     0
 40
0.0
  0
LTYPE
  5
6A2A
330
6A1B
100
AcDbSymbolTableRecord
100
AcDbLinetypeTableRecord
  2
BYLAYER
 70
     0
  3

 72
    65
 73
     0
 40
0.0
  0
LTYPE
  5
6A2B
330
6A1B
100
AcDbSymbolTableRecord
100
AcDbLinetypeTableRecord
  2
CONTINUOUS
 70
     0
  3
Solid line
 72
    65
 73
     0
 40
0.0
  0
LTYPE
  5
6A39
330
6A1B
100
AcDbSymbolTableRecord
100
AcDbLinetypeTableRecord
  2
AMCONSTR
 70
     0
  3
_______________________
 72
    65
 73
     2
 40
9999.0
 49
9999.0
 74
     0
 49
0.0
 74
     0
  0
LTYPE
  5
6A43
330
6A1B
100
AcDbSymbolTableRecord
100
AcDbLinetypeTableRecord
  2
CENTER
 70
     0
  3
__ . __
 72
    65
 73
     4
 40
7.0
 49
4.0
 74
     0
 49
-1.0
 74
     0
 49
1.0
 74
     0
 49
-1.0
 74
     0
  0
LTYPE
  5
6A45
330
6A1B
100
AcDbSymbolTableRecord
100
AcDbLinetypeTableRecord
  2
PHANTOM2
 70
     0
  3
Phantom (.5x) ___ _ _ ___ _ _ ___ _ _ ___ _ _
 72
    65
 73
     6
 40
1.25
 49
0.625
 74
     0
 49
-0.125
 74
     0
 49
0.125
 74
     0
 49
-0.125
 74
     0
 49
0.125
 74
     0
 49
-0.125
 74
     0
  0
LTYPE
  5
6A46
330
6A1B
100
AcDbSymbolTableRecord
100
AcDbLinetypeTableRecord
  2
ACANSTGB
 70
     0
  3
__ . . __ . .
 72
    65
 73
     6
 40
0.35433070866
 49
0.15748031496
 74
     0
 49
-0.03937007874
 74
     0
 49
0.03937007874
 74
     0
 49
-0.03937007874
 74
     0
 49
0.03937007874
 74
     0
 49
-0.03937007874
 74
     0
  0
LTYPE
  5
6A47
330
6A1B
100
AcDbSymbolTableRecord
100
AcDbLinetypeTableRecord
  2
ACANSTGL
 70
     0
  3
_ _ _ _ _
 72
    65
 73
     2
 40
0.11811023622
 49
0.07874015748
 74
     0
 49
-0.03937007874
 74
     0
  0
LTYPE
  5
6A48
330
6A1B
100
AcDbSymbolTableRecord
100
AcDbLinetypeTableRecord
  2
DASHED
 70
     0
  3
__ __ __ __ __ __ __ __ __ __ __ __ __ __ __ __
 72
    65
 73
     2
 40
19.05
 49
12.7
 74
     0
 49
-6.349999999999998
 74
     0
  0
LTYPE
  5
6D97
330
6A1B
100
AcDbSymbolTableRecord
100
AcDbLinetypeTableRecord
  2
ACDINWELD
 70
     0
  3
_ _ _ _ _
 72
    65
 73
     2
 40
2.0
 49
2.0
 74
     0
 49
-1.0
 74
     0
  0
LTYPE
  5
6D98
330
6A1B
100
AcDbSymbolTableRecord
100
AcDbLinetypeTableRecord
  2
ACDINTGB
 70
     0
  3
__ . . __ . .
 72
    65
 73
     6
 40
9.0
 49
4.0
 74
     0
 49
-1.0
 74
     0
 49
1.0
 74
     0
 49
-1.0
 74
     0
 49
1.0
 74
     0
 49
-1.0
 74
     0
  0
LTYPE
  5
6D99
330
6A1B
100
AcDbSymbolTableRecord
100
AcDbLinetypeTableRecord
  2
ACDINTGL
 70
     0
  3
_ _ _ _ _
 72
    65
 73
     2
 40
3.0
 49
2.0
 74
     0
 49
-1.0
 74
     0
  0
LTYPE
  5
7FA3
330
6A1B
100
AcDbSymbolTableRecord
100
AcDbLinetypeTableRecord
  2
AMZIGZAG
 70
     0
  3
/\/-/\/-/\/-/\/-/\/-/\/
 72
    65
 73
     2
 40
11.00009999999999
 49
0.0001
 74
     4
 75
   135
340
6A5B
 46
0.04
 50
0.0
 44
0.0
 45
0.0
 49
-11.0
 74
     0
  0
LTYPE
  5
7FA4
330
6A1B
100
AcDbSymbolTableRecord
100
AcDbLinetypeTableRecord
  2
AM_DIN_F_W050
 70
     0
  3
__ __ __ __ __ __ __ __ __ __ __ __ __ __ __
 72
    65
 73
     2
 40
6.25
 49
4.75
 74
     0
 49
-1.5
 74
     0
  0
LTYPE
  5
7FA5
330
6A1B
100
AcDbSymbolTableRecord
100
AcDbLinetypeTableRecord
  2
AM_DIN_G_W050
 70
     0
  3
____ . ____ . ____ . ____ . ____ . ____ . ____
 72
    65
 73
     4
 40
13.75
 49
9.75
 74
     0
 49
-1.5
 74
     0
 49
1.0
 74
     0
 49
-1.5
 74
     0
  0
LTYPE
  5
7FA6
330
6A1B
100
AcDbSymbolTableRecord
100
AcDbLinetypeTableRecord
  2
AM_DIN_K_W050
 70
     0
  3
_____ . . _____ . . _____ . . ____ .. ____
 72
    65
 73
     6
 40
16.25
 49
9.75
 74
     0
 49
-1.5
 74
     0
 49
1.0
 74
     0
 49
-1.5
 74
     0
 49
1.0
 74
     0
 49
-1.5
 74
     0
  0
LTYPE
  5
7FA7
330
6A1B
100
AcDbSymbolTableRecord
100
AcDbLinetypeTableRecord
  2
AM_DIN_G_W050X2
 70
     0
  3
__ . __ . __ . __ . __ . __
 72
    65
 73
     4
 40
6.875
 49
4.75
 74
     0
 49
-0.875
 74
     0
 49
0.375
 74
     0
 49
-0.875
 74
     0
  0
LTYPE
  5
7FA8
330
6A1B
100
AcDbSymbolTableRecord
100
AcDbLinetypeTableRecord
  2
AM_DIN_F_W050X2
 70
     0
  3
 _ _ _ _ _ _ _ _ _ _ _ _
 72
    65
 73
     2
 40
3.125
 49
2.25
 74
     0
 49
-0.875
 74
     0
  0
ENDTAB
  0
TABLE
  2
LAYER
  5
6A18
330
0
100
AcDbSymbolTable
 70
    12
  0
LAYER
  5
6A26
330
6A18
100
AcDbSymbolTableRecord
100
AcDbLayerTableRecord
  2
0
 70
     0
 62
     7
  6
CONTINUOUS
  0
LAYER
  5
6A4B
330
6A18
100
AcDbSymbolTableRecord
100
AcDbLayerTableRecord
  2
DEFPOINTS
 70
     0
 62
     7
  6
CONTINUOUS
  0
LAYER
  5
6A4C
330
6A18
100
AcDbSymbolTableRecord
100
AcDbLayerTableRecord
  2
1
 70
     0
 62
     4
  6
CONTINUOUS
  0
LAYER
  5
6A4D
330
6A18
100
AcDbSymbolTableRecord
100
AcDbLayerTableRecord
  2
2
 70
     0
 62
     7
  6
CONTINUOUS
  0
LAYER
  5
6A4F
330
6A18
100
AcDbSymbolTableRecord
100
AcDbLayerTableRecord
  2
4
 70
     0
 62
     2
  6
CENTER
  0
LAYER
  5
6A50
330
6A18
100
AcDbSymbolTableRecord
100
AcDbLayerTableRecord
  2
6
 70
     0
 62
     5
  6
CONTINUOUS
  0
LAYER
  5
6A53
330
6A18
100
AcDbSymbolTableRecord
100
AcDbLayerTableRecord
  2
SK1
 70
     0
 62
     4
  6
CONTINUOUS
  0
LAYER
  5
6A54
330
6A18
100
AcDbSymbolTableRecord
100
AcDbLayerTableRecord
  2
SK2
 70
     0
 62
     7
  6
CONTINUOUS
  0
LAYER
  5
6A55
330
6A18
100
AcDbSymbolTableRecord
100
AcDbLayerTableRecord
  2
SK3
 70
     0
 62
     1
  6
DASHED
  0
LAYER
  5
6A56
330
6A18
100
AcDbSymbolTableRecord
100
AcDbLayerTableRecord
  2
SK4
 70
     0
 62
     2
  6
CENTER
  0
LAYER
  5
6A57
330
6A18
100
AcDbSymbolTableRecord
100
AcDbLayerTableRecord
  2
CUT
 70
     0
 62
     1
  6
CONTINUOUS
  0
LAYER
  5
6A58
330
6A18
100
AcDbSymbolTableRecord
100
AcDbLayerTableRecord
  2
NOCUT
 70
     0
 62
     7
  6
CONTINUOUS
  0
ENDTAB
  0
TABLE
  2
STYLE
  5
6A19
330
0
100
AcDbSymbolTable
 70
     6
  0
STYLE
  5
6A27
330
6A19
100
AcDbSymbolTableRecord
100
AcDbTextStyleTableRecord
  2
STANDARD
 70
     0
 40
0.0
 41
1.0
 50
0.0
 71
     0
 42
2.5
  3
ISOCP.SHX
  4

  0
STYLE
  5
6A5B
330
6A19
100
AcDbSymbolTableRecord
100
AcDbTextStyleTableRecord
  2

 70
     1
 40
0.0
 41
1.0
 50
0.0
 71
     0
 42
2.5
  3
ltypeshp.shx
  4

  0
STYLE
  5
6A5E
330
6A19
100
AcDbSymbolTableRecord
100
AcDbTextStyleTableRecord
  2
ACANSTS
 70
     0
 40
1.0
 41
1.0
 50
0.0
 71
     0
 42
0.2
  3
romans.shx
  4

  0
STYLE
  5
6A5F
330
6A19
100
AcDbSymbolTableRecord
100
AcDbTextStyleTableRecord
  2
ACANSGDT
 70
     0
 40
0.0
 41
1.0
 50
0.0
 71
     0
 42
0.2
  3
amgdtans.shx
  4

  0
STYLE
  5
6D9A
330
6A19
100
AcDbSymbolTableRecord
100
AcDbTextStyleTableRecord
  2
ACDINTS
 70
     0
 40
1.0
 41
1.0
 50
0.0
 71
     0
 42
2.5
  3
isocp.shx
  4

  0
STYLE
  5
6D9B
330
6A19
100
AcDbSymbolTableRecord
100
AcDbTextStyleTableRecord
  2
ACDINGDT
 70
     0
 40
0.0
 41
1.0
 50
0.0
 71
     0
 42
2.5
  3
amgdt.shx
  4

  0
ENDTAB
  0
TABLE
  2
VIEW
  5
6A1C
330
0
100
AcDbSymbolTable
 70
     6
  0
VIEW
  5
6A60
330
6A1C
100
AcDbSymbolTableRecord
100
AcDbViewTableRecord
  2
AM_VIEW1
 70
     0
 40
148.5
 10
131.508173076923
 20
222.75
 41
263.016346153846
 11
0.0
 21
0.0
 31
1.0
 12
0.0
 22
0.0
 32
0.0
 42
50.0
 43
0.0
 44
0.0
 50
0.0
 71
    16
  0
VIEW
  5
6A61
330
6A1C
100
AcDbSymbolTableRecord
100
AcDbViewTableRecord
  2
AM_VIEW2
 70
     0
 40
148.5
 10
78.4918269230769
 20
222.75
 41
263.016346153846
 11
0.0
 21
0.0
 31
1.0
 12
0.0
 22
0.0
 32
0.0
 42
50.0
 43
0.0
 44
0.0
 50
0.0
 71
    16
  0
VIEW
  5
6A62
330
6A1C
100
AcDbSymbolTableRecord
100
AcDbViewTableRecord
  2
AM_VIEW3
 70
     0
 40
148.5
 10
131.508173076923
 20
74.25
 41
263.016346153846
 11
0.0
 21
0.0
 31
1.0
 12
0.0
 22
0.0
 32
0.0
 42
50.0
 43
0.0
 44
0.0
 50
0.0
 71
    16
  0
VIEW
  5
6A63
330
6A1C
100
AcDbSymbolTableRecord
100
AcDbViewTableRecord
  2
AM_VIEW4
 70
     0
 40
148.5
 10
78.4918269230769
 20
74.25
 41
263.016346153846
 11
0.0
 21
0.0
 31
1.0
 12
0.0
 22
0.0
 32
0.0
 42
50.0
 43
0.0
 44
0.0
 50
0.0
 71
    16
  0
VIEW
  5
6A64
330
6A1C
100
AcDbSymbolTableRecord
100
AcDbViewTableRecord
  2
AM_VIEW5
 70
     0
 40
148.5
 10
105.0
 20
148.5
 41
263.016346153846
 11
0.0
 21
0.0
 31
1.0
 12
0.0
 22
0.0
 32
0.0
 42
50.0
 43
0.0
 44
0.0
 50
0.0
 71
    16
  0
VIEW
  5
6A65
330
6A1C
100
AcDbSymbolTableRecord
100
AcDbViewTableRecord
  2
AM_VIEW6
 70
     0
 40
296.9970299999999
 10
105.0
 20
148.5
 41
526.0274319807693
 11
0.0
 21
0.0
 31
1.0
 12
0.0
 22
0.0
 32
0.0
 42
50.0
 43
0.0
 44
0.0
 50
0.0
 71
    16
  0
ENDTAB
  0
TABLE
  2
UCS
  5
6A1D
330
0
100
AcDbSymbolTable
 70
     0
  0
ENDTAB
  0
TABLE
  2
APPID
  5
6A1F
330
0
100
AcDbSymbolTable
 70
    22
  0
APPID
  5
6A28
330
6A1F
100
AcDbSymbolTableRecord
100
AcDbRegAppTableRecord
  2
ACAD
 70
     0
  0
APPID
  5
6A66
330
6A1F
100
AcDbSymbolTableRecord
100
AcDbRegAppTableRecord
  2
MCAD_NO_VIS
 70
     0
  0
APPID
  5
6A67
330
6A1F
100
AcDbSymbolTableRecord
100
AcDbRegAppTableRecord
  2
ACAD_TEMP_GRAPHIC
 70
     0
  0
APPID
  5
6A68
330
6A1F
100
AcDbSymbolTableRecord
100
AcDbRegAppTableRecord
  2
ACATTRIBSERVICES
 70
     0
  0
APPID
  5
6A69
330
6A1F
100
AcDbSymbolTableRecord
100
AcDbRegAppTableRecord
  2
GENIUS_GENDIMSH_14
 70
     0
  0
APPID
  5
6A6A
330
6A1F
100
AcDbSymbolTableRecord
100
AcDbRegAppTableRecord
  2
GENIUS_GENBLLY_14
 70
     0
  0
APPID
  5
6A6B
330
6A1F
100
AcDbSymbolTableRecord
100
AcDbRegAppTableRecord
  2
GENIUS_GENTRA_14
 70
     0
  0
APPID
  5
6A6C
330
6A1F
100
AcDbSymbolTableRecord
100
AcDbRegAppTableRecord
  2
GENIUS_GENODEF_13
 70
     0
  0
APPID
  5
6A6D
330
6A1F
100
AcDbSymbolTableRecord
100
AcDbRegAppTableRecord
  2
GENIUS_GENOLIS_13
 70
     0
  0
APPID
  5
6A6E
330
6A1F
100
AcDbSymbolTableRecord
100
AcDbRegAppTableRecord
  2
GENIUS_GENOENT_13
 70
     0
  0
APPID
  5
6A6F
330
6A1F
100
AcDbSymbolTableRecord
100
AcDbRegAppTableRecord
  2
GENIUS_GENOBJ-N-TIT_13
 70
     0
  0
APPID
  5
6A70
330
6A1F
100
AcDbSymbolTableRecord
100
AcDbRegAppTableRecord
  2
GENIUS_GENTITLE_13
 70
     0
  0
APPID
  5
6A71
330
6A1F
100
AcDbSymbolTableRecord
100
AcDbRegAppTableRecord
  2
GENIUS_GENOREF_13
 70
     0
  0
APPID
  5
6A72
330
6A1F
100
AcDbSymbolTableRecord
100
AcDbRegAppTableRecord
  2
GENIUS_GENSCREG_15
 70
     0
  0
APPID
  5
6A73
330
6A1F
100
AcDbSymbolTableRecord
100
AcDbRegAppTableRecord
  2
GENIUS_GENOBJ-N-SDF_13
 70
     0
  0
APPID
  5
6A74
330
6A1F
100
AcDbSymbolTableRecord
100
AcDbRegAppTableRecord
  2
ACADIGES
 70
     0
  0
APPID
  5
6A75
330
6A1F
100
AcDbSymbolTableRecord
100
AcDbRegAppTableRecord
  2
GENIUS_GENOBJ-N-HTC_13
 70
     0
  0
APPID
  5
6A76
330
6A1F
100
AcDbSymbolTableRecord
100
AcDbRegAppTableRecord
  2
GENIUS_GENHATCH_13
 70
     0
  0
APPID
  5
6DA2
330
6A1F
100
AcDbSymbolTableRecord
100
AcDbRegAppTableRecord
  2
GENIUS_GENOBJ-N-CRS_13
 70
     0
  0
APPID
  5
6DA3
330
6A1F
100
AcDbSymbolTableRecord
100
AcDbRegAppTableRecord
  2
GENIUS_GENOBJ-N-FIL_13
 70
     0
  0
APPID
  5
6DD2
330
6A1F
100
AcDbSymbolTableRecord
100
AcDbRegAppTableRecord
  2
GENIUS_GENFIL_13
 70
     0
  0
APPID
  5
6DD3
330
6A1F
100
AcDbSymbolTableRecord
100
AcDbRegAppTableRecord
  2
GENIUS_GENOBJ-N-CHA_13
 70
     0
  0
ENDTAB
  0
TABLE
  2
DIMSTYLE
  5
6A20
330
0
100
AcDbSymbolTable
 70
    14
  0
DIMSTYLE
105
6A77
102
{ACAD_REACTORS
330
8364
330
83D7
330
83FF
330
8442
330
84BD
102
}
330
6A20
100
AcDbSymbolTableRecord
100
AcDbDimStyleTableRecord
  2
AM_DIN
 70
     0
  3

  4
"
  5

  6

  7

 40
1.0
 41
2.5
 42
0.0
 43
10.0
 44
1.0
 45
0.0
 46
0.0
 47
0.1
 48
0.1
140
3.5
141
0.0
142
0.0
143
0.0393701
144
1.0
145
0.0
146
0.71
147
1.5
 71
     0
 72
     0
 73
     0
 74
     0
 75
     0
 76
     0
 77
     1
 78
     8
170
     0
171
     2
172
     1
173
     0
174
     0
175
     0
176
   256
177
   256
178
     2
270
     2
271
     2
272
     2
273
     2
274
     2
340
6A27
275
     0
280
     0
281
     0
282
     0
283
     1
284
     8
285
     8
286
     8
287
     5
288
     0
  0
DIMSTYLE
105
6A7E
330
6A20
100
AcDbSymbolTableRecord
100
AcDbDimStyleTableRecord
  2
STANDARD
 70
     0
  3

  4

  5

  6

  7

 40
1.0
 41
0.18
 42
0.0625
 43
0.38
 44
0.18
 45
0.0
 46
0.0
 47
0.0
 48
0.0
140
0.18
141
0.09
142
0.0
143
25.4
144
1.0
145
0.0
146
1.0
147
0.09
 71
     0
 72
     0
 73
     1
 74
     1
 75
     0
 76
     0
 77
     0
 78
     0
170
     0
171
     2
172
     0
173
     0
174
     0
175
     0
176
     0
177
     0
178
     0
270
     2
271
     2
272
     2
273
     2
274
     2
340
6A27
275
     0
280
     0
281
     0
282
     0
283
     1
284
     8
285
     8
286
     8
287
     5
288
     0
  0
DIMSTYLE
105
6A7F
102
{ACAD_REACTORS
330
752C
102
}
330
6A20
100
AcDbSymbolTableRecord
100
AcDbDimStyleTableRecord
  2
AM_ANSI
 70
     0
  3

  4
mm
  5

  6

  7

 40
1.0
 41
0.1
 42
0.05
 43
0.5
 44
0.1
 45
0.0
 46
0.0
 47
0.1
 48
0.1
140
0.12
141
0.0
142
0.0
143
25.4
144
1.0
145
0.0
146
0.71
147
0.06
 71
     0
 72
     0
 73
     1
 74
     1
 75
     0
 76
     0
 77
     0
 78
     7
170
     0
171
     2
172
     0
173
     0
174
     0
175
     0
176
   256
177
   256
178
     2
270
     2
271
     2
272
     2
273
     2
274
     2
340
6A27
275
     0
280
     0
281
     0
282
     0
283
     1
284
     8
285
     8
286
     8
287
     5
288
     0
  0
DIMSTYLE
105
6A80
330
6A20
100
AcDbSymbolTableRecord
100
AcDbDimStyleTableRecord
  2
AM_ANSI$3
 70
     0
  3

  4
mm
  5

  6

  7

 40
1.0
 41
0.1
 42
0.05
 43
0.5
 44
0.1
 45
0.0
 46
0.0
 47
0.1
 48
0.1
140
0.12
141
0.0
142
0.0
143
25.4
144
1.0
145
0.0
146
0.71
147
0.06
 71
     0
 72
     0
 73
     1
 74
     1
 75
     0
 76
     0
 77
     0
 78
     7
170
     0
171
     2
172
     0
173
     0
174
     0
175
     0
176
   256
177
   256
178
     2
270
     2
271
     2
272
     2
273
     2
274
     2
340
6A27
275
     0
280
     0
281
     0
282
     0
283
     1
284
     8
285
     8
286
     8
287
     5
288
     0
  0
DIMSTYLE
105
6A81
330
6A20
100
AcDbSymbolTableRecord
100
AcDbDimStyleTableRecord
  2
AM_ANSI$4
 70
     0
  3

  4
mm
  5

  6

  7

 40
1.0
 41
0.1
 42
0.05
 43
0.5
 44
0.1
 45
0.0
 46
0.0
 47
0.1
 48
0.1
140
0.12
141
0.0
142
0.0
143
25.4
144
1.0
145
0.0
146
0.71
147
0.06
 71
     0
 72
     0
 73
     1
 74
     1
 75
     0
 76
     0
 77
     0
 78
     7
170
     0
171
     2
172
     0
173
     0
174
     0
175
     0
176
   256
177
   256
178
     2
270
     2
271
     2
272
     2
273
     2
274
     2
340
6A27
275
     0
280
     0
281
     0
282
     0
283
     1
284
     8
285
     8
286
     8
287
     5
288
     0
  0
DIMSTYLE
105
6A82
330
6A20
100
AcDbSymbolTableRecord
100
AcDbDimStyleTableRecord
  2
AM_ANSI$7
 70
     0
  3

  4
mm
  5

  6

  7

 40
1.0
 41
0.1
 42
0.05
 43
0.5
 44
0.1
 45
0.0
 46
0.0
 47
0.1
 48
0.1
140
0.24
141
0.0
142
0.0
143
25.4
144
1.0
145
0.0
146
0.71
147
0.06
 71
     0
 72
     0
 73
     1
 74
     1
 75
     0
 76
     0
 77
     0
 78
     7
170
     0
171
     2
172
     0
173
     0
174
     0
175
     0
176
   256
177
   256
178
     2
270
     2
271
     2
272
     2
273
     2
274
     2
340
6A27
275
     0
280
     0
281
     0
282
     0
283
     1
284
     8
285
     8
286
     8
287
     5
288
     0
  0
DIMSTYLE
105
6A83
330
6A20
100
AcDbSymbolTableRecord
100
AcDbDimStyleTableRecord
  2
AM_ANSI$SF
 70
     0
  3

  4
mm
  5

  6

  7

 40
1.0
 41
0.1
 42
0.05
 43
0.5
 44
0.1
 45
0.0
 46
0.0
 47
0.1
 48
0.1
140
0.12
141
0.0
142
0.0
143
25.4
144
1.0
145
0.0
146
0.71
147
0.06
 71
     0
 72
     0
 73
     1
 74
     1
 75
     1
 76
     1
 77
     0
 78
     7
170
     0
171
     2
172
     0
173
     0
174
     0
175
     0
176
   256
177
   256
178
     2
270
     2
271
     2
272
     2
273
     2
274
     2
340
6A27
275
     0
280
     0
281
     0
282
     0
283
     1
284
     8
285
     8
286
     8
287
     5
288
     0
  0
DIMSTYLE
105
6A84
330
6A20
100
AcDbSymbolTableRecord
100
AcDbDimStyleTableRecord
  2
AM_ANSI$SH
 70
     0
  3

  4
mm
  5

  6

  7

 40
1.0
 41
0.1
 42
0.05
 43
0.5
 44
0.1
 45
0.0
 46
0.0
 47
0.1
 48
0.1
140
0.12
141
0.0
142
0.0
143
25.4
144
1.0
145
0.0
146
0.71
147
0.06
 71
     0
 72
     0
 73
     1
 74
     1
 75
     1
 76
     1
 77
     0
 78
     7
170
     0
171
     2
172
     0
173
     1
174
     0
175
     0
176
   256
177
   256
178
     2
270
     2
271
     2
272
     2
273
     2
274
     2
340
6A27
275
     0
280
     0
281
     0
282
     0
283
     1
284
     8
285
     8
286
     8
287
     5
288
     0
  0
DIMSTYLE
105
6D9C
330
6A20
100
AcDbSymbolTableRecord
100
AcDbDimStyleTableRecord
  2
AM_DIN$3
 70
     0
  3

  4
"
  5

  6

  7

 40
1.0
 41
3.5
 42
0.0
 43
10.0
 44
1.0
 45
0.0
 46
0.0
 47
0.1
 48
0.1
140
3.5
141
0.0
142
0.0
143
0.0393701
144
1.0
145
0.0
146
0.71
147
1.5
 71
     0
 72
     0
 73
     0
 74
     1
 75
     0
 76
     0
 77
     1
 78
     8
170
     0
171
     2
172
     0
173
     0
174
     0
175
     0
176
   256
177
   256
178
     2
270
     2
271
     2
272
     2
273
     2
274
     2
340
6A27
275
     0
280
     0
281
     0
282
     0
283
     0
284
     8
285
     0
286
     0
287
     0
288
     1
  0
DIMSTYLE
105
6D9D
330
6A20
100
AcDbSymbolTableRecord
100
AcDbDimStyleTableRecord
  2
AM_DIN$4
 70
     0
  3

  4
"
  5

  6

  7

 40
1.0
 41
3.5
 42
0.0
 43
10.0
 44
1.0
 45
0.0
 46
0.0
 47
0.1
 48
0.1
140
3.5
141
0.0
142
0.0
143
0.0393701
144
1.0
145
0.0
146
0.71
147
1.5
 71
     0
 72
     0
 73
     0
 74
     1
 75
     0
 76
     0
 77
     1
 78
     8
170
     0
171
     2
172
     0
173
     0
174
     0
175
     0
176
   256
177
   256
178
     2
270
     2
271
     2
272
     2
273
     2
274
     2
340
6A27
275
     0
280
     0
281
     0
282
     0
283
     0
284
     8
285
     0
286
     0
287
     0
288
     1
  0
DIMSTYLE
105
6D9E
330
6A20
100
AcDbSymbolTableRecord
100
AcDbDimStyleTableRecord
  2
AM_DIN$6
 70
     0
  3

  4
"
  5

  6

  7

 40
1.0
 41
3.5
 42
0.0
 43
0.0
 44
1.0
 45
0.0
 46
0.0
 47
0.1
 48
0.1
140
3.5
141
0.0
142
0.0
143
0.0393701
144
1.0
145
0.0
146
0.71
147
1.5
 71
     0
 72
     0
 73
     0
 74
     0
 75
     0
 76
     0
 77
     0
 78
     8
170
     0
171
     2
172
     1
173
     0
174
     0
175
     0
176
   256
177
   256
178
     2
270
     2
271
     2
272
     2
273
     2
274
     2
340
6A27
275
     0
280
     0
281
     0
282
     0
283
     0
284
     8
285
     0
286
     0
287
     3
288
     0
  0
DIMSTYLE
105
6D9F
330
6A20
100
AcDbSymbolTableRecord
100
AcDbDimStyleTableRecord
  2
AM_DIN$7
 70
     0
  3

  4
"
  5

  6

  7

 40
1.0
 41
3.5
 42
0.0
 43
10.0
 44
1.0
 45
0.0
 46
0.0
 47
0.1
 48
0.1
140
3.5
141
0.0
142
0.0
143
0.0393701
144
1.0
145
0.0
146
0.71
147
1.5
 71
     0
 72
     0
 73
     0
 74
     0
 75
     0
 76
     0
 77
     1
 78
     8
170
     0
171
     2
172
     1
173
     0
174
     0
175
     0
176
   256
177
   256
178
     2
270
     2
271
     2
272
     2
273
     2
274
     2
340
6A27
275
     0
280
     0
281
     0
282
     0
283
     0
284
     8
285
     0
286
     0
287
     3
288
     0
  0
DIMSTYLE
105
6DA0
330
6A20
100
AcDbSymbolTableRecord
100
AcDbDimStyleTableRecord
  2
AM_DIN$SF
 70
     0
  3

  4
"
  5

  6

  7

 40
1.0
 41
2.5
 42
1.0
 43
10.0
 44
1.0
 45
0.0
 46
0.0
 47
0.1
 48
0.1
140
3.5
141
0.0
142
0.0
143
0.0393701
144
1.0
145
0.0
146
0.71
147
1.5
 71
     0
 72
     0
 73
     0
 74
     0
 75
     1
 76
     1
 77
     1
 78
     8
170
     0
171
     2
172
     1
173
     0
174
     0
175
     0
176
   256
177
   256
178
     2
270
     2
271
     2
272
     3
273
     2
274
     4
340
6A27
275
     0
280
     0
281
     0
282
     0
283
     0
284
     8
285
     0
286
     0
287
     3
288
     0
  0
DIMSTYLE
105
6DA1
330
6A20
100
AcDbSymbolTableRecord
100
AcDbDimStyleTableRecord
  2
AM_DIN$SH
 70
     0
  3

  4
"
  5

  6
GENAXEH
  7

 40
1.0
 41
2.5
 42
1.0
 43
10.0
 44
1.0
 45
0.0
 46
0.0
 47
0.1
 48
0.1
140
3.5
141
0.0
142
0.0
143
0.0393701
144
2.0
145
0.0
146
0.71
147
1.5
 71
     0
 72
     0
 73
     0
 74
     0
 75
     1
 76
     1
 77
     1
 78
     8
170
     0
171
     2
172
     1
173
     1
174
     0
175
     0
176
   256
177
   256
178
     2
270
     2
271
     2
272
     3
273
     2
274
     4
340
6A27
275
     0
280
     0
281
     0
282
     0
283
     0
284
     8
285
     0
286
     0
287
     3
288
     0
  0
ENDTAB
  0
TABLE
  2
BLOCK_RECORD
  5
6A17
330
0
100
AcDbSymbolTable
 70
     7
  0
BLOCK_RECORD
  5
6A34
102
{ACAD_XDICTIONARY
360
6B62
102
}
330
6A17
100
AcDbSymbolTableRecord
100
AcDbBlockTableRecord
  2
*MODEL_SPACE
  0
BLOCK_RECORD
  5
6A30
102
{ACAD_XDICTIONARY
360
8547
102
}
330
6A17
100
AcDbSymbolTableRecord
100
AcDbBlockTableRecord
  2
*PAPER_SPACE
  0
BLOCK_RECORD
  5
6D93
330
6A17
100
AcDbSymbolTableRecord
100
AcDbBlockTableRecord
  2
GENAXEH
  0
BLOCK_RECORD
  5
75CA
330
6A17
100
AcDbSymbolTableRecord
100
AcDbBlockTableRecord
  2
*D1
  0
BLOCK_RECORD
  5
8365
330
6A17
100
AcDbSymbolTableRecord
100
AcDbBlockTableRecord
  2
*D2
  0
BLOCK_RECORD
  5
83D8
330
6A17
100
AcDbSymbolTableRecord
100
AcDbBlockTableRecord
  2
*D3
  0
BLOCK_RECORD
  5
8400
330
6A17
100
AcDbSymbolTableRecord
100
AcDbBlockTableRecord
  2
*D4
  0
BLOCK_RECORD
  5
8443
330
6A17
100
AcDbSymbolTableRecord
100
AcDbBlockTableRecord
  2
*D5
  0
BLOCK_RECORD
  5
84BE
330
6A17
100
AcDbSymbolTableRecord
100
AcDbBlockTableRecord
  2
*D6
  0
ENDTAB
  0
ENDSEC
  0
SECTION
  2
BLOCKS
  0
BLOCK
  5
6A35
330
6A34
100
AcDbEntity
  8
0
100
AcDbBlockBegin
  2
*MODEL_SPACE
 70
     0
 10
0.0
 20
0.0
 30
0.0
  3
*MODEL_SPACE
  1

  0
ENDBLK
  5
6A36
330
6A34
100
AcDbEntity
  8
0
100
AcDbBlockEnd
  0
BLOCK
  5
6A31
330
6A30
100
AcDbEntity
 67
     1
  8
0
100
AcDbBlockBegin
  2
*PAPER_SPACE
 70
     0
 10
0.0
 20
0.0
 30
0.0
  3
*PAPER_SPACE
  1

  0
ENDBLK
  5
6A32
330
6A30
100
AcDbEntity
 67
     1
  8
0
100
AcDbBlockEnd
  0
BLOCK
  5
6D95
330
6D93
100
AcDbEntity
  8
0
100
AcDbBlockBegin
  2
GENAXEH
 70
     0
 10
0.0
 20
0.0
 30
0.0
  3
GENAXEH
  1

  0
LINE
  5
6D94
330
6D93
100
AcDbEntity
  8
0
100
AcDbLine
 10
-1.0
 20
0.0
 30
0.0
 11
1.0
 21
0.0
 31
0.0
  0
ENDBLK
  5
6D96
330
6D93
100
AcDbEntity
  8
0
100
AcDbBlockEnd
  0
BLOCK
  5
75D4
330
75CA
100
AcDbEntity
  8
0
100
AcDbBlockBegin
  2
*D1
 70
     1
 10
0.0
 20
0.0
 30
0.0
  3
*D1
  1

  0
LINE
  5
7EE2
330
75CA
100
AcDbEntity
  8
SK2
100
AcDbLine
 10
-54.99999999999997
 20
-12.50000000000022
 30
0.0
 11
-77.10747231352951
 21
-12.50000000000022
 31
0.0
  0
LINE
  5
7EE3
330
75CA
100
AcDbEntity
  8
SK2
100
AcDbLine
 10
-55.00000000000006
 20
12.49999999999983
 30
0.0
 11
-77.10747231352951
 21
12.49999999999983
 31
0.0
  0
LINE
  5
7EE4
330
75CA
100
AcDbEntity
  8
SK2
100
AcDbLine
 10
-76.10747231352951
 20
-10.00000000000021
 30
0.0
 11
-76.10747231352951
 21
9.999999999999836
 31
0.0
  0
MTEXT
  5
7EE5
330
75CA
100
AcDbEntity
  8
SK2
 62
     2
100
AcDbMText
 10
-79.17522541557326
 20
-0.4833155496132804
 30
0.0
 40
3.5
 41
0.0
 71
     5
 72
     1
  1
\A1;%%c25
 11
0.0000000000000001
 21
1.0
 31
0.0
1001
ACAD
1000
MTEXTBEGIN
1070
    73
1070
     1
1070
    44
1040
1.0
1070
    74
1070
     0
1000
MTEXTEND
  0
SOLID
  5
7EE6
330
75CA
100
AcDbEntity
  8
SK2
100
AcDbTrace
 10
-76.52413898019618
 20
-10.00000000000021
 30
0.0
 11
-75.69080564686284
 21
-10.00000000000022
 31
0.0
 12
-76.10747231352951
 22
-12.50000000000022
 32
0.0
 13
-76.10747231352951
 23
-12.50000000000022
 33
0.0
  0
SOLID
  5
7EE7
330
75CA
100
AcDbEntity
  8
SK2
100
AcDbTrace
 10
-76.52413898019618
 20
9.999999999999836
 30
0.0
 11
-75.69080564686284
 21
9.999999999999834
 31
0.0
 12
-76.10747231352951
 22
12.49999999999983
 32
0.0
 13
-76.10747231352951
 23
12.49999999999983
 33
0.0
  0
POINT
  5
7EE8
330
75CA
100
AcDbEntity
  8
DEFPOINTS
 62
     0
100
AcDbPoint
 10
-54.99999999999997
 20
-12.50000000000022
 30
0.0
  0
POINT
  5
7EE9
330
75CA
100
AcDbEntity
  8
DEFPOINTS
 62
     0
100
AcDbPoint
 10
-55.00000000000006
 20
12.49999999999983
 30
0.0
  0
POINT
  5
7EEA
330
75CA
100
AcDbEntity
  8
DEFPOINTS
 62
     0
100
AcDbPoint
 10
-76.10747231352951
 20
12.49999999999983
 30
0.0
  0
ENDBLK
  5
75D5
330
75CA
100
AcDbEntity
  8
0
100
AcDbBlockEnd
  0
BLOCK
  5
836F
330
8365
100
AcDbEntity
  8
0
100
AcDbBlockBegin
  2
*D2
 70
     1
 10
0.0
 20
0.0
 30
0.0
  3
*D2
  1

  0
LINE
  5
847E
330
8365
100
AcDbEntity
  8
2
100
AcDbLine
 10
49.00000000000003
 20
14.99999999999977
 30
0.0
 11
78.57578636643522
 21
14.99999999999976
 31
0.0
  0
LINE
  5
847F
330
8365
100
AcDbEntity
  8
2
100
AcDbLine
 10
49.00000000000009
 20
-15.00000000000022
 30
0.0
 11
78.57578636643522
 21
-15.00000000000023
 31
0.0
  0
LINE
  5
8480
330
8365
100
AcDbEntity
  8
2
100
AcDbLine
 10
77.57578636643522
 20
12.49999999999976
 30
0.0
 11
77.57578636643522
 21
-12.50000000000023
 31
0.0
  0
SOLID
  5
8481
330
8365
100
AcDbEntity
  8
2
100
AcDbTrace
 10
77.15911969976855
 20
12.49999999999976
 30
0.0
 11
77.9924530331019
 21
12.49999999999976
 31
0.0
 12
77.57578636643522
 22
14.99999999999976
 32
0.0
 13
77.57578636643522
 23
14.99999999999976
 33
0.0
  0
SOLID
  5
8482
330
8365
100
AcDbEntity
  8
2
100
AcDbTrace
 10
77.15911969976855
 20
-12.50000000000023
 30
0.0
 11
77.9924530331019
 21
-12.50000000000023
 31
0.0
 12
77.57578636643522
 22
-15.00000000000023
 32
0.0
 13
77.57578636643522
 23
-15.00000000000023
 33
0.0
  0
MTEXT
  5
8483
330
8365
100
AcDbEntity
  8
2
 62
     2
100
AcDbMText
 10
74.32578636643523
 20
-0.0000000000002175
 30
0.0
 40
3.5
 41
0.0
 71
     5
 72
     1
  1
\A1;%%c30
 11
0.0000000000000001
 21
1.0
 31
0.0
1001
ACAD
1000
MTEXTBEGIN
1070
    73
1070
     1
1070
    44
1040
1.0
1070
    74
1070
     0
1000
MTEXTEND
  0
POINT
  5
8484
330
8365
100
AcDbEntity
  8
DEFPOINTS
 62
     0
100
AcDbPoint
 10
49.00000000000003
 20
14.99999999999977
 30
0.0
  0
POINT
  5
8485
330
8365
100
AcDbEntity
  8
DEFPOINTS
 62
     0
100
AcDbPoint
 10
49.00000000000009
 20
-15.00000000000022
 30
0.0
  0
POINT
  5
8486
330
8365
100
AcDbEntity
  8
DEFPOINTS
 62
     0
100
AcDbPoint
 10
77.57578636643522
 20
-15.00000000000023
 30
0.0
  0
ENDBLK
  5
8370
330
8365
100
AcDbEntity
  8
0
100
AcDbBlockEnd
  0
BLOCK
  5
83E2
330
83D8
100
AcDbEntity
  8
0
100
AcDbBlockBegin
  2
*D3
 70
     1
 10
0.0
 20
0.0
 30
0.0
  3
*D3
  1

  0
LINE
  5
8421
330
83D8
100
AcDbEntity
  8
2
100
AcDbLine
 10
49.00000000000003
 20
14.99999999999977
 30
0.0
 11
49.00000000000003
 21
75.99999999999977
 31
0.0
  0
LINE
  5
8422
330
83D8
100
AcDbEntity
  8
2
100
AcDbLine
 10
0.0000000000002416
 20
12.49999999999977
 30
0.0
 11
0.0000000000002455
 21
75.99999999999977
 31
0.0
  0
LINE
  5
8423
330
83D8
100
AcDbEntity
  8
2
100
AcDbLine
 10
46.50000000000003
 20
74.99999999999977
 30
0.0
 11
2.500000000000245
 21
74.99999999999977
 31
0.0
  0
SOLID
  5
8424
330
83D8
100
AcDbEntity
  8
2
100
AcDbTrace
 10
46.50000000000003
 20
75.41666666666644
 30
0.0
 11
46.50000000000003
 21
74.5833333333331
 31
0.0
 12
49.00000000000003
 22
74.99999999999977
 32
0.0
 13
49.00000000000003
 23
74.99999999999977
 33
0.0
  0
SOLID
  5
8425
330
83D8
100
AcDbEntity
  8
2
100
AcDbTrace
 10
2.500000000000245
 20
75.41666666666644
 30
0.0
 11
2.500000000000245
 21
74.5833333333331
 31
0.0
 12
0.0000000000002454
 22
74.99999999999977
 32
0.0
 13
0.0000000000002454
 23
74.99999999999977
 33
0.0
  0
MTEXT
  5
8426
330
83D8
100
AcDbEntity
  8
2
 62
     2
100
AcDbMText
 10
24.50000000000014
 20
78.24999999999977
 30
0.0
 40
3.5
 41
0.0
 71
     5
 72
     1
  1
\A1;49
1001
ACAD
1000
MTEXTBEGIN
1070
    73
1070
     1
1070
    44
1040
1.0
1070
    74
1070
     0
1000
MTEXTEND
  0
POINT
  5
8427
330
83D8
100
AcDbEntity
  8
DEFPOINTS
 62
     0
100
AcDbPoint
 10
49.00000000000003
 20
14.99999999999977
 30
0.0
  0
POINT
  5
8428
330
83D8
100
AcDbEntity
  8
DEFPOINTS
 62
     0
100
AcDbPoint
 10
0.0000000000002416
 20
12.49999999999977
 30
0.0
  0
POINT
  5
8429
330
83D8
100
AcDbEntity
  8
DEFPOINTS
 62
     0
100
AcDbPoint
 10
0.0000000000002454
 20
74.99999999999977
 30
0.0
  0
ENDBLK
  5
83E3
330
83D8
100
AcDbEntity
  8
0
100
AcDbBlockEnd
  0
BLOCK
  5
840A
330
8400
100
AcDbEntity
  8
0
100
AcDbBlockBegin
  2
*D4
 70
     1
 10
0.0
 20
0.0
 30
0.0
  3
*D4
  1

  0
LINE
  5
842A
330
8400
100
AcDbEntity
  8
2
100
AcDbLine
 10
49.00000000000003
 20
14.99999999999977
 30
0.0
 11
49.00000000000003
 21
60.99999999999977
 31
0.0
  0
LINE
  5
842B
330
8400
100
AcDbEntity
  8
2
100
AcDbLine
 10
19.00000000000003
 20
13.9174680139533
 30
0.0
 11
19.00000000000003
 21
60.99999999999977
 31
0.0
  0
LINE
  5
842C
330
8400
100
AcDbEntity
  8
2
100
AcDbLine
 10
46.50000000000003
 20
59.99999999999977
 30
0.0
 11
21.50000000000003
 21
59.99999999999977
 31
0.0
  0
SOLID
  5
842D
330
8400
100
AcDbEntity
  8
2
100
AcDbTrace
 10
46.50000000000003
 20
60.41666666666643
 30
0.0
 11
46.50000000000003
 21
59.5833333333331
 31
0.0
 12
49.00000000000003
 22
59.99999999999977
 32
0.0
 13
49.00000000000003
 23
59.99999999999977
 33
0.0
  0
SOLID
  5
842E
330
8400
100
AcDbEntity
  8
2
100
AcDbTrace
 10
21.50000000000003
 20
60.41666666666643
 30
0.0
 11
21.50000000000003
 21
59.5833333333331
 31
0.0
 12
19.00000000000003
 22
59.99999999999977
 32
0.0
 13
19.00000000000003
 23
59.99999999999977
 33
0.0
  0
MTEXT
  5
842F
330
8400
100
AcDbEntity
  8
2
 62
     2
100
AcDbMText
 10
34.00000000000003
 20
63.24999999999977
 30
0.0
 40
3.5
 41
0.0
 71
     5
 72
     1
  1
\A1;30
1001
ACAD
1000
MTEXTBEGIN
1070
    73
1070
     1
1070
    44
1040
1.0
1070
    74
1070
     0
1000
MTEXTEND
  0
POINT
  5
8430
330
8400
100
AcDbEntity
  8
DEFPOINTS
 62
     0
100
AcDbPoint
 10
49.00000000000003
 20
14.99999999999977
 30
0.0
  0
POINT
  5
8431
330
8400
100
AcDbEntity
  8
DEFPOINTS
 62
     0
100
AcDbPoint
 10
19.00000000000003
 20
13.9174680139533
 30
0.0
  0
POINT
  5
8432
330
8400
100
AcDbEntity
  8
DEFPOINTS
 62
     0
100
AcDbPoint
 10
19.00000000000003
 20
59.99999999999977
 30
0.0
  0
ENDBLK
  5
840B
330
8400
100
AcDbEntity
  8
0
100
AcDbBlockEnd
  0
BLOCK
  5
844D
330
8443
100
AcDbEntity
  8
0
100
AcDbBlockBegin
  2
*D5
 70
     1
 10
0.0
 20
0.0
 30
0.0
  3
*D5
  1

  0
LINE
  5
8462
330
8443
100
AcDbEntity
  8
SK2
100
AcDbLine
 10
49.00000000000009
 20
-15.00000000000022
 30
0.0
 11
49.00000000000009
 21
-37.49839257589985
 31
0.0
  0
LINE
  5
8463
330
8443
100
AcDbEntity
  8
SK2
100
AcDbLine
 10
-55.99999999999994
 20
-11.50000000000022
 30
0.0
 11
-55.99999999999994
 21
-37.49839257589985
 31
0.0
  0
LINE
  5
8464
330
8443
100
AcDbEntity
  8
SK2
100
AcDbLine
 10
46.50000000000008
 20
-36.49839257589985
 30
0.0
 11
-53.49999999999994
 21
-36.49839257589985
 31
0.0
  0
SOLID
  5
8465
330
8443
100
AcDbEntity
  8
SK2
100
AcDbTrace
 10
46.50000000000008
 20
-36.08172590923319
 30
0.0
 11
46.50000000000008
 21
-36.91505924256652
 31
0.0
 12
49.00000000000009
 22
-36.49839257589985
 32
0.0
 13
49.00000000000009
 23
-36.49839257589985
 33
0.0
  0
SOLID
  5
8466
330
8443
100
AcDbEntity
  8
SK2
100
AcDbTrace
 10
-53.49999999999994
 20
-36.08172590923319
 30
0.0
 11
-53.49999999999994
 21
-36.91505924256652
 31
0.0
 12
-55.99999999999994
 22
-36.49839257589985
 32
0.0
 13
-55.99999999999994
 23
-36.49839257589985
 33
0.0
  0
MTEXT
  5
8467
330
8443
100
AcDbEntity
  8
SK2
 62
     2
100
AcDbMText
 10
-3.499999999999928
 20
-33.24839257589985
 30
0.0
 40
3.5
 41
0.0
 71
     5
 72
     1
  1
\A1;105
1001
ACAD
1000
MTEXTBEGIN
1070
    73
1070
     1
1070
    44
1040
1.0
1070
    74
1070
     0
1000
MTEXTEND
  0
POINT
  5
8468
330
8443
100
AcDbEntity
  8
DEFPOINTS
 62
     0
100
AcDbPoint
 10
49.00000000000009
 20
-15.00000000000022
 30
0.0
  0
POINT
  5
8469
330
8443
100
AcDbEntity
  8
DEFPOINTS
 62
     0
100
AcDbPoint
 10
-55.99999999999994
 20
-11.50000000000022
 30
0.0
  0
POINT
  5
846A
330
8443
100
AcDbEntity
  8
DEFPOINTS
 62
     0
100
AcDbPoint
 10
-55.99999999999994
 20
-36.49839257589985
 30
0.0
  0
ENDBLK
  5
844E
330
8443
100
AcDbEntity
  8
0
100
AcDbBlockEnd
  0
BLOCK
  5
84C8
330
84BE
100
AcDbEntity
  8
0
100
AcDbBlockBegin
  2
*D6
 70
     1
 10
0.0
 20
0.0
 30
0.0
  3
*D6
  1

  0
LINE
  5
84E6
330
84BE
100
AcDbEntity
  8
2
100
AcDbLine
 10
49.00000000000003
 20
4.499999999999778
 30
0.0
 11
67.81143228741484
 21
4.499999999999773
 31
0.0
  0
LINE
  5
84E7
330
84BE
100
AcDbEntity
  8
2
100
AcDbLine
 10
49.00000000000009
 20
-4.500000000000221
 30
0.0
 11
67.81143228741484
 21
-4.500000000000226
 31
0.0
  0
LINE
  5
84E8
330
84BE
100
AcDbEntity
  8
2
100
AcDbLine
 10
66.81143228741484
 20
1.999999999999773
 30
0.0
 11
66.81143228741484
 21
-2.000000000000226
 31
0.0
  0
SOLID
  5
84E9
330
84BE
100
AcDbEntity
  8
2
100
AcDbTrace
 10
66.39476562074817
 20
1.999999999999774
 30
0.0
 11
67.22809895408151
 21
1.999999999999773
 31
0.0
 12
66.81143228741484
 22
4.499999999999773
 32
0.0
 13
66.81143228741484
 23
4.499999999999773
 33
0.0
  0
SOLID
  5
84EA
330
84BE
100
AcDbEntity
  8
2
100
AcDbTrace
 10
66.39476562074817
 20
-2.000000000000226
 30
0.0
 11
67.22809895408151
 21
-2.000000000000226
 31
0.0
 12
66.81143228741484
 22
-4.500000000000226
 32
0.0
 13
66.81143228741484
 23
-4.500000000000226
 33
0.0
  0
MTEXT
  5
84EB
330
84BE
100
AcDbEntity
  8
2
 62
     2
100
AcDbMText
 10
63.56143228741484
 20
-0.0000000000002151
 30
0.0
 40
3.5
 41
0.0
 71
     5
 72
     1
  1
\A1;%%c9
 11
0.0000000000000001
 21
1.0
 31
0.0
1001
ACAD
1000
MTEXTBEGIN
1070
    73
1070
     1
1070
    44
1040
1.0
1070
    74
1070
     0
1000
MTEXTEND
  0
POINT
  5
84EC
330
84BE
100
AcDbEntity
  8
DEFPOINTS
 62
     0
100
AcDbPoint
 10
49.00000000000003
 20
4.499999999999778
 30
0.0
  0
POINT
  5
84ED
330
84BE
100
AcDbEntity
  8
DEFPOINTS
 62
     0
100
AcDbPoint
 10
49.00000000000009
 20
-4.500000000000221
 30
0.0
  0
POINT
  5
84EE
330
84BE
100
AcDbEntity
  8
DEFPOINTS
 62
     0
100
AcDbPoint
 10
66.81143228741484
 20
-4.500000000000226
 30
0.0
  0
ENDBLK
  5
84C9
330
84BE
100
AcDbEntity
  8
0
100
AcDbBlockEnd
  0
ENDSEC
  0
SECTION
  2
ENTITIES
  0
LINE
  5
7529
330
6A34
100
AcDbEntity
  8
SK1
100
AcDbLine
 10
0.0000000000000568
 20
-12.50000000000022
 30
0.0
 11
-54.99999999999994
 21
-12.50000000000022
 31
0.0
  0
LINE
  5
752A
330
6A34
100
AcDbEntity
  8
SK4
100
AcDbLine
 10
0.0
 20
0.0
 30
0.0
 11
-58.42491867849464
 21
-0.0000000000002274
 31
0.0
  0
LINE
  5
752B
330
6A34
100
AcDbEntity
  8
SK1
100
AcDbLine
 10
-55.00000000000006
 20
12.49999999999983
 30
0.0
 11
0.0000000000002416
 21
12.49999999999977
 31
0.0
  0
DIMENSION
  5
752C
330
6A34
100
AcDbEntity
  8
SK2
100
AcDbDimension
  2
*D1
 10
-76.10747231352951
 20
12.49999999999983
 30
0.0
 11
-79.17522541557326
 21
-0.4833155496132804
 31
0.0
 70
   160
  1
%%c<>
 53
90.0
  3
AM_ANSI
100
AcDbAlignedDimension
 13
-54.99999999999997
 23
-12.50000000000022
 33
0.0
 14
-55.00000000000006
 24
12.49999999999983
 34
0.0
 50
90.0
100
AcDbRotatedDimension
1001
ACAD
1000
DSTYLE
1002
{
1070
    41
1040
2.5
1070
    42
1040
0.0
1070
    44
1040
1.0
1070
   140
1040
3.5
1070
   147
1040
1.0
1070
   271
1070
     0
1002
}
  0
ARC
  5
752D
330
6A34
100
AcDbEntity
  8
SK1
100
AcDbCircle
 10
-49.49209999999988
 20
-0.0000000000001137
 30
0.0
 40
12.49209999999996
100
AcDbArc
 50
327.1294363887069
 51
32.87056361129283
  0
ARC
  5
752E
330
6A34
100
AcDbEntity
  8
SK1
100
AcDbCircle
 10
-19.5079
 20
-0.0000000000001137
 30
0.0
 40
12.49209999999998
100
AcDbArc
 50
147.1294363887073
 51
212.8705636112929
  0
ARC
  5
752F
330
6A34
100
AcDbEntity
  8
SK1
100
AcDbCircle
 10
-28.49209999999988
 20
-0.0000000000001705
 30
0.0
 40
12.49209999999985
100
AcDbArc
 50
327.1294363887067
 51
32.87056361129322
  0
LINE
  5
7530
330
6A34
100
AcDbEntity
  8
SK1
100
AcDbLine
 10
-38.99999999999994
 20
-6.7800000000002
 30
0.0
 11
-38.99999999999994
 21
6.779999999999802
 31
0.0
  0
LINE
  5
7531
330
6A34
100
AcDbEntity
  8
SK1
100
AcDbLine
 10
-18.00000000000005
 20
6.779999999999802
 30
0.0
 11
-18.00000000000005
 21
-6.7800000000002
 31
0.0
  0
LINE
  5
7532
330
6A34
100
AcDbEntity
  8
SK1
100
AcDbLine
 10
-30.0
 20
-6.7800000000002
 30
0.0
 11
-30.0
 21
6.779999999999802
 31
0.0
  0
LINE
  5
7533
330
6A34
100
AcDbEntity
  8
SK1
100
AcDbLine
 10
-55.99999999999994
 20
-11.50000000000022
 30
0.0
 11
-56.00000000000005
 21
11.49999999999983
 31
0.0
  0
LINE
  5
7534
330
6A34
100
AcDbEntity
  8
SK1
100
AcDbLine
 10
-56.0
 20
-6.7800000000002
 30
0.0
 11
-38.99999999999994
 21
-6.7800000000002
 31
0.0
  0
LINE
  5
7535
330
6A34
100
AcDbEntity
  8
SK1
100
AcDbLine
 10
-54.99999999999994
 20
-12.50000000000022
 30
0.0
 11
-55.0
 21
-6.7800000000002
 31
0.0
  0
LINE
  5
7536
330
6A34
100
AcDbEntity
  8
SK1
100
AcDbLine
 10
-54.99999999999994
 20
-12.50000000000022
 30
0.0
 11
-55.99999999999994
 21
-11.50000000000022
 31
0.0
1001
GENIUS_GENFIL_13
1070
     0
1040
1.0
1040
1.0
1040
0.0
1040
0.0
1002
{
1002
}
1001
GENIUS_GENODEF_13
1002
{
1000
HIER
1070
     0
1002
}
1002
{
1000
MANEDIT
1070
     0
1002
}
1002
{
1000
NOSEL
1070
     0
1002
}
1002
{
1000
BEHIND
1070
     0
1002
}
1002
{
1000
OTHER
1070
     0
1002
}
1002
{
1000
REACTOR
1002
}
1001
GENIUS_GENOBJ-N-CHA_13
1002
{
1000
OWNER
1000
GEN
1002
}
  0
LINE
  5
7537
330
6A34
100
AcDbEntity
  8
SK1
100
AcDbLine
 10
-18.00000000000005
 20
-6.7800000000002
 30
0.0
 11
-30.0
 21
-6.7800000000002
 31
0.0
  0
LINE
  5
7538
330
6A34
100
AcDbEntity
  8
SK1
100
AcDbLine
 10
-38.99999999999994
 20
6.779999999999802
 30
0.0
 11
-56.00000000000005
 21
6.779999999999859
 31
0.0
  0
LINE
  5
7539
330
6A34
100
AcDbEntity
  8
SK1
100
AcDbLine
 10
-55.00000000000006
 20
6.779999999999802
 30
0.0
 11
-55.00000000000006
 21
12.49999999999983
 31
0.0
  0
LINE
  5
753A
330
6A34
100
AcDbEntity
  8
SK1
100
AcDbLine
 10
-55.00000000000006
 20
12.49999999999983
 30
0.0
 11
-56.00000000000005
 21
11.49999999999983
 31
0.0
1001
GENIUS_GENFIL_13
1070
     0
1040
1.0
1040
1.0
1040
0.0
1040
0.0
1002
{
1002
}
1001
GENIUS_GENODEF_13
1002
{
1000
HIER
1070
     0
1002
}
1002
{
1000
MANEDIT
1070
     0
1002
}
1002
{
1000
NOSEL
1070
     0
1002
}
1002
{
1000
BEHIND
1070
     0
1002
}
1002
{
1000
OTHER
1070
     0
1002
}
1002
{
1000
REACTOR
1002
}
1001
GENIUS_GENOBJ-N-CHA_13
1002
{
1000
OWNER
1000
GEN
1002
}
  0
LINE
  5
753B
330
6A34
100
AcDbEntity
  8
SK1
100
AcDbLine
 10
-30.0
 20
6.779999999999802
 30
0.0
 11
-18.00000000000005
 21
6.779999999999802
 31
0.0
  0
LINE
  5
753E
330
6A34
100
AcDbEntity
  8
NOCUT
100
AcDbLine
 10
0.0
 20
-0.0000000000001705
 30
0.0
 11
0.0
 21
-12.50000000000002
 31
0.0
  0
LINE
  5
7544
330
6A34
100
AcDbEntity
  8
1
100
AcDbLine
 10
0.0000000000002416
 20
12.49999999999977
 30
0.0
 11
0.0000000000002416
 21
-12.5000000000002
 31
0.0
  0
TEXT
  5
7545
330
6A34
100
AcDbEntity
  8
6
100
AcDbText
 10
4.977099082872939
 20
-21.9426626054452
 30
0.0
 40
3.5
  1
15C1G030049W5R01
100
AcDbText
  0
LINE
  5
7554
330
6A34
100
AcDbEntity
  8
SK1
100
AcDbLine
 10
49.00000000000009
 20
-15.46376936984904
 30
0.0
 11
49.00000000000009
 21
-14.5362306301514
 31
0.0
  0
LINE
  5
7555
330
6A34
100
AcDbEntity
  8
SK1
100
AcDbLine
 10
48.53623063015127
 20
-15.00000000000022
 30
0.0
 11
49.4637693698489
 21
-15.00000000000022
 31
0.0
  0
CIRCLE
  5
7556
330
6A34
100
AcDbEntity
  8
SK1
100
AcDbCircle
 10
49.00000000000009
 20
-15.00000000000022
 30
0.0
 40
0.4637693698488208
  0
LINE
  5
755E
330
6A34
100
AcDbEntity
  8
NOCUT
100
AcDbLine
 10
47.75548977143654
 20
-0.0000000000002343
 30
0.0
 11
0.0
 21
-0.0000000000001705
 31
0.0
  0
LINE
  5
755F
330
6A34
100
AcDbEntity
  8
4
100
AcDbLine
 10
49.97494342658325
 20
-0.0000000000002213
 30
0.0
 11
0.0
 21
0.0
 31
0.0
  0
LINE
  5
7561
330
6A34
100
AcDbEntity
  8
SK1
100
AcDbLine
 10
-2.262823140784064
 20
-2.262823140784305
 30
0.0
 11
2.262823140784306
 21
2.262823140784063
 31
0.0
  0
CIRCLE
  5
7562
330
6A34
100
AcDbEntity
  8
SK1
100
AcDbCircle
 10
0.0000000000001206
 20
-0.0000000000001206
 30
0.0
 40
3.200115174948665
  0
LINE
  5
7563
330
6A34
100
AcDbEntity
  8
SK1
100
AcDbLine
 10
-2.262823140784064
 20
2.262823140784064
 30
0.0
 11
2.262823140784305
 21
-2.262823140784306
 31
0.0
  0
LINE
  5
7588
330
6A34
100
AcDbEntity
  8
SK1
100
AcDbLine
 10
49.00000000000003
 20
15.46376936984859
 30
0.0
 11
49.00000000000003
 21
14.53623063015095
 31
0.0
  0
LINE
  5
7589
330
6A34
100
AcDbEntity
  8
SK1
100
AcDbLine
 10
48.5362306301512
 20
14.99999999999977
 30
0.0
 11
49.46376936984885
 21
14.99999999999977
 31
0.0
  0
CIRCLE
  5
758A
330
6A34
100
AcDbEntity
  8
SK1
100
AcDbCircle
 10
49.00000000000003
 20
14.99999999999977
 30
0.0
 40
0.4637693698488208
  0
TEXT
  5
758D
330
6A34
100
AcDbEntity
  8
6
100
AcDbText
 10
82.38402601192623
 20
-4.389388396538842
 30
0.0
 40
3.5
  1
Z=2
 50
90.0
100
AcDbText
  0
TEXT
  5
7F0E
330
6A34
100
AcDbEntity
  8
6
100
AcDbText
 10
57.87091980871702
 20
16.53047350351243
 30
0.0
 40
2.5
  1
SHLT110408N
100
AcDbText
  0
LINE
  5
8027
330
6A34
100
AcDbEntity
  8
4
100
AcDbLine
 10
5.124856070558564
 20
-0.0000000000002141
 30
0.0
 11
20.49215823905873
 21
2.733261951326244
 31
0.0
  0
LINE
  5
8099
330
6A34
100
AcDbEntity
  8
CUT
100
AcDbLine
 10
38.30000000000002
 20
3.499999999999777
 30
0.0
 11
48.20000000000003
 21
3.499999999999777
 31
0.0
  0
LINE
  5
809A
330
6A34
100
AcDbEntity
  8
CUT
100
AcDbLine
 10
37.50000000000003
 20
14.19999999999978
 30
0.0
 11
37.50000000000003
 21
4.299999999999775
 31
0.0
  0
LINE
  5
80AB
330
6A34
100
AcDbEntity
  8
CUT
100
AcDbLine
 10
49.00000000000003
 20
4.299999999999775
 30
0.0
 11
49.00000000000003
 21
14.19999999999978
 31
0.0
  0
LINE
  5
80B1
330
6A34
100
AcDbEntity
  8
CUT
100
AcDbLine
 10
38.30000000000002
 20
14.99999999999977
 30
0.0
 11
48.20000000000003
 21
14.99999999999977
 31
0.0
  0
ARC
  5
80B4
330
6A34
100
AcDbEntity
  8
CUT
100
AcDbCircle
 10
38.30000000000002
 20
14.19999999999977
 30
0.0
 40
0.8
100
AcDbArc
 50
90.0
 51
179.9999999999994
1001
GENIUS_GENOBJ-N-FIL_13
1002
{
1000
OWNER
1000
GEN
1002
}
1001
GENIUS_GENODEF_13
1002
{
1000
HIER
1070
     0
1002
}
1002
{
1000
MANEDIT
1070
     0
1002
}
1002
{
1000
NOSEL
1070
     0
1002
}
1002
{
1000
BEHIND
1070
     0
1002
}
1002
{
1000
OTHER
1070
     0
1002
}
1002
{
1000
REACTOR
1002
}
  0
ARC
  5
80B6
330
6A34
100
AcDbEntity
  8
CUT
100
AcDbCircle
 10
38.30000000000002
 20
4.299999999999775
 30
0.0
 40
0.8
100
AcDbArc
 50
180.0
 51
270.0
1001
GENIUS_GENOBJ-N-FIL_13
1002
{
1000
OWNER
1000
GEN
1002
}
1001
GENIUS_GENODEF_13
1002
{
1000
HIER
1070
     0
1002
}
1002
{
1000
MANEDIT
1070
     0
1002
}
1002
{
1000
NOSEL
1070
     0
1002
}
1002
{
1000
BEHIND
1070
     0
1002
}
1002
{
1000
OTHER
1070
     0
1002
}
1002
{
1000
REACTOR
1002
}
  0
ARC
  5
80B8
330
6A34
100
AcDbEntity
  8
CUT
100
AcDbCircle
 10
48.20000000000006
 20
4.29999999999976
 30
0.0
 40
0.8
100
AcDbArc
 50
269.9999999999979
 51
0.0000000000010178
1001
GENIUS_GENOBJ-N-FIL_13
1002
{
1000
OWNER
1000
GEN
1002
}
1001
GENIUS_GENODEF_13
1002
{
1000
HIER
1070
     0
1002
}
1002
{
1000
MANEDIT
1070
     0
1002
}
1002
{
1000
NOSEL
1070
     0
1002
}
1002
{
1000
BEHIND
1070
     0
1002
}
1002
{
1000
OTHER
1070
     0
1002
}
1002
{
1000
REACTOR
1002
}
  0
ARC
  5
80BA
330
6A34
100
AcDbEntity
  8
CUT
100
AcDbCircle
 10
48.20000000000003
 20
14.19999999999978
 30
0.0
 40
0.8
100
AcDbArc
 50
0.0
 51
90.0
1001
GENIUS_GENODEF_13
1002
{
1000
HIER
1070
     0
1002
}
1002
{
1000
MANEDIT
1070
     0
1002
}
1002
{
1000
NOSEL
1070
     0
1002
}
1002
{
1000
BEHIND
1070
     0
1002
}
1002
{
1000
OTHER
1070
     0
1002
}
1002
{
1000
REACTOR
1002
}
1001
GENIUS_GENOBJ-N-FIL_13
1002
{
1000
OWNER
1000
GEN
1002
}
  0
LINE
  5
80BB
330
6A34
100
AcDbEntity
  8
1
100
AcDbLine
 10
38.30000000000002
 20
14.99999999999977
 30
0.0
 11
48.20000000000003
 21
14.99999999999977
 31
0.0
  0
LINE
  5
80BC
330
6A34
100
AcDbEntity
  8
1
100
AcDbLine
 10
38.30000000000002
 20
3.499999999999777
 30
0.0
 11
48.20000000000003
 21
3.499999999999777
 31
0.0
  0
ARC
  5
80BD
330
6A34
100
AcDbEntity
  8
1
100
AcDbCircle
 10
38.30000000000002
 20
14.19999999999977
 30
0.0
 40
0.8
100
AcDbArc
 50
90.0
 51
179.9999999999994
1001
GENIUS_GENOBJ-N-FIL_13
1002
{
1000
OWNER
1000
GEN
1002
}
1001
GENIUS_GENODEF_13
1002
{
1000
HIER
1070
     0
1002
}
1002
{
1000
MANEDIT
1070
     0
1002
}
1002
{
1000
NOSEL
1070
     0
1002
}
1002
{
1000
BEHIND
1070
     0
1002
}
1002
{
1000
OTHER
1070
     0
1002
}
1002
{
1000
REACTOR
1002
}
  0
LINE
  5
80BE
330
6A34
100
AcDbEntity
  8
1
100
AcDbLine
 10
37.50000000000003
 20
14.19999999999978
 30
0.0
 11
37.50000000000003
 21
4.299999999999775
 31
0.0
  0
ARC
  5
80BF
330
6A34
100
AcDbEntity
  8
1
100
AcDbCircle
 10
38.30000000000002
 20
4.299999999999775
 30
0.0
 40
0.8
100
AcDbArc
 50
180.0
 51
270.0
1001
GENIUS_GENOBJ-N-FIL_13
1002
{
1000
OWNER
1000
GEN
1002
}
1001
GENIUS_GENODEF_13
1002
{
1000
HIER
1070
     0
1002
}
1002
{
1000
MANEDIT
1070
     0
1002
}
1002
{
1000
NOSEL
1070
     0
1002
}
1002
{
1000
BEHIND
1070
     0
1002
}
1002
{
1000
OTHER
1070
     0
1002
}
1002
{
1000
REACTOR
1002
}
  0
ARC
  5
80C0
330
6A34
100
AcDbEntity
  8
1
100
AcDbCircle
 10
48.20000000000003
 20
14.19999999999978
 30
0.0
 40
0.8
100
AcDbArc
 50
0.0
 51
90.0
1001
GENIUS_GENODEF_13
1002
{
1000
HIER
1070
     0
1002
}
1002
{
1000
MANEDIT
1070
     0
1002
}
1002
{
1000
NOSEL
1070
     0
1002
}
1002
{
1000
BEHIND
1070
     0
1002
}
1002
{
1000
OTHER
1070
     0
1002
}
1002
{
1000
REACTOR
1002
}
1001
GENIUS_GENOBJ-N-FIL_13
1002
{
1000
OWNER
1000
GEN
1002
}
  0
LINE
  5
80C1
330
6A34
100
AcDbEntity
  8
1
100
AcDbLine
 10
49.00000000000003
 20
4.299999999999775
 30
0.0
 11
49.00000000000003
 21
14.19999999999978
 31
0.0
  0
ARC
  5
80C2
330
6A34
100
AcDbEntity
  8
1
100
AcDbCircle
 10
48.20000000000006
 20
4.29999999999976
 30
0.0
 40
0.8
100
AcDbArc
 50
269.9999999999979
 51
0.0000000000010178
1001
GENIUS_GENOBJ-N-FIL_13
1002
{
1000
OWNER
1000
GEN
1002
}
1001
GENIUS_GENODEF_13
1002
{
1000
HIER
1070
     0
1002
}
1002
{
1000
MANEDIT
1070
     0
1002
}
1002
{
1000
NOSEL
1070
     0
1002
}
1002
{
1000
BEHIND
1070
     0
1002
}
1002
{
1000
OTHER
1070
     0
1002
}
1002
{
1000
REACTOR
1002
}
  0
CIRCLE
  5
80D2
330
6A34
100
AcDbEntity
  8
1
100
AcDbCircle
 10
43.25000000000002
 20
9.249999999999777
 30
0.0
 40
3.25
  0
LINE
  5
80DB
330
6A34
100
AcDbEntity
  8
SK3
 48
0.3
100
AcDbLine
 10
38.30000000000008
 20
-3.500000000000222
 30
0.0
 11
47.75548977143652
 21
-3.500000000000222
 31
0.0
  0
LINE
  5
80DC
330
6A34
100
AcDbEntity
  8
1
 48
0.3
100
AcDbLine
 10
38.30000000000008
 20
-15.00000000000022
 30
0.0
 11
48.20000000000009
 21
-15.00000000000022
 31
0.0
  0
ARC
  5
80DD
330
6A34
100
AcDbEntity
  8
SK3
100
AcDbCircle
 10
38.30000000000008
 20
-4.300000000000226
 30
0.0
 40
0.8
100
AcDbArc
 50
90.0
 51
179.9999999999994
1001
GENIUS_GENOBJ-N-FIL_13
1002
{
1000
OWNER
1000
GEN
1002
}
1001
GENIUS_GENODEF_13
1002
{
1000
HIER
1070
     0
1002
}
1002
{
1000
MANEDIT
1070
     0
1002
}
1002
{
1000
NOSEL
1070
     0
1002
}
1002
{
1000
BEHIND
1070
     0
1002
}
1002
{
1000
OTHER
1070
     0
1002
}
1002
{
1000
REACTOR
1002
}
  0
LINE
  5
80DE
330
6A34
100
AcDbEntity
  8
SK3
 48
0.3
100
AcDbLine
 10
37.50000000000008
 20
-4.300000000000219
 30
0.0
 11
37.50000000000008
 21
-13.91746801395303
 31
0.0
  0
ARC
  5
80DF
330
6A34
100
AcDbEntity
  8
1
100
AcDbCircle
 10
38.30000000000008
 20
-14.20000000000022
 30
0.0
 40
0.8
100
AcDbArc
 50
180.0
 51
270.0
1001
GENIUS_GENOBJ-N-FIL_13
1002
{
1000
OWNER
1000
GEN
1002
}
1001
GENIUS_GENODEF_13
1002
{
1000
HIER
1070
     0
1002
}
1002
{
1000
MANEDIT
1070
     0
1002
}
1002
{
1000
NOSEL
1070
     0
1002
}
1002
{
1000
BEHIND
1070
     0
1002
}
1002
{
1000
OTHER
1070
     0
1002
}
1002
{
1000
REACTOR
1002
}
  0
ARC
  5
80E0
330
6A34
100
AcDbEntity
  8
1
100
AcDbCircle
 10
48.20000000000009
 20
-4.300000000000219
 30
0.0
 40
0.8
100
AcDbArc
 50
0.0
 51
90.0
1001
GENIUS_GENODEF_13
1002
{
1000
HIER
1070
     0
1002
}
1002
{
1000
MANEDIT
1070
     0
1002
}
1002
{
1000
NOSEL
1070
     0
1002
}
1002
{
1000
BEHIND
1070
     0
1002
}
1002
{
1000
OTHER
1070
     0
1002
}
1002
{
1000
REACTOR
1002
}
1001
GENIUS_GENOBJ-N-FIL_13
1002
{
1000
OWNER
1000
GEN
1002
}
  0
LINE
  5
80E1
330
6A34
100
AcDbEntity
  8
1
 48
0.3
100
AcDbLine
 10
49.00000000000009
 20
-14.20000000000022
 30
0.0
 11
49.00000000000009
 21
-4.300000000000219
 31
0.0
  0
ARC
  5
80E2
330
6A34
100
AcDbEntity
  8
1
100
AcDbCircle
 10
48.20000000000011
 20
-14.20000000000023
 30
0.0
 40
0.8
100
AcDbArc
 50
269.9999999999979
 51
0.0000000000010178
1001
GENIUS_GENOBJ-N-FIL_13
1002
{
1000
OWNER
1000
GEN
1002
}
1001
GENIUS_GENODEF_13
1002
{
1000
HIER
1070
     0
1002
}
1002
{
1000
MANEDIT
1070
     0
1002
}
1002
{
1000
NOSEL
1070
     0
1002
}
1002
{
1000
BEHIND
1070
     0
1002
}
1002
{
1000
OTHER
1070
     0
1002
}
1002
{
1000
REACTOR
1002
}
  0
LINE
  5
811E
330
6A34
100
AcDbEntity
  8
1
100
AcDbLine
 10
3.222312985485357
 20
13.9174680139533
 30
0.0
 11
37.55655119178143
 21
13.91746801395329
 31
0.0
  0
LINE
  5
8120
330
6A34
100
AcDbEntity
  8
NOCUT
100
AcDbLine
 10
3.222312985484528
 20
-13.9174680139533
 30
0.0
 11
47.75548977143654
 21
-13.91746801395369
 31
0.0
  0
LINE
  5
8132
330
6A34
100
AcDbEntity
  8
NOCUT
100
AcDbLine
 10
47.75548977143654
 20
-0.0000000000002343
 30
0.0
 11
47.75548977143654
 21
-13.91746801395369
 31
0.0
  0
LINE
  5
813F
330
6A34
100
AcDbEntity
  8
1
100
AcDbLine
 10
47.75548977143645
 20
-13.91746801395295
 30
0.0
 11
47.75548977143652
 21
-3.500000000000222
 31
0.0
  0
LINE
  5
8147
330
6A34
100
AcDbEntity
  8
1
100
AcDbLine
 10
3.222312985484419
 20
-13.91746801395325
 30
0.0
 11
37.50000000000008
 21
-13.91746801395302
 31
0.0
  0
LINE
  5
814C
330
6A34
100
AcDbEntity
  8
1
100
AcDbLine
 10
37.50000000000008
 20
-13.91746801395302
 30
0.0
 11
47.75548977143645
 21
-13.91746801395295
 31
0.0
  0
LINE
  5
814D
330
6A34
100
AcDbEntity
  8
1
 48
0.3
100
AcDbLine
 10
37.50000000000008
 20
-13.91746801395303
 30
0.0
 11
37.50000000000008
 21
-14.20000000000022
 31
0.0
  0
LINE
  5
814E
330
6A34
100
AcDbEntity
  8
1
 48
0.3
100
AcDbLine
 10
47.75548977143652
 20
-3.500000000000222
 30
0.0
 11
48.20000000000009
 21
-3.500000000000222
 31
0.0
  0
LINE
  5
814F
330
6A34
100
AcDbEntity
  8
1
100
AcDbLine
 10
47.75548977143652
 20
-3.500000000000221
 30
0.0
 11
47.75548977143656
 21
3.499999999999778
 31
0.0
  0
CIRCLE
  5
8158
330
6A34
100
AcDbEntity
  8
SK3
100
AcDbCircle
 10
43.25000000000009
 20
-9.24999999999947
 30
0.0
 40
3.25
  0
LINE
  5
816A
330
6A34
100
AcDbEntity
  8
1
100
AcDbLine
 10
47.75548977143654
 20
2.865466617155453
 30
0.0
 11
12.24636966894659
 21
2.86546661715546
 31
0.0
  0
ARC
  5
816C
330
6A34
100
AcDbEntity
  8
1
100
AcDbCircle
 10
12.3646009911019
 20
9.214223871210833
 30
0.0
 40
6.349858054827628
100
AcDbArc
 50
132.2102065284957
 51
268.9331183175261
  0
LINE
  5
8179
330
6A34
100
AcDbEntity
  8
SK3
 48
0.3
100
AcDbLine
 10
47.75548977143656
 20
-2.865466617155293
 30
0.0
 11
12.2463696689466
 21
-2.865466617155759
 31
0.0
  0
ARC
  5
817A
330
6A34
100
AcDbEntity
  8
SK3
 48
0.3
100
AcDbCircle
 10
12.36460099110201
 20
-9.214223871211132
 30
0.0
 40
6.349858054827628
100
AcDbArc
 50
91.06688168247471
 51
227.789793471505
  0
LINE
  5
828D
330
6A34
100
AcDbEntity
  8
4
100
AcDbLine
 10
5.124856070558564
 20
0.0000000000007022
 30
0.0
 11
20.49215823905854
 21
-2.733261951326826
 31
0.0
  0
LINE
  5
8330
330
6A34
100
AcDbEntity
  8
1
100
AcDbLine
 10
0.0000000000002416
 20
12.49999999999977
 30
0.0
 11
3.222312985485357
 21
13.9174680139533
 31
0.0
  0
LINE
  5
8335
330
6A34
100
AcDbEntity
  8
NOCUT
100
AcDbLine
 10
0.0
 20
-12.50000000000002
 30
0.0
 11
3.222312985484528
 21
-13.9174680139533
 31
0.0
  0
LINE
  5
8338
330
6A34
100
AcDbEntity
  8
1
100
AcDbLine
 10
3.222312985485356
 20
13.9174680139533
 30
0.0
 11
3.222312985484527
 21
-13.9174680139533
 31
0.0
  0
LINE
  5
834B
330
6A34
100
AcDbEntity
  8
1
100
AcDbLine
 10
0.0000000000001309
 20
-12.49999999999977
 30
0.0
 11
3.222312985485234
 21
-13.91746801395333
 31
0.0
  0
DIMENSION
  5
8364
330
6A34
100
AcDbEntity
  8
2
100
AcDbDimension
  2
*D2
 10
77.57578636643522
 20
-15.00000000000023
 30
0.0
 11
74.32578636643523
 21
-0.0000000000002175
 31
0.0
 70
    32
  1
%%c<>
  3
AM_DIN
100
AcDbAlignedDimension
 13
49.00000000000003
 23
14.99999999999977
 33
0.0
 14
49.00000000000009
 24
-15.00000000000022
 34
0.0
 50
90.00000000000003
100
AcDbRotatedDimension
  0
DIMENSION
  5
83D7
330
6A34
100
AcDbEntity
  8
2
100
AcDbDimension
  2
*D3
 10
0.0000000000002454
 20
74.99999999999977
 30
0.0
 11
24.50000000000014
 21
78.24999999999977
 31
0.0
 70
    32
  3
AM_DIN
100
AcDbAlignedDimension
 13
49.00000000000003
 23
14.99999999999977
 33
0.0
 14
0.0000000000002416
 24
12.49999999999977
 34
0.0
 50
0.0000000000000114
100
AcDbRotatedDimension
  0
DIMENSION
  5
83FF
330
6A34
100
AcDbEntity
  8
2
100
AcDbDimension
  2
*D4
 10
19.00000000000003
 20
59.99999999999977
 30
0.0
 11
34.00000000000003
 21
63.24999999999977
 31
0.0
 70
    32
  3
AM_DIN
100
AcDbAlignedDimension
 13
49.00000000000003
 23
14.99999999999977
 33
0.0
 14
19.00000000000003
 24
13.9174680139533
 34
0.0
 50
0.0000000000000114
100
AcDbRotatedDimension
  0
DIMENSION
  5
8442
330
6A34
100
AcDbEntity
  8
SK2
100
AcDbDimension
  2
*D5
 10
-55.99999999999994
 20
-36.49839257589985
 30
0.0
 11
-3.499999999999928
 21
-33.24839257589985
 31
0.0
 70
    32
  3
AM_DIN
100
AcDbAlignedDimension
 13
49.00000000000009
 23
-15.00000000000022
 33
0.0
 14
-55.99999999999994
 24
-11.50000000000022
 34
0.0
 50
0.0000000000001132
100
AcDbRotatedDimension
  0
DIMENSION
  5
84BD
330
6A34
100
AcDbEntity
  8
2
100
AcDbDimension
  2
*D6
 10
66.81143228741484
 20
-4.500000000000226
 30
0.0
 11
63.56143228741484
 21
-0.0000000000002151
 31
0.0
 70
    32
  1
%%c<>
  3
AM_DIN
100
AcDbAlignedDimension
 13
49.00000000000003
 23
4.499999999999778
 33
0.0
 14
49.00000000000009
 24
-4.500000000000221
 34
0.0
 50
90.0
100
AcDbRotatedDimension
  0
ENDSEC
  0
SECTION
  2
OBJECTS
  0
DICTIONARY
  5
6A22
330
0
100
AcDbDictionary
  3
ACAD_GROUP
350
6A23
  3
ACAD_LAYOUT
350
6A2F
  3
ACAD_MLINESTYLE
350
6A2C
  3
ACAD_PLOTSETTINGS
350
6A2E
  3
ACAD_PLOTSTYLENAME
350
6A24
  3
ACDBHEADERROUNDTRIPXREC
350
8526
  3
ACDBVARIABLEDICTIONARY
350
6B78
  3
ACMDICTIONARY
350
6B39
  3
AMG
350
6B22
  3
AMGSNAPSETTINGS
350
6B59
  3
DWGPROPS
350
8522
  0
DICTIONARY
  5
6B62
330
6A34
100
AcDbDictionary
280
     1
  3
ACAD_INDEX
360
6B63
  3
ACAD_LAYOUTSELFREF
360
8549
  0
DICTIONARY
  5
8547
330
6A30
100
AcDbDictionary
280
     1
  3
ACAD_LAYOUTSELFREF
360
8548
  0
DICTIONARY
  5
6A23
102
{ACAD_REACTORS
330
6A22
102
}
330
6A22
100
AcDbDictionary
  0
DICTIONARY
  5
6A2F
102
{ACAD_REACTORS
330
6A22
102
}
330
6A22
100
AcDbDictionary
  0
DICTIONARY
  5
6A2C
102
{ACAD_REACTORS
330
6A22
102
}
330
6A22
100
AcDbDictionary
  3
STANDARD
350
6A2D
  0
DICTIONARY
  5
6A2E
102
{ACAD_REACTORS
330
6A22
102
}
330
6A22
100
AcDbDictionary
  0
ACDBDICTIONARYWDFLT
  5
6A24
102
{ACAD_REACTORS
330
6A22
102
}
330
6A22
100
AcDbDictionary
281
     1
  3
Normal
350
6A25
100
AcDbDictionaryWithDefault
340
6A25
  0
DICTIONARY
  5
8526
102
{ACAD_REACTORS
330
6A22
102
}
330
6A22
100
AcDbDictionary
  3
CEPSNTYPE
350
8530
  3
DIMSTYLEDATA
350
8534
  3
FINGERPRINTGUID
350
8531
  3
HYPERLINKBASE
350
8529
  3
INSUNITS
350
852F
  3
LAYOUTDICT
350
852B
  3
LWETCUNION
350
852E
  3
PLOTSETDICT
350
852C
  3
PLOTSTYLNAMDICT
350
852D
  3
PSVPSCALE
350
8533
  3
PUCSBASE
350
8537
  3
PUCSORGBACK
350
853D
  3
PUCSORGBOTTOM
350
8539
  3
PUCSORGFRONT
350
853C
  3
PUCSORGLEFT
350
853A
  3
PUCSORGRIGHT
350
853B
  3
PUCSORGTOP
350
8538
  3
PUCSORTHOREF
350
8535
  3
PUCSORTHOVIEW
350
8536
  3
STYLESHEET
350
852A
  3
TSTACKALIGN
350
8527
  3
TSTACKSIZE
350
8528
  3
UCSBASE
350
8540
  3
UCSORGBACK
350
8546
  3
UCSORGBOTTOM
350
8542
  3
UCSORGFRONT
350
8545
  3
UCSORGLEFT
350
8543
  3
UCSORGRIGHT
350
8544
  3
UCSORGTOP
350
8541
  3
UCSORTHOREF
350
853E
  3
UCSORTHOVIEW
350
853F
  3
VERSIONGUID
350
8532
  0
DICTIONARY
  5
6B78
102
{ACAD_REACTORS
330
6A22
102
}
330
6A22
100
AcDbDictionary
  3
DIMASSOC
350
6B7A
  3
INDEXCTL
350
6B79
  0
DICTIONARY
  5
6B39
102
{ACAD_REACTORS
330
6A22
102
}
330
6A22
100
AcDbDictionary
  3
ACMSTDDICTIONARY
350
6B3F
  0
DICTIONARY
  5
6B22
102
{ACAD_REACTORS
330
6A22
102
}
330
6A22
100
AcDbDictionary
  3
ACMGSETTINGS
350
6B23
  0
DICTIONARY
  5
6B59
102
{ACAD_REACTORS
330
6A22
102
}
330
6A22
100
AcDbDictionary
  0
XRECORD
  5
8522
102
{ACAD_REACTORS
330
6A22
102
}
330
6A22
100
AcDbXrecord
  1
DWGPROPS COOKIE
  2

  3

  4

  6

  7

  8

  9

300
AmdtFileType=84
301
=
302
=
303
=
304
=
305
=
306
=
307
=
308
=
309
=
 40
0.1530007523148148
 41
2453447.43007081
 42
2453790.915067106
  1

 90
        1
  0
DICTIONARY
  5
6B63
102
{ACAD_REACTORS
330
6B62
102
}
330
6B62
100
AcDbDictionary
  3
*A1
350
6B64
  0
XRECORD
  5
8549
102
{ACAD_REACTORS
330
6B62
102
}
330
6B62
100
AcDbXrecord
340
6A34
  0
XRECORD
  5
8548
102
{ACAD_REACTORS
330
8547
102
}
330
8547
100
AcDbXrecord
340
6A30
  0
MLINESTYLE
  5
6A2D
102
{ACAD_REACTORS
330
6A2C
102
}
330
6A2C
100
AcDbMlineStyle
  2
STANDARD
 70
     0
  3

 62
   256
 51
90.0
 52
90.0
 71
     2
 49
0.5
 62
   256
  6
BYLAYER
 49
-0.5
 62
   256
  6
BYLAYER
  0
ACDBPLACEHOLDER
  5
6A25
102
{ACAD_REACTORS
330
6A24
102
}
330
6A24
100
AcDbPlaceHolder
280
     0
  0
XRECORD
  5
8530
102
{ACAD_REACTORS
330
8526
102
}
330
8526
100
AcDbXrecord
 90
        0
  0
XRECORD
  5
8534
102
{ACAD_REACTORS
330
8526
102
}
330
8526
100
AcDbXrecord
1000
DSTYLE
1002
{
1070
   279
 70
     2
1002
}
  0
XRECORD
  5
8531
102
{ACAD_REACTORS
330
8526
102
}
330
8526
100
AcDbXrecord
  1
{5E8163B8-4D8F-4110-B677-A6458ADDE735}
  0
XRECORD
  5
8529
102
{ACAD_REACTORS
330
8526
102
}
330
8526
100
AcDbXrecord
  1

  0
XRECORD
  5
852F
102
{ACAD_REACTORS
330
8526
102
}
330
8526
100
AcDbXrecord
 90
        4
  0
XRECORD
  5
852B
102
{ACAD_REACTORS
330
8526
102
}
330
8526
100
AcDbXrecord
340
6A2F
  0
XRECORD
  5
852E
102
{ACAD_REACTORS
330
8526
102
}
330
8526
100
AcDbXrecord
 90
    10781
  0
XRECORD
  5
852C
102
{ACAD_REACTORS
330
8526
102
}
330
8526
100
AcDbXrecord
340
6A2E
  0
XRECORD
  5
852D
102
{ACAD_REACTORS
330
8526
102
}
330
8526
100
AcDbXrecord
340
6A24
  0
XRECORD
  5
8533
102
{ACAD_REACTORS
330
8526
102
}
330
8526
100
AcDbXrecord
 40
0.0
  0
XRECORD
  5
8537
102
{ACAD_REACTORS
330
8526
102
}
330
8526
100
AcDbXrecord
340
0
  0
XRECORD
  5
853D
102
{ACAD_REACTORS
330
8526
102
}
330
8526
100
AcDbXrecord
 10
0.0
 20
0.0
 30
0.0
  0
XRECORD
  5
8539
102
{ACAD_REACTORS
330
8526
102
}
330
8526
100
AcDbXrecord
 10
0.0
 20
0.0
 30
0.0
  0
XRECORD
  5
853C
102
{ACAD_REACTORS
330
8526
102
}
330
8526
100
AcDbXrecord
 10
0.0
 20
0.0
 30
0.0
  0
XRECORD
  5
853A
102
{ACAD_REACTORS
330
8526
102
}
330
8526
100
AcDbXrecord
 10
0.0
 20
0.0
 30
0.0
  0
XRECORD
  5
853B
102
{ACAD_REACTORS
330
8526
102
}
330
8526
100
AcDbXrecord
 10
0.0
 20
0.0
 30
0.0
  0
XRECORD
  5
8538
102
{ACAD_REACTORS
330
8526
102
}
330
8526
100
AcDbXrecord
 10
0.0
 20
0.0
 30
0.0
  0
XRECORD
  5
8535
102
{ACAD_REACTORS
330
8526
102
}
330
8526
100
AcDbXrecord
340
0
  0
XRECORD
  5
8536
102
{ACAD_REACTORS
330
8526
102
}
330
8526
100
AcDbXrecord
 70
     0
  0
XRECORD
  5
852A
102
{ACAD_REACTORS
330
8526
102
}
330
8526
100
AcDbXrecord
  1

  0
XRECORD
  5
8527
102
{ACAD_REACTORS
330
8526
102
}
330
8526
100
AcDbXrecord
 90
        1
  0
XRECORD
  5
8528
102
{ACAD_REACTORS
330
8526
102
}
330
8526
100
AcDbXrecord
 90
       70
  0
XRECORD
  5
8540
102
{ACAD_REACTORS
330
8526
102
}
330
8526
100
AcDbXrecord
340
0
  0
XRECORD
  5
8546
102
{ACAD_REACTORS
330
8526
102
}
330
8526
100
AcDbXrecord
 10
0.0
 20
0.0
 30
0.0
  0
XRECORD
  5
8542
102
{ACAD_REACTORS
330
8526
102
}
330
8526
100
AcDbXrecord
 10
0.0
 20
0.0
 30
0.0
  0
XRECORD
  5
8545
102
{ACAD_REACTORS
330
8526
102
}
330
8526
100
AcDbXrecord
 10
0.0
 20
0.0
 30
0.0
  0
XRECORD
  5
8543
102
{ACAD_REACTORS
330
8526
102
}
330
8526
100
AcDbXrecord
 10
0.0
 20
0.0
 30
0.0
  0
XRECORD
  5
8544
102
{ACAD_REACTORS
330
8526
102
}
330
8526
100
AcDbXrecord
 10
0.0
 20
0.0
 30
0.0
  0
XRECORD
  5
8541
102
{ACAD_REACTORS
330
8526
102
}
330
8526
100
AcDbXrecord
 10
0.0
 20
0.0
 30
0.0
  0
XRECORD
  5
853E
102
{ACAD_REACTORS
330
8526
102
}
330
8526
100
AcDbXrecord
340
0
  0
XRECORD
  5
853F
102
{ACAD_REACTORS
330
8526
102
}
330
8526
100
AcDbXrecord
 70
     0
  0
XRECORD
  5
8532
102
{ACAD_REACTORS
330
8526
102
}
330
8526
100
AcDbXrecord
  1
{4AF952A6-321A-4561-8522-AE24DC895EAA}
  0
DICTIONARYVAR
  5
6B7A
102
{ACAD_REACTORS
330
6B78
102
}
330
6B78
100
DictionaryVariables
280
     0
  1
1
  0
DICTIONARYVAR
  5
6B79
102
{ACAD_REACTORS
330
6B78
102
}
330
6B78
100
DictionaryVariables
280
     0
  1
1
  0
DICTIONARY
  5
6B3F
102
{ACAD_REACTORS
330
6B39
102
}
330
6B39
100
AcDbDictionary
  0
DICTIONARY
  5
6B23
102
{ACAD_REACTORS
330
6B22
102
}
330
6B22
100
AcDbDictionary
  3
DWGSETTINGS
350
6B24
  0
LAYER_INDEX
  5
6B64
102
{ACAD_REACTORS
330
6B63
102
}
330
6B63
100
AcDbIndex
 40
2453790.918695937
100
AcDbLayerIndex
  8
0
360
6B65
 90
        0
  8
DEFPOINTS
360
6B66
 90
        0
  8
1
360
6B67
 90
       27
  8
2
360
6B68
 90
        4
  8
4
360
6B69
 90
        3
  8
6
360
6B6A
 90
        3
  8
SK1
360
6B6B
 90
       26
  8
SK2
360
6B6C
 90
        2
  8
SK3
360
6B6D
 90
        6
  8
SK4
360
6B6E
 90
        1
  8
CUT
360
6B6F
 90
        8
  8
NOCUT
360
6B70
 90
        5
  0
XRECORD
  5
6B24
102
{ACAD_REACTORS
330
6B23
102
}
330
6B23
100
AcDbXrecord
  1
VERSION
140
15.0
  1
PRODUCT
  2
AutoCAD Mechanical 2000
  0
IDBUFFER
  5
6B65
330
0
100
AcDbIdBuffer
  0
IDBUFFER
  5
6B66
330
0
100
AcDbIdBuffer
  0
IDBUFFER
  5
6B67
330
0
100
AcDbIdBuffer
330
8330
330
8338
330
834B
330
7544
330
80BB
330
80BC
330
80BD
330
80BE
330
80BF
330
80C0
330
80C1
330
80C2
330
80D2
330
80DC
330
80DF
330
80E0
330
80E1
330
80E2
330
811E
330
813F
330
8147
330
814C
330
814D
330
814E
330
814F
330
816A
330
816C
  0
IDBUFFER
  5
6B68
330
0
100
AcDbIdBuffer
330
84BD
330
8364
330
83D7
330
83FF
  0
IDBUFFER
  5
6B69
330
0
100
AcDbIdBuffer
330
755F
330
8027
330
828D
  0
IDBUFFER
  5
6B6A
330
0
100
AcDbIdBuffer
330
7545
330
758D
330
7F0E
  0
IDBUFFER
  5
6B6B
330
0
100
AcDbIdBuffer
330
7529
330
752B
330
752D
330
752E
330
752F
330
7530
330
7531
330
7532
330
7533
330
7534
330
7535
330
7536
330
7537
330
7538
330
7539
330
753A
330
753B
330
7554
330
7555
330
7556
330
7561
330
7562
330
7563
330
7588
330
7589
330
758A
  0
IDBUFFER
  5
6B6C
330
0
100
AcDbIdBuffer
330
752C
330
8442
  0
IDBUFFER
  5
6B6D
330
0
100
AcDbIdBuffer
330
80DB
330
80DD
330
80DE
330
8158
330
8179
330
817A
  0
IDBUFFER
  5
6B6E
330
0
100
AcDbIdBuffer
330
752A
  0
IDBUFFER
  5
6B6F
330
0
100
AcDbIdBuffer
330
8099
330
809A
330
80AB
330
80B1
330
80B4
330
80B6
330
80B8
330
80BA
  0
IDBUFFER
  5
6B70
330
0
100
AcDbIdBuffer
330
8335
330
753E
330
755E
330
8120
330
8132
  0
ENDSEC
  0
EOF
