  0
SECTION
  2
HEADER
  9
$ACADVER
  1
AC1015
  9
$ACADMAINTVER
 70
    20
  9
$DWGCODEPAGE
  3
ANSI_1252
  9
$INSBASE
 10
0.0
 20
0.0
 30
0.0
  9
$EXTMIN
 10
-36.00113059181899
 20
-35.53621695834954
 30
-0.0015258207003583
  9
$EXTMAX
 10
90.30182949205164
 20
34.29975743261798
 30
0.0000000349246037
  9
$LIMMIN
 10
0.0
 20
0.0
  9
$LIMMAX
 10
594.0
 20
420.0
  9
$ORTHOMODE
 70
     0
  9
$REGENMODE
 70
     1
  9
$FILLMODE
 70
     1
  9
$QTEXTMODE
 70
     0
  9
$MIRRTEXT
 70
     1
  9
$LTSCALE
 40
10.0
  9
$ATTMODE
 70
     1
  9
$TEXTSIZE
 40
0.2
  9
$TRACEWID
 40
0.05
  9
$TEXTSTYLE
  7
STANDARD
  9
$CLAYER
  8
0
  9
$CELTYPE
  6
ByLayer
  9
$CECOLOR
 62
   256
  9
$CELTSCALE
 40
1.0
  9
$DISPSILH
 70
     0
  9
$DIMSCALE
 40
1.0
  9
$DIMASZ
 40
2.5
  9
$DIMEXO
 40
0.625
  9
$DIMDLI
 40
3.75
  9
$DIMRND
 40
0.0
  9
$DIMDLE
 40
0.0
  9
$DIMEXE
 40
1.25
  9
$DIMTP
 40
0.0
  9
$DIMTM
 40
0.0
  9
$DIMTXT
 40
2.5
  9
$DIMCEN
 40
2.5
  9
$DIMTSZ
 40
0.0
  9
$DIMTOL
 70
     0
  9
$DIMLIM
 70
     0
  9
$DIMTIH
 70
     0
  9
$DIMTOH
 70
     0
  9
$DIMSE1
 70
     0
  9
$DIMSE2
 70
     0
  9
$DIMTAD
 70
     1
  9
$DIMZIN
 70
     8
  9
$DIMBLK
  1

  9
$DIMASO
 70
     1
  9
$DIMSHO
 70
     1
  9
$DIMPOST
  1

  9
$DIMAPOST
  1

  9
$DIMALT
 70
     0
  9
$DIMALTD
 70
     3
  9
$DIMALTF
 40
0.03937007874016
  9
$DIMLFAC
 40
1.0
  9
$DIMTOFL
 70
     1
  9
$DIMTVP
 40
0.0
  9
$DIMTIX
 70
     0
  9
$DIMSOXD
 70
     0
  9
$DIMSAH
 70
     0
  9
$DIMBLK1
  1

  9
$DIMBLK2
  1

  9
$DIMSTYLE
  2
ISO-25
  9
$DIMCLRD
 70
     0
  9
$DIMCLRE
 70
     0
  9
$DIMCLRT
 70
     0
  9
$DIMTFAC
 40
1.0
  9
$DIMGAP
 40
0.625
  9
$DIMJUST
 70
     0
  9
$DIMSD1
 70
     0
  9
$DIMSD2
 70
     0
  9
$DIMTOLJ
 70
     0
  9
$DIMTZIN
 70
     8
  9
$DIMALTZ
 70
     0
  9
$DIMALTTZ
 70
     0
  9
$DIMUPT
 70
     0
  9
$DIMDEC
 70
     2
  9
$DIMTDEC
 70
     2
  9
$DIMALTU
 70
     2
  9
$DIMALTTD
 70
     3
  9
$DIMTXSTY
  7
STANDARD
  9
$DIMAUNIT
 70
     0
  9
$DIMADEC
 70
     0
  9
$DIMALTRND
 40
0.0
  9
$DIMAZIN
 70
     0
  9
$DIMDSEP
 70
    44
  9
$DIMATFIT
 70
     3
  9
$DIMFRAC
 70
     0
  9
$DIMLDRBLK
  1

  9
$DIMLUNIT
 70
     2
  9
$DIMLWD
 70
    -2
  9
$DIMLWE
 70
    -2
  9
$DIMTMOVE
 70
     0
  9
$LUNITS
 70
     2
  9
$LUPREC
 70
     4
  9
$SKETCHINC
 40
0.1
  9
$FILLETRAD
 40
0.0
  9
$AUNITS
 70
     0
  9
$AUPREC
 70
     0
  9
$MENU
  1
ACAD
  9
$ELEVATION
 40
0.0
  9
$PELEVATION
 40
0.0
  9
$THICKNESS
 40
0.0
  9
$LIMCHECK
 70
     0
  9
$CHAMFERA
 40
0.0
  9
$CHAMFERB
 40
0.0
  9
$CHAMFERC
 40
0.0
  9
$CHAMFERD
 40
0.0
  9
$SKPOLY
 70
     0
  9
$TDCREATE
 40
2305814.125509387
  9
$TDUCREATE
 40
6.0000000000
  9
$TDUPDATE
 40
2454210.356323970
  9
$TDUUPDATE
 40
2454210.272990636
  9
$TDINDWG
 40
0.6786747222
  9
$TDUSRTIMER
 40
0.6786747222
  9
$USRTIMER
 70
     1
  9
$ANGBASE
 50
0.0
  9
$ANGDIR
 70
     0
  9
$PDMODE
 70
     0
  9
$PDSIZE
 40
3.0
  9
$PLINEWID
 40
0.0
  9
$SPLFRAME
 70
     0
  9
$SPLINETYPE
 70
     6
  9
$SPLINESEGS
 70
     8
  9
$HANDSEED
  5
44E0
  9
$SURFTAB1
 70
     6
  9
$SURFTAB2
 70
     6
  9
$SURFTYPE
 70
     6
  9
$SURFU
 70
     6
  9
$SURFV
 70
     6
  9
$UCSBASE
  2

  9
$UCSNAME
  2

  9
$UCSORG
 10
0.0
 20
0.0
 30
0.0
  9
$UCSXDIR
 10
1.0
 20
0.0
 30
0.0
  9
$UCSYDIR
 10
0.0
 20
1.0
 30
0.0
  9
$UCSORTHOREF
  2

  9
$UCSORTHOVIEW
 70
     0
  9
$UCSORGTOP
 10
0.0
 20
0.0
 30
0.0
  9
$UCSORGBOTTOM
 10
0.0
 20
0.0
 30
0.0
  9
$UCSORGLEFT
 10
0.0
 20
0.0
 30
0.0
  9
$UCSORGRIGHT
 10
0.0
 20
0.0
 30
0.0
  9
$UCSORGFRONT
 10
0.0
 20
0.0
 30
0.0
  9
$UCSORGBACK
 10
0.0
 20
0.0
 30
0.0
  9
$PUCSBASE
  2

  9
$PUCSNAME
  2

  9
$PUCSORG
 10
0.0
 20
0.0
 30
0.0
  9
$PUCSXDIR
 10
1.0
 20
0.0
 30
0.0
  9
$PUCSYDIR
 10
0.0
 20
1.0
 30
0.0
  9
$PUCSORTHOREF
  2

  9
$PUCSORTHOVIEW
 70
     0
  9
$PUCSORGTOP
 10
0.0
 20
0.0
 30
0.0
  9
$PUCSORGBOTTOM
 10
0.0
 20
0.0
 30
0.0
  9
$PUCSORGLEFT
 10
0.0
 20
0.0
 30
0.0
  9
$PUCSORGRIGHT
 10
0.0
 20
0.0
 30
0.0
  9
$PUCSORGFRONT
 10
0.0
 20
0.0
 30
0.0
  9
$PUCSORGBACK
 10
0.0
 20
0.0
 30
0.0
  9
$USERI1
 70
     0
  9
$USERI2
 70
     0
  9
$USERI3
 70
     0
  9
$USERI4
 70
     0
  9
$USERI5
 70
     0
  9
$USERR1
 40
0.0
  9
$USERR2
 40
0.0
  9
$USERR3
 40
0.0
  9
$USERR4
 40
0.0
  9
$USERR5
 40
0.0
  9
$WORLDVIEW
 70
     1
  9
$SHADEDGE
 70
     3
  9
$SHADEDIF
 70
    70
  9
$TILEMODE
 70
     1
  9
$MAXACTVP
 70
    16
  9
$PINSBASE
 10
0.0
 20
0.0
 30
0.0
  9
$PLIMCHECK
 70
     0
  9
$PEXTMIN
 10
0.0
 20
0.0
 30
0.0
  9
$PEXTMAX
 10
0.0
 20
0.0
 30
0.0
  9
$PLIMMIN
 10
0.0
 20
0.0
  9
$PLIMMAX
 10
12.0
 20
9.0
  9
$UNITMODE
 70
     0
  9
$VISRETAIN
 70
     0
  9
$PLINEGEN
 70
     1
  9
$PSLTSCALE
 70
     0
  9
$TREEDEPTH
 70
  3020
  9
$CMLSTYLE
  2
Standard
  9
$CMLJUST
 70
     0
  9
$CMLSCALE
 40
1.0
  9
$PROXYGRAPHICS
 70
     1
  9
$MEASUREMENT
 70
     0
  9
$CELWEIGHT
370
    -1
  9
$ENDCAPS
280
     0
  9
$JOINSTYLE
280
     0
  9
$LWDISPLAY
290
     0
  9
$INSUNITS
 70
     0
  9
$HYPERLINKBASE
  1

  9
$STYLESHEET
  1

  9
$XEDIT
290
     1
  9
$CEPSNTYPE
380
     0
  9
$PSTYLEMODE
290
     1
  9
$FINGERPRINTGUID
  2
{FEDCE614-A908-4E98-80A2-BD5AC64E8095}
  9
$VERSIONGUID
  2
{A5451491-F9AD-458E-9B6E-EE5E2201FA21}
  9
$EXTNAMES
290
     1
  9
$PSVPSCALE
 40
0.0
  9
$OLESTARTUP
290
     0
  0
ENDSEC
  0
SECTION
  2
CLASSES
  0
CLASS
  1
ACDBDICTIONARYWDFLT
  2
AcDbDictionaryWithDefault
  3
ObjectDBX Classes
 90
        0
280
     0
281
     0
  0
CLASS
  1
TABLESTYLE
  2
AcDbTableStyle
  3
ObjectDBX Classes
 90
     2047
280
     0
281
     0
  0
CLASS
  1
DICTIONARYVAR
  2
AcDbDictionaryVar
  3
ObjectDBX Classes
 90
        0
280
     0
281
     0
  0
CLASS
  1
SORTENTSTABLE
  2
AcDbSortentsTable
  3
ObjectDBX Classes
 90
        0
280
     0
281
     0
  0
CLASS
  1
ACDBPLACEHOLDER
  2
AcDbPlaceHolder
  3
ObjectDBX Classes
 90
        0
280
     0
281
     0
  0
CLASS
  1
LAYOUT
  2
AcDbLayout
  3
ObjectDBX Classes
 90
        0
280
     0
281
     0
  0
ENDSEC
  0
SECTION
  2
TABLES
  0
TABLE
  2
VPORT
  5
8
330
0
100
AcDbSymbolTable
 70
    13
  0
VPORT
  5
44DA
330
8
100
AcDbSymbolTableRecord
100
AcDbViewportTableRecord
  2
*Active
 70
     0
 10
0.0
 20
0.0
 11
1.0
 21
1.0
 12
27.15034945011633
 22
-0.6182297628657807
 13
0.0
 23
0.0
 14
1.0
 24
1.0
 15
0.0
 25
0.0
 16
0.0
 26
0.0
 36
1.0
 17
0.0
 27
0.0
 37
0.0
 40
83.81377831575454
 41
1.514429109159347
 42
50.0
 43
0.0
 44
0.0
 50
0.0
 51
0.0
 71
     0
 72
   100
 73
     1
 74
     1
 75
     0
 76
     0
 77
     0
 78
     0
281
     0
 65
     1
110
0.0
120
0.0
130
0.0
111
1.0
121
0.0
131
0.0
112
0.0
122
1.0
132
0.0
 79
     0
146
0.0
  0
ENDTAB
  0
TABLE
  2
LTYPE
  5
5
330
0
100
AcDbSymbolTable
 70
     6
  0
LTYPE
  5
13
330
5
100
AcDbSymbolTableRecord
100
AcDbLinetypeTableRecord
  2
ByBlock
 70
     0
  3

 72
    65
 73
     0
 40
0.0
  0
LTYPE
  5
14
330
5
100
AcDbSymbolTableRecord
100
AcDbLinetypeTableRecord
  2
ByLayer
 70
     0
  3

 72
    65
 73
     0
 40
0.0
  0
LTYPE
  5
15
330
5
100
AcDbSymbolTableRecord
100
AcDbLinetypeTableRecord
  2
CONTINUOUS
 70
     0
  3
Solid line
 72
    65
 73
     0
 40
0.0
  0
LTYPE
  5
27
330
5
100
AcDbSymbolTableRecord
100
AcDbLinetypeTableRecord
  2
CENTER
 70
     0
  3
____ _ ____ _ ____ _ ____ _ ____ _ ____ _ ____
 72
    65
 73
     4
 40
0.6
 49
0.375
 74
     0
 49
-0.075
 74
     0
 49
0.075
 74
     0
 49
-0.075
 74
     0
  0
LTYPE
  5
28
330
5
100
AcDbSymbolTableRecord
100
AcDbLinetypeTableRecord
  2
HIDDEN
 70
     0
  3
- - - - - - - - - - - - - - - - - - - -
 72
    65
 73
     2
 40
0.2
 49
0.1
 74
     0
 49
-0.1
 74
     0
  0
ENDTAB
  0
TABLE
  2
LAYER
  5
2
330
0
100
AcDbSymbolTable
 70
    18
  0
LAYER
  5
10
330
2
100
AcDbSymbolTableRecord
100
AcDbLayerTableRecord
  2
0
 70
     0
 62
     7
  6
CONTINUOUS
370
    -3
390
F
  0
LAYER
  5
2C
330
2
100
AcDbSymbolTableRecord
100
AcDbLayerTableRecord
  2
SK1
 70
     0
 62
     4
  6
CONTINUOUS
370
    -3
390
F
  0
LAYER
  5
2D
330
2
100
AcDbSymbolTableRecord
100
AcDbLayerTableRecord
  2
1
 70
     0
 62
     4
  6
CONTINUOUS
370
    -3
390
F
  0
LAYER
  5
2E
330
2
100
AcDbSymbolTableRecord
100
AcDbLayerTableRecord
  2
2
 70
     0
 62
     7
  6
CONTINUOUS
370
    -3
390
F
  0
LAYER
  5
2F
330
2
100
AcDbSymbolTableRecord
100
AcDbLayerTableRecord
  2
SK2
 70
     0
 62
     7
  6
CONTINUOUS
370
    -3
390
F
  0
LAYER
  5
30
330
2
100
AcDbSymbolTableRecord
100
AcDbLayerTableRecord
  2
3
 70
     0
 62
     1
  6
HIDDEN
370
    -3
390
F
  0
LAYER
  5
31
330
2
100
AcDbSymbolTableRecord
100
AcDbLayerTableRecord
  2
SK3
 70
     0
 62
     1
  6
HIDDEN
370
    -3
390
F
  0
LAYER
  5
32
330
2
100
AcDbSymbolTableRecord
100
AcDbLayerTableRecord
  2
4
 70
     0
 62
     2
  6
CENTER
370
    -3
390
F
  0
LAYER
  5
33
330
2
100
AcDbSymbolTableRecord
100
AcDbLayerTableRecord
  2
SK4
 70
     0
 62
     2
  6
CENTER
370
    -3
390
F
  0
LAYER
  5
36
330
2
100
AcDbSymbolTableRecord
100
AcDbLayerTableRecord
  2
6
 70
     0
 62
     5
  6
CONTINUOUS
370
    -3
390
F
  0
LAYER
  5
3379
330
2
100
AcDbSymbolTableRecord
100
AcDbLayerTableRecord
  2
Defpoints
 70
     0
 62
     7
  6
CONTINUOUS
290
     0
370
    -3
390
F
  0
LAYER
  5
4057
330
2
100
AcDbSymbolTableRecord
100
AcDbLayerTableRecord
  2
CUT
 70
     0
 62
     1
  6
CONTINUOUS
370
    -3
390
F
  0
LAYER
  5
4058
330
2
100
AcDbSymbolTableRecord
100
AcDbLayerTableRecord
  2
NOCUT
 70
     0
 62
     7
  6
CONTINUOUS
370
    -3
390
F
  0
ENDTAB
  0
TABLE
  2
STYLE
  5
3
330
0
100
AcDbSymbolTable
 70
     3
  0
STYLE
  5
11
330
3
100
AcDbSymbolTableRecord
100
AcDbTextStyleTableRecord
  2
STANDARD
 70
     0
 40
0.0
 41
0.8
 50
0.0
 71
     0
 42
0.2
  3
ISOCP
  4

  0
ENDTAB
  0
TABLE
  2
VIEW
  5
6
330
0
100
AcDbSymbolTable
 70
     0
  0
ENDTAB
  0
TABLE
  2
UCS
  5
7
330
0
100
AcDbSymbolTable
 70
     0
  0
ENDTAB
  0
TABLE
  2
APPID
  5
9
330
0
100
AcDbSymbolTable
 70
     1
  0
APPID
  5
12
330
9
100
AcDbSymbolTableRecord
100
AcDbRegAppTableRecord
  2
ACAD
 70
     0
  0
ENDTAB
  0
TABLE
  2
DIMSTYLE
  5
A
330
0
100
AcDbSymbolTable
 70
     2
100
AcDbDimStyleTable
 71
     2
340
4059
340
3A
  0
DIMSTYLE
105
3A
330
A
100
AcDbSymbolTableRecord
100
AcDbDimStyleTableRecord
  2
STANDARD
 70
     0
279
     2
340
11
  0
DIMSTYLE
105
4059
102
{ACAD_REACTORS
330
405B
330
405C
330
405D
330
41A9
330
41AA
330
769
330
74C
330
74A
330
443B
330
446E
102
}
330
A
100
AcDbSymbolTableRecord
100
AcDbDimStyleTableRecord
  2
ISO-25
 70
     0
 41
2.5
 42
0.625
 43
3.75
 44
1.25
 73
     0
 74
     0
 77
     1
 78
     8
140
2.5
141
2.5
143
0.03937007874016
147
0.625
171
     3
172
     1
271
     2
272
     2
274
     3
278
    44
283
     0
284
     8
340
11
  0
ENDTAB
  0
TABLE
  2
BLOCK_RECORD
  5
1
330
0
100
AcDbSymbolTable
 70
    80
  0
BLOCK_RECORD
  5
22
102
{ACAD_XDICTIONARY
360
43BE
102
}
330
1
100
AcDbSymbolTableRecord
100
AcDbBlockTableRecord
  2
*Model_Space
340
25
  0
BLOCK_RECORD
  5
1E
330
1
100
AcDbSymbolTableRecord
100
AcDbBlockTableRecord
  2
*Paper_Space
340
21
  0
BLOCK_RECORD
  5
337A
330
1
100
AcDbSymbolTableRecord
100
AcDbBlockTableRecord
  2
*D52
340
0
  0
BLOCK_RECORD
  5
3393
330
1
100
AcDbSymbolTableRecord
100
AcDbBlockTableRecord
  2
*D54
340
0
  0
BLOCK_RECORD
  5
33BB
330
1
100
AcDbSymbolTableRecord
100
AcDbBlockTableRecord
  2
*D57
340
0
  0
BLOCK_RECORD
  5
400C
330
1
100
AcDbSymbolTableRecord
100
AcDbBlockTableRecord
  2
nullp
340
0
310
2800000020000000200000000100080000000000000400000000000000000000000000000000000000000000000080000080000000808000800000008000800080800000C0C0C000C0DCC000F0CAA6000020400000206000002080000020A0000020C0000020E00000400000004020000040400000406000004080000040A0
310
000040C0000040E00000600000006020000060400000606000006080000060A0000060C0000060E00000800000008020000080400000806000008080000080A0000080C0000080E00000A0000000A0200000A0400000A0600000A0800000A0A00000A0C00000A0E00000C0000000C0200000C0400000C0600000C0800000C0
310
A00000C0C00000C0E00000E0000000E0200000E0400000E0600000E0800000E0A00000E0C00000E0E00040000000400020004000400040006000400080004000A0004000C0004000E00040200000402020004020400040206000402080004020A0004020C0004020E000404000004040200040404000404060004040800040
310
40A0004040C0004040E00040600000406020004060400040606000406080004060A0004060C0004060E00040800000408020004080400040806000408080004080A0004080C0004080E00040A0000040A0200040A0400040A0600040A0800040A0A00040A0C00040A0E00040C0000040C0200040C0400040C0600040C08000
310
40C0A00040C0C00040C0E00040E0000040E0200040E0400040E0600040E0800040E0A00040E0C00040E0E00080000000800020008000400080006000800080008000A0008000C0008000E00080200000802020008020400080206000802080008020A0008020C0008020E00080400000804020008040400080406000804080
310
008040A0008040C0008040E00080600000806020008060400080606000806080008060A0008060C0008060E00080800000808020008080400080806000808080008080A0008080C0008080E00080A0000080A0200080A0400080A0600080A0800080A0A00080A0C00080A0E00080C0000080C0200080C0400080C0600080C0
310
800080C0A00080C0C00080C0E00080E0000080E0200080E0400080E0600080E0800080E0A00080E0C00080E0E000C0000000C0002000C0004000C0006000C0008000C000A000C000C000C000E000C0200000C0202000C0204000C0206000C0208000C020A000C020C000C020E000C0400000C0402000C0404000C0406000C0
310
408000C040A000C040C000C040E000C0600000C0602000C0604000C0606000C0608000C060A000C060C000C060E000C0800000C0802000C0804000C0806000C0808000C080A000C080C000C080E000C0A00000C0A02000C0A04000C0A06000C0A08000C0A0A000C0A0C000C0A0E000C0C00000C0C02000C0C04000C0C06000
310
C0C08000C0C0A000F0FBFF00A4A0A000808080000000FF0000FF000000FFFF00FF000000FF00FF00FFFF0000FFFFFF0000000000000000000000000000000000000000000000000000000000000000000000000000000000000000000000FEFEFE00000000000000000000000000000000000000000000000000FEFEFEFEFE
310
FEFEFEFE000000000000000000000000000000000000000000FEFEFEFEFEFEFEFEFE0000FEFE000000000000000000000000000000000000FEFEFEFEFEFEFEFEFEFE00000000FEFE00000000000000000000000000000000FEFEFEFEFEFEFEFEFEFE000000000000FEFE00000000000000000000000000FEFEFEFEFEFEFEFE
310
FEFEFE0000000000000000FEFE00000000000000000000FEFEFEFEFEFEFEFEFEFEFEFE000000000000000000FE000000000000000000FEFEFEFEFEFEFEFEFEFEFEFEFE00000000000000000000FE00000000000000FEFEFEFEFEFEFEFEFEFEFEFEFEFE00000000000000000000FE000000000000FEFEFEFEFEFEFEFEFEFEFE
310
FEFEFEFE0000000000000000000000FE0000000000FEFEFEFEFEFEFEFEFEFEFEFEFEFEFE0000000000000000000000FE0000000000FEFEFEFEFEFEFEFEFEFEFEFEFEFEFE0000000000000000000000FE00000000FEFEFEFEFEFEFEFEFEFEFEFEFEFEFEFE000000000000000000000000FE000000FEFEFEFEFEFEFEFEFEFEFE
310
FEFEFEFEFE000000000000000000000000FE000000FEFEFEFEFEFEFEFEFEFEFEFEFEFEFEFE00000000000000000000000000FE0000FEFEFEFEFEFEFEFEFEFEFEFEFEFEFEFEFEFEFEFEFEFEFEFEFEFEFEFEFEFE000000FE000000000000000000000000FEFEFEFEFEFEFEFEFEFEFEFEFEFEFEFE000000FE0000000000000000
310
00000000FEFEFEFEFEFEFEFEFEFEFEFEFEFEFEFE000000FE000000000000000000000000FEFEFEFEFEFEFEFEFEFEFEFEFEFEFE00000000FE000000000000000000000000FEFEFEFEFEFEFEFEFEFEFEFEFEFEFE0000000000FE0000000000000000000000FEFEFEFEFEFEFEFEFEFEFEFEFEFEFE000000000000FE0000000000
310
0000000000FEFEFEFEFEFEFEFEFEFEFEFEFEFE00000000000000FE00000000000000000000FEFEFEFEFEFEFEFEFEFEFEFEFE000000000000000000FE000000000000000000FEFEFEFEFEFEFEFEFEFEFEFE0000000000000000000000FE0000000000000000FEFEFEFEFEFEFEFEFEFEFEFE000000000000000000000000FE00
310
000000000000FEFEFEFEFEFEFEFEFEFEFE00000000000000000000000000FE00000000000000FEFEFEFEFEFEFEFEFE00000000000000000000000000000000FEFEFEFEFE0000FEFEFEFEFEFEFEFE00000000000000000000000000000000000000000000FEFEFEFEFEFEFEFEFE000000000000000000000000000000000000
310
00000000000000FEFEFEFE000000000000000000000000000000000000000000000000000000000000000000000000000000000000000000
102
{BLKREFS
331
41A7
331
42FC
102
}
  0
BLOCK_RECORD
  5
4015
330
1
100
AcDbSymbolTableRecord
100
AcDbBlockTableRecord
  2
nullp1
340
0
310
2800000020000000200000000100080000000000000400000000000000000000000000000000000000000000000080000080000000808000800000008000800080800000C0C0C000C0DCC000F0CAA6000020400000206000002080000020A0000020C0000020E00000400000004020000040400000406000004080000040A0
310
000040C0000040E00000600000006020000060400000606000006080000060A0000060C0000060E00000800000008020000080400000806000008080000080A0000080C0000080E00000A0000000A0200000A0400000A0600000A0800000A0A00000A0C00000A0E00000C0000000C0200000C0400000C0600000C0800000C0
310
A00000C0C00000C0E00000E0000000E0200000E0400000E0600000E0800000E0A00000E0C00000E0E00040000000400020004000400040006000400080004000A0004000C0004000E00040200000402020004020400040206000402080004020A0004020C0004020E000404000004040200040404000404060004040800040
310
40A0004040C0004040E00040600000406020004060400040606000406080004060A0004060C0004060E00040800000408020004080400040806000408080004080A0004080C0004080E00040A0000040A0200040A0400040A0600040A0800040A0A00040A0C00040A0E00040C0000040C0200040C0400040C0600040C08000
310
40C0A00040C0C00040C0E00040E0000040E0200040E0400040E0600040E0800040E0A00040E0C00040E0E00080000000800020008000400080006000800080008000A0008000C0008000E00080200000802020008020400080206000802080008020A0008020C0008020E00080400000804020008040400080406000804080
310
008040A0008040C0008040E00080600000806020008060400080606000806080008060A0008060C0008060E00080800000808020008080400080806000808080008080A0008080C0008080E00080A0000080A0200080A0400080A0600080A0800080A0A00080A0C00080A0E00080C0000080C0200080C0400080C0600080C0
310
800080C0A00080C0C00080C0E00080E0000080E0200080E0400080E0600080E0800080E0A00080E0C00080E0E000C0000000C0002000C0004000C0006000C0008000C000A000C000C000C000E000C0200000C0202000C0204000C0206000C0208000C020A000C020C000C020E000C0400000C0402000C0404000C0406000C0
310
408000C040A000C040C000C040E000C0600000C0602000C0604000C0606000C0608000C060A000C060C000C060E000C0800000C0802000C0804000C0806000C0808000C080A000C080C000C080E000C0A00000C0A02000C0A04000C0A06000C0A08000C0A0A000C0A0C000C0A0E000C0C00000C0C02000C0C04000C0C06000
310
C0C08000C0C0A000F0FBFF00A4A0A000808080000000FF0000FF000000FFFF00FF000000FF00FF00FFFF0000FFFFFF00000000000000000000000000000000000000000000000000000000000000000000000000000000000000000000000000FE0000000000000000000000000000000000000000000000000000000000FE
310
FEFEFEFE000000000000000000000000000000000000000000FEFEFEFEFEFE0000FE0000FEFE000000000000000000000000000000000000FE0000000000000000FE00000000FEFE00000000000000000000000000000000FE0000000000000000FE000000000000FEFE00000000000000000000000000FE00000000000000
310
0000FE0000000000000000FEFE00000000000000000000FE00000000000000000000FE000000000000000000FE000000000000000000FE0000000000000000000000FE00000000000000000000FE0000000000000000FE0000000000000000000000FE00000000000000000000FE00000000000000FE000000000000000000
310
000000FE0000000000000000000000FE0000000000FE00000000000000000000000000FE0000000000000000000000FE0000000000FE00000000000000000000000000FE0000000000000000000000FE0000000000FE00000000000000000000000000FE000000000000000000000000FE00000000FE000000000000000000
310
00000000FE000000000000000000000000FE00000000FE00000000000000000000000000FE00000000000000000000000000FE0000FEFEFEFEFEFEFEFEFEFEFEFEFEFEFEFEFEFEFEFEFEFEFEFEFEFEFEFEFEFE000000FE00000000000000000000000000FE00000000000000000000000000FE000000FE0000000000000000
310
0000000000FE000000000000000000000000FE00000000FE00000000000000000000000000FE000000000000000000000000FE00000000FE00000000000000000000000000FE0000000000000000000000FE000000000000FE000000000000000000000000FE0000000000000000000000FE00000000000000FE0000000000
310
000000000000FE00000000000000000000FE0000000000000000FE0000000000000000000000FE00000000000000000000FE000000000000000000FE00000000000000000000FE000000000000000000FE0000000000000000000000FE000000000000000000FE000000000000000000FE000000000000000000000000FE00
310
00000000000000FE00000000000000FEFE00000000000000000000000000FE0000000000000000FE0000000000FEFE00000000000000000000000000000000FEFEFEFEFE000000FE000000FEFE0000000000000000000000000000000000000000000000FEFEFEFEFEFEFE0000000000000000000000000000000000000000
310
0000000000000000FE0000000000000000000000000000000000000000000000000000000000000000000000000000000000000000000000
102
{BLKREFS
331
41A8
331
42FD
102
}
  0
BLOCK_RECORD
  5
4300
330
1
100
AcDbSymbolTableRecord
100
AcDbBlockTableRecord
  2
*D67
340
0
  0
BLOCK_RECORD
  5
430C
330
1
100
AcDbSymbolTableRecord
100
AcDbBlockTableRecord
  2
*D68
340
0
  0
BLOCK_RECORD
  5
4318
330
1
100
AcDbSymbolTableRecord
100
AcDbBlockTableRecord
  2
*D69
340
0
  0
BLOCK_RECORD
  5
4324
330
1
100
AcDbSymbolTableRecord
100
AcDbBlockTableRecord
  2
*D70
340
0
  0
BLOCK_RECORD
  5
4330
330
1
100
AcDbSymbolTableRecord
100
AcDbBlockTableRecord
  2
*D71
340
0
  0
BLOCK_RECORD
  5
443C
330
1
100
AcDbSymbolTableRecord
100
AcDbBlockTableRecord
  2
*D78
340
0
  0
BLOCK_RECORD
  5
446F
330
1
100
AcDbSymbolTableRecord
100
AcDbBlockTableRecord
  2
*D79
340
0
  0
ENDTAB
  0
ENDSEC
  0
SECTION
  2
BLOCKS
  0
BLOCK
  5
23
330
22
100
AcDbEntity
  8
0
100
AcDbBlockBegin
  2
*Model_Space
 70
     0
 10
0.0
 20
0.0
 30
0.0
  3
*Model_Space
  1

  0
ENDBLK
  5
24
330
22
100
AcDbEntity
  8
0
100
AcDbBlockEnd
  0
BLOCK
  5
1F
330
1E
100
AcDbEntity
 67
     1
  8
0
100
AcDbBlockBegin
  2
*Paper_Space
 70
     0
 10
0.0
 20
0.0
 30
0.0
  3
*Paper_Space
  1

  0
ENDBLK
  5
20
330
1E
100
AcDbEntity
 67
     1
  8
0
100
AcDbBlockEnd
  0
BLOCK
  5
3385
330
337A
100
AcDbEntity
  8
0
100
AcDbBlockBegin
  2
*D52
 70
     1
 10
0.0
 20
0.0
 30
0.0
  3
*D52
  1

  0
LINE
  5
4485
330
337A
100
AcDbEntity
  8
SK2
 62
     0
370
    -2
100
AcDbLine
 10
-23.62499999999983
 20
-8.000000000000056
 30
0.0
 11
-34.11739721679982
 21
-8.000000000000055
 31
0.0
  0
LINE
  5
4486
330
337A
100
AcDbEntity
  8
SK2
 62
     0
370
    -2
100
AcDbLine
 10
-23.62499999999983
 20
7.999999999999943
 30
0.0
 11
-34.11739721679982
 21
7.999999999999946
 31
0.0
  0
LINE
  5
4487
330
337A
100
AcDbEntity
  8
SK2
 62
     0
370
    -2
100
AcDbLine
 10
-32.86739721679982
 20
-5.500000000000055
 30
0.0
 11
-32.86739721679982
 21
5.499999999999945
 31
0.0
  0
SOLID
  5
4488
330
337A
100
AcDbEntity
  8
SK2
 62
     0
100
AcDbTrace
 10
-33.28406388346648
 20
-5.500000000000055
 30
0.0
 11
-32.45073055013315
 21
-5.500000000000055
 31
0.0
 12
-32.86739721679982
 22
-8.000000000000055
 32
0.0
 13
-32.86739721679982
 23
-8.000000000000055
 33
0.0
  0
SOLID
  5
4489
330
337A
100
AcDbEntity
  8
SK2
 62
     0
100
AcDbTrace
 10
-33.28406388346648
 20
5.499999999999945
 30
0.0
 11
-32.45073055013315
 21
5.499999999999945
 31
0.0
 12
-32.86739721679982
 22
7.999999999999945
 32
0.0
 13
-32.86739721679982
 23
7.999999999999945
 33
0.0
  0
MTEXT
  5
448A
330
337A
100
AcDbEntity
  8
SK2
 62
     0
100
AcDbMText
 10
-34.74239721679982
 20
-0.020519641000021
 30
0.0
 40
2.5
 41
0.0
 71
     5
 72
     1
  1
M16
 11
0.0000000000000001
 21
1.0
 31
0.0
 73
     1
 44
1.0
1001
ACAD
1000
MTEXTBEGIN
1070
    73
1070
     1
1070
    44
1040
1.0
1070
    74
1070
     0
1000
MTEXTEND
  0
POINT
  5
448B
330
337A
100
AcDbEntity
  8
Defpoints
 62
     0
100
AcDbPoint
 10
-22.99999999999983
 20
-8.000000000000056
 30
0.0
  0
POINT
  5
448C
330
337A
100
AcDbEntity
  8
Defpoints
 62
     0
100
AcDbPoint
 10
-22.99999999999983
 20
7.999999999999943
 30
0.0
  0
POINT
  5
448D
330
337A
100
AcDbEntity
  8
Defpoints
 62
     0
100
AcDbPoint
 10
-32.86739721679982
 20
7.999999999999945
 30
0.0
  0
ENDBLK
  5
3386
330
337A
100
AcDbEntity
  8
0
100
AcDbBlockEnd
  0
BLOCK
  5
339E
330
3393
100
AcDbEntity
  8
0
100
AcDbBlockBegin
  2
*D54
 70
     1
 10
0.0
 20
0.0
 30
0.0
  3
*D54
  1

  0
LINE
  5
448E
330
3393
100
AcDbEntity
  8
2
 62
     0
370
    -2
100
AcDbLine
 10
0.0000000000001706
 20
17.25334398991811
 30
0.0
 11
0.0000000000001715
 21
32.52122441509175
 31
0.0
  0
LINE
  5
448F
330
3393
100
AcDbEntity
  8
2
 62
     0
370
    -2
100
AcDbLine
 10
45.0000000000002
 20
0.1249999999999432
 30
0.0
 11
45.0000000000002
 21
32.52122441509175
 31
0.0
  0
LINE
  5
4490
330
3393
100
AcDbEntity
  8
2
 62
     0
370
    -2
100
AcDbLine
 10
2.500000000000171
 20
31.27122441509175
 30
0.0
 11
42.5000000000002
 21
31.27122441509175
 31
0.0
  0
SOLID
  5
4491
330
3393
100
AcDbEntity
  8
2
 62
     0
100
AcDbTrace
 10
2.500000000000171
 20
31.68789108175842
 30
0.0
 11
2.500000000000171
 21
30.85455774842508
 31
0.0
 12
0.0000000000001714
 22
31.27122441509175
 32
0.0
 13
0.0000000000001714
 23
31.27122441509175
 33
0.0
  0
SOLID
  5
4492
330
3393
100
AcDbEntity
  8
2
 62
     0
100
AcDbTrace
 10
42.5000000000002
 20
31.68789108175842
 30
0.0
 11
42.5000000000002
 21
30.85455774842508
 31
0.0
 12
45.0000000000002
 22
31.27122441509175
 32
0.0
 13
45.0000000000002
 23
31.27122441509175
 33
0.0
  0
MTEXT
  5
4493
330
3393
100
AcDbEntity
  8
2
 62
     0
100
AcDbMText
 10
23.97763487752428
 20
33.14622441509175
 30
0.0
 40
2.5
 41
0.0
 71
     5
 72
     1
  1
45
 73
     1
 44
1.0
1001
ACAD
1000
MTEXTBEGIN
1070
    73
1070
     1
1070
    44
1040
1.0
1070
    74
1070
     0
1000
MTEXTEND
  0
POINT
  5
4494
330
3393
100
AcDbEntity
  8
Defpoints
 62
     0
100
AcDbPoint
 10
0.0000000000001705
 20
16.62834398991811
 30
0.0
  0
POINT
  5
4495
330
3393
100
AcDbEntity
  8
Defpoints
 62
     0
100
AcDbPoint
 10
45.0000000000002
 20
-0.5000000000000569
 30
0.0
  0
POINT
  5
4496
330
3393
100
AcDbEntity
  8
Defpoints
 62
     0
100
AcDbPoint
 10
45.0000000000002
 20
31.27122441509175
 30
0.0
  0
ENDBLK
  5
339F
330
3393
100
AcDbEntity
  8
0
100
AcDbBlockEnd
  0
BLOCK
  5
33C7
330
33BB
100
AcDbEntity
  8
0
100
AcDbBlockBegin
  2
*D57
 70
     1
 10
0.0
 20
0.0
 30
0.0
  3
*D57
  1

  0
LINE
  5
4497
330
33BB
100
AcDbEntity
  8
2
 62
     0
370
    -2
100
AcDbLine
 10
46.12500000000017
 20
-15.00000000000006
 30
0.0
 11
60.75500000000025
 21
-15.00000000000006
 31
0.0
  0
LINE
  5
4498
330
33BB
100
AcDbEntity
  8
2
 62
     0
370
    -2
100
AcDbLine
 10
43.18248905262163
 20
14.99999999999994
 30
0.0
 11
60.75500000000025
 21
14.99999999999993
 31
0.0
  0
LINE
  5
4499
330
33BB
100
AcDbEntity
  8
2
 62
     0
370
    -2
100
AcDbLine
 10
59.50500000000025
 20
-12.50000000000006
 30
0.0
 11
59.50500000000025
 21
12.49999999999994
 31
0.0
  0
SOLID
  5
449A
330
33BB
100
AcDbEntity
  8
2
 62
     0
100
AcDbTrace
 10
59.08833333333358
 20
-12.50000000000006
 30
0.0
 11
59.92166666666691
 21
-12.50000000000006
 31
0.0
 12
59.50500000000025
 22
-15.00000000000006
 32
0.0
 13
59.50500000000025
 23
-15.00000000000006
 33
0.0
  0
SOLID
  5
449B
330
33BB
100
AcDbEntity
  8
2
 62
     0
100
AcDbTrace
 10
59.08833333333358
 20
12.49999999999994
 30
0.0
 11
59.92166666666691
 21
12.49999999999994
 31
0.0
 12
59.50500000000025
 22
14.99999999999993
 32
0.0
 13
59.50500000000025
 23
14.99999999999993
 33
0.0
  0
MTEXT
  5
449C
330
33BB
100
AcDbEntity
  8
2
 62
     0
100
AcDbMText
 10
57.63000000000025
 20
-0.0000000000000566
 30
0.0
 40
2.5
 41
0.0
 71
     5
 72
     1
  1
%%c30
 11
0.0000000000000001
 21
1.0
 31
0.0
 73
     1
 44
1.0
1001
ACAD
1000
MTEXTBEGIN
1070
    73
1070
     1
1070
    44
1040
1.0
1070
    74
1070
     0
1000
MTEXTEND
  0
POINT
  5
449D
330
33BB
100
AcDbEntity
  8
Defpoints
 62
     0
100
AcDbPoint
 10
45.50000000000017
 20
-15.00000000000006
 30
0.0
  0
POINT
  5
449E
330
33BB
100
AcDbEntity
  8
Defpoints
 62
     0
100
AcDbPoint
 10
42.55748905262163
 20
14.99999999999994
 30
0.0
  0
POINT
  5
449F
330
33BB
100
AcDbEntity
  8
Defpoints
 62
     0
100
AcDbPoint
 10
59.50500000000025
 20
14.99999999999993
 30
0.0
  0
ENDBLK
  5
33C8
330
33BB
100
AcDbEntity
  8
0
100
AcDbBlockEnd
  0
BLOCK
  5
400D
330
400C
100
AcDbEntity
  8
0
100
AcDbBlockBegin
  2
nullp
 70
     0
 10
0.0
 20
0.0
 30
0.0
  3
nullp
  1

  0
HATCH
  5
400E
330
400C
100
AcDbEntity
  8
1
100
AcDbHatch
 10
0.0
 20
0.0
 30
0.0
210
0.0
220
0.0
230
1.0
  2
SOLID
 70
     1
 71
     0
 91
        2
 92
        7
 72
     1
 73
     1
 93
        3
 10
271.9386450411704
 20
389.8959796344513
 42
0.0
 10
274.8896170952829
 20
389.8959796344513
 42
0.4142135623730966
 10
271.9386450411704
 20
392.8469516885638
 42
0.0
 97
        0
 92
        7
 72
     1
 73
     1
 93
        3
 10
271.9386450411704
 20
386.9450075803387
 42
0.0
 10
271.9386450411704
 20
389.8959796344513
 42
0.0
 10
268.9876729870576
 20
389.8959796344513
 42
0.4142135623730966
 97
        0
 75
     0
 76
     1
 47
0.1190009775223266
 98
        2
 10
272.6831980999823
 20
390.8172041078278
 10
270.6591804393174
 20
388.1991827114049
  0
LWPOLYLINE
  5
400F
330
400C
100
AcDbEntity
  8
1
100
AcDbPolyline
 90
        3
 70
     1
 43
0.0
 10
271.9386450411702
 20
389.8959796344513
 10
268.9876729870576
 20
389.8959796344513
 42
0.4142135623730966
 10
271.9386450411702
 20
386.9450075803387
  0
LINE
  5
4010
330
400C
100
AcDbEntity
  8
1
100
AcDbLine
 10
271.9386450411702
 20
392.8469516885638
 30
0.0
 11
271.9386450411702
 21
386.9450075803387
 31
0.0
  0
LWPOLYLINE
  5
4011
330
400C
100
AcDbEntity
  8
1
100
AcDbPolyline
 90
        3
 70
     1
 43
0.0
 10
271.9386450411702
 20
392.8469516885638
 10
271.9386450411702
 20
389.8959796344513
 10
274.8896170952829
 20
389.8959796344513
 42
0.4142135623730966
  0
LINE
  5
4012
330
400C
100
AcDbEntity
  8
1
100
AcDbLine
 10
268.9876729870575
 20
389.8959796344513
 30
0.0
 11
274.8896170952828
 21
389.8959796344513
 31
0.0
  0
CIRCLE
  5
4013
330
400C
100
AcDbEntity
  8
1
100
AcDbCircle
 10
271.9386450411704
 20
389.8959796344513
 30
0.0
 40
2.950972054112601
  0
ENDBLK
  5
4014
330
400C
100
AcDbEntity
  8
0
100
AcDbBlockEnd
  0
BLOCK
  5
4016
330
4015
100
AcDbEntity
  8
0
100
AcDbBlockBegin
  2
nullp1
 70
     0
 10
0.0
 20
0.0
 30
0.0
  3
nullp1
  1

  0
LINE
  5
4017
330
4015
100
AcDbEntity
  8
1
100
AcDbLine
 10
442.6007601796219
 20
432.5849634019313
 30
0.0
 11
443.5282989193195
 21
432.5849634019313
 31
0.0
  0
CIRCLE
  5
4018
330
4015
100
AcDbEntity
  8
1
100
AcDbCircle
 10
443.0645295494706
 20
432.5849634019313
 30
0.0
 40
0.463769369848821
  0
LINE
  5
4019
330
4015
100
AcDbEntity
  8
1
100
AcDbLine
 10
443.0645295494706
 20
433.0487327717801
 30
0.0
 11
443.0645295494706
 21
432.1211940320826
 31
0.0
  0
ENDBLK
  5
401A
330
4015
100
AcDbEntity
  8
0
100
AcDbBlockEnd
  0
BLOCK
  5
430A
330
4300
100
AcDbEntity
  8
0
100
AcDbBlockBegin
  2
*D67
 70
     1
 10
0.0
 20
0.0
 30
0.0
  3
*D67
  1

  0
LINE
  5
433C
330
4300
100
AcDbEntity
  8
SK2
 62
     0
370
    -2
100
AcDbLine
 10
351.0581050894762
 20
450.9053413554559
 30
0.0
 11
343.2780670205764
 21
450.9053413554559
 31
0.0
  0
LINE
  5
433D
330
4300
100
AcDbEntity
  8
SK2
 62
     0
370
    -2
100
AcDbLine
 10
351.0581050894762
 20
460.9053413554558
 30
0.0
 11
343.2780670205764
 21
460.9053413554558
 31
0.0
  0
LINE
  5
433E
330
4300
100
AcDbEntity
  8
SK2
 62
     0
370
    -2
100
AcDbLine
 10
344.5280670205764
 20
453.4053413554558
 30
0.0
 11
344.5280670205764
 21
458.4053413554559
 31
0.0
  0
SOLID
  5
433F
330
4300
100
AcDbEntity
  8
SK2
 62
     0
100
AcDbTrace
 10
344.1114003539097
 20
453.4053413554558
 30
0.0
 11
344.944733687243
 21
453.4053413554558
 31
0.0
 12
344.5280670205764
 22
450.9053413554559
 32
0.0
 13
344.5280670205764
 23
450.9053413554559
 33
0.0
  0
SOLID
  5
4340
330
4300
100
AcDbEntity
  8
SK2
 62
     0
100
AcDbTrace
 10
344.1114003539097
 20
458.4053413554559
 30
0.0
 11
344.944733687243
 21
458.4053413554559
 31
0.0
 12
344.5280670205764
 22
460.9053413554558
 32
0.0
 13
344.5280670205764
 23
460.9053413554558
 33
0.0
  0
MTEXT
  5
4341
330
4300
100
AcDbEntity
  8
SK2
 62
     0
100
AcDbMText
 10
342.6530670205762
 20
455.8519218702559
 30
0.0
 40
2.5
 41
0.0
 71
     5
 72
     1
  1
M10
 11
0.0000000000000001
 21
1.0
 31
0.0
 73
     1
 44
1.0
1001
ACAD
1000
MTEXTBEGIN
1070
    73
1070
     1
1070
    44
1040
1.0
1070
    74
1070
     0
1000
MTEXTEND
  0
POINT
  5
4342
330
4300
100
AcDbEntity
  8
Defpoints
 62
     0
100
AcDbPoint
 10
351.6831050894762
 20
450.9053413554559
 30
0.0
  0
POINT
  5
4343
330
4300
100
AcDbEntity
  8
Defpoints
 62
     0
100
AcDbPoint
 10
351.6831050894762
 20
460.9053413554558
 30
0.0
  0
POINT
  5
4344
330
4300
100
AcDbEntity
  8
Defpoints
 62
     0
100
AcDbPoint
 10
344.5280670205764
 20
460.9053413554558
 30
0.0
  0
ENDBLK
  5
430B
330
4300
100
AcDbEntity
  8
0
100
AcDbBlockEnd
  0
BLOCK
  5
4316
330
430C
100
AcDbEntity
  8
0
100
AcDbBlockBegin
  2
*D68
 70
     1
 10
0.0
 20
0.0
 30
0.0
  3
*D68
  1

  0
LINE
  5
4345
330
430C
100
AcDbEntity
  8
2
 62
     0
370
    -2
100
AcDbLine
 10
370.9831050894762
 20
466.7763838108661
 30
0.0
 11
370.9831050894762
 21
478.4248623312866
 31
0.0
  0
LINE
  5
4346
330
430C
100
AcDbEntity
  8
2
 62
     0
370
    -2
100
AcDbLine
 10
405.9831050894762
 20
456.0303413554558
 30
0.0
 11
405.9831050894762
 21
478.4248623312866
 31
0.0
  0
LINE
  5
4347
330
430C
100
AcDbEntity
  8
2
 62
     0
370
    -2
100
AcDbLine
 10
373.4831050894762
 20
477.1748623312866
 30
0.0
 11
403.4831050894762
 21
477.1748623312866
 31
0.0
  0
SOLID
  5
4348
330
430C
100
AcDbEntity
  8
2
 62
     0
100
AcDbTrace
 10
373.4831050894762
 20
477.5915289979534
 30
0.0
 11
373.4831050894762
 21
476.75819566462
 31
0.0
 12
370.9831050894762
 22
477.1748623312866
 32
0.0
 13
370.9831050894762
 23
477.1748623312866
 33
0.0
  0
SOLID
  5
4349
330
430C
100
AcDbEntity
  8
2
 62
     0
100
AcDbTrace
 10
403.4831050894762
 20
477.5915289979534
 30
0.0
 11
403.4831050894762
 21
476.75819566462
 31
0.0
 12
405.9831050894762
 22
477.1748623312866
 32
0.0
 13
405.9831050894762
 23
477.1748623312866
 33
0.0
  0
MTEXT
  5
434A
330
430C
100
AcDbEntity
  8
2
 62
     0
100
AcDbMText
 10
388.4138621438763
 20
479.0498623312867
 30
0.0
 40
2.5
 41
0.0
 71
     5
 72
     1
  1
35
 73
     1
 44
1.0
1001
ACAD
1000
MTEXTBEGIN
1070
    73
1070
     1
1070
    44
1040
1.0
1070
    74
1070
     0
1000
MTEXTEND
  0
POINT
  5
434B
330
430C
100
AcDbEntity
  8
Defpoints
 62
     0
100
AcDbPoint
 10
370.9831050894762
 20
466.1513838108661
 30
0.0
  0
POINT
  5
434C
330
430C
100
AcDbEntity
  8
Defpoints
 62
     0
100
AcDbPoint
 10
405.9831050894762
 20
455.4053413554559
 30
0.0
  0
POINT
  5
434D
330
430C
100
AcDbEntity
  8
Defpoints
 62
     0
100
AcDbPoint
 10
405.9831050894762
 20
477.1748623312866
 30
0.0
  0
ENDBLK
  5
4317
330
430C
100
AcDbEntity
  8
0
100
AcDbBlockEnd
  0
BLOCK
  5
4322
330
4318
100
AcDbEntity
  8
0
100
AcDbBlockBegin
  2
*D69
 70
     1
 10
0.0
 20
0.0
 30
0.0
  3
*D69
  1

  0
LINE
  5
434E
330
4318
100
AcDbEntity
  8
2
 62
     0
370
    -2
100
AcDbLine
 10
407.1081050894762
 20
445.9053413554559
 30
0.0
 11
419.1002679421508
 21
445.9053413554559
 31
0.0
  0
LINE
  5
434F
330
4318
100
AcDbEntity
  8
2
 62
     0
370
    -2
100
AcDbLine
 10
402.336070671564
 20
465.9053413554558
 30
0.0
 11
419.1002679421508
 21
465.9053413554558
 31
0.0
  0
LINE
  5
4350
330
4318
100
AcDbEntity
  8
2
 62
     0
370
    -2
100
AcDbLine
 10
417.8502679421509
 20
448.4053413554558
 30
0.0
 11
417.8502679421509
 21
463.4053413554559
 31
0.0
  0
SOLID
  5
4351
330
4318
100
AcDbEntity
  8
2
 62
     0
100
AcDbTrace
 10
417.4336012754841
 20
448.4053413554558
 30
0.0
 11
418.2669346088175
 21
448.4053413554558
 31
0.0
 12
417.8502679421509
 22
445.9053413554559
 32
0.0
 13
417.8502679421509
 23
445.9053413554559
 33
0.0
  0
SOLID
  5
4352
330
4318
100
AcDbEntity
  8
2
 62
     0
100
AcDbTrace
 10
417.4336012754841
 20
463.4053413554559
 30
0.0
 11
418.2669346088175
 21
463.4053413554559
 31
0.0
 12
417.8502679421509
 22
465.9053413554558
 32
0.0
 13
417.8502679421509
 23
465.9053413554558
 33
0.0
  0
MTEXT
  5
4353
330
4318
100
AcDbEntity
  8
2
 62
     0
100
AcDbMText
 10
415.9750218791586
 20
455.977777265858
 30
0.0
 40
2.5
 41
0.0
 71
     5
 72
     1
  1
%%c20
 11
0.0000000000000001
 21
1.0
 31
0.0
 73
     1
 44
1.0
1001
ACAD
1000
MTEXTBEGIN
1070
    73
1070
     1
1070
    44
1040
1.0
1070
    74
1070
     0
1000
MTEXTEND
  0
POINT
  5
4354
330
4318
100
AcDbEntity
  8
Defpoints
 62
     0
100
AcDbPoint
 10
406.4831050894762
 20
445.9053413554559
 30
0.0
  0
POINT
  5
4355
330
4318
100
AcDbEntity
  8
Defpoints
 62
     0
100
AcDbPoint
 10
401.711070671564
 20
465.9053413554558
 30
0.0
  0
POINT
  5
4356
330
4318
100
AcDbEntity
  8
Defpoints
 62
     0
100
AcDbPoint
 10
417.8502679421509
 20
465.9053413554558
 30
0.0
  0
ENDBLK
  5
4323
330
4318
100
AcDbEntity
  8
0
100
AcDbBlockEnd
  0
BLOCK
  5
432E
330
4324
100
AcDbEntity
  8
0
100
AcDbBlockBegin
  2
*D70
 70
     1
 10
0.0
 20
0.0
 30
0.0
  3
*D70
  1

  0
LINE
  5
4357
330
4324
100
AcDbEntity
  8
0
 62
     0
370
    -2
100
AcDbLine
 10
407.853997800679
 20
451.1553413554558
 30
0.0
 11
414.091436589506
 21
451.1553413554558
 31
0.0
  0
LINE
  5
4358
330
4324
100
AcDbEntity
  8
0
 62
     0
370
    -2
100
AcDbLine
 10
407.853997800679
 20
460.6553413554559
 30
0.0
 11
414.091436589506
 21
460.6553413554559
 31
0.0
  0
LINE
  5
4359
330
4324
100
AcDbEntity
  8
0
 62
     0
370
    -2
100
AcDbLine
 10
412.841436589506
 20
453.6553413554559
 30
0.0
 11
412.841436589506
 21
458.1553413554559
 31
0.0
  0
SOLID
  5
435A
330
4324
100
AcDbEntity
  8
0
 62
     0
100
AcDbTrace
 10
412.4247699228393
 20
453.6553413554559
 30
0.0
 11
413.2581032561727
 21
453.6553413554559
 31
0.0
 12
412.841436589506
 22
451.1553413554558
 32
0.0
 13
412.841436589506
 23
451.1553413554558
 33
0.0
  0
SOLID
  5
435B
330
4324
100
AcDbEntity
  8
0
 62
     0
100
AcDbTrace
 10
412.4247699228393
 20
458.1553413554559
 30
0.0
 11
413.2581032561727
 21
458.1553413554559
 31
0.0
 12
412.841436589506
 22
460.6553413554559
 32
0.0
 13
412.841436589506
 23
460.6553413554559
 33
0.0
  0
MTEXT
  5
435C
330
4324
100
AcDbEntity
  8
0
 62
     0
100
AcDbMText
 10
410.7795407882805
 20
455.9053413554559
 30
0.0
 40
2.5
 41
0.0
 71
     5
 72
     1
  1
%%c9,5
 11
0.0000000000000001
 21
1.0
 31
0.0
 73
     1
 44
1.0
1001
ACAD
1000
MTEXTBEGIN
1070
    73
1070
     1
1070
    44
1040
1.0
1070
    74
1070
     0
1000
MTEXTEND
  0
POINT
  5
435D
330
4324
100
AcDbEntity
  8
Defpoints
 62
     0
100
AcDbPoint
 10
407.2289978006789
 20
451.1553413554558
 30
0.0
  0
POINT
  5
435E
330
4324
100
AcDbEntity
  8
Defpoints
 62
     0
100
AcDbPoint
 10
407.2289978006789
 20
460.6553413554559
 30
0.0
  0
POINT
  5
435F
330
4324
100
AcDbEntity
  8
Defpoints
 62
     0
100
AcDbPoint
 10
412.841436589506
 20
460.6553413554559
 30
0.0
  0
ENDBLK
  5
432F
330
4324
100
AcDbEntity
  8
0
100
AcDbBlockEnd
  0
BLOCK
  5
433A
330
4330
100
AcDbEntity
  8
0
100
AcDbBlockBegin
  2
*D71
 70
     1
 10
0.0
 20
0.0
 30
0.0
  3
*D71
  1

  0
LINE
  5
4360
330
4330
100
AcDbEntity
  8
2
 62
     0
370
    -2
100
AcDbLine
 10
405.9831050894762
 20
466.5303413554559
 30
0.0
 11
405.9831050894762
 21
473.5940506671247
 31
0.0
  0
LINE
  5
4361
330
4330
100
AcDbEntity
  8
2
 62
     0
370
    -2
100
AcDbLine
 10
385.9831050894762
 20
466.5303413554559
 30
0.0
 11
385.9831050894762
 21
473.5940506671247
 31
0.0
  0
LINE
  5
4362
330
4330
100
AcDbEntity
  8
2
 62
     0
370
    -2
100
AcDbLine
 10
403.4831050894762
 20
472.3440506671247
 30
0.0
 11
388.4831050894762
 21
472.3440506671247
 31
0.0
  0
SOLID
  5
4363
330
4330
100
AcDbEntity
  8
2
 62
     0
100
AcDbTrace
 10
403.4831050894762
 20
472.7607173337914
 30
0.0
 11
403.4831050894762
 21
471.927384000458
 31
0.0
 12
405.9831050894762
 22
472.3440506671247
 32
0.0
 13
405.9831050894762
 23
472.3440506671247
 33
0.0
  0
SOLID
  5
4364
330
4330
100
AcDbEntity
  8
2
 62
     0
100
AcDbTrace
 10
388.4831050894762
 20
472.7607173337914
 30
0.0
 11
388.4831050894762
 21
471.927384000458
 31
0.0
 12
385.9831050894762
 22
472.3440506671247
 32
0.0
 13
385.9831050894762
 23
472.3440506671247
 33
0.0
  0
MTEXT
  5
4365
330
4330
100
AcDbEntity
  8
2
 62
     0
100
AcDbMText
 10
395.9831050894763
 20
474.2192967301169
 30
0.0
 40
2.5
 41
0.0
 71
     5
 72
     1
  1
20
 73
     1
 44
1.0
1001
ACAD
1000
MTEXTBEGIN
1070
    73
1070
     1
1070
    44
1040
1.0
1070
    74
1070
     0
1000
MTEXTEND
  0
POINT
  5
4366
330
4330
100
AcDbEntity
  8
Defpoints
 62
     0
100
AcDbPoint
 10
405.9831050894762
 20
465.9053413554558
 30
0.0
  0
POINT
  5
4367
330
4330
100
AcDbEntity
  8
Defpoints
 62
     0
100
AcDbPoint
 10
385.9831050894762
 20
465.9053413554558
 30
0.0
  0
POINT
  5
4368
330
4330
100
AcDbEntity
  8
Defpoints
 62
     0
100
AcDbPoint
 10
385.9831050894762
 20
472.3440506671247
 30
0.0
  0
ENDBLK
  5
433B
330
4330
100
AcDbEntity
  8
0
100
AcDbBlockEnd
  0
BLOCK
  5
4446
330
443C
100
AcDbEntity
  8
0
100
AcDbBlockBegin
  2
*D78
 70
     1
 10
0.0
 20
0.0
 30
0.0
  3
*D78
  1

  0
LINE
  5
44C5
330
443C
100
AcDbEntity
  8
2
 62
     0
370
    -2
100
AcDbLine
 10
48.61216597163485
 20
-4.500000000000056
 30
0.0
 11
56.35216035297464
 21
-4.500000000000059
 31
0.0
  0
LINE
  5
44C6
330
443C
100
AcDbEntity
  8
2
 62
     0
370
    -2
100
AcDbLine
 10
48.61216597163485
 20
4.499999999999943
 30
0.0
 11
56.35216035297464
 21
4.49999999999994
 31
0.0
  0
LINE
  5
44C7
330
443C
100
AcDbEntity
  8
2
 62
     0
370
    -2
100
AcDbLine
 10
55.10216035297464
 20
-2.000000000000058
 30
0.0
 11
55.10216035297464
 21
1.999999999999941
 31
0.0
  0
SOLID
  5
44C8
330
443C
100
AcDbEntity
  8
2
 62
     0
100
AcDbTrace
 10
54.68549368630797
 20
-2.000000000000058
 30
0.0
 11
55.5188270196413
 21
-2.000000000000058
 31
0.0
 12
55.10216035297464
 22
-4.500000000000058
 32
0.0
 13
55.10216035297464
 23
-4.500000000000058
 33
0.0
  0
SOLID
  5
44C9
330
443C
100
AcDbEntity
  8
2
 62
     0
100
AcDbTrace
 10
54.68549368630797
 20
1.999999999999941
 30
0.0
 11
55.5188270196413
 21
1.999999999999941
 31
0.0
 12
55.10216035297464
 22
4.499999999999941
 32
0.0
 13
55.10216035297464
 23
4.499999999999941
 33
0.0
  0
MTEXT
  5
44CA
330
443C
100
AcDbEntity
  8
2
 62
     0
100
AcDbMText
 10
53.22716035297464
 20
-0.0000000000000493
 30
0.0
 40
2.5
 41
0.0
 71
     5
 72
     1
  1
%%c9
 11
0.0000000000000001
 21
1.0
 31
0.0
 73
     1
 44
1.0
1001
ACAD
1000
MTEXTBEGIN
1070
    73
1070
     1
1070
    44
1040
1.0
1070
    74
1070
     0
1000
MTEXTEND
  0
POINT
  5
44CB
330
443C
100
AcDbEntity
  8
Defpoints
 62
     0
100
AcDbPoint
 10
47.98716597163485
 20
-4.500000000000056
 30
0.0
  0
POINT
  5
44CC
330
443C
100
AcDbEntity
  8
Defpoints
 62
     0
100
AcDbPoint
 10
47.98716597163485
 20
4.499999999999943
 30
0.0
  0
POINT
  5
44CD
330
443C
100
AcDbEntity
  8
Defpoints
 62
     0
100
AcDbPoint
 10
55.10216035297464
 20
4.499999999999941
 30
0.0
  0
ENDBLK
  5
4447
330
443C
100
AcDbEntity
  8
0
100
AcDbBlockEnd
  0
BLOCK
  5
4479
330
446F
100
AcDbEntity
  8
0
100
AcDbBlockBegin
  2
*D79
 70
     1
 10
0.0
 20
0.0
 30
0.0
  3
*D79
  1

  0
LINE
  5
44BC
330
446F
100
AcDbEntity
  8
2
 62
     0
370
    -2
100
AcDbLine
 10
45.0000000000002
 20
15.62499999999994
 30
0.0
 11
45.0000000000002
 21
24.17467497087557
 31
0.0
  0
LINE
  5
44BD
330
446F
100
AcDbEntity
  8
2
 62
     0
370
    -2
100
AcDbLine
 10
15.0000000000002
 20
15.62499999999994
 30
0.0
 11
15.0000000000002
 21
24.17467497087557
 31
0.0
  0
LINE
  5
44BE
330
446F
100
AcDbEntity
  8
2
 62
     0
370
    -2
100
AcDbLine
 10
42.5000000000002
 20
22.92467497087557
 30
0.0
 11
17.5000000000002
 21
22.92467497087557
 31
0.0
  0
SOLID
  5
44BF
330
446F
100
AcDbEntity
  8
2
 62
     0
100
AcDbTrace
 10
42.5000000000002
 20
23.34134163754224
 30
0.0
 11
42.5000000000002
 21
22.50800830420891
 31
0.0
 12
45.0000000000002
 22
22.92467497087557
 32
0.0
 13
45.0000000000002
 23
22.92467497087557
 33
0.0
  0
SOLID
  5
44C0
330
446F
100
AcDbEntity
  8
2
 62
     0
100
AcDbTrace
 10
17.5000000000002
 20
23.34134163754224
 30
0.0
 11
17.5000000000002
 21
22.50800830420891
 31
0.0
 12
15.0000000000002
 22
22.92467497087557
 32
0.0
 13
15.0000000000002
 23
22.92467497087557
 33
0.0
  0
MTEXT
  5
44C1
330
446F
100
AcDbEntity
  8
2
 62
     0
100
AcDbMText
 10
30.0000000000002
 20
24.79967497087557
 30
0.0
 40
2.5
 41
0.0
 71
     5
 72
     1
  1
30
 73
     1
 44
1.0
1001
ACAD
1000
MTEXTBEGIN
1070
    73
1070
     1
1070
    44
1040
1.0
1070
    74
1070
     0
1000
MTEXTEND
  0
POINT
  5
44C2
330
446F
100
AcDbEntity
  8
Defpoints
 62
     0
100
AcDbPoint
 10
45.0000000000002
 20
14.99999999999994
 30
0.0
  0
POINT
  5
44C3
330
446F
100
AcDbEntity
  8
Defpoints
 62
     0
100
AcDbPoint
 10
15.0000000000002
 20
14.99999999999994
 30
0.0
  0
POINT
  5
44C4
330
446F
100
AcDbEntity
  8
Defpoints
 62
     0
100
AcDbPoint
 10
15.0000000000002
 20
22.92467497087557
 30
0.0
  0
ENDBLK
  5
447A
330
446F
100
AcDbEntity
  8
0
100
AcDbBlockEnd
  0
ENDSEC
  0
SECTION
  2
ENTITIES
  0
DIMENSION
  5
74A
330
22
100
AcDbEntity
  8
SK2
100
AcDbDimension
  2
*D52
 10
-32.86739721679982
 20
7.999999999999945
 30
0.0
 11
-32.86739721679982
 21
-0.0205196410000213
 31
0.0
 70
   160
  1
M<>
 71
     5
 42
16.0
  3
ISO-25
100
AcDbAlignedDimension
 13
-22.99999999999983
 23
-8.000000000000056
 33
0.0
 14
-22.99999999999983
 24
7.999999999999943
 34
0.0
 50
90.0
100
AcDbRotatedDimension
  0
DIMENSION
  5
74C
330
22
100
AcDbEntity
  8
2
100
AcDbDimension
  2
*D54
 10
45.0000000000002
 20
31.27122441509175
 30
0.0
 11
23.97763487752428
 21
31.27122441509175
 31
0.0
 70
   160
  1
<>
 71
     5
 42
45.00000000000002
  3
ISO-25
100
AcDbAlignedDimension
 13
0.0000000000001705
 23
16.62834398991811
 33
0.0
 14
45.0000000000002
 24
-0.5000000000000569
 34
0.0
100
AcDbRotatedDimension
  0
DIMENSION
  5
769
330
22
100
AcDbEntity
  8
2
100
AcDbDimension
  2
*D57
 10
59.50500000000025
 20
14.99999999999993
 30
0.0
 11
59.50500000000025
 21
-0.0000000000000568
 31
0.0
 70
   160
  1
%%c<>
 71
     5
 42
30.0
  3
ISO-25
100
AcDbAlignedDimension
 13
45.50000000000017
 23
-15.00000000000006
 33
0.0
 14
42.55748905262163
 24
14.99999999999994
 34
0.0
 50
90.0
100
AcDbRotatedDimension
  0
TEXT
  5
779
330
22
100
AcDbEntity
  8
6
100
AcDbText
 10
-0.1633248529608195
 20
-35.51900387811065
 30
0.0
 40
3.5
  1
15C1G030045X8R01
 41
1.199999999999999
 72
     1
 11
23.14667514703916
 21
-35.51900387811065
 31
0.0
100
AcDbText
  0
TEXT
  5
7CA
330
22
100
AcDbEntity
  8
6
100
AcDbText
 10
52.65261840697286
 20
25.88601468893114
 30
0.0
 40
3.0
  1
SHLT110408N-PH1
 41
1.199999999999999
100
AcDbText
  0
LWPOLYLINE
  5
1011
330
22
100
AcDbEntity
  8
CUT
100
AcDbPolyline
 90
      239
 70
     1
 43
0.0
 10
45.00000000000016
 20
-4.421309000000064
 10
44.99964908100017
 20
-4.400707335600031
 10
44.99874300000016
 20
-4.380122000000028
 10
44.99729272530018
 20
-4.359780163400046
 10
44.99528500000017
 20
-4.339486000000022
 10
44.99273468410018
 20
-4.31940221870002
 10
44.98962700000018
 20
-4.299397000000055
 10
44.98597681890018
 20
-4.279570034100061
 10
44.98176900000018
 20
-4.259854000000018
 10
44.97699019090018
 20
-4.240220255200028
 10
44.97165600000016
 20
-4.22073000000006
 10
44.96573615180017
 20
-4.201273695900056
 10
44.95927600000015
 20
-4.181990000000041
 10
44.95227788820019
 20
-4.162864975000047
 10
44.94475800000017
 20
-4.143939000000045
 10
44.93675331050016
 20
-4.125298402100042
 10
44.92823500000016
 20
-4.106887000000028
 10
44.91923317820019
 20
-4.088780740900062
 10
44.90972900000016
 20
-4.070933000000025
 10
44.89965442400017
 20
-4.053220803000044
 10
44.88909700000016
 20
-4.035792000000071
 10
44.87803311380017
 20
-4.018595365600049
 10
44.86651000000015
 20
-4.00170300000002
 10
44.85455678880017
 20
-3.985154243700037
 10
44.84215900000018
 20
-3.968936000000041
 10
44.82936245600015
 20
-3.953113008500054
 10
44.81613900000016
 20
-3.937645000000031
 10
44.80238396870018
 20
-3.922414678000052
 10
44.78822500000015
 20
-3.907559000000048
 10
44.77360119110016
 20
-3.893005856300078
 10
44.75860000000014
 20
-3.87884200000002
 10
44.74323250280017
 20
-3.865076112900055
 10
44.72750600000014
 20
-3.851722000000052
 10
44.71147954670016
 20
-3.838833630200042
 10
44.69511600000018
 20
-3.826376000000038
 10
44.67828901120017
 20
-3.814256113300075
 10
44.66115100000016
 20
-3.802580000000034
 10
44.64360503200018
 20
-3.791276206100064
 10
44.62577500000017
 20
-3.780426000000034
 10
44.60765486830019
 20
-3.770025541900054
 10
44.58927200000016
 20
-3.76009700000003
 10
44.57070182590015
 20
-3.75068377680003
 10
44.55189300000014
 20
-3.741757000000063
 10
44.53272419540016
 20
-3.733262635800087
 10
44.51334400000016
 20
-3.725262000000043
 10
44.49362941690018
 20
-3.717699571900027
 10
44.47373100000018
 20
-3.710635000000024
 10
44.45363570450015
 20
-3.704064125700028
 10
44.43338000000017
 20
-3.69800600000002
 10
44.41306253070016
 20
-3.692493278500023
 10
44.39261000000016
 20
-3.687505000000044
 10
44.37205146990018
 20
-3.683047911000016
 10
44.35138600000016
 20
-3.679116000000021
 10
44.33052116340016
 20
-3.675689765000072
 10
44.30957700000016
 20
-3.672788000000025
 10
44.28840697450019
 20
-3.670391438300043
 10
44.26718400000019
 20
-3.66851900000006
 10
44.24570819520016
 20
-3.667154007300041
 10
44.22420600000018
 20
-3.666312000000061
 10
41.14546200000015
 20
-3.598862000000053
 10
37.72463500000018
 20
-3.537801000000058
 10
34.30380700000015
 20
-3.49209200000007
 10
34.28231341770018
 20
-3.492202702300062
 10
34.26082900000015
 20
-3.492863000000056
 10
34.23961302860019
 20
-3.494064763700009
 10
34.21843600000017
 20
-3.495821000000034
 10
34.19749678860018
 20
-3.498116772300022
 10
34.17662600000017
 20
-3.500969000000054
 10
34.1559637922002
 20
-3.504359014800058
 10
34.13540100000015
 20
-3.508307000000058
 10
34.11494991810017
 20
-3.512817299700031
 10
34.09463000000017
 20
-3.517886000000032
 10
34.07437387610017
 20
-3.52353124700005
 10
34.05427800000015
 20
-3.529723000000046
 10
34.03437804660018
 20
-3.536442986200029
 10
34.01466500000018
 20
-3.543693000000018
 10
33.99528121670016
 20
-3.551418168100042
 10
33.97611500000016
 20
-3.559668000000044
 10
33.9573009298002
 20
-3.56838974750002
 10
33.93873500000015
 20
-3.577628000000061
 10
33.92034613750016
 20
-3.587421274100051
 10
33.90223200000017
 20
-3.597714000000053
 10
33.88439460940018
 20
-3.60849756890002
 10
33.86685500000016
 20
-3.619759000000044
 10
33.84970908810018
 20
-3.631435068300049
 10
33.83289000000016
 20
-3.64357700000005
 10
33.81651795050018
 20
-3.65610210690005
 10
33.80050000000017
 20
-3.669077000000072
 10
33.78476457470018
 20
-3.68256411530001
 10
33.76940600000015
 20
-3.696479000000067
 10
33.75439629230019
 20
-3.710839895400056
 10
33.73978200000016
 20
-3.725603000000035
 10
33.72561419330017
 20
-3.740715830600038
 10
33.71186800000018
 20
-3.756213000000059
 10
33.69863578190015
 20
-3.77199489350005
 10
33.68584800000017
 20
-3.788139000000057
 10
33.67344245090019
 20
-3.80472943080008
 10
33.66149800000016
 20
-3.821655000000021
 10
33.64996791630017
 20
-3.838973765400055
 10
33.63891200000015
 20
-3.856599000000016
 10
33.62834821720017
 20
-3.874503122500016
 10
33.61828100000017
 20
-3.89269100000007
 10
33.60877134970016
 20
-3.911058377300037
 10
33.59977600000016
 20
-3.929683000000068
 10
33.59125252280018
 20
-3.948661063800045
 10
33.58325300000016
 20
-3.967866000000071
 10
33.57572951290015
 20
-3.987401534800028
 10
33.56873600000014
 20
-4.007133000000067
 10
33.56227251730016
 20
-4.027062453300061
 10
33.55635600000017
 20
-4.047161000000016
 10
33.55101973710018
 20
-4.067327998200028
 10
33.54624400000015
 20
-4.087635000000034
 10
33.54203455690018
 20
-4.108057635900024
 10
33.53838600000015
 20
-4.128588000000036
 10
33.53527724140017
 20
-4.149329959900057
 10
33.53272800000016
 20
-4.17014800000004
 10
33.53071971410017
 20
-4.191208474000063
 10
33.52927000000017
 20
-4.212315000000046
 10
33.52836388660018
 20
-4.233693672300034
 10
33.52801300000016
 20
-4.255088000000057
 10
33.52801300000016
 20
-14.17923300000007
 10
33.52836392160018
 20
-14.20077080150008
 10
33.52927000000017
 20
-14.22229300000003
 10
33.53072005090016
 20
-14.24355531930007
 10
33.53272800000016
 20
-14.26477200000005
 10
33.53527759880018
 20
-14.28575968830006
 10
33.53838600000015
 20
-14.30667200000005
 10
33.54203560190015
 20
-14.32738528400006
 10
33.54624500000017
 20
-14.34799200000003
 10
33.55102161270017
 20
-14.36849610440004
 10
33.55635700000016
 20
-14.38886200000002
 10
33.56227412190018
 20
-14.40917397240008
 10
33.56873700000017
 20
-14.42931900000002
 10
33.57573169790018
 20
-14.44927609140006
 10
33.58325500000015
 20
-14.46904000000006
 10
33.59125529230019
 20
-14.48848221100002
 10
33.59977800000016
 20
-14.50770100000005
 10
33.60877430360017
 20
-14.52657468020004
 10
33.61828400000016
 20
-14.54519500000003
 10
33.62835212200017
 20
-14.56364460970007
 10
33.63891600000016
 20
-14.58181500000006
 10
33.64997260950017
 20
-14.59971373810003
 10
33.66150300000018
 20
-14.61731100000003
 10
33.67344787790017
 20
-14.63451931640003
 10
33.68585400000015
 20
-14.65139800000003
 10
33.6986413491002
 20
-14.66783268790004
 10
33.71187400000017
 20
-14.68391100000002
 10
33.72561985840017
 20
-14.69970967160003
 10
33.73978900000017
 20
-14.71513000000004
 10
33.75440216200016
 20
-14.73020299980004
 10
33.76941300000019
 20
-14.74488000000002
 10
33.78476995660018
 20
-14.75911130580005
 10
33.80050700000018
 20
-14.77292100000005
 10
33.81652284310016
 20
-14.78621643990004
 10
33.83289700000015
 20
-14.79906800000003
 10
33.84971356800017
 20
-14.81153714900006
 10
33.86686200000017
 20
-14.82354600000002
 10
33.88439819760018
 20
-14.83513942500002
 10
33.90223800000015
 20
-14.84626000000003
 10
33.92034879640019
 20
-14.85688700570006
 10
33.93874100000016
 20
-14.86701900000003
 10
33.95730273760018
 20
-14.87659085090007
 10
33.97612000000018
 20
-14.88565000000005
 10
33.99528215690017
 20
-14.89423562920001
 10
34.01467000000017
 20
-14.90229900000002
 10
34.03437834170015
 20
-14.90988420360003
 10
34.05428200000017
 20
-14.91694100000006
 10
34.07437300500018
 20
-14.92346578300004
 10
34.09463300000016
 20
-14.92944500000004
 10
34.11494779530017
 20
-14.93484130740006
 10
34.13540300000017
 20
-14.93967800000007
 10
34.15596125810018
 20
-14.94394604830006
 10
34.17662800000016
 20
-14.94765400000005
 10
34.19749393350017
 20
-14.95082110600003
 10
34.21843700000017
 20
-14.95342900000003
 10
34.23960982910017
 20
-14.95549444290003
 10
34.26083000000017
 20
-14.95700100000005
 10
34.28230998000018
 20
-14.95796360010001
 10
34.30380700000015
 20
-14.95837100000005
 10
40.46129600000014
 20
-14.98044200000004
 10
44.22420600000018
 20
-15.00000000000006
 10
44.24570117830017
 20
-14.99977423810003
 10
44.26718400000019
 20
-14.99899400000004
 10
44.28840220480018
 20
-14.99766932100004
 10
44.30957800000015
 20
-14.99578700000006
 10
44.33051862030018
 20
-14.99336307570002
 10
44.35138700000016
 20
-14.99038000000001
 10
44.37205125500017
 20
-14.98685568300004
 10
44.39261200000018
 20
-14.98277100000007
 10
44.41306519300016
 20
-14.9781204267
 10
44.43338300000016
 20
-14.97291000000007
 10
44.45364117670016
 20
-14.96711901980006
 10
44.47373500000018
 20
-14.96078100000005
 10
44.49363688930017
 20
-14.95391237090007
 10
44.51334800000014
 20
-14.94651400000003
 10
44.53273423590016
 20
-14.93863861630007
 10
44.55189900000016
 20
-14.93023900000003
 10
44.57071430230016
 20
-14.92136605910002
 10
44.58927800000018
 20
-14.91197800000003
 10
44.60766895620017
 20
-14.90203234800003
 10
44.62578200000016
 20
-14.89158900000006
 10
44.64362018860017
 20
-14.8806532785
 10
44.66115800000017
 20
-14.86924200000004
 10
44.67830553450016
 20
-14.85741612900006
 10
44.69512400000016
 20
-14.84512700000005
 10
44.71149709940019
 20
-14.83245467780006
 10
44.72751400000018
 20
-14.81933500000002
 10
44.74324953880016
 20
-14.80570284920003
 10
44.75860700000018
 20
-14.79164600000007
 10
44.77361714790018
 20
-14.77714362790004
 10
44.78823100000016
 20
-14.76224200000007
 10
44.80239906030019
 20
-14.74699221980006
 10
44.81614500000015
 20
-14.73136100000005
 10
44.82937731550018
 20
-14.71544822080005
 10
44.84216500000016
 20
-14.69917600000002
 10
44.85457054210016
 20
-14.68245882460002
 10
44.86651500000016
 20
-14.66540900000007
 10
44.87804493240017
 20
-14.64796858040006
 10
44.88910100000018
 20
-14.63022400000005
 10
44.89966439380018
 20
-14.61220427330005
 10
44.90973200000015
 20
-14.59390300000007
 10
44.91924191190017
 20
-14.57542725220003
 10
44.92823800000016
 20
-14.55669600000004
 10
44.93676069380017
 20
-14.53761521910002
 10
44.94476000000017
 20
-14.51830900000004
 10
44.95228303310017
 20
-14.49867681060004
 10
44.95927700000018
 20
-14.47885000000002
 10
44.96574021970016
 20
-14.45882958890002
 10
44.97165700000016
 20
-14.43864100000002
 10
44.97699279330018
 20
-14.41839060200004
 10
44.98176900000018
 20
-14.39800100000002
 10
44.98597881050017
 20
-14.37750113400005
 10
44.98962800000017
 20
-14.35689400000007
 10
44.99273616840016
 20
-14.33608090240005
 10
44.99528500000017
 20
-14.31519200000002
 10
44.99729302660017
 20
-14.29406542110007
 10
44.99874300000016
 20
-14.27289300000007
 10
44.99964922490019
 20
-14.25145333410006
 10
45.00000000000016
 20
-14.22999800000002
  0
LINE
  5
1F54
330
22
100
AcDbEntity
  8
3
100
AcDbLine
 10
6.000000000000142
 20
2.999999999999943
 30
0.0
 11
0.0000000000001705
 21
2.999999999999943
 31
0.0
  0
LINE
  5
1F57
330
22
100
AcDbEntity
  8
3
100
AcDbLine
 10
7.802581857100165
 20
-0.0000000000000568
 30
0.0
 11
6.000000000000142
 21
-3.000000000000056
 31
0.0
  0
LINE
  5
1F59
330
22
100
AcDbEntity
  8
3
100
AcDbLine
 10
7.802581857100165
 20
-0.0000000000000568
 30
0.0
 11
6.000000000000142
 21
2.999999999999943
 31
0.0
  0
LINE
  5
1F5A
330
22
100
AcDbEntity
  8
3
100
AcDbLine
 10
6.000000000000142
 20
2.999999999999943
 30
0.0
 11
6.000000000000142
 21
-3.000000000000056
 31
0.0
  0
LINE
  5
1F5C
330
22
100
AcDbEntity
  8
SK3
100
AcDbLine
 10
6.000000000000142
 20
-3.000000000000056
 30
0.0
 11
-22.49999999999983
 21
-3.0
 31
0.0
  0
LINE
  5
1F6F
330
22
100
AcDbEntity
  8
SK3
100
AcDbLine
 10
-22.49999999999983
 20
3.0
 30
0.0
 11
-22.49999999999983
 21
-3.0
 31
0.0
  0
LWPOLYLINE
  5
24C9
330
22
100
AcDbEntity
  8
1
100
AcDbPolyline
 90
        7
 70
     0
 43
0.0
 10
44.8474068937002
 20
-14.20315122199997
 10
44.85302581410019
 20
-14.1945066042
 10
44.8584217229002
 20
-14.18553744910008
 10
44.8635959940002
 20
-14.17625530610002
 10
44.86854450530017
 20
-14.16662552700001
 10
44.8732631345002
 20
-14.15661346370007
 10
44.87775325570021
 20
-14.1462306656
  0
LWPOLYLINE
  5
24D2
330
22
100
AcDbEntity
  8
1
100
AcDbPolyline
 90
       19
 70
     0
 43
0.0
 10
44.8474068937002
 20
-14.20315122199997
 10
44.83250625090019
 20
-14.2254125407
 10
44.81585178580019
 20
-14.25017244650007
 10
44.79719323130018
 20
-14.27727136050004
 10
44.7764953738002
 20
-14.30611199180004
 10
44.75383841540019
 20
-14.33618201990003
 10
44.72923544620022
 20
-14.36701708620006
 10
44.70280024020019
 20
-14.39817361890004
 10
44.67476104100017
 20
-14.42915719540002
 10
44.64551622480018
 20
-14.45941368559999
 10
44.61512231970021
 20
-14.48896001930001
 10
44.58358736460019
 20
-14.51771617620005
 10
44.5513942739002
 20
-14.54536858790004
 10
44.51893931340021
 20
-14.57174686370007
 10
44.48672066780019
 20
-14.596680682
 10
44.4552334029002
 20
-14.62014027740002
 10
44.4250104061002
 20
-14.64201988560001
 10
44.39668490640019
 20
-14.662326011
 10
44.37041927090018
 20
-14.68130360000003
  0
LWPOLYLINE
  5
24E7
330
22
100
AcDbEntity
  8
1
100
AcDbPolyline
 90
        7
 70
     0
 43
0.0
 10
44.3046382627002
 20
-14.720745147
 10
44.31632554890021
 20
-14.71491023760006
 10
44.32771157190018
 20
-14.70877792790003
 10
44.33878531670018
 20
-14.70234641070004
 10
44.34957982830019
 20
-14.69562110740003
 10
44.36012815130021
 20
-14.68860743960005
 10
44.37041927090018
 20
-14.68130360000003
  0
LINE
  5
24F0
330
22
100
AcDbEntity
  8
1
100
AcDbLine
 10
45.0000000000002
 20
-14.17049223949999
 30
0.0
 11
45.0000000000002
 21
-4.225869007100016
 31
0.0
  0
LINE
  5
24F1
330
22
100
AcDbEntity
  8
1
100
AcDbLine
 10
45.0000000000002
 20
14.19102213319996
 30
0.0
 11
45.0000000000002
 21
4.24791351509998
 31
0.0
  0
LWPOLYLINE
  5
24F2
330
22
100
AcDbEntity
  8
1
100
AcDbPolyline
 90
        7
 70
     0
 43
0.0
 10
44.88826469870019
 20
-4.070254728099996
 10
44.8863474737002
 20
-4.100057730300022
 10
44.8844966307002
 20
-4.129861252500006
 10
44.88271240860018
 20
-4.15959966750006
 10
44.88099409060021
 20
-4.189469857400013
 10
44.8793409600002
 20
-4.219668704300033
 10
44.87775325570021
 20
-4.250130581000007
  0
LWPOLYLINE
  5
24FB
330
22
100
AcDbEntity
  8
1
100
AcDbPolyline
 90
       11
 70
     0
 43
0.0
 10
44.08693729810022
 20
-13.73373446050004
 10
44.12022256260018
 20
-13.71777840760006
 10
44.15061227710021
 20
-13.69875450220002
 10
44.17828494440022
 20
-13.6765250552001
 10
44.2027050563002
 20
-13.65150313400005
 10
44.22336339110017
 20
-13.62401524800003
 10
44.24035959250019
 20
-13.59418338170002
 10
44.25362656550021
 20
-13.56224410620007
 10
44.2631553038002
 20
-13.52818017050003
 10
44.2689105146002
 20
-13.49206088140005
 10
44.27090396230022
 20
-13.45386313650005
  0
LWPOLYLINE
  5
2508
330
22
100
AcDbEntity
  8
1
100
AcDbPolyline
 90
       13
 70
     0
 43
0.0
 10
43.7480571175002
 20
14.76503202599997
 10
43.78167313280019
 20
14.76517820369997
 10
43.81527559580021
 20
14.76553109359997
 10
43.84885582800021
 20
14.76609479749999
 10
43.88243986510019
 20
14.76685701010001
 10
43.9160468684002
 20
14.76780940449993
 10
43.94968878300019
 20
14.76894414719999
 10
43.98338419150019
 20
14.77025626699992
 10
44.01713234200019
 20
14.7717288515999
 10
44.05094301000019
 20
14.77334670580001
 10
44.0848031955002
 20
14.77509970699992
 10
44.11870193940018
 20
14.77697076919997
 10
44.1526428948002
 20
14.77896558749995
  0
LINE
  5
2517
330
22
100
AcDbEntity
  8
1
100
AcDbLine
 10
34.3038073960002
 20
14.95553853259997
 30
0.0
 11
44.22420602600022
 21
14.96764529919994
 31
0.0
  0
LINE
  5
2518
330
22
100
AcDbEntity
  8
1
100
AcDbLine
 10
34.77995630450022
 20
14.75408743519995
 30
0.0
 11
43.7480571175002
 21
14.76503202599997
 31
0.0
  0
LWPOLYLINE
  5
2519
330
22
100
AcDbEntity
  8
1
100
AcDbPolyline
 90
       15
 70
     0
 43
0.0
 10
44.22420602600022
 20
14.96764529919994
 10
44.31258337230019
 20
14.96269588119998
 10
44.3984535317002
 20
14.94827968749996
 10
44.48229677290021
 20
14.92420084039997
 10
44.56267229030021
 20
14.89104697269994
 10
44.63856018470022
 20
14.84912392099994
 10
44.70917800560022
 20
14.79908119529994
 10
44.7736180114002
 20
14.74140872909993
 10
44.83123617610021
 20
14.67689108849993
 10
44.88124906960019
 20
14.60617320239993
 10
44.9231671624002
 20
14.53016391609998
 10
44.95634191490021
 20
14.44964659279998
 10
44.98046692810021
 20
14.36564260679995
 10
44.9949543008002
 20
14.27959476559994
 10
45.0000000000002
 20
14.19102213319996
  0
LWPOLYLINE
  5
252A
330
22
100
AcDbEntity
  8
1
100
AcDbPolyline
 90
       13
 70
     0
 43
0.0
 10
34.37537053010021
 20
14.76703349079997
 10
34.4093422167002
 20
14.76511964659994
 10
34.4433002138002
 20
14.76332857969999
 10
34.47725636330023
 20
14.76165410289997
 10
34.51117513900022
 20
14.76011477759999
 10
34.54502861490022
 20
14.75872194709995
 10
34.5788058320002
 20
14.75749107819996
 10
34.61247848920022
 20
14.75644017459996
 10
34.6460706865002
 20
14.75557296819994
 10
34.67958708380019
 20
14.75489673859999
 10
34.71305769990022
 20
14.75441884639997
 10
34.74651805330021
 20
14.75415030189998
 10
34.77995630450022
 20
14.75408743519995
  0
LWPOLYLINE
  5
2539
330
22
100
AcDbEntity
  8
1
100
AcDbPolyline
 90
        7
 70
     0
 43
0.0
 10
43.74048881730021
 20
13.71641160959996
 10
43.74012408520019
 20
13.71728243089995
 10
43.73976795400023
 20
13.71798309069999
 10
43.73951866850018
 20
13.71845710389993
 10
43.73908149410022
 20
13.71887392629992
 10
43.73816169600019
 20
13.7194030137
 10
43.73685751910023
 20
13.71998788069999
  0
LWPOLYLINE
  5
2542
330
22
100
AcDbEntity
  8
1
100
AcDbPolyline
 90
       15
 70
     0
 43
0.0
 10
45.0000000000002
 20
-4.225869007100016
 10
44.9949542779002
 20
-4.137275852400023
 10
44.9804664547002
 20
-4.051196006800012
 10
44.95634051580021
 20
-3.967148028899998
 10
44.92316450570021
 20
-3.886576242700073
 10
44.8812448045002
 20
-3.810503037800003
 10
44.83123039150021
 20
-3.73971277540005
 10
44.77361118640021
 20
-3.675115413600053
 10
44.70917074760018
 20
-3.617356551200032
 10
44.63855348480021
 20
-3.567221531400036
 10
44.56266676340018
 20
-3.525201078800023
 10
44.48229294740019
 20
-3.491945316999988
 10
44.39845145130021
 20
-3.467761392900058
 10
44.31258250280018
 20
-3.453238643600059
 10
44.22420602600022
 20
-3.448180623300061
  0
LWPOLYLINE
  5
2553
330
22
100
AcDbEntity
  8
1
100
AcDbPolyline
 90
        7
 70
     0
 43
0.0
 10
44.87775325570021
 20
-14.1462306656
 10
44.8793413129002
 20
-14.17669888980009
 10
44.8809946341002
 20
-14.20690104600004
 10
44.8827129604002
 20
-14.23677103870005
 10
44.88449706830022
 20
-14.26650715440007
 10
44.88634773400019
 20
-14.29630767949999
 10
44.88826469870019
 20
-14.32610651850001
  0
LWPOLYLINE
  5
255C
330
22
100
AcDbEntity
  8
1
100
AcDbPolyline
 90
       11
 70
     0
 43
0.0
 10
44.27090396230022
 20
-4.942498110100075
 10
44.26903983260018
 20
-4.905120649400032
 10
44.26344390370019
 20
-4.869514059899984
 10
44.2541481739002
 20
-4.835636039000064
 10
44.2410566481002
 20
-4.803613494499984
 10
44.22400616450019
 20
-4.773397350100026
 10
44.20323022240021
 20
-4.745473256500019
 10
44.17877698410021
 20
-4.720262556900081
 10
44.15103929880018
 20
-4.697909098000081
 10
44.1204771831002
 20
-4.678732711200041
 10
44.08693729810022
 20
-4.66262678610002
  0
LWPOLYLINE
  5
2569
330
22
100
AcDbEntity
  8
1
100
AcDbPolyline
 90
        9
 70
     0
 43
0.0
 10
43.73550095160021
 20
4.721759116699956
 10
43.7410062460002
 20
4.606610606699973
 10
43.74548260610021
 20
4.482756347799977
 10
43.74886835790022
 20
4.35219130759998
 10
43.7511014314002
 20
4.216928483499941
 10
43.75213234440019
 20
4.079005986200002
 10
43.75196058260018
 20
3.940570263799941
 10
43.75059815540021
 20
3.803798207799957
 10
43.74805711690021
 20
3.670847902299897
  0
LWPOLYLINE
  5
2574
330
22
100
AcDbEntity
  8
1
100
AcDbPolyline
 90
       41
 70
     0
 43
0.0
 10
42.47559585860019
 20
9.219536167900002
 10
42.4655500373002
 20
9.473840889899918
 10
42.43590127960021
 20
9.725009780999926
 10
42.38646782490019
 20
9.973801439799899
 10
42.31779495500018
 20
10.21794007019991
 10
42.2301299943002
 20
10.45587049199991
 10
42.12418505440019
 20
10.68618945609995
 10
42.00044719000018
 20
10.90740000409994
 10
41.85983889620018
 20
11.11822808469998
 10
41.70307496490022
 20
11.31727182109995
 10
41.53126556000017
 20
11.50341773099995
 10
41.3453356102002
 20
11.67539353839993
 10
41.14655561190019
 20
11.83227374759997
 10
40.93603785590019
 20
11.97294701099997
 10
40.71518188750019
 20
12.09669860809993
 10
40.4852599713002
 20
12.20260548469997
 10
40.24776623970021
 20
12.2901812947
 10
40.00410160380022
 20
12.35871400579998
 10
39.75581799300022
 20
12.40795762149997
 10
39.5044104694002
 20
12.43742866439999
 10
39.25145054570021
 20
12.44712754459994
 10
38.99849062210021
 20
12.43681124429997
 10
38.74708309850019
 20
12.40672657039999
 10
38.49879948760019
 20
12.35687694839993
 10
38.25513485170018
 20
12.28774950499996
 10
38.01764112020021
 20
12.19959402449996
 10
37.78771920390023
 20
12.09312595859995
 10
37.56686323550019
 20
11.96883530010001
 10
37.35634547960021
 20
11.82764820879993
 10
37.1575654813002
 20
11.67028282089995
 10
36.97163553150023
 20
11.49785319889997
 10
36.79982612650019
 20
11.31128793959993
 10
36.64306219530022
 20
11.11186157659995
 10
36.5024539014002
 20
10.90069030179995
 10
36.3787160370002
 20
10.67917773659991
 10
36.27277109710019
 20
10.44860018389994
 10
36.18510613650022
 20
10.21045579109994
 10
36.11643326650022
 20
9.966149545199925
 10
36.0669998118002
 20
9.717237229999966
 10
36.03735105410021
 20
9.46599597279993
 10
36.0273052329002
 20
9.211666731200011
  0
LWPOLYLINE
  5
259F
330
22
100
AcDbEntity
  8
1
100
AcDbPolyline
 90
       21
 70
     0
 43
0.0
 10
44.8118383670002
 20
4.319410839400006
 10
44.81274562680019
 20
4.266545975599967
 10
44.80930900340019
 20
4.214084461999959
 10
44.8015061156002
 20
4.161827665099963
 10
44.78940410710021
 20
4.110371485299936
 10
44.7730182413002
 20
4.060129595099965
 10
44.75248177760019
 20
4.011450044999946
 10
44.72786641280021
 20
3.964720816699923
 10
44.69937209710019
 20
3.92023578949994
 10
44.66711015090021
 20
3.878306390199952
 10
44.63141816080019
 20
3.839267958399943
 10
44.59259250400021
 20
3.803505562099985
 10
44.5508681297002
 20
3.771181443599971
 10
44.50641771410022
 20
3.742511642199985
 10
44.4597244528002
 20
3.717719834599961
 10
44.4112474174002
 20
3.697102596999911
 10
44.36123165650019
 20
3.680657270599965
 10
44.30992007100019
 20
3.668464519999986
 10
44.2577781747002
 20
3.660570951799968
 10
44.20542075840018
 20
3.657059247499944
 10
44.1526428919002
 20
3.657901846699928
  0
LWPOLYLINE
  5
25B6
330
22
100
AcDbEntity
  8
1
100
AcDbPolyline
 90
       39
 70
     0
 43
0.0
 10
45.0000000000002
 20
-4.225868920000038
 10
44.99984636920021
 20
-4.215664915900049
 10
44.99941470350018
 20
-4.205903082700046
 10
44.9986852058002
 20
-4.196517266200032
 10
44.9977172673002
 20
-4.187705928500008
 10
44.99655543210019
 20
-4.179699459700032
 10
44.99522444390021
 20
-4.172335920900081
 10
44.99376258090018
 20
-4.165558616600094
 10
44.99217378370019
 20
-4.15928220530003
 10
44.99047434700019
 20
-4.153415273700034
 10
44.98866548650022
 20
-4.147919340900045
 10
44.9867539940002
 20
-4.14273349480004
 10
44.9847394356002
 20
-4.137833614899989
 10
44.98262437900021
 20
-4.133180973700063
 10
44.98040661080023
 20
-4.1287584799
 10
44.97808576540018
 20
-4.12453980500004
 10
44.9756588671002
 20
-4.120513933200015
 10
44.97312363600019
 20
-4.116662978400086
 10
44.9704776195002
 20
-4.112981222700057
 10
44.9677187494002
 20
-4.10945836470006
 10
44.96484359250018
 20
-4.106090269600031
 10
44.96184935230019
 20
-4.102870104000032
 10
44.9587320501002
 20
-4.099795662500014
 10
44.95548837220019
 20
-4.096862736100035
 10
44.95211352740023
 20
-4.094070502800036
 10
44.94860329690022
 20
-4.091416465599991
 10
44.94495265060021
 20
-4.08890144120005
 10
44.94115679180021
 20
-4.086524663799991
 10
44.93721080120019
 20
-4.084288384300009
 10
44.93310997810022
 20
-4.08219357550007
 10
44.92884887030021
 20
-4.080243305400017
 10
44.92442260020022
 20
-4.078439698000067
 10
44.91982474260021
 20
-4.076786558200012
 10
44.91504970420021
 20
-4.07528681710005
 10
44.91009011140022
 20
-4.07394522100003
 10
44.9049392185002
 20
-4.072765525500074
 10
44.8995895484002
 20
-4.07175363400006
 10
44.89403015940019
 20
-4.070917595900084
 10
44.88826469870019
 20
-4.070254728099996
  0
LWPOLYLINE
  5
26A7
330
22
100
AcDbEntity
  8
1
100
AcDbPolyline
 90
       13
 70
     0
 43
0.0
 10
44.79842925470021
 20
4.724906438699974
 10
44.79853416750017
 20
4.691213596900013
 10
44.79884533700022
 20
4.657534590199929
 10
44.79936686600018
 20
4.62387812190002
 10
44.8000864457002
 20
4.590218081699958
 10
44.8009957447002
 20
4.556535254199957
 10
44.8020869332002
 20
4.522817657499956
 10
44.80335502850019
 20
4.489046660299948
 10
44.80478315780021
 20
4.455222995699955
 10
44.80635614890019
 20
4.421336847299926
 10
44.80806391800018
 20
4.387401232399952
 10
44.80988943140022
 20
4.35342711459998
 10
44.8118383670002
 20
4.319410839400006
  0
LINE
  5
26B6
330
22
100
AcDbEntity
  8
1
100
AcDbLine
 10
44.88826469870019
 20
-14.32610651850001
 30
0.0
 11
44.88826469870019
 21
-4.070254728099996
 31
0.0
  0
LINE
  5
26B7
330
22
100
AcDbEntity
  8
1
100
AcDbLine
 10
44.87775325570021
 20
-14.1462306656
 30
0.0
 11
44.87775325570021
 21
-4.250130581000007
 31
0.0
  0
LINE
  5
26B8
330
22
100
AcDbEntity
  8
1
100
AcDbLine
 10
44.79842925470021
 20
13.71353721939999
 30
0.0
 11
44.79842925470021
 21
4.724906438699974
 31
0.0
  0
LINE
  5
26B9
330
22
100
AcDbEntity
  8
1
100
AcDbLine
 10
44.27090396230022
 20
-13.45386313650005
 30
0.0
 11
44.27090396230022
 21
-4.942498110100075
 31
0.0
  0
LINE
  5
26BA
330
22
100
AcDbEntity
  8
1
100
AcDbLine
 10
43.74008754250019
 20
4.725404279700001
 30
0.0
 11
43.74048881730021
 21
13.71641160959996
 31
0.0
  0
LINE
  5
26BB
330
22
100
AcDbEntity
  8
1
100
AcDbLine
 10
43.6027140022002
 20
-13.2118338981
 30
0.0
 11
43.6027140022002
 21
-13.19818062330006
 31
0.0
  0
LINE
  5
26BC
330
22
100
AcDbEntity
  8
1
100
AcDbLine
 10
43.6027140022002
 20
3.468638341599955
 30
0.0
 11
43.6027140022002
 21
-13.19818062330006
 31
0.0
  0
LINE
  5
26BD
330
22
100
AcDbEntity
  8
1
100
AcDbLine
 10
43.10271400220019
 20
2.497837880899908
 30
0.0
 11
43.10271400220019
 21
-13.19818062330006
 31
0.0
  0
LWPOLYLINE
  5
276B
330
22
100
AcDbEntity
  8
1
100
AcDbPolyline
 90
       15
 70
     0
 43
0.0
 10
45.0000000000002
 20
4.24791351509998
 10
44.9949542779002
 20
4.159327695799959
 10
44.9804664547002
 20
4.073243279699966
 10
44.95634051580021
 20
3.989178659699973
 10
44.92316450570021
 20
3.908578657299926
 10
44.8812448045002
 20
3.832465880299935
 10
44.83123039150021
 20
3.761625362399968
 10
44.77361118640021
 20
3.696967521200008
 10
44.70917074760018
 20
3.639138813199963
 10
44.63855348480021
 20
3.588925248499947
 10
44.56266676340018
 20
3.546818584299956
 10
44.48229294740019
 20
3.513469799999995
 10
44.39845145130021
 20
3.489187239899933
 10
44.31258250280018
 20
3.474561908699968
 10
44.22420602600022
 20
3.469396804899929
  0
LWPOLYLINE
  5
277C
330
22
100
AcDbEntity
  8
1
100
AcDbPolyline
 90
       13
 70
     0
 43
0.0
 10
44.8118383668002
 20
14.11906554449996
 10
44.80988752980022
 20
14.08501370829998
 10
44.80805920630018
 20
14.05097574269996
 10
44.80634720880021
 20
14.01693977069999
 10
44.80477009970019
 20
13.98294142269992
 10
44.80333923030019
 20
13.94900870249995
 10
44.80207004540019
 20
13.91515261299997
 10
44.8009805421002
 20
13.88140154199993
 10
44.8000744144002
 20
13.84773133889996
 10
44.79935891960019
 20
13.81413734189999
 10
44.79884136500018
 20
13.78058947260001
 10
44.79853269240021
 20
13.74705214429997
 10
44.79842925470021
 20
13.71353721939999
  0
LWPOLYLINE
  5
27B2
330
22
100
AcDbEntity
  8
1
100
AcDbPolyline
 90
        9
 70
     0
 43
0.0
 10
43.73640234230021
 20
13.72030716019992
 10
43.7491164822002
 20
13.83278833539998
 10
43.74548260610021
 20
13.95440867870002
 10
43.7446629815002
 20
14.08328141919998
 10
43.7511014314002
 20
14.21743183839993
 10
43.75213234440019
 20
14.35483974309994
 10
43.75196058260018
 20
14.49336120239997
 10
43.75059815540021
 20
14.63081333050002
 10
43.74805711690021
 20
14.76503202599997
  0
LINE
  5
27BD
330
22
100
AcDbEntity
  8
1
100
AcDbLine
 10
44.27090396230022
 20
-4.942498110100075
 30
0.0
 11
44.8474068937002
 21
-4.193210024600034
 31
0.0
  0
LINE
  5
27BE
330
22
100
AcDbEntity
  8
1
100
AcDbLine
 10
43.79391633950018
 20
-4.464345732100014
 30
0.0
 11
44.37041927090018
 21
-3.715057646600087
 31
0.0
  0
LINE
  5
27BF
330
22
100
AcDbEntity
  8
1
100
AcDbLine
 10
44.08693729810022
 20
-4.66262678610002
 30
0.0
 11
43.6027140022002
 21
-5.184527348400081
 31
0.0
  0
LINE
  5
27C0
330
22
100
AcDbEntity
  8
1
100
AcDbLine
 10
35.0379263861002
 20
-13.73373446050004
 30
0.0
 11
35.5482235195002
 21
-13.25562397550004
 31
0.0
  0
LINE
  5
27C1
330
22
100
AcDbEntity
  8
1
100
AcDbLine
 10
35.30328457050021
 20
-13.93201551449999
 30
0.0
 11
34.38486178710019
 21
-14.68130360000003
 31
0.0
  0
LINE
  5
27C2
330
22
100
AcDbEntity
  8
1
100
AcDbLine
 10
34.8262969477002
 20
-13.45386313650005
 30
0.0
 11
33.90787416430021
 21
-14.20315122199997
 31
0.0
  0
LWPOLYLINE
  5
27C3
330
22
100
AcDbEntity
  8
1
100
AcDbPolyline
 90
        9
 70
     0
 43
0.0
 10
43.7404066469002
 20
13.71629857569997
 10
43.8595268491002
 20
13.72225995849993
 10
43.98644177300019
 20
13.71319196739995
 10
44.11925586920017
 20
13.70828815529995
 10
44.2558821643002
 20
13.71211158059992
 10
44.39426385190017
 20
13.71202190599996
 10
44.53225439690021
 20
13.71223338649997
 10
44.6676908988002
 20
13.71274037069997
 10
44.79842925470021
 20
13.71353721869997
  0
LWPOLYLINE
  5
27CE
330
22
100
AcDbEntity
  8
1
100
AcDbPolyline
 90
       21
 70
     0
 43
0.0
 10
44.1526428948002
 20
14.77896558749995
 10
44.20538812030019
 20
14.7799392940999
 10
44.25772562770021
 20
14.77655867569996
 10
44.30985356970021
 20
14.76880154190002
 10
44.3611774885002
 20
14.75673446439998
 10
44.4112846751002
 20
14.74037223819994
 10
44.45982803620021
 20
14.71984800379994
 10
44.50642056350019
 20
14.69523315009996
 10
44.55076929240021
 20
14.66672772739997
 10
44.5925636430002
 20
14.63444293189997
 10
44.63146945260018
 20
14.59871671529993
 10
44.6671028936002
 20
14.55984566479992
 10
44.69930238030019
 20
14.51806507009996
 10
44.72785257710021
 20
14.47354773999996
 10
44.75253090640021
 20
14.42677770469998
 10
44.7730420286002
 20
14.37821472629991
 10
44.78938889460022
 20
14.32810441779998
 10
44.8014913199002
 20
14.27669013839994
 10
44.80930337110021
 20
14.22443841149999
 10
44.81274330410019
 20
14.17196533559996
 10
44.8118383668002
 20
14.11906554449996
  0
LWPOLYLINE
  5
27E5
330
22
100
AcDbEntity
  8
1
100
AcDbPolyline
 90
        7
 70
     0
 43
0.0
 10
31.6764624095002
 20
14.49936825209994
 10
28.4389492956002
 20
14.49548600449992
 10
25.20351509580021
 20
14.48807869379993
 10
21.96982731210019
 20
14.47714371419994
 10
18.73888343870018
 20
14.46268888269992
 10
15.5116809699002
 20
14.44472201629992
 10
12.28788740750016
 20
14.42324050939999
  0
LINE
  5
27EE
330
22
100
AcDbEntity
  8
1
100
AcDbLine
 10
43.73685751910023
 20
13.71998788069999
 30
0.0
 11
34.7663859747002
 21
13.70944254469998
 31
0.0
  0
LINE
  5
27EF
330
22
100
AcDbEntity
  8
1
100
AcDbLine
 10
7.110153543500189
 20
14.49999999999994
 30
0.0
 11
0.5000000000001706
 21
14.49999999999994
 31
0.0
  0
LWPOLYLINE
  5
27F0
330
22
100
AcDbEntity
  8
1
100
AcDbPolyline
 90
       13
 70
     0
 43
0.0
 10
7.108128466700179
 20
14.49999092830001
 10
7.227402866500199
 20
14.49966080639996
 10
7.654744911000193
 20
14.49519484870001
 10
8.085347225500186
 20
14.48695341319995
 10
8.522904517800185
 20
14.47643696219995
 10
8.971651280000173
 20
14.46473790209995
 10
9.428814646800191
 20
14.45301161679998
 10
9.893356378900193
 20
14.44221622649996
 10
10.36430709100017
 20
14.43312230469996
 10
10.84096745520017
 20
14.42634161329999
 10
11.3214890607002
 20
14.422296888
 10
11.80353019750018
 20
14.42124446569994
 10
12.28787143570019
 20
14.42324036699995
  0
LWPOLYLINE
  5
27FF
330
22
100
AcDbEntity
  8
1
100
AcDbPolyline
 90
        9
 70
     0
 43
0.0
 10
34.76249444460021
 20
13.7053420112
 10
34.65443048270021
 20
13.71102614039995
 10
34.53642262740022
 20
13.70165924769992
 10
34.41038281570019
 20
13.69643953259998
 10
34.27821988670018
 20
13.69993492999998
 10
34.14190002500021
 20
13.69951001199996
 10
34.00356595640023
 20
13.69938426839991
 10
33.86540460030019
 20
13.69955735619999
 10
33.7295841673002
 20
13.70002889819994
  0
LINE
  5
28DD
330
22
100
AcDbEntity
  8
1
100
AcDbLine
 10
33.52801342200019
 20
13.60973227919993
 30
0.0
 11
33.38262043510019
 21
13.65655100869998
 31
0.0
  0
LWPOLYLINE
  5
28DE
330
22
100
AcDbEntity
  8
1
100
AcDbPolyline
 90
        9
 70
     0
 43
0.0
 10
31.6764624095002
 20
14.49936825209994
 10
31.7381212121002
 20
14.47778662559995
 10
31.84594809540022
 20
14.4267357736
 10
32.00075433080019
 20
14.34725125039995
 10
32.20010610390023
 20
14.24305783349996
 10
32.44376509690019
 20
14.11918835399996
 10
32.72595609110022
 20
13.98186858609995
 10
33.0443169850002
 20
13.83872225649998
 10
33.3883701092002
 20
13.69668534209995
  0
LINE
  5
28E9
330
22
100
AcDbEntity
  8
1
100
AcDbLine
 10
33.3883701092002
 20
13.69668534209995
 30
0.0
 11
33.52801342200019
 21
13.64537242739993
 31
0.0
  0
LWPOLYLINE
  5
28EA
330
22
100
AcDbEntity
  8
1
100
AcDbPolyline
 90
        5
 70
     0
 43
0.0
 10
33.38262043510019
 20
13.65655100869998
 10
32.9368525246002
 20
13.82902162739992
 10
32.50390355010018
 20
14.02698137419998
 10
32.08377351180019
 20
14.25043024909991
 10
31.6764624095002
 20
14.49936825209994
  0
LWPOLYLINE
  5
28F1
330
22
100
AcDbEntity
  8
1
100
AcDbPolyline
 90
       11
 70
     0
 43
0.0
 10
34.76273811530018
 20
13.70621601179999
 10
34.6779056945002
 20
13.7391122729
 10
34.5854352433002
 20
13.77481147139997
 10
34.4865152877002
 20
13.81285652539998
 10
34.38230916710021
 20
13.85280002309992
 10
34.2739578810002
 20
13.89420298289997
 10
34.16273719240022
 20
13.93657612629994
 10
34.05004533140021
 20
13.97938852249996
 10
33.93717288660019
 20
14.02215137919995
 10
33.82542871300021
 20
14.06436876529994
 10
33.71617505520021
 20
14.10552449529996
  0
LWPOLYLINE
  5
29F2
330
22
100
AcDbEntity
  8
1
100
AcDbPolyline
 90
        7
 70
     0
 43
0.0
 10
44.87775325570021
 20
-4.250130581000007
 10
44.8732638038002
 20
-4.239749177000021
 10
44.86854555800022
 20
-4.229737855000053
 10
44.86359712740022
 20
-4.220108075400048
 10
44.85842268500019
 20
-4.210825457400005
 10
44.85302640420019
 20
-4.201855620400067
 10
44.8474068937002
 20
-4.193210024600034
  0
LWPOLYLINE
  5
29FB
330
22
100
AcDbEntity
  8
1
100
AcDbPolyline
 90
       39
 70
     0
 43
0.0
 10
44.44222206280019
 20
-3.623122901500039
 10
44.43832797430019
 20
-3.614110847000006
 10
44.4343769079002
 20
-3.605420022900034
 10
44.43036826050018
 20
-3.597056122900028
 10
44.42630384130018
 20
-3.589002065700015
 10
44.42218527990019
 20
-3.58124615989999
 10
44.41801251170019
 20
-3.573777929000073
 10
44.4137860726002
 20
-3.56658586190008
 10
44.40950579150021
 20
-3.559661370800029
 10
44.40517191010019
 20
-3.552994591500066
 10
44.4007837272002
 20
-3.54657784310001
 10
44.39634119160021
 20
-3.540402597700051
 10
44.39184259470022
 20
-3.534461532800037
 10
44.38728734130021
 20
-3.528746936700031
 10
44.38267204000019
 20
-3.523251449000042
 10
44.37799472430021
 20
-3.517967329899988
 10
44.3732505236002
 20
-3.51288800510008
 10
44.3684359588002
 20
-3.508006059400031
 10
44.36354488900019
 20
-3.503316275500083
 10
44.35857279910021
 20
-3.498812396900063
 10
44.35351133170018
 20
-3.494490125100071
 10
44.3483545100002
 20
-3.490344189200015
 10
44.34309067700019
 20
-3.486371250000047
 10
44.33771250130019
 20
-3.482567338100011
 10
44.33220102920017
 20
-3.478929072600067
 10
44.32654362500019
 20
-3.475451900400059
 10
44.3207140026002
 20
-3.472135367200053
 10
44.3146942646002
 20
-3.46897624270008
 10
44.30844660920018
 20
-3.465978300700044
 10
44.3019463057002
 20
-3.46314065490003
 10
44.29513624400022
 20
-3.460474055300039
 10
44.28797885370019
 20
-3.457980463800026
 10
44.28039078490018
 20
-3.455685357900051
 10
44.27228936230022
 20
-3.453594803200019
 10
44.26363499130019
 20
-3.451768996200087
 10
44.25426947090019
 20
-3.450246219300026
 10
44.24446594510018
 20
-3.449098280500038
 10
44.23447237570019
 20
-3.448420319600018
 10
44.22420610880021
 20
-3.448180623300061
  0
LWPOLYLINE
  5
2A24
330
22
100
AcDbEntity
  8
1
100
AcDbPolyline
 90
       11
 70
     0
 43
0.0
 10
43.73640234230021
 20
4.721842529799914
 10
43.76918580810019
 20
4.630601847899981
 10
43.81766637870021
 20
4.532712677999995
 10
43.86410828470019
 20
4.429102798299993
 10
43.90344295310021
 20
4.321489764599959
 10
43.9471060109002
 20
4.210715900100012
 10
43.99058877160022
 20
4.098220244000003
 10
44.0333633250002
 20
3.985400060199935
 10
44.0749557993002
 20
3.873532902199997
 10
44.11488328150023
 20
3.763916520099996
 10
44.15264289200019
 20
3.657901846699928
  0
LWPOLYLINE
  5
2A71
330
22
100
AcDbEntity
  8
1
100
AcDbPolyline
 90
       39
 70
     0
 43
0.0
 10
34.2113530119002
 20
-14.77323834510002
 10
34.2087787623002
 20
-14.7822507642
 10
34.2064920727002
 20
-14.79094191580003
 10
34.20449763420021
 20
-14.79930610489998
 10
34.20278137420019
 20
-14.80736041630001
 10
34.2013332697002
 20
-14.81511654350004
 10
34.20014586400021
 20
-14.82258496580004
 10
34.1992103572002
 20
-14.82977719710004
 10
34.19852075510019
 20
-14.83670182680004
 10
34.1980697345002
 20
-14.84336872170002
 10
34.19785248260018
 20
-14.8497855635
 10
34.19786292820021
 20
-14.85596088160008
 10
34.1980975232002
 20
-14.86190199940006
 10
34.19855132640021
 20
-14.8676166299
 10
34.1992224455002
 20
-14.8731121349
 10
34.2001072907002
 20
-14.8783962559001
 10
34.20120601290018
 20
-14.88347556780002
 10
34.2025167681002
 20
-14.88835748680003
 10
34.20404195160021
 20
-14.89304723100002
 10
34.20578158680019
 20
-14.89755105760002
 10
34.20774094510017
 20
-14.90187326590006
 10
34.20992221910018
 20
-14.90601912770006
 10
34.21233466780018
 20
-14.90999198280002
 10
34.21498277230018
 20
-14.91379580040006
 10
34.21788305890018
 20
-14.91743396330003
 10
34.22104489530017
 20
-14.92091102570003
 10
34.22449423900019
 20
-14.92422744190003
 10
34.22824666780019
 20
-14.92738644230007
 10
34.23234268810018
 20
-14.93038425320003
 10
34.23680639310021
 20
-14.93322176120006
 10
34.24170260090017
 20
-14.93588821680004
 10
34.24707028790019
 20
-14.93838165770006
 10
34.2530110717002
 20
-14.94067660850004
 10
34.25961197790019
 20
-14.94276700230006
 10
34.26695575930017
 20
-14.94459265050005
 10
34.27522803330021
 20
-14.9461152696
 10
34.28420723180017
 20
-14.94726307680003
 10
34.2937136976002
 20
-14.94794096000004
 10
34.3038073164002
 20
-14.94818062330006
  0
LWPOLYLINE
  5
2A9A
330
22
100
AcDbEntity
  8
1
100
AcDbPolyline
 90
        7
 70
     0
 43
0.0
 10
33.7653103760002
 20
-14.32610651850001
 10
33.7824955554002
 20
-14.29630324150003
 10
33.7990856559002
 20
-14.26649955380003
 10
33.81507853280022
 20
-14.23676108220002
 10
33.83048062050022
 20
-14.20689094620007
 10
33.8452983537002
 20
-14.17669226500004
 10
33.85952958760021
 20
-14.1462306656
  0
LWPOLYLINE
  5
2AA3
330
22
100
AcDbEntity
  8
1
100
AcDbPolyline
 90
        7
 70
     0
 43
0.0
 10
44.3046382627002
 20
-3.675616099600006
 10
44.32870947630021
 20
-3.667685326100013
 10
44.3522552208002
 20
-3.659428690600009
 10
44.37521058660019
 20
-3.650847482000017
 10
44.39777030270019
 20
-3.641937833200017
 10
44.42012909800019
 20
-3.632695876600052
 10
44.44222206280019
 20
-3.623122901500039
  0
LWPOLYLINE
  5
2AAC
330
22
100
AcDbEntity
  8
1
100
AcDbPolyline
 90
       11
 70
     0
 43
0.0
 10
43.7404066469002
 20
13.71629857569997
 10
43.83512270210019
 20
13.74318272679994
 10
43.9362426454002
 20
13.78622309559995
 10
44.0423799445002
 20
13.8283757833999
 10
44.15171659340018
 20
13.8647225197999
 10
44.26362360420017
 20
13.90639428249994
 10
44.3765575376002
 20
13.94904098149999
 10
44.48912578250019
 20
13.99212828209994
 10
44.60006234660022
 20
14.03516427260001
 10
44.70807993870019
 20
14.07764985469998
 10
44.8118383668002
 20
14.11906554449996
  0
LINE
  5
2AC9
330
22
100
AcDbEntity
  8
1
100
AcDbLine
 10
33.16277052390021
 20
7.246942373099955
 30
0.0
 11
33.38262043510019
 21
7.247210675999951
 31
0.0
  0
LINE
  5
2ACA
330
22
100
AcDbEntity
  8
1
100
AcDbLine
 10
33.2037516451002
 20
7.05712838059992
 30
0.0
 11
33.52801342200019
 21
7.057524106799974
 31
0.0
  0
LINE
  5
2ACB
330
22
100
AcDbEntity
  8
SK1
100
AcDbLine
 10
-1.999999999999829
 20
8.499999999999943
 30
0.0
 11
-5.599999999999823
 21
8.499999999999943
 31
0.0
  0
LINE
  5
2ACC
330
22
100
AcDbEntity
  8
SK1
100
AcDbLine
 10
-0.2999999999998124
 20
8.299999999999954
 30
0.0
 11
-1.200928839499823
 21
8.299999999999954
 31
0.0
  0
LINE
  5
2ACD
330
22
100
AcDbEntity
  8
SK1
100
AcDbLine
 10
-10.69999999999982
 20
7.999999999999943
 30
0.0
 11
-22.49999999999983
 21
7.999999999999943
 31
0.0
  0
LINE
  5
2AFB
330
22
100
AcDbEntity
  8
1
100
AcDbLine
 10
33.4592355373002
 20
6.993364445099985
 30
0.0
 11
33.2037516451002
 21
7.05712838059992
 31
0.0
  0
LWPOLYLINE
  5
2B79
330
22
100
AcDbEntity
  8
1
100
AcDbPolyline
 90
       11
 70
     0
 43
0.0
 10
43.74016297620019
 20
4.724986887299905
 10
43.83514571150022
 20
4.689557300199908
 10
43.93624269620019
 20
4.651705082499972
 10
44.0421815480002
 20
4.611908245099982
 10
44.15171659750018
 20
4.570634747699955
 10
44.26362360390021
 20
4.528344347499967
 10
44.37655753980021
 20
4.485543609899934
 10
44.48912578720021
 20
4.442762065399961
 10
44.6000623532002
 20
4.400482367399945
 10
44.7080799432002
 20
4.359195065899939
 10
44.8118383668002
 20
4.319410842199999
  0
LINE
  5
2B86
330
22
100
AcDbEntity
  8
1
100
AcDbLine
 10
33.52801342200019
 20
7.122000701599915
 30
0.0
 11
33.38262043510019
 21
7.247210675999951
 31
0.0
  0
LWPOLYLINE
  5
2B87
330
22
100
AcDbEntity
  8
1
100
AcDbPolyline
 90
       11
 70
     0
 43
0.0
 10
44.08693729810022
 20
-4.66262678610002
 10
44.06851296180019
 20
-4.626743517700049
 10
44.04724460950018
 20
-4.593982652000022
 10
44.02298534870022
 20
-4.564153717400017
 10
43.9961758570002
 20
-4.537828129000047
 10
43.96715266330022
 20
-4.515541989499979
 10
43.93608132160022
 20
-4.497210764600026
 10
43.90326788470019
 20
-4.482936440999992
 10
43.86862738410019
 20
-4.472695559600026
 10
43.8321790002002
 20
-4.466499973600036
 10
43.79391633950018
 20
-4.464345732100014
  0
LWPOLYLINE
  5
2BCF
330
22
100
AcDbEntity
  8
1
100
AcDbPolyline
 90
       11
 70
     0
 43
0.0
 10
34.76649874910021
 20
13.70936036929998
 10
34.74343517690019
 20
13.79817515010001
 10
34.70401155730019
 20
13.89380387699992
 10
34.66479189490019
 20
13.99561122149998
 10
34.63058281150021
 20
14.10194500629996
 10
34.59047547400022
 20
14.21183143029998
 10
34.5487059605002
 20
14.32389949229991
 10
34.5058077935002
 20
14.43675052769993
 10
34.46227944040021
 20
14.54910084440001
 10
34.41862537490022
 20
14.65964731109994
 10
34.3753705300002
 20
14.76703349079997
  0
LWPOLYLINE
  5
2BEF
330
22
100
AcDbEntity
  8
1
100
AcDbPolyline
 90
       11
 70
     0
 43
0.0
 10
34.8262969477002
 20
-13.45386313650005
 10
34.82844138350021
 20
-13.49124059720003
 10
34.8348787633002
 20
-13.52684718670002
 10
34.84557227730022
 20
-13.56072520760006
 10
34.86063235490019
 20
-13.59274775210002
 10
34.8802466926002
 20
-13.62296389650004
 10
34.90414667990021
 20
-13.65088799010004
 10
34.93227691280021
 20
-13.67609868970004
 10
34.96418546970023
 20
-13.69845214860004
 10
34.9993431620002
 20
-13.71762853540002
 10
35.0379263861002
 20
-13.73373446050004
  0
LWPOLYLINE
  5
2C25
330
22
100
AcDbEntity
  8
1
100
AcDbPolyline
 90
       41
 70
     0
 43
0.0
 10
36.0273052329002
 20
9.211666731200011
 10
36.03735105410021
 20
8.957362009199925
 10
36.0669998118002
 20
8.706193118099918
 10
36.11643326650022
 20
8.457401459299944
 10
36.18510613650022
 20
8.21326282879994
 10
36.27277109710019
 20
7.975332407099983
 10
36.3787160370002
 20
7.745013443000004
 10
36.5024539014002
 20
7.52380289499996
 10
36.64306219530022
 20
7.312974814399979
 10
36.79982612650019
 20
7.113931078000007
 10
36.97163553150023
 20
6.927785168099944
 10
37.1575654813002
 20
6.755809360599926
 10
37.35634547960021
 20
6.598929151399943
 10
37.56686323550019
 20
6.458255888099927
 10
37.78771920390023
 20
6.334504290999973
 10
38.01764112020021
 20
6.228597414399985
 10
38.25513485170018
 20
6.141021604400009
 10
38.49879948760019
 20
6.072488893299976
 10
38.74708309850019
 20
6.023245277599983
 10
38.99849062210021
 20
5.993774234699969
 10
39.25145054570021
 20
5.984075354499964
 10
39.5044104694002
 20
5.994391654799926
 10
39.75581799300022
 20
6.024476328700018
 10
40.00410160380022
 20
6.074325950599927
 10
40.24776623970021
 20
6.143453394099935
 10
40.4852599713002
 20
6.231608874499954
 10
40.71518188750019
 20
6.338076940500002
 10
40.93603785590019
 20
6.462367598899959
 10
41.14655561190019
 20
6.603554690299972
 10
41.3453356102002
 20
6.760920078199944
 10
41.53126556000017
 20
6.933349700199926
 10
41.70307496490022
 20
7.119914959499908
 10
41.85983889620018
 20
7.319341322499951
 10
42.00044719000018
 20
7.530512597299946
 10
42.12418505440019
 20
7.75202516249999
 10
42.2301299943002
 20
7.982602715099972
 10
42.31779495500018
 20
8.220747108000011
 10
42.38646782490019
 20
8.465053353899975
 10
42.43590127960021
 20
8.713965669099934
 10
42.4655500373002
 20
8.965206926299913
 10
42.47559585860019
 20
9.219536167900002
  0
LWPOLYLINE
  5
2C50
330
22
100
AcDbEntity
  8
1
100
AcDbPolyline
 90
       21
 70
     0
 43
0.0
 10
33.71617505500018
 20
14.10552449819994
 10
33.71526779520019
 20
14.15838936189999
 10
33.7187044186002
 20
14.2108508755
 10
33.72650730640021
 20
14.26310767239994
 10
33.73860931500019
 20
14.31456385219997
 10
33.75499518070021
 20
14.36480574239993
 10
33.77553164440019
 20
14.41348529249995
 10
33.8001470092002
 20
14.46021452079998
 10
33.82864132490022
 20
14.50469954800002
 10
33.8609032711002
 20
14.54662894739994
 10
33.89659526120022
 20
14.58566737919994
 10
33.9354209180002
 20
14.62142977539997
 10
33.97714529230021
 20
14.65375389399997
 10
34.02159570790019
 20
14.68242369529997
 10
34.06828896920018
 20
14.7072155029
 10
34.11676600450022
 20
14.72783274049999
 10
34.16678176550022
 20
14.74427806689999
 10
34.21809335100019
 20
14.75647081749997
 10
34.27023524730021
 20
14.76436438579998
 10
34.3225926636002
 20
14.76787608999996
 10
34.37537053010021
 20
14.76703349079997
  0
LWPOLYLINE
  5
2CEE
330
22
100
AcDbEntity
  8
1
100
AcDbPolyline
 90
       13
 70
     0
 43
0.0
 10
33.7295841673002
 20
13.70002889889997
 10
33.7294792545002
 20
13.73372174059994
 10
33.7291680850002
 20
13.76740074729992
 10
33.7286465560002
 20
13.80105721559994
 10
33.72792697630021
 20
13.8347172558
 10
33.72701767730021
 20
13.8684000833
 10
33.72592648880021
 20
13.90211767999995
 10
33.72465839350019
 20
13.93588867719995
 10
33.7232302642002
 20
13.96971234179995
 10
33.72165727310022
 20
14.00359849029996
 10
33.71994950400023
 20
14.03753410510001
 10
33.71812399060019
 20
14.07150822289998
 10
33.71617505500018
 20
14.10552449819994
  0
LINE
  5
2CFD
330
22
100
AcDbEntity
  8
1
100
AcDbLine
 10
34.8262969477002
 20
-13.36847574720002
 30
0.0
 11
34.8262969477002
 21
-13.45386313650005
 31
0.0
  0
LINE
  5
2CFE
330
22
100
AcDbEntity
  8
1
100
AcDbLine
 10
34.76281354900021
 20
13.70579861940001
 30
0.0
 11
34.7624123196002
 21
4.714791190599953
 31
0.0
  0
LINE
  5
2CFF
330
22
100
AcDbEntity
  8
1
100
AcDbLine
 10
33.85952958760021
 20
-13.61829556000003
 30
0.0
 11
33.85952958760021
 21
-14.1462306656
 31
0.0
  0
LINE
  5
2D00
330
22
100
AcDbEntity
  8
1
100
AcDbLine
 10
33.7653103760002
 20
-13.64654531890005
 30
0.0
 11
33.7653103760002
 21
-14.32610651850001
 31
0.0
  0
LINE
  5
2D01
330
22
100
AcDbEntity
  8
1
100
AcDbLine
 10
33.7295841673002
 20
4.711398118199952
 30
0.0
 11
33.7295841673002
 21
13.70002889889997
 31
0.0
  0
LWPOLYLINE
  5
2D57
330
22
100
AcDbEntity
  8
1
100
AcDbPolyline
 90
        9
 70
     0
 43
0.0
 10
34.76649874910021
 20
4.710895738899978
 10
34.7648408497002
 20
4.595655135699985
 10
34.7773817943002
 20
4.471811756999954
 10
34.7849757034002
 20
4.341248283499965
 10
34.78300061960022
 20
4.205983892699919
 10
34.78403153260018
 20
4.068061395399979
 10
34.78385977070019
 20
3.929625672999975
 10
34.7824973436002
 20
3.792853616999934
 10
34.7799563051002
 20
3.659903311499988
  0
LWPOLYLINE
  5
2D8B
330
22
100
AcDbEntity
  8
1
100
AcDbPolyline
 90
        9
 70
     0
 43
0.0
 10
34.7674001398002
 20
13.7094437822999
 10
34.7729054342002
 20
13.82184425809993
 10
34.7773817943002
 20
13.94346408789999
 10
34.78076754600019
 20
14.07233908919994
 10
34.78300061960022
 20
14.20648724759996
 10
34.78403153260018
 20
14.34389515229992
 10
34.78385977070019
 20
14.48241661159994
 10
34.7824973436002
 20
14.61986873969999
 10
34.7799563051002
 20
14.75408743519995
  0
LWPOLYLINE
  5
2E4A
330
22
100
AcDbEntity
  8
1
100
AcDbPolyline
 90
       11
 70
     0
 43
0.0
 10
43.73727405000019
 20
13.72006399549997
 10
43.77654357530019
 20
13.80895245940002
 10
43.81766639900019
 20
13.90492614909993
 10
43.86013261600021
 20
14.00676168719997
 10
43.90344295460022
 20
14.11326152669994
 10
43.94710601080021
 20
14.22325017909992
 10
43.99058877250019
 20
14.33542228469997
 10
44.03336332700019
 20
14.4483778769
 10
44.07495580190022
 20
14.56083207609998
 10
44.11488328320021
 20
14.67148054299997
 10
44.15264289200019
 20
14.77896558739996
  0
LWPOLYLINE
  5
2E57
330
22
100
AcDbEntity
  8
1
100
AcDbPolyline
 90
       21
 70
     0
 43
0.0
 10
34.37537052720021
 20
3.645969749999949
 10
34.32262530170021
 20
3.644996043399942
 10
34.2702877943002
 20
3.648376661799943
 10
34.21815985230021
 20
3.656133795599942
 10
34.16683593350018
 20
3.66820087309992
 10
34.11672874690021
 20
3.684563099299964
 10
34.06818538580021
 20
3.705087333700021
 10
34.02159285850018
 20
3.729702187399936
 10
33.9772441296002
 20
3.758207610099987
 10
33.93544977900021
 20
3.790492405599934
 10
33.8965439694002
 20
3.826218622199974
 10
33.86091052840021
 20
3.865089672799967
 10
33.82871104170019
 20
3.906870267399938
 10
33.80016084490021
 20
3.951387597499945
 10
33.7754825156002
 20
3.998157632799973
 10
33.75497139340018
 20
4.046720611199987
 10
33.73862452740019
 20
4.096830919699982
 10
33.7265221021002
 20
4.148245199099903
 10
33.7187100509002
 20
4.200496925999971
 10
33.71527011800021
 20
4.252970001899996
 10
33.71617505520021
 20
4.305869792999999
  0
LWPOLYLINE
  5
2E6E
330
22
100
AcDbEntity
  8
1
100
AcDbPolyline
 90
        9
 70
     0
 43
0.0
 10
34.7624123196002
 20
4.715807677299949
 10
34.65440298120021
 20
4.714295128000003
 10
34.53642262740022
 20
4.713028468299967
 10
34.41038463800021
 20
4.712025501200002
 10
34.27821988670018
 20
4.711304150499984
 10
34.14190002500021
 20
4.710879232499962
 10
34.00356595640023
 20
4.710753488999955
 10
33.86540460030019
 20
4.710926576699932
 10
33.7295841673002
 20
4.711398118799934
  0
LWPOLYLINE
  5
2E79
330
22
100
AcDbEntity
  8
1
100
AcDbPolyline
 90
       13
 70
     0
 43
0.0
 10
34.77995630450022
 20
3.659903311499988
 10
34.74634028920019
 20
3.659757133899972
 10
34.7127378262002
 20
3.659404243899984
 10
34.6791575940002
 20
3.658840539999971
 10
34.64557355690022
 20
3.658078327399948
 10
34.61196655360021
 20
3.657125933099962
 10
34.57832463900022
 20
3.655991190299971
 10
34.54462923050022
 20
3.65467907049998
 10
34.51088108000019
 20
3.653206485899943
 10
34.47707041200022
 20
3.651588631699951
 10
34.44321022650021
 20
3.649835630499978
 10
34.40931148260018
 20
3.647964568299983
 10
34.37537052720021
 20
3.645969749999949
  0
LINE
  5
2E88
330
22
100
AcDbEntity
  8
1
100
AcDbLine
 10
33.4592355373002
 20
6.993364445099985
 30
0.0
 11
33.52801342200019
 21
6.99344838099995
 31
0.0
  0
LINE
  5
2E89
330
22
100
AcDbEntity
  8
1
100
AcDbLine
 10
33.48016247940018
 20
6.68818716849995
 30
0.0
 11
33.52801342200019
 21
6.688245565399995
 31
0.0
  0
LINE
  5
2E8A
330
22
100
AcDbEntity
  8
1
100
AcDbLine
 10
34.76604357240021
 20
4.711215018299981
 30
0.0
 11
43.73651511670018
 21
4.721760354399975
 31
0.0
  0
LINE
  5
2E8B
330
22
100
AcDbEntity
  8
1
100
AcDbLine
 10
33.52794666930021
 20
4.28861101559994
 30
0.0
 11
33.48016247940018
 21
4.288552700199943
 31
0.0
  0
LINE
  5
2E8C
330
22
100
AcDbEntity
  8
1
100
AcDbLine
 10
33.3406495319002
 20
4.023418178099916
 30
0.0
 11
33.5577731695002
 21
4.02368315389998
 31
0.0
  0
LINE
  5
2E8D
330
22
100
AcDbEntity
  8
1
100
AcDbLine
 10
31.78312598470021
 20
3.849779143199953
 30
0.0
 11
14.29253548360017
 21
3.828440851399989
 31
0.0
  0
LINE
  5
2E8E
330
22
100
AcDbEntity
  8
1
100
AcDbLine
 10
43.7480571175002
 20
3.670847902299897
 30
0.0
 11
34.77995630450022
 21
3.659903311499988
 31
0.0
  0
LINE
  5
2E8F
330
22
100
AcDbEntity
  8
1
100
AcDbLine
 10
44.22420602600022
 20
3.469396804899929
 30
0.0
 11
34.3038073960002
 21
3.457290038299959
 31
0.0
  0
LINE
  5
2E90
330
22
100
AcDbEntity
  8
SK1
100
AcDbLine
 10
-23.49999999999983
 20
6.999999999999943
 30
0.0
 11
-9.699999999999818
 21
6.999999999999943
 31
0.0
  0
LINE
  5
2E91
330
22
100
AcDbEntity
  8
SK1
100
AcDbLine
 10
-6.999999999999829
 20
6.674999999999954
 30
0.0
 11
-8.960786437599807
 21
6.674999999999954
 31
0.0
  0
LWPOLYLINE
  5
2EB5
330
22
100
AcDbEntity
  8
1
100
AcDbPolyline
 90
        4
 70
     0
 43
0.0
 10
33.3406495319002
 20
4.023418178099916
 10
33.20730344420019
 20
4.029277262299899
 10
33.0733217934002
 20
4.047314397199954
 10
32.97575792700019
 20
4.068247713399955
  0
LWPOLYLINE
  5
2EBB
330
22
100
AcDbEntity
  8
1
100
AcDbPolyline
 90
       15
 70
     0
 43
0.0
 10
34.3038073960002
 20
3.457290038299959
 10
34.21543004970022
 20
3.462239456299926
 10
34.12955989030019
 20
3.476655649999941
 10
34.0457166491002
 20
3.500734497099983
 10
33.9653411317002
 20
3.533888364799906
 10
33.88945323730019
 20
3.575811416599947
 10
33.81883541640019
 20
3.625854142199955
 10
33.75439541060021
 20
3.683526608399915
 10
33.69677724590019
 20
3.748044248999974
 10
33.64676435240023
 20
3.818762135099973
 10
33.60484625960021
 20
3.894771421499967
 10
33.57167150710021
 20
3.975288744799911
 10
33.5475464939002
 20
4.059292730699951
 10
33.53305912120021
 20
4.145340571899964
 10
33.52801342200019
 20
4.233913204299994
  0
LWPOLYLINE
  5
2ECC
330
22
100
AcDbEntity
  8
1
100
AcDbPolyline
 90
       13
 70
     0
 43
0.0
 10
44.1526428919002
 20
3.657901846699928
 10
44.11867120530018
 20
3.659815690899904
 10
44.08471320820021
 20
3.661606757799972
 10
44.05075705870018
 20
3.663281234599935
 10
44.01683828300019
 20
3.664820559899965
 10
43.98298480710019
 20
3.666213390400002
 10
43.94920759000018
 20
3.667444259299998
 10
43.9155349328002
 20
3.668495162900001
 10
43.88194273550022
 20
3.66936236929996
 10
43.84842633820023
 20
3.670038598899964
 10
43.81495572210019
 20
3.670516491099988
 10
43.7814953687002
 20
3.670785035599919
 10
43.7480571175002
 20
3.670847902299897
  0
LWPOLYLINE
  5
2EDB
330
22
100
AcDbEntity
  8
1
100
AcDbPolyline
 90
        9
 70
     0
 43
0.0
 10
43.7404066469002
 20
4.725860887899955
 10
43.8595268491002
 20
4.717417330699959
 10
43.98644177300019
 20
4.724561187899951
 10
44.11925586920017
 20
4.72809017009996
 10
44.2558821643002
 20
4.723480801199968
 10
44.39426385190017
 20
4.723391126499961
 10
44.53225439690021
 20
4.723602607099962
 10
44.6676908988002
 20
4.724109591299963
 10
44.79842925470021
 20
4.724906439299957
  0
LWPOLYLINE
  5
2EE6
330
22
100
AcDbEntity
  8
1
100
AcDbPolyline
 90
       23
 70
     0
 43
0.0
 10
2.58603445670019
 20
10.34824816769992
 10
2.663755470700181
 20
10.33859774249998
 10
2.779843809400176
 20
10.32906539949994
 10
2.933765046200193
 20
10.31969767669994
 10
3.124738783100184
 20
10.31054006129994
 10
3.351864403700176
 20
10.30163736249994
 10
3.614006389400174
 20
10.29303272779998
 10
3.909915635000174
 20
10.28476833669992
 10
4.238123590800199
 20
10.27688415919993
 10
4.597056929000189
 20
10.26941893199995
 10
4.984942656000185
 20
10.26240866899996
 10
5.399913857200203
 20
10.25588790809996
 10
5.839927601300189
 20
10.24988800629995
 10
6.302859720400192
 20
10.24443863089993
 10
6.786437117400197
 20
10.23956587149996
 10
7.288319718600178
 20
10.23529394739995
 10
7.806048473000203
 20
10.23164317319998
 10
8.337112939500173
 20
10.22863184849996
 10
8.878916093100201
 20
10.22627411759998
 10
9.428826019500178
 20
10.22458200459994
 10
9.984157829700194
 20
10.22356320749998
 10
10.54220924590018
 20
10.22322324039999
 10
11.10026140960019
 20
10.22356320749998
  0
LINE
  5
2EFF
330
22
100
AcDbEntity
  8
SK1
100
AcDbLine
 10
-1.30445645749981
 20
8.31362966949996
 30
0.0
 11
-1.200928839499823
 21
8.299999999999954
 31
0.0
  0
LINE
  5
2F00
330
22
100
AcDbEntity
  8
1
100
AcDbLine
 10
2.11992448510017
 20
10.42564505519993
 30
0.0
 11
2.58603445670019
 21
10.34824816769992
 31
0.0
  0
LWPOLYLINE
  5
2F01
330
22
100
AcDbEntity
  8
1
100
AcDbPolyline
 90
       29
 70
     0
 43
0.0
 10
32.97575792700019
 20
4.068247713399955
 10
32.9404137084002
 20
4.077494284499948
 10
32.80790639180021
 20
4.120340698299969
 10
32.67549639380019
 20
4.176854093700001
 10
32.54500507950019
 20
4.247435541599941
 10
32.41799023730022
 20
4.332486189899952
 10
32.29601480990022
 20
4.43243228139994
 10
32.1807070266002
 20
4.547767140199937
 10
32.07480287140021
 20
4.67788186499996
 10
31.9805909767002
 20
4.822284694099948
 10
31.9011248304002
 20
4.978762324999991
 10
31.83873287280019
 20
5.144882246399959
 10
31.7952472460002
 20
5.317689647699921
 10
31.77183252170019
 20
5.493855453099968
 10
31.76888444190018
 20
5.670296985599918
 10
31.78618594860018
 20
5.843707958899983
 10
31.82292484000021
 20
6.011468086799993
 10
31.87777635650019
 20
6.170820229899959
 10
31.94931959640019
 20
6.320215261200019
 10
32.03597726780021
 20
6.458131821999927
 10
32.1359639943002
 20
6.583250235299942
 10
32.24742823570023
 20
6.694540725899912
 10
32.36845353930019
 20
6.791277732200001
 10
32.49697789760018
 20
6.872910281899976
 10
32.6315469697002
 20
6.939485388899981
 10
32.77060363990023
 20
6.991015509899966
 10
32.91303678630021
 20
7.027703017399971
 10
33.05797736460022
 20
7.049722764699993
 10
33.2037516451002
 20
7.05712838059992
  0
LWPOLYLINE
  5
2F21
330
22
100
AcDbEntity
  8
1
100
AcDbPolyline
 90
       15
 70
     0
 43
0.0
 10
43.6027140022002
 20
2.48900097219996
 10
43.59949232440022
 20
2.489999115299951
 10
43.5901160983002
 20
2.490972846299939
 10
43.5744601108002
 20
2.491928391899989
 10
43.55290000050018
 20
2.492847071799985
 10
43.52561134410021
 20
2.493715465199954
 10
43.4930691133002
 20
2.494524020399978
 10
43.45562085370019
 20
2.495261128899983
 10
43.41382442010018
 20
2.495919539599981
 10
43.36815125650019
 20
2.496489804599946
 10
43.31920814130021
 20
2.496966904499913
 10
43.26753558600017
 20
2.497343665899904
 10
43.2138038363002
 20
2.497617103700008
 10
43.15896961040022
 20
2.497781170099983
 10
9.731658970800197
 20
2.497837880899908
  0
LWPOLYLINE
  5
2F51
330
22
100
AcDbEntity
  8
1
100
AcDbPolyline
 90
        7
 70
     0
 43
0.0
 10
44.37041927090018
 20
-3.715057646600087
 10
44.3601295805002
 20
-3.707754758700048
 10
44.34958222540018
 20
-3.700741683400053
 10
44.3387883243002
 20
-3.694016634000035
 10
44.32771452160022
 20
-3.687584971100022
 10
44.31632746150021
 20
-3.681452055300042
 10
44.3046382627002
 20
-3.675616099600006
  0
LWPOLYLINE
  5
2F5A
330
22
100
AcDbEntity
  8
1
100
AcDbPolyline
 90
       19
 70
     0
 43
0.0
 10
44.37041927090018
 20
-3.715057646600087
 10
44.39667089390019
 20
-3.734024006600066
 10
44.42497136770021
 20
-3.754313309499991
 10
44.45515308400018
 20
-3.776163844200027
 10
44.48660307280019
 20
-3.799591482700066
 10
44.51880479250019
 20
-3.824507873600055
 10
44.55126092230019
 20
-3.850881384200022
 10
44.5834839972002
 20
-3.878551531400034
 10
44.61504832750017
 20
-3.907331618700084
 10
44.64544993750019
 20
-3.936881160000041
 10
44.67468993990019
 20
-3.967127991900042
 10
44.70270628330021
 20
-3.998082764400066
 10
44.7291260789002
 20
-4.029211146600061
 10
44.75373685530018
 20
-4.060047959600012
 10
44.77641312030022
 20
-4.090137167500017
 10
44.79714140230021
 20
-4.11901379040006
 10
44.81582658940022
 20
-4.146151681500043
 10
44.83249636260018
 20
-4.170935405000022
 10
44.8474068937002
 20
-4.193210024600034
  0
LWPOLYLINE
  5
2F6F
330
22
100
AcDbEntity
  8
1
100
AcDbPolyline
 90
       11
 70
     0
 43
0.0
 10
31.78312598470021
 20
3.849779143199953
 10
31.90148006890018
 20
3.741222774499931
 10
32.02662375400021
 20
3.641786629699993
 10
32.15962954810021
 20
3.550917004399991
 10
32.29772837390021
 20
3.470939673700002
 10
32.43891848660022
 20
3.403647538499967
 10
32.58202233120022
 20
3.348870569499922
 10
32.7250523125002
 20
3.307161363399927
 10
32.86835062020021
 20
3.277787072199998
 10
33.01149035650019
 20
3.260379092099981
 10
33.15466024320023
 20
3.25480252129995
  0
LWPOLYLINE
  5
2F7C
330
22
100
AcDbEntity
  8
1
100
AcDbPolyline
 90
       27
 70
     0
 43
0.0
 10
31.78312598470021
 20
3.849779143199953
 10
31.65985284050021
 20
3.981915276799952
 10
31.54993557270018
 20
4.123508633999961
 10
31.45300414510018
 20
4.275204020999979
 10
31.37016866600021
 20
4.435067019699999
 10
31.30229170500019
 20
4.601864279999972
 10
31.24974584260019
 20
4.774137404499924
 10
31.21315667160022
 20
4.950517478099925
 10
31.19262772500019
 20
5.129502703899959
 10
31.18852732530019
 20
5.309633625099991
 10
31.20068669720021
 20
5.489414305500019
 10
31.22920499920019
 20
5.667342666799981
 10
31.27364675180019
 20
5.841977677099976
 10
31.33383882770019
 20
6.011823905299934
 10
31.4090933290002
 20
6.175542470899927
 10
31.49897058550022
 20
6.331693616799952
 10
31.6025527859002
 20
6.479084541499958
 10
31.71914813630019
 20
6.616378368599953
 10
31.84763891490022
 20
6.742567564699982
 10
31.98710383310021
 20
6.856461997999986
 10
32.13626179740021
 20
6.957272587600016
 10
32.29399434400022
 20
7.043995461399958
 10
32.45889229510022
 20
7.116084861200022
 10
32.6296590039002
 20
7.172752975899925
 10
32.80483841420019
 20
7.213722091699935
 10
32.98230622030019
 20
7.238384350999979
 10
33.16277052390021
 20
7.246942373099955
  0
LWPOLYLINE
  5
2F99
330
22
100
AcDbEntity
  8
1
100
AcDbPolyline
 90
        7
 70
     0
 43
0.0
 10
34.7624123196002
 20
4.714791190599953
 10
34.76277702320022
 20
4.71392043109995
 10
34.76313313740019
 20
4.713219808399912
 10
34.76338242010019
 20
4.712745801299945
 10
34.76381959740022
 20
4.71232897279998
 10
34.76473939550022
 20
4.711799885399955
 10
34.76604357240021
 20
4.711215018299981
  0
LINE
  5
2FA2
330
22
100
AcDbEntity
  8
1
100
AcDbLine
 10
33.2037516451002
 20
7.05712838059992
 30
0.0
 11
33.16277052390021
 21
7.246942373099955
 31
0.0
  0
LWPOLYLINE
  5
2FA3
330
22
100
AcDbEntity
  8
1
100
AcDbPolyline
 90
       15
 70
     0
 43
0.0
 10
33.52801342200019
 20
-14.17049223949999
 10
33.53305914410021
 20
-14.25908539420004
 10
33.54754696730021
 20
-14.34516523980005
 10
33.57167290620021
 20
-14.42921321770007
 10
33.6048489163002
 20
-14.50978500390005
 10
33.64676861750019
 20
-14.5858582088
 10
33.6967830305002
 20
-14.65664847120007
 10
33.7544022356002
 20
-14.72124583300007
 10
33.8188426744002
 20
-14.77900469540003
 10
33.8894599372002
 20
-14.82913971520008
 10
33.9653466586002
 20
-14.87116016780004
 10
34.04572047460019
 20
-14.90441592960002
 10
34.1295619707002
 20
-14.92859985360002
 10
34.21543091920018
 20
-14.94312260300006
 10
34.3038073960002
 20
-14.94818062330006
  0
LWPOLYLINE
  5
2FB4
330
22
100
AcDbEntity
  8
1
100
AcDbPolyline
 90
       39
 70
     0
 43
0.0
 10
33.52801342200019
 20
-14.1704923135
 10
33.52833964890022
 20
-14.18069569180005
 10
33.52925628850019
 20
-14.19045698130003
 10
33.53080537190022
 20
-14.19984232460001
 10
33.53286080590021
 20
-14.2086532939
 10
33.53532802480021
 20
-14.21665955029999
 10
33.5381544780002
 20
-14.22402296940004
 10
33.54125888310023
 20
-14.23080020110006
 10
33.54463287030021
 20
-14.23707658379999
 10
33.5482418359002
 20
-14.24294351270009
 10
33.55208319820019
 20
-14.2484394667
 10
33.55614253410022
 20
-14.25362535030001
 10
33.5604207648002
 20
-14.25852528190006
 10
33.56491243650021
 20
-14.26317798449997
 10
33.56962225110021
 20
-14.26760054900006
 10
33.5745509852002
 20
-14.27181930210003
 10
33.5797049601002
 20
-14.27584525940005
 10
33.58508901990021
 20
-14.27969630699999
 10
33.59070837350021
 20
-14.28337816100003
 10
33.5965674135002
 20
-14.28690112160007
 10
33.60267343270022
 20
-14.29026932300007
 10
33.60903237100018
 20
-14.29348959809999
 10
33.61565267930018
 20
-14.29656415120007
 10
33.62254139580023
 20
-14.29949719050006
 10
33.6297086971002
 20
-14.30228953720007
 10
33.6371635443002
 20
-14.3049436878
 10
33.64491662220018
 20
-14.30745882490004
 10
33.65297811990021
 20
-14.30983571390004
 10
33.6613584861002
 20
-14.31207210280001
 10
33.67006770540019
 20
-14.31416701790005
 10
33.67911735910019
 20
-14.31611739020008
 10
33.6885178066002
 20
-14.31792109480005
 10
33.69828269730021
 20
-14.31957432580003
 10
33.70842391240021
 20
-14.32107415140001
 10
33.71895711530021
 20
-14.32241582410006
 10
33.7298966356002
 20
-14.32359558710004
 10
33.74125835610022
 20
-14.32460753570001
 10
33.7530655187002
 20
-14.32544361820004
 10
33.7653103760002
 20
-14.32610651850001
  0
LWPOLYLINE
  5
2FDD
330
22
100
AcDbEntity
  8
1
100
AcDbPolyline
 90
       11
 70
     0
 43
0.0
 10
33.48016247940018
 20
6.68818716849995
 10
33.4799048340002
 20
6.735174663699979
 10
33.4791382420002
 20
6.781133777699949
 10
33.47788157930021
 20
6.824932844399995
 10
33.47616578910021
 20
6.865493385599961
 10
33.47403312000017
 20
6.901816666099989
 10
33.4715360852002
 20
6.933008286099948
 10
33.4687361702002
 20
6.958300204599936
 10
33.46570231800021
 20
6.977069650399982
 10
33.46250923230019
 20
6.988854457599984
 10
33.4592355373002
 20
6.993364445099985
  0
LINE
  5
2FEA
330
22
100
AcDbEntity
  8
1
100
AcDbLine
 10
33.52801342200019
 20
4.233913204299994
 30
0.0
 11
33.52801342200019
 21
14.17702182239992
 31
0.0
  0
LINE
  5
2FEB
330
22
100
AcDbEntity
  8
1
100
AcDbLine
 10
33.52801342200019
 20
-13.72982336680002
 30
0.0
 11
33.52801342200019
 21
-14.17049223949999
 31
0.0
  0
LINE
  5
2FEC
330
22
100
AcDbEntity
  8
1
100
AcDbLine
 10
33.38262043510019
 20
13.65655100869998
 30
0.0
 11
33.38262043510019
 21
7.247210675999951
 31
0.0
  0
LWPOLYLINE
  5
2FED
330
22
100
AcDbEntity
  8
1
100
AcDbPolyline
 90
        9
 70
     0
 43
0.0
 10
33.48016247940018
 20
4.288552700199943
 10
33.47990483680019
 20
4.241694038899936
 10
33.4791382510002
 20
4.196117731099946
 10
33.47788159590022
 20
4.152946013799919
 10
33.47616581280022
 20
4.113241929099899
 10
33.47403314830021
 20
4.077983136900002
 10
33.47153611480019
 20
4.048037846499994
 10
33.4687361972002
 20
4.024143431099957
 10
33.46863614330022
 20
4.023574371899997
  0
LWPOLYLINE
  5
2FF8
330
22
100
AcDbEntity
  8
1
100
AcDbPolyline
 90
       15
 70
     0
 43
0.0
 10
33.52801342200019
 20
14.17702182239992
 10
33.53305914410021
 20
14.26560764169994
 10
33.54754696730021
 20
14.35169205779994
 10
33.57167290620021
 20
14.43575667779993
 10
33.6048489163002
 20
14.51635668019992
 10
33.64676861750019
 20
14.59246945719996
 10
33.6967830305002
 20
14.66330997509999
 10
33.7544022356002
 20
14.72796781629995
 10
33.8188426744002
 20
14.78579652429999
 10
33.8894599372002
 20
14.83601008899995
 10
33.9653466586002
 20
14.87811675319995
 10
34.04572047460022
 20
14.91146553749996
 10
34.1295619707002
 20
14.93574809759997
 10
34.21543091920018
 20
14.95037342879993
 10
34.3038073960002
 20
14.95553853259997
  0
LWPOLYLINE
  5
3009
330
22
100
AcDbEntity
  8
1
100
AcDbPolyline
 90
       13
 70
     0
 43
0.0
 10
33.71617505520021
 20
4.305869792999999
 10
33.71812589220019
 20
4.33992162919992
 10
33.71995421570023
 20
4.373959594899929
 10
33.72166621320019
 20
4.407995566799968
 10
33.72324332230022
 20
4.441993914799923
 10
33.72467419170019
 20
4.47592663499995
 10
33.72594337660022
 20
4.509782724499928
 10
33.72703287990021
 20
4.543533795500025
 10
33.72793900760019
 20
4.577203998599998
 10
33.72865450240022
 20
4.610797995599966
 10
33.7291720570002
 20
4.644345864899946
 10
33.7294807296002
 20
4.677883193199988
 10
33.7295841673002
 20
4.711398118199952
  0
LINE
  5
3018
330
22
100
AcDbEntity
  8
1
100
AcDbLine
 10
33.15466024320023
 20
3.25480252129995
 30
0.0
 11
33.3406495319002
 21
4.023418178099916
 31
0.0
  0
LWPOLYLINE
  5
3019
330
22
100
AcDbEntity
  8
1
100
AcDbPolyline
 90
       11
 70
     0
 43
0.0
 10
34.76562704140019
 20
4.711138903599987
 10
34.7365078306002
 20
4.619717113700005
 10
34.70401154050021
 20
4.521590404699963
 10
34.66856421970021
 20
4.418003083299993
 10
34.63058281000019
 20
4.310173244099928
 10
34.59047547410023
 20
4.199297151399946
 10
34.54870595970021
 20
4.086697451699933
 10
34.50580779180018
 20
3.973772711099968
 10
34.46227943790021
 20
3.861801670499971
 10
34.41862537310021
 20
3.752083288199969
 10
34.3753705300002
 20
3.645969750099993
  0
LWPOLYLINE
  5
3125
330
22
100
AcDbEntity
  8
1
100
AcDbPolyline
 90
        7
 70
     0
 43
0.0
 10
43.73651511670018
 20
4.721760354399975
 10
43.73738433140021
 20
4.722126953799943
 10
43.7380837876002
 20
4.72248473679997
 10
43.73855701550019
 20
4.722735167599978
 10
43.73897342430018
 20
4.723173853899936
 10
43.7395024232002
 20
4.724096403199951
 10
43.74008754250019
 20
4.725404279700001
  0
LINE
  5
312E
330
22
100
AcDbEntity
  8
SK1
100
AcDbLine
 10
-1.30445645749981
 20
-8.313629669500016
 30
0.0
 11
-1.999999999999829
 21
-8.500000000000056
 31
0.0
  0
LINE
  5
312F
330
22
100
AcDbEntity
  8
4
100
AcDbLine
 10
-1.987480862799799
 20
-0.2737847595000176
 30
0.0
 11
45.99595851903479
 21
4.123610576415046
 31
0.0
  0
LINE
  5
3130
330
22
100
AcDbEntity
  8
1
100
AcDbLine
 10
33.15466024320023
 20
3.25480252129995
 30
0.0
 11
43.6027140022002
 21
3.267553233599983
 31
0.0
  0
LINE
  5
3131
330
22
100
AcDbEntity
  8
1
100
AcDbLine
 10
17.00000000000017
 20
0.6722361523999325
 30
0.0
 11
6.00000000000017
 21
0.6722361523999325
 31
0.0
  0
LINE
  5
3132
330
22
100
AcDbEntity
  8
1
100
AcDbLine
 10
43.60271395710021
 20
-0.0000000000000568
 30
0.0
 11
45.0000000000002
 21
-0.0000000000000568
 31
0.0
  0
LINE
  5
3133
330
22
100
AcDbEntity
  8
4
100
AcDbLine
 10
47.98716597163485
 20
-0.0000000000000568
 30
0.0
 11
0.5000000000001706
 21
0.0
 31
0.0
  0
LWPOLYLINE
  5
3134
330
22
100
AcDbEntity
  8
1
100
AcDbPolyline
 90
        4
 70
     0
 43
0.0
 10
9.731658970800197
 20
2.497837880899908
 10
9.209865065500196
 20
2.514272347399924
 10
8.688946609600179
 20
2.565364930499981
 10
8.410213706000178
 20
2.606875994599931
  0
LINE
  5
313A
330
22
100
AcDbEntity
  8
SK1
100
AcDbLine
 10
-1.30445645749981
 20
8.31362966949996
 30
0.0
 11
-1.999999999999829
 21
8.499999999999943
 31
0.0
  0
LINE
  5
313B
330
22
100
AcDbEntity
  8
1
100
AcDbLine
 10
44.08693729810022
 20
-13.73373446050004
 30
0.0
 11
43.6027140022002
 21
-13.2118338981
 31
0.0
  0
LINE
  5
313C
330
22
100
AcDbEntity
  8
1
100
AcDbLine
 10
44.8474068937002
 20
-14.20315122199997
 30
0.0
 11
44.27090396230022
 21
-13.45386313650005
 31
0.0
  0
LINE
  5
313D
330
22
100
AcDbEntity
  8
1
100
AcDbLine
 10
44.37041927090018
 20
-14.68130360000003
 30
0.0
 11
43.79391633950018
 21
-13.93201551449999
 31
0.0
  0
LWPOLYLINE
  5
313E
330
22
100
AcDbEntity
  8
1
100
AcDbPolyline
 90
       11
 70
     0
 43
0.0
 10
34.76249444460021
 20
4.714904323399935
 10
34.6774982828002
 20
4.685594271100001
 10
34.58543529030021
 20
4.640293458999963
 10
34.4865202348002
 20
4.596338236099995
 10
34.3823091710002
 20
4.55871225089993
 10
34.27395788070021
 20
4.51615304789999
 10
34.1627371946002
 20
4.47307875499996
 10
34.05004533620019
 20
4.43002230589991
 10
33.93717289330022
 20
4.38746947409993
 10
33.82542871770019
 20
4.345913976499957
 10
33.71617505520021
 20
4.305869792999999
  0
LINE
  5
314B
330
22
100
AcDbEntity
  8
SK1
100
AcDbLine
 10
-1.30445645749981
 20
-8.313629669500016
 30
0.0
 11
-1.200928839499823
 21
-8.300000000000011
 31
0.0
  0
LINE
  5
314C
330
22
100
AcDbEntity
  8
1
100
AcDbLine
 10
44.22420602600022
 20
-3.448180623300061
 30
0.0
 11
43.6027140022002
 21
-3.448180623300061
 31
0.0
  0
LINE
  5
314D
330
22
100
AcDbEntity
  8
1
100
AcDbLine
 10
44.44222206280019
 20
-3.623122901500039
 30
0.0
 11
43.6027140022002
 21
-3.623122901500039
 31
0.0
  0
LINE
  5
314E
330
22
100
AcDbEntity
  8
1
100
AcDbLine
 10
44.3046382627002
 20
-3.675616099600006
 30
0.0
 11
43.6027140022002
 21
-3.675616099600006
 31
0.0
  0
LINE
  5
314F
330
22
100
AcDbEntity
  8
4
100
AcDbLine
 10
-1.987480862799799
 20
0.2737847594999607
 30
0.0
 11
45.99595851903479
 21
-4.123610576415046
 31
0.0
  0
LWPOLYLINE
  5
3150
330
22
100
AcDbEntity
  8
1
100
AcDbPolyline
 90
       25
 70
     0
 43
0.0
 10
8.410213706000178
 20
2.606875994599931
 10
8.166722533500177
 20
2.65117312359996
 10
7.649736046100173
 20
2.771204492099968
 10
7.142462693000197
 20
2.92565319559992
 10
6.648924394900205
 20
3.112177726599952
 10
6.173863011100195
 20
3.32934127889996
 10
5.7195942708002
 20
3.574266763499963
 10
5.289995270800204
 20
3.844100426199986
 10
4.885123768100186
 20
4.137016774799917
 10
4.506216141600191
 20
4.450691940899957
 10
4.153613622100181
 20
4.783412880999946
 10
3.827950899400178
 20
5.133161251899991
 10
3.529583975500202
 20
5.498147784699995
 10
3.258908213700181
 20
5.876692050299936
 10
3.016440219800188
 20
6.266078067399973
 10
2.803587892300186
 20
6.661340733299994
 10
2.618072717000188
 20
7.067426029399996
 10
2.457140160800207
 20
7.489033357699952
 10
2.323626180200193
 20
7.919800572399935
 10
2.219609877900182
 20
8.357532616500009
 10
2.144607282400187
 20
8.794437001699975
 10
2.099896779500198
 20
9.22442580439997
 10
2.082270399500174
 20
9.642581020999955
 10
2.088598571300195
 20
10.0424021737
 10
2.11992448510017
 20
10.42564505519993
  0
LINE
  5
316B
330
22
100
AcDbEntity
  8
1
100
AcDbLine
 10
8.3181766948002
 20
2.680468917799942
 30
0.0
 11
8.821241908800175
 21
2.552389178799955
 31
0.0
  0
LWPOLYLINE
  5
316C
330
22
100
AcDbEntity
  8
1
100
AcDbPolyline
 90
       11
 70
     0
 43
0.0
 10
35.0379263861002
 20
-13.73373446050004
 10
35.05134454180018
 20
-13.76961772890001
 10
35.06804232920018
 20
-13.80237859460004
 10
35.08814006740022
 20
-13.83220752919999
 10
35.1112767987002
 20
-13.85853311760007
 10
35.1371907873002
 20
-13.88081925710003
 10
35.16570468590021
 20
-13.89915048199998
 10
35.19652666980022
 20
-13.91342480550008
 10
35.2297384348002
 20
-13.92366568699998
 10
35.26532245430019
 20
-13.92986127290004
 10
35.30328457050021
 20
-13.93201551449999
  0
LINE
  5
3179
330
22
100
AcDbEntity
  8
1
100
AcDbLine
 10
43.79391633950018
 20
-4.464345732100014
 30
0.0
 11
43.6027140022002
 21
-4.464345732100014
 31
0.0
  0
LINE
  5
317A
330
22
100
AcDbEntity
  8
SK1
100
AcDbLine
 10
-6.999999999999829
 20
-6.675000000000011
 30
0.0
 11
-8.960786437599807
 21
-6.675000000000011
 31
0.0
  0
LINE
  5
317B
330
22
100
AcDbEntity
  8
SK1
100
AcDbLine
 10
-23.49999999999983
 20
-7.000000000000056
 30
0.0
 11
-9.699999999999818
 21
-7.000000000000056
 31
0.0
  0
LINE
  5
317C
330
22
100
AcDbEntity
  8
SK1
100
AcDbLine
 10
-10.69999999999982
 20
-8.000000000000056
 30
0.0
 11
-22.49999999999983
 21
-8.000000000000056
 31
0.0
  0
LWPOLYLINE
  5
319B
330
22
100
AcDbEntity
  8
1
100
AcDbPolyline
 90
        7
 70
     0
 43
0.0
 10
44.44222206280019
 20
-14.77323834510002
 10
44.4201251474002
 20
-14.763663726
 10
44.3977635578002
 20
-14.75442068470005
 10
44.37520180650023
 20
-14.74551041790005
 10
44.35224635650018
 20
-14.73692933510006
 10
44.32870367110019
 20
-14.72867384580007
 10
44.3046382627002
 20
-14.720745147
  0
LWPOLYLINE
  5
31A4
330
22
100
AcDbEntity
  8
1
100
AcDbPolyline
 90
       17
 70
     0
 43
0.0
 10
14.29253548360017
 20
3.828440851399989
 10
13.9299445396002
 20
4.117483468799946
 10
13.58583974280017
 20
4.426007116799951
 10
13.25969584510017
 20
4.754575985999963
 10
12.95308859070019
 20
5.101497504699977
 10
12.66713392690019
 20
5.465703186899986
 10
12.40268599610019
 20
5.845884966099959
 10
12.16073719230019
 20
6.240846568799952
 10
11.94198870810018
 20
6.649184129099921
 10
11.74729709040019
 20
7.069570878599961
 10
11.57718866990021
 20
7.500579251299939
 10
11.43235734450019
 20
7.940874713399921
 10
11.31315696010017
 20
8.388851399099905
 10
11.22010016270019
 20
8.843174183499968
 10
11.15340444920017
 20
9.30169631139995
 10
11.11350674550019
 20
9.761502011499999
 10
11.10026140960019
 20
10.22356320749998
  0
LWPOLYLINE
  5
31B7
330
22
100
AcDbEntity
  8
1
100
AcDbPolyline
 90
        5
 70
     0
 43
0.0
 10
34.38486178710019
 20
-14.68130360000003
 10
34.3665644454002
 20
-14.66233724000005
 10
34.34534710460019
 20
-14.64204793710002
 10
34.3213677290002
 20
-14.62019740240004
 10
34.26728645810022
 20
-14.57185337290002
  0
LWPOLYLINE
  5
31BE
330
22
100
AcDbEntity
  8
1
100
AcDbPolyline
 90
        7
 70
     0
 43
0.0
 10
34.38486178710019
 20
-14.68130360000003
 10
34.39181902680019
 20
-14.68860653460001
 10
34.39916616350018
 20
-14.69561963730007
 10
34.40689126570021
 20
-14.70234469450003
 10
34.41503012750019
 20
-14.70877634710001
 10
34.42361854290022
 20
-14.71490923580006
 10
34.43264458050021
 20
-14.720745147
  0
LWPOLYLINE
  5
31C7
330
22
100
AcDbEntity
  8
1
100
AcDbPolyline
 90
        7
 70
     0
 43
0.0
 10
33.85952958760021
 20
-14.1462306656
 10
33.86668164830022
 20
-14.15661199920004
 10
33.87419821980021
 20
-14.16662328160009
 10
33.88208151770021
 20
-14.17625305500002
 10
33.89032489520019
 20
-14.18553569270005
 10
33.89892170550019
 20
-14.19450556760006
 10
33.90787416430021
 20
-14.20315122199997
  0
LWPOLYLINE
  5
31D0
330
22
100
AcDbEntity
  8
1
100
AcDbPolyline
 90
        7
 70
     0
 43
0.0
 10
34.7663859747002
 20
13.70944254469998
 10
34.7655167600002
 20
13.70907594529995
 10
34.76481730380021
 20
13.70871816229993
 10
34.7643440759002
 20
13.70846773149998
 10
34.7639276671002
 20
13.7080290451999
 10
34.76339866820021
 20
13.70710649589995
 10
34.76281354900021
 20
13.70579861940001
  0
LINE
  5
31D9
330
22
100
AcDbEntity
  8
SK1
100
AcDbLine
 10
-0.2999999999998124
 20
-8.300000000000011
 30
0.0
 11
-1.200928839499823
 21
-8.300000000000011
 31
0.0
  0
LINE
  5
31DA
330
22
100
AcDbEntity
  8
SK1
100
AcDbLine
 10
-1.999999999999829
 20
-8.500000000000056
 30
0.0
 11
-5.599999999999823
 21
-8.500000000000056
 31
0.0
  0
LWPOLYLINE
  5
31F1
330
22
100
AcDbEntity
  8
1
100
AcDbPolyline
 90
       14
 70
     0
 43
0.0
 10
34.26728645810022
 20
-14.57185337290002
 10
34.23816050120019
 20
-14.54547986239998
 10
34.20829844920019
 20
-14.51780971520008
 10
34.17813789490021
 20
-14.48902962790004
 10
34.14820509200018
 20
-14.45948008660008
 10
34.11849186470022
 20
-14.42923325470002
 10
34.08906571610021
 20
-14.39827848220005
 10
34.06027954460021
 20
-14.36715010000006
 10
34.0323374310002
 20
-14.33631328699999
 10
34.00536383740021
 20
-14.30622407910005
 10
33.97935799310022
 20
-14.27734745620006
 10
33.95446890390019
 20
-14.25020956510008
 10
33.9307237292002
 20
-14.22542584150005
 10
33.90787416430021
 20
-14.20315122199997
  0
LINE
  5
3201
330
22
100
AcDbEntity
  8
1
100
AcDbLine
 10
17.00000000000017
 20
-14.21678860960003
 30
0.0
 11
17.00000000000017
 21
0.6722361523999325
 31
0.0
  0
LWPOLYLINE
  5
3202
330
22
100
AcDbEntity
  8
1
100
AcDbPolyline
 90
        7
 70
     0
 43
0.0
 10
34.43264458050021
 20
-14.720745147
 10
34.39592698620021
 20
-14.72867584100004
 10
34.3592150879002
 20
-14.73693242720003
 10
34.3225758506002
 20
-14.74551361480007
 10
34.2858083790002
 20
-14.75442327600001
 10
34.24871177770018
 20
-14.76366528300008
 10
34.2113530119002
 20
-14.77323834510002
  0
LWPOLYLINE
  5
320B
330
22
100
AcDbEntity
  8
1
100
AcDbPolyline
 90
       14
 70
     0
 43
0.0
 10
31.68440418680018
 20
-14.49999962540005
 10
31.75048145970021
 20
-14.48594666470006
 10
31.88096164450019
 20
-14.43514194320005
 10
32.06889254720022
 20
-14.35001137180001
 10
32.3113054177002
 20
-14.23601758680002
 10
32.6069434975002
 20
-14.10000522610005
 10
32.95166039610018
 20
-13.9499053752001
 10
33.3424958976002
 20
-13.79492971140001
 10
33.77463471920021
 20
-13.64327299250004
 10
34.25161815990021
 20
-13.50293681060003
 10
34.7454162576002
 20
-13.38298313470005
 10
35.23571596730022
 20
-13.29503917800008
 10
35.70290783660022
 20
-13.23611432320001
 10
36.11731384000018
 20
-13.20288366750003
  0
LWPOLYLINE
  5
321B
330
22
100
AcDbEntity
  8
1
100
AcDbPolyline
 90
       11
 70
     0
 43
0.0
 10
43.79391633950018
 20
-13.93201551449999
 10
43.83216522550021
 20
-13.92986258900004
 10
43.86859992400019
 20
-13.92367207050006
 10
43.90322597810021
 20
-13.91344034280001
 10
43.93602675830021
 20
-13.89917825480006
 10
43.96708831650022
 20
-13.88086381520009
 10
43.99610815160019
 20
-13.85859192900005
 10
44.02292625720019
 20
-13.8322725946
 10
44.04720120090019
 20
-13.80243854070005
 10
44.0684888685002
 20
-13.7696553371
 10
44.08693729810022
 20
-13.73373446050004
  0
LWPOLYLINE
  5
3228
330
22
100
AcDbEntity
  8
1
100
AcDbPolyline
 90
       39
 70
     0
 43
0.0
 10
44.22420610920016
 20
-14.94818062330006
 10
44.23447029720017
 20
-14.94794015210004
 10
44.24444974490017
 20
-14.94726445700002
 10
44.25422153990019
 20
-14.94612256080006
 10
44.26355441980018
 20
-14.94460739470003
 10
44.27219364610019
 20
-14.94278865010005
 10
44.2802867341002
 20
-14.94070506970007
 10
44.28786864860017
 20
-14.93841656940003
 10
44.29502230200017
 20
-14.93592932059999
 10
44.30182969480017
 20
-14.93326883230009
 10
44.30832852700018
 20
-14.93043700780004
 10
44.31457573160019
 20
-14.92744447970006
 10
44.32059560960019
 20
-14.92429056910009
 10
44.32642534230018
 20
-14.92097929699997
 10
44.33208322270019
 20
-14.91750719629999
 10
44.33759571700017
 20
-14.91387369419999
 10
44.34297548700018
 20
-14.91007412920004
 10
44.34824165670017
 20
-14.90610492860003
 10
44.35340130540018
 20
-14.90196225210002
 10
44.35846586880018
 20
-14.89764286110005
 10
44.36344140050019
 20
-14.89314137800005
 10
44.36833628770017
 20
-14.88845342290005
 10
44.3731549645002
 20
-14.88357276490001
 10
44.37790349020019
 20
-14.87849421480007
 10
44.38258537620018
 20
-14.87321026879999
 10
44.38720548350016
 20
-14.86771431970004
 10
44.39176582340019
 20
-14.86199848860002
 10
44.39626985520021
 20
-14.85605526220007
 10
44.40071809620019
 20
-14.84987693640005
 10
44.40511221600019
 20
-14.84345614930004
 10
44.40945221670017
 20
-14.83678436140002
 10
44.4137387188002
 20
-14.82985393430005
 10
44.41797153670018
 20
-14.8226548028
 10
44.42215088920019
 20
-14.81517820580006
 10
44.42627618390019
 20
-14.80741259300003
 10
44.43034746440019
 20
-14.7993473977001
 10
44.43436304170018
 20
-14.79097090820005
 10
44.4383210318002
 20
-14.78226598640003
 10
44.44222206280019
 20
-14.77323834510002
  0
LINE
  5
3251
330
22
100
AcDbEntity
  8
1
100
AcDbLine
 10
36.11731384000018
 20
-13.20288366750003
 30
0.0
 11
36.48882665240021
 21
-13.19818062330006
 31
0.0
  0
LWPOLYLINE
  5
3252
330
22
100
AcDbEntity
  8
1
100
AcDbPolyline
 90
       12
 70
     0
 43
0.0
 10
7.470836453400181
 20
-14.49999856390002
 10
7.580753579600184
 20
-14.49980456320003
 10
8.01831520730019
 20
-14.49632785890003
 10
8.465307552000183
 20
-14.48966052400004
 10
8.921665334300172
 20
-14.48115371030002
 10
9.385916900300173
 20
-14.47200046400007
 10
9.856685820800208
 20
-14.46322173230004
 10
10.33362114260018
 20
-14.45563033360002
 10
10.81630357810019
 20
-14.44985066730004
 10
11.30356170040019
 20
-14.44634471990002
 10
11.7939204214002
 20
-14.44538938760007
 10
12.28787143700017
 20
-14.44704794180001
  0
LINE
  5
3260
330
22
100
AcDbEntity
  8
1
100
AcDbLine
 10
43.6027140022002
 20
-13.19818062330006
 30
0.0
 11
36.48882665240021
 21
-13.19818062330006
 31
0.0
  0
LINE
  5
3261
330
22
100
AcDbEntity
  8
1
100
AcDbLine
 10
36.00569915060021
 20
-13.2118338981
 30
0.0
 11
43.6027140022002
 21
-13.2118338981
 31
0.0
  0
LINE
  5
3262
330
22
100
AcDbEntity
  8
1
100
AcDbLine
 10
35.30328457050021
 20
-13.93201551449999
 30
0.0
 11
43.79391633950018
 21
-13.93201551449999
 31
0.0
  0
LINE
  5
3263
330
22
100
AcDbEntity
  8
1
100
AcDbLine
 10
17.00000000000017
 20
-14.21678860960003
 30
0.0
 11
6.00000000000017
 21
-14.21678860960003
 31
0.0
  0
LINE
  5
3264
330
22
100
AcDbEntity
  8
1
100
AcDbLine
 10
31.69262242620022
 20
-14.50000000000005
 30
0.0
 11
29.9931277158002
 21
-14.50000000000005
 31
0.0
  0
LINE
  5
3265
330
22
100
AcDbEntity
  8
1
100
AcDbLine
 10
7.473250667300192
 20
-14.50000000000005
 30
0.0
 11
0.5000000000001706
 21
-14.50000000000005
 31
0.0
  0
LINE
  5
3266
330
22
100
AcDbEntity
  8
1
100
AcDbLine
 10
34.43264458050021
 20
-14.720745147
 30
0.0
 11
44.3046382627002
 21
-14.720745147
 31
0.0
  0
LINE
  5
3267
330
22
100
AcDbEntity
  8
1
100
AcDbLine
 10
34.2113530119002
 20
-14.77323834510002
 30
0.0
 11
44.44222206280019
 21
-14.77323834510002
 31
0.0
  0
LINE
  5
3268
330
22
100
AcDbEntity
  8
1
100
AcDbLine
 10
34.3038073960002
 20
-14.94818062330006
 30
0.0
 11
44.22420602600019
 21
-14.94818062330006
 31
0.0
  0
LWPOLYLINE
  5
3269
330
22
100
AcDbEntity
  8
1
100
AcDbPolyline
 90
        7
 70
     0
 43
0.0
 10
29.99232763610019
 20
-14.49999823920001
 10
28.4389492956002
 20
-14.49959094960002
 10
25.2035150959002
 20
-14.49613160720003
 10
21.96982731220018
 20
-14.48914192699999
 10
18.7388834388002
 20
-14.47862850960001
 10
15.51168097000018
 20
-14.46459795560002
 10
12.28788740770019
 20
-14.44704806480007
  0
LWPOLYLINE
  5
3272
330
22
100
AcDbEntity
  8
1
100
AcDbPolyline
 90
       14
 70
     0
 43
0.0
 10
13.69276577720018
 20
2.497837880899908
 10
13.67556507850017
 20
2.55139558259998
 10
13.66506337320018
 20
2.622212011499982
 10
13.66520323850017
 20
2.69982814019994
 10
13.67592117510017
 20
2.785542909299977
 10
13.69757727760017
 20
2.878339625199942
 10
13.73047991130019
 20
2.977387602499959
 10
13.77475450510019
 20
3.082626746099947
 10
13.83050955160018
 20
3.193714159599949
 10
13.89809147600019
 20
3.310472172899949
 10
13.97776346600017
 20
3.432598936599902
 10
14.06985666750017
 20
3.559873050599946
 10
14.1748576189002
 20
3.692154924899966
 10
14.2925266766002
 20
3.828440840699954
  0
LWPOLYLINE
  5
3289
330
22
100
AcDbEntity
  8
1
100
AcDbPolyline
 90
       39
 70
     0
 43
0.0
 10
44.88826469870019
 20
-14.32610651850001
 10
44.8940211467002
 20
-14.32544487440003
 10
44.89957237800019
 20
-14.32461052989998
 10
44.90491475430019
 20
-14.3236008307
 10
44.91005919010018
 20
-14.32242373949998
 10
44.91501315530018
 20
-14.32108509860006
 10
44.91978334470019
 20
-14.31958861430002
 10
44.92437711400021
 20
-14.31793896680005
 10
44.9287999505002
 20
-14.31613907590008
 10
44.93305815750019
 20
-14.31419273400007
 10
44.9371566419002
 20
-14.31210200330002
 10
44.94110085210019
 20
-14.30986990240001
 10
44.9448954666002
 20
-14.30749735430004
 10
44.94854541220019
 20
-14.30498653850003
 10
44.95205539190021
 20
-14.30233670410007
 10
44.9554303511002
 20
-14.29954866540004
 10
44.95867448970019
 20
-14.29661990640005
 10
44.96179254510019
 20
-14.29354960870006
 10
44.9647878504002
 20
-14.29033349449997
 10
44.96766440270019
 20
-14.28696929030002
 10
44.97042494840019
 20
-14.28345016590009
 10
44.97307285510021
 20
-14.27977202739998
 10
44.9756102563002
 20
-14.27592439300008
 10
44.9780396872002
 20
-14.27190134410006
 10
44.9803633093002
 20
-14.26768509730004
 10
44.98258403230022
 20
-14.26326462340006
 10
44.9847021463002
 20
-14.25861374070001
 10
44.98671971450019
 20
-14.25371567230007
 10
44.98863432700019
 20
-14.24853117410009
 10
44.99044654990021
 20
-14.24303577670002
 10
44.99214951800019
 20
-14.2371683784001
 10
44.9937419778002
 20
-14.2308906156
 10
44.99520765940019
 20
-14.2241098046
 10
44.99654268720019
 20
-14.2167408935
 10
44.9977086238002
 20
-14.20872262410006
 10
44.99868101700019
 20
-14.19988275840006
 10
44.99941403530022
 20
-14.19046918290002
 10
44.99984694850019
 20
-14.18069618070001
 10
45.0000000000002
 20
-14.17049232410005
  0
LWPOLYLINE
  5
32B2
330
22
100
AcDbEntity
  8
1
100
AcDbPolyline
 90
       15
 70
     0
 43
0.0
 10
44.22420602600019
 20
-14.94818062330006
 10
44.31258337230019
 20
-14.94312258000002
 10
44.39845353170016
 20
-14.92859937910009
 10
44.48229677290018
 20
-14.90441452700003
 10
44.56267229030018
 20
-14.87115750449999
 10
44.63856018470022
 20
-14.82913543970005
 10
44.70917800560022
 20
-14.77899889660006
 10
44.7736180114002
 20
-14.72123899130003
 10
44.83123617610021
 20
-14.65664119550007
 10
44.88124906960019
 20
-14.58585149250001
 10
44.9231671624002
 20
-14.50977946350002
 10
44.95634191490021
 20
-14.42920938280002
 10
44.98046692810021
 20
-14.34516315430005
 10
44.9949543008002
 20
-14.25908452260006
 10
45.0000000000002
 20
-14.17049223949999
  0
LWPOLYLINE
  5
32C4
330
22
100
AcDbEntity
  8
1
100
AcDbPolyline
 90
       11
 70
     0
 43
0.0
 10
11.10026140960019
 20
10.22356320749998
 10
11.11230472090017
 20
10.66433704569994
 10
11.14860526510017
 20
11.10318507889997
 10
11.20928447680018
 20
11.5409232362
 10
11.29397805270019
 20
11.97510373009999
 10
11.4025043254002
 20
12.40397629289998
 10
11.53443682200017
 20
12.82626429469997
 10
11.68947503410018
 20
13.24047453319997
 10
11.8670594008002
 20
13.64550645759999
 10
12.06644772570018
 20
14.03956199739997
 10
12.28788740750016
 20
14.42324050939999
  0
LINE
  5
32D1
330
22
100
AcDbEntity
  8
1
100
AcDbLine
 10
6.00000000000017
 20
-14.21678860960003
 30
0.0
 11
6.00000000000017
 21
0.6722361523999325
 31
0.0
  0
LINE
  5
32D2
330
22
100
AcDbEntity
  8
SK1
100
AcDbLine
 10
-9.667893218799804
 20
-6.967893218799986
 30
0.0
 11
-10.69999999999982
 21
-8.000000000000056
 31
0.0
  0
LINE
  5
32D3
330
22
100
AcDbEntity
  8
SK1
100
AcDbLine
 10
-5.599999999999823
 20
8.499999999999943
 30
0.0
 11
-5.999999999999829
 21
8.269059892299935
 31
0.0
  0
LINE
  5
32D5
330
22
100
AcDbEntity
  8
SK1
100
AcDbLine
 10
-5.599999999999823
 20
-8.500000000000056
 30
0.0
 11
-5.999999999999829
 21
-8.269059892300049
 31
0.0
  0
LINE
  5
32D6
330
22
100
AcDbEntity
  8
SK1
100
AcDbLine
 10
-9.667893218799804
 20
6.967893218799929
 30
0.0
 11
-10.69999999999982
 21
7.999999999999943
 31
0.0
  0
LWPOLYLINE
  5
32D7
330
22
100
AcDbEntity
  8
1
100
AcDbPolyline
 90
       19
 70
     0
 43
0.0
 10
2.58603445670019
 20
10.34824816769992
 10
2.606367887600185
 20
9.777646439299985
 10
2.66726456600017
 20
9.210001995899915
 10
2.768414176200195
 20
8.6482074237
 10
2.909301283100205
 20
8.095125498799916
 10
3.089207958300193
 20
7.553574600099977
 10
3.307217438500174
 20
7.026314346799949
 10
3.562218797500179
 20
6.516031536199989
 10
3.852912606700186
 20
6.025326452699914
 10
4.177817557200199
 20
5.556699616699972
 10
4.535278007800172
 20
5.11253904339992
 10
4.923472421900186
 20
4.695108073099959
 10
5.340422649900204
 20
4.306533838399957
 10
5.784004008900183
 20
3.94879642449996
 10
6.251956110000179
 20
3.623718779299963
 10
6.741894376600185
 20
3.332957423899983
 10
7.251322195500193
 20
3.077994011599912
 10
7.777643639400196
 20
2.860127777399952
 10
8.3181766948002
 20
2.680468917799942
  0
LINE
  5
32EC
330
22
100
AcDbEntity
  8
1
100
AcDbLine
 10
0.5000000000001706
 20
14.49999999999994
 30
0.0
 11
0.5000000000001706
 21
-14.50000000000005
 31
0.0
  0
LINE
  5
32ED
330
22
100
AcDbEntity
  8
1
100
AcDbLine
 10
0.0000000000001705
 20
13.99999999999994
 30
0.0
 11
0.0000000000001705
 21
-14.00000000000005
 31
0.0
  0
LWPOLYLINE
  5
32EE
330
22
100
AcDbEntity
  8
1
100
AcDbPolyline
 90
       21
 70
     0
 43
0.0
 10
2.11992448510017
 20
10.42564505519993
 10
2.154756935100181
 20
10.69135476870002
 10
2.194072168300209
 20
10.93399177769993
 10
2.238509418000177
 20
11.153964594
 10
2.286150984500181
 20
11.35468815099994
 10
2.335360769300194
 20
11.53855059919993
 10
2.385933201500193
 20
11.70789101519995
 10
2.437097224300174
 20
11.86488726739992
 10
2.488913196500192
 20
12.01135050639993
 10
2.541096363100194
 20
12.14901015909993
 10
2.593911007500167
 20
12.2794149465999
 10
2.647434938000202
 20
12.40408206759997
 10
2.701942824600195
 20
12.52405516199991
 10
2.757807264100193
 20
12.64074348689996
 10
2.814812284900199
 20
12.75392878629992
 10
2.872938499700183
 20
12.86387554139998
 10
2.931968752100175
 20
12.97042244169995
 10
2.9917403556002
 20
13.07352842059993
 10
3.052070513300208
 20
13.17312256639997
 10
3.112692571400202
 20
13.26913023019995
 10
3.173695414500173
 20
13.36156160129997
  0
LWPOLYLINE
  5
3305
330
22
100
AcDbEntity
  8
1
100
AcDbPolyline
 90
        7
 70
     0
 43
0.0
 10
3.173695414500173
 20
13.36156160129997
 10
2.995688114800202
 20
12.87854597079996
 10
2.84902971180017
 20
12.38509338329999
 10
2.734327478600192
 20
11.88324709379992
 10
2.652056366500204
 20
11.37508511309994
 10
2.602557038000185
 20
10.86271160399997
 10
2.58603445670019
 20
10.34824816769992
  0
LWPOLYLINE
  5
330E
330
22
100
AcDbEntity
  8
1
100
AcDbPolyline
 90
       14
 70
     0
 43
0.0
 10
3.173695414500173
 20
13.36156160129997
 10
3.313912761600192
 20
13.54417375629992
 10
3.487817931400201
 20
13.71463392429996
 10
3.695884218100189
 20
13.87277236989996
 10
3.936691739300187
 20
14.0143069655
 10
4.210022603200201
 20
14.13706801559994
 10
4.512744132000193
 20
14.24029828879992
 10
4.842316845800183
 20
14.32375813029995
 10
5.196743259400193
 20
14.38874775349995
 10
5.574881116100186
 20
14.43676135309994
 10
5.971625251000176
 20
14.46956092479991
 10
6.383338157600178
 20
14.48928598549997
 10
6.804474603700185
 20
14.4984860447999
 10
7.108128466700179
 20
14.49999092830001
  0
LINE
  5
331E
330
22
100
AcDbEntity
  8
SK1
100
AcDbLine
 10
-0.2999999999998124
 20
8.299999999999954
 30
0.0
 11
-0.2999999999998124
 21
-8.300000000000011
 31
0.0
  0
LINE
  5
331F
330
22
100
AcDbEntity
  8
SK1
100
AcDbLine
 10
-1.200928839499823
 20
8.299999999999954
 30
0.0
 11
-1.200928839499823
 21
-8.300000000000011
 31
0.0
  0
LINE
  5
3320
330
22
100
AcDbEntity
  8
SK1
100
AcDbLine
 10
-1.30445645749981
 20
8.31362966949996
 30
0.0
 11
-1.30445645749981
 21
-8.313629669500016
 31
0.0
  0
LINE
  5
3321
330
22
100
AcDbEntity
  8
SK1
100
AcDbLine
 10
-1.999999999999829
 20
8.499999999999943
 30
0.0
 11
-1.999999999999829
 21
-8.500000000000056
 31
0.0
  0
LINE
  5
3322
330
22
100
AcDbEntity
  8
1
100
AcDbLine
 10
0.5000000000001706
 20
14.49999999999994
 30
0.0
 11
0.0000000000001705
 21
13.99999999999994
 31
0.0
  0
LINE
  5
3323
330
22
100
AcDbEntity
  8
1
100
AcDbLine
 10
0.5000000000001706
 20
-14.50000000000005
 30
0.0
 11
0.0000000000001705
 21
-14.00000000000005
 31
0.0
  0
LINE
  5
3324
330
22
100
AcDbEntity
  8
SK1
100
AcDbLine
 10
-5.599999999999823
 20
8.499999999999943
 30
0.0
 11
-5.599999999999823
 21
-8.500000000000056
 31
0.0
  0
LINE
  5
3325
330
22
100
AcDbEntity
  8
SK1
100
AcDbLine
 10
-5.999999999999829
 20
8.268834501999947
 30
0.0
 11
-5.999999999999829
 21
-8.268834502000004
 31
0.0
  0
LINE
  5
3326
330
22
100
AcDbEntity
  8
SK1
100
AcDbLine
 10
-6.999999999999829
 20
6.674999999999954
 30
0.0
 11
-6.999999999999829
 21
-6.675000000000011
 31
0.0
  0
LINE
  5
3327
330
22
100
AcDbEntity
  8
SK1
100
AcDbLine
 10
-8.960786437599807
 20
6.674999999999954
 30
0.0
 11
-8.960786437599807
 21
-6.675000000000011
 31
0.0
  0
LINE
  5
3328
330
22
100
AcDbEntity
  8
SK1
100
AcDbLine
 10
-9.667893218799804
 20
6.967893218799929
 30
0.0
 11
-9.667893218799804
 21
-6.967893218799986
 31
0.0
  0
LINE
  5
3329
330
22
100
AcDbEntity
  8
SK1
100
AcDbLine
 10
-9.699999999999818
 20
6.999999999999943
 30
0.0
 11
-9.699999999999818
 21
-7.000000000000056
 31
0.0
  0
LINE
  5
332B
330
22
100
AcDbEntity
  8
SK1
100
AcDbLine
 10
-10.69999999999982
 20
7.999999999999943
 30
0.0
 11
-10.69999999999982
 21
-8.000000000000056
 31
0.0
  0
LINE
  5
332C
330
22
100
AcDbEntity
  8
SK1
100
AcDbLine
 10
-22.49999999999983
 20
7.999999999999943
 30
0.0
 11
-23.99999999999983
 21
6.499999999999943
 31
0.0
  0
LINE
  5
332D
330
22
100
AcDbEntity
  8
SK1
100
AcDbLine
 10
-22.49999999999983
 20
-8.000000000000056
 30
0.0
 11
-23.99999999999983
 21
-6.500000000000056
 31
0.0
  0
LINE
  5
332F
330
22
100
AcDbEntity
  8
SK1
100
AcDbLine
 10
-22.49999999999983
 20
7.999999999999943
 30
0.0
 11
-22.49999999999983
 21
-8.000000000000056
 31
0.0
  0
LINE
  5
3330
330
22
100
AcDbEntity
  8
SK1
100
AcDbLine
 10
-23.49999999999983
 20
6.999999999999943
 30
0.0
 11
-23.49999999999983
 21
-7.000000000000056
 31
0.0
  0
LINE
  5
3331
330
22
100
AcDbEntity
  8
SK1
100
AcDbLine
 10
-23.99999999999983
 20
6.499999999999943
 30
0.0
 11
-23.99999999999983
 21
-6.500000000000056
 31
0.0
  0
ARC
  5
334E
330
22
100
AcDbEntity
  8
SK3
100
AcDbCircle
 10
-22.49999999999983
 20
-5.0
 30
0.0
 40
2.0
100
AcDbArc
 50
90.0
 51
138.5903778906999
  0
ARC
  5
3351
330
22
100
AcDbEntity
  8
SK3
100
AcDbCircle
 10
-22.49999999999983
 20
5.0
 30
0.0
 40
2.0
100
AcDbArc
 50
221.4096221093
 51
270.0
  0
ARC
  5
336C
330
22
100
AcDbEntity
  8
SK1
100
AcDbCircle
 10
-0.2999999999998124
 20
8.699999999999988
 30
0.0
 40
0.4
100
AcDbArc
 50
270.0
 51
318.5903778907
  0
ARC
  5
336D
330
22
100
AcDbEntity
  8
SK1
100
AcDbCircle
 10
-6.999999999999829
 20
7.674999999999954
 30
0.0
 40
1.0
100
AcDbArc
 50
270.0
 51
0.0
  0
ARC
  5
336E
330
22
100
AcDbEntity
  8
SK1
100
AcDbCircle
 10
-8.960786437599807
 20
7.674999999999954
 30
0.0
 40
1.0
100
AcDbArc
 50
225.0
 51
270.0
  0
ARC
  5
336F
330
22
100
AcDbEntity
  8
SK1
100
AcDbCircle
 10
-0.2999999999998124
 20
-8.700000000000045
 30
0.0
 40
0.4
100
AcDbArc
 50
41.40962210930005
 51
90.0
  0
ARC
  5
3370
330
22
100
AcDbEntity
  8
SK1
100
AcDbCircle
 10
-6.999999999999829
 20
-7.675000000000011
 30
0.0
 40
1.0
100
AcDbArc
 50
0.0
 51
90.0
  0
ARC
  5
3371
330
22
100
AcDbEntity
  8
SK1
100
AcDbCircle
 10
-8.960786437599807
 20
-7.675000000000011
 30
0.0
 40
1.0
100
AcDbArc
 50
90.0
 51
134.9999999999999
  0
TEXT
  5
42FB
330
22
100
AcDbEntity
  8
6
100
AcDbText
 10
67.65285543213332
 20
-2.763761035416678
 30
0.0
 40
3.5
  1
Z=2
 50
90.0
 41
1.199999999999999
100
AcDbText
  0
INSERT
  5
42FC
330
22
100
AcDbEntity
  8
1
100
AcDbBlockReference
  2
nullp
 10
-271.9386450411702
 20
-389.8959796344513
 30
0.0
  0
INSERT
  5
42FD
330
22
100
AcDbEntity
  8
0
100
AcDbBlockReference
  2
nullp1
 10
-398.0645295494704
 20
-447.5849634019313
 30
0.0
  0
LINE
  5
43C6
330
22
100
AcDbEntity
  8
SK4
100
AcDbLine
 10
0.5000000000001706
 20
0.0
 30
0.0
 11
-26.99999999999983
 21
-0.0000000000000568
 31
0.0
  0
LINE
  5
4430
330
22
100
AcDbEntity
  8
SK3
100
AcDbLine
 10
0.0000000000001705
 20
2.999999999999943
 30
0.0
 11
-22.49999999999983
 21
3.0
 31
0.0
  0
LWPOLYLINE
  5
4432
330
22
100
AcDbEntity
  8
NOCUT
100
AcDbPolyline
 90
        6
 70
   129
 43
0.0
 10
43.60271400220006
 20
14.0
 42
0.4142135623730951
 10
43.10271400220011
 20
14.49999999999994
 10
0.5000000000001137
 20
14.49999999999994
 10
0.0000000000001421
 20
13.99999999999994
 10
0.0000000000001705
 20
0.0
 10
43.6027140022
 20
-0.0000000000000568
  0
DIMENSION
  5
443B
330
22
100
AcDbEntity
  8
2
100
AcDbDimension
  2
*D78
 10
55.10216035297464
 20
4.499999999999941
 30
0.0
 11
53.22716035297464
 21
-0.0000000000000493
 31
0.0
 70
    32
  1
%%c<>
 71
     5
 42
9.0
  3
ISO-25
100
AcDbAlignedDimension
 13
47.98716597163485
 23
-4.500000000000056
 33
0.0
 14
47.98716597163485
 24
4.499999999999943
 34
0.0
 50
90.0
100
AcDbRotatedDimension
  0
DIMENSION
  5
446E
330
22
100
AcDbEntity
  8
2
100
AcDbDimension
  2
*D79
 10
15.0000000000002
 20
22.92467497087557
 30
0.0
 11
30.0000000000002
 21
24.79967497087557
 31
0.0
 70
    32
 71
     5
 42
30.0
  3
ISO-25
100
AcDbAlignedDimension
 13
45.0000000000002
 23
14.99999999999994
 33
0.0
 14
15.0000000000002
 24
14.99999999999994
 34
0.0
100
AcDbRotatedDimension
  0
ENDSEC
  0
SECTION
  2
OBJECTS
  0
DICTIONARY
  5
C
330
0
100
AcDbDictionary
281
     1
  3
ACAD_COLOR
350
1B
  3
ACAD_GROUP
350
D
  3
ACAD_LAYOUT
350
19
  3
ACAD_MATERIAL
350
1A
  3
ACAD_MLINESTYLE
350
16
  3
ACAD_PLOTSETTINGS
350
18
  3
ACAD_PLOTSTYLENAME
350
E
  3
ACAD_TABLESTYLE
350
1C
  3
ACDBHEADERROUNDTRIPXREC
350
44DB
  3
AcDbVariableDictionary
350
3377
  0
DICTIONARY
  5
43BE
330
22
100
AcDbDictionary
280
     1
281
     1
  3
ACAD_SORTENTS
360
43BF
  0
DICTIONARY
  5
1B
102
{ACAD_REACTORS
330
C
102
}
330
C
100
AcDbDictionary
281
     1
  0
DICTIONARY
  5
D
102
{ACAD_REACTORS
330
C
102
}
330
C
100
AcDbDictionary
281
     1
  0
DICTIONARY
  5
19
102
{ACAD_REACTORS
330
C
102
}
330
C
100
AcDbDictionary
281
     1
  3
Layout1
350
21
  3
Model
350
25
  0
DICTIONARY
  5
1A
102
{ACAD_REACTORS
330
C
102
}
330
C
100
AcDbDictionary
281
     1
  0
DICTIONARY
  5
16
102
{ACAD_REACTORS
330
C
102
}
330
C
100
AcDbDictionary
281
     1
  3
Standard
350
17
  0
DICTIONARY
  5
18
102
{ACAD_REACTORS
330
C
102
}
330
C
100
AcDbDictionary
281
     1
  0
ACDBDICTIONARYWDFLT
  5
E
102
{ACAD_REACTORS
330
C
102
}
330
C
100
AcDbDictionary
281
     1
  3
Normal
350
F
100
AcDbDictionaryWithDefault
340
F
  0
DICTIONARY
  5
1C
102
{ACAD_REACTORS
330
C
102
}
330
C
100
AcDbDictionary
281
     1
  3
Standard
350
1D
  0
DICTIONARY
  5
44DB
102
{ACAD_REACTORS
330
C
102
}
330
C
100
AcDbDictionary
281
     1
  0
DICTIONARY
  5
3377
102
{ACAD_REACTORS
330
C
102
}
330
C
100
AcDbDictionary
281
     1
  3
CTABLESTYLE
350
3378
  3
DIMASSOC
350
44B2
  3
PROJECTNAME
350
44B3
  0
SORTENTSTABLE
  5
43BF
102
{ACAD_REACTORS
330
43BE
102
}
330
43BE
100
AcDbSortentsTable
330
22
331
32C4
  5
3321
331
2A71
  5
2BCF
331
43C6
  5
3179
331
2A24
  5
2B87
331
3328
  5
334D
331
1011
  5
105C
331
336C
  5
41BA
331
2BEF
  5
2E6E
331
32D5
  5
3325
331
3266
  5
32ED
331
24C9
  5
2542
331
2569
  5
276B
331
2ACD
  5
2D00
331
3125
  5
314B
331
3326
  5
334B
331
32D3
  5
3324
331
25B6
  5
27BD
331
3264
  5
32D7
331
2CFE
  5
2E8B
331
2ACB
  5
2CFE
331
27C2
  5
29F2
331
3251
  5
32C4
331
3324
  5
3349
331
2FA3
  5
312F
331
32D1
  5
3322
331
3134
  5
317A
331
3262
  5
32D5
331
24E7
  5
255C
331
769
  5
769
331
2FB4
  5
3130
331
31F1
  5
3267
331
2AC9
  5
2CEE
331
27C0
  5
28EA
331
2F01
  5
2FEA
331
313E
  5
31B7
331
3322
  5
3347
331
28F1
  5
2AFB
331
31A4
  5
3260
331
276B
  5
27EF
331
31BE
  5
3262
331
3202
  5
3269
331
3132
  5
3150
331
3260
  5
32D2
331
314F
  5
31DA
331
2C25
  5
2E79
331
277C
  5
27F0
331
2FDD
  5
3131
331
2F21
  5
2FEC
331
2D01
  5
2E8E
331
313C
  5
319B
331
24D2
  5
2553
331
3320
  5
3331
331
2E6E
  5
2EB5
331
2E90
  5
2F32
331
2574
  5
277C
331
1F5C
  5
2518
331
3130
  5
314E
331
314D
  5
31D0
331
3331
  5
41B3
331
27EF
  5
2AA3
331
28DE
  5
2ACB
331
2FEC
  5
3134
331
259F
  5
27B2
331
2EFF
  5
2FB4
331
27BE
  5
28DE
331
313A
  5
317B
331
24F2
  5
259F
331
331E
  5
332F
331
2E8E
  5
2F20
331
2A9A
  5
2BEF
331
32ED
  5
3329
331
26BC
  5
27E5
331
1F5A
  5
2517
331
314B
  5
31BE
331
332F
  5
41B1
331
3351
  5
41B9
331
312E
  5
314C
331
2FEA
  5
3132
331
24F0
  5
2569
331
317C
  5
3228
331
2E8C
  5
2F00
331
31DA
  5
3266
331
2B87
  5
2E4A
331
26BA
  5
27C3
331
316B
  5
31F1
331
332D
  5
41B0
331
3371
  5
41BF
331
2508
  5
26A7
331
3269
  5
330E
331
2C50
  5
2E88
331
2F99
  5
3125
331
28E9
  5
2ACC
331
317A
  5
320B
331
252A
  5
26B9
331
2E8A
  5
2EE6
331
42FC
  5
4435
331
3019
  5
313E
331
26B8
  5
27C1
331
332B
  5
336F
331
2E79
  5
2EBB
331
2519
  5
26B8
331
31C7
  5
3263
331
320B
  5
3272
331
26A7
  5
27BE
331
336F
  5
41BD
331
3289
  5
331F
331
2E88
  5
2ECC
331
2ECC
  5
2F99
331
1F54
  5
1F5F
331
2EE6
  5
2FA3
331
2517
  5
26B6
331
3329
  5
334E
331
2539
  5
26BA
331
26B6
  5
27BF
331
336D
  5
41BB
331
32D6
  5
3326
331
2EBB
  5
2F7C
331
3267
  5
32EE
331
29F2
  5
2B79
331
74C
  5
74C
331
2AAC
  5
2C50
331
2CEE
  5
2E89
331
24FB
  5
25B6
331
3327
  5
334C
331
27E5
  5
2A71
331
32B2
  5
3320
331
2AA3
  5
2C25
331
3265
  5
32EC
331
2E4A
  5
2E91
331
2CFF
  5
2E8C
331
2EDB
  5
2FA2
331
7CA
  5
7CA
331
74A
  5
74A
331
3305
  5
332C
331
2ACC
  5
2CFF
331
27C3
  5
29FB
331
3252
  5
32D1
331
3325
  5
334A
331
32D2
  5
3323
331
3263
  5
32D6
331
2CFD
  5
2E8A
331
27B2
  5
27FF
331
31D0
  5
3264
331
2ACA
  5
2CFD
331
27C1
  5
28F1
331
3272
  5
331E
331
2E57
  5
2E92
331
3323
  5
3348
331
2FA2
  5
312E
331
2EB5
  5
2F6F
331
3133
  5
316B
331
3261
  5
32D3
331
3150
  5
31DB
331
2F6F
  5
3018
331
4432
  5
41B4
331
779
  5
779
331
2F00
  5
2FDD
331
313D
  5
31A4
331
29FB
  5
2B86
331
3321
  5
3346
331
2E91
  5
2F51
331
3201
  5
3268
331
2553
  5
26BC
331
3131
  5
314F
331
314E
  5
31D9
331
2D57
  5
2E8F
331
27F0
  5
2AAC
331
4430
  5
1F61
331
2FED
  5
313A
331
27BF
  5
28E9
331
2542
  5
26BB
331
2AFB
  5
2D01
331
313B
  5
317C
331
2F5A
  5
3009
331
2D00
  5
2E8D
331
2F7C
  5
3019
331
331F
  5
3330
331
2E8F
  5
2F21
331
32EE
  5
332B
331
26BD
  5
27EE
331
27CE
  5
2A24
331
27FF
  5
2AC9
331
314C
  5
31C7
331
312F
  5
314D
331
28DD
  5
2ACA
331
3330
  5
41B2
331
27EE
  5
2A9A
331
2FEB
  5
3133
331
2B79
  5
2D57
331
27BD
  5
28DD
331
3228
  5
32B2
331
24F1
  5
2574
331
2E8D
  5
2F01
331
1F59
  5
24FB
331
32EC
  5
3328
331
330E
  5
332D
331
26BB
  5
27CE
331
316C
  5
3201
331
2F51
  5
2FF8
331
317B
  5
321B
331
28EA
  5
2ACD
331
2E8B
  5
2EFF
331
31B7
  5
3261
331
2B86
  5
2D8B
331
31D9
  5
3265
331
2FF8
  5
313B
331
1F57
  5
1F64
331
42FD
  5
4436
331
26B9
  5
27C2
331
332C
  5
3374
331
2D8B
  5
2E90
331
334E
  5
41B8
331
3009
  5
313C
331
3370
  5
41BE
331
3268
  5
3305
331
3179
  5
3202
331
319B
  5
3251
331
2E89
  5
2EDB
331
42FB
  5
4434
331
321B
  5
3289
331
3018
  5
313D
331
26B7
  5
27C0
331
1F6F
  5
2539
331
2518
  5
26B7
331
336E
  5
41BC
331
255C
  5
26BD
331
2BCF
  5
2E57
331
32D7
  5
3327
  0
LAYOUT
  5
21
102
{ACAD_XDICTIONARY
360
44DC
102
}
102
{ACAD_REACTORS
330
19
102
}
330
19
100
AcDbPlotSettings
  1

  2
\\ingdom02\ITB3
  4

  6

 40
0.0
 41
0.0
 42
0.0
 43
0.0
 44
0.0
 45
0.0
 46
0.0
 47
0.0
 48
0.0
 49
0.0
140
0.0
141
0.0
142
1.0
143
1.0
 70
   688
 72
     0
 73
     0
 74
     5
  7

 75
    16
147
1.0
148
0.0
149
0.0
100
AcDbLayout
  1
Layout1
 70
     0
 71
     1
 10
0.0
 20
0.0
 11
12.0
 21
9.0
 12
0.0
 22
0.0
 32
0.0
 14
0.0
 24
0.0
 34
0.0
 15
0.0
 25
0.0
 35
0.0
146
0.0
 13
0.0
 23
0.0
 33
0.0
 16
1.0
 26
0.0
 36
0.0
 17
0.0
 27
1.0
 37
0.0
 76
     0
330
1E
  0
LAYOUT
  5
25
102
{ACAD_XDICTIONARY
360
44DE
102
}
102
{ACAD_REACTORS
330
19
102
}
330
19
100
AcDbPlotSettings
  1

  2
\\ingdom02\ITB3
  4

  6

 40
0.0
 41
0.0
 42
0.0
 43
0.0
 44
0.0
 45
0.0
 46
0.0
 47
0.0
 48
0.0
 49
0.0
140
0.0
141
0.0
142
1.0
143
1.0
 70
  1712
 72
     0
 73
     0
 74
     0
  7

 75
     0
147
1.0
148
0.0
149
0.0
100
AcDbLayout
  1
Model
 70
     1
 71
     0
 10
0.0
 20
0.0
 11
12.0
 21
9.0
 12
0.0
 22
0.0
 32
0.0
 14
0.0
 24
0.0
 34
0.0
 15
0.0
 25
0.0
 35
0.0
146
0.0
 13
0.0
 23
0.0
 33
0.0
 16
1.0
 26
0.0
 36
0.0
 17
0.0
 27
1.0
 37
0.0
 76
     0
330
22
  0
MLINESTYLE
  5
17
102
{ACAD_REACTORS
330
16
102
}
330
16
100
AcDbMlineStyle
  2
STANDARD
 70
     0
  3

 62
   256
 51
90.0
 52
90.0
 71
     2
 49
0.5
 62
   256
  6
BYLAYER
 49
-0.5
 62
   256
  6
BYLAYER
  0
ACDBPLACEHOLDER
  5
F
102
{ACAD_REACTORS
330
E
102
}
330
E
  0
TABLESTYLE
  5
1D
102
{ACAD_REACTORS
330
1C
102
}
330
1C
100
AcDbTableStyle
  3
Standard
 70
     0
 71
     0
 40
0.06
 41
0.06
280
     0
281
     0
  7
STANDARD
140
0.18
170
     2
 62
     0
 63
     7
283
     0
274
    -2
284
     1
 64
     0
275
    -2
285
     1
 65
     0
276
    -2
286
     1
 66
     0
277
    -2
287
     1
 67
     0
278
    -2
288
     1
 68
     0
279
    -2
289
     1
 69
     0
  7
STANDARD
140
0.25
170
     5
 62
     0
 63
     7
283
     0
274
    -2
284
     1
 64
     0
275
    -2
285
     1
 65
     0
276
    -2
286
     1
 66
     0
277
    -2
287
     1
 67
     0
278
    -2
288
     1
 68
     0
279
    -2
289
     1
 69
     0
  7
STANDARD
140
0.18
170
     5
 62
     0
 63
     7
283
     0
274
    -2
284
     1
 64
     0
275
    -2
285
     1
 65
     0
276
    -2
286
     1
 66
     0
277
    -2
287
     1
 67
     0
278
    -2
288
     1
 68
     0
279
    -2
289
     1
 69
     0
  0
DICTIONARYVAR
  5
3378
102
{ACAD_REACTORS
330
3377
102
}
330
3377
100
DictionaryVariables
280
     0
  1
STANDARD
  0
DICTIONARYVAR
  5
44B2
102
{ACAD_REACTORS
330
3377
102
}
330
3377
100
DictionaryVariables
280
     0
  1
1
  0
DICTIONARYVAR
  5
44B3
102
{ACAD_REACTORS
330
3377
102
}
330
3377
100
DictionaryVariables
280
     0
  1

  0
DICTIONARY
  5
44DC
330
21
100
AcDbDictionary
280
     1
281
     1
  3
ACAD_XREC_ROUNDTRIP
360
44DD
  0
DICTIONARY
  5
44DE
330
25
100
AcDbDictionary
280
     1
281
     1
  3
ACAD_XREC_ROUNDTRIP
360
44DF
  0
XRECORD
  5
44DD
102
{ACAD_REACTORS
330
44DC
102
}
330
44DC
100
AcDbXrecord
280
     1
102
SHADEPLOT
 70
     0
102
SHADEPLOTRESLEVEL
 70
     2
102
SHADEPLOTCUSTOMDPI
 70
   300
  0
XRECORD
  5
44DF
102
{ACAD_REACTORS
330
44DE
102
}
330
44DE
100
AcDbXrecord
280
     1
102
SHADEPLOT
 70
     0
102
SHADEPLOTRESLEVEL
 70
     2
102
SHADEPLOTCUSTOMDPI
 70
   300
  0
ENDSEC
  0
EOF
