  0
SECTION
  2
HEADER
  9
$ACADVER
  1
AC1015
  9
$ACADMAINTVER
 70
    20
  9
$DWGCODEPAGE
  3
ANSI_1252
  9
$INSBASE
 10
0.0
 20
0.0
 30
0.0
  9
$EXTMIN
 10
-33.14605828150366
 20
-26.74440698690251
 30
-0.0015258207003583
  9
$EXTMAX
 10
79.69727519659477
 20
31.21809208180162
 30
0.0000000349246037
  9
$LIMMIN
 10
0.0
 20
0.0
  9
$LIMMAX
 10
594.0
 20
420.0
  9
$ORTHOMODE
 70
     0
  9
$REGENMODE
 70
     1
  9
$FILLMODE
 70
     1
  9
$QTEXTMODE
 70
     0
  9
$MIRRTEXT
 70
     1
  9
$LTSCALE
 40
10.0
  9
$ATTMODE
 70
     1
  9
$TEXTSIZE
 40
0.2
  9
$TRACEWID
 40
0.05
  9
$TEXTSTYLE
  7
STANDARD
  9
$CLAYER
  8
0
  9
$CELTYPE
  6
ByLayer
  9
$CECOLOR
 62
   256
  9
$CELTSCALE
 40
1.0
  9
$DISPSILH
 70
     0
  9
$DIMSCALE
 40
1.0
  9
$DIMASZ
 40
2.5
  9
$DIMEXO
 40
0.625
  9
$DIMDLI
 40
3.75
  9
$DIMRND
 40
0.0
  9
$DIMDLE
 40
0.0
  9
$DIMEXE
 40
1.25
  9
$DIMTP
 40
0.0
  9
$DIMTM
 40
0.0
  9
$DIMTXT
 40
2.5
  9
$DIMCEN
 40
2.5
  9
$DIMTSZ
 40
0.0
  9
$DIMTOL
 70
     0
  9
$DIMLIM
 70
     0
  9
$DIMTIH
 70
     0
  9
$DIMTOH
 70
     0
  9
$DIMSE1
 70
     0
  9
$DIMSE2
 70
     0
  9
$DIMTAD
 70
     1
  9
$DIMZIN
 70
     8
  9
$DIMBLK
  1

  9
$DIMASO
 70
     1
  9
$DIMSHO
 70
     1
  9
$DIMPOST
  1

  9
$DIMAPOST
  1

  9
$DIMALT
 70
     0
  9
$DIMALTD
 70
     3
  9
$DIMALTF
 40
0.03937007874016
  9
$DIMLFAC
 40
1.0
  9
$DIMTOFL
 70
     1
  9
$DIMTVP
 40
0.0
  9
$DIMTIX
 70
     0
  9
$DIMSOXD
 70
     0
  9
$DIMSAH
 70
     0
  9
$DIMBLK1
  1

  9
$DIMBLK2
  1

  9
$DIMSTYLE
  2
ISO-25
  9
$DIMCLRD
 70
     0
  9
$DIMCLRE
 70
     0
  9
$DIMCLRT
 70
     0
  9
$DIMTFAC
 40
1.0
  9
$DIMGAP
 40
0.625
  9
$DIMJUST
 70
     0
  9
$DIMSD1
 70
     0
  9
$DIMSD2
 70
     0
  9
$DIMTOLJ
 70
     0
  9
$DIMTZIN
 70
     8
  9
$DIMALTZ
 70
     0
  9
$DIMALTTZ
 70
     0
  9
$DIMUPT
 70
     0
  9
$DIMDEC
 70
     2
  9
$DIMTDEC
 70
     2
  9
$DIMALTU
 70
     2
  9
$DIMALTTD
 70
     3
  9
$DIMTXSTY
  7
STANDARD
  9
$DIMAUNIT
 70
     0
  9
$DIMADEC
 70
     0
  9
$DIMALTRND
 40
0.0
  9
$DIMAZIN
 70
     0
  9
$DIMDSEP
 70
    44
  9
$DIMATFIT
 70
     3
  9
$DIMFRAC
 70
     0
  9
$DIMLDRBLK
  1

  9
$DIMLUNIT
 70
     2
  9
$DIMLWD
 70
    -2
  9
$DIMLWE
 70
    -2
  9
$DIMTMOVE
 70
     0
  9
$LUNITS
 70
     2
  9
$LUPREC
 70
     4
  9
$SKETCHINC
 40
0.1
  9
$FILLETRAD
 40
0.0
  9
$AUNITS
 70
     0
  9
$AUPREC
 70
     0
  9
$MENU
  1
ACAD
  9
$ELEVATION
 40
0.0
  9
$PELEVATION
 40
0.0
  9
$THICKNESS
 40
0.0
  9
$LIMCHECK
 70
     0
  9
$CHAMFERA
 40
0.0
  9
$CHAMFERB
 40
0.0
  9
$CHAMFERC
 40
0.0
  9
$CHAMFERD
 40
0.0
  9
$SKPOLY
 70
     0
  9
$TDCREATE
 40
2305814.125509387
  9
$TDUCREATE
 40
6.0000000000
  9
$TDUPDATE
 40
2454210.354057384
  9
$TDUUPDATE
 40
2454210.270724051
  9
$TDINDWG
 40
0.0517334954
  9
$TDUSRTIMER
 40
0.0517334954
  9
$USRTIMER
 70
     1
  9
$ANGBASE
 50
0.0
  9
$ANGDIR
 70
     0
  9
$PDMODE
 70
     0
  9
$PDSIZE
 40
3.0
  9
$PLINEWID
 40
0.0
  9
$SPLFRAME
 70
     0
  9
$SPLINETYPE
 70
     6
  9
$SPLINESEGS
 70
     8
  9
$HANDSEED
  5
3A56
  9
$SURFTAB1
 70
     6
  9
$SURFTAB2
 70
     6
  9
$SURFTYPE
 70
     6
  9
$SURFU
 70
     6
  9
$SURFV
 70
     6
  9
$UCSBASE
  2

  9
$UCSNAME
  2

  9
$UCSORG
 10
0.0
 20
0.0
 30
0.0
  9
$UCSXDIR
 10
1.0
 20
0.0
 30
0.0
  9
$UCSYDIR
 10
0.0
 20
1.0
 30
0.0
  9
$UCSORTHOREF
  2

  9
$UCSORTHOVIEW
 70
     0
  9
$UCSORGTOP
 10
0.0
 20
0.0
 30
0.0
  9
$UCSORGBOTTOM
 10
0.0
 20
0.0
 30
0.0
  9
$UCSORGLEFT
 10
0.0
 20
0.0
 30
0.0
  9
$UCSORGRIGHT
 10
0.0
 20
0.0
 30
0.0
  9
$UCSORGFRONT
 10
0.0
 20
0.0
 30
0.0
  9
$UCSORGBACK
 10
0.0
 20
0.0
 30
0.0
  9
$PUCSBASE
  2

  9
$PUCSNAME
  2

  9
$PUCSORG
 10
0.0
 20
0.0
 30
0.0
  9
$PUCSXDIR
 10
1.0
 20
0.0
 30
0.0
  9
$PUCSYDIR
 10
0.0
 20
1.0
 30
0.0
  9
$PUCSORTHOREF
  2

  9
$PUCSORTHOVIEW
 70
     0
  9
$PUCSORGTOP
 10
0.0
 20
0.0
 30
0.0
  9
$PUCSORGBOTTOM
 10
0.0
 20
0.0
 30
0.0
  9
$PUCSORGLEFT
 10
0.0
 20
0.0
 30
0.0
  9
$PUCSORGRIGHT
 10
0.0
 20
0.0
 30
0.0
  9
$PUCSORGFRONT
 10
0.0
 20
0.0
 30
0.0
  9
$PUCSORGBACK
 10
0.0
 20
0.0
 30
0.0
  9
$USERI1
 70
     0
  9
$USERI2
 70
     0
  9
$USERI3
 70
     0
  9
$USERI4
 70
     0
  9
$USERI5
 70
     0
  9
$USERR1
 40
0.0
  9
$USERR2
 40
0.0
  9
$USERR3
 40
0.0
  9
$USERR4
 40
0.0
  9
$USERR5
 40
0.0
  9
$WORLDVIEW
 70
     1
  9
$SHADEDGE
 70
     3
  9
$SHADEDIF
 70
    70
  9
$TILEMODE
 70
     1
  9
$MAXACTVP
 70
    16
  9
$PINSBASE
 10
0.0
 20
0.0
 30
0.0
  9
$PLIMCHECK
 70
     0
  9
$PEXTMIN
 10
0.0
 20
0.0
 30
0.0
  9
$PEXTMAX
 10
0.0
 20
0.0
 30
0.0
  9
$PLIMMIN
 10
0.0
 20
0.0
  9
$PLIMMAX
 10
12.0
 20
9.0
  9
$UNITMODE
 70
     0
  9
$VISRETAIN
 70
     0
  9
$PLINEGEN
 70
     1
  9
$PSLTSCALE
 70
     0
  9
$TREEDEPTH
 70
  3020
  9
$CMLSTYLE
  2
Standard
  9
$CMLJUST
 70
     0
  9
$CMLSCALE
 40
1.0
  9
$PROXYGRAPHICS
 70
     1
  9
$MEASUREMENT
 70
     0
  9
$CELWEIGHT
370
    -1
  9
$ENDCAPS
280
     0
  9
$JOINSTYLE
280
     0
  9
$LWDISPLAY
290
     0
  9
$INSUNITS
 70
     0
  9
$HYPERLINKBASE
  1

  9
$STYLESHEET
  1

  9
$XEDIT
290
     1
  9
$CEPSNTYPE
380
     0
  9
$PSTYLEMODE
290
     1
  9
$FINGERPRINTGUID
  2
{CBEE10D2-86FB-472C-8A0A-8D1861A739C4}
  9
$VERSIONGUID
  2
{7A46E8DF-74B5-464B-AE79-A5458DFFB476}
  9
$EXTNAMES
290
     1
  9
$PSVPSCALE
 40
0.0
  9
$OLESTARTUP
290
     0
  0
ENDSEC
  0
SECTION
  2
CLASSES
  0
CLASS
  1
ACDBDICTIONARYWDFLT
  2
AcDbDictionaryWithDefault
  3
ObjectDBX Classes
 90
        0
280
     0
281
     0
  0
CLASS
  1
TABLESTYLE
  2
AcDbTableStyle
  3
ObjectDBX Classes
 90
     2047
280
     0
281
     0
  0
CLASS
  1
SORTENTSTABLE
  2
AcDbSortentsTable
  3
ObjectDBX Classes
 90
        0
280
     0
281
     0
  0
CLASS
  1
DICTIONARYVAR
  2
AcDbDictionaryVar
  3
ObjectDBX Classes
 90
        0
280
     0
281
     0
  0
CLASS
  1
ACDBPLACEHOLDER
  2
AcDbPlaceHolder
  3
ObjectDBX Classes
 90
        0
280
     0
281
     0
  0
CLASS
  1
LAYOUT
  2
AcDbLayout
  3
ObjectDBX Classes
 90
        0
280
     0
281
     0
  0
ENDSEC
  0
SECTION
  2
TABLES
  0
TABLE
  2
VPORT
  5
8
330
0
100
AcDbSymbolTable
 70
     5
  0
VPORT
  5
3A50
330
8
100
AcDbSymbolTableRecord
100
AcDbViewportTableRecord
  2
*Active
 70
     0
 10
0.0
 20
0.0
 11
1.0
 21
1.0
 12
23.27560845754557
 22
2.236842547449555
 13
0.0
 23
0.0
 14
1.0
 24
1.0
 15
0.0
 25
0.0
 16
0.0
 26
0.0
 36
1.0
 17
0.0
 27
0.0
 37
0.0
 40
74.88206238605728
 41
1.514429109159347
 42
50.0
 43
0.0
 44
0.0
 50
0.0
 51
0.0
 71
     0
 72
   100
 73
     1
 74
     1
 75
     0
 76
     0
 77
     0
 78
     0
281
     0
 65
     1
110
0.0
120
0.0
130
0.0
111
1.0
121
0.0
131
0.0
112
0.0
122
1.0
132
0.0
 79
     0
146
0.0
  0
ENDTAB
  0
TABLE
  2
LTYPE
  5
5
330
0
100
AcDbSymbolTable
 70
     6
  0
LTYPE
  5
13
330
5
100
AcDbSymbolTableRecord
100
AcDbLinetypeTableRecord
  2
ByBlock
 70
     0
  3

 72
    65
 73
     0
 40
0.0
  0
LTYPE
  5
14
330
5
100
AcDbSymbolTableRecord
100
AcDbLinetypeTableRecord
  2
ByLayer
 70
     0
  3

 72
    65
 73
     0
 40
0.0
  0
LTYPE
  5
15
330
5
100
AcDbSymbolTableRecord
100
AcDbLinetypeTableRecord
  2
CONTINUOUS
 70
     0
  3
Solid line
 72
    65
 73
     0
 40
0.0
  0
LTYPE
  5
27
330
5
100
AcDbSymbolTableRecord
100
AcDbLinetypeTableRecord
  2
CENTER
 70
     0
  3
____ _ ____ _ ____ _ ____ _ ____ _ ____ _ ____
 72
    65
 73
     4
 40
0.6
 49
0.375
 74
     0
 49
-0.075
 74
     0
 49
0.075
 74
     0
 49
-0.075
 74
     0
  0
LTYPE
  5
28
330
5
100
AcDbSymbolTableRecord
100
AcDbLinetypeTableRecord
  2
HIDDEN
 70
     0
  3
- - - - - - - - - - - - - - - - - - - -
 72
    65
 73
     2
 40
0.2
 49
0.1
 74
     0
 49
-0.1
 74
     0
  0
ENDTAB
  0
TABLE
  2
LAYER
  5
2
330
0
100
AcDbSymbolTable
 70
    18
  0
LAYER
  5
10
330
2
100
AcDbSymbolTableRecord
100
AcDbLayerTableRecord
  2
0
 70
     0
 62
     7
  6
CONTINUOUS
370
    -3
390
F
  0
LAYER
  5
2C
330
2
100
AcDbSymbolTableRecord
100
AcDbLayerTableRecord
  2
SK1
 70
     0
 62
     4
  6
CONTINUOUS
370
    -3
390
F
  0
LAYER
  5
2D
330
2
100
AcDbSymbolTableRecord
100
AcDbLayerTableRecord
  2
1
 70
     0
 62
     4
  6
CONTINUOUS
370
    -3
390
F
  0
LAYER
  5
2E
330
2
100
AcDbSymbolTableRecord
100
AcDbLayerTableRecord
  2
2
 70
     0
 62
     7
  6
CONTINUOUS
370
    -3
390
F
  0
LAYER
  5
2F
330
2
100
AcDbSymbolTableRecord
100
AcDbLayerTableRecord
  2
SK2
 70
     0
 62
     7
  6
CONTINUOUS
370
    -3
390
F
  0
LAYER
  5
30
330
2
100
AcDbSymbolTableRecord
100
AcDbLayerTableRecord
  2
3
 70
     0
 62
     1
  6
HIDDEN
370
    -3
390
F
  0
LAYER
  5
31
330
2
100
AcDbSymbolTableRecord
100
AcDbLayerTableRecord
  2
SK3
 70
     0
 62
     1
  6
HIDDEN
370
    -3
390
F
  0
LAYER
  5
32
330
2
100
AcDbSymbolTableRecord
100
AcDbLayerTableRecord
  2
4
 70
     0
 62
     2
  6
CENTER
370
    -3
390
F
  0
LAYER
  5
33
330
2
100
AcDbSymbolTableRecord
100
AcDbLayerTableRecord
  2
SK4
 70
     0
 62
     2
  6
CENTER
370
    -3
390
F
  0
LAYER
  5
36
330
2
100
AcDbSymbolTableRecord
100
AcDbLayerTableRecord
  2
6
 70
     0
 62
     5
  6
CONTINUOUS
370
    -3
390
F
  0
LAYER
  5
36CF
330
2
100
AcDbSymbolTableRecord
100
AcDbLayerTableRecord
  2
Defpoints
 70
     0
 62
     7
  6
CONTINUOUS
290
     0
370
    -3
390
F
  0
LAYER
  5
36D0
330
2
100
AcDbSymbolTableRecord
100
AcDbLayerTableRecord
  2
CUT
 70
     0
 62
     1
  6
CONTINUOUS
370
    -3
390
F
  0
LAYER
  5
36D1
330
2
100
AcDbSymbolTableRecord
100
AcDbLayerTableRecord
  2
NOCUT
 70
     0
 62
     7
  6
CONTINUOUS
370
    -3
390
F
  0
ENDTAB
  0
TABLE
  2
STYLE
  5
3
330
0
100
AcDbSymbolTable
 70
     3
  0
STYLE
  5
11
330
3
100
AcDbSymbolTableRecord
100
AcDbTextStyleTableRecord
  2
STANDARD
 70
     0
 40
0.0
 41
0.8
 50
0.0
 71
     0
 42
0.2
  3
ISOCP
  4

  0
ENDTAB
  0
TABLE
  2
VIEW
  5
6
330
0
100
AcDbSymbolTable
 70
     0
  0
ENDTAB
  0
TABLE
  2
UCS
  5
7
330
0
100
AcDbSymbolTable
 70
     0
  0
ENDTAB
  0
TABLE
  2
APPID
  5
9
330
0
100
AcDbSymbolTable
 70
     1
  0
APPID
  5
12
330
9
100
AcDbSymbolTableRecord
100
AcDbRegAppTableRecord
  2
ACAD
 70
     0
  0
ENDTAB
  0
TABLE
  2
DIMSTYLE
  5
A
330
0
100
AcDbSymbolTable
 70
     2
100
AcDbDimStyleTable
 71
     1
340
36D2
  0
DIMSTYLE
105
3A
330
A
100
AcDbSymbolTableRecord
100
AcDbDimStyleTableRecord
  2
STANDARD
 70
     0
279
     2
340
11
  0
DIMSTYLE
105
36D2
102
{ACAD_REACTORS
330
36D6
330
36D5
330
36D4
330
37B8
330
37B9
330
779
330
77B
330
39A0
330
39D2
330
39F8
102
}
330
A
100
AcDbSymbolTableRecord
100
AcDbDimStyleTableRecord
  2
ISO-25
 70
     0
 41
2.5
 42
0.625
 43
3.75
 44
1.25
 73
     0
 74
     0
 77
     1
 78
     8
140
2.5
141
2.5
143
0.03937007874016
147
0.625
171
     3
172
     1
271
     2
272
     2
274
     3
278
    44
283
     0
284
     8
340
11
  0
ENDTAB
  0
TABLE
  2
BLOCK_RECORD
  5
1
330
0
100
AcDbSymbolTable
 70
    80
  0
BLOCK_RECORD
  5
22
102
{ACAD_XDICTIONARY
360
3681
102
}
330
1
100
AcDbSymbolTableRecord
100
AcDbBlockTableRecord
  2
*Model_Space
340
25
  0
BLOCK_RECORD
  5
1E
330
1
100
AcDbSymbolTableRecord
100
AcDbBlockTableRecord
  2
*Paper_Space
340
21
  0
BLOCK_RECORD
  5
36A8
330
1
100
AcDbSymbolTableRecord
100
AcDbBlockTableRecord
  2
nullp
340
0
310
2800000020000000200000000100080000000000000400000000000000000000000000000000000000000000000080000080000000808000800000008000800080800000C0C0C000C0DCC000F0CAA6000020400000206000002080000020A0000020C0000020E00000400000004020000040400000406000004080000040A0
310
000040C0000040E00000600000006020000060400000606000006080000060A0000060C0000060E00000800000008020000080400000806000008080000080A0000080C0000080E00000A0000000A0200000A0400000A0600000A0800000A0A00000A0C00000A0E00000C0000000C0200000C0400000C0600000C0800000C0
310
A00000C0C00000C0E00000E0000000E0200000E0400000E0600000E0800000E0A00000E0C00000E0E00040000000400020004000400040006000400080004000A0004000C0004000E00040200000402020004020400040206000402080004020A0004020C0004020E000404000004040200040404000404060004040800040
310
40A0004040C0004040E00040600000406020004060400040606000406080004060A0004060C0004060E00040800000408020004080400040806000408080004080A0004080C0004080E00040A0000040A0200040A0400040A0600040A0800040A0A00040A0C00040A0E00040C0000040C0200040C0400040C0600040C08000
310
40C0A00040C0C00040C0E00040E0000040E0200040E0400040E0600040E0800040E0A00040E0C00040E0E00080000000800020008000400080006000800080008000A0008000C0008000E00080200000802020008020400080206000802080008020A0008020C0008020E00080400000804020008040400080406000804080
310
008040A0008040C0008040E00080600000806020008060400080606000806080008060A0008060C0008060E00080800000808020008080400080806000808080008080A0008080C0008080E00080A0000080A0200080A0400080A0600080A0800080A0A00080A0C00080A0E00080C0000080C0200080C0400080C0600080C0
310
800080C0A00080C0C00080C0E00080E0000080E0200080E0400080E0600080E0800080E0A00080E0C00080E0E000C0000000C0002000C0004000C0006000C0008000C000A000C000C000C000E000C0200000C0202000C0204000C0206000C0208000C020A000C020C000C020E000C0400000C0402000C0404000C0406000C0
310
408000C040A000C040C000C040E000C0600000C0602000C0604000C0606000C0608000C060A000C060C000C060E000C0800000C0802000C0804000C0806000C0808000C080A000C080C000C080E000C0A00000C0A02000C0A04000C0A06000C0A08000C0A0A000C0A0C000C0A0E000C0C00000C0C02000C0C04000C0C06000
310
C0C08000C0C0A000F0FBFF00A4A0A000808080000000FF0000FF000000FFFF00FF000000FF00FF00FFFF0000FFFFFF0000000000000000000000000000000000000000000000000000000000000000000000000000000000000000000000FEFEFE00000000000000000000000000000000000000000000000000FEFEFEFEFE
310
FEFEFEFE000000000000000000000000000000000000000000FEFEFEFEFEFEFEFEFE0000FEFE000000000000000000000000000000000000FEFEFEFEFEFEFEFEFEFE00000000FEFE00000000000000000000000000000000FEFEFEFEFEFEFEFEFEFE000000000000FEFE00000000000000000000000000FEFEFEFEFEFEFEFE
310
FEFEFE0000000000000000FEFE00000000000000000000FEFEFEFEFEFEFEFEFEFEFEFE000000000000000000FE000000000000000000FEFEFEFEFEFEFEFEFEFEFEFEFE00000000000000000000FE00000000000000FEFEFEFEFEFEFEFEFEFEFEFEFEFE00000000000000000000FE000000000000FEFEFEFEFEFEFEFEFEFEFE
310
FEFEFEFE0000000000000000000000FE0000000000FEFEFEFEFEFEFEFEFEFEFEFEFEFEFE0000000000000000000000FE0000000000FEFEFEFEFEFEFEFEFEFEFEFEFEFEFE0000000000000000000000FE00000000FEFEFEFEFEFEFEFEFEFEFEFEFEFEFEFE000000000000000000000000FE000000FEFEFEFEFEFEFEFEFEFEFE
310
FEFEFEFEFE000000000000000000000000FE000000FEFEFEFEFEFEFEFEFEFEFEFEFEFEFEFE00000000000000000000000000FE0000FEFEFEFEFEFEFEFEFEFEFEFEFEFEFEFEFEFEFEFEFEFEFEFEFEFEFEFEFEFE000000FE000000000000000000000000FEFEFEFEFEFEFEFEFEFEFEFEFEFEFEFE000000FE0000000000000000
310
00000000FEFEFEFEFEFEFEFEFEFEFEFEFEFEFEFE000000FE000000000000000000000000FEFEFEFEFEFEFEFEFEFEFEFEFEFEFE00000000FE000000000000000000000000FEFEFEFEFEFEFEFEFEFEFEFEFEFEFE0000000000FE0000000000000000000000FEFEFEFEFEFEFEFEFEFEFEFEFEFEFE000000000000FE0000000000
310
0000000000FEFEFEFEFEFEFEFEFEFEFEFEFEFE00000000000000FE00000000000000000000FEFEFEFEFEFEFEFEFEFEFEFEFE000000000000000000FE000000000000000000FEFEFEFEFEFEFEFEFEFEFEFE0000000000000000000000FE0000000000000000FEFEFEFEFEFEFEFEFEFEFEFE000000000000000000000000FE00
310
000000000000FEFEFEFEFEFEFEFEFEFEFE00000000000000000000000000FE00000000000000FEFEFEFEFEFEFEFEFE00000000000000000000000000000000FEFEFEFEFE0000FEFEFEFEFEFEFEFE00000000000000000000000000000000000000000000FEFEFEFEFEFEFEFEFE000000000000000000000000000000000000
310
00000000000000FEFEFEFE000000000000000000000000000000000000000000000000000000000000000000000000000000000000000000
102
{BLKREFS
331
37B6
331
38A1
102
}
  0
BLOCK_RECORD
  5
36B1
330
1
100
AcDbSymbolTableRecord
100
AcDbBlockTableRecord
  2
nullp1
340
0
310
2800000020000000200000000100080000000000000400000000000000000000000000000000000000000000000080000080000000808000800000008000800080800000C0C0C000C0DCC000F0CAA6000020400000206000002080000020A0000020C0000020E00000400000004020000040400000406000004080000040A0
310
000040C0000040E00000600000006020000060400000606000006080000060A0000060C0000060E00000800000008020000080400000806000008080000080A0000080C0000080E00000A0000000A0200000A0400000A0600000A0800000A0A00000A0C00000A0E00000C0000000C0200000C0400000C0600000C0800000C0
310
A00000C0C00000C0E00000E0000000E0200000E0400000E0600000E0800000E0A00000E0C00000E0E00040000000400020004000400040006000400080004000A0004000C0004000E00040200000402020004020400040206000402080004020A0004020C0004020E000404000004040200040404000404060004040800040
310
40A0004040C0004040E00040600000406020004060400040606000406080004060A0004060C0004060E00040800000408020004080400040806000408080004080A0004080C0004080E00040A0000040A0200040A0400040A0600040A0800040A0A00040A0C00040A0E00040C0000040C0200040C0400040C0600040C08000
310
40C0A00040C0C00040C0E00040E0000040E0200040E0400040E0600040E0800040E0A00040E0C00040E0E00080000000800020008000400080006000800080008000A0008000C0008000E00080200000802020008020400080206000802080008020A0008020C0008020E00080400000804020008040400080406000804080
310
008040A0008040C0008040E00080600000806020008060400080606000806080008060A0008060C0008060E00080800000808020008080400080806000808080008080A0008080C0008080E00080A0000080A0200080A0400080A0600080A0800080A0A00080A0C00080A0E00080C0000080C0200080C0400080C0600080C0
310
800080C0A00080C0C00080C0E00080E0000080E0200080E0400080E0600080E0800080E0A00080E0C00080E0E000C0000000C0002000C0004000C0006000C0008000C000A000C000C000C000E000C0200000C0202000C0204000C0206000C0208000C020A000C020C000C020E000C0400000C0402000C0404000C0406000C0
310
408000C040A000C040C000C040E000C0600000C0602000C0604000C0606000C0608000C060A000C060C000C060E000C0800000C0802000C0804000C0806000C0808000C080A000C080C000C080E000C0A00000C0A02000C0A04000C0A06000C0A08000C0A0A000C0A0C000C0A0E000C0C00000C0C02000C0C04000C0C06000
310
C0C08000C0C0A000F0FBFF00A4A0A000808080000000FF0000FF000000FFFF00FF000000FF00FF00FFFF0000FFFFFF00000000000000000000000000000000000000000000000000000000000000000000000000000000000000000000000000FE0000000000000000000000000000000000000000000000000000000000FE
310
FEFEFEFE000000000000000000000000000000000000000000FEFEFEFEFEFE0000FE0000FEFE000000000000000000000000000000000000FE0000000000000000FE00000000FEFE00000000000000000000000000000000FE0000000000000000FE000000000000FEFE00000000000000000000000000FE00000000000000
310
0000FE0000000000000000FEFE00000000000000000000FE00000000000000000000FE000000000000000000FE000000000000000000FE0000000000000000000000FE00000000000000000000FE0000000000000000FE0000000000000000000000FE00000000000000000000FE00000000000000FE000000000000000000
310
000000FE0000000000000000000000FE0000000000FE00000000000000000000000000FE0000000000000000000000FE0000000000FE00000000000000000000000000FE0000000000000000000000FE0000000000FE00000000000000000000000000FE000000000000000000000000FE00000000FE000000000000000000
310
00000000FE000000000000000000000000FE00000000FE00000000000000000000000000FE00000000000000000000000000FE0000FEFEFEFEFEFEFEFEFEFEFEFEFEFEFEFEFEFEFEFEFEFEFEFEFEFEFEFEFEFE000000FE00000000000000000000000000FE00000000000000000000000000FE000000FE0000000000000000
310
0000000000FE000000000000000000000000FE00000000FE00000000000000000000000000FE000000000000000000000000FE00000000FE00000000000000000000000000FE0000000000000000000000FE000000000000FE000000000000000000000000FE0000000000000000000000FE00000000000000FE0000000000
310
000000000000FE00000000000000000000FE0000000000000000FE0000000000000000000000FE00000000000000000000FE000000000000000000FE00000000000000000000FE000000000000000000FE0000000000000000000000FE000000000000000000FE000000000000000000FE000000000000000000000000FE00
310
00000000000000FE00000000000000FEFE00000000000000000000000000FE0000000000000000FE0000000000FEFE00000000000000000000000000000000FEFEFEFEFE000000FE000000FEFE0000000000000000000000000000000000000000000000FEFEFEFEFEFEFE0000000000000000000000000000000000000000
310
0000000000000000FE0000000000000000000000000000000000000000000000000000000000000000000000000000000000000000000000
102
{BLKREFS
331
37B7
331
38A2
102
}
  0
BLOCK_RECORD
  5
390E
330
1
100
AcDbSymbolTableRecord
100
AcDbBlockTableRecord
  2
*D73
340
0
  0
BLOCK_RECORD
  5
391A
330
1
100
AcDbSymbolTableRecord
100
AcDbBlockTableRecord
  2
*D74
340
0
  0
BLOCK_RECORD
  5
39A1
330
1
100
AcDbSymbolTableRecord
100
AcDbBlockTableRecord
  2
*D77
340
0
  0
BLOCK_RECORD
  5
39D3
330
1
100
AcDbSymbolTableRecord
100
AcDbBlockTableRecord
  2
*D78
340
0
  0
BLOCK_RECORD
  5
39F9
330
1
100
AcDbSymbolTableRecord
100
AcDbBlockTableRecord
  2
*D79
340
0
  0
ENDTAB
  0
ENDSEC
  0
SECTION
  2
BLOCKS
  0
BLOCK
  5
23
330
22
100
AcDbEntity
  8
0
100
AcDbBlockBegin
  2
*Model_Space
 70
     0
 10
0.0
 20
0.0
 30
0.0
  3
*Model_Space
  1

  0
ENDBLK
  5
24
330
22
100
AcDbEntity
  8
0
100
AcDbBlockEnd
  0
BLOCK
  5
1F
330
1E
100
AcDbEntity
 67
     1
  8
0
100
AcDbBlockBegin
  2
*Paper_Space
 70
     0
 10
0.0
 20
0.0
 30
0.0
  3
*Paper_Space
  1

  0
ENDBLK
  5
20
330
1E
100
AcDbEntity
 67
     1
  8
0
100
AcDbBlockEnd
  0
BLOCK
  5
36A9
330
36A8
100
AcDbEntity
  8
0
100
AcDbBlockBegin
  2
nullp
 70
     0
 10
0.0
 20
0.0
 30
0.0
  3
nullp
  1

  0
HATCH
  5
36AA
330
36A8
100
AcDbEntity
  8
1
100
AcDbHatch
 10
0.0
 20
0.0
 30
0.0
210
0.0
220
0.0
230
1.0
  2
SOLID
 70
     1
 71
     0
 91
        2
 92
        7
 72
     1
 73
     1
 93
        3
 10
271.9386450411704
 20
389.8959796344513
 42
0.0
 10
274.8896170952829
 20
389.8959796344513
 42
0.4142135623730966
 10
271.9386450411704
 20
392.8469516885638
 42
0.0
 97
        0
 92
        7
 72
     1
 73
     1
 93
        3
 10
271.9386450411704
 20
386.9450075803387
 42
0.0
 10
271.9386450411704
 20
389.8959796344513
 42
0.0
 10
268.9876729870576
 20
389.8959796344513
 42
0.4142135623730966
 97
        0
 75
     0
 76
     1
 47
0.1190009775223266
 98
        2
 10
272.6831980999823
 20
390.8172041078278
 10
270.6591804393174
 20
388.1991827114049
  0
LWPOLYLINE
  5
36AB
330
36A8
100
AcDbEntity
  8
1
100
AcDbPolyline
 90
        3
 70
     1
 43
0.0
 10
271.9386450411702
 20
389.8959796344513
 10
268.9876729870576
 20
389.8959796344513
 42
0.4142135623730966
 10
271.9386450411702
 20
386.9450075803387
  0
LINE
  5
36AC
330
36A8
100
AcDbEntity
  8
1
100
AcDbLine
 10
271.9386450411702
 20
392.8469516885638
 30
0.0
 11
271.9386450411702
 21
386.9450075803387
 31
0.0
  0
LWPOLYLINE
  5
36AD
330
36A8
100
AcDbEntity
  8
1
100
AcDbPolyline
 90
        3
 70
     1
 43
0.0
 10
271.9386450411702
 20
392.8469516885638
 10
271.9386450411702
 20
389.8959796344513
 10
274.8896170952829
 20
389.8959796344513
 42
0.4142135623730966
  0
LINE
  5
36AE
330
36A8
100
AcDbEntity
  8
1
100
AcDbLine
 10
268.9876729870575
 20
389.8959796344513
 30
0.0
 11
274.8896170952828
 21
389.8959796344513
 31
0.0
  0
CIRCLE
  5
36AF
330
36A8
100
AcDbEntity
  8
1
100
AcDbCircle
 10
271.9386450411704
 20
389.8959796344513
 30
0.0
 40
2.950972054112601
  0
ENDBLK
  5
36B0
330
36A8
100
AcDbEntity
  8
0
100
AcDbBlockEnd
  0
BLOCK
  5
36B2
330
36B1
100
AcDbEntity
  8
0
100
AcDbBlockBegin
  2
nullp1
 70
     0
 10
0.0
 20
0.0
 30
0.0
  3
nullp1
  1

  0
LINE
  5
36B3
330
36B1
100
AcDbEntity
  8
1
100
AcDbLine
 10
442.6007601796219
 20
432.5849634019313
 30
0.0
 11
443.5282989193195
 21
432.5849634019313
 31
0.0
  0
CIRCLE
  5
36B4
330
36B1
100
AcDbEntity
  8
1
100
AcDbCircle
 10
443.0645295494706
 20
432.5849634019313
 30
0.0
 40
0.463769369848821
  0
LINE
  5
36B5
330
36B1
100
AcDbEntity
  8
1
100
AcDbLine
 10
443.0645295494706
 20
433.0487327717801
 30
0.0
 11
443.0645295494706
 21
432.1211940320826
 31
0.0
  0
ENDBLK
  5
36B6
330
36B1
100
AcDbEntity
  8
0
100
AcDbBlockEnd
  0
BLOCK
  5
3918
330
390E
100
AcDbEntity
  8
0
100
AcDbBlockBegin
  2
*D73
 70
     1
 10
0.0
 20
0.0
 30
0.0
  3
*D73
  1

  0
LINE
  5
3A19
330
390E
100
AcDbEntity
  8
SK2
 62
     0
370
    -2
100
AcDbLine
 10
-21.87499999999977
 20
-6.0
 30
0.0
 11
-31.35293463669979
 21
-5.999999999999996
 31
0.0
  0
LINE
  5
3A1A
330
390E
100
AcDbEntity
  8
SK2
 62
     0
370
    -2
100
AcDbLine
 10
-21.87499999999977
 20
6.0
 30
0.0
 11
-31.35293463669979
 21
6.000000000000003
 31
0.0
  0
LINE
  5
3A1B
330
390E
100
AcDbEntity
  8
SK2
 62
     0
370
    -2
100
AcDbLine
 10
-30.10293463669979
 20
-3.499999999999996
 30
0.0
 11
-30.10293463669979
 21
3.500000000000003
 31
0.0
  0
SOLID
  5
3A1C
330
390E
100
AcDbEntity
  8
SK2
 62
     0
100
AcDbTrace
 10
-30.51960130336646
 20
-3.499999999999996
 30
0.0
 11
-29.68626797003312
 21
-3.499999999999996
 31
0.0
 12
-30.10293463669979
 22
-5.999999999999996
 32
0.0
 13
-30.10293463669979
 23
-5.999999999999996
 33
0.0
  0
SOLID
  5
3A1D
330
390E
100
AcDbEntity
  8
SK2
 62
     0
100
AcDbTrace
 10
-30.51960130336646
 20
3.500000000000003
 30
0.0
 11
-29.68626797003312
 21
3.500000000000003
 31
0.0
 12
-30.10293463669979
 22
6.000000000000003
 32
0.0
 13
-30.10293463669979
 23
6.000000000000003
 33
0.0
  0
MTEXT
  5
3A1E
330
390E
100
AcDbEntity
  8
SK2
 62
     0
100
AcDbMText
 10
-31.97818069969191
 20
-0.1006033636000436
 30
0.0
 40
2.5
 41
0.0
 71
     5
 72
     1
  1
M12
 11
0.0000000000000001
 21
1.0
 31
0.0
 73
     1
 44
1.0
1001
ACAD
1000
MTEXTBEGIN
1070
    73
1070
     1
1070
    44
1040
1.0
1070
    74
1070
     0
1000
MTEXTEND
  0
POINT
  5
3A1F
330
390E
100
AcDbEntity
  8
Defpoints
 62
     0
100
AcDbPoint
 10
-21.24999999999977
 20
-6.0
 30
0.0
  0
POINT
  5
3A20
330
390E
100
AcDbEntity
  8
Defpoints
 62
     0
100
AcDbPoint
 10
-21.24999999999977
 20
6.0
 30
0.0
  0
POINT
  5
3A21
330
390E
100
AcDbEntity
  8
Defpoints
 62
     0
100
AcDbPoint
 10
-30.10293463669979
 20
6.000000000000003
 30
0.0
  0
ENDBLK
  5
3919
330
390E
100
AcDbEntity
  8
0
100
AcDbBlockEnd
  0
BLOCK
  5
3924
330
391A
100
AcDbEntity
  8
0
100
AcDbBlockBegin
  2
*D74
 70
     1
 10
0.0
 20
0.0
 30
0.0
  3
*D74
  1

  0
LINE
  5
3A22
330
391A
100
AcDbEntity
  8
2
 62
     0
370
    -2
100
AcDbLine
 10
40.00000000000023
 20
0.125
 30
0.0
 11
40.00000000000023
 21
26.50987125562085
 31
0.0
  0
LINE
  5
3A23
330
391A
100
AcDbEntity
  8
2
 62
     0
370
    -2
100
AcDbLine
 10
0.000000000000199
 20
13.85686069958831
 30
0.0
 11
0.0000000000001998
 21
26.50987125562085
 31
0.0
  0
LINE
  5
3A24
330
391A
100
AcDbEntity
  8
2
 62
     0
370
    -2
100
AcDbLine
 10
37.50000000000023
 20
25.25987125562085
 30
0.0
 11
2.500000000000199
 21
25.25987125562085
 31
0.0
  0
SOLID
  5
3A25
330
391A
100
AcDbEntity
  8
2
 62
     0
100
AcDbTrace
 10
37.50000000000023
 20
25.67653792228752
 30
0.0
 11
37.50000000000023
 21
24.84320458895418
 31
0.0
 12
40.00000000000023
 22
25.25987125562085
 32
0.0
 13
40.00000000000023
 23
25.25987125562085
 33
0.0
  0
SOLID
  5
3A26
330
391A
100
AcDbEntity
  8
2
 62
     0
100
AcDbTrace
 10
2.500000000000199
 20
25.67653792228752
 30
0.0
 11
2.500000000000199
 21
24.84320458895418
 31
0.0
 12
0.0000000000001997
 22
25.25987125562085
 32
0.0
 13
0.0000000000001997
 23
25.25987125562085
 33
0.0
  0
MTEXT
  5
3A27
330
391A
100
AcDbEntity
  8
2
 62
     0
100
AcDbMText
 10
20.20630932830022
 20
27.13487125562085
 30
0.0
 40
2.5
 41
0.0
 71
     5
 72
     1
  1
40
 73
     1
 44
1.0
1001
ACAD
1000
MTEXTBEGIN
1070
    73
1070
     1
1070
    44
1040
1.0
1070
    74
1070
     0
1000
MTEXTEND
  0
POINT
  5
3A28
330
391A
100
AcDbEntity
  8
Defpoints
 62
     0
100
AcDbPoint
 10
40.00000000000023
 20
-0.5
 30
0.0
  0
POINT
  5
3A29
330
391A
100
AcDbEntity
  8
Defpoints
 62
     0
100
AcDbPoint
 10
0.000000000000199
 20
13.23186069958831
 30
0.0
  0
POINT
  5
3A2A
330
391A
100
AcDbEntity
  8
Defpoints
 62
     0
100
AcDbPoint
 10
0.0000000000001997
 20
25.25987125562085
 30
0.0
  0
ENDBLK
  5
3925
330
391A
100
AcDbEntity
  8
0
100
AcDbBlockEnd
  0
BLOCK
  5
39AB
330
39A1
100
AcDbEntity
  8
0
100
AcDbBlockBegin
  2
*D77
 70
     1
 10
0.0
 20
0.0
 30
0.0
  3
*D77
  1

  0
LINE
  5
3A2B
330
39A1
100
AcDbEntity
  8
0
 62
     0
370
    -2
100
AcDbLine
 10
41.67656937180663
 20
-13.0
 30
0.0
 11
60.78899969114672
 21
-13.0
 31
0.0
  0
LINE
  5
3A2C
330
39A1
100
AcDbEntity
  8
0
 62
     0
370
    -2
100
AcDbLine
 10
27.81470752176119
 20
13.0
 30
0.0
 11
60.78899969114672
 21
12.99999999999999
 31
0.0
  0
LINE
  5
3A2D
330
39A1
100
AcDbEntity
  8
0
 62
     0
370
    -2
100
AcDbLine
 10
59.53899969114672
 20
-10.5
 30
0.0
 11
59.53899969114672
 21
10.49999999999999
 31
0.0
  0
SOLID
  5
3A2E
330
39A1
100
AcDbEntity
  8
0
 62
     0
100
AcDbTrace
 10
59.12233302448006
 20
-10.5
 30
0.0
 11
59.95566635781339
 21
-10.5
 31
0.0
 12
59.53899969114672
 22
-13.0
 32
0.0
 13
59.53899969114672
 23
-13.0
 33
0.0
  0
SOLID
  5
3A2F
330
39A1
100
AcDbEntity
  8
0
 62
     0
100
AcDbTrace
 10
59.12233302448006
 20
10.49999999999999
 30
0.0
 11
59.95566635781339
 21
10.49999999999999
 31
0.0
 12
59.53899969114672
 22
12.99999999999999
 32
0.0
 13
59.53899969114672
 23
12.99999999999999
 33
0.0
  0
MTEXT
  5
3A30
330
39A1
100
AcDbEntity
  8
0
 62
     0
100
AcDbMText
 10
57.6637536281546
 20
0.0000000000000571
 30
0.0
 40
2.5
 41
0.0
 71
     5
 72
     1
  1
%%c26
 11
0.0000000000000001
 21
1.0
 31
0.0
 73
     1
 44
1.0
1001
ACAD
1000
MTEXTBEGIN
1070
    73
1070
     1
1070
    44
1040
1.0
1070
    74
1070
     0
1000
MTEXTEND
  0
POINT
  5
3A31
330
39A1
100
AcDbEntity
  8
Defpoints
 62
     0
100
AcDbPoint
 10
41.05156937180663
 20
-13.0
 30
0.0
  0
POINT
  5
3A32
330
39A1
100
AcDbEntity
  8
Defpoints
 62
     0
100
AcDbPoint
 10
27.18970752176119
 20
13.0
 30
0.0
  0
POINT
  5
3A33
330
39A1
100
AcDbEntity
  8
Defpoints
 62
     0
100
AcDbPoint
 10
59.53899969114672
 20
12.99999999999999
 30
0.0
  0
ENDBLK
  5
39AC
330
39A1
100
AcDbEntity
  8
0
100
AcDbBlockEnd
  0
BLOCK
  5
39DF
330
39D3
100
AcDbEntity
  8
0
100
AcDbBlockBegin
  2
*D78
 70
     1
 10
0.0
 20
0.0
 30
0.0
  3
*D78
  1

  0
LINE
  5
3A34
330
39D3
100
AcDbEntity
  8
2
 62
     0
370
    -2
100
AcDbLine
 10
42.4483254665597
 20
-2.5
 30
0.0
 11
51.75391642338809
 21
-2.500000000000002
 31
0.0
  0
LINE
  5
3A35
330
39D3
100
AcDbEntity
  8
2
 62
     0
370
    -2
100
AcDbLine
 10
42.4483254665597
 20
2.5
 30
0.0
 11
51.75391642338809
 21
2.499999999999997
 31
0.0
  0
LINE
  5
3A36
330
39D3
100
AcDbEntity
  8
2
 62
     0
370
    -2
100
AcDbLine
 10
50.50391642338809
 20
-5.000000000000002
 30
0.0
 11
50.50391642338809
 21
-7.500000000000002
 31
0.0
  0
LINE
  5
3A37
330
39D3
100
AcDbEntity
  8
2
 62
     0
370
    -2
100
AcDbLine
 10
50.50391642338809
 20
4.999999999999997
 30
0.0
 11
50.50391642338809
 21
7.499999999999997
 31
0.0
  0
LINE
  5
3A38
330
39D3
100
AcDbEntity
  8
2
 62
     0
370
    -2
100
AcDbLine
 10
50.50391642338809
 20
-2.500000000000002
 30
0.0
 11
50.50391642338809
 21
2.499999999999997
 31
0.0
  0
SOLID
  5
3A39
330
39D3
100
AcDbEntity
  8
2
 62
     0
100
AcDbTrace
 10
50.08724975672143
 20
-5.000000000000002
 30
0.0
 11
50.92058309005476
 21
-5.000000000000002
 31
0.0
 12
50.50391642338809
 22
-2.500000000000002
 32
0.0
 13
50.50391642338809
 23
-2.500000000000002
 33
0.0
  0
SOLID
  5
3A3A
330
39D3
100
AcDbEntity
  8
2
 62
     0
100
AcDbTrace
 10
50.08724975672143
 20
4.999999999999997
 30
0.0
 11
50.92058309005476
 21
4.999999999999997
 31
0.0
 12
50.50391642338809
 22
2.499999999999997
 32
0.0
 13
50.50391642338809
 23
2.499999999999997
 33
0.0
  0
MTEXT
  5
3A3B
330
39D3
100
AcDbEntity
  8
2
 62
     0
100
AcDbMText
 10
48.62891642338809
 20
0.000000000000006
 30
0.0
 40
2.5
 41
0.0
 71
     5
 72
     1
  1
%%c5
 11
0.0000000000000001
 21
1.0
 31
0.0
 73
     1
 44
1.0
1001
ACAD
1000
MTEXTBEGIN
1070
    73
1070
     1
1070
    44
1040
1.0
1070
    74
1070
     0
1000
MTEXTEND
  0
POINT
  5
3A3C
330
39D3
100
AcDbEntity
  8
Defpoints
 62
     0
100
AcDbPoint
 10
41.8233254665597
 20
-2.5
 30
0.0
  0
POINT
  5
3A3D
330
39D3
100
AcDbEntity
  8
Defpoints
 62
     0
100
AcDbPoint
 10
41.8233254665597
 20
2.5
 30
0.0
  0
POINT
  5
3A3E
330
39D3
100
AcDbEntity
  8
Defpoints
 62
     0
100
AcDbPoint
 10
50.50391642338809
 20
2.499999999999997
 30
0.0
  0
ENDBLK
  5
39E0
330
39D3
100
AcDbEntity
  8
0
100
AcDbBlockEnd
  0
BLOCK
  5
3A03
330
39F9
100
AcDbEntity
  8
0
100
AcDbBlockBegin
  2
*D79
 70
     1
 10
0.0
 20
0.0
 30
0.0
  3
*D79
  1

  0
LINE
  5
3A3F
330
39F9
100
AcDbEntity
  8
2
 62
     0
370
    -2
100
AcDbLine
 10
40.00000000000023
 20
13.625
 30
0.0
 11
40.00000000000023
 21
21.55793787385698
 31
0.0
  0
LINE
  5
3A40
330
39F9
100
AcDbEntity
  8
2
 62
     0
370
    -2
100
AcDbLine
 10
14.00000000000023
 20
13.625
 30
0.0
 11
14.00000000000023
 21
21.55793787385698
 31
0.0
  0
LINE
  5
3A41
330
39F9
100
AcDbEntity
  8
2
 62
     0
370
    -2
100
AcDbLine
 10
37.50000000000023
 20
20.30793787385698
 30
0.0
 11
16.50000000000023
 21
20.30793787385698
 31
0.0
  0
SOLID
  5
3A42
330
39F9
100
AcDbEntity
  8
2
 62
     0
100
AcDbTrace
 10
37.50000000000023
 20
20.72460454052365
 30
0.0
 11
37.50000000000023
 21
19.89127120719032
 31
0.0
 12
40.00000000000023
 22
20.30793787385698
 32
0.0
 13
40.00000000000023
 23
20.30793787385698
 33
0.0
  0
SOLID
  5
3A43
330
39F9
100
AcDbEntity
  8
2
 62
     0
100
AcDbTrace
 10
16.50000000000023
 20
20.72460454052365
 30
0.0
 11
16.50000000000023
 21
19.89127120719032
 31
0.0
 12
14.00000000000023
 22
20.30793787385698
 32
0.0
 13
14.00000000000023
 23
20.30793787385698
 33
0.0
  0
MTEXT
  5
3A44
330
39F9
100
AcDbEntity
  8
2
 62
     0
100
AcDbMText
 10
27.00000000000023
 20
22.18318393684911
 30
0.0
 40
2.5
 41
0.0
 71
     5
 72
     1
  1
26
 73
     1
 44
1.0
1001
ACAD
1000
MTEXTBEGIN
1070
    73
1070
     1
1070
    44
1040
1.0
1070
    74
1070
     0
1000
MTEXTEND
  0
POINT
  5
3A45
330
39F9
100
AcDbEntity
  8
Defpoints
 62
     0
100
AcDbPoint
 10
40.00000000000023
 20
13.0
 30
0.0
  0
POINT
  5
3A46
330
39F9
100
AcDbEntity
  8
Defpoints
 62
     0
100
AcDbPoint
 10
14.00000000000023
 20
13.0
 30
0.0
  0
POINT
  5
3A47
330
39F9
100
AcDbEntity
  8
Defpoints
 62
     0
100
AcDbPoint
 10
14.00000000000023
 20
20.30793787385698
 30
0.0
  0
ENDBLK
  5
3A04
330
39F9
100
AcDbEntity
  8
0
100
AcDbBlockEnd
  0
ENDSEC
  0
SECTION
  2
ENTITIES
  0
DIMENSION
  5
779
330
22
100
AcDbEntity
  8
SK2
100
AcDbDimension
  2
*D73
 10
-30.10293463669979
 20
6.000000000000003
 30
0.0
 11
-30.10293463669979
 21
-0.1006033636000438
 31
0.0
 70
   160
  1
M<>
 71
     5
 42
12.0
  3
ISO-25
100
AcDbAlignedDimension
 13
-21.24999999999977
 23
-6.0
 33
0.0
 14
-21.24999999999977
 24
6.0
 34
0.0
 50
90.0
100
AcDbRotatedDimension
  0
DIMENSION
  5
77B
330
22
100
AcDbEntity
  8
2
100
AcDbDimension
  2
*D74
 10
0.0000000000001997
 20
25.25987125562085
 30
0.0
 11
20.20630932830022
 21
25.25987125562085
 31
0.0
 70
   160
  1
<>
 71
     5
 42
40.00000000000002
  3
ISO-25
100
AcDbAlignedDimension
 13
40.00000000000023
 23
-0.5
 33
0.0
 14
0.000000000000199
 24
13.23186069958831
 34
0.0
 50
180.0
100
AcDbRotatedDimension
  0
TEXT
  5
7B0
330
22
100
AcDbEntity
  8
6
100
AcDbText
 10
-15.07012255874045
 20
-26.90530419102163
 30
0.0
 40
3.5
  1
15C1G026040X7R01
 41
1.199999999999999
 72
     1
 11
8.239877441259523
 21
-26.90530419102163
 31
0.0
100
AcDbText
  0
TEXT
  5
7FD
330
22
100
AcDbEntity
  8
6
100
AcDbText
 10
42.06873323123682
 20
28.22097096305549
 30
0.0
 40
3.0
  1
SHLT110408N-PH1
 41
1.199999999999999
100
AcDbText
  0
LINE
  5
C0F
330
22
100
AcDbEntity
  8
3
100
AcDbLine
 10
3.000000000000227
 20
2.0
 30
0.0
 11
0.0000000000002274
 21
2.0
 31
0.0
  0
LINE
  5
C13
330
22
100
AcDbEntity
  8
3
100
AcDbLine
 10
3.000000000000227
 20
-2.0
 30
0.0
 11
0.0000000000002274
 21
-2.0
 31
0.0
  0
LINE
  5
C15
330
22
100
AcDbEntity
  8
3
100
AcDbLine
 10
4.201721238100219
 20
0.0
 30
0.0
 11
3.000000000000227
 21
-2.0
 31
0.0
  0
LINE
  5
C17
330
22
100
AcDbEntity
  8
3
100
AcDbLine
 10
4.201721238100219
 20
0.0
 30
0.0
 11
3.000000000000227
 21
2.0
 31
0.0
  0
LINE
  5
C18
330
22
100
AcDbEntity
  8
3
100
AcDbLine
 10
3.000000000000227
 20
2.0
 30
0.0
 11
3.000000000000227
 21
-2.0
 31
0.0
  0
LINE
  5
C19
330
22
100
AcDbEntity
  8
1
100
AcDbLine
 10
-6.999999999999772
 20
-4.825000000000045
 30
0.0
 11
-8.71078643759975
 21
-4.825000000000045
 31
0.0
  0
LINE
  5
C22
330
22
100
AcDbEntity
  8
1
100
AcDbLine
 10
-9.417893218799804
 20
-5.11789321880002
 30
0.0
 11
-10.29999999999978
 21
-6.0
 31
0.0
  0
LINE
  5
C2F
330
22
100
AcDbEntity
  8
SK3
100
AcDbLine
 10
-20.49999999999977
 20
2.0
 30
0.0
 11
-20.49999999999977
 21
-2.0
 31
0.0
  0
LWPOLYLINE
  5
10C3
330
22
100
AcDbEntity
  8
CUT
100
AcDbPolyline
 90
      241
 70
     1
 43
0.0
 10
40.0000000000002
 20
-2.491530000000011
 10
39.99964943820018
 20
-2.472210342900041
 10
39.99874300000019
 20
-2.452907999999979
 10
39.99729341280019
 20
-2.433872440199991
 10
39.9952850000002
 20
-2.414888000000019
 10
39.99273550640021
 20
-2.396135796300029
 10
39.98962700000019
 20
-2.377468000000021
 10
39.98597743600019
 20
-2.358996801800003
 10
39.98176900000018
 20
-2.340644999999994
 10
39.97699028760022
 20
-2.322395244900008
 10
39.9716560000002
 20
-2.304300000000012
 10
39.9657355658002
 20
-2.286257068899999
 10
39.95927600000019
 20
-2.268399999999985
 10
39.95227627780023
 20
-2.250706995699999
 10
39.94475800000018
 20
-2.233227999999996
 10
39.9367501486002
 20
-2.216023741800029
 10
39.9282350000002
 20
-2.199065000000018
 10
39.91922822140021
 20
-2.182392744000026
 10
39.9097290000002
 20
-2.165996000000006
 10
39.89964766100022
 20
-2.149723903200026
 10
39.88909700000019
 20
-2.133752000000015
 10
39.8780245801002
 20
-2.117988987499984
 10
39.86651000000021
 20
-2.102546000000018
 10
39.85454599010021
 20
-2.087409371600017
 10
39.84215900000018
 20
-2.072616999999979
 10
39.82934937060017
 20
-2.058172234900041
 10
39.81613900000019
 20
-2.044093000000032
 10
39.80236902760018
 20
-2.030213390300048
 10
39.78822500000021
 20
-2.016715000000033
 10
39.77358483120023
 20
-2.00347235769999
 10
39.7586000000002
 20
-1.990621000000032
 10
39.74321430110021
 20
-1.978109686200014
 10
39.72750600000021
 20
-1.966005999999993
 10
39.71146008700021
 20
-1.954299499400008
 10
39.69511600000018
 20
-1.943013000000007
 10
39.67826906370019
 20
-1.9320067891
 10
39.66115100000019
 20
-1.921426999999994
 10
39.6435848802002
 20
-1.91115712030006
 10
39.62577500000018
 20
-1.901316000000008
 10
39.6076347490002
 20
-1.891853746100025
 10
39.58927200000019
 20
-1.88283100000001
 10
39.57068230620021
 20
-1.874246426000013
 10
39.55189300000021
 20
-1.866107999999996
 10
39.53270602250021
 20
-1.85833080330002
 10
39.51334400000019
 20
-1.850999999999999
 10
39.4936131627002
 20
-1.8440367014
 10
39.47373100000019
 20
-1.837517999999988
 10
39.45362135490021
 20
-1.831417727100017
 10
39.4333800000002
 20
-1.825770000000034
 10
39.41305072240019
 20
-1.82058858510004
 10
39.39261000000019
 20
-1.815866000000028
 10
39.37204271270022
 20
-1.811597574400025
 10
39.35138600000019
 20
-1.807785000000023
 10
39.33051567020019
 20
-1.804402497200044
 10
39.30957700000019
 20
-1.801472999999987
 10
39.28840481290021
 20
-1.798974354300014
 10
39.26718400000019
 20
-1.796927999999979
 10
39.24570936650019
 20
-1.795314700699975
 10
39.22420600000018
 20
-1.794151999999996
 10
36.82962700000022
 20
-1.702000999999995
 10
34.7771310000002
 20
-1.632571999999981
 10
32.72463500000018
 20
-1.573204000000032
 10
31.01422100000019
 20
-1.53226699999999
 10
29.30380700000021
 20
-1.499774999999999
 10
29.2823150744002
 20
-1.499765485500063
 10
29.2608290000002
 20
-1.500297999999986
 10
29.23961499960021
 20
-1.501366347899988
 10
29.2184360000002
 20
-1.502983000000028
 10
29.19749907980019
 20
-1.505134020500065
 10
29.1766260000002
 20
-1.507835999999997
 10
29.15596626690021
 20
-1.511070058600012
 10
29.1354010000002
 20
-1.514858000000003
 10
29.11495253270019
 20
-1.519203225800026
 10
29.0946300000002
 20
-1.524104000000022
 10
29.07437649280021
 20
-1.529575146500008
 10
29.05427800000021
 20
-1.53559100000001
 10
29.0343804453002
 20
-1.542131467100034
 10
29.01466500000018
 20
-1.549201999999979
 10
28.99528343180021
 20
-1.556746079400056
 10
28.97611500000019
 20
-1.564816000000007
 10
28.95730299130022
 20
-1.57335683680003
 10
28.93873500000021
 20
-1.582416000000023
 10
28.92034790390019
 20
-1.592027481400009
 10
28.9022320000002
 20
-1.602141000000017
 10
28.88439596820021
 20
-1.612744859600013
 10
28.86685500000019
 20
-1.623829999999998
 10
28.84971012760022
 20
-1.635331141900053
 10
28.83289000000019
 20
-1.647302000000024
 10
28.81651867740018
 20
-1.65965856620005
 10
28.8005000000002
 20
-1.672469000000035
 10
28.78476498500018
 20
-1.685793042900002
 10
28.7694060000002
 20
-1.69954899999999
 10
28.7543963853002
 20
-1.713753843000063
 10
28.73978200000019
 20
-1.728364999999996
 10
28.72561410820018
 20
-1.743330404800019
 10
28.71186800000018
 20
-1.758684000000016
 10
28.69863548360021
 20
-1.774327590100028
 10
28.68584800000019
 20
-1.790337000000022
 10
28.6734419499002
 20
-1.806797771000049
 10
28.6614980000002
 20
-1.823597000000006
 10
28.6499673948002
 20
-1.840794870100012
 10
28.63891200000021
 20
-1.85830199999998
 10
28.6283475857002
 20
-1.876094388199987
 10
28.6182810000002
 20
-1.894173000000023
 10
28.6087707449002
 20
-1.912438866200034
 10
28.59977600000019
 20
-1.930964000000017
 10
28.5912520000002
 20
-1.949848282800019
 10
28.58325300000021
 20
-1.968960999999978
 10
28.5757289078002
 20
-1.988410884400025
 10
28.5687360000002
 20
-2.008058000000005
 10
28.5622720202002
 20
-2.027910974300027
 10
28.55635600000019
 20
-2.047933999999997
 10
28.5510193961002
 20
-2.068032176299993
 10
28.5462440000002
 20
-2.08827100000002
 10
28.54203426290022
 20
-2.108631915700016
 10
28.5383860000002
 20
-2.129100999999991
 10
28.5352770273002
 20
-2.149787830400043
 10
28.53272800000019
 20
-2.170550999999989
 10
28.5307195744002
 20
-2.191562906200033
 10
28.5292700000002
 20
-2.212621000000012
 10
28.52836387980019
 20
-2.233956166600023
 10
28.52801300000019
 20
-2.255307000000016
 10
28.52801300000019
 20
-12.18382200000002
 10
28.52836397440021
 20
-12.20536579360004
 10
28.5292700000002
 20
-12.22689400000001
 10
28.53072000040021
 20
-12.24816231860001
 10
28.53272800000019
 20
-12.269385
 10
28.5352775641002
 20
-12.29037668530003
 10
28.5383860000002
 20
-12.31129300000003
 10
28.54203559090021
 20
-12.33200977710004
 10
28.5462450000002
 20
-12.35262
 10
28.55102154570019
 20
-12.37312711120006
 10
28.55635700000019
 20
-12.39349600000003
 10
28.5622740069002
 20
-12.41380950320001
 10
28.5687370000002
 20
-12.43395600000002
 10
28.5757317044002
 20
-12.45391358160003
 10
28.58325500000021
 20
-12.47367800000001
 10
28.59125516310019
 20
-12.493120772
 10
28.59977800000022
 20
-12.51233999999999
 10
28.60877422100021
 20
-12.53121222129999
 10
28.61828400000021
 20
-12.54983099999998
 10
28.6283520554002
 20
-12.56827916819998
 10
28.6389160000002
 20
-12.58644800000002
 10
28.6499724899002
 20
-12.60434383250003
 10
28.66150300000018
 20
-12.621938
 10
28.67344782400019
 20
-12.63914289360002
 10
28.68585400000021
 20
-12.65601800000001
 10
28.69864123230019
 20
-12.67244832889997
 10
28.7118740000002
 20
-12.68852200000003
 10
28.72561979980017
 20
-12.70431529230001
 10
28.7397890000002
 20
-12.71973000000002
 10
28.75440217150018
 20
-12.73479706550006
 10
28.76941300000019
 20
-12.74946799999998
 10
28.7847698443002
 20
-12.7636930388
 10
28.80050700000018
 20
-12.77749599999998
 10
28.81652281570021
 20
-12.79078359690004
 10
28.8328970000002
 20
-12.803627
 10
28.84971362510018
 20
-12.81608822800001
 10
28.8668620000002
 20
-12.82808900000003
 10
28.88439811540022
 20
-12.83967374720004
 10
28.90223800000021
 20
-12.85078500000003
 10
28.92034891050022
 20
-12.86140201800003
 10
28.93874100000019
 20
-12.87152400000002
 10
28.95730276610019
 20
-12.88108659700003
 10
28.97612000000018
 20
-12.89013599999998
 10
28.99528217150018
 20
-12.89871040980006
 10
29.0146700000002
 20
-12.90676200000001
 10
29.03437847090018
 20
-12.91433581059999
 10
29.0542820000002
 20
-12.921381
 10
29.07437309530022
 20
-12.92789351020002
 10
29.09463300000019
 20
-12.93385999999998
 10
29.1149479751002
 20
-12.93924378080004
 10
29.1354030000002
 20
-12.94406800000001
 10
29.1559613977002
 20
-12.94832372190001
 10
29.17662800000019
 20
-12.95201900000001
 10
29.19749408040022
 20
-12.95517282209999
 10
29.2184370000002
 20
-12.95776699999999
 10
29.23961000990019
 20
-12.95981851940001
 10
29.2608300000002
 20
-12.96131100000002
 10
29.2823101601002
 20
-12.96225921860002
 10
29.30380700000021
 20
-12.96265199999999
 10
35.1192130000002
 20
-12.98006300000003
 10
39.22420600000018
 20
-13.0
 10
39.24570121850022
 20
-12.99977014770007
 10
39.26718400000019
 20
-12.998986
 10
39.2884022696002
 20
-12.9976574268
 10
39.30957800000019
 20
-12.99577099999999
 10
39.33051868690021
 20
-12.99334264890001
 10
39.35138700000019
 20
-12.99035500000002
 10
39.37205131250019
 20
-12.98682615469999
 10
39.39261200000018
 20
-12.98273699999998
 10
39.41306525290023
 20
-12.97808191880006
 10
39.43338300000019
 20
-12.97286700000001
 10
39.45364122410021
 20
-12.9670714801
 10
39.47373500000018
 20
-12.96072900000001
 10
39.4936369728002
 20
-12.95385592550002
 10
39.51334800000021
 20
-12.94645300000002
 10
39.53273431970021
 20
-12.93857266430001
 10
39.55189900000019
 20
-12.93016799999998
 10
39.57071436370021
 20
-12.92129003360003
 10
39.58927800000018
 20
-12.91189700000001
 10
39.6076689592002
 20
-12.9019462439
 10
39.62578200000022
 20
-12.89149800000001
 10
39.6436202477002
 20
-12.88055776130005
 10
39.6611580000002
 20
-12.86914200000001
 10
39.6783055818002
 20
-12.85731111460001
 10
39.69512400000019
 20
-12.84501699999998
 10
39.71149712320019
 20
-12.83234011820002
 10
39.72751400000019
 20
-12.81921599999998
 10
39.7432496369002
 20
-12.80557888850001
 10
39.75860700000018
 20
-12.791517
 10
39.77361712840019
 20
-12.77700954010004
 10
39.7882310000002
 20
-12.76210300000002
 10
39.80239905600021
 20
-12.74684865820001
 10
39.8161450000002
 20
-12.73121300000002
 10
39.82937734680021
 20
-12.71529569830005
 10
39.8421650000002
 20
-12.69901900000002
 10
39.85457056840019
 20
-12.68229729670003
 10
39.86651500000019
 20
-12.66524300000003
 10
39.87804490570019
 20
-12.64779802819999
 10
39.88910100000018
 20
-12.63004899999998
 10
39.89966441200019
 20
-12.6120252476
 10
39.90973200000019
 20
-12.59372000000002
 10
39.91924193890023
 20
-12.57523973990004
 10
39.92823800000019
 20
-12.55650400000002
 10
39.93676066130021
 20
-12.5374191775
 10
39.9447600000002
 20
-12.51810899999998
 10
39.9522830272002
 20
-12.4984727918
 10
39.95927700000019
 20
-12.47864199999998
 10
39.9657402000002
 20
-12.45861806580001
 10
39.97165700000019
 20
-12.43842599999999
 10
39.9769927870002
 20
-12.41817209060002
 10
39.98176900000018
 20
-12.39777900000001
 10
39.9859788034002
 20
-12.37727612290001
 10
39.98962800000018
 20
-12.35666600000002
 10
39.9927361791002
 20
-12.33584939940004
 10
39.9952850000002
 20
-12.31495699999999
 10
39.9972929914002
 20
-12.29382791370005
 10
39.99874300000019
 20
-12.27265299999999
 10
39.99964927400018
 20
-12.25121033830004
 10
40.0000000000002
 20
-12.22975200000002
  0
LWPOLYLINE
  5
272B
330
22
100
AcDbEntity
  8
1
100
AcDbPolyline
 90
        7
 70
     0
 43
0.0
 10
39.84740689380024
 20
-12.21284096490001
 10
39.85302581420024
 20
-12.20419634709998
 10
39.85842172290023
 20
-12.195227192
 10
39.86359599410022
 20
-12.18594504900005
 10
39.86854450540022
 20
-12.17631526989999
 10
39.87326313460022
 20
-12.16630320659999
 10
39.87775325570022
 20
-12.15592040849998
  0
LWPOLYLINE
  5
2734
330
22
100
AcDbEntity
  8
1
100
AcDbPolyline
 90
       19
 70
     0
 43
0.0
 10
39.84740689380024
 20
-12.21284096490001
 10
39.83250625090022
 20
-12.23510228360004
 10
39.81585178590023
 20
-12.25986218939994
 10
39.79719323140023
 20
-12.28696110339996
 10
39.77649537380023
 20
-12.31580173470002
 10
39.75383841550024
 20
-12.34587176280001
 10
39.72923544630024
 20
-12.37670682909999
 10
39.70280024030024
 20
-12.40786336180002
 10
39.67476104100024
 20
-12.43884693829995
 10
39.64551622480022
 20
-12.46910342849998
 10
39.61512231970022
 20
-12.49864976220004
 10
39.58358736460025
 20
-12.52740591909997
 10
39.55139427400022
 20
-12.55505833079996
 10
39.51893931350023
 20
-12.58143660659999
 10
39.48672066790022
 20
-12.60637042489998
 10
39.45523340290023
 20
-12.6298300203
 10
39.42501040610023
 20
-12.65170962849998
 10
39.39668490650024
 20
-12.67201575389998
 10
39.37041927100023
 20
-12.69099334290001
  0
LWPOLYLINE
  5
2749
330
22
100
AcDbEntity
  8
1
100
AcDbPolyline
 90
        7
 70
     0
 43
0.0
 10
39.30463826270023
 20
-12.73043488989998
 10
39.31632554890024
 20
-12.72459998049999
 10
39.32771157190024
 20
-12.71846767079995
 10
39.33878531680023
 20
-12.71203615360002
 10
39.34957982830022
 20
-12.7053108504
 10
39.36012815140023
 20
-12.69829718250003
 10
39.37041927100023
 20
-12.69099334290001
  0
LWPOLYLINE
  5
2752
330
22
100
AcDbEntity
  8
1
100
AcDbPolyline
 90
       11
 70
     0
 43
0.0
 10
39.08693729810023
 20
-11.74342420339997
 10
39.12022256260025
 20
-11.72746815049999
 10
39.15061227710024
 20
-11.70844424509994
 10
39.17828494440022
 20
-11.68621479809996
 10
39.20270505640025
 20
-11.66119287689997
 10
39.22336339120022
 20
-11.63370499089996
 10
39.24035959250023
 20
-11.6038731246
 10
39.2536265656002
 20
-11.57193384909999
 10
39.26315530390025
 20
-11.53786991339996
 10
39.26891051470022
 20
-11.50175062430003
 10
39.27090396230023
 20
-11.46355287939997
  0
LWPOLYLINE
  5
275F
330
22
100
AcDbEntity
  8
1
100
AcDbPolyline
 90
        7
 70
     0
 43
0.0
 10
38.74048881730022
 20
11.72291400509999
 10
38.74012408530024
 20
11.72378482630006
 10
38.73976795410022
 20
11.72448548620002
 10
38.73951866860023
 20
11.72495949940003
 10
38.73908149410022
 20
11.72537632180001
 10
38.73816169600025
 20
11.72590540909999
 10
38.73685751910023
 20
11.72649027620002
  0
LWPOLYLINE
  5
2768
330
22
100
AcDbEntity
  8
1
100
AcDbPolyline
 90
       15
 70
     0
 43
0.0
 10
40.00000000000023
 20
-2.235558749999995
 10
39.99495427790023
 20
-2.146965595300002
 10
39.98046645480022
 20
-2.060885749700048
 10
39.95634051580021
 20
-1.976837771800035
 10
39.92316450570021
 20
-1.896265985599995
 10
39.88124480460021
 20
-1.820192780699983
 10
39.83123039160023
 20
-1.749402518299973
 10
39.77361118650021
 20
-1.684805156500033
 10
39.70917074760024
 20
-1.627046294099955
 10
39.63855348480021
 20
-1.576911274300016
 10
39.56266676350023
 20
-1.534890821700003
 10
39.48229294750024
 20
-1.501635059899967
 10
39.39845145130022
 20
-1.477451135899968
 10
39.31258250280024
 20
-1.462928386500038
 10
39.22420602610023
 20
-1.457870366199983
  0
LWPOLYLINE
  5
2779
330
22
100
AcDbEntity
  8
1
100
AcDbPolyline
 90
        7
 70
     0
 43
0.0
 10
39.87775325570022
 20
-12.15592040849998
 10
39.87934131300022
 20
-12.18638863269996
 10
39.88099463410021
 20
-12.21659078890002
 10
39.88271296050021
 20
-12.24646078159998
 10
39.88449706830022
 20
-12.2761968973
 10
39.88634773400022
 20
-12.30599742239997
 10
39.88826469880024
 20
-12.33579626139999
  0
LWPOLYLINE
  5
2782
330
22
100
AcDbEntity
  8
1
100
AcDbPolyline
 90
       11
 70
     0
 43
0.0
 10
39.27090396230023
 20
-2.952187852999941
 10
39.26903983270023
 20
-2.914810392299955
 10
39.26344390380024
 20
-2.87920380280002
 10
39.25414817390024
 20
-2.845325781899987
 10
39.2410566481002
 20
-2.81330323740002
 10
39.22400616460024
 20
-2.783087092999949
 10
39.20323022250022
 20
-2.755162999399942
 10
39.17877698410024
 20
-2.729952299799947
 10
39.15103929880024
 20
-2.707598840900004
 10
39.1204771831002
 20
-2.688422454099963
 10
39.08693729810023
 20
-2.672316529000056
  0
LWPOLYLINE
  5
278F
330
22
100
AcDbEntity
  8
1
100
AcDbPolyline
 90
       21
 70
     0
 43
0.0
 10
39.81183836700024
 20
2.325913234799998
 10
39.81274562680022
 20
2.273048371100003
 10
39.80930900340025
 20
2.220586857499995
 10
39.8015061156002
 20
2.168330060600055
 10
39.78940410710024
 20
2.116873880800028
 10
39.77301824140023
 20
2.066631990500013
 10
39.75248177760022
 20
2.017952440500039
 10
39.72786641280021
 20
1.971223212200015
 10
39.69937209720024
 20
1.926738184999976
 10
39.66711015090022
 20
1.884808785600057
 10
39.63141816080023
 20
1.845770353800048
 10
39.59259250410023
 20
1.810007957499976
 10
39.55086812980022
 20
1.777683839000019
 10
39.50641771410023
 20
1.749014037700021
 10
39.45972445280023
 20
1.724222230099996
 10
39.41124741750022
 20
1.703604992500004
 10
39.36123165660024
 20
1.687159666100001
 10
39.30992007110024
 20
1.674966915500021
 10
39.25777817470024
 20
1.667073347200016
 10
39.20542075850022
 20
1.663561643000036
 10
39.15264289200024
 20
1.664404242200021
  0
LWPOLYLINE
  5
27A6
330
22
100
AcDbEntity
  8
1
100
AcDbPolyline
 90
       39
 70
     0
 43
0.0
 10
40.00000000000023
 20
-2.235558662900018
 10
39.99984636930023
 20
-2.225354658799972
 10
39.99941470350023
 20
-2.215592825599969
 10
39.99868520590025
 20
-2.206207009099955
 10
39.99771726730023
 20
-2.197395671399988
 10
39.99655543210025
 20
-2.189389202699999
 10
39.99522444390024
 20
-2.182025663800004
 10
39.99376258090024
 20
-2.17524835949996
 10
39.99217378370025
 20
-2.16897194820001
 10
39.99047434710025
 20
-2.163105016599956
 10
39.98866548660021
 20
-2.157609083799968
 10
39.98675399410024
 20
-2.152423237699963
 10
39.9847394356002
 20
-2.147523357800025
 10
39.98262437900022
 20
-2.142870716599986
 10
39.98040661090022
 20
-2.138448222799979
 10
39.97808576540024
 20
-2.134229547900019
 10
39.97565886720025
 20
-2.130203676099995
 10
39.97312363610024
 20
-2.126352721300008
 10
39.97047761960022
 20
-2.122670965599979
 10
39.96771874950025
 20
-2.119148107599983
 10
39.96484359250024
 20
-2.115780012599941
 10
39.96184935230022
 20
-2.112559846899955
 10
39.95873205020024
 20
-2.10948540540005
 10
39.95548837220025
 20
-2.106552479000015
 10
39.95211352740023
 20
-2.103760245700016
 10
39.94860329690022
 20
-2.101106208500027
 10
39.94495265060022
 20
-2.098591184099973
 10
39.94115679180021
 20
-2.096214406699971
 10
39.93721080130024
 20
-2.093978127200045
 10
39.93310997820021
 20
-2.091883318399993
 10
39.92884887030021
 20
-2.08993304829994
 10
39.92442260020022
 20
-2.08812944089999
 10
39.91982474260021
 20
-2.086476301100049
 10
39.91504970420022
 20
-2.084976560000029
 10
39.91009011140022
 20
-2.08363496390001
 10
39.90493921860025
 20
-2.082455268399996
 10
39.89958954840023
 20
-2.081443376899983
 10
39.89403015940025
 20
-2.080607338800007
 10
39.88826469880024
 20
-2.079944470999976
  0
LWPOLYLINE
  5
27CF
330
22
100
AcDbEntity
  8
1
100
AcDbPolyline
 90
       13
 70
     0
 43
0.0
 10
39.79842925480023
 20
2.731408834100022
 10
39.79853416760022
 20
2.697715992400048
 10
39.79884533700022
 20
2.664036985699965
 10
39.79936686600024
 20
2.630380517400055
 10
39.80008644570023
 20
2.596720477199994
 10
39.80099574480022
 20
2.563037649599948
 10
39.80208693330022
 20
2.529320052999992
 10
39.80335502850022
 20
2.495549055699996
 10
39.80478315780022
 20
2.461725391100003
 10
39.80635614890025
 20
2.427839242700031
 10
39.80806391800025
 20
2.393903627899987
 10
39.80988943140022
 20
2.359929510100016
 10
39.81183836700024
 20
2.325913234799998
  0
LINE
  5
27DE
330
22
100
AcDbEntity
  8
1
100
AcDbLine
 10
40.00000000000023
 20
-12.18018198239997
 30
0.0
 11
40.00000000000023
 21
-2.235558749999995
 31
0.0
  0
LINE
  5
27DF
330
22
100
AcDbEntity
  8
1
100
AcDbLine
 10
40.00000000000023
 20
12.1975245287
 30
0.0
 11
40.00000000000023
 21
2.254415910600016
 31
0.0
  0
LINE
  5
27E0
330
22
100
AcDbEntity
  8
1
100
AcDbLine
 10
39.88826469880024
 20
-12.33579626139999
 30
0.0
 11
39.88826469880024
 21
-2.079944470999976
 31
0.0
  0
LINE
  5
27E1
330
22
100
AcDbEntity
  8
1
100
AcDbLine
 10
39.87775325570022
 20
-12.15592040849998
 30
0.0
 11
39.87775325570022
 21
-2.259820323899987
 31
0.0
  0
LINE
  5
27E2
330
22
100
AcDbEntity
  8
1
100
AcDbLine
 10
39.79842925480023
 20
11.72003961480004
 30
0.0
 11
39.79842925480023
 21
2.731408834100022
 31
0.0
  0
LINE
  5
27E3
330
22
100
AcDbEntity
  8
1
100
AcDbLine
 10
39.27090396230023
 20
-11.46355287939997
 30
0.0
 11
39.27090396230023
 21
-2.952187852999941
 31
0.0
  0
LWPOLYLINE
  5
27E4
330
22
100
AcDbEntity
  8
1
100
AcDbPolyline
 90
       15
 70
     0
 43
0.0
 10
40.00000000000023
 20
2.254415910600016
 10
39.99495427790023
 20
2.165830091300051
 10
39.98046645480022
 20
2.079745675200001
 10
39.95634051580021
 20
1.995681055200009
 10
39.92316450570021
 20
1.915081052799962
 10
39.88124480460021
 20
1.838968275699983
 10
39.83123039160023
 20
1.768127757900003
 10
39.77361118650021
 20
1.703469916599999
 10
39.70917074760024
 20
1.645641208699998
 10
39.63855348480021
 20
1.595427643899995
 10
39.56266676350023
 20
1.553320979799991
 10
39.48229294750024
 20
1.519972195500031
 10
39.39845145130022
 20
1.495689635399969
 10
39.31258250280024
 20
1.48106430420006
 10
39.22420602610023
 20
1.475899200400021
  0
LWPOLYLINE
  5
27F5
330
22
100
AcDbEntity
  8
1
100
AcDbPolyline
 90
       13
 70
     0
 43
0.0
 10
39.81183836680023
 20
12.12556793999999
 10
39.80988752990021
 20
12.09151610380002
 10
39.80805920630024
 20
12.05747813810001
 10
39.80634720890023
 20
12.02344216620003
 10
39.80477009970025
 20
11.98944381819996
 10
39.80333923040024
 20
11.95551109799999
 10
39.80207004550022
 20
11.92165500840002
 10
39.80098054220025
 20
11.88790393740004
 10
39.80007441450022
 20
11.85423373439999
 10
39.79935891970024
 20
11.82063973740003
 10
39.79884136500022
 20
11.787091868
 10
39.7985326925002
 20
11.7535545398
 10
39.79842925480023
 20
11.72003961480004
  0
LWPOLYLINE
  5
2804
330
22
100
AcDbEntity
  8
1
100
AcDbPolyline
 90
        7
 70
     0
 43
0.0
 10
39.88826469880024
 20
-2.079944470999976
 10
39.88634747380024
 20
-2.109747473200002
 10
39.88449663080024
 20
-2.139550995400043
 10
39.88271240870023
 20
-2.16928941040004
 10
39.88099409070023
 20
-2.199159600299992
 10
39.87934096000021
 20
-2.229358447200013
 10
39.87775325570022
 20
-2.259820323899987
  0
LINE
  5
280D
330
22
100
AcDbEntity
  8
1
100
AcDbLine
 10
30.30328457050024
 20
-11.94170525739997
 30
0.0
 11
29.38486178720024
 21
-12.69099334290001
 31
0.0
  0
LWPOLYLINE
  5
280E
330
22
100
AcDbEntity
  8
1
100
AcDbPolyline
 90
       14
 70
     0
 43
0.0
 10
26.52933542590023
 20
-12.34965305549997
 10
26.61018268670023
 20
-12.32618509159999
 10
26.73467797800024
 20
-12.26961243470003
 10
26.90496094410022
 20
-12.18435700600003
 10
27.11461265210022
 20
-12.07727068439993
 10
27.35936614080021
 20
-11.95666814049997
 10
27.63490513950023
 20
-11.82933940650002
 10
27.93576158900021
 20
-11.70288222799996
 10
28.26112389430022
 20
-11.58217502650001
 10
28.61147288410024
 20
-11.47118013519997
 10
28.97746322840021
 20
-11.37537969759995
 10
29.35500885880023
 20
-11.30005146709999
 10
29.72881281910023
 20
-11.24639935290002
 10
30.08013375760021
 20
-11.21526225780002
  0
LWPOLYLINE
  5
281E
330
22
100
AcDbEntity
  8
1
100
AcDbPolyline
 90
        9
 70
     0
 43
0.0
 10
38.74040664690023
 20
11.7228009712
 10
38.85952684920022
 20
11.72876235400002
 10
38.98644177300025
 20
11.71969436289998
 10
39.11925586920023
 20
11.71479055079999
 10
39.25588216440025
 20
11.71861397610001
 10
39.39426385200022
 20
11.71852430149999
 10
39.53225439690021
 20
11.71873578200001
 10
39.66769089880023
 20
11.71924276620001
 10
39.79842925480023
 20
11.72003961420006
  0
LWPOLYLINE
  5
2829
330
22
100
AcDbEntity
  8
1
100
AcDbPolyline
 90
       15
 70
     0
 43
0.0
 10
15.73540507220022
 20
10.4493706833
 10
15.7916041508002
 20
10.45134542980003
 10
15.84745502090021
 20
10.45645543770001
 10
15.90305005610022
 20
10.46471775690003
 10
15.9581121356002
 20
10.4760812376
 10
16.0124481533002
 20
10.49052114289998
 10
16.06589843920019
 20
10.50797528330003
 10
16.11829048470022
 20
10.52839923760001
 10
16.1694696991002
 20
10.55171496370002
 10
16.2192719578002
 20
10.57786022920004
 10
16.26755335380022
 20
10.60674318410002
 10
16.31416362760021
 20
10.63828997039997
 10
16.35895771220021
 20
10.67238437849994
 10
16.40171605990019
 20
10.70886797599996
 10
16.44251185340022
 20
10.74779357349996
  0
LWPOLYLINE
  5
283A
330
22
100
AcDbEntity
  8
1
100
AcDbPolyline
 90
       21
 70
     0
 43
0.0
 10
39.15264289490023
 20
12.78546798299999
 10
39.20538812040025
 20
12.78644168950001
 10
39.25772562780023
 20
12.78306107119999
 10
39.30985356970024
 20
12.77530393730001
 10
39.36117748850023
 20
12.76323685990002
 10
39.41128467510021
 20
12.74687463370003
 10
39.45982803620024
 20
12.72635039929997
 10
39.50642056350023
 20
12.70173554560006
 10
39.55076929240022
 20
12.67323012290001
 10
39.59256364310022
 20
12.64094532740006
 10
39.63146945270023
 20
12.60521911080002
 10
39.66710289360023
 20
12.56634806020002
 10
39.69930238040024
 20
12.52456746550001
 10
39.72785257710024
 20
12.48005013549999
 10
39.75253090640024
 20
12.43328010020002
 10
39.77304202860023
 20
12.38471712180001
 10
39.78938889460022
 20
12.33460681330001
 10
39.80149131990021
 20
12.28319253389998
 10
39.80930337120023
 20
12.23094080700002
 10
39.81274330410022
 20
12.1784677311
 10
39.81183836680023
 20
12.12556793999999
  0
LWPOLYLINE
  5
2851
330
22
100
AcDbEntity
  8
1
100
AcDbPolyline
 90
        7
 70
     0
 43
0.0
 10
15.73540507220022
 20
10.4493706833
 10
15.07376638480019
 20
10.44471483700005
 10
14.41253042870022
 20
10.43985607819996
 10
13.7516908677002
 20
10.43479429179996
 10
13.09126671020022
 20
10.42952982299999
 10
12.43127696430022
 20
10.42406301670002
 10
11.77171529390023
 20
10.41839375789999
  0
LWPOLYLINE
  5
285A
330
22
100
AcDbEntity
  8
1
100
AcDbPolyline
 90
       13
 70
     0
 43
0.0
 10
38.74805711760024
 20
12.77153442150001
 10
38.78167313290024
 20
12.77168059910002
 10
38.81527559590023
 20
12.77203348910001
 10
38.84885582800024
 20
12.77259719300002
 10
38.88243986510023
 20
12.77335940560005
 10
38.91604686850025
 20
12.77431179990003
 10
38.94968878310022
 20
12.77544654270002
 10
38.98338419160024
 20
12.77675866249996
 10
39.01713234210024
 20
12.77823124700001
 10
39.05094301010024
 20
12.77984910130004
 10
39.08480319560022
 20
12.78160210249996
 10
39.11870193950023
 20
12.78347316459997
 10
39.15264289490023
 20
12.78546798299999
  0
LWPOLYLINE
  5
2869
330
22
100
AcDbEntity
  8
1
100
AcDbPolyline
 90
        5
 70
     0
 43
0.0
 10
26.52933542590023
 20
12.34615655499999
 10
24.60313999840022
 20
12.34206180310002
 10
22.67752657820023
 20
12.33649944429999
 10
20.75249516510021
 20
12.32946947829998
 10
18.82804575930021
 20
12.32097190529998
  0
LINE
  5
2870
330
22
100
AcDbEntity
  8
1
100
AcDbLine
 10
29.30380739600023
 20
12.96204092810001
 30
0.0
 11
39.22420602610023
 21
12.97414769469998
 31
0.0
  0
LINE
  5
2871
330
22
100
AcDbEntity
  8
1
100
AcDbLine
 10
29.77995630450022
 20
12.76058983069998
 30
0.0
 11
38.74805711760024
 21
12.77153442150001
 31
0.0
  0
LINE
  5
2872
330
22
100
AcDbEntity
  8
1
100
AcDbLine
 10
38.73685751910023
 20
11.72649027620002
 30
0.0
 11
29.76638597480022
 21
11.71594494010003
 31
0.0
  0
LINE
  5
2873
330
22
100
AcDbEntity
  8
1
100
AcDbLine
 10
6.86315963710021
 20
10.5
 30
0.0
 11
0.4000000000002047
 21
10.5
 31
0.0
  0
LWPOLYLINE
  5
2874
330
22
100
AcDbEntity
  8
1
100
AcDbPolyline
 90
       14
 70
     0
 43
0.0
 10
6.857590274800202
 20
10.49999761840001
 10
7.145434386800218
 20
10.49833075770004
 10
7.503632331700202
 20
10.49274979149999
 10
7.870595811700212
 20
10.4842388394
 10
8.244951951900219
 20
10.47386352789999
 10
8.625051646900203
 20
10.46258382349998
 10
9.008821638000227
 20
10.45133732240003
 10
9.396161510400219
 20
10.44082906099998
 10
9.786293676000212
 20
10.4316740337
 10
10.17917639470022
 20
10.42433698690001
 10
10.57470798220021
 20
10.41915955510001
 10
10.9722906833002
 20
10.41638303380006
 10
11.37121389190022
 20
10.4161224339
 10
11.77171447670019
 20
10.4183937505
  0
LWPOLYLINE
  5
2884
330
22
100
AcDbEntity
  8
1
100
AcDbPolyline
 90
        9
 70
     0
 43
0.0
 10
29.76249444460023
 20
11.71184440670004
 10
29.65443048280025
 20
11.71752853590004
 10
29.53642262750023
 20
11.70816164319996
 10
29.41038281570022
 20
11.70294192810001
 10
29.27821988670024
 20
11.70643732550002
 10
29.14190002510023
 20
11.70601240740007
 10
29.00356595640023
 20
11.7058866639
 10
28.86540460030023
 20
11.70605975170002
 10
28.72958416730023
 20
11.70653129370004
  0
LWPOLYLINE
  5
288F
330
22
100
AcDbEntity
  8
1
100
AcDbPolyline
 90
       15
 70
     0
 43
0.0
 10
39.22420602610023
 20
12.97414769469998
 10
39.31258337230023
 20
12.96919827670007
 10
39.39845353180022
 20
12.954782083
 10
39.48229677290021
 20
12.93070323590001
 10
39.56267229030022
 20
12.89754936810004
 10
39.63856018470023
 20
12.85562631639999
 10
39.70917800560022
 20
12.80558359069999
 10
39.77361801150022
 20
12.74791112459996
 10
39.83123617620023
 20
12.68339348400002
 10
39.88124906960024
 20
12.61267559790002
 10
39.92316716250022
 20
12.53666631150003
 10
39.95634191500022
 20
12.45614898819997
 10
39.9804669282002
 20
12.37214500230004
 10
39.9949543008002
 20
12.28609716099998
 10
40.00000000000023
 20
12.1975245287
  0
LWPOLYLINE
  5
28A0
330
22
100
AcDbEntity
  8
1
100
AcDbPolyline
 90
       13
 70
     0
 43
0.0
 10
29.37537053010021
 20
12.77353588630001
 10
29.40934221680021
 20
12.77162204209998
 10
29.44330021380023
 20
12.76983097520002
 10
29.47725636330023
 20
12.7681564984
 10
29.51117513900022
 20
12.76661717300004
 10
29.54502861500021
 20
12.76522434259999
 10
29.57880583200023
 20
12.7639934737
 10
29.61247848930023
 20
12.76294257009999
 10
29.64607068650023
 20
12.76207536370003
 10
29.67958708390023
 20
12.76139913410003
 10
29.71305770000021
 20
12.76092124179996
 10
29.74651805330024
 20
12.76065269740002
 10
29.77995630450022
 20
12.76058983069998
  0
LINE
  5
28EE
330
22
100
AcDbEntity
  8
1
100
AcDbLine
 10
28.52801342210023
 20
11.40248156469999
 30
0.0
 11
28.38262043520024
 21
11.4419088226
 31
0.0
  0
LWPOLYLINE
  5
28EF
330
22
100
AcDbEntity
  8
1
100
AcDbPolyline
 90
        5
 70
     0
 43
0.0
 10
28.38262043520024
 20
11.4419088226
 10
27.89030470100022
 20
11.60726935219998
 10
27.41731862140023
 20
11.81309748420005
 10
26.96366219640024
 20
12.05939321840003
 10
26.52933542590023
 20
12.34615655499999
  0
LWPOLYLINE
  5
28F6
330
22
100
AcDbEntity
  8
1
100
AcDbPolyline
 90
        3
 70
     0
 43
0.0
 10
28.17303922550025
 20
11.53833734329998
 10
28.48860176840023
 20
11.42765080190003
 10
28.52801342210023
 20
11.41604806749995
  0
LWPOLYLINE
  5
28FB
330
22
100
AcDbEntity
  8
1
100
AcDbPolyline
 90
       11
 70
     0
 43
0.0
 10
29.76273811530024
 20
11.71271840730003
 10
29.67790569450023
 20
11.74561466840003
 10
29.58543524330023
 20
11.7813138669
 10
29.48651528780022
 20
11.81935892090001
 10
29.38230916710023
 20
11.85930241860001
 10
29.27395788100023
 20
11.90070537830002
 10
29.16273719240022
 20
11.94307852179997
 10
29.0500453315002
 20
11.98589091799999
 10
28.93717288660023
 20
12.02865377469999
 10
28.82542871310022
 20
12.07087116069999
 10
28.71617505530023
 20
12.11202689079999
  0
LWPOLYLINE
  5
2908
330
22
100
AcDbEntity
  8
1
100
AcDbPolyline
 90
       10
 70
     0
 43
0.0
 10
26.52933542590023
 20
12.34615655499999
 10
26.58597732770022
 20
12.32204808
 10
26.67462376290024
 20
12.27635408110001
 10
26.79501365670024
 20
12.20929701880004
 10
26.94793023370022
 20
12.12287484789999
 10
27.13510439470025
 20
12.01952482349998
 10
27.35343203580021
 20
11.90377092950001
 10
27.60175334130025
 20
11.78149896910003
 10
27.87596634890025
 20
11.65765291539998
 10
28.17303922550025
 20
11.53833734329998
  0
LWPOLYLINE
  5
2914
330
22
100
AcDbEntity
  8
1
100
AcDbPolyline
 90
       11
 70
     0
 43
0.0
 10
38.73640234240023
 20
2.72834492529995
 10
38.76918580820023
 20
2.637104243400017
 10
38.81766637870024
 20
2.539215073499974
 10
38.86410828470025
 20
2.435605193800029
 10
38.90344295310024
 20
2.327992160099995
 10
38.94710601100025
 20
2.217218295600048
 10
38.99058877160022
 20
2.104722639500039
 10
39.03336332510022
 20
1.991902455699971
 10
39.07495579940024
 20
1.880035297599988
 10
39.11488328160022
 20
1.770418915499988
 10
39.15264289200024
 20
1.664404242200021
  0
LWPOLYLINE
  5
2934
330
22
100
AcDbEntity
  8
1
100
AcDbPolyline
 90
        9
 70
     0
 43
0.0
 10
38.73550095170023
 20
2.728261512199992
 10
38.74100624610023
 20
2.613113002200009
 10
38.74548260620023
 20
2.489258743300013
 10
38.74886835790022
 20
2.358693703100016
 10
38.75110143150022
 20
2.223430878999977
 10
38.75213234440023
 20
2.085508381700037
 10
38.75196058260022
 20
1.947072659299976
 10
38.75059815550026
 20
1.810300603299992
 10
38.74805711700023
 20
1.677350297799989
  0
LWPOLYLINE
  5
293F
330
22
100
AcDbEntity
  8
1
100
AcDbPolyline
 90
       41
 70
     0
 43
0.0
 10
37.47559585860023
 20
7.226038563400038
 10
37.46555003740022
 20
7.48034328540001
 10
37.43590127970023
 20
7.731512176399974
 10
37.38646782500024
 20
7.980303835299991
 10
37.31779495510023
 20
8.224442465700008
 10
37.23012999440022
 20
8.462372887400022
 10
37.12418505450023
 20
8.692691851600045
 10
37.00044719010023
 20
8.913902399599976
 10
36.85983889620024
 20
9.124730480100026
 10
36.70307496500021
 20
9.323774216499998
 10
36.53126556000024
 20
9.509920126499991
 10
36.34533561020021
 20
9.681895933899966
 10
36.14655561190023
 20
9.838776143100062
 10
35.93603785600021
 20
9.979449406500009
 10
35.71518188760024
 20
10.10320100359996
 10
35.48525997130025
 20
10.20910788020001
 10
35.24776623980023
 20
10.29668369020004
 10
35.00410160390024
 20
10.36521640130001
 10
34.75581799300022
 20
10.41446001700001
 10
34.50441046940023
 20
10.44393105990002
 10
34.25145054580023
 20
10.45362994010003
 10
33.99849062210023
 20
10.44331363980001
 10
33.74708309860023
 20
10.41322896590003
 10
33.49879948770024
 20
10.36337934389996
 10
33.25513485180022
 20
10.2942519005
 10
33.01764112020021
 20
10.20609641999999
 10
32.78771920400021
 20
10.099628354
 10
32.56686323560024
 20
9.975337695600046
 10
32.35634547960024
 20
9.834150604299964
 10
32.15756548130026
 20
9.676785216300061
 10
31.97163553150023
 20
9.50435559440001
 10
31.79982612660024
 20
9.317790335100028
 10
31.64306219530022
 20
9.118363972099984
 10
31.50245390150022
 20
8.907192697300047
 10
31.37871603710022
 20
8.685680132100003
 10
31.27277109720024
 20
8.455102579400033
 10
31.18510613650022
 20
8.216958186600038
 10
31.11643326660021
 20
7.97265194060003
 10
31.06699981190025
 20
7.723739625500002
 10
31.03735105420023
 20
7.472498368300023
 10
31.02730523290023
 20
7.218169126600002
  0
LINE
  5
2A32
330
22
100
AcDbEntity
  8
1
100
AcDbLine
 10
38.74008754250022
 20
2.731906675200036
 30
0.0
 11
38.74048881730022
 21
11.72291400509999
 31
0.0
  0
LINE
  5
2A33
330
22
100
AcDbEntity
  8
1
100
AcDbLine
 10
38.60271400220023
 20
-11.22152364099997
 30
0.0
 11
38.60271400220023
 21
-11.20787036619998
 31
0.0
  0
LINE
  5
2A34
330
22
100
AcDbEntity
  8
1
100
AcDbLine
 10
38.60271400220023
 20
1.475140737000003
 30
0.0
 11
38.60271400220023
 21
-11.20787036619998
 31
0.0
  0
LINE
  5
2A35
330
22
100
AcDbEntity
  8
1
100
AcDbLine
 10
38.31403667610022
 20
-11.20787036619998
 30
0.0
 11
38.31403667610022
 21
1.212550884200027
 31
0.0
  0
LWPOLYLINE
  5
2AFA
330
22
100
AcDbEntity
  8
1
100
AcDbPolyline
 90
        9
 70
     0
 43
0.0
 10
38.73640234240023
 20
11.72680955560003
 10
38.74911648220024
 20
11.83929073090002
 10
38.74548260620023
 20
11.96091107420005
 10
38.74466298150023
 20
12.08978381470001
 10
38.75110143150022
 20
12.22393423389997
 10
38.75213234440023
 20
12.36134213849999
 10
38.75196058260022
 20
12.4998635979
 10
38.75059815550026
 20
12.63731572590001
 10
38.74805711700023
 20
12.77153442150001
  0
LINE
  5
2B05
330
22
100
AcDbEntity
  8
1
100
AcDbLine
 10
39.27090396230023
 20
-2.952187852999941
 30
0.0
 11
39.84740689380024
 21
-2.202899767500014
 31
0.0
  0
LINE
  5
2B06
330
22
100
AcDbEntity
  8
1
100
AcDbLine
 10
38.79391633950024
 20
-2.474035474999993
 30
0.0
 11
39.37041927100023
 21
-1.724747389500009
 31
0.0
  0
LINE
  5
2B07
330
22
100
AcDbEntity
  8
1
100
AcDbLine
 10
39.08693729810023
 20
-2.672316529000056
 30
0.0
 11
38.60271400220023
 21
-3.194217091399991
 31
0.0
  0
LINE
  5
2B08
330
22
100
AcDbEntity
  8
1
100
AcDbLine
 10
30.03792638620024
 20
-11.74342420339997
 30
0.0
 11
30.59496156780023
 21
-11.22152364099997
 31
0.0
  0
LINE
  5
2B09
330
22
100
AcDbEntity
  8
1
100
AcDbLine
 10
29.82629694770023
 20
-11.46355287939997
 30
0.0
 11
28.90787416430021
 21
-12.21284096490001
 31
0.0
  0
LWPOLYLINE
  5
2B0A
330
22
100
AcDbEntity
  8
1
100
AcDbPolyline
 90
       11
 70
     0
 43
0.0
 10
38.74040664690023
 20
11.7228009712
 10
38.83512270220024
 20
11.74968512230003
 10
38.93624264550022
 20
11.79272549109998
 10
39.04237994450023
 20
11.8348781789
 10
39.15171659350022
 20
11.87122491529999
 10
39.26362360420024
 20
11.91289667800004
 10
39.37655753770022
 20
11.95554337689998
 10
39.48912578260024
 20
11.99863067760003
 10
39.60006234670021
 20
12.04166666810005
 10
39.70807993880024
 20
12.08415225020002
 10
39.81183836680023
 20
12.12556793999999
  0
LWPOLYLINE
  5
2D1B
330
22
100
AcDbEntity
  8
1
100
AcDbPolyline
 90
       11
 70
     0
 43
0.0
 10
39.08693729810023
 20
-2.672316529000056
 10
39.06851296190024
 20
-2.636433260599972
 10
39.04724460960023
 20
-2.603672394900002
 10
39.02298534870022
 20
-2.573843460299997
 10
38.99617585700023
 20
-2.54751787189997
 10
38.96715266340022
 20
-2.525231732400015
 10
38.93608132160023
 20
-2.506900507500006
 10
38.90326788470026
 20
-2.492626183900028
 10
38.86862738420024
 20
-2.482385302500006
 10
38.83217900020023
 20
-2.476189716500016
 10
38.79391633950024
 20
-2.474035474999993
  0
LWPOLYLINE
  5
2D28
330
22
100
AcDbEntity
  8
1
100
AcDbPolyline
 90
        7
 70
     0
 43
0.0
 10
39.87775325570022
 20
-2.259820323899987
 10
39.87326380380023
 20
-2.249438919900001
 10
39.86854555810021
 20
-2.239427597999963
 10
39.86359712740023
 20
-2.229797818299971
 10
39.85842268510021
 20
-2.220515200299985
 10
39.85302640420022
 20
-2.211545363299933
 10
39.84740689380024
 20
-2.202899767500014
  0
LWPOLYLINE
  5
2D31
330
22
100
AcDbEntity
  8
1
100
AcDbPolyline
 90
       39
 70
     0
 43
0.0
 10
39.44222206290021
 20
-1.632812644399962
 10
39.43832797440024
 20
-1.623800589899985
 10
39.43437690800022
 20
-1.615109765799957
 10
39.43036826060023
 20
-1.60674586579995
 10
39.42630384140023
 20
-1.598691808599994
 10
39.42218527990022
 20
-1.590935902800026
 10
39.41801251180022
 20
-1.583467671899938
 10
39.41378607260023
 20
-1.576275604799945
 10
39.40950579160023
 20
-1.569351113699951
 10
39.40517191020024
 20
-1.562684334399989
 10
39.40078372720023
 20
-1.556267585999989
 10
39.39634119160024
 20
-1.550092340599974
 10
39.39184259470022
 20
-1.544151275700016
 10
39.38728734140023
 20
-1.53843667960001
 10
39.38267204010023
 20
-1.532941191899965
 10
39.37799472430021
 20
-1.527657072800025
 10
39.37325052360023
 20
-1.522577747999946
 10
39.36843595890025
 20
-1.517695802299954
 10
39.36354488900022
 20
-1.513006018400005
 10
39.3585727992002
 20
-1.508502139799986
 10
39.35351133180024
 20
-1.504179867999994
 10
39.34835451010022
 20
-1.500033932099995
 10
39.34309067700025
 20
-1.496060992900027
 10
39.33771250140024
 20
-1.492257081100035
 10
39.33220102920023
 20
-1.488618815499989
 10
39.32654362500023
 20
-1.485141643299982
 10
39.32071400260023
 20
-1.481825110099975
 10
39.31469426460024
 20
-1.478665985600002
 10
39.30844660930024
 20
-1.475668043600023
 10
39.30194630580024
 20
-1.472830397800009
 10
39.2951362441002
 20
-1.470163798200019
 10
39.28797885380024
 20
-1.467670206700006
 10
39.28039078490022
 20
-1.465375100799974
 10
39.27228936230023
 20
-1.463284546099998
 10
39.26363499140024
 20
-1.461458739099953
 10
39.25426947090023
 20
-1.459935962200006
 10
39.24446594510022
 20
-1.458788023399961
 10
39.23447237570022
 20
-1.458110062499997
 10
39.22420610890024
 20
-1.457870366199983
  0
LWPOLYLINE
  5
2E58
330
22
100
AcDbEntity
  8
1
100
AcDbPolyline
 90
       39
 70
     0
 43
0.0
 10
29.21135301200024
 20
-12.78292808799995
 10
29.2087787623002
 20
-12.79194050709998
 10
29.20649207280025
 20
-12.80063165869995
 10
29.20449763420021
 20
-12.80899584780002
 10
29.20278137420024
 20
-12.81705015919999
 10
29.20133326980021
 20
-12.82480628640002
 10
29.20014586400021
 20
-12.83227470869997
 10
29.19921035720023
 20
-12.83946694000002
 10
29.19852075510022
 20
-12.84639156970001
 10
29.19806973460024
 20
-12.85305846470004
 10
29.19785248270023
 20
-12.85947530650003
 10
29.19786292830023
 20
-12.8656506245
 10
29.1980975232002
 20
-12.87159174229998
 10
29.19855132640023
 20
-12.87730637279998
 10
29.19922244550026
 20
-12.88280187779998
 10
29.2001072907002
 20
-12.88808599879996
 10
29.20120601300022
 20
-12.8931653107
 10
29.20251676820021
 20
-12.89804722970001
 10
29.20404195160023
 20
-12.9027369739
 10
29.20578158690023
 20
-12.90724080049995
 10
29.20774094510023
 20
-12.91156300879999
 10
29.20992221910024
 20
-12.91570887059998
 10
29.21233466780023
 20
-12.9196817257
 10
29.21498277230023
 20
-12.92348554329993
 10
29.2178830590002
 20
-12.92712370619995
 10
29.22104489540021
 20
-12.93060076860001
 10
29.22449423910024
 20
-12.93391718479995
 10
29.22824666780025
 20
-12.9370761852
 10
29.23234268820022
 20
-12.94007399610001
 10
29.23680639320023
 20
-12.94291150409998
 10
29.24170260090022
 20
-12.94557795970002
 10
29.24707028790022
 20
-12.94807140059998
 10
29.25301107180025
 20
-12.95036635140002
 10
29.25961197800024
 20
-12.95245674519998
 10
29.26695575940022
 20
-12.95428239339998
 10
29.27522803330021
 20
-12.95580501250003
 10
29.28420723190021
 20
-12.9569528197
 10
29.29371369770024
 20
-12.95763070290002
 10
29.30380731650024
 20
-12.95787036619998
  0
LWPOLYLINE
  5
2EDB
330
22
100
AcDbEntity
  8
1
100
AcDbPolyline
 90
       11
 70
     0
 43
0.0
 10
38.73727405010021
 20
11.72656639099995
 10
38.77654357540024
 20
11.81545485490005
 10
38.81766639900022
 20
11.91142854459997
 10
38.86013261610023
 20
12.01326408260001
 10
38.90344295460023
 20
12.11976392219998
 10
38.94710601090023
 20
12.22975257450002
 10
38.99058877260023
 20
12.34192468010002
 10
39.03336332700025
 20
12.45488027240003
 10
39.07495580200023
 20
12.56733447160002
 10
39.11488328330023
 20
12.67798293840002
 10
39.15264289200024
 20
12.7854679829
  0
LWPOLYLINE
  5
2EE8
330
22
100
AcDbEntity
  8
1
100
AcDbPolyline
 90
        7
 70
     0
 43
0.0
 10
28.76531037610022
 20
-12.33579626139999
 10
28.78249555540023
 20
-12.30599298439995
 10
28.79908565600022
 20
-12.27618929670001
 10
28.81507853280022
 20
-12.24645082509994
 10
28.83048062060021
 20
-12.2165806891
 10
28.84529835380022
 20
-12.18638200790002
 10
28.85952958760021
 20
-12.15592040849998
  0
LWPOLYLINE
  5
2EF1
330
22
100
AcDbEntity
  8
1
100
AcDbPolyline
 90
        7
 70
     0
 43
0.0
 10
39.30463826270023
 20
-1.685305842500042
 10
39.32870947630022
 20
-1.677375069000049
 10
39.35225522090022
 20
-1.669118433499988
 10
39.37521058670024
 20
-1.660537224899996
 10
39.39777030270022
 20
-1.651627576099997
 10
39.42012909800025
 20
-1.642385619499975
 10
39.44222206290021
 20
-1.632812644399962
  0
LINE
  5
2EFA
330
22
100
AcDbEntity
  8
1
100
AcDbLine
 10
28.16277052400022
 20
5.25344476859999
 30
0.0
 11
28.38262043520024
 21
5.253713071499987
 31
0.0
  0
LINE
  5
2EFB
330
22
100
AcDbEntity
  8
1
100
AcDbLine
 10
28.20375164510023
 20
5.063630775999968
 30
0.0
 11
28.52801342210023
 21
5.064026502200022
 31
0.0
  0
LINE
  5
2EFC
330
22
100
AcDbEntity
  8
1
100
AcDbLine
 10
28.45923553740022
 20
4.99986684060002
 30
0.0
 11
28.52801342210023
 21
4.999950776499986
 31
0.0
  0
LINE
  5
2EFD
330
22
100
AcDbEntity
  8
1
100
AcDbLine
 10
28.48016247950022
 20
4.694689563999986
 30
0.0
 11
28.52801342210023
 21
4.694747960900031
 31
0.0
  0
LINE
  5
2EFE
330
22
100
AcDbEntity
  8
SK1
100
AcDbLine
 10
-1.999999999999801
 20
6.25
 30
0.0
 11
-5.599999999999795
 21
6.25
 31
0.0
  0
LINE
  5
2EFF
330
22
100
AcDbEntity
  8
SK1
100
AcDbLine
 10
-0.299999999999784
 20
6.050000000000011
 30
0.0
 11
-1.200928839399807
 21
6.050000000000011
 31
0.0
  0
LINE
  5
2F00
330
22
100
AcDbEntity
  8
SK1
100
AcDbLine
 10
-10.29999999999978
 20
6.0
 30
0.0
 11
-20.7499999999998
 21
6.0
 31
0.0
  0
LINE
  5
2F01
330
22
100
AcDbEntity
  8
SK1
100
AcDbLine
 10
-21.49999999999977
 20
5.25
 30
0.0
 11
-9.549999999999783
 21
5.25
 31
0.0
  0
LINE
  5
2F02
330
22
100
AcDbEntity
  8
SK1
100
AcDbLine
 10
-6.999999999999801
 20
4.824999999999988
 30
0.0
 11
-8.710786437599779
 21
4.824999999999988
 31
0.0
  0
LWPOLYLINE
  5
2F03
330
22
100
AcDbEntity
  8
1
100
AcDbPolyline
 90
        9
 70
     0
 43
0.0
 10
38.74040664690023
 20
2.732363283400047
 10
38.85952684920022
 20
2.723919726100007
 10
38.98644177300025
 20
2.731063583400043
 10
39.11925586920023
 20
2.734592565600053
 10
39.25588216440025
 20
2.729983196700061
 10
39.39426385200022
 20
2.729893522000054
 10
39.53225439690021
 20
2.730105002599998
 10
39.66769089880023
 20
2.730611986700068
 10
39.79842925480023
 20
2.731408834799992
  0
LWPOLYLINE
  5
2F0E
330
22
100
AcDbEntity
  8
1
100
AcDbPolyline
 90
       27
 70
     0
 43
0.0
 10
2.190635037800205
 20
7.098121470900025
 10
2.261082601200229
 20
7.090061907599988
 10
2.358356985200202
 20
7.082087824500035
 10
2.482141749300211
 20
7.074226460299996
 10
2.631999838500206
 20
7.066504549000001
 10
2.80743496970021
 20
7.058948509500055
 10
3.007834559300221
 20
7.051584004000005
 10
3.232529326500213
 20
7.044436259400015
 10
3.480739500900199
 20
7.03752951749999
 10
3.751631902700211
 20
7.030887472700044
 10
4.044270202600216
 20
7.024532615499992
 10
4.357668681600216
 20
7.018486784200035
 10
4.690747210900212
 20
7.012770411900021
 10
5.042380963500221
 20
7.007403183000008
 10
5.411360730700209
 20
7.002403194699979
 10
5.796437906600203
 20
6.997787709699991
 10
6.196290679600224
 20
6.993572242300047
 10
6.609563680000206
 20
6.989771398000016
 10
7.034840510100224
 20
6.986397897300037
 10
7.470677506900216
 20
6.983463489500024
 10
7.915582975300225
 20
6.980977927400033
 10
8.368044629600206
 20
6.978949944299984
 10
8.826515853300207
 20
6.977386192600022
 10
9.28943635880023
 20
6.976292270399994
 10
9.755225505000197
 20
6.975671638999983
 10
10.2222962175002
 20
6.975526684700014
 10
10.68905604080021
 20
6.975857631400003
  0
LINE
  5
2F2B
330
22
100
AcDbEntity
  8
1
100
AcDbLine
 10
1.942264477200211
 20
7.133424475900028
 30
0.0
 11
2.190635037800205
 21
7.098121470900025
 31
0.0
  0
LINE
  5
2F2C
330
22
100
AcDbEntity
  8
1
100
AcDbLine
 10
28.45923553740022
 20
4.99986684060002
 30
0.0
 11
28.20375164510023
 21
5.063630775999968
 31
0.0
  0
LWPOLYLINE
  5
2F6C
330
22
100
AcDbEntity
  8
1
100
AcDbPolyline
 90
       11
 70
     0
 43
0.0
 10
38.74016297630024
 20
2.731489282799998
 10
38.8351457116002
 20
2.6960596957
 10
38.93624269630024
 20
2.658207478000008
 10
39.04218154800023
 20
2.618410640600018
 10
39.15171659760023
 20
2.57713714319999
 10
39.26362360390024
 20
2.534846743000002
 10
39.3765575399002
 20
2.49204600539997
 10
39.48912578730022
 20
2.449264460800009
 10
39.6000623532002
 20
2.40698476289998
 10
39.70807994330022
 20
2.365697461399975
 10
39.81183836680023
 20
2.325913237700035
  0
LWPOLYLINE
  5
2F79
330
22
100
AcDbEntity
  8
1
100
AcDbPolyline
 90
        7
 70
     0
 43
0.0
 10
39.37041927100023
 20
-1.724747389500009
 10
39.36012958050026
 20
-1.71744450159997
 10
39.34958222550023
 20
-1.710431426299976
 10
39.33878832440024
 20
-1.703706376899958
 10
39.32771452160023
 20
-1.697274714000002
 10
39.31632746160023
 20
-1.691141798200021
 10
39.30463826270023
 20
-1.685305842500042
  0
LWPOLYLINE
  5
2F82
330
22
100
AcDbEntity
  8
1
100
AcDbPolyline
 90
       19
 70
     0
 43
0.0
 10
39.37041927100023
 20
-1.724747389500009
 10
39.39667089400024
 20
-1.743713749499988
 10
39.42497136770021
 20
-1.764003052399971
 10
39.45515308410023
 20
-1.785853587100007
 10
39.48660307280022
 20
-1.809281225599988
 10
39.51880479260024
 20
-1.834197616500034
 10
39.55126092230023
 20
-1.860571127100001
 10
39.58348399730022
 20
-1.888241274300014
 10
39.61504832760022
 20
-1.91702136159995
 10
39.64544993750022
 20
-1.94657090290002
 10
39.67468994000024
 20
-1.976817734799965
 10
39.70270628330022
 20
-2.007772507299989
 10
39.72912607900023
 20
-2.038900889499984
 10
39.75373685540024
 20
-2.069737702499992
 10
39.77641312040024
 20
-2.099826910399997
 10
39.79714140240023
 20
-2.128703533299983
 10
39.81582658950023
 20
-2.155841424399966
 10
39.83249636270023
 20
-2.180625147900002
 10
39.84740689380024
 20
-2.202899767500014
  0
LINE
  5
2F97
330
22
100
AcDbEntity
  8
1
100
AcDbLine
 10
28.52801342210023
 20
5.128503097099951
 30
0.0
 11
28.38262043520024
 21
5.253713071499987
 31
0.0
  0
LWPOLYLINE
  5
2FBB
330
22
100
AcDbEntity
  8
1
100
AcDbPolyline
 90
       11
 70
     0
 43
0.0
 10
29.76649874920023
 20
11.71586276480002
 10
29.74343517690022
 20
11.80467754560004
 10
29.70401155730022
 20
11.90030627240003
 10
29.66479189490022
 20
12.00211361700002
 10
29.63058281150023
 20
12.10844740179999
 10
29.59047547400022
 20
12.21833382580001
 10
29.54870596050023
 20
12.33040188779995
 10
29.50580779360024
 20
12.44325292319996
 10
29.46227944050026
 20
12.55560323990005
 10
29.41862537490022
 20
12.66614970660004
 10
29.37537053010021
 20
12.77353588630001
  0
LWPOLYLINE
  5
2FC8
330
22
100
AcDbEntity
  8
1
100
AcDbPolyline
 90
       11
 70
     0
 43
0.0
 10
29.82629694770023
 20
-11.46355287939997
 10
29.82844138350023
 20
-11.50093034009995
 10
29.83487876340024
 20
-11.5365369296
 10
29.84557227730022
 20
-11.57041495049998
 10
29.86063235500024
 20
-11.602437495
 10
29.88024669260023
 20
-11.63265363939996
 10
29.90414668000023
 20
-11.66057773299997
 10
29.93227691290025
 20
-11.68578843259996
 10
29.96418546970023
 20
-11.70814189150002
 10
29.99934316210022
 20
-11.72731827829994
 10
30.03792638620024
 20
-11.74342420339997
  0
LWPOLYLINE
  5
2FFE
330
22
100
AcDbEntity
  8
1
100
AcDbPolyline
 90
       41
 70
     0
 43
0.0
 10
31.02730523290023
 20
7.218169126600002
 10
31.03735105420023
 20
6.963864404700018
 10
31.06699981190025
 20
6.71269551360001
 10
31.11643326660021
 20
6.463903854800037
 10
31.18510613650022
 20
6.219765224299976
 10
31.27277109720024
 20
5.981834802600019
 10
31.37871603710022
 20
5.751515838499983
 10
31.50245390150022
 20
5.530305290499995
 10
31.64306219530022
 20
5.319477209900014
 10
31.79982612660024
 20
5.120433473499986
 10
31.97163553150023
 20
4.93428756359998
 10
32.15756548130026
 20
4.762311756100018
 10
32.35634547960024
 20
4.605431546900035
 10
32.56686323560024
 20
4.464758283600019
 10
32.78771920400021
 20
4.341006686500008
 10
33.01764112020021
 20
4.235099809800033
 10
33.25513485180022
 20
4.147523999900045
 10
33.49879948770024
 20
4.078991288700024
 10
33.74708309860023
 20
4.029747673000031
 10
33.99849062210023
 20
4.000276630200005
 10
34.25145054580023
 20
3.990577749999999
 10
34.50441046940023
 20
4.000894050299962
 10
34.75581799300022
 20
4.030978724200053
 10
35.00410160390024
 20
4.080828346099963
 10
35.24776623980023
 20
4.149955789599971
 10
35.48525997130025
 20
4.23811126999999
 10
35.71518188760024
 20
4.344579335999981
 10
35.93603785600021
 20
4.468869994399994
 10
36.14655561190023
 20
4.610057085800008
 10
36.34533561020021
 20
4.767422473700037
 10
36.53126556000024
 20
4.939852095699961
 10
36.70307496500021
 20
5.126417354900013
 10
36.85983889620024
 20
5.325843718000044
 10
37.00044719010023
 20
5.537014992799981
 10
37.12418505450023
 20
5.758527558000025
 10
37.23012999440022
 20
5.989105110600064
 10
37.31779495510023
 20
6.227249503400003
 10
37.38646782500024
 20
6.47155574940001
 10
37.43590127970023
 20
6.720468064500039
 10
37.46555003740022
 20
6.971709321800005
 10
37.47559585860023
 20
7.226038563400038
  0
LWPOLYLINE
  5
3029
330
22
100
AcDbEntity
  8
1
100
AcDbPolyline
 90
       21
 70
     0
 43
0.0
 10
28.71617505510022
 20
12.11202689359999
 10
28.71526779530024
 20
12.16489175740003
 10
28.71870441870021
 20
12.21735327099998
 10
28.72650730650022
 20
12.26961006789997
 10
28.73860931500022
 20
12.3210662477
 10
28.75499518070024
 20
12.37130813789997
 10
28.77553164450024
 20
12.41998768799999
 10
28.80014700930025
 20
12.46671691630001
 10
28.82864132500021
 20
12.5112019435
 10
28.86090327120025
 20
12.55313134279999
 10
28.89659526130023
 20
12.59216977459999
 10
28.93542091800023
 20
12.62793217090001
 10
28.97714529230024
 20
12.66025628940002
 10
29.02159570800023
 20
12.68892609080001
 10
29.06828896930023
 20
12.71371789829999
 10
29.11676600460024
 20
12.73433513599997
 10
29.16678176550022
 20
12.75078046230004
 10
29.21809335100022
 20
12.76297321300001
 10
29.27023524740022
 20
12.77086678120002
 10
29.32259266360023
 20
12.77437848549999
 10
29.37537053010021
 20
12.77353588630001
  0
LWPOLYLINE
  5
3040
330
22
100
AcDbEntity
  8
1
100
AcDbPolyline
 90
       13
 70
     0
 43
0.0
 10
28.48016247950022
 20
4.694689563999986
 10
28.47998344660022
 20
4.73388614099997
 10
28.47944941130024
 20
4.772501419999969
 10
28.47856951090023
 20
4.809874683100019
 10
28.47735880100021
 20
4.845366463300024
 10
28.47583799700021
 20
4.878369486400004
 10
28.47403312030025
 20
4.90831906149998
 10
28.47197505290024
 20
4.934702743100046
 10
28.46969900880024
 20
4.957069099200055
 10
28.46724393190021
 20
4.975035434999995
 10
28.46465182900022
 20
4.988294341700054
 10
28.46196705180023
 20
4.9966189557
 10
28.45923553740022
 20
4.99986684060002
  0
LWPOLYLINE
  5
304F
330
22
100
AcDbEntity
  8
1
100
AcDbPolyline
 90
       13
 70
     0
 43
0.0
 10
28.72958416730023
 20
11.70653129429996
 10
28.72947925450024
 20
11.74022413609998
 10
28.72916808510024
 20
11.77390314279995
 10
28.72864655610022
 20
11.80755961109997
 10
28.72792697640023
 20
11.84121965130003
 10
28.72701767730024
 20
11.87490247880004
 10
28.72592648880024
 20
11.90862007550004
 10
28.72465839360024
 20
11.94239107270004
 10
28.72323026430024
 20
11.97621473730004
 10
28.72165727320021
 20
12.01010088569995
 10
28.71994950410022
 20
12.0440365005
 10
28.71812399070023
 20
12.07801061840001
 10
28.71617505510022
 20
12.11202689359999
  0
LINE
  5
305E
330
22
100
AcDbEntity
  8
1
100
AcDbLine
 10
30.59496156780023
 20
-11.20787036619998
 30
0.0
 11
30.59496156780023
 21
-11.22152364099997
 31
0.0
  0
LINE
  5
305F
330
22
100
AcDbEntity
  8
1
100
AcDbLine
 10
29.82629694770023
 20
-11.23775946769996
 30
0.0
 11
29.82629694770023
 21
-11.46355287939997
 31
0.0
  0
LINE
  5
3060
330
22
100
AcDbEntity
  8
1
100
AcDbLine
 10
29.76281354900022
 20
11.7123010148
 30
0.0
 11
29.76241231960023
 21
2.721293586099989
 31
0.0
  0
LINE
  5
3061
330
22
100
AcDbEntity
  8
1
100
AcDbLine
 10
28.85952958760021
 20
-11.40624962239997
 30
0.0
 11
28.85952958760021
 21
-12.15592040849998
 31
0.0
  0
LINE
  5
3062
330
22
100
AcDbEntity
  8
1
100
AcDbLine
 10
28.76531037610022
 20
-11.43091213560001
 30
0.0
 11
28.76531037610022
 21
-12.33579626139999
 31
0.0
  0
LINE
  5
3063
330
22
100
AcDbEntity
  8
1
100
AcDbLine
 10
28.72958416730023
 20
2.7179005136
 30
0.0
 11
28.72958416730023
 21
11.70653129429996
 31
0.0
  0
LINE
  5
3064
330
22
100
AcDbEntity
  8
1
100
AcDbLine
 10
28.52801342210023
 20
2.24041559980003
 30
0.0
 11
28.52801342210023
 21
12.18352421790001
 31
0.0
  0
LINE
  5
3065
330
22
100
AcDbEntity
  8
1
100
AcDbLine
 10
28.52801342210023
 20
-11.49762112460001
 30
0.0
 11
28.52801342210023
 21
-12.18018198239997
 31
0.0
  0
LWPOLYLINE
  5
30BB
330
22
100
AcDbEntity
  8
1
100
AcDbPolyline
 90
        9
 70
     0
 43
0.0
 10
29.76649874920023
 20
2.717398134400013
 10
29.76484084970025
 20
2.60215753120002
 10
29.77738179430023
 20
2.47831415249999
 10
29.78497570340022
 20
2.347750679
 10
29.78300061960022
 20
2.212486288199954
 10
29.78403153260024
 20
2.074563790900015
 10
29.78385977080023
 20
1.936128068499954
 10
29.78249734370024
 20
1.79935601249997
 10
29.77995630510023
 20
1.666405707000023
  0
LWPOLYLINE
  5
30EF
330
22
100
AcDbEntity
  8
1
100
AcDbPolyline
 90
        9
 70
     0
 43
0.0
 10
29.76740013990022
 20
11.71594617779999
 10
29.77290543420023
 20
11.82834665359996
 10
29.77738179430023
 20
11.94996648340003
 10
29.78076754610024
 20
12.07884148469998
 10
29.78300061960022
 20
12.21298964310006
 10
29.78403153260024
 20
12.35039754770002
 10
29.78385977080023
 20
12.48891900709998
 10
29.78249734370024
 20
12.62637113509998
 10
29.77995630510023
 20
12.76058983069998
  0
LWPOLYLINE
  5
30FA
330
22
100
AcDbEntity
  8
1
100
AcDbPolyline
 90
       13
 70
     0
 43
0.0
 10
28.71617505530023
 20
2.312372188499978
 10
28.71812589220025
 20
2.346424024700013
 10
28.71995421580022
 20
2.380461990299977
 10
28.72166621320022
 20
2.414497962300004
 10
28.72324332240021
 20
2.448496310299958
 10
28.72467419170022
 20
2.482429030500043
 10
28.72594337660024
 20
2.516285119999963
 10
28.72703287990021
 20
2.550036190999946
 10
28.72793900760024
 20
2.583706394100033
 10
28.72865450240022
 20
2.617300391100002
 10
28.72917205710024
 20
2.650848260399982
 10
28.72948072960026
 20
2.684385588700024
 10
28.72958416730023
 20
2.7179005136
  0
LWPOLYLINE
  5
3109
330
22
100
AcDbEntity
  8
1
100
AcDbPolyline
 90
       11
 70
     0
 43
0.0
 10
29.76562704150024
 20
2.717641299100023
 10
29.73650783070022
 20
2.626219509099996
 10
29.70401154050023
 20
2.528092800200056
 10
29.66856421970021
 20
2.424505478699984
 10
29.63058281000022
 20
2.316675639599964
 10
29.59047547410023
 20
2.205799546799994
 10
29.5487059598002
 20
2.093199847199969
 10
29.50580779180024
 20
1.980275106600004
 10
29.46227943800023
 20
1.86830406599995
 10
29.41862537310021
 20
1.758585683700005
 10
29.37537053010021
 20
1.652472145600029
  0
LWPOLYLINE
  5
31D7
330
22
100
AcDbEntity
  8
1
100
AcDbPolyline
 90
        7
 70
     0
 43
0.0
 10
38.73651511680021
 20
2.728262749900068
 10
38.73738433150021
 20
2.728629349200048
 10
38.73808378770025
 20
2.728987132300005
 10
38.73855701560024
 20
2.729237563100014
 10
38.73897342440023
 20
2.729676249400029
 10
38.73950242330023
 20
2.730598798699986
 10
38.74008754250022
 20
2.731906675200036
  0
LINE
  5
31E0
330
22
100
AcDbEntity
  8
SK1
100
AcDbLine
 10
-1.304456457399794
 20
-6.06362966949996
 30
0.0
 11
-1.999999999999801
 21
-6.25
 31
0.0
  0
LWPOLYLINE
  5
31E1
330
22
100
AcDbEntity
  8
1
100
AcDbPolyline
 90
       21
 70
     0
 43
0.0
 10
29.37537052720023
 20
1.652472145500041
 10
29.32262530170021
 20
1.651498438899977
 10
29.27028779430023
 20
1.654879057300036
 10
29.21815985240022
 20
1.662636191099977
 10
29.16683593360023
 20
1.674703268600012
 10
29.11672874700025
 20
1.6910654948
 10
29.06818538590022
 20
1.711589729200056
 10
29.02159285860023
 20
1.736204582899972
 10
28.97724412970024
 20
1.764710005600022
 10
28.93544977900024
 20
1.79699480109997
 10
28.89654396940023
 20
1.832721017700009
 10
28.86091052850023
 20
1.871592068199959
 10
28.82871104180023
 20
1.913372662899973
 10
28.80016084500022
 20
1.957889993000037
 10
28.77548251570022
 20
2.004660028300008
 10
28.75497139350023
 20
2.053223006700022
 10
28.73862452750024
 20
2.103333315200018
 10
28.72652210220025
 20
2.154747594599996
 10
28.71871005100024
 20
2.206999321500006
 10
28.71527011800024
 20
2.259472397400031
 10
28.71617505530023
 20
2.312372188499978
  0
LWPOLYLINE
  5
31F8
330
22
100
AcDbEntity
  8
1
100
AcDbPolyline
 90
        7
 70
     0
 43
0.0
 10
17.4138321970002
 20
1.202292286499982
 10
16.40171581390021
 20
1.184597579299975
 10
16.35894040900021
 20
1.183964404500045
 10
16.31410919770022
 20
1.183373043800031
 10
16.26745150280021
 20
1.18282642119999
 10
16.21911820390022
 20
1.182326703800015
 10
16.16926818870021
 20
1.181875186900015
  0
LWPOLYLINE
  5
3201
330
22
100
AcDbEntity
  8
1
100
AcDbPolyline
 90
        9
 70
     0
 43
0.0
 10
29.76241231960023
 20
2.722310072799984
 10
29.65440298120024
 20
2.720797523499982
 10
29.53642262750023
 20
2.719530863800059
 10
29.41038463800024
 20
2.718527896700038
 10
29.27821988670024
 20
2.717806545999962
 10
29.14190002510023
 20
2.717381627999998
 10
29.00356595640023
 20
2.717255884400003
 10
28.86540460030023
 20
2.717428972200025
 10
28.72958416730023
 20
2.717900514299969
  0
LINE
  5
320C
330
22
100
AcDbEntity
  8
1
100
AcDbLine
 10
16.16926818870021
 20
1.181875186900015
 30
0.0
 11
16.06564555260021
 21
1.18112280859998
 31
0.0
  0
LINE
  5
320D
330
22
100
AcDbEntity
  8
1
100
AcDbLine
 10
16.06564555260021
 20
1.18112280859998
 30
0.0
 11
15.95788993500019
 21
1.180578653899999
 31
0.0
  0
LWPOLYLINE
  5
320E
330
22
100
AcDbEntity
  8
1
100
AcDbPolyline
 90
       13
 70
     0
 43
0.0
 10
29.77995630450022
 20
1.666405707000023
 10
29.74634028930024
 20
1.666259529299964
 10
29.71273782620023
 20
1.66590663940002
 10
29.67915759410022
 20
1.665342935500007
 10
29.64557355700023
 20
1.664580722799996
 10
29.61196655360021
 20
1.663628328499953
 10
29.57832463900022
 20
1.662493585699962
 10
29.54462923050022
 20
1.661181465999959
 10
29.51088108000022
 20
1.659708881399978
 10
29.47707041200022
 20
1.658091027199986
 10
29.44321022650021
 20
1.656338025999957
 10
29.40931148260023
 20
1.654466963800018
 10
29.37537052720023
 20
1.652472145500041
  0
LINE
  5
321D
330
22
100
AcDbEntity
  8
1
100
AcDbLine
 10
15.95788993500019
 20
1.180578653899999
 30
0.0
 11
15.84732754470022
 21
1.180249398
 31
0.0
  0
LINE
  5
321E
330
22
100
AcDbEntity
  8
1
100
AcDbLine
 10
29.76604357240024
 20
2.717717413800016
 30
0.0
 11
38.73651511680021
 21
2.728262749900068
 31
0.0
  0
LINE
  5
321F
330
22
100
AcDbEntity
  8
1
100
AcDbLine
 10
28.52801342210023
 20
2.295113492499979
 30
0.0
 11
28.48016247950022
 21
2.295055095699979
 31
0.0
  0
LINE
  5
3220
330
22
100
AcDbEntity
  8
1
100
AcDbLine
 10
28.34064953200022
 20
2.029920573600008
 30
0.0
 11
28.55777316950025
 21
2.030185549400016
 31
0.0
  0
LINE
  5
3221
330
22
100
AcDbEntity
  8
1
100
AcDbLine
 10
26.84721071940021
 20
1.796368885399999
 30
0.0
 11
13.68847731830021
 21
1.780315507700038
 31
0.0
  0
LINE
  5
3222
330
22
100
AcDbEntity
  8
1
100
AcDbLine
 10
38.74805711760024
 20
1.677350297799989
 30
0.0
 11
29.77995630450022
 21
1.666405707000023
 31
0.0
  0
LINE
  5
3223
330
22
100
AcDbEntity
  8
1
100
AcDbLine
 10
39.22420602610023
 20
1.475899200400021
 30
0.0
 11
29.30380739600023
 21
1.463792433800051
 31
0.0
  0
LWPOLYLINE
  5
3224
330
22
100
AcDbEntity
  8
1
100
AcDbPolyline
 90
       16
 70
     0
 43
0.0
 10
18.72982266630021
 20
1.212508591100004
 10
18.6320405390002
 20
1.212382306300014
 10
18.5345756083002
 20
1.212171732599983
 10
18.43779918160021
 20
1.211877761399989
 10
18.34196467660021
 20
1.211500765799996
 10
18.24730199310019
 20
1.211042002999988
 10
18.1540525803002
 20
1.210502311399977
 10
18.06243520820021
 20
1.209883320600056
 10
17.97268030490019
 20
1.209186282700045
 10
17.88499434500022
 20
1.208413168399999
 10
17.79959620220023
 20
1.207565604800038
 10
17.71667910720023
 20
1.206645874599985
 10
17.6364415662002
 20
1.205655807200002
 10
17.55908662620021
 20
1.204598388800036
 10
17.48491715510022
 20
1.203477664700017
 10
17.4138321970002
 20
1.202292286499982
  0
LINE
  5
3236
330
22
100
AcDbEntity
  8
1
100
AcDbLine
 10
38.60271400220023
 20
1.23608969090003
 30
0.0
 11
28.14547054790023
 21
1.223327763599968
 31
0.0
  0
LINE
  5
3237
330
22
100
AcDbEntity
  8
1
100
AcDbLine
 10
15.84732754470022
 20
1.180249398
 30
0.0
 11
15.73540507220022
 21
1.180139245200052
 31
0.0
  0
LINE
  5
3238
330
22
100
AcDbEntity
  8
1
100
AcDbLine
 10
38.31403667610022
 20
1.212550884200027
 30
0.0
 11
18.72982266630021
 21
1.212508591100004
 31
0.0
  0
LINE
  5
3239
330
22
100
AcDbEntity
  8
1
100
AcDbLine
 10
15.73540507220022
 20
1.180139245200052
 30
0.0
 11
7.656811212500201
 21
1.180139245200052
 31
0.0
  0
LINE
  5
323A
330
22
100
AcDbEntity
  8
1
100
AcDbLine
 10
38.60271393690022
 20
0.0
 30
0.0
 11
40.00000000000023
 21
0.0
 31
0.0
  0
LINE
  5
323B
330
22
100
AcDbEntity
  8
SK4
100
AcDbLine
 10
-24.99999999999977
 20
0.0
 30
0.0
 11
0.000000000000199
 21
0.0
 31
0.0
  0
LWPOLYLINE
  5
323C
330
22
100
AcDbEntity
  8
1
100
AcDbPolyline
 90
        4
 70
     0
 43
0.0
 10
7.656811212500201
 20
1.180139245200052
 10
7.337836763200215
 20
1.188291685900026
 10
7.018065109600229
 20
1.213800774300011
 10
6.802812855500206
 20
1.240618132500003
  0
LINE
  5
3242
330
22
100
AcDbEntity
  8
1
100
AcDbLine
 10
38.31403667610022
 20
1.212550884200027
 30
0.0
 11
38.60271400220023
 21
1.203794778299993
 31
0.0
  0
LWPOLYLINE
  5
324A
330
22
100
AcDbEntity
  8
1
100
AcDbPolyline
 90
       15
 70
     0
 43
0.0
 10
28.14547054790023
 20
1.223327763599968
 10
28.04583764870023
 20
1.227030799999965
 10
27.94668342820023
 20
1.237090191200024
 10
27.84759010660022
 20
1.254383531100017
 10
27.74969304690023
 20
1.277925237499971
 10
27.65411735670023
 20
1.307047799599956
 10
27.56045386160022
 20
1.341537218000041
 10
27.46873529000021
 20
1.380667406899988
 10
27.37878055210024
 20
1.424498293199974
 10
27.29080254630023
 20
1.472339738000016
 10
27.20366424930023
 20
1.525038125999969
 10
27.11653319110025
 20
1.582738398900005
 10
27.02863547960024
 20
1.646647612499975
 10
26.93878060060024
 20
1.718130030600036
 10
26.84721071940021
 20
1.796368885399999
  0
LWPOLYLINE
  5
3282
330
22
100
AcDbEntity
  8
1
100
AcDbPolyline
 90
       15
 70
     0
 43
0.0
 10
29.30380739600023
 20
1.463792433800051
 10
29.21543004980021
 20
1.468741851799961
 10
29.12955989030024
 20
1.483158045500033
 10
29.04571664920025
 20
1.507236892600019
 10
28.96534113180024
 20
1.540390760299999
 10
28.88945323740023
 20
1.582313812000052
 10
28.81883541650024
 20
1.632356537700047
 10
28.75439541060024
 20
1.690029003899951
 10
28.69677724590022
 20
1.75454664450001
 10
28.64676435250022
 20
1.825264530600009
 10
28.60484625960024
 20
1.901273816900015
 10
28.57167150710024
 20
1.981791140200016
 10
28.54754649390026
 20
2.065795126199986
 10
28.53305912130025
 20
2.151842967400057
 10
28.52801342210023
 20
2.24041559980003
  0
LWPOLYLINE
  5
3293
330
22
100
AcDbEntity
  8
1
100
AcDbPolyline
 90
       13
 70
     0
 43
0.0
 10
39.15264289200024
 20
1.664404242200021
 10
39.11867120530025
 20
1.666318086300009
 10
39.08471320830023
 20
1.668109153300008
 10
39.05075705880023
 20
1.669783630100027
 10
39.01683828310022
 20
1.6713229554
 10
38.98298480710025
 20
1.672715785900038
 10
38.94920759010023
 20
1.673946654800033
 10
38.91553493280023
 20
1.674997558400036
 10
38.88194273560021
 20
1.675864764799996
 10
38.84842633820023
 20
1.676540994399999
 10
38.81495572220024
 20
1.677018886600023
 10
38.78149536880022
 20
1.677287430999967
 10
38.74805711760024
 20
1.677350297799989
  0
LWPOLYLINE
  5
32EA
330
22
100
AcDbEntity
  8
1
100
AcDbPolyline
 90
       31
 70
     0
 43
0.0
 10
26.84721071940021
 20
1.796368885399999
 10
26.73283002280022
 20
1.907305342499967
 10
26.62834932940024
 20
2.026293151200036
 10
26.53347947140026
 20
2.153755080899998
 10
26.44908795200024
 20
2.288422823600001
 10
26.37582441990023
 20
2.429491878600003
 10
26.31405327040023
 20
2.575993593800035
 10
26.26428714760022
 20
2.727029431200037
 10
26.22673095310023
 20
2.88158454720002
 10
26.20174709890023
 20
3.038689539000017
 10
26.18937569790023
 20
3.197309546099972
 10
26.18981957430023
 20
3.356429301800005
 10
26.20295300550024
 20
3.515020621100006
 10
26.22881398640024
 20
3.672048558899973
 10
26.26711418740024
 20
3.826518129000021
 10
26.31772578210024
 20
3.977401402700024
 10
26.38020525580021
 20
4.123762263300022
 10
26.45426224350024
 20
4.26460631499998
 10
26.5393094700002
 20
4.3990804668
 10
26.63490150620024
 20
4.526249511300022
 10
26.74032244970022
 20
4.645365401800006
 10
26.85498328060021
 20
4.755576251899981
 10
26.97805792220024
 20
4.85625837279997
 10
27.10882894250023
 20
4.946665187099995
 10
27.24638138740022
 20
5.02631347380003
 10
27.38988816650021
 20
5.094581283000024
 10
27.53836825800022
 20
5.151138223600014
 10
27.69090415100021
 20
5.195502697099982
 10
27.84647822280021
 20
5.227506375999951
 10
28.00360158130025
 20
5.246779292200017
 10
28.16277052400022
 20
5.25344476859999
  0
LINE
  5
330B
330
22
100
AcDbEntity
  8
1
100
AcDbLine
 10
39.84740689380024
 20
-12.21284096490001
 30
0.0
 11
39.27090396230023
 21
-11.46355287939997
 31
0.0
  0
LINE
  5
330C
330
22
100
AcDbEntity
  8
1
100
AcDbLine
 10
39.37041927100023
 20
-12.69099334290001
 30
0.0
 11
38.79391633950024
 21
-11.94170525739997
 31
0.0
  0
LWPOLYLINE
  5
330D
330
22
100
AcDbEntity
  8
1
100
AcDbPolyline
 90
        7
 70
     0
 43
0.0
 10
29.76241231960023
 20
2.721293586099989
 10
29.7627770233002
 20
2.720422826600042
 10
29.76313313750024
 20
2.719722203800017
 10
29.76338242010024
 20
2.719248196799981
 10
29.76381959740022
 20
2.718831368300016
 10
29.76473939550022
 20
2.718302280900047
 10
29.76604357240024
 20
2.717717413800016
  0
LINE
  5
3316
330
22
100
AcDbEntity
  8
1
100
AcDbLine
 10
28.20375164510023
 20
5.063630775999968
 30
0.0
 11
28.16277052400022
 21
5.25344476859999
 31
0.0
  0
LWPOLYLINE
  5
3317
330
22
100
AcDbEntity
  8
1
100
AcDbPolyline
 90
       15
 70
     0
 43
0.0
 10
28.52801342210023
 20
-12.18018198239997
 10
28.53305914420023
 20
-12.26877513710002
 10
28.54754696730021
 20
-12.35485498269997
 10
28.57167290630025
 20
-12.43890296059999
 10
28.60484891640025
 20
-12.51947474680003
 10
28.64676861750024
 20
-12.59554795169998
 10
28.69678303050023
 20
-12.66633821409999
 10
28.75440223560023
 20
-12.73093557589999
 10
28.81884267450022
 20
-12.78869443829995
 10
28.88945993730022
 20
-12.83882945810001
 10
28.96534665860023
 20
-12.88084991070002
 10
29.04572047460021
 20
-12.9141056725
 10
29.12956197080024
 20
-12.93828959650005
 10
29.21543091930022
 20
-12.95281234589998
 10
29.30380739600023
 20
-12.95787036619998
  0
LWPOLYLINE
  5
3328
330
22
100
AcDbEntity
  8
1
100
AcDbPolyline
 90
       39
 70
     0
 43
0.0
 10
28.52801342210023
 20
-12.18018205639998
 10
28.5283396490002
 20
-12.19038543470003
 10
28.52925628860021
 20
-12.20014672420001
 10
28.53080537190022
 20
-12.20953206749999
 10
28.53286080600023
 20
-12.21834303680003
 10
28.53532802480021
 20
-12.22634929320003
 10
28.53815447810024
 20
-12.23371271229996
 10
28.54125888320022
 20
-12.24048994400005
 10
28.54463287030024
 20
-12.24676632669997
 10
28.54824183590023
 20
-12.25263325560002
 10
28.55208319830024
 20
-12.25812920959998
 10
28.55614253420021
 20
-12.26331509319999
 10
28.56042076490022
 20
-12.26821502479998
 10
28.56491243660022
 20
-12.27286772740001
 10
28.56962225110022
 20
-12.27729029189999
 10
28.57455098520023
 20
-12.281509045
 10
28.57970496020022
 20
-12.28553500239996
 10
28.58508902000023
 20
-12.28938604989997
 10
28.59070837350027
 20
-12.29306790390001
 10
28.59656741350022
 20
-12.29659086449999
 10
28.60267343270022
 20
-12.2999590659
 10
28.60903237110023
 20
-12.30317934099997
 10
28.61565267930024
 20
-12.30625389409999
 10
28.62254139580023
 20
-12.30918693339998
 10
28.62970869720022
 20
-12.31197928009993
 10
28.63716354430022
 20
-12.31463343069998
 10
28.64491662230023
 20
-12.31714856780002
 10
28.65297812000023
 20
-12.31952545680002
 10
28.66135848620024
 20
-12.32176184569999
 10
28.67006770550023
 20
-12.32385676079997
 10
28.67911735910022
 20
-12.3258071331
 10
28.68851780670022
 20
-12.32761083769998
 10
28.6982826974002
 20
-12.32926406869995
 10
28.70842391250022
 20
-12.33076389429999
 10
28.71895711540023
 20
-12.33210556699998
 10
28.72989663570022
 20
-12.33328533000002
 10
28.74125835620024
 20
-12.33429727860005
 10
28.75306551870023
 20
-12.33513336110002
 10
28.76531037610022
 20
-12.33579626139999
  0
LINE
  5
3351
330
22
100
AcDbEntity
  8
1
100
AcDbLine
 10
28.38262043520024
 20
11.4419088226
 30
0.0
 11
28.38262043520024
 21
5.253713071499987
 31
0.0
  0
LWPOLYLINE
  5
3352
330
22
100
AcDbEntity
  8
1
100
AcDbPolyline
 90
       10
 70
     0
 43
0.0
 10
28.48016247950022
 20
2.295055095699979
 10
28.47998344910022
 20
2.255948222899974
 10
28.47944942110024
 20
2.217599762199995
 10
28.47856953070021
 20
2.180665862000012
 10
28.47735883130025
 20
2.145778479400007
 10
28.47583803640024
 20
2.113534557499974
 10
28.47403316590021
 20
2.084485816899984
 10
28.47197510080022
 20
2.059129308800038
 10
28.46969905460023
 20
2.037898912499997
 10
28.46855191490022
 20
2.030076664500029
  0
LWPOLYLINE
  5
335E
330
22
100
AcDbEntity
  8
1
100
AcDbPolyline
 90
       15
 70
     0
 43
0.0
 10
28.52801342210023
 20
12.18352421790001
 10
28.53305914420023
 20
12.27211003719998
 10
28.54754696730021
 20
12.35819445330003
 10
28.57167290630025
 20
12.44225907330002
 10
28.60484891640025
 20
12.52285907569995
 10
28.64676861750024
 20
12.5989718527
 10
28.69678303050023
 20
12.66981237060003
 10
28.75440223560023
 20
12.73447021179999
 10
28.81884267450022
 20
12.79229891980003
 10
28.88945993730022
 20
12.84251248450005
 10
28.96534665860023
 20
12.88461914859999
 10
29.04572047460021
 20
12.917967933
 10
29.12956197080024
 20
12.94225049310006
 10
29.21543091930022
 20
12.95687582429997
 10
29.30380739600023
 20
12.96204092810001
  0
LINE
  5
336F
330
22
100
AcDbEntity
  8
1
100
AcDbLine
 10
28.34064953200022
 20
2.029920573600008
 30
0.0
 11
28.14547054790023
 21
1.223327763599968
 31
0.0
  0
LWPOLYLINE
  5
3408
330
22
100
AcDbEntity
  8
1
100
AcDbPolyline
 90
       11
 70
     0
 43
0.0
 10
29.76249444460023
 20
2.72140671889997
 10
29.67749828290022
 20
2.692096666600036
 10
29.58543529040023
 20
2.646795854400011
 10
29.48652023490024
 20
2.602840631499987
 10
29.38230917110025
 20
2.565214646399965
 10
29.27395788080023
 20
2.522655443400026
 10
29.16273719460026
 20
2.479581150499996
 10
29.05004533620024
 20
2.436524701400003
 10
28.93717289330022
 20
2.393971869599965
 10
28.82542871780024
 20
2.35241637200005
 10
28.71617505530023
 20
2.312372188499978
  0
LINE
  5
3415
330
22
100
AcDbEntity
  8
1
100
AcDbLine
 10
15.0000000000002
 20
-1.106557785700033
 30
0.0
 11
5.000000000000198
 21
-1.106557785700033
 31
0.0
  0
LINE
  5
3416
330
22
100
AcDbEntity
  8
1
100
AcDbLine
 10
39.22420602610023
 20
-1.457870366199983
 30
0.0
 11
38.60271400220023
 21
-1.457870366199983
 31
0.0
  0
LINE
  5
3417
330
22
100
AcDbEntity
  8
1
100
AcDbLine
 10
39.44222206290021
 20
-1.632812644399962
 30
0.0
 11
38.60271400220023
 21
-1.632812644399962
 31
0.0
  0
LINE
  5
3418
330
22
100
AcDbEntity
  8
1
100
AcDbLine
 10
39.30463826270023
 20
-1.685305842500042
 30
0.0
 11
38.60271400220023
 21
-1.685305842500042
 31
0.0
  0
LINE
  5
3419
330
22
100
AcDbEntity
  8
1
100
AcDbLine
 10
38.79391633950024
 20
-2.474035474999993
 30
0.0
 11
38.60271400220023
 21
-2.474035474999993
 31
0.0
  0
LINE
  5
341A
330
22
100
AcDbEntity
  8
4
100
AcDbLine
 10
-5.986999679199783
 20
0.2789855124999576
 30
0.0
 11
43.65030736170024
 21
-4.357134685799962
 31
0.0
  0
LWPOLYLINE
  5
341B
330
22
100
AcDbEntity
  8
1
100
AcDbPolyline
 90
       29
 70
     0
 43
0.0
 10
6.802812855500206
 20
1.240618132500003
 10
6.696203665500235
 20
1.256740892899983
 10
6.37613018920021
 20
1.316817886600006
 10
6.060494769400207
 20
1.394197595999969
 10
5.751687828700227
 20
1.487499284800037
 10
5.453127827200233
 20
1.595598023100023
 10
5.164380740400218
 20
1.717818919400031
 10
4.886433141200228
 20
1.853024432300003
 10
4.618441697100223
 20
2.001388907700004
 10
4.359859176700211
 20
2.16258326579998
 10
4.110783849000199
 20
2.336834128499958
 10
3.871069846200214
 20
2.523978452899996
 10
3.640902346700215
 20
2.72463600719999
 10
3.420042322500222
 20
2.939219184200055
 10
3.209616525700198
 20
3.167832640600011
 10
3.009629661200222
 20
3.411790716899986
 10
2.823208842600223
 20
3.667402727000023
 10
2.653185762900221
 20
3.93262555130002
 10
2.500451388500209
 20
4.20381044849995
 10
2.367395829000201
 20
4.476416614599997
 10
2.252353347900225
 20
4.75151004310004
 10
2.154696212900205
 20
5.02751243800003
 10
2.073700521200208
 20
5.307575865699959
 10
2.008062353300203
 20
5.593709578299979
 10
1.958894027800226
 20
5.886426827600018
 10
1.926380045100216
 20
6.186063611600047
 10
1.911999941100219
 20
6.493625927600021
 10
1.917487381300219
 20
6.810492931800013
 10
1.942264477200211
 20
7.133424475900028
  0
LWPOLYLINE
  5
343A
330
22
100
AcDbEntity
  8
1
100
AcDbPolyline
 90
        3
 70
     0
 43
0.0
 10
6.626887889800201
 20
1.308863168000016
 10
7.008328788500222
 20
1.220185529399998
 10
7.070470857800216
 20
1.209620219599969
  0
LINE
  5
343F
330
22
100
AcDbEntity
  8
SK1
100
AcDbLine
 10
-1.304456457399794
 20
6.063629669400029
 30
0.0
 11
-1.999999999999801
 21
6.25
 31
0.0
  0
LINE
  5
3440
330
22
100
AcDbEntity
  8
1
100
AcDbLine
 10
39.08693729810023
 20
-11.74342420339997
 30
0.0
 11
38.60271400220023
 21
-11.22152364099997
 31
0.0
  0
LWPOLYLINE
  5
3441
330
22
100
AcDbEntity
  8
1
100
AcDbPolyline
 90
       11
 70
     0
 43
0.0
 10
30.03792638620024
 20
-11.74342420339997
 10
30.05134454190022
 20
-11.77930747179999
 10
30.06804232920024
 20
-11.81206833750002
 10
30.08814006750021
 20
-11.84189727210003
 10
30.11127679880025
 20
-11.86822286049994
 10
30.13719078740022
 20
-11.89050900000001
 10
30.16570468600022
 20
-11.90884022490002
 10
30.19652666990021
 20
-11.92311454839995
 10
30.22973843490024
 20
-11.93335542990002
 10
30.26532245440023
 20
-11.93955101579996
 10
30.30328457050024
 20
-11.94170525739997
  0
LINE
  5
344E
330
22
100
AcDbEntity
  8
SK1
100
AcDbLine
 10
-6.999999999999801
 20
-4.824999999999988
 30
0.0
 11
-8.710786437599779
 21
-4.824999999999988
 31
0.0
  0
LINE
  5
344F
330
22
100
AcDbEntity
  8
SK1
100
AcDbLine
 10
-21.49999999999977
 20
-5.25
 30
0.0
 11
-9.549999999999783
 21
-5.25
 31
0.0
  0
LINE
  5
3450
330
22
100
AcDbEntity
  8
SK1
100
AcDbLine
 10
-10.29999999999978
 20
-6.0
 30
0.0
 11
-20.7499999999998
 21
-6.0
 31
0.0
  0
LINE
  5
3451
330
22
100
AcDbEntity
  8
SK1
100
AcDbLine
 10
-0.299999999999784
 20
-6.050000000000011
 30
0.0
 11
-1.200928839399807
 21
-6.050000000000011
 31
0.0
  0
LINE
  5
3452
330
22
100
AcDbEntity
  8
SK1
100
AcDbLine
 10
-1.999999999999801
 20
-6.25
 30
0.0
 11
-5.599999999999795
 21
-6.25
 31
0.0
  0
LWPOLYLINE
  5
346B
330
22
100
AcDbEntity
  8
1
100
AcDbPolyline
 90
       19
 70
     0
 43
0.0
 10
13.68847731830021
 20
1.780315507700038
 10
13.39098219950023
 20
1.963412453700016
 10
13.10558736140021
 20
2.162855232700053
 10
12.83183952680022
 20
2.379022440399978
 10
12.57109852760021
 20
2.610778289700022
 10
12.32431789650022
 20
2.857416780200026
 10
12.09226325470021
 20
3.118027148199985
 10
11.87580049120021
 20
3.39179349310001
 10
11.6755823343002
 20
3.677725224900029
 10
11.49237058690022
 20
3.974916475200018
 10
11.32670391410022
 20
4.282297178800035
 10
11.17923843190022
 20
4.598869989399986
 10
11.05038359080021
 20
4.92351088310005
 10
10.9406811057002
 20
5.255138040100007
 10
10.85039029930021
 20
5.592627502600009
 10
10.77989648140021
 20
5.935058492099983
 10
10.72936340450022
 20
6.280739651600015
 10
10.69911978130022
 20
6.627422912700012
 10
10.68905604080021
 20
6.975857631400003
  0
LWPOLYLINE
  5
3480
330
22
100
AcDbEntity
  8
1
100
AcDbPolyline
 90
        7
 70
     0
 43
0.0
 10
28.85952958760021
 20
-12.15592040849998
 10
28.86668164840023
 20
-12.16630174210002
 10
28.87419821990022
 20
-12.17631302449996
 10
28.88208151780023
 20
-12.1859427979
 10
28.89032489520023
 20
-12.19522543559998
 10
28.89892170560023
 20
-12.20419531049998
 10
28.90787416430021
 20
-12.21284096490001
  0
LINE
  5
3489
330
22
100
AcDbEntity
  8
1
100
AcDbLine
 10
18.82804575930021
 20
1.212550884200027
 30
0.0
 11
18.82804575930021
 21
-12.33386458689995
 31
0.0
  0
LWPOLYLINE
  5
348A
330
22
100
AcDbEntity
  8
1
100
AcDbPolyline
 90
        7
 70
     0
 43
0.0
 10
29.76638597480022
 20
11.71594494010003
 10
29.76551676010024
 20
11.71557834079999
 10
29.76481730390023
 20
11.71522055779997
 10
29.76434407600022
 20
11.71497012690003
 10
29.76392766720022
 20
11.7145314407
 10
29.76339866830023
 20
11.71360889139998
 10
29.76281354900022
 20
11.7123010148
  0
LWPOLYLINE
  5
3493
330
22
100
AcDbEntity
  8
1
100
AcDbPolyline
 90
       13
 70
     0
 43
0.0
 10
7.139833801100223
 20
-10.49999998089998
 10
7.510953407400194
 20
-10.49788239500003
 10
7.876825379700221
 20
-10.49256846520001
 10
8.249990673900214
 20
-10.48507884409997
 10
8.628972948300202
 20
-10.47635385820001
 10
9.011895014600213
 20
-10.46729603979997
 10
9.398590097500203
 20
-10.4586141259
 10
9.788321088600213
 20
-10.45092079530002
 10
10.18092179960021
 20
-10.4446849789
 10
10.57621637310021
 20
-10.44025602030001
 10
10.97349670870022
 20
-10.43787312400002
 10
11.3719002466002
 20
-10.4376525129
 10
11.77171450670022
 20
-10.43960941229994
  0
LINE
  5
34A3
330
22
100
AcDbEntity
  8
1
100
AcDbLine
 10
15.0000000000002
 20
-10.26866252249999
 30
0.0
 11
5.000000000000198
 21
-10.26866252249999
 31
0.0
  0
LINE
  5
34A4
330
22
100
AcDbEntity
  8
1
100
AcDbLine
 10
7.140226650700213
 20
-10.5
 30
0.0
 11
0.4000000000002047
 21
-10.5
 31
0.0
  0
LWPOLYLINE
  5
34A5
330
22
100
AcDbEntity
  8
1
100
AcDbPolyline
 90
        7
 70
     0
 43
0.0
 10
15.73540507220022
 20
-10.46575307379999
 10
15.07376639190022
 20
-10.4619040993
 10
14.4125304428002
 20
-10.45785168979995
 10
13.7516908892002
 20
-10.45359573809998
 10
13.09126673830022
 20
-10.4491365659
 10
12.43127699710021
 20
-10.44447449530003
 10
11.7717153300002
 20
-10.43960941879999
  0
LWPOLYLINE
  5
34AE
330
22
100
AcDbEntity
  8
1
100
AcDbPolyline
 90
       15
 70
     0
 43
0.0
 10
15.73540507220022
 20
-10.46575307379999
 10
15.79160414260022
 20
-10.46765952549998
 10
15.84745500280021
 20
-10.47270213960001
 10
15.9030500252002
 20
-10.48089785600001
 10
15.9581120924002
 20
-10.49219585549997
 10
16.01244810030022
 20
-10.5065716336
 10
16.06589838030021
 20
-10.52396318729995
 10
16.11829042620022
 20
-10.5443263006
 10
16.1694696458002
 20
-10.56758310869998
 10
16.21927191470021
 20
-10.5936715716
 10
16.2675533231002
 20
-10.62249999930003
 10
16.3141636091002
 20
-10.65399470619996
 10
16.35895770410022
 20
-10.68803963970003
 10
16.40171605770021
 20
-10.72447660879999
 10
16.44251185340022
 20
-10.76335834389999
  0
LWPOLYLINE
  5
34D6
330
22
100
AcDbEntity
  8
1
100
AcDbPolyline
 90
        7
 70
     0
 43
0.0
 10
39.44222206290021
 20
-12.78292808799995
 10
39.42012514740023
 20
-12.77335346889998
 10
39.39776355790025
 20
-12.76411042759997
 10
39.37520180650023
 20
-12.75520016079997
 10
39.35224635650022
 20
-12.74661907799998
 10
39.32870367120023
 20
-12.73836358869994
 10
39.30463826270023
 20
-12.73043488989998
  0
LWPOLYLINE
  5
34DF
330
22
100
AcDbEntity
  8
1
100
AcDbPolyline
 90
       14
 70
     0
 43
0.0
 10
29.26728645810022
 20
-12.58154311589999
 10
29.23816050130023
 20
-12.55516960530002
 10
29.20829844920024
 20
-12.52749945810001
 10
29.17813789490021
 20
-12.49871937079996
 10
29.14820509200024
 20
-12.4691698295
 10
29.11849186480021
 20
-12.43892299759994
 10
29.08906571610024
 20
-12.40796822509998
 10
29.06027954470022
 20
-12.37683984290004
 10
29.03233743110025
 20
-12.34600302989997
 10
29.00536383750023
 20
-12.31591382199997
 10
28.97935799310022
 20
-12.28703719909998
 10
28.95446890400024
 20
-12.25989930799994
 10
28.93072372920022
 20
-12.23511558439998
 10
28.90787416430021
 20
-12.21284096490001
  0
LWPOLYLINE
  5
34EF
330
22
100
AcDbEntity
  8
1
100
AcDbPolyline
 90
        5
 70
     0
 43
0.0
 10
29.38486178720024
 20
-12.69099334290001
 10
29.36656444550022
 20
-12.67202698290003
 10
29.34534710470024
 20
-12.65173767999999
 10
29.3213677290002
 20
-12.62988714530002
 10
29.26728645810022
 20
-12.58154311589999
  0
LWPOLYLINE
  5
34F6
330
22
100
AcDbEntity
  8
1
100
AcDbPolyline
 90
        7
 70
     0
 43
0.0
 10
29.38486178720024
 20
-12.69099334290001
 10
29.39181902690024
 20
-12.69829627749999
 10
29.39916616350024
 20
-12.70530938019999
 10
29.40689126570021
 20
-12.71203443740001
 10
29.41503012750025
 20
-12.71846608999999
 10
29.42361854290022
 20
-12.72459897869999
 10
29.43264458060023
 20
-12.73043488989998
  0
LINE
  5
34FF
330
22
100
AcDbEntity
  8
1
100
AcDbLine
 10
17.4138321970002
 20
-11.74154319220003
 30
0.0
 11
17.4138321970002
 21
1.202292286499982
 31
0.0
  0
LINE
  5
3500
330
22
100
AcDbEntity
  8
1
100
AcDbLine
 10
16.44251185340022
 20
1.185273543100038
 30
0.0
 11
16.44251185340022
 21
-10.76335834389999
 31
0.0
  0
LINE
  5
3501
330
22
100
AcDbEntity
  8
1
100
AcDbLine
 10
15.73540507220022
 20
-10.46575307379999
 30
0.0
 11
15.73540507220022
 21
1.180139245200052
 31
0.0
  0
LINE
  5
3502
330
22
100
AcDbEntity
  8
1
100
AcDbLine
 10
15.0000000000002
 20
-10.26866252249999
 30
0.0
 11
15.0000000000002
 21
-1.106557785700033
 31
0.0
  0
LWPOLYLINE
  5
3503
330
22
100
AcDbEntity
  8
1
100
AcDbPolyline
 90
       12
 70
     0
 43
0.0
 10
13.06230293380022
 20
1.180139245200052
 10
13.07421854390023
 20
1.201792033900005
 10
13.10344095370021
 20
1.245912771500002
 10
13.13997068020021
 20
1.294313274700016
 10
13.18385360750019
 20
1.346194459900061
 10
13.23497438450022
 20
1.40138093859997
 10
13.29330339930021
 20
1.459449464100032
 10
13.3586486275002
 20
1.520031688000017
 10
13.4307851437002
 20
1.582602724200057
 10
13.50979955020022
 20
1.647014192400035
 10
13.59570909950022
 20
1.713089945600017
 10
13.68848858320021
 20
1.780315521500028
  0
LWPOLYLINE
  5
3511
330
22
100
AcDbEntity
  8
1
100
AcDbPolyline
 90
        7
 70
     0
 43
0.0
 10
29.43264458060023
 20
-12.73043488989998
 10
29.39592698630026
 20
-12.73836558390002
 10
29.35921508790023
 20
-12.74662217009995
 10
29.32257585060023
 20
-12.7552033577
 10
29.28580837900023
 20
-12.76411301889999
 10
29.24871177780023
 20
-12.7733550259
 10
29.21135301200024
 20
-12.78292808799995
  0
LWPOLYLINE
  5
351A
330
22
100
AcDbEntity
  8
1
100
AcDbPolyline
 90
       39
 70
     0
 43
0.0
 10
39.88826469880024
 20
-12.33579626139999
 10
39.89402114680024
 20
-12.33513461729996
 10
39.89957237800025
 20
-12.33430027280002
 10
39.90491475440024
 20
-12.33329057360004
 10
39.91005919010024
 20
-12.33211348240002
 10
39.91501315530025
 20
-12.33077484150004
 10
39.91978334470025
 20
-12.32927835720005
 10
39.92437711410023
 20
-12.32762870970004
 10
39.92879995050024
 20
-12.3258288188
 10
39.93305815750023
 20
-12.32388247689994
 10
39.93715664190023
 20
-12.32179174619995
 10
39.94110085220024
 20
-12.31955964529999
 10
39.94489546670024
 20
-12.31718709720002
 10
39.94854541230024
 20
-12.31467628140001
 10
39.95205539200023
 20
-12.31202644699999
 10
39.95543035110023
 20
-12.30923840829996
 10
39.95867448980022
 20
-12.30630964930003
 10
39.96179254510023
 20
-12.30323935159998
 10
39.96478785050022
 20
-12.30002323740001
 10
39.96766440280021
 20
-12.2966590332
 10
39.97042494850024
 20
-12.29313990880001
 10
39.97307285520023
 20
-12.28946177030002
 10
39.97561025630023
 20
-12.2856141359
 10
39.97803968730023
 20
-12.28159108699998
 10
39.98036330940022
 20
-12.27737484019997
 10
39.98258403240021
 20
-12.27295436629998
 10
39.98470214640025
 20
-12.26830348359999
 10
39.98671971460021
 20
-12.26340541529998
 10
39.98863432700023
 20
-12.25822091699996
 10
39.99044655000023
 20
-12.2527255196
 10
39.99214951800025
 20
-12.24685812140001
 10
39.99374197790024
 20
-12.24058035849998
 10
39.99520765950024
 20
-12.23379954750004
 10
39.99654268730024
 20
-12.22643063650002
 10
39.99770862390022
 20
-12.21841236699998
 10
39.99868101710024
 20
-12.20957250129999
 10
39.99941403530022
 20
-12.20015892579994
 10
39.99984694850025
 20
-12.19038592360005
 10
40.00000000000023
 20
-12.18018206699997
  0
LWPOLYLINE
  5
3543
330
22
100
AcDbEntity
  8
1
100
AcDbPolyline
 90
       15
 70
     0
 43
0.0
 10
39.22420602610023
 20
-12.95787036619998
 10
39.31258337230023
 20
-12.9528123229
 10
39.39845353180022
 20
-12.93828912199996
 10
39.48229677290021
 20
-12.91410426999999
 10
39.56267229030022
 20
-12.88084724739997
 10
39.63856018470023
 20
-12.83882518259997
 10
39.70917800560022
 20
-12.78868863949998
 10
39.77361801150022
 20
-12.7309287342
 10
39.83123617620023
 20
-12.66633093839999
 10
39.88124906960024
 20
-12.59554123540005
 10
39.92316716250022
 20
-12.5194692064
 10
39.95634191500022
 20
-12.4388991257
 10
39.9804669282002
 20
-12.35485289720003
 10
39.9949543008002
 20
-12.26877426549998
 10
40.00000000000023
 20
-12.18018198239997
  0
LWPOLYLINE
  5
3554
330
22
100
AcDbEntity
  8
1
100
AcDbPolyline
 90
       11
 70
     0
 43
0.0
 10
38.79391633950024
 20
-11.94170525739997
 10
38.83216522550024
 20
-11.93955233189996
 10
38.86859992400022
 20
-11.93336181339998
 10
38.90322597820023
 20
-11.92313008569999
 10
38.93602675840023
 20
-11.90886799769998
 10
38.96708831660021
 20
-11.89055355810001
 10
38.99610815160023
 20
-11.86828167189998
 10
39.02292625730022
 20
-11.84196233750003
 10
39.04720120090022
 20
-11.81212828369996
 10
39.06848886850023
 20
-11.77934508000004
 10
39.08693729810023
 20
-11.74342420339997
  0
LWPOLYLINE
  5
3561
330
22
100
AcDbEntity
  8
1
100
AcDbPolyline
 90
       39
 70
     0
 43
0.0
 10
39.22420610930021
 20
-12.95787036619998
 10
39.23447029720023
 20
-12.95762989509995
 10
39.24444974500023
 20
-12.95695419989999
 10
39.25422154000023
 20
-12.95581230369998
 10
39.26355441990023
 20
-12.95429713759995
 10
39.27219364620024
 20
-12.95247839299998
 10
39.28028673410023
 20
-12.95039481259994
 10
39.28786864860024
 20
-12.94810631229995
 10
39.29502230200024
 20
-12.94561906349997
 10
39.30182969490022
 20
-12.94295857520001
 10
39.30832852710023
 20
-12.94012675070002
 10
39.31457573160023
 20
-12.93713422259998
 10
39.32059560960022
 20
-12.93398031199996
 10
39.32642534230024
 20
-12.93066903990001
 10
39.33208322270025
 20
-12.92719693919997
 10
39.33759571700023
 20
-12.92356343710003
 10
39.34297548700022
 20
-12.91976387210002
 10
39.34824165680021
 20
-12.91579467150001
 10
39.35340130540024
 20
-12.911651995
 10
39.35846586890022
 20
-12.90733260400003
 10
39.36344140050022
 20
-12.90283112089997
 10
39.36833628780022
 20
-12.89814316579998
 10
39.37315496460025
 20
-12.89326250779999
 10
39.37790349020023
 20
-12.88818395769999
 10
39.38258537620021
 20
-12.88290001169997
 10
39.38720548350023
 20
-12.87740406259996
 10
39.39176582350024
 20
-12.8716882315
 10
39.39626985530023
 20
-12.86574500509994
 10
39.40071809630024
 20
-12.85956667930003
 10
39.40511221610023
 20
-12.85314589220002
 10
39.40945221670023
 20
-12.8464741043
 10
39.41373871880023
 20
-12.83954367720002
 10
39.41797153680023
 20
-12.83234454570004
 10
39.42215088930021
 20
-12.82486794869999
 10
39.42627618400022
 20
-12.81710233589996
 10
39.43034746450024
 20
-12.80903714059997
 10
39.43436304170024
 20
-12.80066065110003
 10
39.43832103190022
 20
-12.79195572930001
 10
39.44222206290021
 20
-12.78292808799995
  0
LINE
  5
358A
330
22
100
AcDbEntity
  8
1
100
AcDbLine
 10
30.08013375760021
 20
-11.21526225780002
 30
0.0
 11
30.41521879160024
 21
-11.20787036619998
 31
0.0
  0
LINE
  5
358B
330
22
100
AcDbEntity
  8
1
100
AcDbLine
 10
38.60271400220023
 20
-11.20787036619998
 30
0.0
 11
30.41521879160024
 21
-11.20787036619998
 31
0.0
  0
LINE
  5
358C
330
22
100
AcDbEntity
  8
1
100
AcDbLine
 10
30.59496156780023
 20
-11.22152364099997
 30
0.0
 11
38.60271400220023
 21
-11.22152364099997
 31
0.0
  0
LINE
  5
358D
330
22
100
AcDbEntity
  8
1
100
AcDbLine
 10
30.30328457050024
 20
-11.94170525739997
 30
0.0
 11
38.79391633950024
 21
-11.94170525739997
 31
0.0
  0
LINE
  5
358F
330
22
100
AcDbEntity
  8
1
100
AcDbLine
 10
29.43264458060023
 20
-12.73043488989998
 30
0.0
 11
39.30463826270023
 21
-12.73043488989998
 31
0.0
  0
LINE
  5
3590
330
22
100
AcDbEntity
  8
1
100
AcDbLine
 10
29.21135301200024
 20
-12.78292808799995
 30
0.0
 11
39.44222206290021
 21
-12.78292808799995
 31
0.0
  0
LINE
  5
3591
330
22
100
AcDbEntity
  8
1
100
AcDbLine
 10
29.30380739600023
 20
-12.95787036619998
 30
0.0
 11
39.22420602610023
 21
-12.95787036619998
 31
0.0
  0
LWPOLYLINE
  5
3592
330
22
100
AcDbEntity
  8
1
100
AcDbPolyline
 90
        5
 70
     0
 43
0.0
 10
26.52933542590023
 20
-12.34965305549997
 10
24.60314012560022
 20
-12.34790875009997
 10
22.67752674770023
 20
-12.34469590360004
 10
20.75249529230021
 20
-12.34001451579996
 10
18.82804575930021
 20
-12.33386458689995
  0
LINE
  5
3599
330
22
100
AcDbEntity
  8
1
100
AcDbLine
 10
16.76183735330022
 20
11.06989562770002
 30
0.0
 11
16.44251185340022
 21
10.74779357349996
 31
0.0
  0
LWPOLYLINE
  5
359A
330
22
100
AcDbEntity
  8
1
100
AcDbPolyline
 90
        3
 70
     0
 43
0.0
 10
17.4138321970002
 20
11.72701483029999
 10
17.24916709710021
 20
11.56112021400002
 10
16.76183735330022
 20
11.06989562770002
  0
LWPOLYLINE
  5
359F
330
22
100
AcDbEntity
  8
1
100
AcDbPolyline
 90
       17
 70
     0
 43
0.0
 10
17.4138321970002
 20
11.72701483029999
 10
17.4849550131002
 20
11.79523853569998
 10
17.5591585262002
 20
11.85976863510001
 10
17.63654463430021
 20
11.92068279789998
 10
17.71680764310019
 20
11.97774801579999
 10
17.79974250200021
 20
12.03079200970001
 10
17.88514917750021
 20
12.07971026170003
 10
17.97283216530022
 20
12.12437150649998
 10
18.06257282680022
 20
12.16468370670003
 10
18.15416220830022
 20
12.20053431790001
 10
18.24737575100022
 20
12.23185359440003
 10
18.34199515310021
 20
12.25855021580003
 10
18.4377926907002
 20
12.28057636080001
 10
18.53455618720022
 20
12.29786273029998
 10
18.63202069880023
 20
12.31038243740005
 10
18.72980859750021
 20
12.31807924740002
 10
18.82804575930021
 20
12.32097190529998
  0
LWPOLYLINE
  5
35B4
330
22
100
AcDbEntity
  8
1
100
AcDbPolyline
 90
       17
 70
     0
 43
0.0
 10
17.4138321970002
 20
-11.74154319220003
 10
17.4849550108002
 20
-11.80969047759998
 10
17.5591585267002
 20
-11.87413983759995
 10
17.63654464390021
 20
-11.93496883009993
 10
17.7168076652002
 20
-11.99194478140003
 10
17.79974253870023
 20
-12.04489563409999
 10
17.88514922840022
 20
-12.09371709769999
 10
17.97283222770022
 20
-12.13827812419998
 10
18.0625728965002
 20
-12.17848692909996
 10
18.15416227780022
 20
-12.21423120560001
 10
18.24737581510021
 20
-12.24544147290004
 10
18.3419952067002
 20
-12.27202666479996
 10
18.4377927312002
 20
-12.29393923119994
 10
18.53455621370023
 20
-12.31111012249999
 10
18.63202071250021
 20
-12.32351277100002
 10
18.72980860270022
 20
-12.33109139439995
 10
18.82804575930021
 20
-12.33386458689995
  0
LINE
  5
35C7
330
22
100
AcDbEntity
  8
1
100
AcDbLine
 10
17.4138321970002
 20
-11.74154319220003
 30
0.0
 11
17.08561286920022
 21
-11.41118068900005
 31
0.0
  0
LINE
  5
35C8
330
22
100
AcDbEntity
  8
1
100
AcDbLine
 10
17.08561286920022
 20
-11.41118068900005
 30
0.0
 11
16.7618373400002
 21
-11.08511968839997
 31
0.0
  0
LINE
  5
35C9
330
22
100
AcDbEntity
  8
1
100
AcDbLine
 10
16.7618373400002
 20
-11.08511968839997
 30
0.0
 11
16.44251185340022
 21
-10.76335834389999
 31
0.0
  0
LWPOLYLINE
  5
35CA
330
22
100
AcDbEntity
  8
1
100
AcDbPolyline
 90
       13
 70
     0
 43
0.0
 10
10.68905604080021
 20
6.975857631400003
 10
10.69673457520022
 20
7.280529509000018
 10
10.71986312610022
 20
7.584066849500004
 10
10.7585077681002
 20
7.886947411300013
 10
10.81247027790022
 20
8.18773791920006
 10
10.88165105430022
 20
8.48541622389996
 10
10.9658203049002
 20
8.779226705500036
 10
11.06481553670022
 20
9.068291176700029
 10
11.17833524990021
 20
9.351955189900024
 10
11.30615073800021
 20
9.629508690999955
 10
11.44788112860021
 20
9.900240312300013
 10
11.60301217540021
 20
10.1630834947
 10
11.77171529390023
 20
10.41839375789999
  0
LINE
  5
35E1
330
22
100
AcDbEntity
  8
1
100
AcDbLine
 10
5.000000000000198
 20
-10.26866252249999
 30
0.0
 11
5.000000000000198
 21
-1.106557785700033
 31
0.0
  0
LINE
  5
35E2
330
22
100
AcDbEntity
  8
SK1
100
AcDbLine
 10
-9.417893218799775
 20
-5.117893218799963
 30
0.0
 11
-10.29999999999978
 21
-6.0
 31
0.0
  0
LINE
  5
35E3
330
22
100
AcDbEntity
  8
SK1
100
AcDbLine
 10
-5.599999999999795
 20
6.25
 30
0.0
 11
-5.999999999999801
 21
6.019059892299992
 31
0.0
  0
LINE
  5
35E6
330
22
100
AcDbEntity
  8
SK1
100
AcDbLine
 10
-5.599999999999795
 20
-6.25
 30
0.0
 11
-5.999999999999801
 21
-6.01905989239998
 31
0.0
  0
LINE
  5
35E7
330
22
100
AcDbEntity
  8
SK1
100
AcDbLine
 10
-9.417893218799775
 20
5.11789321880002
 30
0.0
 11
-10.29999999999978
 21
6.0
 31
0.0
  0
LWPOLYLINE
  5
35E8
330
22
100
AcDbEntity
  8
1
100
AcDbPolyline
 90
       21
 70
     0
 43
0.0
 10
2.190635037800205
 20
7.098121470900025
 10
2.203450205000223
 20
6.70577810230003
 10
2.241840830200203
 20
6.315146087300036
 10
2.305642518800226
 20
5.927898172099958
 10
2.394582062200214
 20
5.545692611800006
 10
2.508278607600203
 20
5.170166069200035
 10
2.646245288900217
 20
4.802926606700054
 10
2.807891311700217
 20
4.445546799900057
 10
2.992524482800206
 20
4.09955700420005
 10
3.199354174600216
 20
3.766438800900004
 10
3.427494710800203
 20
3.447618653300025
 10
3.675969158300205
 20
3.144461798300028
 10
3.943713511700224
 20
2.85826639999999
 10
4.229581248300206
 20
2.590257990999987
 10
4.532348238700222
 20
2.341584224599955
 10
4.850717988200216
 20
2.11330995990005
 10
5.183327188500214
 20
1.906412702400018
 10
5.528751556100218
 20
1.721778417899997
 10
5.88551193080022
 20
1.560197738800013
 10
6.252080609800202
 20
1.422362578399997
 10
6.626887889800201
 20
1.308863168000016
  0
LWPOLYLINE
  5
35FF
330
22
100
AcDbEntity
  8
1
100
AcDbPolyline
 90
       15
 70
     0
 43
0.0
 10
1.942264477200211
 20
7.133424475900028
 10
1.959848087400217
 20
7.272520982400067
 10
1.980674363000218
 20
7.40859006130006
 10
2.004824016000213
 20
7.541544489399996
 10
2.032054910700196
 20
7.671601268199992
 10
2.062186132400199
 20
7.798883634100036
 10
2.09511473110021
 20
7.923527759100011
 10
2.130704540300229
 20
8.045653606100017
 10
2.168874294300223
 20
8.165364455999963
 10
2.20951537670021
 20
8.282743321800012
 10
2.252573672700208
 20
8.397897804200056
 10
2.297979604200207
 20
8.51092157779999
 10
2.345670945000222
 20
8.621849348599994
 10
2.395551598900226
 20
8.730775330999961
 10
2.447653598000215
 20
8.837530025600017
  0
LWPOLYLINE
  5
3610
330
22
100
AcDbEntity
  8
1
100
AcDbPolyline
 90
        7
 70
     0
 43
0.0
 10
2.447653598000215
 20
8.837530025600017
 10
2.369514203600203
 20
8.554015498299975
 10
2.305324376300234
 20
8.267020874800039
 10
2.255238325800206
 20
7.977235631899986
 10
2.219376379200213
 20
7.685355950699999
 10
2.197824691200224
 20
7.39208304370004
 10
2.190635037800205
 20
7.098121470900025
  0
LWPOLYLINE
  5
3619
330
22
100
AcDbEntity
  8
1
100
AcDbPolyline
 90
       18
 70
     0
 43
0.0
 10
2.447653598000215
 20
8.837530025600017
 10
2.562532193300199
 20
9.040986766900005
 10
2.69923077940021
 20
9.233823884500054
 10
2.857104475100214
 20
9.415217009200034
 10
3.038087923500199
 20
9.58515439529998
 10
3.243489635600212
 20
9.743506409100007
 10
3.474543126300233
 20
9.88903590389998
 10
3.735440001000199
 20
10.02202545990002
 10
4.018614499200197
 20
10.1381104472
 10
4.322530140100212
 20
10.23598985360002
 10
4.633290689200208
 20
10.31435930130004
 10
4.933752989100213
 20
10.37258604800001
 10
5.232121328000232
 20
10.41636378599998
 10
5.529069431700207
 20
10.44873975069998
 10
5.830045830800202
 20
10.47189449160004
 10
6.1401738909002
 20
10.48756499180001
 10
6.461102832500216
 20
10.49661359969997
 10
6.79738708320022
 20
10.49994931290001
  0
LINE
  5
362D
330
22
100
AcDbEntity
  8
1
100
AcDbLine
 10
0.4000000000002047
 20
10.5
 30
0.0
 11
0.000000000000199
 21
10.09999999999996
 31
0.0
  0
LINE
  5
362E
330
22
100
AcDbEntity
  8
1
100
AcDbLine
 10
0.4000000000002047
 20
-10.5
 30
0.0
 11
0.000000000000199
 21
-10.10000000000002
 31
0.0
  0
LINE
  5
362F
330
22
100
AcDbEntity
  8
1
100
AcDbLine
 10
0.4000000000002047
 20
10.5
 30
0.0
 11
0.4000000000002047
 21
-10.5
 31
0.0
  0
LINE
  5
3630
330
22
100
AcDbEntity
  8
1
100
AcDbLine
 10
0.000000000000199
 20
10.09999999999996
 30
0.0
 11
0.000000000000199
 21
-10.10000000000002
 31
0.0
  0
LINE
  5
3631
330
22
100
AcDbEntity
  8
SK1
100
AcDbLine
 10
-0.299999999999784
 20
6.050000000000011
 30
0.0
 11
-0.299999999999784
 21
-6.050000000000011
 31
0.0
  0
LINE
  5
3632
330
22
100
AcDbEntity
  8
SK1
100
AcDbLine
 10
-1.200928839399807
 20
6.050000000000011
 30
0.0
 11
-1.200928839399807
 21
-6.050000000000011
 31
0.0
  0
LINE
  5
3633
330
22
100
AcDbEntity
  8
SK1
100
AcDbLine
 10
-1.304456457399794
 20
6.063629669400029
 30
0.0
 11
-1.304456457399794
 21
-6.06362966949996
 31
0.0
  0
LINE
  5
3634
330
22
100
AcDbEntity
  8
SK1
100
AcDbLine
 10
-1.999999999999801
 20
6.25
 30
0.0
 11
-1.999999999999801
 21
-6.25
 31
0.0
  0
LINE
  5
3635
330
22
100
AcDbEntity
  8
SK1
100
AcDbLine
 10
-5.599999999999795
 20
6.25
 30
0.0
 11
-5.599999999999795
 21
-6.25
 31
0.0
  0
LINE
  5
3636
330
22
100
AcDbEntity
  8
SK1
100
AcDbLine
 10
-5.999999999999801
 20
6.018954687500013
 30
0.0
 11
-5.999999999999801
 21
-6.018954687599944
 31
0.0
  0
LINE
  5
3637
330
22
100
AcDbEntity
  8
SK1
100
AcDbLine
 10
-6.999999999999801
 20
4.824999999999988
 30
0.0
 11
-6.999999999999801
 21
-4.824999999999988
 31
0.0
  0
LINE
  5
3638
330
22
100
AcDbEntity
  8
SK1
100
AcDbLine
 10
-8.710786437599779
 20
4.824999999999988
 30
0.0
 11
-8.710786437599779
 21
-4.824999999999988
 31
0.0
  0
LINE
  5
3639
330
22
100
AcDbEntity
  8
SK1
100
AcDbLine
 10
-9.417893218799775
 20
5.11789321880002
 30
0.0
 11
-9.417893218799775
 21
-5.117893218799963
 31
0.0
  0
LINE
  5
363A
330
22
100
AcDbEntity
  8
SK1
100
AcDbLine
 10
-9.549999999999783
 20
5.25
 30
0.0
 11
-9.549999999999783
 21
-5.25
 31
0.0
  0
LINE
  5
363B
330
22
100
AcDbEntity
  8
SK1
100
AcDbLine
 10
-10.29999999999978
 20
6.0
 30
0.0
 11
-10.29999999999978
 21
-6.0
 31
0.0
  0
LINE
  5
363D
330
22
100
AcDbEntity
  8
SK1
100
AcDbLine
 10
-20.7499999999998
 20
6.0
 30
0.0
 11
-21.99999999999977
 21
4.75
 31
0.0
  0
LINE
  5
363E
330
22
100
AcDbEntity
  8
SK1
100
AcDbLine
 10
-20.7499999999998
 20
-6.0
 30
0.0
 11
-21.99999999999977
 21
-4.75
 31
0.0
  0
LINE
  5
363F
330
22
100
AcDbEntity
  8
SK1
100
AcDbLine
 10
-20.7499999999998
 20
6.0
 30
0.0
 11
-20.7499999999998
 21
-6.0
 31
0.0
  0
LINE
  5
3641
330
22
100
AcDbEntity
  8
SK1
100
AcDbLine
 10
-21.49999999999977
 20
5.25
 30
0.0
 11
-21.49999999999977
 21
-5.25
 31
0.0
  0
LINE
  5
3642
330
22
100
AcDbEntity
  8
SK1
100
AcDbLine
 10
-21.99999999999977
 20
4.75
 30
0.0
 11
-21.99999999999977
 21
-4.75
 31
0.0
  0
ARC
  5
3657
330
22
100
AcDbEntity
  8
SK3
100
AcDbCircle
 10
-20.29387149729979
 20
-3.989349401200001
 30
0.0
 40
2.0
100
AcDbArc
 50
95.91565122479998
 51
148.546535076
  0
ARC
  5
3659
330
22
100
AcDbEntity
  8
SK3
100
AcDbCircle
 10
-20.29387149729979
 20
3.989349401299932
 30
0.0
 40
2.0
100
AcDbArc
 50
211.453464924
 51
264.0843487752
  0
ARC
  5
365A
330
22
100
AcDbEntity
  8
1
100
AcDbCircle
 10
-8.71078643759975
 20
-5.825000000000045
 30
0.0
 40
1.0
100
AcDbArc
 50
90.0
 51
134.9999999999999
  0
ARC
  5
365B
330
22
100
AcDbEntity
  8
1
100
AcDbCircle
 10
-6.999999999999772
 20
-5.825000000000045
 30
0.0
 40
1.0
100
AcDbArc
 50
0.0
 51
90.0
  0
ARC
  5
3675
330
22
100
AcDbEntity
  8
SK1
100
AcDbCircle
 10
-0.299999999999784
 20
6.449999999999988
 30
0.0
 40
0.4
100
AcDbArc
 50
270.0
 51
318.6147761527
  0
ARC
  5
3676
330
22
100
AcDbEntity
  8
SK1
100
AcDbCircle
 10
-1.200928839399807
 20
6.449999999999988
 30
0.0
 40
0.4
100
AcDbArc
 50
255.0
 51
270.0
  0
ARC
  5
3677
330
22
100
AcDbEntity
  8
SK1
100
AcDbCircle
 10
-6.999999999999801
 20
5.824999999999988
 30
0.0
 40
1.0
100
AcDbArc
 50
270.0
 51
0.0
  0
ARC
  5
3678
330
22
100
AcDbEntity
  8
SK1
100
AcDbCircle
 10
-8.710786437599779
 20
5.824999999999988
 30
0.0
 40
1.0
100
AcDbArc
 50
225.0
 51
270.0
  0
ARC
  5
3679
330
22
100
AcDbEntity
  8
SK1
100
AcDbCircle
 10
-0.299999999999784
 20
-6.449999999999988
 30
0.0
 40
0.4
100
AcDbArc
 50
41.38522384729995
 51
90.0
  0
ARC
  5
367A
330
22
100
AcDbEntity
  8
SK1
100
AcDbCircle
 10
-1.200928839399807
 20
-6.449999999999988
 30
0.0
 40
0.4
100
AcDbArc
 50
90.0
 51
104.9999999999999
  0
ARC
  5
367B
330
22
100
AcDbEntity
  8
SK1
100
AcDbCircle
 10
-6.999999999999801
 20
-5.824999999999988
 30
0.0
 40
1.0
100
AcDbArc
 50
0.0
 51
90.0
  0
ARC
  5
367C
330
22
100
AcDbEntity
  8
SK1
100
AcDbCircle
 10
-8.710786437599779
 20
-5.824999999999988
 30
0.0
 40
1.0
100
AcDbArc
 50
90.0
 51
134.9999999999999
  0
LINE
  5
3680
330
22
100
AcDbEntity
  8
SK3
100
AcDbLine
 10
0.0000000000002274
 20
2.0
 30
0.0
 11
-20.49999999999977
 21
2.0
 31
0.0
  0
LINE
  5
3683
330
22
100
AcDbEntity
  8
SK3
100
AcDbLine
 10
0.0000000000002274
 20
-2.0
 30
0.0
 11
-20.49999999999977
 21
-2.0
 31
0.0
  0
TEXT
  5
38A0
330
22
100
AcDbEntity
  8
6
100
AcDbText
 10
66.19409324375374
 20
-3.761549647112474
 30
0.0
 40
3.5
  1
Z=2
 50
90.0
 41
1.199999999999999
100
AcDbText
  0
INSERT
  5
38A1
330
22
100
AcDbEntity
  8
1
100
AcDbBlockReference
  2
nullp
 10
-271.9386450411702
 20
-389.8959796344513
 30
0.0
  0
INSERT
  5
38A2
330
22
100
AcDbEntity
  8
0
100
AcDbBlockReference
  2
nullp1
 10
-403.0645295494704
 20
-445.5849634019313
 30
0.0
  0
LINE
  5
3965
330
22
100
AcDbEntity
  8
4
100
AcDbLine
 10
0.000000000000199
 20
0.0
 30
0.0
 11
41.8233254665597
 21
0.0
 31
0.0
  0
LWPOLYLINE
  5
3996
330
22
100
AcDbEntity
  8
NOCUT
100
AcDbPolyline
 90
        9
 70
   129
 43
0.0
 10
17.41383219692707
 20
11.76421356237313
 42
-0.1989123673796576
 10
18.82804575930021
 20
12.34999999999996
 10
38.60271400220023
 20
12.34999999999996
 10
38.60271400220023
 20
0.0
 10
0.000000000000199
 20
0.0
 10
0.000000000000199
 20
10.09999999999996
 10
0.4000000000002331
 20
10.5
 10
15.73540507220019
 20
10.5
 42
0.198912367379658
 10
16.44251185340022
 20
10.79289321879997
  0
DIMENSION
  5
39A0
330
22
100
AcDbEntity
  8
0
100
AcDbDimension
  2
*D77
 10
59.53899969114672
 20
12.99999999999999
 30
0.0
 11
59.53899969114672
 21
0.0000000000000568
 31
0.0
 70
   160
  1
%%c<>
 71
     5
 42
26.0
  3
ISO-25
100
AcDbAlignedDimension
 13
41.05156937180663
 23
-13.0
 33
0.0
 14
27.18970752176119
 24
13.0
 34
0.0
 50
90.0
100
AcDbRotatedDimension
  0
DIMENSION
  5
39D2
330
22
100
AcDbEntity
  8
2
100
AcDbDimension
  2
*D78
 10
50.50391642338809
 20
2.499999999999997
 30
0.0
 11
48.62891642338809
 21
0.000000000000006
 31
0.0
 70
    32
  1
%%c<>
 71
     5
 42
5.0
  3
ISO-25
100
AcDbAlignedDimension
 13
41.8233254665597
 23
-2.5
 33
0.0
 14
41.8233254665597
 24
2.5
 34
0.0
 50
90.0
100
AcDbRotatedDimension
  0
DIMENSION
  5
39F8
330
22
100
AcDbEntity
  8
2
100
AcDbDimension
  2
*D79
 10
14.00000000000023
 20
20.30793787385698
 30
0.0
 11
27.00000000000023
 21
22.18318393684911
 31
0.0
 70
    32
 71
     5
 42
26.0
  3
ISO-25
100
AcDbAlignedDimension
 13
40.00000000000023
 23
13.0
 33
0.0
 14
14.00000000000023
 24
13.0
 34
0.0
100
AcDbRotatedDimension
  0
ENDSEC
  0
SECTION
  2
OBJECTS
  0
DICTIONARY
  5
C
330
0
100
AcDbDictionary
281
     1
  3
ACAD_COLOR
350
1B
  3
ACAD_GROUP
350
D
  3
ACAD_LAYOUT
350
19
  3
ACAD_MATERIAL
350
1A
  3
ACAD_MLINESTYLE
350
16
  3
ACAD_PLOTSETTINGS
350
18
  3
ACAD_PLOTSTYLENAME
350
E
  3
ACAD_TABLESTYLE
350
1C
  3
ACDBHEADERROUNDTRIPXREC
350
3A51
  3
AcDbVariableDictionary
350
3970
  0
DICTIONARY
  5
3681
330
22
100
AcDbDictionary
280
     1
281
     1
  3
ACAD_SORTENTS
360
3682
  0
DICTIONARY
  5
1B
102
{ACAD_REACTORS
330
C
102
}
330
C
100
AcDbDictionary
281
     1
  0
DICTIONARY
  5
D
102
{ACAD_REACTORS
330
C
102
}
330
C
100
AcDbDictionary
281
     1
  0
DICTIONARY
  5
19
102
{ACAD_REACTORS
330
C
102
}
330
C
100
AcDbDictionary
281
     1
  3
Layout1
350
21
  3
Model
350
25
  0
DICTIONARY
  5
1A
102
{ACAD_REACTORS
330
C
102
}
330
C
100
AcDbDictionary
281
     1
  0
DICTIONARY
  5
16
102
{ACAD_REACTORS
330
C
102
}
330
C
100
AcDbDictionary
281
     1
  3
Standard
350
17
  0
DICTIONARY
  5
18
102
{ACAD_REACTORS
330
C
102
}
330
C
100
AcDbDictionary
281
     1
  0
ACDBDICTIONARYWDFLT
  5
E
102
{ACAD_REACTORS
330
C
102
}
330
C
100
AcDbDictionary
281
     1
  3
Normal
350
F
100
AcDbDictionaryWithDefault
340
F
  0
DICTIONARY
  5
1C
102
{ACAD_REACTORS
330
C
102
}
330
C
100
AcDbDictionary
281
     1
  3
Standard
350
1D
  0
DICTIONARY
  5
3A51
102
{ACAD_REACTORS
330
C
102
}
330
C
100
AcDbDictionary
281
     1
  0
DICTIONARY
  5
3970
102
{ACAD_REACTORS
330
C
102
}
330
C
100
AcDbDictionary
281
     1
  3
CTABLESTYLE
350
3971
  3
DIMASSOC
350
3A48
  3
PROJECTNAME
350
3A49
  0
SORTENTSTABLE
  5
3682
102
{ACAD_REACTORS
330
3681
102
}
330
3681
100
AcDbSortentsTable
330
22
331
2749
  5
280D
331
2872
  5
2A36
331
34A5
  5
358F
331
3630
  5
3654
331
2FBB
  5
3116
331
27E1
  5
2874
331
2F2B
  5
3064
331
359F
  5
3633
331
35E3
  5
363B
331
2914
  5
2D72
331
3641
  5
37C3
331
30BB
  5
3223
331
C17
  5
C1E
331
34A3
  5
358D
331
2B0A
  5
2F0E
331
2870
  5
2A34
331
362E
  5
3651
331
2A35
  5
2EFD
331
3561
  5
35E5
331
27DF
  5
2872
331
35E1
  5
3639
331
363F
  5
37BF
331
34D6
  5
3592
331
3316
  5
3450
331
367B
  5
37D2
331
3965
  5
3352
331
358C
  5
3610
331
C15
  5
C1C
331
2F97
  5
3109
331
3064
  5
3221
331
2934
  5
2EAB
331
35E8
  5
363F
331
2B08
  5
2F02
331
3996
  5
37C6
331
2A33
  5
2EFB
331
28EE
  5
2B0A
331
2734
  5
2804
331
363D
  5
367F
331
34F6
  5
359F
331
31E1
  5
323A
331
2FC8
  5
3140
331
3679
  5
37D0
331
358A
  5
35E8
331
2D1B
  5
2F2B
331
C13
  5
C1A
331
3062
  5
321F
331
38A2
  5
399E
331
2F03
  5
3062
331
304F
  5
320C
331
3599
  5
3631
331
2E58
  5
2F6C
331
2F82
  5
30EF
331
3452
  5
3543
331
C22
  5
C2F
331
3619
  5
3643
331
3201
  5
323C
331
363B
  5
367C
331
3223
  5
32EA
331
3677
  5
37CE
331
280E
  5
28FB
331
3441
  5
3501
331
3352
  5
3454
331
3060
  5
321D
331
2B06
  5
2F00
331
38A0
  5
399C
331
2F01
  5
3060
331
3450
  5
3511
331
2D28
  5
2F2C
331
34AE
  5
3591
331
2752
  5
280E
331
30EF
  5
3224
331
3639
  5
3677
331
3221
  5
32C6
331
365B
  5
37CB
331
323B
  5
3351
331
3675
  5
37CC
331
305E
  5
320D
331
343F
  5
34FF
331
C0F
  5
C15
331
35CA
  5
3638
331
293F
  5
2EF1
331
28FB
  5
2D31
331
7FD
  5
7FD
331
324A
  5
3418
331
344E
  5
3502
331
3637
  5
365C
331
321F
  5
3293
331
2FFE
  5
31E1
331
3659
  5
37C8
331
341B
  5
34DF
331
3239
  5
3317
331
35C8
  5
3636
331
320E
  5
324A
331
C2F
  5
169C
331
348A
  5
358B
331
34DF
  5
3599
331
2EFF
  5
305E
331
3408
  5
3493
331
2908
  5
2D5A
331
3502
  5
35C9
331
32EA
  5
3440
331
330C
  5
344E
331
2768
  5
2829
331
3635
  5
3659
331
321D
  5
325B
331
3657
  5
37C7
331
3237
  5
330D
331
3419
  5
34BF
331
3040
  5
3201
331
275F
  5
281E
331
2779
  5
283A
331
320C
  5
3242
331
2EFD
  5
3040
331
2F0E
  5
3063
331
3591
  5
362F
331
3680
  5
C17
331
3500
  5
35B3
331
3633
  5
3657
331
31D7
  5
3238
331
3417
  5
34A4
331
3328
  5
3452
331
27E4
  5
28A0
331
3511
  5
35D9
331
30FA
  5
3236
331
2EFB
  5
2FD5
331
27F5
  5
28AF
331
35E6
  5
363C
331
C18
  5
C22
331
2851
  5
2934
331
2873
  5
2A8E
331
3631
  5
3655
331
2EE8
  5
2F97
331
3109
  5
3237
331
27E2
  5
2884
331
2F2C
  5
3065
331
3415
  5
34A2
331
2804
  5
28EE
331
2D31
  5
2F2D
331
3642
  5
37C5
331
358F
  5
362D
331
2884
  5
2B07
331
7B0
  5
7B0
331
34A4
  5
358E
331
2871
  5
2A35
331
362F
  5
3653
331
27A6
  5
2869
331
35E2
  5
363A
331
27E0
  5
2873
331
3493
  5
358C
331
3317
  5
3451
331
3242
  5
33D8
331
367C
  5
37D3
331
358D
  5
3619
331
3029
  5
31F8
331
3065
  5
3222
331
2AFA
  5
2EFE
331
3480
  5
3561
331
2B09
  5
2F03
331
2782
  5
2851
331
362D
  5
364F
331
2A34
  5
2EFC
331
27DE
  5
2871
331
28EF
  5
2B17
331
363E
  5
3680
331
367A
  5
37D1
331
2EDB
  5
2F82
331
358B
  5
35FF
331
10C3
  5
27DF
331
3063
  5
3220
331
351A
  5
35E0
331
359A
  5
3632
331
2A32
  5
2EFA
331
3293
  5
343F
331
31E0
  5
3239
331
28A0
  5
2B09
331
3678
  5
37CF
331
3224
  5
330B
331
3282
  5
3419
331
3061
  5
321E
331
288F
  5
2B08
331
2B07
  5
2F01
331
38A1
  5
399D
331
2F02
  5
3061
331
3451
  5
351A
331
281E
  5
2908
331
285A
  5
296A
331
278F
  5
285A
331
363A
  5
367A
331
323C
  5
3370
331
3222
  5
32C7
331
2EF1
  5
2F98
331
3676
  5
37CD
331
280D
  5
28F6
331
3440
  5
3500
331
3351
  5
3453
331
2B05
  5
2EFF
331
305F
  5
320E
331
344F
  5
3503
331
2F00
  5
305F
331
3638
  5
3675
331
3220
  5
32A2
331
365A
  5
37CA
331
323A
  5
3328
331
35C9
  5
3637
331
2869
  5
29F1
331
77B
  5
77B
331
335E
  5
3480
331
3489
  5
358A
331
3683
  5
C1B
331
3503
  5
35CA
331
330D
  5
344F
331
3636
  5
365B
331
34EF
  5
359A
331
39A0
  5
39D1
331
3238
  5
3316
331
27CF
  5
2870
331
321E
  5
3282
331
341A
  5
34D6
331
35C7
  5
3635
331
336F
  5
348A
331
320D
  5
3243
331
2EFE
  5
304F
331
2F6C
  5
3066
331
779
  5
779
331
3592
  5
3630
331
283A
  5
2921
331
35B4
  5
3634
331
3501
  5
35C8
331
272B
  5
27F5
331
3634
  5
3658
331
330B
  5
3441
331
3236
  5
330C
331
3418
  5
34AE
331
343A
  5
34F6
331
35E7
  5
363D
331
2829
  5
2914
331
28F6
  5
2B27
331
2EFC
  5
2FFE
331
3590
  5
362E
331
2F79
  5
30BB
331
346B
  5
3554
331
C19
  5
C23
331
34FF
  5
35B2
331
2874
  5
2B06
331
3610
  5
3641
331
3632
  5
3656
331
3543
  5
35E3
331
31F8
  5
323B
331
3416
  5
34A3
331
27E3
  5
288F
331
35FF
  5
3640
331
3554
  5
35E4
331
2EFA
  5
2FBB
  0
LAYOUT
  5
21
102
{ACAD_XDICTIONARY
360
3A52
102
}
102
{ACAD_REACTORS
330
19
102
}
330
19
100
AcDbPlotSettings
  1

  2
\\ingdom02\ITB3
  4

  6

 40
0.0
 41
0.0
 42
0.0
 43
0.0
 44
0.0
 45
0.0
 46
0.0
 47
0.0
 48
0.0
 49
0.0
140
0.0
141
0.0
142
1.0
143
1.0
 70
   688
 72
     0
 73
     0
 74
     5
  7

 75
    16
147
1.0
148
0.0
149
0.0
100
AcDbLayout
  1
Layout1
 70
     0
 71
     1
 10
0.0
 20
0.0
 11
12.0
 21
9.0
 12
0.0
 22
0.0
 32
0.0
 14
0.0
 24
0.0
 34
0.0
 15
0.0
 25
0.0
 35
0.0
146
0.0
 13
0.0
 23
0.0
 33
0.0
 16
1.0
 26
0.0
 36
0.0
 17
0.0
 27
1.0
 37
0.0
 76
     0
330
1E
  0
LAYOUT
  5
25
102
{ACAD_XDICTIONARY
360
3A54
102
}
102
{ACAD_REACTORS
330
19
102
}
330
19
100
AcDbPlotSettings
  1

  2
\\ingdom02\ITB3
  4

  6

 40
0.0
 41
0.0
 42
0.0
 43
0.0
 44
0.0
 45
0.0
 46
0.0
 47
0.0
 48
0.0
 49
0.0
140
0.0
141
0.0
142
1.0
143
1.0
 70
  1712
 72
     0
 73
     0
 74
     0
  7

 75
     0
147
1.0
148
0.0
149
0.0
100
AcDbLayout
  1
Model
 70
     1
 71
     0
 10
0.0
 20
0.0
 11
12.0
 21
9.0
 12
0.0
 22
0.0
 32
0.0
 14
0.0
 24
0.0
 34
0.0
 15
0.0
 25
0.0
 35
0.0
146
0.0
 13
0.0
 23
0.0
 33
0.0
 16
1.0
 26
0.0
 36
0.0
 17
0.0
 27
1.0
 37
0.0
 76
     0
330
22
  0
MLINESTYLE
  5
17
102
{ACAD_REACTORS
330
16
102
}
330
16
100
AcDbMlineStyle
  2
STANDARD
 70
     0
  3

 62
   256
 51
90.0
 52
90.0
 71
     2
 49
0.5
 62
   256
  6
BYLAYER
 49
-0.5
 62
   256
  6
BYLAYER
  0
ACDBPLACEHOLDER
  5
F
102
{ACAD_REACTORS
330
E
102
}
330
E
  0
TABLESTYLE
  5
1D
102
{ACAD_REACTORS
330
1C
102
}
330
1C
100
AcDbTableStyle
  3
Standard
 70
     0
 71
     0
 40
0.06
 41
0.06
280
     0
281
     0
  7
STANDARD
140
0.18
170
     2
 62
     0
 63
     7
283
     0
274
    -2
284
     1
 64
     0
275
    -2
285
     1
 65
     0
276
    -2
286
     1
 66
     0
277
    -2
287
     1
 67
     0
278
    -2
288
     1
 68
     0
279
    -2
289
     1
 69
     0
  7
STANDARD
140
0.25
170
     5
 62
     0
 63
     7
283
     0
274
    -2
284
     1
 64
     0
275
    -2
285
     1
 65
     0
276
    -2
286
     1
 66
     0
277
    -2
287
     1
 67
     0
278
    -2
288
     1
 68
     0
279
    -2
289
     1
 69
     0
  7
STANDARD
140
0.18
170
     5
 62
     0
 63
     7
283
     0
274
    -2
284
     1
 64
     0
275
    -2
285
     1
 65
     0
276
    -2
286
     1
 66
     0
277
    -2
287
     1
 67
     0
278
    -2
288
     1
 68
     0
279
    -2
289
     1
 69
     0
  0
DICTIONARYVAR
  5
3971
102
{ACAD_REACTORS
330
3970
102
}
330
3970
100
DictionaryVariables
280
     0
  1
STANDARD
  0
DICTIONARYVAR
  5
3A48
102
{ACAD_REACTORS
330
3970
102
}
330
3970
100
DictionaryVariables
280
     0
  1
1
  0
DICTIONARYVAR
  5
3A49
102
{ACAD_REACTORS
330
3970
102
}
330
3970
100
DictionaryVariables
280
     0
  1

  0
DICTIONARY
  5
3A52
330
21
100
AcDbDictionary
280
     1
281
     1
  3
ACAD_XREC_ROUNDTRIP
360
3A53
  0
DICTIONARY
  5
3A54
330
25
100
AcDbDictionary
280
     1
281
     1
  3
ACAD_XREC_ROUNDTRIP
360
3A55
  0
XRECORD
  5
3A53
102
{ACAD_REACTORS
330
3A52
102
}
330
3A52
100
AcDbXrecord
280
     1
102
SHADEPLOT
 70
     0
102
SHADEPLOTRESLEVEL
 70
     2
102
SHADEPLOTCUSTOMDPI
 70
   300
  0
XRECORD
  5
3A55
102
{ACAD_REACTORS
330
3A54
102
}
330
3A54
100
AcDbXrecord
280
     1
102
SHADEPLOT
 70
     0
102
SHADEPLOTRESLEVEL
 70
     2
102
SHADEPLOTCUSTOMDPI
 70
   300
  0
ENDSEC
  0
EOF
