  0
SECTION
  2
HEADER
  9
$ACADVER
  1
AC1015
  9
$ACADMAINTVER
 70
    13
  9
$DWGCODEPAGE
  3
ANSI_1252
  9
$INSBASE
 10
0.0
 20
0.0
 30
0.0
  9
$EXTMIN
 10
-80.92591439195123
 20
-35.91818052032448
 30
0.0
  9
$EXTMAX
 10
78.56475166825646
 20
79.82669175656884
 30
0.0
  9
$LIMMIN
 10
0.0
 20
0.0
  9
$LIMMAX
 10
210.0
 20
297.0
  9
$ORTHOMODE
 70
     0
  9
$REGENMODE
 70
     1
  9
$FILLMODE
 70
     1
  9
$QTEXTMODE
 70
     0
  9
$MIRRTEXT
 70
     1
  9
$LTSCALE
 40
1.0
  9
$ATTMODE
 70
     1
  9
$TEXTSIZE
 40
2.5
  9
$TRACEWID
 40
1.0
  9
$TEXTSTYLE
  7
STANDARD
  9
$CLAYER
  8
SK1
  9
$CELTYPE
  6
ByLayer
  9
$CECOLOR
 62
   256
  9
$CELTSCALE
 40
1.0
  9
$DISPSILH
 70
     0
  9
$DIMSCALE
 40
1.0
  9
$DIMASZ
 40
2.5
  9
$DIMEXO
 40
0.0
  9
$DIMDLI
 40
10.0
  9
$DIMRND
 40
0.0
  9
$DIMDLE
 40
0.0
  9
$DIMEXE
 40
1.0
  9
$DIMTP
 40
0.1
  9
$DIMTM
 40
0.1
  9
$DIMTXT
 40
3.5
  9
$DIMCEN
 40
0.0
  9
$DIMTSZ
 40
0.0
  9
$DIMTOL
 70
     0
  9
$DIMLIM
 70
     0
  9
$DIMTIH
 70
     0
  9
$DIMTOH
 70
     0
  9
$DIMSE1
 70
     0
  9
$DIMSE2
 70
     0
  9
$DIMTAD
 70
     1
  9
$DIMZIN
 70
     8
  9
$DIMBLK
  1

  9
$DIMASO
 70
     1
  9
$DIMSHO
 70
     1
  9
$DIMPOST
  1

  9
$DIMAPOST
  1
"
  9
$DIMALT
 70
     0
  9
$DIMALTD
 70
     2
  9
$DIMALTF
 40
0.0393701
  9
$DIMLFAC
 40
1.0
  9
$DIMTOFL
 70
     1
  9
$DIMTVP
 40
0.0
  9
$DIMTIX
 70
     0
  9
$DIMSOXD
 70
     0
  9
$DIMSAH
 70
     0
  9
$DIMBLK1
  1

  9
$DIMBLK2
  1

  9
$DIMSTYLE
  2
AM_DIN
  9
$DIMCLRD
 70
   256
  9
$DIMCLRE
 70
   256
  9
$DIMCLRT
 70
     2
  9
$DIMTFAC
 40
0.71
  9
$DIMGAP
 40
1.5
  9
$DIMJUST
 70
     0
  9
$DIMSD1
 70
     0
  9
$DIMSD2
 70
     0
  9
$DIMTOLJ
 70
     1
  9
$DIMTZIN
 70
     8
  9
$DIMALTZ
 70
     8
  9
$DIMALTTZ
 70
     8
  9
$DIMUPT
 70
     0
  9
$DIMDEC
 70
     2
  9
$DIMTDEC
 70
     2
  9
$DIMALTU
 70
     2
  9
$DIMALTTD
 70
     2
  9
$DIMTXSTY
  7
STANDARD
  9
$DIMAUNIT
 70
     0
  9
$DIMADEC
 70
     0
  9
$DIMALTRND
 40
0.0
  9
$DIMAZIN
 70
     0
  9
$DIMDSEP
 70
    46
  9
$DIMATFIT
 70
     3
  9
$DIMFRAC
 70
     0
  9
$DIMLDRBLK
  1

  9
$DIMLUNIT
 70
     2
  9
$DIMLWD
 70
    -2
  9
$DIMLWE
 70
    -2
  9
$DIMTMOVE
 70
     2
  9
$LUNITS
 70
     2
  9
$LUPREC
 70
     2
  9
$SKETCHINC
 40
1.0
  9
$FILLETRAD
 40
0.8
  9
$AUNITS
 70
     0
  9
$AUPREC
 70
     0
  9
$MENU
  1
.
  9
$ELEVATION
 40
0.0
  9
$PELEVATION
 40
0.0
  9
$THICKNESS
 40
0.0
  9
$LIMCHECK
 70
     0
  9
$CHAMFERA
 40
2.5
  9
$CHAMFERB
 40
2.5
  9
$CHAMFERC
 40
0.0
  9
$CHAMFERD
 40
0.0
  9
$SKPOLY
 70
     0
  9
$TDCREATE
 40
2453447.430070810
  9
$TDUCREATE
 40
2453447.388404143
  9
$TDUPDATE
 40
2453793.330817257
  9
$TDUUPDATE
 40
2453793.289150590
  9
$TDINDWG
 40
0.1590447222
  9
$TDUSRTIMER
 40
0.1590203819
  9
$USRTIMER
 70
     1
  9
$ANGBASE
 50
0.0
  9
$ANGDIR
 70
     0
  9
$PDMODE
 70
     0
  9
$PDSIZE
 40
0.0
  9
$PLINEWID
 40
0.0
  9
$SPLFRAME
 70
     0
  9
$SPLINETYPE
 70
     6
  9
$SPLINESEGS
 70
     8
  9
$HANDSEED
  5
8716
  9
$SURFTAB1
 70
     6
  9
$SURFTAB2
 70
     6
  9
$SURFTYPE
 70
     6
  9
$SURFU
 70
     6
  9
$SURFV
 70
     6
  9
$UCSBASE
  2

  9
$UCSNAME
  2

  9
$UCSORG
 10
0.0
 20
0.0
 30
0.0
  9
$UCSXDIR
 10
1.0
 20
0.0
 30
0.0
  9
$UCSYDIR
 10
0.0
 20
1.0
 30
0.0
  9
$UCSORTHOREF
  2

  9
$UCSORTHOVIEW
 70
     0
  9
$UCSORGTOP
 10
0.0
 20
0.0
 30
0.0
  9
$UCSORGBOTTOM
 10
0.0
 20
0.0
 30
0.0
  9
$UCSORGLEFT
 10
0.0
 20
0.0
 30
0.0
  9
$UCSORGRIGHT
 10
0.0
 20
0.0
 30
0.0
  9
$UCSORGFRONT
 10
0.0
 20
0.0
 30
0.0
  9
$UCSORGBACK
 10
0.0
 20
0.0
 30
0.0
  9
$PUCSBASE
  2

  9
$PUCSNAME
  2

  9
$PUCSORG
 10
0.0
 20
0.0
 30
0.0
  9
$PUCSXDIR
 10
1.0
 20
0.0
 30
0.0
  9
$PUCSYDIR
 10
0.0
 20
1.0
 30
0.0
  9
$PUCSORTHOREF
  2

  9
$PUCSORTHOVIEW
 70
     0
  9
$PUCSORGTOP
 10
0.0
 20
0.0
 30
0.0
  9
$PUCSORGBOTTOM
 10
0.0
 20
0.0
 30
0.0
  9
$PUCSORGLEFT
 10
0.0
 20
0.0
 30
0.0
  9
$PUCSORGRIGHT
 10
0.0
 20
0.0
 30
0.0
  9
$PUCSORGFRONT
 10
0.0
 20
0.0
 30
0.0
  9
$PUCSORGBACK
 10
0.0
 20
0.0
 30
0.0
  9
$USERI1
 70
     0
  9
$USERI2
 70
     0
  9
$USERI3
 70
     0
  9
$USERI4
 70
     0
  9
$USERI5
 70
     0
  9
$USERR1
 40
0.0
  9
$USERR2
 40
0.0
  9
$USERR3
 40
0.0
  9
$USERR4
 40
0.0
  9
$USERR5
 40
0.0
  9
$WORLDVIEW
 70
     1
  9
$SHADEDGE
 70
     3
  9
$SHADEDIF
 70
    70
  9
$TILEMODE
 70
     1
  9
$MAXACTVP
 70
    64
  9
$PINSBASE
 10
0.0
 20
0.0
 30
0.0
  9
$PLIMCHECK
 70
     0
  9
$PEXTMIN
 10
1.000000000000000E+20
 20
1.000000000000000E+20
 30
1.000000000000000E+20
  9
$PEXTMAX
 10
-1.000000000000000E+20
 20
-1.000000000000000E+20
 30
-1.000000000000000E+20
  9
$PLIMMIN
 10
0.0
 20
0.0
  9
$PLIMMAX
 10
420.0
 20
297.0
  9
$UNITMODE
 70
     0
  9
$VISRETAIN
 70
     1
  9
$PLINEGEN
 70
     0
  9
$PSLTSCALE
 70
     1
  9
$TREEDEPTH
 70
  3020
  9
$CMLSTYLE
  2
Standard
  9
$CMLJUST
 70
     0
  9
$CMLSCALE
 40
1.0
  9
$PROXYGRAPHICS
 70
     1
  9
$MEASUREMENT
 70
     1
  9
$CELWEIGHT
370
    -1
  9
$ENDCAPS
280
     0
  9
$JOINSTYLE
280
     0
  9
$LWDISPLAY
290
     0
  9
$INSUNITS
 70
     4
  9
$HYPERLINKBASE
  1

  9
$STYLESHEET
  1

  9
$XEDIT
290
     1
  9
$CEPSNTYPE
380
     0
  9
$PSTYLEMODE
290
     1
  9
$FINGERPRINTGUID
  2
{5E8163B8-4D8F-4110-B677-A6458ADDE735}
  9
$VERSIONGUID
  2
{54F996DB-FE18-46A9-9534-6929877E0571}
  9
$EXTNAMES
290
     1
  9
$PSVPSCALE
 40
0.0
  9
$OLESTARTUP
290
     0
  0
ENDSEC
  0
SECTION
  2
CLASSES
  0
CLASS
  1
ACDBDICTIONARYWDFLT
  2
AcDbDictionaryWithDefault
  3
AutoCAD 2000
 90
        0
280
     0
281
     0
  0
CLASS
  1
ACDBPLACEHOLDER
  2
AcDbPlaceHolder
  3
AutoCAD 2000
 90
        0
280
     0
281
     0
  0
CLASS
  1
LAYOUT
  2
AcDbLayout
  3
AutoCAD 2000
 90
        0
280
     0
281
     0
  0
CLASS
  1
AMGSETTINGSOBJ
  2
AmgSettingsObj
  3
"AcadM|Product Description: AutoCAD Mechanical 2000|Company: Autodesk"
 90
        0
280
     0
281
     0
  0
CLASS
  1
ACME_DOCUMENT
  2
AcMeDbDoc
  3
AcMeServices
 90
        0
280
     0
281
     0
  0
CLASS
  1
ACMESCOPE
  2
AcMeScope
  3
AcMeServices
 90
        0
280
     0
281
     0
  0
CLASS
  1
ACMECOMMANDHISTORY
  2
AcMeCommandHistory
  3
AcMeServices
 90
        0
280
     0
281
     0
  0
CLASS
  1
ACIMSYSVARMAN
  2
AcImSysVarManager
  3
AcMeServices
 90
        0
280
     0
281
     0
  0
CLASS
  1
ACIMREALSYSVAR
  2
AcImRealSysVar
  3
AcMeServices
 90
        0
280
     0
281
     0
  0
CLASS
  1
ACIMINTSYSVAR
  2
AcImIntSysVar
  3
AcMeServices
 90
        0
280
     0
281
     0
  0
CLASS
  1
ACMEDRAWINGMAN
  2
AcMeDrawingMan
  3
AcMeServices
 90
        0
280
     0
281
     0
  0
CLASS
  1
ACMEVIEW
  2
AcMeView
  3
AcMeServices
 90
        0
280
     0
281
     0
  0
CLASS
  1
ACDBENTITYCACHE
  2
AcMeEntityCache
  3
AcMeServices
 90
        0
280
     0
281
     0
  0
CLASS
  1
GSMANAGER
  2
AcMeGSManager
  3
AcMeServices
 90
        0
280
     0
281
     0
  0
CLASS
  1
AMDTINTERNALREACTOR
  2
AmdtInternalReactor
  3
AcMeServices
 90
        0
280
     0
281
     0
  0
CLASS
  1
ACMESTATEMGR
  2
AcMeStateMgr
  3
AcMeServices
 90
        0
280
     0
281
     0
  0
CLASS
  1
ACGREFMASTER
  2
AcGrefMaster
  3
AcAttribServices
 90
        0
280
     0
281
     0
  0
CLASS
  1
ACME_DATABASE
  2
AcMeDbDatabase
  3
AcMeServices
 90
        0
280
     0
281
     0
  0
CLASS
  1
ACRFINSADJUSTERMGR
  2
AcRfInsAdjusterMgr
  3
AcMeServices
 90
        0
280
     0
281
     0
  0
CLASS
  1
ACGREFACADMASTER
  2
AcGrefacadMaster
  3
AcGrefServices
 90
        0
280
     0
281
     0
  0
CLASS
  1
AMIMASTER
  2
AmiMaster
  3
AmiServices
 90
        0
280
     0
281
     0
  0
CLASS
  1
ACMDATADICTIONARY
  2
AcmDataDictionary
  3
"AcmSymBB|Product Description: AutoCAD Mechanical 2000|Company: Autodesk"
 90
        0
280
     0
281
     0
  0
CLASS
  1
ACMDATAENTRYBLOCK
  2
AcmDataEntryBlock
  3
"AcmSymBB|Product Description: AutoCAD Mechanical 2000|Company: Autodesk"
 90
        0
280
     0
281
     0
  0
CLASS
  1
ACIMSTRSYSVAR
  2
AcImStrSysVar
  3
AcMeServices
 90
        0
280
     0
281
     0
  0
CLASS
  1
ACMSTANDARDANSI
  2
AcmStandardANSI
  3
"Amdt_StdImp|Product Description: AutoCAD Mechanical 2000|Company: Autodesk"
 90
        0
280
     0
281
     0
  0
CLASS
  1
AMGOBJPROPCFG
  2
AmgObjPropCfg
  3
"AmgLay|Product Description: AutoCAD Mechanical 2000|Company: Autodesk"
 90
        1
280
     0
281
     0
  0
CLASS
  1
ACMSURFSTANDARDANSI
  2
AcmSurfTextStdANSI
  3
"Amdt_StdImp|Product Description: AutoCAD Mechanical 2000|Company: Autodesk"
 90
        0
280
     0
281
     0
  0
CLASS
  1
ACMFCFSTANDARDANSI
  2
AcmFCFStdANSI
  3
"Amdt_StdImp|Product Description: AutoCAD Mechanical 2000|Company: Autodesk"
 90
        0
280
     0
281
     0
  0
CLASS
  1
ACMWELDSTANDARDANSI
  2
AcmWeldingStdANSI
  3
"Amdt_StdImp|Product Description: AutoCAD Mechanical 2000|Company: Autodesk"
 90
        0
280
     0
281
     0
  0
CLASS
  1
ACMIDSTANDARDANSI
  2
AcmIdStdANSI
  3
"Amdt_StdImp|Product Description: AutoCAD Mechanical 2000|Company: Autodesk"
 90
        0
280
     0
281
     0
  0
CLASS
  1
ACMDATUMSTANDARDANSI
  2
AcmDatumStdANSI
  3
"Amdt_StdImp|Product Description: AutoCAD Mechanical 2000|Company: Autodesk"
 90
        0
280
     0
281
     0
  0
CLASS
  1
ACMBOMSTANDARDANSI
  2
AcmBOMStdANSI
  3
"Amdt_StdImp|Product Description: AutoCAD Mechanical 2000|Company: Autodesk"
 90
        0
280
     0
281
     0
  0
CLASS
  1
ACMDETAILSTANDARDANSI
  2
AmdtDetailSymStdANSI
  3
"Amdt_StdImp|Product Description: AutoCAD Mechanical 2000|Company: Autodesk"
 90
        0
280
     0
281
     0
  0
CLASS
  1
ACMSECTIONSTANDARDANSI
  2
AmdtSectionSymStdANSI
  3
"Amdt_StdImp|Product Description: AutoCAD Mechanical 2000|Company: Autodesk"
 90
        0
280
     0
281
     0
  0
CLASS
  1
ACMCENTERLINESTANDARDANSI
  2
AmdtCenterLineStdANSI
  3
"Amdt_StdImp|Product Description: AutoCAD Mechanical 2000|Company: Autodesk"
 90
        0
280
     0
281
     0
  0
CLASS
  1
ACMNOTESTANDARDANSI
  2
AmdtNoteStdANSI
  3
"Amdt_StdImp|Product Description: AutoCAD Mechanical 2000|Company: Autodesk"
 90
        0
280
     0
281
     0
  0
CLASS
  1
ACAMGLAYSTD
  2
AcAmgLayStd
  3
"AcAmgLayStd|Product Description: AutoCAD Mechanical 2000|Company: Autodesk"
 90
        0
280
     0
281
     0
  0
CLASS
  1
ACAMGDIMSTD
  2
AcAmgDimStd
  3
"AcAmgDimStd|Product Description: AutoCAD Mechanical 2000|Company: Autodesk"
 90
        0
280
     0
281
     0
  0
CLASS
  1
ACAMGHOLECHARTSTDANSI
  2
AcAmgHoleChartStdANSI
  3
ACMSYMBB_MODULE_NAME
 90
        0
280
     0
281
     0
  0
CLASS
  1
ACAMGTITLESTD
  2
AcAmgTitleStd
  3
"TITLEAPP"
 90
        0
280
     0
281
     0
  0
CLASS
  1
ACAMGFILTERDAT
  2
AcAmgFilterDat
  3
"AcadM|Product Description: AutoCAD Mechanical 2000|Company: Autodesk"
 90
        0
280
     0
281
     0
  0
CLASS
  1
LAYER_INDEX
  2
AcDbLayerIndex
  3
AutoCAD 2000
 90
        0
280
     0
281
     0
  0
CLASS
  1
IDBUFFER
  2
AcDbIdBuffer
  3
AutoCAD 2000
 90
        0
280
     0
281
     0
  0
CLASS
  1
DICTIONARYVAR
  2
AcDbDictionaryVar
  3
AutoCAD 2000
 90
        0
280
     0
281
     0
  0
CLASS
  1
ACMSTANDARDDIN
  2
AcmStandardDIN
  3
"Amdt_StdImp|Product Description: AutoCAD Mechanical 2000|Company: Autodesk"
 90
        0
280
     0
281
     0
  0
CLASS
  1
AMDTEDGESTANDARDDIN
  2
AmdtEdgeStdDIN
  3
"Amdt_StdImp|Product Description: AutoCAD Mechanical 2000|Company: Autodesk"
 90
        0
280
     0
281
     0
  0
CLASS
  1
ACMSURFSTANDARDDIN
  2
AcmSurfTextStdDIN
  3
"Amdt_StdImp|Product Description: AutoCAD Mechanical 2000|Company: Autodesk"
 90
        0
280
     0
281
     0
  0
CLASS
  1
ACMFCFSTANDARDDIN
  2
AcmFCFStdDIN
  3
"Amdt_StdImp|Product Description: AutoCAD Mechanical 2000|Company: Autodesk"
 90
        0
280
     0
281
     0
  0
CLASS
  1
ACMWELDSTANDARDDIN
  2
AcmWeldingStdDIN
  3
"Amdt_StdImp|Product Description: AutoCAD Mechanical 2000|Company: Autodesk"
 90
        0
280
     0
281
     0
  0
CLASS
  1
ACMIDSTANDARDDIN
  2
AcmIdStdDIN
  3
"Amdt_StdImp|Product Description: AutoCAD Mechanical 2000|Company: Autodesk"
 90
        0
280
     0
281
     0
  0
CLASS
  1
ACMDATUMSTANDARDDIN
  2
AcmDatumStdDIN
  3
"Amdt_StdImp|Product Description: AutoCAD Mechanical 2000|Company: Autodesk"
 90
        0
280
     0
281
     0
  0
CLASS
  1
ACMBOMSTANDARDDIN
  2
AcmBOMStdDIN
  3
"Amdt_StdImp|Product Description: AutoCAD Mechanical 2000|Company: Autodesk"
 90
        0
280
     0
281
     0
  0
CLASS
  1
ACMDETAILSTANDARDDIN
  2
AmdtDetailSymStdDIN
  3
"Amdt_StdImp|Product Description: AutoCAD Mechanical 2000|Company: Autodesk"
 90
        0
280
     0
281
     0
  0
CLASS
  1
ACMSECTIONSTANDARDDIN
  2
AmdtSectionSymStdDIN
  3
"Amdt_StdImp|Product Description: AutoCAD Mechanical 2000|Company: Autodesk"
 90
        0
280
     0
281
     0
  0
CLASS
  1
ACMCENTERLINESTANDARDDIN
  2
AmdtCenterLineStdDIN
  3
"Amdt_StdImp|Product Description: AutoCAD Mechanical 2000|Company: Autodesk"
 90
        0
280
     0
281
     0
  0
CLASS
  1
ACMNOTESTANDARDDIN
  2
AmdtNoteStdDIN
  3
"Amdt_StdImp|Product Description: AutoCAD Mechanical 2000|Company: Autodesk"
 90
        0
280
     0
281
     0
  0
CLASS
  1
ACAMGHOLECHARTSTDDIN
  2
AcAmgHoleChartStdDIN
  3
ACMSYMBB_MODULE_NAME
 90
        0
280
     0
281
     0
  0
CLASS
  1
AMDTFORMULAUPDATEDISPATCHER
  2
AmdtFormulaUpdateDispatcher
  3
AcMeServices
 90
        0
280
     0
281
     0
  0
ENDSEC
  0
SECTION
  2
TABLES
  0
TABLE
  2
VPORT
  5
6A1E
330
0
100
AcDbSymbolTable
 70
     3
  0
VPORT
  5
8715
330
6A1E
100
AcDbSymbolTableRecord
100
AcDbViewportTableRecord
  2
*Active
 70
     0
 10
0.0
 20
0.0
 11
1.0
 21
1.0
 12
64.52816499160533
 22
130.5354401019418
 13
0.0
 23
0.0
 14
2.5
 24
2.5
 15
10.0
 25
10.0
 16
0.0
 26
0.0
 36
1.0
 17
0.0
 27
0.0
 37
0.0
 40
336.6489982295925
 41
1.716417910447761
 42
50.0
 43
0.0
 44
0.0
 50
0.0
 51
0.0
 71
    16
 72
 10000
 73
     1
 74
     3
 75
     0
 76
     0
 77
     0
 78
     0
281
     0
 65
     1
110
0.0
120
0.0
130
0.0
111
1.0
121
0.0
131
0.0
112
0.0
122
1.0
132
0.0
 79
     0
146
0.0
  0
ENDTAB
  0
TABLE
  2
LTYPE
  5
6A1B
330
0
100
AcDbSymbolTable
 70
    16
  0
LTYPE
  5
6A29
330
6A1B
100
AcDbSymbolTableRecord
100
AcDbLinetypeTableRecord
  2
ByBlock
 70
     0
  3

 72
    65
 73
     0
 40
0.0
  0
LTYPE
  5
6A2A
330
6A1B
100
AcDbSymbolTableRecord
100
AcDbLinetypeTableRecord
  2
ByLayer
 70
     0
  3

 72
    65
 73
     0
 40
0.0
  0
LTYPE
  5
6A2B
330
6A1B
100
AcDbSymbolTableRecord
100
AcDbLinetypeTableRecord
  2
CONTINUOUS
 70
     0
  3
Solid line
 72
    65
 73
     0
 40
0.0
  0
LTYPE
  5
6A39
330
6A1B
100
AcDbSymbolTableRecord
100
AcDbLinetypeTableRecord
  2
AMCONSTR
 70
     0
  3
_______________________
 72
    65
 73
     2
 40
9999.0
 49
9999.0
 74
     0
 49
0.0
 74
     0
  0
LTYPE
  5
6A43
330
6A1B
100
AcDbSymbolTableRecord
100
AcDbLinetypeTableRecord
  2
CENTER
 70
     0
  3
__ . __
 72
    65
 73
     4
 40
7.0
 49
4.0
 74
     0
 49
-1.0
 74
     0
 49
1.0
 74
     0
 49
-1.0
 74
     0
  0
LTYPE
  5
6A45
330
6A1B
100
AcDbSymbolTableRecord
100
AcDbLinetypeTableRecord
  2
PHANTOM2
 70
     0
  3
Phantom (.5x) ___ _ _ ___ _ _ ___ _ _ ___ _ _
 72
    65
 73
     6
 40
1.25
 49
0.625
 74
     0
 49
-0.125
 74
     0
 49
0.125
 74
     0
 49
-0.125
 74
     0
 49
0.125
 74
     0
 49
-0.125
 74
     0
  0
LTYPE
  5
6A46
330
6A1B
100
AcDbSymbolTableRecord
100
AcDbLinetypeTableRecord
  2
ACANSTGB
 70
     0
  3
__ . . __ . .
 72
    65
 73
     6
 40
0.35433070866
 49
0.15748031496
 74
     0
 49
-0.03937007874
 74
     0
 49
0.03937007874
 74
     0
 49
-0.03937007874
 74
     0
 49
0.03937007874
 74
     0
 49
-0.03937007874
 74
     0
  0
LTYPE
  5
6A47
330
6A1B
100
AcDbSymbolTableRecord
100
AcDbLinetypeTableRecord
  2
ACANSTGL
 70
     0
  3
_ _ _ _ _
 72
    65
 73
     2
 40
0.11811023622
 49
0.07874015748
 74
     0
 49
-0.03937007874
 74
     0
  0
LTYPE
  5
6A48
330
6A1B
100
AcDbSymbolTableRecord
100
AcDbLinetypeTableRecord
  2
DASHED
 70
     0
  3
__ __ __ __ __ __ __ __ __ __ __ __ __ __ __ __
 72
    65
 73
     2
 40
19.05
 49
12.7
 74
     0
 49
-6.349999999999998
 74
     0
  0
LTYPE
  5
6D97
330
6A1B
100
AcDbSymbolTableRecord
100
AcDbLinetypeTableRecord
  2
ACDINWELD
 70
     0
  3
_ _ _ _ _
 72
    65
 73
     2
 40
2.0
 49
2.0
 74
     0
 49
-1.0
 74
     0
  0
LTYPE
  5
6D98
330
6A1B
100
AcDbSymbolTableRecord
100
AcDbLinetypeTableRecord
  2
ACDINTGB
 70
     0
  3
__ . . __ . .
 72
    65
 73
     6
 40
9.0
 49
4.0
 74
     0
 49
-1.0
 74
     0
 49
1.0
 74
     0
 49
-1.0
 74
     0
 49
1.0
 74
     0
 49
-1.0
 74
     0
  0
LTYPE
  5
6D99
330
6A1B
100
AcDbSymbolTableRecord
100
AcDbLinetypeTableRecord
  2
ACDINTGL
 70
     0
  3
_ _ _ _ _
 72
    65
 73
     2
 40
3.0
 49
2.0
 74
     0
 49
-1.0
 74
     0
  0
LTYPE
  5
7FA3
330
6A1B
100
AcDbSymbolTableRecord
100
AcDbLinetypeTableRecord
  2
Amzigzag
 70
     0
  3
/\/-/\/-/\/-/\/-/\/-/\/
 72
    65
 73
     2
 40
11.00009999999999
 49
0.0001
 74
     4
 75
   135
340
6A5B
 46
0.04
 50
0.0
 44
0.0
 45
0.0
 49
-11.0
 74
     0
  0
LTYPE
  5
7FA4
330
6A1B
100
AcDbSymbolTableRecord
100
AcDbLinetypeTableRecord
  2
AM_DIN_F_W050
 70
     0
  3
__ __ __ __ __ __ __ __ __ __ __ __ __ __ __
 72
    65
 73
     2
 40
6.25
 49
4.75
 74
     0
 49
-1.5
 74
     0
  0
LTYPE
  5
7FA5
330
6A1B
100
AcDbSymbolTableRecord
100
AcDbLinetypeTableRecord
  2
AM_DIN_G_W050
 70
     0
  3
____ . ____ . ____ . ____ . ____ . ____ . ____
 72
    65
 73
     4
 40
13.75
 49
9.75
 74
     0
 49
-1.5
 74
     0
 49
1.0
 74
     0
 49
-1.5
 74
     0
  0
LTYPE
  5
7FA6
330
6A1B
100
AcDbSymbolTableRecord
100
AcDbLinetypeTableRecord
  2
AM_DIN_K_W050
 70
     0
  3
_____ . . _____ . . _____ . . ____ .. ____
 72
    65
 73
     6
 40
16.25
 49
9.75
 74
     0
 49
-1.5
 74
     0
 49
1.0
 74
     0
 49
-1.5
 74
     0
 49
1.0
 74
     0
 49
-1.5
 74
     0
  0
LTYPE
  5
7FA7
330
6A1B
100
AcDbSymbolTableRecord
100
AcDbLinetypeTableRecord
  2
AM_DIN_G_W050x2
 70
     0
  3
__ . __ . __ . __ . __ . __
 72
    65
 73
     4
 40
6.875
 49
4.75
 74
     0
 49
-0.875
 74
     0
 49
0.375
 74
     0
 49
-0.875
 74
     0
  0
LTYPE
  5
7FA8
330
6A1B
100
AcDbSymbolTableRecord
100
AcDbLinetypeTableRecord
  2
AM_DIN_F_W050x2
 70
     0
  3
 _ _ _ _ _ _ _ _ _ _ _ _
 72
    65
 73
     2
 40
3.125
 49
2.25
 74
     0
 49
-0.875
 74
     0
  0
ENDTAB
  0
TABLE
  2
LAYER
  5
6A18
330
0
100
AcDbSymbolTable
 70
    12
  0
LAYER
  5
6A26
330
6A18
100
AcDbSymbolTableRecord
100
AcDbLayerTableRecord
  2
0
 70
     0
 62
     7
  6
CONTINUOUS
370
    -3
390
6A25
  0
LAYER
  5
6A4B
330
6A18
100
AcDbSymbolTableRecord
100
AcDbLayerTableRecord
  2
DEFPOINTS
 70
     0
 62
     7
  6
CONTINUOUS
290
     0
370
    -3
390
6A25
  0
LAYER
  5
6A4C
330
6A18
100
AcDbSymbolTableRecord
100
AcDbLayerTableRecord
  2
1
 70
     0
 62
     4
  6
CONTINUOUS
370
    -3
390
6A25
  0
LAYER
  5
6A4D
330
6A18
100
AcDbSymbolTableRecord
100
AcDbLayerTableRecord
  2
2
 70
     0
 62
     7
  6
CONTINUOUS
370
    -3
390
6A25
  0
LAYER
  5
6A4F
330
6A18
100
AcDbSymbolTableRecord
100
AcDbLayerTableRecord
  2
4
 70
     0
 62
     2
  6
CENTER
370
    -3
390
6A25
  0
LAYER
  5
6A50
330
6A18
100
AcDbSymbolTableRecord
100
AcDbLayerTableRecord
  2
6
 70
     0
 62
     5
  6
CONTINUOUS
370
    -3
390
6A25
  0
LAYER
  5
6A53
330
6A18
100
AcDbSymbolTableRecord
100
AcDbLayerTableRecord
  2
SK1
 70
     0
 62
     4
  6
CONTINUOUS
370
    -3
390
6A25
  0
LAYER
  5
6A54
330
6A18
100
AcDbSymbolTableRecord
100
AcDbLayerTableRecord
  2
SK2
 70
     0
 62
     7
  6
CONTINUOUS
370
    -3
390
6A25
  0
LAYER
  5
6A55
330
6A18
100
AcDbSymbolTableRecord
100
AcDbLayerTableRecord
  2
SK3
 70
     0
 62
     1
  6
DASHED
370
    -3
390
6A25
  0
LAYER
  5
6A56
330
6A18
100
AcDbSymbolTableRecord
100
AcDbLayerTableRecord
  2
SK4
 70
     0
 62
     2
  6
CENTER
370
    -3
390
6A25
  0
LAYER
  5
6A57
330
6A18
100
AcDbSymbolTableRecord
100
AcDbLayerTableRecord
  2
CUT
 70
     0
 62
     1
  6
CONTINUOUS
370
    -3
390
6A25
  0
LAYER
  5
6A58
330
6A18
100
AcDbSymbolTableRecord
100
AcDbLayerTableRecord
  2
NOCUT
 70
     0
 62
     7
  6
CONTINUOUS
370
    -3
390
6A25
  0
ENDTAB
  0
TABLE
  2
STYLE
  5
6A19
330
0
100
AcDbSymbolTable
 70
     6
  0
STYLE
  5
6A27
330
6A19
100
AcDbSymbolTableRecord
100
AcDbTextStyleTableRecord
  2
STANDARD
 70
     0
 40
0.0
 41
1.0
 50
0.0
 71
     0
 42
2.5
  3
ISOCP.SHX
  4

  0
STYLE
  5
6A5B
330
6A19
100
AcDbSymbolTableRecord
100
AcDbTextStyleTableRecord
  2

 70
     1
 40
0.0
 41
1.0
 50
0.0
 71
     0
 42
2.5
  3
ltypeshp.shx
  4

  0
STYLE
  5
6A5E
330
6A19
100
AcDbSymbolTableRecord
100
AcDbTextStyleTableRecord
  2
ACANSTS
 70
     0
 40
1.0
 41
1.0
 50
0.0
 71
     0
 42
0.2
  3
romans.shx
  4

  0
STYLE
  5
6A5F
330
6A19
100
AcDbSymbolTableRecord
100
AcDbTextStyleTableRecord
  2
ACANSGDT
 70
     0
 40
0.0
 41
1.0
 50
0.0
 71
     0
 42
0.2
  3
amgdtans.shx
  4

  0
STYLE
  5
6D9A
330
6A19
100
AcDbSymbolTableRecord
100
AcDbTextStyleTableRecord
  2
ACDINTS
 70
     0
 40
1.0
 41
1.0
 50
0.0
 71
     0
 42
2.5
  3
isocp.shx
  4

  0
STYLE
  5
6D9B
330
6A19
100
AcDbSymbolTableRecord
100
AcDbTextStyleTableRecord
  2
ACDINGDT
 70
     0
 40
0.0
 41
1.0
 50
0.0
 71
     0
 42
2.5
  3
amgdt.shx
  4

  0
ENDTAB
  0
TABLE
  2
VIEW
  5
6A1C
330
0
100
AcDbSymbolTable
 70
     6
  0
VIEW
  5
6A60
330
6A1C
100
AcDbSymbolTableRecord
100
AcDbViewTableRecord
  2
AM_VIEW1
 70
     0
 40
148.5
 10
131.508173076923
 20
222.75
 41
263.016346153846
 11
0.0
 21
0.0
 31
1.0
 12
0.0
 22
0.0
 32
0.0
 42
50.0
 43
0.0
 44
0.0
 50
0.0
 71
    16
281
     0
 72
     0
  0
VIEW
  5
6A61
330
6A1C
100
AcDbSymbolTableRecord
100
AcDbViewTableRecord
  2
AM_VIEW2
 70
     0
 40
148.5
 10
78.4918269230769
 20
222.75
 41
263.016346153846
 11
0.0
 21
0.0
 31
1.0
 12
0.0
 22
0.0
 32
0.0
 42
50.0
 43
0.0
 44
0.0
 50
0.0
 71
    16
281
     0
 72
     0
  0
VIEW
  5
6A62
330
6A1C
100
AcDbSymbolTableRecord
100
AcDbViewTableRecord
  2
AM_VIEW3
 70
     0
 40
148.5
 10
131.508173076923
 20
74.25
 41
263.016346153846
 11
0.0
 21
0.0
 31
1.0
 12
0.0
 22
0.0
 32
0.0
 42
50.0
 43
0.0
 44
0.0
 50
0.0
 71
    16
281
     0
 72
     0
  0
VIEW
  5
6A63
330
6A1C
100
AcDbSymbolTableRecord
100
AcDbViewTableRecord
  2
AM_VIEW4
 70
     0
 40
148.5
 10
78.4918269230769
 20
74.25
 41
263.016346153846
 11
0.0
 21
0.0
 31
1.0
 12
0.0
 22
0.0
 32
0.0
 42
50.0
 43
0.0
 44
0.0
 50
0.0
 71
    16
281
     0
 72
     0
  0
VIEW
  5
6A64
330
6A1C
100
AcDbSymbolTableRecord
100
AcDbViewTableRecord
  2
AM_VIEW5
 70
     0
 40
148.5
 10
105.0
 20
148.5
 41
263.016346153846
 11
0.0
 21
0.0
 31
1.0
 12
0.0
 22
0.0
 32
0.0
 42
50.0
 43
0.0
 44
0.0
 50
0.0
 71
    16
281
     0
 72
     0
  0
VIEW
  5
6A65
330
6A1C
100
AcDbSymbolTableRecord
100
AcDbViewTableRecord
  2
AM_VIEW6
 70
     0
 40
296.9970299999999
 10
105.0
 20
148.5
 41
526.0274319807693
 11
0.0
 21
0.0
 31
1.0
 12
0.0
 22
0.0
 32
0.0
 42
50.0
 43
0.0
 44
0.0
 50
0.0
 71
    16
281
     0
 72
     0
  0
ENDTAB
  0
TABLE
  2
UCS
  5
6A1D
330
0
100
AcDbSymbolTable
 70
     0
  0
ENDTAB
  0
TABLE
  2
APPID
  5
6A1F
330
0
100
AcDbSymbolTable
 70
    22
  0
APPID
  5
6A28
330
6A1F
100
AcDbSymbolTableRecord
100
AcDbRegAppTableRecord
  2
ACAD
 70
     0
  0
APPID
  5
6A66
330
6A1F
100
AcDbSymbolTableRecord
100
AcDbRegAppTableRecord
  2
MCAD_NO_VIS
 70
     0
  0
APPID
  5
6A67
330
6A1F
100
AcDbSymbolTableRecord
100
AcDbRegAppTableRecord
  2
ACAD_TEMP_GRAPHIC
 70
     0
  0
APPID
  5
6A68
330
6A1F
100
AcDbSymbolTableRecord
100
AcDbRegAppTableRecord
  2
ACATTRIBSERVICES
 70
     0
  0
APPID
  5
6A69
330
6A1F
100
AcDbSymbolTableRecord
100
AcDbRegAppTableRecord
  2
GENIUS_GENDIMSH_14
 70
     0
  0
APPID
  5
6A6A
330
6A1F
100
AcDbSymbolTableRecord
100
AcDbRegAppTableRecord
  2
GENIUS_GENBLLY_14
 70
     0
  0
APPID
  5
6A6B
330
6A1F
100
AcDbSymbolTableRecord
100
AcDbRegAppTableRecord
  2
GENIUS_GENTRA_14
 70
     0
  0
APPID
  5
6A6C
330
6A1F
100
AcDbSymbolTableRecord
100
AcDbRegAppTableRecord
  2
GENIUS_GENODEF_13
 70
     0
  0
APPID
  5
6A6D
330
6A1F
100
AcDbSymbolTableRecord
100
AcDbRegAppTableRecord
  2
GENIUS_GENOLIS_13
 70
     0
  0
APPID
  5
6A6E
330
6A1F
100
AcDbSymbolTableRecord
100
AcDbRegAppTableRecord
  2
GENIUS_GENOENT_13
 70
     0
  0
APPID
  5
6A6F
330
6A1F
100
AcDbSymbolTableRecord
100
AcDbRegAppTableRecord
  2
GENIUS_GENOBJ-N-TIT_13
 70
     0
  0
APPID
  5
6A70
330
6A1F
100
AcDbSymbolTableRecord
100
AcDbRegAppTableRecord
  2
GENIUS_GENTITLE_13
 70
     0
  0
APPID
  5
6A71
330
6A1F
100
AcDbSymbolTableRecord
100
AcDbRegAppTableRecord
  2
GENIUS_GENOREF_13
 70
     0
  0
APPID
  5
6A72
330
6A1F
100
AcDbSymbolTableRecord
100
AcDbRegAppTableRecord
  2
GENIUS_GENSCREG_15
 70
     0
  0
APPID
  5
6A73
330
6A1F
100
AcDbSymbolTableRecord
100
AcDbRegAppTableRecord
  2
GENIUS_GENOBJ-N-SDF_13
 70
     0
  0
APPID
  5
6A74
330
6A1F
100
AcDbSymbolTableRecord
100
AcDbRegAppTableRecord
  2
ACADIGES
 70
     0
  0
APPID
  5
6A75
330
6A1F
100
AcDbSymbolTableRecord
100
AcDbRegAppTableRecord
  2
GENIUS_GENOBJ-N-HTC_13
 70
     0
  0
APPID
  5
6A76
330
6A1F
100
AcDbSymbolTableRecord
100
AcDbRegAppTableRecord
  2
GENIUS_GENHATCH_13
 70
     0
  0
APPID
  5
6DA2
330
6A1F
100
AcDbSymbolTableRecord
100
AcDbRegAppTableRecord
  2
GENIUS_GENOBJ-N-CRS_13
 70
     0
  0
APPID
  5
6DA3
330
6A1F
100
AcDbSymbolTableRecord
100
AcDbRegAppTableRecord
  2
GENIUS_GENOBJ-N-FIL_13
 70
     0
  0
APPID
  5
6DD2
330
6A1F
100
AcDbSymbolTableRecord
100
AcDbRegAppTableRecord
  2
GENIUS_GENFIL_13
 70
     0
  0
APPID
  5
6DD3
330
6A1F
100
AcDbSymbolTableRecord
100
AcDbRegAppTableRecord
  2
GENIUS_GENOBJ-N-CHA_13
 70
     0
  0
ENDTAB
  0
TABLE
  2
DIMSTYLE
  5
6A20
330
0
100
AcDbSymbolTable
 70
    14
100
AcDbDimStyleTable
 71
     2
340
6A77
340
6A7F
  0
DIMSTYLE
105
6A77
102
{ACAD_REACTORS
330
84C7
330
84F8
330
857F
330
8603
330
865E
102
}
330
6A20
100
AcDbSymbolTableRecord
100
AcDbDimStyleTableRecord
  2
AM_DIN
 70
     0
  4
"
 41
2.5
 42
0.0
 43
10.0
 44
1.0
 47
0.1
 48
0.1
 73
     0
 74
     0
 77
     1
 78
     8
140
3.5
141
0.0
143
0.0393701
146
0.71
147
1.5
172
     1
176
   256
177
   256
178
     2
271
     2
272
     2
279
     2
284
     8
285
     8
286
     8
340
6A27
  0
DIMSTYLE
105
6A7E
330
6A20
100
AcDbSymbolTableRecord
100
AcDbDimStyleTableRecord
  2
STANDARD
 70
     0
271
     2
272
     2
279
     2
284
     8
285
     8
286
     8
340
6A27
  0
DIMSTYLE
105
6A7F
102
{ACAD_REACTORS
330
752C
102
}
330
6A20
100
AcDbSymbolTableRecord
100
AcDbDimStyleTableRecord
  2
AM_ANSI
 70
     0
  4
mm
 41
0.1
 42
0.05
 43
0.5
 44
0.1
 47
0.1
 48
0.1
 78
     7
140
0.12
141
0.0
146
0.71
147
0.06
176
   256
177
   256
178
     2
271
     2
272
     2
279
     2
284
     8
285
     8
286
     8
340
6A27
  0
DIMSTYLE
105
6A80
330
6A20
100
AcDbSymbolTableRecord
100
AcDbDimStyleTableRecord
  2
AM_ANSI$3
 70
     0
  4
mm
 41
0.1
 42
0.05
 43
0.5
 44
0.1
 47
0.1
 48
0.1
 78
     7
140
0.12
141
0.0
146
0.71
147
0.06
176
   256
177
   256
178
     2
271
     2
272
     2
279
     2
284
     8
285
     8
286
     8
340
6A27
  0
DIMSTYLE
105
6A81
330
6A20
100
AcDbSymbolTableRecord
100
AcDbDimStyleTableRecord
  2
AM_ANSI$4
 70
     0
  4
mm
 41
0.1
 42
0.05
 43
0.5
 44
0.1
 47
0.1
 48
0.1
 78
     7
140
0.12
141
0.0
146
0.71
147
0.06
176
   256
177
   256
178
     2
271
     2
272
     2
279
     2
284
     8
285
     8
286
     8
340
6A27
  0
DIMSTYLE
105
6A82
330
6A20
100
AcDbSymbolTableRecord
100
AcDbDimStyleTableRecord
  2
AM_ANSI$7
 70
     0
  4
mm
 41
0.1
 42
0.05
 43
0.5
 44
0.1
 47
0.1
 48
0.1
 78
     7
140
0.24
141
0.0
146
0.71
147
0.06
176
   256
177
   256
178
     2
271
     2
272
     2
279
     2
284
     8
285
     8
286
     8
340
6A27
  0
DIMSTYLE
105
6A83
330
6A20
100
AcDbSymbolTableRecord
100
AcDbDimStyleTableRecord
  2
AM_ANSI$SF
 70
     0
  4
mm
 41
0.1
 42
0.05
 43
0.5
 44
0.1
 47
0.1
 48
0.1
 75
     1
 76
     1
 78
     7
140
0.12
141
0.0
146
0.71
147
0.06
176
   256
177
   256
178
     2
271
     2
272
     2
279
     2
284
     8
285
     8
286
     8
340
6A27
  0
DIMSTYLE
105
6A84
330
6A20
100
AcDbSymbolTableRecord
100
AcDbDimStyleTableRecord
  2
AM_ANSI$SH
 70
     0
  4
mm
 41
0.1
 42
0.05
 43
0.5
 44
0.1
 47
0.1
 48
0.1
 75
     1
 76
     1
 78
     7
140
0.12
141
0.0
146
0.71
147
0.06
173
     1
176
   256
177
   256
178
     2
271
     2
272
     2
279
     2
284
     8
285
     8
286
     8
340
6A27
  0
DIMSTYLE
105
6D9C
330
6A20
100
AcDbSymbolTableRecord
100
AcDbDimStyleTableRecord
  2
AM_DIN$3
 70
     0
  4
"
 41
3.5
 42
0.0
 43
10.0
 44
1.0
 47
0.1
 48
0.1
 73
     0
 77
     1
 78
     8
 79
     2
140
3.5
141
0.0
143
0.0393701
146
0.71
147
1.5
176
   256
177
   256
178
     2
271
     2
272
     2
283
     0
284
     8
288
     1
289
     0
340
6A27
371
    -1
372
    -1
  0
DIMSTYLE
105
6D9D
330
6A20
100
AcDbSymbolTableRecord
100
AcDbDimStyleTableRecord
  2
AM_DIN$4
 70
     0
  4
"
 41
3.5
 42
0.0
 43
10.0
 44
1.0
 47
0.1
 48
0.1
 73
     0
 77
     1
 78
     8
 79
     2
140
3.5
141
0.0
143
0.0393701
146
0.71
147
1.5
176
   256
177
   256
178
     2
271
     2
272
     2
283
     0
284
     8
288
     1
289
     0
340
6A27
371
    -1
372
    -1
  0
DIMSTYLE
105
6D9E
330
6A20
100
AcDbSymbolTableRecord
100
AcDbDimStyleTableRecord
  2
AM_DIN$6
 70
     0
  4
"
 41
3.5
 42
0.0
 43
0.0
 44
1.0
 47
0.1
 48
0.1
 73
     0
 74
     0
 78
     8
 79
     2
140
3.5
141
0.0
143
0.0393701
146
0.71
147
1.5
172
     1
176
   256
177
   256
178
     2
271
     2
272
     2
283
     0
284
     8
340
6A27
371
    -1
372
    -1
  0
DIMSTYLE
105
6D9F
330
6A20
100
AcDbSymbolTableRecord
100
AcDbDimStyleTableRecord
  2
AM_DIN$7
 70
     0
  4
"
 41
3.5
 42
0.0
 43
10.0
 44
1.0
 47
0.1
 48
0.1
 73
     0
 74
     0
 77
     1
 78
     8
 79
     2
140
3.5
141
0.0
143
0.0393701
146
0.71
147
1.5
172
     1
176
   256
177
   256
178
     2
271
     2
272
     2
283
     0
284
     8
340
6A27
371
    -1
372
    -1
  0
DIMSTYLE
105
6DA0
330
6A20
100
AcDbSymbolTableRecord
100
AcDbDimStyleTableRecord
  2
AM_DIN$SF
 70
     0
  4
"
 41
2.5
 42
1.0
 43
10.0
 44
1.0
 47
0.1
 48
0.1
 73
     0
 74
     0
 75
     1
 76
     1
 77
     1
 78
     8
 79
     2
140
3.5
141
0.0
143
0.0393701
146
0.71
147
1.5
172
     1
176
   256
177
   256
178
     2
271
     2
272
     3
274
     4
283
     0
284
     8
340
6A27
371
    -1
372
    -1
  0
DIMSTYLE
105
6DA1
330
6A20
100
AcDbSymbolTableRecord
100
AcDbDimStyleTableRecord
  2
AM_DIN$SH
 70
     0
  4
"
 41
2.5
 42
1.0
 43
10.0
 44
1.0
 47
0.1
 48
0.1
 73
     0
 74
     0
 75
     1
 76
     1
 77
     1
 78
     8
 79
     2
140
3.5
141
0.0
143
0.0393701
144
2.0
146
0.71
147
1.5
172
     1
173
     1
176
   256
177
   256
178
     2
271
     2
272
     3
274
     4
283
     0
284
     8
340
6A27
343
6D93
371
    -1
372
    -1
  0
ENDTAB
  0
TABLE
  2
BLOCK_RECORD
  5
6A17
330
0
100
AcDbSymbolTable
 70
     7
  0
BLOCK_RECORD
  5
6A34
102
{ACAD_XDICTIONARY
360
6B62
102
}
330
6A17
100
AcDbSymbolTableRecord
100
AcDbBlockTableRecord
  2
*Model_Space
340
6A37
  0
BLOCK_RECORD
  5
6A30
330
6A17
100
AcDbSymbolTableRecord
100
AcDbBlockTableRecord
  2
*Paper_Space
340
6A33
  0
BLOCK_RECORD
  5
6D93
330
6A17
100
AcDbSymbolTableRecord
100
AcDbBlockTableRecord
  2
GENAXEH
340
0
  0
BLOCK_RECORD
  5
75CA
330
6A17
100
AcDbSymbolTableRecord
100
AcDbBlockTableRecord
  2
*D1
340
0
  0
BLOCK_RECORD
  5
84C8
330
6A17
100
AcDbSymbolTableRecord
100
AcDbBlockTableRecord
  2
*D2
340
0
  0
BLOCK_RECORD
  5
84F9
330
6A17
100
AcDbSymbolTableRecord
100
AcDbBlockTableRecord
  2
*D3
340
0
  0
BLOCK_RECORD
  5
8580
330
6A17
100
AcDbSymbolTableRecord
100
AcDbBlockTableRecord
  2
*D4
340
0
  0
BLOCK_RECORD
  5
8604
330
6A17
100
AcDbSymbolTableRecord
100
AcDbBlockTableRecord
  2
*D5
340
0
  0
BLOCK_RECORD
  5
865F
330
6A17
100
AcDbSymbolTableRecord
100
AcDbBlockTableRecord
  2
*D6
340
0
  0
ENDTAB
  0
ENDSEC
  0
SECTION
  2
BLOCKS
  0
BLOCK
  5
6A35
330
6A34
100
AcDbEntity
  8
0
100
AcDbBlockBegin
  2
*Model_Space
 70
     0
 10
0.0
 20
0.0
 30
0.0
  3
*Model_Space
  1

  0
ENDBLK
  5
6A36
330
6A34
100
AcDbEntity
  8
0
100
AcDbBlockEnd
  0
BLOCK
  5
6A31
330
6A30
100
AcDbEntity
 67
     1
  8
0
100
AcDbBlockBegin
  2
*Paper_Space
 70
     0
 10
0.0
 20
0.0
 30
0.0
  3
*Paper_Space
  1

  0
ENDBLK
  5
6A32
330
6A30
100
AcDbEntity
 67
     1
  8
0
100
AcDbBlockEnd
  0
BLOCK
  5
6D95
330
6D93
100
AcDbEntity
  8
0
100
AcDbBlockBegin
  2
GENAXEH
 70
     0
 10
0.0
 20
0.0
 30
0.0
  3
GENAXEH
  1

  0
LINE
  5
6D94
330
6D93
100
AcDbEntity
  8
0
100
AcDbLine
 10
-1.0
 20
0.0
 30
0.0
 11
1.0
 21
0.0
 31
0.0
  0
ENDBLK
  5
6D96
330
6D93
100
AcDbEntity
  8
0
100
AcDbBlockEnd
  0
BLOCK
  5
75D4
330
75CA
100
AcDbEntity
  8
0
100
AcDbBlockBegin
  2
*D1
 70
     1
 10
0.0
 20
0.0
 30
0.0
  3
*D1
  1

  0
LINE
  5
7EE2
330
75CA
100
AcDbEntity
  8
SK2
370
    -2
100
AcDbLine
 10
-54.99999999999997
 20
-12.50000000000022
 30
0.0
 11
-77.10747231352951
 21
-12.50000000000022
 31
0.0
  0
LINE
  5
7EE3
330
75CA
100
AcDbEntity
  8
SK2
370
    -2
100
AcDbLine
 10
-55.00000000000006
 20
12.49999999999983
 30
0.0
 11
-77.10747231352951
 21
12.49999999999983
 31
0.0
  0
LINE
  5
7EE4
330
75CA
100
AcDbEntity
  8
SK2
370
    -2
100
AcDbLine
 10
-76.10747231352951
 20
-10.00000000000021
 30
0.0
 11
-76.10747231352951
 21
9.999999999999836
 31
0.0
  0
MTEXT
  5
7EE5
330
75CA
100
AcDbEntity
  8
SK2
 62
     2
100
AcDbMText
 10
-79.17522541557326
 20
-0.4833155496132804
 30
0.0
 40
3.5
 41
0.0
 71
     5
 72
     1
  1
\A1;%%c25
 11
0.0000000000000001
 21
1.0
 31
0.0
 73
     1
 44
1.0
  0
SOLID
  5
7EE6
330
75CA
100
AcDbEntity
  8
SK2
100
AcDbTrace
 10
-76.52413898019618
 20
-10.00000000000021
 30
0.0
 11
-75.69080564686284
 21
-10.00000000000022
 31
0.0
 12
-76.10747231352951
 22
-12.50000000000022
 32
0.0
 13
-76.10747231352951
 23
-12.50000000000022
 33
0.0
  0
SOLID
  5
7EE7
330
75CA
100
AcDbEntity
  8
SK2
100
AcDbTrace
 10
-76.52413898019618
 20
9.999999999999836
 30
0.0
 11
-75.69080564686284
 21
9.999999999999834
 31
0.0
 12
-76.10747231352951
 22
12.49999999999983
 32
0.0
 13
-76.10747231352951
 23
12.49999999999983
 33
0.0
  0
POINT
  5
7EE8
330
75CA
100
AcDbEntity
  8
DEFPOINTS
 62
     0
100
AcDbPoint
 10
-54.99999999999997
 20
-12.50000000000022
 30
0.0
  0
POINT
  5
7EE9
330
75CA
100
AcDbEntity
  8
DEFPOINTS
 62
     0
100
AcDbPoint
 10
-55.00000000000006
 20
12.49999999999983
 30
0.0
  0
POINT
  5
7EEA
330
75CA
100
AcDbEntity
  8
DEFPOINTS
 62
     0
100
AcDbPoint
 10
-76.10747231352951
 20
12.49999999999983
 30
0.0
  0
ENDBLK
  5
75D5
330
75CA
100
AcDbEntity
  8
0
100
AcDbBlockEnd
  0
BLOCK
  5
84D2
330
84C8
100
AcDbEntity
  8
0
100
AcDbBlockBegin
  2
*D2
 70
     1
 10
0.0
 20
0.0
 30
0.0
  3
*D2
  1

  0
LINE
  5
86FA
330
84C8
100
AcDbEntity
  8
2
370
    -2
100
AcDbLine
 10
39.00000000000005
 20
11.99999999999979
 30
0.0
 11
69.68057190997047
 21
11.99999999999978
 31
0.0
  0
LINE
  5
86FB
330
84C8
100
AcDbEntity
  8
2
370
    -2
100
AcDbLine
 10
39.00000000000011
 20
-12.00000000000021
 30
0.0
 11
69.68057190997047
 21
-12.00000000000022
 31
0.0
  0
LINE
  5
86FC
330
84C8
100
AcDbEntity
  8
2
370
    -2
100
AcDbLine
 10
68.68057190997046
 20
9.499999999999781
 30
0.0
 11
68.68057190997046
 21
-9.50000000000022
 31
0.0
  0
SOLID
  5
86FD
330
84C8
100
AcDbEntity
  8
2
100
AcDbTrace
 10
68.26390524330379
 20
9.499999999999781
 30
0.0
 11
69.09723857663713
 21
9.499999999999781
 31
0.0
 12
68.68057190997046
 22
11.99999999999978
 32
0.0
 13
68.68057190997046
 23
11.99999999999978
 33
0.0
  0
SOLID
  5
86FE
330
84C8
100
AcDbEntity
  8
2
100
AcDbTrace
 10
68.26390524330379
 20
-9.50000000000022
 30
0.0
 11
69.09723857663713
 21
-9.50000000000022
 31
0.0
 12
68.68057190997046
 22
-12.00000000000022
 32
0.0
 13
68.68057190997046
 23
-12.00000000000022
 33
0.0
  0
MTEXT
  5
86FF
330
84C8
100
AcDbEntity
  8
2
 62
     2
100
AcDbMText
 10
65.43022742178149
 20
-0.0000000000002072
 30
0.0
 40
3.5
 41
0.0
 71
     5
 72
     1
  1
\A1;%%c24
 11
0.0000000000000001
 21
1.0
 31
0.0
 73
     1
 44
1.0
  0
POINT
  5
8700
330
84C8
100
AcDbEntity
  8
DEFPOINTS
 62
     0
100
AcDbPoint
 10
39.00000000000005
 20
11.99999999999979
 30
0.0
  0
POINT
  5
8701
330
84C8
100
AcDbEntity
  8
DEFPOINTS
 62
     0
100
AcDbPoint
 10
39.00000000000011
 20
-12.00000000000021
 30
0.0
  0
POINT
  5
8702
330
84C8
100
AcDbEntity
  8
DEFPOINTS
 62
     0
100
AcDbPoint
 10
68.68057190997046
 20
-12.00000000000022
 30
0.0
  0
ENDBLK
  5
84D3
330
84C8
100
AcDbEntity
  8
0
100
AcDbBlockEnd
  0
BLOCK
  5
8505
330
84F9
100
AcDbEntity
  8
0
100
AcDbBlockBegin
  2
*D3
 70
     1
 10
0.0
 20
0.0
 30
0.0
  3
*D3
  1

  0
LINE
  5
86EF
330
84F9
100
AcDbEntity
  8
2
370
    -2
100
AcDbLine
 10
39.00000000000005
 20
3.249999999999791
 30
0.0
 11
56.95558695428151
 21
3.249999999999786
 31
0.0
  0
LINE
  5
86F0
330
84F9
100
AcDbEntity
  8
2
370
    -2
100
AcDbLine
 10
39.00000000000012
 20
-3.250000000000208
 30
0.0
 11
56.95558695428151
 21
-3.250000000000213
 31
0.0
  0
LINE
  5
86F1
330
84F9
100
AcDbEntity
  8
2
370
    -2
100
AcDbLine
 10
55.95558695428151
 20
5.749999999999786
 30
0.0
 11
55.95558695428151
 21
8.249999999999786
 31
0.0
  0
LINE
  5
86F2
330
84F9
100
AcDbEntity
  8
2
370
    -2
100
AcDbLine
 10
55.95558695428151
 20
-5.750000000000213
 30
0.0
 11
55.95558695428151
 21
-8.250000000000213
 31
0.0
  0
MTEXT
  5
86F3
330
84F9
100
AcDbEntity
  8
2
 62
     2
100
AcDbMText
 10
53.23038086850939
 20
7.708840243272561
 30
0.0
 40
3.5
 41
0.0
 71
     5
 72
     1
  1
\A1;%%c6.5
 11
0.0000000000000001
 21
1.0
 31
0.0
 73
     1
 44
1.0
  0
LINE
  5
86F4
330
84F9
100
AcDbEntity
  8
2
370
    -2
100
AcDbLine
 10
55.95558695428151
 20
3.249999999999786
 30
0.0
 11
55.95558695428151
 21
-3.250000000000213
 31
0.0
  0
SOLID
  5
86F5
330
84F9
100
AcDbEntity
  8
2
100
AcDbTrace
 10
55.53892028761485
 20
5.749999999999786
 30
0.0
 11
56.37225362094818
 21
5.749999999999786
 31
0.0
 12
55.95558695428151
 22
3.249999999999786
 32
0.0
 13
55.95558695428151
 23
3.249999999999786
 33
0.0
  0
SOLID
  5
86F6
330
84F9
100
AcDbEntity
  8
2
100
AcDbTrace
 10
55.53892028761485
 20
-5.750000000000213
 30
0.0
 11
56.37225362094818
 21
-5.750000000000213
 31
0.0
 12
55.95558695428151
 22
-3.250000000000213
 32
0.0
 13
55.95558695428151
 23
-3.250000000000213
 33
0.0
  0
POINT
  5
86F7
330
84F9
100
AcDbEntity
  8
DEFPOINTS
 62
     0
100
AcDbPoint
 10
39.00000000000005
 20
3.249999999999791
 30
0.0
  0
POINT
  5
86F8
330
84F9
100
AcDbEntity
  8
DEFPOINTS
 62
     0
100
AcDbPoint
 10
39.00000000000012
 20
-3.250000000000208
 30
0.0
  0
POINT
  5
86F9
330
84F9
100
AcDbEntity
  8
DEFPOINTS
 62
     0
100
AcDbPoint
 10
55.95558695428151
 20
-3.250000000000213
 30
0.0
  0
ENDBLK
  5
8506
330
84F9
100
AcDbEntity
  8
0
100
AcDbBlockEnd
  0
BLOCK
  5
858A
330
8580
100
AcDbEntity
  8
0
100
AcDbBlockBegin
  2
*D4
 70
     1
 10
0.0
 20
0.0
 30
0.0
  3
*D4
  1

  0
LINE
  5
86D4
330
8580
100
AcDbEntity
  8
SK2
370
    -2
100
AcDbLine
 10
39.00000000000011
 20
-12.00000000000021
 30
0.0
 11
39.00000000000011
 21
-35.91818052032448
 31
0.0
  0
LINE
  5
86D5
330
8580
100
AcDbEntity
  8
SK2
370
    -2
100
AcDbLine
 10
-55.99999999999994
 20
-11.50000000000022
 30
0.0
 11
-55.99999999999994
 21
-35.91818052032448
 31
0.0
  0
LINE
  5
86D6
330
8580
100
AcDbEntity
  8
SK2
370
    -2
100
AcDbLine
 10
36.50000000000011
 20
-34.91818052032448
 30
0.0
 11
-53.49999999999994
 21
-34.91818052032448
 31
0.0
  0
SOLID
  5
86D7
330
8580
100
AcDbEntity
  8
SK2
100
AcDbTrace
 10
36.50000000000011
 20
-34.50151385365781
 30
0.0
 11
36.50000000000011
 21
-35.33484718699114
 31
0.0
 12
39.00000000000011
 22
-34.91818052032448
 32
0.0
 13
39.00000000000011
 23
-34.91818052032448
 33
0.0
  0
SOLID
  5
86D8
330
8580
100
AcDbEntity
  8
SK2
100
AcDbTrace
 10
-53.49999999999994
 20
-34.50151385365781
 30
0.0
 11
-53.49999999999994
 21
-35.33484718699114
 31
0.0
 12
-55.99999999999994
 22
-34.91818052032448
 32
0.0
 13
-55.99999999999994
 23
-34.91818052032448
 33
0.0
  0
MTEXT
  5
86D9
330
8580
100
AcDbEntity
  8
SK2
 62
     2
100
AcDbMText
 10
-8.499999999999914
 20
-31.66818052032448
 30
0.0
 40
3.5
 41
0.0
 71
     5
 72
     1
  1
\A1;95
 73
     1
 44
1.0
  0
POINT
  5
86DA
330
8580
100
AcDbEntity
  8
DEFPOINTS
 62
     0
100
AcDbPoint
 10
39.00000000000011
 20
-12.00000000000021
 30
0.0
  0
POINT
  5
86DB
330
8580
100
AcDbEntity
  8
DEFPOINTS
 62
     0
100
AcDbPoint
 10
-55.99999999999994
 20
-11.50000000000022
 30
0.0
  0
POINT
  5
86DC
330
8580
100
AcDbEntity
  8
DEFPOINTS
 62
     0
100
AcDbPoint
 10
-55.99999999999994
 20
-34.91818052032448
 30
0.0
  0
ENDBLK
  5
858B
330
8580
100
AcDbEntity
  8
0
100
AcDbBlockEnd
  0
BLOCK
  5
860E
330
8604
100
AcDbEntity
  8
0
100
AcDbBlockBegin
  2
*D5
 70
     1
 10
0.0
 20
0.0
 30
0.0
  3
*D5
  1

  0
LINE
  5
86E6
330
8604
100
AcDbEntity
  8
2
370
    -2
100
AcDbLine
 10
39.00000000000005
 20
11.99999999999979
 30
0.0
 11
39.00000000000006
 21
75.99999999999991
 31
0.0
  0
LINE
  5
86E7
330
8604
100
AcDbEntity
  8
2
370
    -2
100
AcDbLine
 10
0.0000000000002416
 20
12.49999999999977
 30
0.0
 11
0.0000000000002455
 21
75.99999999999991
 31
0.0
  0
LINE
  5
86E8
330
8604
100
AcDbEntity
  8
2
370
    -2
100
AcDbLine
 10
36.50000000000006
 20
74.99999999999992
 30
0.0
 11
2.500000000000245
 21
74.99999999999992
 31
0.0
  0
SOLID
  5
86E9
330
8604
100
AcDbEntity
  8
2
100
AcDbTrace
 10
36.50000000000006
 20
75.41666666666658
 30
0.0
 11
36.50000000000006
 21
74.58333333333325
 31
0.0
 12
39.00000000000006
 22
74.99999999999992
 32
0.0
 13
39.00000000000006
 23
74.99999999999992
 33
0.0
  0
SOLID
  5
86EA
330
8604
100
AcDbEntity
  8
2
100
AcDbTrace
 10
2.500000000000245
 20
75.41666666666658
 30
0.0
 11
2.500000000000245
 21
74.58333333333325
 31
0.0
 12
0.0000000000002454
 22
74.99999999999992
 32
0.0
 13
0.0000000000002454
 23
74.99999999999992
 33
0.0
  0
MTEXT
  5
86EB
330
8604
100
AcDbEntity
  8
2
 62
     2
100
AcDbMText
 10
19.50000000000015
 20
78.24999999999992
 30
0.0
 40
3.5
 41
0.0
 71
     5
 72
     1
  1
\A1;39
 73
     1
 44
1.0
  0
POINT
  5
86EC
330
8604
100
AcDbEntity
  8
DEFPOINTS
 62
     0
100
AcDbPoint
 10
39.00000000000005
 20
11.99999999999979
 30
0.0
  0
POINT
  5
86ED
330
8604
100
AcDbEntity
  8
DEFPOINTS
 62
     0
100
AcDbPoint
 10
0.0000000000002416
 20
12.49999999999977
 30
0.0
  0
POINT
  5
86EE
330
8604
100
AcDbEntity
  8
DEFPOINTS
 62
     0
100
AcDbPoint
 10
0.0000000000002454
 20
74.99999999999992
 30
0.0
  0
ENDBLK
  5
860F
330
8604
100
AcDbEntity
  8
0
100
AcDbBlockEnd
  0
BLOCK
  5
8669
330
865F
100
AcDbEntity
  8
0
100
AcDbBlockBegin
  2
*D6
 70
     1
 10
0.0
 20
0.0
 30
0.0
  3
*D6
  1

  0
LINE
  5
86DD
330
865F
100
AcDbEntity
  8
2
370
    -2
100
AcDbLine
 10
39.00000000000005
 20
11.99999999999979
 30
0.0
 11
39.00000000000005
 21
60.99999999999988
 31
0.0
  0
LINE
  5
86DE
330
865F
100
AcDbEntity
  8
2
370
    -2
100
AcDbLine
 10
15.00000000000005
 20
10.9174680139533
 30
0.0
 11
15.00000000000005
 21
60.99999999999988
 31
0.0
  0
LINE
  5
86DF
330
865F
100
AcDbEntity
  8
2
370
    -2
100
AcDbLine
 10
36.50000000000005
 20
59.99999999999989
 30
0.0
 11
17.50000000000005
 21
59.99999999999989
 31
0.0
  0
SOLID
  5
86E0
330
865F
100
AcDbEntity
  8
2
100
AcDbTrace
 10
36.50000000000005
 20
60.41666666666655
 30
0.0
 11
36.50000000000005
 21
59.58333333333322
 31
0.0
 12
39.00000000000005
 22
59.99999999999989
 32
0.0
 13
39.00000000000005
 23
59.99999999999989
 33
0.0
  0
SOLID
  5
86E1
330
865F
100
AcDbEntity
  8
2
100
AcDbTrace
 10
17.50000000000005
 20
60.41666666666655
 30
0.0
 11
17.50000000000005
 21
59.58333333333322
 31
0.0
 12
15.00000000000005
 22
59.99999999999989
 32
0.0
 13
15.00000000000005
 23
59.99999999999989
 33
0.0
  0
MTEXT
  5
86E2
330
865F
100
AcDbEntity
  8
2
 62
     2
100
AcDbMText
 10
27.00000000000005
 20
63.25034448818886
 30
0.0
 40
3.5
 41
0.0
 71
     5
 72
     1
  1
\A1;24
 73
     1
 44
1.0
  0
POINT
  5
86E3
330
865F
100
AcDbEntity
  8
DEFPOINTS
 62
     0
100
AcDbPoint
 10
39.00000000000005
 20
11.99999999999979
 30
0.0
  0
POINT
  5
86E4
330
865F
100
AcDbEntity
  8
DEFPOINTS
 62
     0
100
AcDbPoint
 10
15.00000000000005
 20
10.9174680139533
 30
0.0
  0
POINT
  5
86E5
330
865F
100
AcDbEntity
  8
DEFPOINTS
 62
     0
100
AcDbPoint
 10
15.00000000000005
 20
59.99999999999989
 30
0.0
  0
ENDBLK
  5
866A
330
865F
100
AcDbEntity
  8
0
100
AcDbBlockEnd
  0
ENDSEC
  0
SECTION
  2
ENTITIES
  0
LINE
  5
7529
330
6A34
100
AcDbEntity
  8
SK1
100
AcDbLine
 10
0.0000000000000568
 20
-12.50000000000022
 30
0.0
 11
-54.99999999999994
 21
-12.50000000000022
 31
0.0
  0
LINE
  5
752A
330
6A34
100
AcDbEntity
  8
SK4
100
AcDbLine
 10
0.0
 20
0.0
 30
0.0
 11
-58.42491867849464
 21
-0.0000000000002274
 31
0.0
  0
LINE
  5
752B
330
6A34
100
AcDbEntity
  8
SK1
100
AcDbLine
 10
-55.00000000000006
 20
12.49999999999983
 30
0.0
 11
0.0000000000002416
 21
12.49999999999977
 31
0.0
  0
DIMENSION
  5
752C
330
6A34
100
AcDbEntity
  8
SK2
100
AcDbDimension
  2
*D1
 10
-76.10747231352951
 20
12.49999999999983
 30
0.0
 11
-79.17522541557326
 21
-0.4833155496132804
 31
0.0
 70
   160
  1
%%c<>
 71
     5
 42
25.00000000000005
 53
90.0
  3
AM_ANSI
100
AcDbAlignedDimension
 13
-54.99999999999997
 23
-12.50000000000022
 33
0.0
 14
-55.00000000000006
 24
12.49999999999983
 34
0.0
 50
90.0
100
AcDbRotatedDimension
1001
ACAD
1000
DSTYLE
1002
{
1070
    41
1040
2.5
1070
    42
1040
0.0
1070
    44
1040
1.0
1070
   140
1040
3.5
1070
   147
1040
1.0
1070
   271
1070
     0
1002
}
  0
ARC
  5
752D
330
6A34
100
AcDbEntity
  8
SK1
100
AcDbCircle
 10
-49.49209999999988
 20
-0.0000000000001137
 30
0.0
 40
12.49209999999996
100
AcDbArc
 50
327.1294363887069
 51
32.87056361129283
  0
ARC
  5
752E
330
6A34
100
AcDbEntity
  8
SK1
100
AcDbCircle
 10
-19.5079
 20
-0.0000000000001137
 30
0.0
 40
12.49209999999998
100
AcDbArc
 50
147.1294363887073
 51
212.8705636112929
  0
ARC
  5
752F
330
6A34
100
AcDbEntity
  8
SK1
100
AcDbCircle
 10
-28.49209999999988
 20
-0.0000000000001705
 30
0.0
 40
12.49209999999985
100
AcDbArc
 50
327.1294363887067
 51
32.87056361129322
  0
LINE
  5
7530
330
6A34
100
AcDbEntity
  8
SK1
100
AcDbLine
 10
-38.99999999999994
 20
-6.7800000000002
 30
0.0
 11
-38.99999999999994
 21
6.779999999999802
 31
0.0
  0
LINE
  5
7531
330
6A34
100
AcDbEntity
  8
SK1
100
AcDbLine
 10
-18.00000000000005
 20
6.779999999999802
 30
0.0
 11
-18.00000000000005
 21
-6.7800000000002
 31
0.0
  0
LINE
  5
7532
330
6A34
100
AcDbEntity
  8
SK1
100
AcDbLine
 10
-30.0
 20
-6.7800000000002
 30
0.0
 11
-30.0
 21
6.779999999999802
 31
0.0
  0
LINE
  5
7533
330
6A34
100
AcDbEntity
  8
SK1
100
AcDbLine
 10
-55.99999999999994
 20
-11.50000000000022
 30
0.0
 11
-56.00000000000005
 21
11.49999999999983
 31
0.0
  0
LINE
  5
7534
330
6A34
100
AcDbEntity
  8
SK1
100
AcDbLine
 10
-56.0
 20
-6.7800000000002
 30
0.0
 11
-38.99999999999994
 21
-6.7800000000002
 31
0.0
  0
LINE
  5
7535
330
6A34
100
AcDbEntity
  8
SK1
100
AcDbLine
 10
-54.99999999999994
 20
-12.50000000000022
 30
0.0
 11
-55.0
 21
-6.7800000000002
 31
0.0
  0
LINE
  5
7536
330
6A34
100
AcDbEntity
  8
SK1
100
AcDbLine
 10
-54.99999999999994
 20
-12.50000000000022
 30
0.0
 11
-55.99999999999994
 21
-11.50000000000022
 31
0.0
1001
GENIUS_GENFIL_13
1070
     0
1040
1.0
1040
1.0
1040
0.0
1040
0.0
1002
{
1002
}
1001
GENIUS_GENODEF_13
1002
{
1000
HIER
1070
     0
1002
}
1002
{
1000
MANEDIT
1070
     0
1002
}
1002
{
1000
NOSEL
1070
     0
1002
}
1002
{
1000
BEHIND
1070
     0
1002
}
1002
{
1000
OTHER
1070
     0
1002
}
1002
{
1000
REACTOR
1002
}
1001
GENIUS_GENOBJ-N-CHA_13
1002
{
1000
OWNER
1000
GEN
1002
}
  0
LINE
  5
7537
330
6A34
100
AcDbEntity
  8
SK1
100
AcDbLine
 10
-18.00000000000005
 20
-6.7800000000002
 30
0.0
 11
-30.0
 21
-6.7800000000002
 31
0.0
  0
LINE
  5
7538
330
6A34
100
AcDbEntity
  8
SK1
100
AcDbLine
 10
-38.99999999999994
 20
6.779999999999802
 30
0.0
 11
-56.00000000000005
 21
6.779999999999859
 31
0.0
  0
LINE
  5
7539
330
6A34
100
AcDbEntity
  8
SK1
100
AcDbLine
 10
-55.00000000000006
 20
6.779999999999802
 30
0.0
 11
-55.00000000000006
 21
12.49999999999983
 31
0.0
  0
LINE
  5
753A
330
6A34
100
AcDbEntity
  8
SK1
100
AcDbLine
 10
-55.00000000000006
 20
12.49999999999983
 30
0.0
 11
-56.00000000000005
 21
11.49999999999983
 31
0.0
1001
GENIUS_GENFIL_13
1070
     0
1040
1.0
1040
1.0
1040
0.0
1040
0.0
1002
{
1002
}
1001
GENIUS_GENODEF_13
1002
{
1000
HIER
1070
     0
1002
}
1002
{
1000
MANEDIT
1070
     0
1002
}
1002
{
1000
NOSEL
1070
     0
1002
}
1002
{
1000
BEHIND
1070
     0
1002
}
1002
{
1000
OTHER
1070
     0
1002
}
1002
{
1000
REACTOR
1002
}
1001
GENIUS_GENOBJ-N-CHA_13
1002
{
1000
OWNER
1000
GEN
1002
}
  0
LINE
  5
753B
330
6A34
100
AcDbEntity
  8
SK1
100
AcDbLine
 10
-30.0
 20
6.779999999999802
 30
0.0
 11
-18.00000000000005
 21
6.779999999999802
 31
0.0
  0
LINE
  5
753E
330
6A34
100
AcDbEntity
  8
NOCUT
100
AcDbLine
 10
0.0
 20
-0.0000000000001705
 30
0.0
 11
0.0
 21
-12.50000000000032
 31
0.0
  0
LINE
  5
7544
330
6A34
100
AcDbEntity
  8
1
100
AcDbLine
 10
0.0000000000002416
 20
12.49999999999977
 30
0.0
 11
0.0000000000002416
 21
-12.5000000000002
 31
0.0
  0
TEXT
  5
7545
330
6A34
100
AcDbEntity
  8
6
100
AcDbText
 10
39.87752151152655
 20
-20.67709378702943
 30
0.0
 40
3.5
  1
15C1F024039W5R01
100
AcDbText
  0
LINE
  5
7554
330
6A34
100
AcDbEntity
  8
SK1
100
AcDbLine
 10
39.00000000000011
 20
-12.46376936984903
 30
0.0
 11
39.00000000000011
 21
-11.53623063015139
 31
0.0
  0
LINE
  5
7555
330
6A34
100
AcDbEntity
  8
SK1
100
AcDbLine
 10
38.53623063015129
 20
-12.00000000000021
 30
0.0
 11
39.46376936984893
 21
-12.00000000000021
 31
0.0
  0
CIRCLE
  5
7556
330
6A34
100
AcDbEntity
  8
SK1
100
AcDbCircle
 10
39.00000000000011
 20
-12.00000000000021
 30
0.0
 40
0.4637693698488208
  0
LINE
  5
755E
330
6A34
100
AcDbEntity
  8
NOCUT
100
AcDbLine
 10
37.75548977143657
 20
-0.0000000000002271
 30
0.0
 11
0.0
 21
-0.0000000000001705
 31
0.0
  0
LINE
  5
755F
330
6A34
100
AcDbEntity
  8
4
100
AcDbLine
 10
39.97494342658328
 20
-0.0000000000002141
 30
0.0
 11
0.0
 21
0.0
 31
0.0
  0
LINE
  5
7561
330
6A34
100
AcDbEntity
  8
SK1
100
AcDbLine
 10
-1.909269750190781
 20
-1.909269750191022
 30
0.0
 11
1.909269750191023
 21
1.909269750190781
 31
0.0
  0
LINE
  5
7563
330
6A34
100
AcDbEntity
  8
SK1
100
AcDbLine
 10
-1.909269750190781
 20
1.909269750190781
 30
0.0
 11
1.909269750191022
 21
-1.909269750191023
 31
0.0
  0
LINE
  5
7588
330
6A34
100
AcDbEntity
  8
SK1
100
AcDbLine
 10
39.00000000000005
 20
12.4637693698486
 30
0.0
 11
39.00000000000005
 21
11.53623063015097
 31
0.0
  0
LINE
  5
7589
330
6A34
100
AcDbEntity
  8
SK1
100
AcDbLine
 10
38.53623063015124
 20
11.99999999999979
 30
0.0
 11
39.46376936984887
 21
11.99999999999979
 31
0.0
  0
CIRCLE
  5
758A
330
6A34
100
AcDbEntity
  8
SK1
100
AcDbCircle
 10
39.00000000000005
 20
11.99999999999979
 30
0.0
 40
0.4637693698488208
  0
TEXT
  5
758D
330
6A34
100
AcDbEntity
  8
6
100
AcDbText
 10
74.36358932408011
 20
-6.313552238484309
 30
0.0
 40
3.5
  1
Z=2
 50
90.0
100
AcDbText
  0
TEXT
  5
7F0E
330
6A34
100
AcDbEntity
  8
6
100
AcDbText
 10
42.22178385407501
 20
14.821000088397
 30
0.0
 40
2.5
  1
SHLT090408N
100
AcDbText
  0
LINE
  5
8027
330
6A34
100
AcDbEntity
  8
4
100
AcDbLine
 10
2.295975744989289
 20
-0.0000000000005399
 30
0.0
 11
24.95995549446677
 21
3.13286577276215
 31
0.0
  0
LINE
  5
811E
330
6A34
100
AcDbEntity
  8
1
100
AcDbLine
 10
3.101980385988326
 20
10.9174680139533
 30
0.0
 11
29.20004500000005
 21
10.9174680139533
 31
0.0
  0
LINE
  5
8120
330
6A34
100
AcDbEntity
  8
NOCUT
100
AcDbLine
 10
3.101980385988529
 20
-10.9174680139533
 30
0.0
 11
37.75548977143657
 21
-10.91746801395368
 31
0.0
  0
LINE
  5
8147
330
6A34
100
AcDbEntity
  8
1
100
AcDbLine
 10
3.10198038598853
 20
-10.91746801395324
 30
0.0
 11
37.7554897714365
 21
-10.91746801395292
 31
0.0
  0
LINE
  5
814F
330
6A34
100
AcDbEntity
  8
1
100
AcDbLine
 10
37.7554897714365
 20
-10.91746801395292
 30
0.0
 11
37.75548977143657
 21
2.200044999999789
 31
0.0
  0
ARC
  5
816C
330
6A34
100
AcDbEntity
  8
1
100
AcDbCircle
 10
15.87407226911403
 20
16.30457136845574
 30
0.0
 40
14.56370125588803
100
AcDbArc
 50
199.6928258903853
 51
277.5000609271475
  0
CIRCLE
  5
840C
330
6A34
100
AcDbEntity
  8
1
100
AcDbCircle
 10
34.10002250000005
 20
7.10002249999979
 30
0.0
 40
2.7695525
  0
LINE
  5
840D
330
6A34
100
AcDbEntity
  8
CUT
100
AcDbLine
 10
29.88178100000005
 20
2.200044999999789
 30
0.0
 11
38.31826400000005
 21
2.200044999999789
 31
0.0
  0
LINE
  5
840E
330
6A34
100
AcDbEntity
  8
CUT
100
AcDbLine
 10
29.88178100000005
 20
11.99999999999979
 30
0.0
 11
38.31826400000005
 21
11.99999999999979
 31
0.0
  0
LINE
  5
840F
330
6A34
100
AcDbEntity
  8
1
100
AcDbLine
 10
29.88178100000005
 20
11.99999999999979
 30
0.0
 11
38.31826400000005
 21
11.99999999999979
 31
0.0
  0
LINE
  5
8410
330
6A34
100
AcDbEntity
  8
1
100
AcDbLine
 10
29.88178100000005
 20
2.200044999999789
 30
0.0
 11
38.31826400000005
 21
2.200044999999789
 31
0.0
  0
LINE
  5
8411
330
6A34
100
AcDbEntity
  8
CUT
100
AcDbLine
 10
29.20004500000005
 20
11.31826399999979
 30
0.0
 11
29.20004500000005
 21
2.881780999999786
 31
0.0
  0
LINE
  5
8412
330
6A34
100
AcDbEntity
  8
1
100
AcDbLine
 10
29.20004500000005
 20
11.31826399999979
 30
0.0
 11
29.20004500000005
 21
2.881780999999786
 31
0.0
  0
ARC
  5
8413
330
6A34
100
AcDbEntity
  8
CUT
100
AcDbCircle
 10
29.88178100000005
 20
2.881780999999786
 30
0.0
 40
0.6817360000000001
100
AcDbArc
 50
180.0
 51
270.0
1001
GENIUS_GENOBJ-N-FIL_13
1002
{
1000
OWNER
1000
GEN
1002
}
1001
GENIUS_GENODEF_13
1002
{
1000
HIER
1070
     0
1002
}
1002
{
1000
MANEDIT
1070
     0
1002
}
1002
{
1000
NOSEL
1070
     0
1002
}
1002
{
1000
BEHIND
1070
     0
1002
}
1002
{
1000
OTHER
1070
     0
1002
}
1002
{
1000
REACTOR
1002
}
  0
ARC
  5
8414
330
6A34
100
AcDbEntity
  8
1
100
AcDbCircle
 10
29.88178100000005
 20
2.881780999999786
 30
0.0
 40
0.6817360000000001
100
AcDbArc
 50
180.0
 51
270.0
1001
GENIUS_GENOBJ-N-FIL_13
1002
{
1000
OWNER
1000
GEN
1002
}
1001
GENIUS_GENODEF_13
1002
{
1000
HIER
1070
     0
1002
}
1002
{
1000
MANEDIT
1070
     0
1002
}
1002
{
1000
NOSEL
1070
     0
1002
}
1002
{
1000
BEHIND
1070
     0
1002
}
1002
{
1000
OTHER
1070
     0
1002
}
1002
{
1000
REACTOR
1002
}
  0
ARC
  5
8415
330
6A34
100
AcDbEntity
  8
CUT
100
AcDbCircle
 10
29.88178100000005
 20
11.31826399999978
 30
0.0
 40
0.6817360000000001
100
AcDbArc
 50
90.0
 51
179.9999999999994
1001
GENIUS_GENOBJ-N-FIL_13
1002
{
1000
OWNER
1000
GEN
1002
}
1001
GENIUS_GENODEF_13
1002
{
1000
HIER
1070
     0
1002
}
1002
{
1000
MANEDIT
1070
     0
1002
}
1002
{
1000
NOSEL
1070
     0
1002
}
1002
{
1000
BEHIND
1070
     0
1002
}
1002
{
1000
OTHER
1070
     0
1002
}
1002
{
1000
REACTOR
1002
}
  0
ARC
  5
8416
330
6A34
100
AcDbEntity
  8
1
100
AcDbCircle
 10
29.88178100000005
 20
11.31826399999978
 30
0.0
 40
0.6817360000000001
100
AcDbArc
 50
90.0
 51
179.9999999999994
1001
GENIUS_GENOBJ-N-FIL_13
1002
{
1000
OWNER
1000
GEN
1002
}
1001
GENIUS_GENODEF_13
1002
{
1000
HIER
1070
     0
1002
}
1002
{
1000
MANEDIT
1070
     0
1002
}
1002
{
1000
NOSEL
1070
     0
1002
}
1002
{
1000
BEHIND
1070
     0
1002
}
1002
{
1000
OTHER
1070
     0
1002
}
1002
{
1000
REACTOR
1002
}
  0
LINE
  5
8417
330
6A34
100
AcDbEntity
  8
CUT
100
AcDbLine
 10
39.00000000000005
 20
2.881780999999786
 30
0.0
 11
39.00000000000005
 21
11.31826399999979
 31
0.0
  0
LINE
  5
8418
330
6A34
100
AcDbEntity
  8
1
100
AcDbLine
 10
39.00000000000005
 20
2.881780999999786
 30
0.0
 11
39.00000000000005
 21
11.31826399999979
 31
0.0
  0
ARC
  5
8419
330
6A34
100
AcDbEntity
  8
CUT
100
AcDbCircle
 10
38.31826400000008
 20
2.881780999999776
 30
0.0
 40
0.6817360000000001
100
AcDbArc
 50
269.9999999999979
 51
0.0000000000010178
1001
GENIUS_GENOBJ-N-FIL_13
1002
{
1000
OWNER
1000
GEN
1002
}
1001
GENIUS_GENODEF_13
1002
{
1000
HIER
1070
     0
1002
}
1002
{
1000
MANEDIT
1070
     0
1002
}
1002
{
1000
NOSEL
1070
     0
1002
}
1002
{
1000
BEHIND
1070
     0
1002
}
1002
{
1000
OTHER
1070
     0
1002
}
1002
{
1000
REACTOR
1002
}
  0
ARC
  5
841A
330
6A34
100
AcDbEntity
  8
1
100
AcDbCircle
 10
38.31826400000008
 20
2.881780999999776
 30
0.0
 40
0.6817360000000001
100
AcDbArc
 50
269.9999999999979
 51
0.0000000000010178
1001
GENIUS_GENOBJ-N-FIL_13
1002
{
1000
OWNER
1000
GEN
1002
}
1001
GENIUS_GENODEF_13
1002
{
1000
HIER
1070
     0
1002
}
1002
{
1000
MANEDIT
1070
     0
1002
}
1002
{
1000
NOSEL
1070
     0
1002
}
1002
{
1000
BEHIND
1070
     0
1002
}
1002
{
1000
OTHER
1070
     0
1002
}
1002
{
1000
REACTOR
1002
}
  0
ARC
  5
841D
330
6A34
100
AcDbEntity
  8
CUT
100
AcDbCircle
 10
38.31826400000005
 20
11.31826399999979
 30
0.0
 40
0.6817360000000001
100
AcDbArc
 50
0.0
 51
90.0
1001
GENIUS_GENODEF_13
1002
{
1000
HIER
1070
     0
1002
}
1002
{
1000
MANEDIT
1070
     0
1002
}
1002
{
1000
NOSEL
1070
     0
1002
}
1002
{
1000
BEHIND
1070
     0
1002
}
1002
{
1000
OTHER
1070
     0
1002
}
1002
{
1000
REACTOR
1002
}
1001
GENIUS_GENOBJ-N-FIL_13
1002
{
1000
OWNER
1000
GEN
1002
}
  0
ARC
  5
841E
330
6A34
100
AcDbEntity
  8
1
100
AcDbCircle
 10
38.31826400000005
 20
11.31826399999979
 30
0.0
 40
0.6817360000000001
100
AcDbArc
 50
0.0
 51
90.0
1001
GENIUS_GENODEF_13
1002
{
1000
HIER
1070
     0
1002
}
1002
{
1000
MANEDIT
1070
     0
1002
}
1002
{
1000
NOSEL
1070
     0
1002
}
1002
{
1000
BEHIND
1070
     0
1002
}
1002
{
1000
OTHER
1070
     0
1002
}
1002
{
1000
REACTOR
1002
}
1001
GENIUS_GENOBJ-N-FIL_13
1002
{
1000
OWNER
1000
GEN
1002
}
  0
LINE
  5
8426
330
6A34
100
AcDbEntity
  8
1
 48
0.3
100
AcDbLine
 10
39.00000000000012
 20
-11.31826160000021
 30
0.0
 11
39.00000000000012
 21
-2.881748900000209
 31
0.0
  0
LINE
  5
8428
330
6A34
100
AcDbEntity
  8
SK3
 48
0.3
100
AcDbLine
 10
29.20001050000013
 20
-2.881748900000209
 30
0.0
 11
29.20001050000013
 21
-10.91746801395359
 31
0.0
  0
CIRCLE
  5
8429
330
6A34
100
AcDbEntity
  8
SK3
100
AcDbCircle
 10
34.10000525000013
 20
-7.10000524999957
 30
0.0
 40
2.769562249999999
  0
LINE
  5
842A
330
6A34
100
AcDbEntity
  8
1
 48
0.3
100
AcDbLine
 10
29.88174890000013
 20
-12.00000000000021
 30
0.0
 11
38.31826160000014
 21
-12.00000000000021
 31
0.0
  0
ARC
  5
842C
330
6A34
100
AcDbEntity
  8
1
100
AcDbCircle
 10
29.88174890000013
 20
-11.31826160000021
 30
0.0
 40
0.6817384
100
AcDbArc
 50
180.0
 51
270.0
1001
GENIUS_GENOBJ-N-FIL_13
1002
{
1000
OWNER
1000
GEN
1002
}
1001
GENIUS_GENODEF_13
1002
{
1000
HIER
1070
     0
1002
}
1002
{
1000
MANEDIT
1070
     0
1002
}
1002
{
1000
NOSEL
1070
     0
1002
}
1002
{
1000
BEHIND
1070
     0
1002
}
1002
{
1000
OTHER
1070
     0
1002
}
1002
{
1000
REACTOR
1002
}
  0
LINE
  5
842D
330
6A34
100
AcDbEntity
  8
1
 48
0.3
100
AcDbLine
 10
29.20001050000013
 20
-10.91746801395359
 30
0.0
 11
29.20001050000013
 21
-11.31826160000021
 31
0.0
  0
ARC
  5
8430
330
6A34
100
AcDbEntity
  8
1
100
AcDbCircle
 10
38.31826160000017
 20
-11.31826160000022
 30
0.0
 40
0.6817384
100
AcDbArc
 50
269.9999999999979
 51
0.0000000000010178
1001
GENIUS_GENOBJ-N-FIL_13
1002
{
1000
OWNER
1000
GEN
1002
}
1001
GENIUS_GENODEF_13
1002
{
1000
HIER
1070
     0
1002
}
1002
{
1000
MANEDIT
1070
     0
1002
}
1002
{
1000
NOSEL
1070
     0
1002
}
1002
{
1000
BEHIND
1070
     0
1002
}
1002
{
1000
OTHER
1070
     0
1002
}
1002
{
1000
REACTOR
1002
}
  0
LINE
  5
8432
330
6A34
100
AcDbEntity
  8
SK3
 48
0.3
100
AcDbLine
 10
29.88174890000013
 20
-2.200010500000212
 30
0.0
 11
37.75548977143659
 21
-2.200010500000212
 31
0.0
  0
ARC
  5
8433
330
6A34
100
AcDbEntity
  8
SK3
100
AcDbCircle
 10
29.88174890000013
 20
-2.881748900000216
 30
0.0
 40
0.6817384
100
AcDbArc
 50
90.0
 51
179.9999999999994
1001
GENIUS_GENOBJ-N-FIL_13
1002
{
1000
OWNER
1000
GEN
1002
}
1001
GENIUS_GENODEF_13
1002
{
1000
HIER
1070
     0
1002
}
1002
{
1000
MANEDIT
1070
     0
1002
}
1002
{
1000
NOSEL
1070
     0
1002
}
1002
{
1000
BEHIND
1070
     0
1002
}
1002
{
1000
OTHER
1070
     0
1002
}
1002
{
1000
REACTOR
1002
}
  0
ARC
  5
8434
330
6A34
100
AcDbEntity
  8
1
100
AcDbCircle
 10
38.31826160000014
 20
-2.881748900000209
 30
0.0
 40
0.6817384
100
AcDbArc
 50
0.0
 51
90.0
1001
GENIUS_GENODEF_13
1002
{
1000
HIER
1070
     0
1002
}
1002
{
1000
MANEDIT
1070
     0
1002
}
1002
{
1000
NOSEL
1070
     0
1002
}
1002
{
1000
BEHIND
1070
     0
1002
}
1002
{
1000
OTHER
1070
     0
1002
}
1002
{
1000
REACTOR
1002
}
1001
GENIUS_GENOBJ-N-FIL_13
1002
{
1000
OWNER
1000
GEN
1002
}
  0
LINE
  5
8435
330
6A34
100
AcDbEntity
  8
1
 48
0.3
100
AcDbLine
 10
37.75548977143659
 20
-2.200010500000212
 30
0.0
 11
38.31826160000014
 21
-2.200010500000212
 31
0.0
  0
LINE
  5
844B
330
6A34
100
AcDbEntity
  8
1
100
AcDbLine
 10
37.75548977143657
 20
1.865466617155465
 30
0.0
 11
17.77503209292207
 21
1.865466617155465
 31
0.0
  0
LINE
  5
8485
330
6A34
100
AcDbEntity
  8
1
100
AcDbLine
 10
0.0000000000002416
 20
12.49999999999977
 30
0.0
 11
3.101980385988326
 21
10.9174680139533
 31
0.0
  0
LINE
  5
8486
330
6A34
100
AcDbEntity
  8
1
100
AcDbLine
 10
3.101980385988341
 20
9.306352795150866
 30
0.0
 11
3.10198038598853
 21
-10.91746801395324
 31
0.0
  0
LINE
  5
8487
330
6A34
100
AcDbEntity
  8
1
100
AcDbLine
 10
3.10198038598853
 20
-10.91746801395324
 30
0.0
 11
0.0000000000002416
 21
-12.50000000000022
 31
0.0
  0
LINE
  5
8496
330
6A34
100
AcDbEntity
  8
NOCUT
100
AcDbLine
 10
0.0
 20
-12.50000000000032
 30
0.0
 11
3.101980385988418
 21
-10.9174680139533
 31
0.0
  0
LINE
  5
8499
330
6A34
100
AcDbEntity
  8
NOCUT
100
AcDbLine
 10
37.75548977143657
 20
-0.0000000000002271
 30
0.0
 11
37.75548977143657
 21
-10.91746801395368
 31
0.0
  0
DIMENSION
  5
84C7
330
6A34
100
AcDbEntity
  8
2
100
AcDbDimension
  2
*D2
 10
68.68057190997046
 20
-12.00000000000022
 30
0.0
 11
65.43022742178149
 21
-0.0000000000002072
 31
0.0
 70
    32
  1
%%c<>
 71
     5
 42
24.0
  3
AM_DIN
100
AcDbAlignedDimension
 13
39.00000000000005
 23
11.99999999999979
 33
0.0
 14
39.00000000000011
 24
-12.00000000000021
 34
0.0
 50
90.00000000000003
100
AcDbRotatedDimension
  0
DIMENSION
  5
84F8
330
6A34
100
AcDbEntity
  8
2
100
AcDbDimension
  2
*D3
 10
55.95558695428151
 20
-3.250000000000213
 30
0.0
 11
53.23038086850939
 21
7.708840243272561
 31
0.0
 70
   160
  1
%%c<>
 71
     5
 42
6.5
  3
AM_DIN
100
AcDbAlignedDimension
 13
39.00000000000005
 23
3.249999999999791
 33
0.0
 14
39.00000000000012
 24
-3.250000000000208
 34
0.0
 50
90.0
100
AcDbRotatedDimension
  0
DIMENSION
  5
857F
330
6A34
100
AcDbEntity
  8
SK2
100
AcDbDimension
  2
*D4
 10
-55.99999999999994
 20
-34.91818052032448
 30
0.0
 11
-8.499999999999914
 21
-31.66818052032448
 31
0.0
 70
    32
 71
     5
 42
95.00000000000005
  3
AM_DIN
100
AcDbAlignedDimension
 13
39.00000000000011
 23
-12.00000000000021
 33
0.0
 14
-55.99999999999994
 24
-11.50000000000022
 34
0.0
 50
0.0000000000001132
100
AcDbRotatedDimension
  0
DIMENSION
  5
8603
330
6A34
100
AcDbEntity
  8
2
100
AcDbDimension
  2
*D5
 10
0.0000000000002454
 20
74.99999999999992
 30
0.0
 11
19.50000000000015
 21
78.24999999999992
 31
0.0
 70
    32
 71
     5
 42
38.99999999999981
  3
AM_DIN
100
AcDbAlignedDimension
 13
39.00000000000005
 23
11.99999999999979
 33
0.0
 14
0.0000000000002416
 24
12.49999999999977
 34
0.0
100
AcDbRotatedDimension
  0
DIMENSION
  5
865E
330
6A34
100
AcDbEntity
  8
2
100
AcDbDimension
  2
*D6
 10
15.00000000000005
 20
59.99999999999989
 30
0.0
 11
27.00000000000005
 21
63.25034448818886
 31
0.0
 70
    32
 71
     5
 42
24.0
  3
AM_DIN
100
AcDbAlignedDimension
 13
39.00000000000005
 23
11.99999999999979
 33
0.0
 14
15.00000000000005
 24
10.9174680139533
 34
0.0
100
AcDbRotatedDimension
  0
ARC
  5
8695
330
6A34
100
AcDbEntity
  8
SK3
 48
0.3
100
AcDbCircle
 10
15.8740722691135
 20
-16.30457136845592
 30
0.0
 40
14.56370125588852
100
AcDbArc
 50
82.49993907285109
 51
160.3071741096119
  0
LINE
  5
8696
330
6A34
100
AcDbEntity
  8
SK3
 48
0.3
100
AcDbLine
 10
37.75548977143644
 20
-1.865466617156525
 30
0.0
 11
17.77503209292195
 21
-1.865466617155202
 31
0.0
  0
CIRCLE
  5
86A7
330
6A34
100
AcDbEntity
  8
SK1
100
AcDbCircle
 10
0.0000000000001206
 20
-0.0000000000001206
 30
0.0
 40
2.700115174948665
  0
LINE
  5
86AC
330
6A34
100
AcDbEntity
  8
4
100
AcDbLine
 10
2.295975744989289
 20
0.0000000000001895
 30
0.0
 11
25.28046652929954
 21
-3.212155069704286
 31
0.0
  0
ENDSEC
  0
SECTION
  2
OBJECTS
  0
DICTIONARY
  5
6A22
330
0
100
AcDbDictionary
281
     1
  3
ACAD_GROUP
350
6A23
  3
ACAD_LAYOUT
350
6A2F
  3
ACAD_MLINESTYLE
350
6A2C
  3
ACAD_PLOTSETTINGS
350
6A2E
  3
ACAD_PLOTSTYLENAME
350
6A24
  3
AcDbVariableDictionary
350
6B78
  3
AcmDictionary
350
6B39
  3
AMG
350
6B22
  3
AMGSNAPSETTINGS
350
6B59
  3
DWGPROPS
350
8713
  0
DICTIONARY
  5
6B62
330
6A34
100
AcDbDictionary
280
     1
281
     1
  3
ACAD_INDEX
360
6B63
  0
DICTIONARY
  5
6A23
102
{ACAD_REACTORS
330
6A22
102
}
330
6A22
100
AcDbDictionary
281
     1
  0
DICTIONARY
  5
6A2F
102
{ACAD_REACTORS
330
6A22
102
}
330
6A22
100
AcDbDictionary
281
     1
  3
Layout1
350
6A33
  3
Model
350
6A37
  0
DICTIONARY
  5
6A2C
102
{ACAD_REACTORS
330
6A22
102
}
330
6A22
100
AcDbDictionary
281
     1
  3
Standard
350
6A2D
  0
DICTIONARY
  5
6A2E
102
{ACAD_REACTORS
330
6A22
102
}
330
6A22
100
AcDbDictionary
281
     1
  0
ACDBDICTIONARYWDFLT
  5
6A24
102
{ACAD_REACTORS
330
6A22
102
}
330
6A22
100
AcDbDictionary
281
     1
  3
Normal
350
6A25
100
AcDbDictionaryWithDefault
340
6A25
  0
DICTIONARY
  5
6B78
102
{ACAD_REACTORS
330
6A22
102
}
330
6A22
100
AcDbDictionary
281
     1
  3
DIMASSOC
350
6B7A
  3
INDEXCTL
350
6B79
  0
DICTIONARY
  5
6B39
102
{ACAD_REACTORS
330
6A22
102
}
330
6A22
100
AcDbDictionary
281
     1
  3
AcmBOMDATA
350
6B3A
  3
AcmStdDictionary
350
6B3F
  0
DICTIONARY
  5
6B22
102
{ACAD_REACTORS
330
6A22
102
}
330
6A22
100
AcDbDictionary
281
     1
  3
AcMgSettings
350
6B23
  3
AMGLAYCFG
350
6B41
  0
DICTIONARY
  5
6B59
102
{ACAD_REACTORS
330
6A22
102
}
330
6A22
100
AcDbDictionary
281
     1
  3
DIMENSION
350
764F
  3
FEA
350
7650
  3
HATCH (1)
350
7651
  3
HATCH (2)
350
7652
  3
SIMPLE WELD
350
7653
  3
SYMBOLS
350
7654
  0
XRECORD
  5
8713
102
{ACAD_REACTORS
330
6A22
102
}
330
6A22
100
AcDbXrecord
280
     1
  1
DWGPROPS COOKIE
  2

  3

  4

  6

  7

  8

  9

300
AmdtFileType=84
301
=
302
=
303
=
304
=
305
=
306
=
307
=
308
=
309
=
 40
0.1589085300925926
 41
2453447.43007081
 42
2453793.330458056
  1

 90
        1
  0
DICTIONARY
  5
6B63
102
{ACAD_REACTORS
330
6B62
102
}
330
6B62
100
AcDbDictionary
281
     1
  3
*A1
350
6B64
  0
LAYOUT
  5
6A33
102
{ACAD_REACTORS
330
6A2F
102
}
330
6A2F
100
AcDbPlotSettings
  1

  2
HP DesignJet 220 (D/A1) by HP
  4

  6

 40
0.0
 41
0.0
 42
0.0
 43
0.0
 44
0.0
 45
0.0
 46
0.0
 47
0.0
 48
0.0
 49
0.0
140
0.0
141
0.0
142
1.0
143
1.0
 70
   688
 72
     0
 73
     0
 74
     5
  7
monochrome2.ctb
 75
    16
147
1.0
148
0.0
149
0.0
100
AcDbLayout
  1
Layout1
 70
     1
 71
     1
 10
0.0
 20
0.0
 11
420.0
 21
297.0
 12
0.0
 22
0.0
 32
0.0
 14
1.000000000000000E+20
 24
1.000000000000000E+20
 34
1.000000000000000E+20
 15
-1.000000000000000E+20
 25
-1.000000000000000E+20
 35
-1.000000000000000E+20
146
0.0
 13
0.0
 23
0.0
 33
0.0
 16
1.0
 26
0.0
 36
0.0
 17
0.0
 27
1.0
 37
0.0
 76
     0
330
6A30
  0
LAYOUT
  5
6A37
102
{ACAD_REACTORS
330
6A2F
102
}
330
6A2F
100
AcDbPlotSettings
  1

  2
HP DesignJet 220 (D/A1) by HP
  4

  6

 40
0.0
 41
0.0
 42
0.0
 43
0.0
 44
0.0
 45
0.0
 46
0.0
 47
0.0
 48
0.0
 49
0.0
140
0.0
141
0.0
142
1.0
143
1.0
 70
  1712
 72
     0
 73
     0
 74
     0
  7
monochrome2.ctb
 75
     0
147
1.0
148
0.0
149
0.0
100
AcDbLayout
  1
Model
 70
     1
 71
     0
 10
0.0
 20
0.0
 11
12.0
 21
9.0
 12
0.0
 22
0.0
 32
0.0
 14
0.0
 24
0.0
 34
0.0
 15
0.0
 25
0.0
 35
0.0
146
0.0
 13
0.0
 23
0.0
 33
0.0
 16
1.0
 26
0.0
 36
0.0
 17
0.0
 27
1.0
 37
0.0
 76
     0
330
6A34
  0
MLINESTYLE
  5
6A2D
102
{ACAD_REACTORS
330
6A2C
102
}
330
6A2C
100
AcDbMlineStyle
  2
STANDARD
 70
     0
  3

 62
   256
 51
90.0
 52
90.0
 71
     2
 49
0.5
 62
   256
  6
BYLAYER
 49
-0.5
 62
   256
  6
BYLAYER
  0
ACDBPLACEHOLDER
  5
6A25
102
{ACAD_REACTORS
330
6A24
102
}
330
6A24
  0
DICTIONARYVAR
  5
6B7A
102
{ACAD_REACTORS
330
6B78
102
}
330
6B78
100
DictionaryVariables
280
     0
  1
1
  0
DICTIONARYVAR
  5
6B79
102
{ACAD_REACTORS
330
6B78
102
}
330
6B78
100
DictionaryVariables
280
     0
  1
1
  0
ACMDATADICTIONARY
  5
6B3A
102
{ACAD_REACTORS
330
6B39
102
}
330
6B39
100
AcDbDictionary
281
     1
  3
*A1
350
6B3B
100
AcmDataDictionary
  0
DICTIONARY
  5
6B3F
102
{ACAD_REACTORS
330
6B39
102
}
330
6B39
100
AcDbDictionary
281
     1
  3
ANSI
350
6B40
  3
DIN
350
6DBB
  0
DICTIONARY
  5
6B23
102
{ACAD_REACTORS
330
6B22
102
}
330
6B22
100
AcDbDictionary
281
     1
  3
DWGSETTINGS
350
6B24
  3
FEM
350
7FA9
  3
Shaft
350
764E
  3
TRANSSETTINGS
350
6B25
  0
ACAMGFILTERDAT
  5
764F
102
{ACAD_REACTORS
330
6B59
102
}
330
6B59
100
AcAmgFilterDat
 70
    15
  1
DIMENSION,AMDT_*_DIM
  2
*
  3
*
  4
*
  5
*
290
     0
  0
ACAMGFILTERDAT
  5
7650
102
{ACAD_REACTORS
330
6B59
102
}
330
6B59
100
AcAmgFilterDat
 70
    15
  1
*
  2
AM_FEA-AM_*
  3
*
  4
*
  5
*
290
     1
  0
ACAMGFILTERDAT
  5
7651
102
{ACAD_REACTORS
330
6B59
102
}
330
6B59
100
AcAmgFilterDat
 70
    15
  1
HATCH
  2
*
  3
*
  4
*
  5
*
290
     1
  0
ACAMGFILTERDAT
  5
7652
102
{ACAD_REACTORS
330
6B59
102
}
330
6B59
100
AcAmgFilterDat
 70
    15
  1
LINE
  2
8,8N,*-8,*-8N,AM_8,AM_8N,*-AM_8,*-AM_8N
  3
*
  4
*
  5
INSERT,STDPART2D
290
     1
  0
ACAMGFILTERDAT
  5
7653
102
{ACAD_REACTORS
330
6B59
102
}
330
6B59
100
AcAmgFilterDat
 70
    15
  1
ARC
  2
AM_5
  3
*
  4
2
  5
INSERT
290
     0
  0
ACAMGFILTERDAT
  5
7654
102
{ACAD_REACTORS
330
6B59
102
}
330
6B59
100
AcAmgFilterDat
 70
    15
  1
ACMFCFRAME,ACMDATUMTARGET,ACMDATUMID,ACMWELDSYM,ACMSURFSYM,ACMFEATID,ACMPARTREF,ACMBALLOON,AMDTEDGESYM,AMGSCREWCALCTABLE
  2
*
  3
*
  4
*
  5
*
290
     1
  0
LAYER_INDEX
  5
6B64
102
{ACAD_REACTORS
330
6B63
102
}
330
6B63
100
AcDbIndex
 40
2453793.330817257
100
AcDbLayerIndex
  8
0
360
6B65
 90
        0
  8
DEFPOINTS
360
6B66
 90
        0
  8
1
360
6B67
 90
       25
  8
2
360
6B68
 90
        4
  8
4
360
6B69
 90
        3
  8
6
360
6B6A
 90
        3
  8
SK1
360
6B6B
 90
       26
  8
SK2
360
6B6C
 90
        2
  8
SK3
360
6B6D
 90
        6
  8
SK4
360
6B6E
 90
        1
  8
CUT
360
6B6F
 90
        8
  8
NOCUT
360
6B70
 90
        5
  0
ACMDATAENTRYBLOCK
  5
6B3B
102
{ACAD_REACTORS
330
6B3A
102
}
330
6B3A
100
AcmDataEntry
100
AcmDataEntryBlock
  0
IDBUFFER
  5
6B65
330
0
100
AcDbIdBuffer
  0
IDBUFFER
  5
6B66
330
0
100
AcDbIdBuffer
  0
IDBUFFER
  5
6B67
330
0
100
AcDbIdBuffer
330
7544
330
811E
330
8147
330
814F
330
816C
330
840C
330
840F
330
8410
330
8412
330
8414
330
8416
330
8418
330
841A
330
841E
330
8426
330
842A
330
842C
330
842D
330
8430
330
8434
330
8435
330
844B
330
8485
330
8486
330
8487
  0
IDBUFFER
  5
6B68
330
0
100
AcDbIdBuffer
330
84C7
330
84F8
330
8603
330
865E
  0
IDBUFFER
  5
6B69
330
0
100
AcDbIdBuffer
330
755F
330
8027
330
86AC
  0
IDBUFFER
  5
6B6A
330
0
100
AcDbIdBuffer
330
7545
330
758D
330
7F0E
  0
IDBUFFER
  5
6B6B
330
0
100
AcDbIdBuffer
330
7529
330
752B
330
752D
330
752E
330
752F
330
7530
330
7531
330
7532
330
7533
330
7534
330
7535
330
7536
330
7537
330
7538
330
7539
330
753A
330
753B
330
7554
330
7555
330
7556
330
7561
330
7563
330
7588
330
7589
330
758A
330
86A7
  0
IDBUFFER
  5
6B6C
330
0
100
AcDbIdBuffer
330
752C
330
857F
  0
IDBUFFER
  5
6B6D
330
0
100
AcDbIdBuffer
330
8428
330
8429
330
8432
330
8433
330
8695
330
8696
  0
IDBUFFER
  5
6B6E
330
0
100
AcDbIdBuffer
330
752A
  0
IDBUFFER
  5
6B6F
330
0
100
AcDbIdBuffer
330
840D
330
840E
330
8411
330
8413
330
8415
330
8417
330
8419
330
841D
  0
IDBUFFER
  5
6B70
330
0
100
AcDbIdBuffer
330
753E
330
755E
330
8120
330
8496
330
8499
  0
ENDSEC
  0
EOF
