  0
SECTION
  2
HEADER
  9
$ACADVER
  1
AC1015
  9
$ACADMAINTVER
 70
    20
  9
$DWGCODEPAGE
  3
ANSI_1252
  9
$INSBASE
 10
0.0
 20
0.0
 30
0.0
  9
$EXTMIN
 10
-31.69586282229579
 20
-26.74440698690251
 30
-0.0015258207003583
  9
$EXTMAX
 10
80.15046127759729
 20
29.45066636589195
 30
0.0000000349246037
  9
$LIMMIN
 10
0.0
 20
0.0
  9
$LIMMAX
 10
594.0
 20
420.0
  9
$ORTHOMODE
 70
     0
  9
$REGENMODE
 70
     1
  9
$FILLMODE
 70
     1
  9
$QTEXTMODE
 70
     0
  9
$MIRRTEXT
 70
     1
  9
$LTSCALE
 40
10.0
  9
$ATTMODE
 70
     1
  9
$TEXTSIZE
 40
0.2
  9
$TRACEWID
 40
0.05
  9
$TEXTSTYLE
  7
STANDARD
  9
$CLAYER
  8
0
  9
$CELTYPE
  6
ByLayer
  9
$CECOLOR
 62
   256
  9
$CELTSCALE
 40
1.0
  9
$DISPSILH
 70
     0
  9
$DIMSCALE
 40
1.0
  9
$DIMASZ
 40
2.5
  9
$DIMEXO
 40
0.625
  9
$DIMDLI
 40
3.75
  9
$DIMRND
 40
0.0
  9
$DIMDLE
 40
0.0
  9
$DIMEXE
 40
1.25
  9
$DIMTP
 40
0.0
  9
$DIMTM
 40
0.0
  9
$DIMTXT
 40
2.5
  9
$DIMCEN
 40
2.5
  9
$DIMTSZ
 40
0.0
  9
$DIMTOL
 70
     0
  9
$DIMLIM
 70
     0
  9
$DIMTIH
 70
     0
  9
$DIMTOH
 70
     0
  9
$DIMSE1
 70
     0
  9
$DIMSE2
 70
     0
  9
$DIMTAD
 70
     1
  9
$DIMZIN
 70
     8
  9
$DIMBLK
  1

  9
$DIMASO
 70
     1
  9
$DIMSHO
 70
     1
  9
$DIMPOST
  1

  9
$DIMAPOST
  1

  9
$DIMALT
 70
     0
  9
$DIMALTD
 70
     3
  9
$DIMALTF
 40
0.03937007874016
  9
$DIMLFAC
 40
1.0
  9
$DIMTOFL
 70
     1
  9
$DIMTVP
 40
0.0
  9
$DIMTIX
 70
     0
  9
$DIMSOXD
 70
     0
  9
$DIMSAH
 70
     0
  9
$DIMBLK1
  1

  9
$DIMBLK2
  1

  9
$DIMSTYLE
  2
ISO-25
  9
$DIMCLRD
 70
     0
  9
$DIMCLRE
 70
     0
  9
$DIMCLRT
 70
     0
  9
$DIMTFAC
 40
1.0
  9
$DIMGAP
 40
0.625
  9
$DIMJUST
 70
     0
  9
$DIMSD1
 70
     0
  9
$DIMSD2
 70
     0
  9
$DIMTOLJ
 70
     0
  9
$DIMTZIN
 70
     8
  9
$DIMALTZ
 70
     0
  9
$DIMALTTZ
 70
     0
  9
$DIMUPT
 70
     0
  9
$DIMDEC
 70
     2
  9
$DIMTDEC
 70
     2
  9
$DIMALTU
 70
     2
  9
$DIMALTTD
 70
     3
  9
$DIMTXSTY
  7
STANDARD
  9
$DIMAUNIT
 70
     0
  9
$DIMADEC
 70
     0
  9
$DIMALTRND
 40
0.0
  9
$DIMAZIN
 70
     0
  9
$DIMDSEP
 70
    44
  9
$DIMATFIT
 70
     3
  9
$DIMFRAC
 70
     0
  9
$DIMLDRBLK
  1

  9
$DIMLUNIT
 70
     2
  9
$DIMLWD
 70
    -2
  9
$DIMLWE
 70
    -2
  9
$DIMTMOVE
 70
     0
  9
$LUNITS
 70
     2
  9
$LUPREC
 70
     4
  9
$SKETCHINC
 40
0.1
  9
$FILLETRAD
 40
0.0
  9
$AUNITS
 70
     0
  9
$AUPREC
 70
     0
  9
$MENU
  1
ACAD
  9
$ELEVATION
 40
0.0
  9
$PELEVATION
 40
0.0
  9
$THICKNESS
 40
0.0
  9
$LIMCHECK
 70
     0
  9
$CHAMFERA
 40
0.0
  9
$CHAMFERB
 40
0.0
  9
$CHAMFERC
 40
0.0
  9
$CHAMFERD
 40
0.0
  9
$SKPOLY
 70
     0
  9
$TDCREATE
 40
2305814.125509387
  9
$TDUCREATE
 40
6.0000000000
  9
$TDUPDATE
 40
2454210.353510312
  9
$TDUUPDATE
 40
2454210.270176979
  9
$TDINDWG
 40
0.0511923958
  9
$TDUSRTIMER
 40
0.0511922106
  9
$USRTIMER
 70
     1
  9
$ANGBASE
 50
0.0
  9
$ANGDIR
 70
     0
  9
$PDMODE
 70
     0
  9
$PDSIZE
 40
3.0
  9
$PLINEWID
 40
0.0
  9
$SPLFRAME
 70
     0
  9
$SPLINETYPE
 70
     6
  9
$SPLINESEGS
 70
     8
  9
$HANDSEED
  5
3CD8
  9
$SURFTAB1
 70
     6
  9
$SURFTAB2
 70
     6
  9
$SURFTYPE
 70
     6
  9
$SURFU
 70
     6
  9
$SURFV
 70
     6
  9
$UCSBASE
  2

  9
$UCSNAME
  2

  9
$UCSORG
 10
0.0
 20
0.0
 30
0.0
  9
$UCSXDIR
 10
1.0
 20
0.0
 30
0.0
  9
$UCSYDIR
 10
0.0
 20
1.0
 30
0.0
  9
$UCSORTHOREF
  2

  9
$UCSORTHOVIEW
 70
     0
  9
$UCSORGTOP
 10
0.0
 20
0.0
 30
0.0
  9
$UCSORGBOTTOM
 10
0.0
 20
0.0
 30
0.0
  9
$UCSORGLEFT
 10
0.0
 20
0.0
 30
0.0
  9
$UCSORGRIGHT
 10
0.0
 20
0.0
 30
0.0
  9
$UCSORGFRONT
 10
0.0
 20
0.0
 30
0.0
  9
$UCSORGBACK
 10
0.0
 20
0.0
 30
0.0
  9
$PUCSBASE
  2

  9
$PUCSNAME
  2

  9
$PUCSORG
 10
0.0
 20
0.0
 30
0.0
  9
$PUCSXDIR
 10
1.0
 20
0.0
 30
0.0
  9
$PUCSYDIR
 10
0.0
 20
1.0
 30
0.0
  9
$PUCSORTHOREF
  2

  9
$PUCSORTHOVIEW
 70
     0
  9
$PUCSORGTOP
 10
0.0
 20
0.0
 30
0.0
  9
$PUCSORGBOTTOM
 10
0.0
 20
0.0
 30
0.0
  9
$PUCSORGLEFT
 10
0.0
 20
0.0
 30
0.0
  9
$PUCSORGRIGHT
 10
0.0
 20
0.0
 30
0.0
  9
$PUCSORGFRONT
 10
0.0
 20
0.0
 30
0.0
  9
$PUCSORGBACK
 10
0.0
 20
0.0
 30
0.0
  9
$USERI1
 70
     0
  9
$USERI2
 70
     0
  9
$USERI3
 70
     0
  9
$USERI4
 70
     0
  9
$USERI5
 70
     0
  9
$USERR1
 40
0.0
  9
$USERR2
 40
0.0
  9
$USERR3
 40
0.0
  9
$USERR4
 40
0.0
  9
$USERR5
 40
0.0
  9
$WORLDVIEW
 70
     1
  9
$SHADEDGE
 70
     3
  9
$SHADEDIF
 70
    70
  9
$TILEMODE
 70
     1
  9
$MAXACTVP
 70
    16
  9
$PINSBASE
 10
0.0
 20
0.0
 30
0.0
  9
$PLIMCHECK
 70
     0
  9
$PEXTMIN
 10
0.0
 20
0.0
 30
0.0
  9
$PEXTMAX
 10
0.0
 20
0.0
 30
0.0
  9
$PLIMMIN
 10
0.0
 20
0.0
  9
$PLIMMAX
 10
12.0
 20
9.0
  9
$UNITMODE
 70
     0
  9
$VISRETAIN
 70
     0
  9
$PLINEGEN
 70
     1
  9
$PSLTSCALE
 70
     0
  9
$TREEDEPTH
 70
  3020
  9
$CMLSTYLE
  2
Standard
  9
$CMLJUST
 70
     0
  9
$CMLSCALE
 40
1.0
  9
$PROXYGRAPHICS
 70
     1
  9
$MEASUREMENT
 70
     0
  9
$CELWEIGHT
370
    -1
  9
$ENDCAPS
280
     0
  9
$JOINSTYLE
280
     0
  9
$LWDISPLAY
290
     0
  9
$INSUNITS
 70
     0
  9
$HYPERLINKBASE
  1

  9
$STYLESHEET
  1

  9
$XEDIT
290
     1
  9
$CEPSNTYPE
380
     0
  9
$PSTYLEMODE
290
     1
  9
$FINGERPRINTGUID
  2
{8625ED2A-6A8D-469D-9762-DDB3013356EF}
  9
$VERSIONGUID
  2
{2B1C511A-B569-4D02-A654-A1CCB8B73202}
  9
$EXTNAMES
290
     1
  9
$PSVPSCALE
 40
0.0
  9
$OLESTARTUP
290
     0
  0
ENDSEC
  0
SECTION
  2
CLASSES
  0
CLASS
  1
ACDBDICTIONARYWDFLT
  2
AcDbDictionaryWithDefault
  3
ObjectDBX Classes
 90
        0
280
     0
281
     0
  0
CLASS
  1
TABLESTYLE
  2
AcDbTableStyle
  3
ObjectDBX Classes
 90
     2047
280
     0
281
     0
  0
CLASS
  1
SORTENTSTABLE
  2
AcDbSortentsTable
  3
ObjectDBX Classes
 90
        0
280
     0
281
     0
  0
CLASS
  1
DICTIONARYVAR
  2
AcDbDictionaryVar
  3
ObjectDBX Classes
 90
        0
280
     0
281
     0
  0
CLASS
  1
ACDBPLACEHOLDER
  2
AcDbPlaceHolder
  3
ObjectDBX Classes
 90
        0
280
     0
281
     0
  0
CLASS
  1
LAYOUT
  2
AcDbLayout
  3
ObjectDBX Classes
 90
        0
280
     0
281
     0
  0
ENDSEC
  0
SECTION
  2
TABLES
  0
TABLE
  2
VPORT
  5
8
330
0
100
AcDbSymbolTable
 70
     7
  0
VPORT
  5
3CD2
330
8
100
AcDbSymbolTableRecord
100
AcDbViewportTableRecord
  2
*Active
 70
     0
 10
0.0
 20
0.0
 11
1.0
 21
1.0
 12
24.22729922765076
 22
1.353129689494721
 13
0.0
 23
0.0
 14
1.0
 24
1.0
 15
0.0
 25
0.0
 16
0.0
 26
0.0
 36
1.0
 17
0.0
 27
0.0
 37
0.0
 40
74.22045379867231
 41
1.514429109159347
 42
50.0
 43
0.0
 44
0.0
 50
0.0
 51
0.0
 71
     0
 72
   100
 73
     1
 74
     1
 75
     0
 76
     0
 77
     0
 78
     0
281
     0
 65
     1
110
0.0
120
0.0
130
0.0
111
1.0
121
0.0
131
0.0
112
0.0
122
1.0
132
0.0
 79
     0
146
0.0
  0
ENDTAB
  0
TABLE
  2
LTYPE
  5
5
330
0
100
AcDbSymbolTable
 70
     6
  0
LTYPE
  5
13
330
5
100
AcDbSymbolTableRecord
100
AcDbLinetypeTableRecord
  2
ByBlock
 70
     0
  3

 72
    65
 73
     0
 40
0.0
  0
LTYPE
  5
14
330
5
100
AcDbSymbolTableRecord
100
AcDbLinetypeTableRecord
  2
ByLayer
 70
     0
  3

 72
    65
 73
     0
 40
0.0
  0
LTYPE
  5
15
330
5
100
AcDbSymbolTableRecord
100
AcDbLinetypeTableRecord
  2
CONTINUOUS
 70
     0
  3
Solid line
 72
    65
 73
     0
 40
0.0
  0
LTYPE
  5
27
330
5
100
AcDbSymbolTableRecord
100
AcDbLinetypeTableRecord
  2
CENTER
 70
     0
  3
____ _ ____ _ ____ _ ____ _ ____ _ ____ _ ____
 72
    65
 73
     4
 40
0.6
 49
0.375
 74
     0
 49
-0.075
 74
     0
 49
0.075
 74
     0
 49
-0.075
 74
     0
  0
LTYPE
  5
28
330
5
100
AcDbSymbolTableRecord
100
AcDbLinetypeTableRecord
  2
HIDDEN
 70
     0
  3
- - - - - - - - - - - - - - - - - - - -
 72
    65
 73
     2
 40
0.2
 49
0.1
 74
     0
 49
-0.1
 74
     0
  0
ENDTAB
  0
TABLE
  2
LAYER
  5
2
330
0
100
AcDbSymbolTable
 70
    18
  0
LAYER
  5
10
330
2
100
AcDbSymbolTableRecord
100
AcDbLayerTableRecord
  2
0
 70
     0
 62
     7
  6
CONTINUOUS
370
    -3
390
F
  0
LAYER
  5
2C
330
2
100
AcDbSymbolTableRecord
100
AcDbLayerTableRecord
  2
SK1
 70
     0
 62
     4
  6
CONTINUOUS
370
    -3
390
F
  0
LAYER
  5
2D
330
2
100
AcDbSymbolTableRecord
100
AcDbLayerTableRecord
  2
1
 70
     0
 62
     4
  6
CONTINUOUS
370
    -3
390
F
  0
LAYER
  5
2E
330
2
100
AcDbSymbolTableRecord
100
AcDbLayerTableRecord
  2
2
 70
     0
 62
     7
  6
CONTINUOUS
370
    -3
390
F
  0
LAYER
  5
2F
330
2
100
AcDbSymbolTableRecord
100
AcDbLayerTableRecord
  2
SK2
 70
     0
 62
     7
  6
CONTINUOUS
370
    -3
390
F
  0
LAYER
  5
30
330
2
100
AcDbSymbolTableRecord
100
AcDbLayerTableRecord
  2
3
 70
     0
 62
     1
  6
HIDDEN
370
    -3
390
F
  0
LAYER
  5
31
330
2
100
AcDbSymbolTableRecord
100
AcDbLayerTableRecord
  2
SK3
 70
     0
 62
     1
  6
HIDDEN
370
    -3
390
F
  0
LAYER
  5
32
330
2
100
AcDbSymbolTableRecord
100
AcDbLayerTableRecord
  2
4
 70
     0
 62
     2
  6
CENTER
370
    -3
390
F
  0
LAYER
  5
33
330
2
100
AcDbSymbolTableRecord
100
AcDbLayerTableRecord
  2
SK4
 70
     0
 62
     2
  6
CENTER
370
    -3
390
F
  0
LAYER
  5
36
330
2
100
AcDbSymbolTableRecord
100
AcDbLayerTableRecord
  2
6
 70
     0
 62
     5
  6
CONTINUOUS
370
    -3
390
F
  0
LAYER
  5
38FC
330
2
100
AcDbSymbolTableRecord
100
AcDbLayerTableRecord
  2
Defpoints
 70
     0
 62
     7
  6
CONTINUOUS
290
     0
370
    -3
390
F
  0
LAYER
  5
38FD
330
2
100
AcDbSymbolTableRecord
100
AcDbLayerTableRecord
  2
CUT
 70
     0
 62
     1
  6
CONTINUOUS
370
    -3
390
F
  0
LAYER
  5
38FE
330
2
100
AcDbSymbolTableRecord
100
AcDbLayerTableRecord
  2
NOCUT
 70
     0
 62
     7
  6
CONTINUOUS
370
    -3
390
F
  0
ENDTAB
  0
TABLE
  2
STYLE
  5
3
330
0
100
AcDbSymbolTable
 70
     3
  0
STYLE
  5
11
330
3
100
AcDbSymbolTableRecord
100
AcDbTextStyleTableRecord
  2
STANDARD
 70
     0
 40
0.0
 41
0.8
 50
0.0
 71
     0
 42
0.2
  3
ISOCP
  4

  0
ENDTAB
  0
TABLE
  2
VIEW
  5
6
330
0
100
AcDbSymbolTable
 70
     0
  0
ENDTAB
  0
TABLE
  2
UCS
  5
7
330
0
100
AcDbSymbolTable
 70
     0
  0
ENDTAB
  0
TABLE
  2
APPID
  5
9
330
0
100
AcDbSymbolTable
 70
     1
  0
APPID
  5
12
330
9
100
AcDbSymbolTableRecord
100
AcDbRegAppTableRecord
  2
ACAD
 70
     0
  0
ENDTAB
  0
TABLE
  2
DIMSTYLE
  5
A
330
0
100
AcDbSymbolTable
 70
     2
100
AcDbDimStyleTable
 71
     1
340
38FF
  0
DIMSTYLE
105
3A
330
A
100
AcDbSymbolTableRecord
100
AcDbDimStyleTableRecord
  2
STANDARD
 70
     0
279
     2
340
11
  0
DIMSTYLE
105
38FF
102
{ACAD_REACTORS
330
3903
330
3902
330
3901
330
39E5
330
39E6
330
778
330
779
330
798
330
3C61
330
3C80
102
}
330
A
100
AcDbSymbolTableRecord
100
AcDbDimStyleTableRecord
  2
ISO-25
 70
     0
 41
2.5
 42
0.625
 43
3.75
 44
1.25
 73
     0
 74
     0
 77
     1
 78
     8
140
2.5
141
2.5
143
0.03937007874016
147
0.625
171
     3
172
     1
271
     2
272
     2
274
     3
278
    44
283
     0
284
     8
340
11
  0
ENDTAB
  0
TABLE
  2
BLOCK_RECORD
  5
1
330
0
100
AcDbSymbolTable
 70
    82
  0
BLOCK_RECORD
  5
22
102
{ACAD_XDICTIONARY
360
3BDF
102
}
330
1
100
AcDbSymbolTableRecord
100
AcDbBlockTableRecord
  2
*Model_Space
340
25
  0
BLOCK_RECORD
  5
1E
330
1
100
AcDbSymbolTableRecord
100
AcDbBlockTableRecord
  2
*Paper_Space
340
21
  0
BLOCK_RECORD
  5
38D5
330
1
100
AcDbSymbolTableRecord
100
AcDbBlockTableRecord
  2
nullp
340
0
310
2800000020000000200000000100080000000000000400000000000000000000000000000000000000000000000080000080000000808000800000008000800080800000C0C0C000C0DCC000F0CAA6000020400000206000002080000020A0000020C0000020E00000400000004020000040400000406000004080000040A0
310
000040C0000040E00000600000006020000060400000606000006080000060A0000060C0000060E00000800000008020000080400000806000008080000080A0000080C0000080E00000A0000000A0200000A0400000A0600000A0800000A0A00000A0C00000A0E00000C0000000C0200000C0400000C0600000C0800000C0
310
A00000C0C00000C0E00000E0000000E0200000E0400000E0600000E0800000E0A00000E0C00000E0E00040000000400020004000400040006000400080004000A0004000C0004000E00040200000402020004020400040206000402080004020A0004020C0004020E000404000004040200040404000404060004040800040
310
40A0004040C0004040E00040600000406020004060400040606000406080004060A0004060C0004060E00040800000408020004080400040806000408080004080A0004080C0004080E00040A0000040A0200040A0400040A0600040A0800040A0A00040A0C00040A0E00040C0000040C0200040C0400040C0600040C08000
310
40C0A00040C0C00040C0E00040E0000040E0200040E0400040E0600040E0800040E0A00040E0C00040E0E00080000000800020008000400080006000800080008000A0008000C0008000E00080200000802020008020400080206000802080008020A0008020C0008020E00080400000804020008040400080406000804080
310
008040A0008040C0008040E00080600000806020008060400080606000806080008060A0008060C0008060E00080800000808020008080400080806000808080008080A0008080C0008080E00080A0000080A0200080A0400080A0600080A0800080A0A00080A0C00080A0E00080C0000080C0200080C0400080C0600080C0
310
800080C0A00080C0C00080C0E00080E0000080E0200080E0400080E0600080E0800080E0A00080E0C00080E0E000C0000000C0002000C0004000C0006000C0008000C000A000C000C000C000E000C0200000C0202000C0204000C0206000C0208000C020A000C020C000C020E000C0400000C0402000C0404000C0406000C0
310
408000C040A000C040C000C040E000C0600000C0602000C0604000C0606000C0608000C060A000C060C000C060E000C0800000C0802000C0804000C0806000C0808000C080A000C080C000C080E000C0A00000C0A02000C0A04000C0A06000C0A08000C0A0A000C0A0C000C0A0E000C0C00000C0C02000C0C04000C0C06000
310
C0C08000C0C0A000F0FBFF00A4A0A000808080000000FF0000FF000000FFFF00FF000000FF00FF00FFFF0000FFFFFF0000000000000000000000000000000000000000000000000000000000000000000000000000000000000000000000FEFEFE00000000000000000000000000000000000000000000000000FEFEFEFEFE
310
FEFEFEFE000000000000000000000000000000000000000000FEFEFEFEFEFEFEFEFE0000FEFE000000000000000000000000000000000000FEFEFEFEFEFEFEFEFEFE00000000FEFE00000000000000000000000000000000FEFEFEFEFEFEFEFEFEFE000000000000FEFE00000000000000000000000000FEFEFEFEFEFEFEFE
310
FEFEFE0000000000000000FEFE00000000000000000000FEFEFEFEFEFEFEFEFEFEFEFE000000000000000000FE000000000000000000FEFEFEFEFEFEFEFEFEFEFEFEFE00000000000000000000FE00000000000000FEFEFEFEFEFEFEFEFEFEFEFEFEFE00000000000000000000FE000000000000FEFEFEFEFEFEFEFEFEFEFE
310
FEFEFEFE0000000000000000000000FE0000000000FEFEFEFEFEFEFEFEFEFEFEFEFEFEFE0000000000000000000000FE0000000000FEFEFEFEFEFEFEFEFEFEFEFEFEFEFE0000000000000000000000FE00000000FEFEFEFEFEFEFEFEFEFEFEFEFEFEFEFE000000000000000000000000FE000000FEFEFEFEFEFEFEFEFEFEFE
310
FEFEFEFEFE000000000000000000000000FE000000FEFEFEFEFEFEFEFEFEFEFEFEFEFEFEFE00000000000000000000000000FE0000FEFEFEFEFEFEFEFEFEFEFEFEFEFEFEFEFEFEFEFEFEFEFEFEFEFEFEFEFEFE000000FE000000000000000000000000FEFEFEFEFEFEFEFEFEFEFEFEFEFEFEFE000000FE0000000000000000
310
00000000FEFEFEFEFEFEFEFEFEFEFEFEFEFEFEFE000000FE000000000000000000000000FEFEFEFEFEFEFEFEFEFEFEFEFEFEFE00000000FE000000000000000000000000FEFEFEFEFEFEFEFEFEFEFEFEFEFEFE0000000000FE0000000000000000000000FEFEFEFEFEFEFEFEFEFEFEFEFEFEFE000000000000FE0000000000
310
0000000000FEFEFEFEFEFEFEFEFEFEFEFEFEFE00000000000000FE00000000000000000000FEFEFEFEFEFEFEFEFEFEFEFEFE000000000000000000FE000000000000000000FEFEFEFEFEFEFEFEFEFEFEFE0000000000000000000000FE0000000000000000FEFEFEFEFEFEFEFEFEFEFEFE000000000000000000000000FE00
310
000000000000FEFEFEFEFEFEFEFEFEFEFE00000000000000000000000000FE00000000000000FEFEFEFEFEFEFEFEFE00000000000000000000000000000000FEFEFEFEFE0000FEFEFEFEFEFEFEFE00000000000000000000000000000000000000000000FEFEFEFEFEFEFEFEFE000000000000000000000000000000000000
310
00000000000000FEFEFEFE000000000000000000000000000000000000000000000000000000000000000000000000000000000000000000
102
{BLKREFS
331
39E3
331
3ACE
102
}
  0
BLOCK_RECORD
  5
38DE
330
1
100
AcDbSymbolTableRecord
100
AcDbBlockTableRecord
  2
nullp1
340
0
310
2800000020000000200000000100080000000000000400000000000000000000000000000000000000000000000080000080000000808000800000008000800080800000C0C0C000C0DCC000F0CAA6000020400000206000002080000020A0000020C0000020E00000400000004020000040400000406000004080000040A0
310
000040C0000040E00000600000006020000060400000606000006080000060A0000060C0000060E00000800000008020000080400000806000008080000080A0000080C0000080E00000A0000000A0200000A0400000A0600000A0800000A0A00000A0C00000A0E00000C0000000C0200000C0400000C0600000C0800000C0
310
A00000C0C00000C0E00000E0000000E0200000E0400000E0600000E0800000E0A00000E0C00000E0E00040000000400020004000400040006000400080004000A0004000C0004000E00040200000402020004020400040206000402080004020A0004020C0004020E000404000004040200040404000404060004040800040
310
40A0004040C0004040E00040600000406020004060400040606000406080004060A0004060C0004060E00040800000408020004080400040806000408080004080A0004080C0004080E00040A0000040A0200040A0400040A0600040A0800040A0A00040A0C00040A0E00040C0000040C0200040C0400040C0600040C08000
310
40C0A00040C0C00040C0E00040E0000040E0200040E0400040E0600040E0800040E0A00040E0C00040E0E00080000000800020008000400080006000800080008000A0008000C0008000E00080200000802020008020400080206000802080008020A0008020C0008020E00080400000804020008040400080406000804080
310
008040A0008040C0008040E00080600000806020008060400080606000806080008060A0008060C0008060E00080800000808020008080400080806000808080008080A0008080C0008080E00080A0000080A0200080A0400080A0600080A0800080A0A00080A0C00080A0E00080C0000080C0200080C0400080C0600080C0
310
800080C0A00080C0C00080C0E00080E0000080E0200080E0400080E0600080E0800080E0A00080E0C00080E0E000C0000000C0002000C0004000C0006000C0008000C000A000C000C000C000E000C0200000C0202000C0204000C0206000C0208000C020A000C020C000C020E000C0400000C0402000C0404000C0406000C0
310
408000C040A000C040C000C040E000C0600000C0602000C0604000C0606000C0608000C060A000C060C000C060E000C0800000C0802000C0804000C0806000C0808000C080A000C080C000C080E000C0A00000C0A02000C0A04000C0A06000C0A08000C0A0A000C0A0C000C0A0E000C0C00000C0C02000C0C04000C0C06000
310
C0C08000C0C0A000F0FBFF00A4A0A000808080000000FF0000FF000000FFFF00FF000000FF00FF00FFFF0000FFFFFF00000000000000000000000000000000000000000000000000000000000000000000000000000000000000000000000000FE0000000000000000000000000000000000000000000000000000000000FE
310
FEFEFEFE000000000000000000000000000000000000000000FEFEFEFEFEFE0000FE0000FEFE000000000000000000000000000000000000FE0000000000000000FE00000000FEFE00000000000000000000000000000000FE0000000000000000FE000000000000FEFE00000000000000000000000000FE00000000000000
310
0000FE0000000000000000FEFE00000000000000000000FE00000000000000000000FE000000000000000000FE000000000000000000FE0000000000000000000000FE00000000000000000000FE0000000000000000FE0000000000000000000000FE00000000000000000000FE00000000000000FE000000000000000000
310
000000FE0000000000000000000000FE0000000000FE00000000000000000000000000FE0000000000000000000000FE0000000000FE00000000000000000000000000FE0000000000000000000000FE0000000000FE00000000000000000000000000FE000000000000000000000000FE00000000FE000000000000000000
310
00000000FE000000000000000000000000FE00000000FE00000000000000000000000000FE00000000000000000000000000FE0000FEFEFEFEFEFEFEFEFEFEFEFEFEFEFEFEFEFEFEFEFEFEFEFEFEFEFEFEFEFE000000FE00000000000000000000000000FE00000000000000000000000000FE000000FE0000000000000000
310
0000000000FE000000000000000000000000FE00000000FE00000000000000000000000000FE000000000000000000000000FE00000000FE00000000000000000000000000FE0000000000000000000000FE000000000000FE000000000000000000000000FE0000000000000000000000FE00000000000000FE0000000000
310
000000000000FE00000000000000000000FE0000000000000000FE0000000000000000000000FE00000000000000000000FE000000000000000000FE00000000000000000000FE000000000000000000FE0000000000000000000000FE000000000000000000FE000000000000000000FE000000000000000000000000FE00
310
00000000000000FE00000000000000FEFE00000000000000000000000000FE0000000000000000FE0000000000FEFE00000000000000000000000000000000FEFEFEFEFE000000FE000000FEFE0000000000000000000000000000000000000000000000FEFEFEFEFEFEFE0000000000000000000000000000000000000000
310
0000000000000000FE0000000000000000000000000000000000000000000000000000000000000000000000000000000000000000000000
102
{BLKREFS
331
39E4
331
3ACF
102
}
  0
BLOCK_RECORD
  5
3B3B
330
1
100
AcDbSymbolTableRecord
100
AcDbBlockTableRecord
  2
*D72
340
0
  0
BLOCK_RECORD
  5
3B47
330
1
100
AcDbSymbolTableRecord
100
AcDbBlockTableRecord
  2
*D73
340
0
  0
BLOCK_RECORD
  5
3B53
330
1
100
AcDbSymbolTableRecord
100
AcDbBlockTableRecord
  2
*D74
340
0
  0
BLOCK_RECORD
  5
3C62
330
1
100
AcDbSymbolTableRecord
100
AcDbBlockTableRecord
  2
*D80
340
0
  0
BLOCK_RECORD
  5
3C81
330
1
100
AcDbSymbolTableRecord
100
AcDbBlockTableRecord
  2
*D81
340
0
  0
ENDTAB
  0
ENDSEC
  0
SECTION
  2
BLOCKS
  0
BLOCK
  5
23
330
22
100
AcDbEntity
  8
0
100
AcDbBlockBegin
  2
*Model_Space
 70
     0
 10
0.0
 20
0.0
 30
0.0
  3
*Model_Space
  1

  0
ENDBLK
  5
24
330
22
100
AcDbEntity
  8
0
100
AcDbBlockEnd
  0
BLOCK
  5
1F
330
1E
100
AcDbEntity
 67
     1
  8
0
100
AcDbBlockBegin
  2
*Paper_Space
 70
     0
 10
0.0
 20
0.0
 30
0.0
  3
*Paper_Space
  1

  0
ENDBLK
  5
20
330
1E
100
AcDbEntity
 67
     1
  8
0
100
AcDbBlockEnd
  0
BLOCK
  5
38D6
330
38D5
100
AcDbEntity
  8
0
100
AcDbBlockBegin
  2
nullp
 70
     0
 10
0.0
 20
0.0
 30
0.0
  3
nullp
  1

  0
HATCH
  5
38D7
330
38D5
100
AcDbEntity
  8
1
100
AcDbHatch
 10
0.0
 20
0.0
 30
0.0
210
0.0
220
0.0
230
1.0
  2
SOLID
 70
     1
 71
     0
 91
        2
 92
        7
 72
     1
 73
     1
 93
        3
 10
271.9386450411704
 20
389.8959796344513
 42
0.0
 10
274.8896170952829
 20
389.8959796344513
 42
0.4142135623730966
 10
271.9386450411704
 20
392.8469516885638
 42
0.0
 97
        0
 92
        7
 72
     1
 73
     1
 93
        3
 10
271.9386450411704
 20
386.9450075803387
 42
0.0
 10
271.9386450411704
 20
389.8959796344513
 42
0.0
 10
268.9876729870576
 20
389.8959796344513
 42
0.4142135623730966
 97
        0
 75
     0
 76
     1
 47
0.1190009775223266
 98
        2
 10
272.6831980999823
 20
390.8172041078278
 10
270.6591804393174
 20
388.1991827114049
  0
LWPOLYLINE
  5
38D8
330
38D5
100
AcDbEntity
  8
1
100
AcDbPolyline
 90
        3
 70
     1
 43
0.0
 10
271.9386450411702
 20
389.8959796344513
 10
268.9876729870576
 20
389.8959796344513
 42
0.4142135623730966
 10
271.9386450411702
 20
386.9450075803387
  0
LINE
  5
38D9
330
38D5
100
AcDbEntity
  8
1
100
AcDbLine
 10
271.9386450411702
 20
392.8469516885638
 30
0.0
 11
271.9386450411702
 21
386.9450075803387
 31
0.0
  0
LWPOLYLINE
  5
38DA
330
38D5
100
AcDbEntity
  8
1
100
AcDbPolyline
 90
        3
 70
     1
 43
0.0
 10
271.9386450411702
 20
392.8469516885638
 10
271.9386450411702
 20
389.8959796344513
 10
274.8896170952829
 20
389.8959796344513
 42
0.4142135623730966
  0
LINE
  5
38DB
330
38D5
100
AcDbEntity
  8
1
100
AcDbLine
 10
268.9876729870575
 20
389.8959796344513
 30
0.0
 11
274.8896170952828
 21
389.8959796344513
 31
0.0
  0
CIRCLE
  5
38DC
330
38D5
100
AcDbEntity
  8
1
100
AcDbCircle
 10
271.9386450411704
 20
389.8959796344513
 30
0.0
 40
2.950972054112601
  0
ENDBLK
  5
38DD
330
38D5
100
AcDbEntity
  8
0
100
AcDbBlockEnd
  0
BLOCK
  5
38DF
330
38DE
100
AcDbEntity
  8
0
100
AcDbBlockBegin
  2
nullp1
 70
     0
 10
0.0
 20
0.0
 30
0.0
  3
nullp1
  1

  0
LINE
  5
38E0
330
38DE
100
AcDbEntity
  8
1
100
AcDbLine
 10
442.6007601796219
 20
432.5849634019313
 30
0.0
 11
443.5282989193195
 21
432.5849634019313
 31
0.0
  0
CIRCLE
  5
38E1
330
38DE
100
AcDbEntity
  8
1
100
AcDbCircle
 10
443.0645295494706
 20
432.5849634019313
 30
0.0
 40
0.463769369848821
  0
LINE
  5
38E2
330
38DE
100
AcDbEntity
  8
1
100
AcDbLine
 10
443.0645295494706
 20
433.0487327717801
 30
0.0
 11
443.0645295494706
 21
432.1211940320826
 31
0.0
  0
ENDBLK
  5
38E3
330
38DE
100
AcDbEntity
  8
0
100
AcDbBlockEnd
  0
BLOCK
  5
3B45
330
3B3B
100
AcDbEntity
  8
0
100
AcDbBlockBegin
  2
*D72
 70
     1
 10
0.0
 20
0.0
 30
0.0
  3
*D72
  1

  0
LINE
  5
3C97
330
3B3B
100
AcDbEntity
  8
SK2
 62
     0
370
    -2
100
AcDbLine
 10
-21.875
 20
-6.0
 30
0.0
 11
-29.77808152719999
 21
-5.999999999999997
 31
0.0
  0
LINE
  5
3C98
330
3B3B
100
AcDbEntity
  8
SK2
 62
     0
370
    -2
100
AcDbLine
 10
-21.875
 20
6.0
 30
0.0
 11
-29.77808152719999
 21
6.000000000000002
 31
0.0
  0
LINE
  5
3C99
330
3B3B
100
AcDbEntity
  8
SK2
 62
     0
370
    -2
100
AcDbLine
 10
-28.52808152719999
 20
-3.499999999999997
 30
0.0
 11
-28.52808152719999
 21
3.500000000000002
 31
0.0
  0
SOLID
  5
3C9A
330
3B3B
100
AcDbEntity
  8
SK2
 62
     0
100
AcDbTrace
 10
-28.94474819386666
 20
-3.499999999999997
 30
0.0
 11
-28.11141486053332
 21
-3.499999999999997
 31
0.0
 12
-28.52808152719999
 22
-5.999999999999997
 32
0.0
 13
-28.52808152719999
 23
-5.999999999999997
 33
0.0
  0
SOLID
  5
3C9B
330
3B3B
100
AcDbEntity
  8
SK2
 62
     0
100
AcDbTrace
 10
-28.94474819386666
 20
3.500000000000002
 30
0.0
 11
-28.11141486053332
 21
3.500000000000002
 31
0.0
 12
-28.52808152719999
 22
6.000000000000002
 32
0.0
 13
-28.52808152719999
 23
6.000000000000002
 33
0.0
  0
MTEXT
  5
3C9C
330
3B3B
100
AcDbEntity
  8
SK2
 62
     0
100
AcDbMText
 10
-30.40332759019211
 20
0.019276920399989
 30
0.0
 40
2.5
 41
0.0
 71
     5
 72
     1
  1
M12
 11
0.0000000000000001
 21
1.0
 31
0.0
 73
     1
 44
1.0
1001
ACAD
1000
MTEXTBEGIN
1070
    73
1070
     1
1070
    44
1040
1.0
1070
    74
1070
     0
1000
MTEXTEND
  0
POINT
  5
3C9D
330
3B3B
100
AcDbEntity
  8
Defpoints
 62
     0
100
AcDbPoint
 10
-21.25
 20
-6.0
 30
0.0
  0
POINT
  5
3C9E
330
3B3B
100
AcDbEntity
  8
Defpoints
 62
     0
100
AcDbPoint
 10
-21.25
 20
6.0
 30
0.0
  0
POINT
  5
3C9F
330
3B3B
100
AcDbEntity
  8
Defpoints
 62
     0
100
AcDbPoint
 10
-28.52808152719999
 20
6.000000000000002
 30
0.0
  0
ENDBLK
  5
3B46
330
3B3B
100
AcDbEntity
  8
0
100
AcDbBlockEnd
  0
BLOCK
  5
3B51
330
3B47
100
AcDbEntity
  8
0
100
AcDbBlockBegin
  2
*D73
 70
     1
 10
0.0
 20
0.0
 30
0.0
  3
*D73
  1

  0
LINE
  5
3CA0
330
3B47
100
AcDbEntity
  8
2
 62
     0
370
    -2
100
AcDbLine
 10
0.0
 20
13.06557143628021
 30
0.0
 11
0.0000000000000007
 21
24.54509032605512
 31
0.0
  0
LINE
  5
3CA1
330
3B47
100
AcDbEntity
  8
2
 62
     0
370
    -2
100
AcDbLine
 10
35.00000000000003
 20
0.125
 30
0.0
 11
35.00000000000003
 21
24.54509032605512
 31
0.0
  0
LINE
  5
3CA2
330
3B47
100
AcDbEntity
  8
2
 62
     0
370
    -2
100
AcDbLine
 10
2.5
 20
23.29509032605512
 30
0.0
 11
32.50000000000003
 21
23.29509032605512
 31
0.0
  0
SOLID
  5
3CA3
330
3B47
100
AcDbEntity
  8
2
 62
     0
100
AcDbTrace
 10
2.5
 20
23.71175699272178
 30
0.0
 11
2.5
 21
22.87842365938845
 31
0.0
 12
0.0000000000000007
 22
23.29509032605512
 32
0.0
 13
0.0000000000000007
 23
23.29509032605512
 33
0.0
  0
SOLID
  5
3CA4
330
3B47
100
AcDbEntity
  8
2
 62
     0
100
AcDbTrace
 10
32.50000000000003
 20
23.71175699272178
 30
0.0
 11
32.50000000000003
 21
22.87842365938845
 31
0.0
 12
35.00000000000003
 22
23.29509032605512
 32
0.0
 13
35.00000000000003
 23
23.29509032605512
 33
0.0
  0
MTEXT
  5
3CA5
330
3B47
100
AcDbEntity
  8
2
 62
     0
100
AcDbMText
 10
17.53017558769937
 20
25.17009032605512
 30
0.0
 40
2.5
 41
0.0
 71
     5
 72
     1
  1
35
 73
     1
 44
1.0
1001
ACAD
1000
MTEXTBEGIN
1070
    73
1070
     1
1070
    44
1040
1.0
1070
    74
1070
     0
1000
MTEXTEND
  0
POINT
  5
3CA6
330
3B47
100
AcDbEntity
  8
Defpoints
 62
     0
100
AcDbPoint
 10
0.0
 20
12.44057143628021
 30
0.0
  0
POINT
  5
3CA7
330
3B47
100
AcDbEntity
  8
Defpoints
 62
     0
100
AcDbPoint
 10
35.00000000000003
 20
-0.5
 30
0.0
  0
POINT
  5
3CA8
330
3B47
100
AcDbEntity
  8
Defpoints
 62
     0
100
AcDbPoint
 10
35.00000000000003
 20
23.29509032605512
 30
0.0
  0
ENDBLK
  5
3B52
330
3B47
100
AcDbEntity
  8
0
100
AcDbBlockEnd
  0
BLOCK
  5
3B5D
330
3B53
100
AcDbEntity
  8
0
100
AcDbBlockBegin
  2
*D74
 70
     1
 10
0.0
 20
0.0
 30
0.0
  3
*D74
  1

  0
LINE
  5
3CA9
330
3B53
100
AcDbEntity
  8
2
 62
     0
370
    -2
100
AcDbLine
 10
36.12500000000003
 20
-12.0
 30
0.0
 11
55.18834408212746
 21
-12.00000000000001
 31
0.0
  0
LINE
  5
3CAA
330
3B53
100
AcDbEntity
  8
2
 62
     0
370
    -2
100
AcDbLine
 10
34.74851598394247
 20
12.0
 30
0.0
 11
55.18834408212746
 21
11.99999999999999
 31
0.0
  0
LINE
  5
3CAB
330
3B53
100
AcDbEntity
  8
2
 62
     0
370
    -2
100
AcDbLine
 10
53.93834408212746
 20
-9.500000000000007
 30
0.0
 11
53.93834408212746
 21
9.499999999999992
 31
0.0
  0
SOLID
  5
3CAC
330
3B53
100
AcDbEntity
  8
2
 62
     0
100
AcDbTrace
 10
53.52167741546079
 20
-9.500000000000007
 30
0.0
 11
54.35501074879412
 21
-9.500000000000007
 31
0.0
 12
53.93834408212746
 22
-12.00000000000001
 32
0.0
 13
53.93834408212746
 23
-12.00000000000001
 33
0.0
  0
SOLID
  5
3CAD
330
3B53
100
AcDbEntity
  8
2
 62
     0
100
AcDbTrace
 10
53.52167741546079
 20
9.499999999999992
 30
0.0
 11
54.35501074879412
 21
9.499999999999992
 31
0.0
 12
53.93834408212746
 22
11.99999999999999
 32
0.0
 13
53.93834408212746
 23
11.99999999999999
 33
0.0
  0
MTEXT
  5
3CAE
330
3B53
100
AcDbEntity
  8
2
 62
     0
100
AcDbMText
 10
52.06309801913533
 20
0.3999989626059348
 30
0.0
 40
2.5
 41
0.0
 71
     5
 72
     1
  1
%%c24
 11
0.0000000000000001
 21
1.0
 31
0.0
 73
     1
 44
1.0
1001
ACAD
1000
MTEXTBEGIN
1070
    73
1070
     1
1070
    44
1040
1.0
1070
    74
1070
     0
1000
MTEXTEND
  0
POINT
  5
3CAF
330
3B53
100
AcDbEntity
  8
Defpoints
 62
     0
100
AcDbPoint
 10
35.50000000000003
 20
-12.0
 30
0.0
  0
POINT
  5
3CB0
330
3B53
100
AcDbEntity
  8
Defpoints
 62
     0
100
AcDbPoint
 10
34.12351598394247
 20
12.0
 30
0.0
  0
POINT
  5
3CB1
330
3B53
100
AcDbEntity
  8
Defpoints
 62
     0
100
AcDbPoint
 10
53.93834408212746
 20
11.99999999999999
 30
0.0
  0
ENDBLK
  5
3B5E
330
3B53
100
AcDbEntity
  8
0
100
AcDbBlockEnd
  0
BLOCK
  5
3C6C
330
3C62
100
AcDbEntity
  8
0
100
AcDbBlockBegin
  2
*D80
 70
     1
 10
0.0
 20
0.0
 30
0.0
  3
*D80
  1

  0
LINE
  5
3CB2
330
3C62
100
AcDbEntity
  8
2
 62
     0
370
    -2
100
AcDbLine
 10
36.37957521366974
 20
-3.25
 30
0.0
 11
45.90899035065189
 21
-3.250000000000002
 31
0.0
  0
LINE
  5
3CB3
330
3C62
100
AcDbEntity
  8
2
 62
     0
370
    -2
100
AcDbLine
 10
36.37957521366974
 20
3.25
 30
0.0
 11
45.90899035065189
 21
3.249999999999997
 31
0.0
  0
LINE
  5
3CB4
330
3C62
100
AcDbEntity
  8
2
 62
     0
370
    -2
100
AcDbLine
 10
44.65899035065189
 20
-0.7500000000000023
 30
0.0
 11
44.65899035065189
 21
0.7499999999999977
 31
0.0
  0
SOLID
  5
3CB5
330
3C62
100
AcDbEntity
  8
2
 62
     0
100
AcDbTrace
 10
44.24232368398523
 20
-0.7500000000000023
 30
0.0
 11
45.07565701731855
 21
-0.7500000000000025
 31
0.0
 12
44.65899035065189
 22
-3.250000000000002
 32
0.0
 13
44.65899035065189
 23
-3.250000000000002
 33
0.0
  0
SOLID
  5
3CB6
330
3C62
100
AcDbEntity
  8
2
 62
     0
100
AcDbTrace
 10
44.24232368398523
 20
0.7499999999999978
 30
0.0
 11
45.07565701731855
 21
0.7499999999999976
 31
0.0
 12
44.65899035065189
 22
3.249999999999997
 32
0.0
 13
44.65899035065189
 23
3.249999999999997
 33
0.0
  0
MTEXT
  5
3CB7
330
3C62
100
AcDbEntity
  8
2
 62
     0
100
AcDbMText
 10
42.59649035065189
 20
0.0000000000000051
 30
0.0
 40
2.5
 41
0.0
 71
     5
 72
     1
  1
%%c6,5
 11
0.0000000000000001
 21
1.0
 31
0.0
 73
     1
 44
1.0
1001
ACAD
1000
MTEXTBEGIN
1070
    73
1070
     1
1070
    44
1040
1.0
1070
    74
1070
     0
1000
MTEXTEND
  0
POINT
  5
3CB8
330
3C62
100
AcDbEntity
  8
Defpoints
 62
     0
100
AcDbPoint
 10
35.75457521366974
 20
-3.25
 30
0.0
  0
POINT
  5
3CB9
330
3C62
100
AcDbEntity
  8
Defpoints
 62
     0
100
AcDbPoint
 10
35.75457521366974
 20
3.25
 30
0.0
  0
POINT
  5
3CBA
330
3C62
100
AcDbEntity
  8
Defpoints
 62
     0
100
AcDbPoint
 10
44.65899035065189
 20
3.249999999999997
 30
0.0
  0
ENDBLK
  5
3C6D
330
3C62
100
AcDbEntity
  8
0
100
AcDbBlockEnd
  0
BLOCK
  5
3C8B
330
3C81
100
AcDbEntity
  8
0
100
AcDbBlockBegin
  2
*D81
 70
     1
 10
0.0
 20
0.0
 30
0.0
  3
*D81
  1

  0
LINE
  5
3CBB
330
3C81
100
AcDbEntity
  8
2
 62
     0
370
    -2
100
AcDbLine
 10
35.00000000000003
 20
12.625
 30
0.0
 11
35.00000000000003
 21
18.93139849748837
 31
0.0
  0
LINE
  5
3CBC
330
3C81
100
AcDbEntity
  8
2
 62
     0
370
    -2
100
AcDbLine
 10
11.00000000000003
 20
12.625
 30
0.0
 11
11.00000000000003
 21
18.93139849748837
 31
0.0
  0
LINE
  5
3CBD
330
3C81
100
AcDbEntity
  8
2
 62
     0
370
    -2
100
AcDbLine
 10
32.50000000000003
 20
17.68139849748837
 30
0.0
 11
13.50000000000003
 21
17.68139849748837
 31
0.0
  0
SOLID
  5
3CBE
330
3C81
100
AcDbEntity
  8
2
 62
     0
100
AcDbTrace
 10
32.50000000000003
 20
18.09806516415504
 30
0.0
 11
32.50000000000003
 21
17.2647318308217
 31
0.0
 12
35.00000000000003
 22
17.68139849748837
 32
0.0
 13
35.00000000000003
 23
17.68139849748837
 33
0.0
  0
SOLID
  5
3CBF
330
3C81
100
AcDbEntity
  8
2
 62
     0
100
AcDbTrace
 10
13.50000000000003
 20
18.09806516415504
 30
0.0
 11
13.50000000000003
 21
17.2647318308217
 31
0.0
 12
11.00000000000003
 22
17.68139849748837
 32
0.0
 13
11.00000000000003
 23
17.68139849748837
 33
0.0
  0
MTEXT
  5
3CC0
330
3C81
100
AcDbEntity
  8
2
 62
     0
100
AcDbMText
 10
23.00000000000003
 20
19.5566445604805
 30
0.0
 40
2.5
 41
0.0
 71
     5
 72
     1
  1
24
 73
     1
 44
1.0
1001
ACAD
1000
MTEXTBEGIN
1070
    73
1070
     1
1070
    44
1040
1.0
1070
    74
1070
     0
1000
MTEXTEND
  0
POINT
  5
3CC1
330
3C81
100
AcDbEntity
  8
Defpoints
 62
     0
100
AcDbPoint
 10
35.00000000000003
 20
12.0
 30
0.0
  0
POINT
  5
3CC2
330
3C81
100
AcDbEntity
  8
Defpoints
 62
     0
100
AcDbPoint
 10
11.00000000000003
 20
12.0
 30
0.0
  0
POINT
  5
3CC3
330
3C81
100
AcDbEntity
  8
Defpoints
 62
     0
100
AcDbPoint
 10
11.00000000000003
 20
17.68139849748837
 30
0.0
  0
ENDBLK
  5
3C8C
330
3C81
100
AcDbEntity
  8
0
100
AcDbBlockEnd
  0
ENDSEC
  0
SECTION
  2
ENTITIES
  0
DIMENSION
  5
778
330
22
100
AcDbEntity
  8
SK2
100
AcDbDimension
  2
*D72
 10
-28.52808152719999
 20
6.000000000000002
 30
0.0
 11
-28.52808152719999
 21
0.0192769203999888
 31
0.0
 70
   160
  1
M<>
 71
     5
 42
12.0
  3
ISO-25
100
AcDbAlignedDimension
 13
-21.25
 23
-6.0
 33
0.0
 14
-21.25
 24
6.0
 34
0.0
 50
90.0
100
AcDbRotatedDimension
  0
DIMENSION
  5
779
330
22
100
AcDbEntity
  8
2
100
AcDbDimension
  2
*D73
 10
35.00000000000003
 20
23.29509032605512
 30
0.0
 11
17.53017558769937
 21
23.29509032605512
 31
0.0
 70
   160
  1
<>
 71
     5
 42
35.00000000000003
  3
ISO-25
100
AcDbAlignedDimension
 13
0.0
 23
12.44057143628021
 33
0.0
 14
35.00000000000003
 24
-0.5
 34
0.0
100
AcDbRotatedDimension
  0
DIMENSION
  5
798
330
22
100
AcDbEntity
  8
2
100
AcDbDimension
  2
*D74
 10
53.93834408212746
 20
11.99999999999999
 30
0.0
 11
53.93834408212746
 21
0.3999989626059346
 31
0.0
 70
   160
  1
%%c<>
 71
     5
 42
24.0
  3
ISO-25
100
AcDbAlignedDimension
 13
35.50000000000003
 23
-12.0
 33
0.0
 14
34.12351598394247
 24
12.0
 34
0.0
 50
90.0
100
AcDbRotatedDimension
  0
TEXT
  5
7B6
330
22
100
AcDbEntity
  8
6
100
AcDbText
 10
18.16137383088005
 20
-26.74921768863436
 30
0.0
 40
3.5
  1
15C1F024035X7R01
 41
1.199999999999999
 72
     1
 11
41.26137383088002
 21
-26.74921768863436
 31
0.0
100
AcDbText
  0
TEXT
  5
800
330
22
100
AcDbEntity
  8
6
100
AcDbText
 10
41.05117847775221
 20
26.45446724196728
 30
0.0
 40
3.0
  1
SHLT090408N-PH1
 41
1.199999999999999
100
AcDbText
  0
LWPOLYLINE
  5
1362
330
22
100
AcDbEntity
  8
CUT
100
AcDbPolyline
 90
      243
 70
     0
 43
0.0
 10
35.0
 20
-11.224692
 10
35.0
 20
-3.110473000000013
 10
34.99971161990001
 20
-3.090144796199979
 10
34.99884499999999
 20
-3.069833000000016
 10
34.9974046884
 20
-3.049599939500012
 10
34.99539000000002
 20
-3.029416000000026
 10
34.99280688669998
 20
-3.009333232599999
 10
34.989654
 20
-2.98933199999999
 10
34.98593899419998
 20
-2.96945573610003
 10
34.98166100000001
 20
-2.949693000000024
 10
34.97682805759999
 20
-2.9300770575
 10
34.971441
 20
-2.910606000000029
 10
34.96550716919998
 20
-2.89130326540004
 10
34.95903000000001
 20
-2.872176000000024
 10
34.95201502569998
 20
-2.853238360400041
 10
34.944469
 20
-2.834506000000033
 10
34.9363943388
 20
-2.815983542200001
 10
34.92780300000001
 20
-2.797695000000032
 10
34.91869507799999
 20
-2.779637958100011
 10
34.909087
 20
-2.761842000000001
 10
34.89897349329999
 20
-2.744295799900044
 10
34.88837699999999
 20
-2.727036999999995
 10
34.87728606799999
 20
-2.710046420000026
 10
34.86573100000001
 20
-2.69336800000002
 10
34.85369482819999
 20
-2.67697541030003
 10
34.841215
 20
-2.660918000000037
 10
34.8282673656
 20
-2.645163929299997
 10
34.814897
 20
-2.629767000000015
 10
34.80107279449999
 20
-2.614690827599986
 10
34.78684799999999
 20
-2.599992000000042
 10
34.77218583840002
 20
-2.585631481800021
 10
34.75714600000001
 20
-2.57166699999999
 10
34.7416861101
 20
-2.558058856600041
 10
34.72587200000001
 20
-2.544864000000018
 10
34.709656973
 20
-2.532042660300021
 10
34.69311200000002
 20
-2.519650000000012
 10
34.6761852423
 20
-2.507646593200036
 10
34.658953
 20
-2.496085999999991
 10
34.6413600226
 20
-2.484930940000026
 10
34.62348599999998
 20
-2.474232000000029
 10
34.60527249610001
 20
-2.463954297900045
 10
34.58680300000001
 20
-2.454144000000042
 10
34.5680185034
 20
-2.444769035700005
 10
34.549003
 20
-2.435872000000017
 10
34.52969756499999
 20
-2.427426150800044
 10
34.51018600000001
 20
-2.419467999999994
 10
34.49041392910002
 20
-2.411975076399983
 10
34.470461
 20
-2.404978000000028
 10
34.45027585670002
 20
-2.398459295400016
 10
34.429935
 20
-2.392444000000011
 10
34.40939273159998
 20
-2.386918914900036
 10
34.38872000000001
 20
-2.38190400000002
 10
34.36787705840001
 20
-2.377390461199979
 10
34.34692900000002
 20
-2.373393000000021
 10
34.32584280080002
 20
-2.369905893900011
 10
34.304677
 20
-2.366939999999999
 10
34.283406969
 20
-2.36449303400002
 10
34.26208299999999
 20
-2.362572
 10
34.24068799770001
 20
-2.36117654840001
 10
34.21926499999998
 20
-2.360311000000024
 10
33.086209
 20
-2.329707000000041
 10
30.536832
 20
-2.269469000000015
 10
28.27072000000001
 20
-2.226562999999998
 10
26.00460799999999
 20
-2.194288000000028
 10
25.98319430209997
 20
-2.194321098100033
 10
25.96178899999998
 20
-2.194926000000009
 10
25.94047294319998
 20
-2.196099290600045
 10
25.919196
 20
-2.197843000000034
 10
25.89803466279998
 20
-2.200150485200026
 10
25.87694300000001
 20
-2.203026000000022
 10
25.85599743779997
 20
-2.206458369000017
 10
25.83515199999999
 20
-2.210454000000027
 10
25.8144793427
 20
-2.2149980712
 10
25.793937
 20
-2.220099000000004
 10
25.7735937633
 20
-2.225739174199986
 10
25.753411
 20
-2.231929000000036
 10
25.73345347440002
 20
-2.238648433499974
 10
25.713686
 20
-2.245908000000042
 10
25.69416786069999
 20
-2.253684924100014
 10
25.674869
 20
-2.261991000000023
 10
25.6558451068
 20
-2.270802289400023
 10
25.637069
 20
-2.280130000000042
 10
25.61858958779999
 20
-2.289948843800004
 10
25.60038599999999
 20
-2.300270000000011
 10
25.58250099689999
 20
-2.311069685300026
 10
25.56491900000001
 20
-2.322356000000013
 10
25.5476749568
 20
-2.334105512500002
 10
25.53076000000002
 20
-2.346324000000038
 10
25.51420267500001
 20
-2.358991199400009
 10
25.49800000000002
 20
-2.372109000000023
 10
25.48217339420001
 20
-2.385660142700032
 10
25.46672599999999
 20
-2.399642000000028
 10
25.4516738719
 20
-2.414040443500027
 10
25.43702399999998
 20
-2.428848000000016
 10
25.42278735299999
 20
-2.444053296100037
 10
25.408975
 20
-2.459645000000023
 10
25.39559350850002
 20
-2.475616735500011
 10
25.382657
 20
-2.491951000000028
 10
25.37016692419999
 20
-2.508645809500023
 10
25.35814100000002
 20
-2.525678000000027
 10
25.3465766969
 20
-2.543052641600013
 10
25.33549500000001
 20
-2.560739000000012
 10
25.32489059309998
 20
-2.578746697300005
 10
25.314785
 20
-2.597038999999995
 10
25.30516999419999
 20
-2.615631539100036
 10
25.29606900000002
 20
-2.634480999999993
 10
25.28747264399999
 20
-2.653609734700012
 10
25.279404
 20
-2.672967000000028
 10
25.27185325869999
 20
-2.692577357000004
 10
25.26484200000002
 20
-2.712387000000035
 10
25.2583613235
 20
-2.732424639200019
 10
25.252431
 20
-2.752632000000005
 10
25.24704218650001
 20
-2.773042804400006
 10
25.24221199999999
 20
-2.793593000000043
 10
25.23793208699999
 20
-2.814320593100035
 10
25.234218
 20
-2.835157000000037
 10
25.23106418929998
 20
-2.856142504300009
 10
25.22848200000002
 20
-2.877206000000001
 10
25.22646696500002
 20
-2.898390066300009
 10
25.22502699999999
 20
-2.919621000000006
 10
25.22416032710001
 20
-2.940946201100018
 10
25.223872
 20
-2.962287000000003
 10
25.223872
 20
-11.18453500000004
 10
25.22416043680002
 20
-11.20599677410001
 10
25.22502699999999
 20
-11.22744299999999
 10
25.22646725779998
 20
-11.24880975299999
 10
25.22848200000002
 20
-11.27012999999999
 10
25.23106462529998
 20
-11.29134366170001
 10
25.234218
 20
-11.31247999999999
 10
25.2379327109
 20
-11.33348035710003
 10
25.24221199999999
 20
-11.35437300000001
 10
25.24704290470001
 20
-11.37510191470005
 10
25.252431
 20
-11.39569299999999
 10
25.25836213649998
 20
-11.4160927995
 10
25.26484200000002
 20
-11.43632500000001
 10
25.27185406059999
 20
-11.45634131450004
 10
25.279404
 20
-11.47616099999999
 10
25.28747351799998
 20
-11.49573808130003
 10
25.29606900000002
 20
-11.51509000000004
 10
25.30517067849999
 20
-11.53417353550003
 10
25.314785
 20
-11.55300400000004
 10
25.32489173409999
 20
-11.57154300910002
 10
25.33549600000001
 20
-11.58980200000002
 10
25.3465777735
 20
-11.60774769970004
 10
25.35814100000002
 20
-11.62538699999999
 10
25.37016702279999
 20
-11.6426914086
 10
25.382657
 20
-11.65966400000002
 10
25.39559337770001
 20
-11.67628170900002
 10
25.408975
 20
-11.692543
 10
25.4227868152
 20
-11.70842902930002
 10
25.43702399999998
 20
-11.72393500000004
 10
25.45167355250001
 20
-11.73904714180003
 10
25.46672699999999
 20
-11.753757
 10
25.48217262220001
 20
-11.76805292670002
 10
25.49800000000002
 20
-11.781925
 10
25.51420089809997
 20
-11.79536542220001
 10
25.53076000000002
 20
-11.80836200000004
 10
25.5476725572
 20
-11.82091100259998
 10
25.56491900000001
 20
-11.83299700000003
 10
25.5824987348
 20
-11.8446183561
 10
25.60038699999998
 20
-11.85575900000003
 10
25.61858697059998
 20
-11.86642090090004
 10
25.637069
 20
-11.87658600000003
 10
25.65584138969999
 20
-11.88625765060004
 10
25.674869
 20
-11.89541700000001
 10
25.69416385759999
 20
-11.90406890720004
 10
25.713686
 20
-11.91219499999999
 10
25.73344964930001
 20
-11.91980049110003
 10
25.753412
 20
-11.92686800000001
 10
25.77358974709998
 20
-11.93340230900003
 10
25.793937
 20
-11.93938800000001
 10
25.8144746271
 20
-11.94483036540003
 10
25.83515199999999
 20
-11.94971500000002
 10
25.85599271710001
 20
-11.954046231
 10
25.87694300000001
 20
-11.95781199999999
 10
25.8980300419
 20
-11.96101611830005
 10
25.919196
 20
-11.96364900000003
 10
25.94046849669999
 20
-11.9657131472
 10
25.96178899999998
 20
-11.96720200000004
 10
25.98319006270001
 20
-11.96811645650001
 10
26.00460799999999
 20
-11.96845200000001
 10
31.10335999999998
 20
-11.984803
 10
34.21926499999998
 20
-12.0
 10
34.24068017260001
 20
-11.99982987160001
 10
34.26208299999999
 20
-11.99908200000004
 10
34.28340170480002
 20
-11.99776074040005
 10
34.304677
 20
-11.99586500000004
 10
34.3258401361
 20
-11.9934019067
 10
34.34692900000002
 20
-11.99036799999999
 10
34.36787694360001
 20
-11.98677365700001
 10
34.38872000000001
 20
-11.98261400000001
 10
34.40939511330001
 20
-11.97790266040005
 10
34.429935
 20
-11.97263300000003
 10
34.4502805402
 20
-11.96682078310004
 10
34.470461
 20
-11.96045900000001
 10
34.4904212392
 20
-11.95356613320001
 10
34.510187
 20
-11.94613400000003
 10
34.5297071416
 20
-11.93818226050001
 10
34.549004
 20
-11.92970300000002
 10
34.56802976789999
 20
-11.92071816630005
 10
34.586804
 20
-11.91121900000001
 10
34.6052843821
 20
-11.90122713800002
 10
34.62348599999998
 20
-11.890736
 10
34.64137271869998
 20
-11.87976756590001
 10
34.65895399999999
 20
-11.86831599999999
 10
34.67619911199998
 20
-11.85640086620003
 10
34.69311300000001
 20
-11.84402
 10
34.70967099949999
 20
-11.83119237930003
 10
34.72587300000001
 20
-11.81791800000002
 10
34.7416993969
 20
-11.80421234850001
 10
34.75714600000001
 20
-11.79007999999999
 10
34.7721988358
 20
-11.77553422220001
 10
34.78684899999999
 20
-11.760583
 10
34.80108511299997
 20
-11.74523696810001
 10
34.814897
 20
-11.72950800000001
 10
34.8282781668
 20
-11.71340402520002
 10
34.841215
 20
-11.69694100000004
 10
34.8537047566
 20
-11.68012124840004
 10
34.86573100000001
 20
-11.66296700000003
 10
34.87729468020001
 20
-11.64547644180004
 10
34.88837699999999
 20
-11.627677
 10
34.89898149270002
 20
-11.6095612359
 10
34.909088
 20
-11.59116299999999
 10
34.91870239900001
 20
-11.57247049400001
 10
34.92780400000001
 20
-11.55352300000004
 10
34.93639982569999
 20
-11.53430399410001
 10
34.944469
 20
-11.514858
 10
34.95201882879999
 20
-11.49516457810006
 10
34.95903000000001
 20
-11.47527300000001
 10
34.96550997440002
 20
-11.45516033090001
 10
34.971441
 20
-11.43487900000002
 10
34.97683005119998
 20
-11.41440090180003
 10
34.98166100000001
 20
-11.39378400000004
 10
34.98594017690002
 20
-11.37299670940001
 10
34.989654
 20
-11.352101
 10
34.99280748279998
 20
-11.33106284590002
 10
34.99539000000002
 20
-11.30994700000002
 10
34.99740497729999
 20
-11.28871588010003
 10
34.99884499999999
 20
-11.26743800000002
 10
34.99981399999999
 20
-11.23644999999999
 10
34.99995300000001
 20
-11.23065600000001
 10
35.0
 20
-11.224692
 10
34.99971154199997
 20
-11.24607278019999
  0
LINE
  5
2376
330
22
100
AcDbEntity
  8
3
100
AcDbLine
 10
3.0
 20
2.0
 30
0.0
 11
0.0
 21
2.0
 31
0.0
  0
LINE
  5
2378
330
22
100
AcDbEntity
  8
3
100
AcDbLine
 10
4.201721238099992
 20
0.0
 30
0.0
 11
3.0
 21
-2.0
 31
0.0
  0
LINE
  5
2379
330
22
100
AcDbEntity
  8
3
100
AcDbLine
 10
3.0
 20
-2.0
 30
0.0
 11
0.0
 21
-2.0
 31
0.0
  0
LINE
  5
237A
330
22
100
AcDbEntity
  8
3
100
AcDbLine
 10
4.201721238099992
 20
0.0
 30
0.0
 11
3.0
 21
2.0
 31
0.0
  0
LINE
  5
237B
330
22
100
AcDbEntity
  8
3
100
AcDbLine
 10
3.0
 20
2.0
 30
0.0
 11
3.0
 21
-2.0
 31
0.0
  0
LINE
  5
2391
330
22
100
AcDbEntity
  8
SK3
100
AcDbLine
 10
-20.5
 20
2.0
 30
0.0
 11
-20.5
 21
-2.0
 31
0.0
  0
LWPOLYLINE
  5
292D
330
22
100
AcDbEntity
  8
1
100
AcDbPolyline
 90
       10
 70
     0
 43
0.0
 10
34.54009222410002
 20
-11.69721783419999
 10
34.54545402080004
 20
-11.69048709890001
 10
34.55086185860003
 20
-11.6839093067
 10
34.55630773820002
 20
-11.67745377540001
 10
34.56178875640001
 20
-11.67109473750002
 10
34.56728655420003
 20
-11.66483940900002
 10
34.57278981180002
 20
-11.65868195540002
 10
34.57827962600004
 20
-11.6526300676
 10
34.58373701690005
 20
-11.6466904833
 10
34.58915648150003
 20
-11.6408597322
  0
LINE
  5
2939
330
22
100
AcDbEntity
  8
1
100
AcDbLine
 10
34.58915648150003
 20
-11.6408597322
 30
0.0
 11
34.59984952550002
 21
-11.62951514650001
 31
0.0
  0
LINE
  5
293A
330
22
100
AcDbEntity
  8
1
100
AcDbLine
 10
34.59984952550002
 20
-11.62951514650001
 30
0.0
 11
34.61021589340004
 21
-11.61868038629995
 31
0.0
  0
LINE
  5
293B
330
22
100
AcDbEntity
  8
1
100
AcDbLine
 10
34.61021589340004
 20
-11.61868038629995
 30
0.0
 11
34.62015703920002
 21
-11.60840544069998
 31
0.0
  0
LINE
  5
293C
330
22
100
AcDbEntity
  8
1
100
AcDbLine
 10
34.62015703920002
 20
-11.60840544069998
 30
0.0
 11
34.63427847150001
 21
-11.59395242190004
 31
0.0
  0
LINE
  5
293D
330
22
100
AcDbEntity
  8
1
100
AcDbLine
 10
34.63427847150001
 20
-11.59395242190004
 30
0.0
 11
34.65595086020005
 21
-11.57199174510003
 31
0.0
  0
LINE
  5
293E
330
22
100
AcDbEntity
  8
1
100
AcDbLine
 10
34.65595086020005
 20
-11.57199174510003
 30
0.0
 11
34.68460524240004
 21
-11.54319285280002
 31
0.0
  0
LINE
  5
293F
330
22
100
AcDbEntity
  8
1
100
AcDbLine
 10
34.68460524240004
 20
-11.54319285280002
 30
0.0
 11
34.70895442620002
 21
-11.5188890768
 31
0.0
  0
LINE
  5
2940
330
22
100
AcDbEntity
  8
1
100
AcDbLine
 10
34.70895442620002
 20
-11.5188890768
 30
0.0
 11
34.72574187960004
 21
-11.50226681050003
 31
0.0
  0
LINE
  5
2941
330
22
100
AcDbEntity
  8
1
100
AcDbLine
 10
34.72574187960004
 20
-11.50226681050003
 30
0.0
 11
34.73916109780001
 21
-11.48911287160001
 31
0.0
  0
LINE
  5
2942
330
22
100
AcDbEntity
  8
1
100
AcDbLine
 10
34.73916109780001
 20
-11.48911287160001
 30
0.0
 11
34.74853213340003
 21
-11.48002950059998
 31
0.0
  0
LWPOLYLINE
  5
2943
330
22
100
AcDbEntity
  8
1
100
AcDbPolyline
 90
       14
 70
     0
 43
0.0
 10
34.74853213340003
 20
-11.48002950059998
 10
34.75825604350001
 20
-11.47072628029997
 10
34.76322811340003
 20
-11.46602964679999
 10
34.76825602820003
 20
-11.46132874250003
 10
34.7733220138
 20
-11.45664907480005
 10
34.77843051730002
 20
-11.4519975549
 10
34.783581153
 20
-11.4473834593
 10
34.78876452280002
 20
-11.44282853379997
 10
34.79397102390001
 20
-11.43835372910001
 10
34.79920031960001
 20
-11.43397610440001
 10
34.80444155830003
 20
-11.42971762050001
 10
34.80971185460001
 20
-11.42558971769995
 10
34.81503060540001
 20
-11.42161126489998
 10
34.83018285770004
 20
-11.4106817169
  0
LWPOLYLINE
  5
2953
330
22
100
AcDbEntity
  8
1
100
AcDbPolyline
 90
        9
 70
     0
 43
0.0
 10
34.45402763590005
 20
-11.78976624910001
 10
34.46426630970001
 20
-11.78090380309999
 10
34.47446750270004
 20
-11.77153740019997
 10
34.48463189830003
 20
-11.76167846519996
 10
34.49475744660003
 20
-11.75129272410004
 10
34.50484646910002
 20
-11.74035515379995
 10
34.51488653470003
 20
-11.72884942749999
 10
34.52486452900001
 20
-11.71674779440002
 10
34.54009222410002
 20
-11.69721783419999
  0
LWPOLYLINE
  5
295E
330
22
100
AcDbEntity
  8
1
100
AcDbPolyline
 90
        8
 70
     0
 43
0.0
 10
34.83018285770004
 20
-11.4106817169
 10
34.83955478040002
 20
-11.40338524599997
 10
34.84846836340003
 20
-11.39589165289999
 10
34.85694455340001
 20
-11.38821995910001
 10
34.86499574440003
 20
-11.38038587440002
 10
34.87264061310003
 20
-11.37239299379996
 10
34.87990481860004
 20
-11.36425125319999
 10
34.88677980790001
 20
-11.35595734050002
  0
LWPOLYLINE
  5
2968
330
22
100
AcDbEntity
  8
1
100
AcDbPolyline
 90
       29
 70
     0
 43
0.0
 10
34.06100645190003
 20
11.55316531839997
 10
34.08620642650004
 20
11.54294826620003
 10
34.11107084650002
 20
11.53199720330002
 10
34.13561040090002
 20
11.52030684139998
 10
34.15979302240004
 20
11.50789304519998
 10
34.18359700050002
 20
11.4947657655
 10
34.20700195300003
 20
11.48093745550005
 10
34.22998679720001
 20
11.46641933800004
 10
34.25253192370002
 20
11.45122505489996
 10
34.27461695160002
 20
11.43536706160006
 10
34.29622311330002
 20
11.41886014099998
 10
34.31733080110002
 20
11.40171793730002
 10
34.33792215530002
 20
11.38395632250001
 10
34.35797841000005
 20
11.36559008160003
 10
34.37748267600003
 20
11.34663612010001
 10
34.39641709530003
 20
11.32711031190001
 10
34.41476580840003
 20
11.30703053669998
 10
34.43251192800003
 20
11.28641370150001
 10
34.44964067990003
 20
11.26527859739997
 10
34.46613620650004
 20
11.24364310530001
 10
34.48198487110005
 20
11.22152686150002
 10
34.49717190160004
 20
11.19894865830002
 10
34.5116848463
 20
11.17592890830002
 10
34.52551007050002
 20
11.15248724879996
 10
34.53863635140002
 20
11.12864479730001
 10
34.5510512395
 20
11.10442196759999
 10
34.56274478010005
 20
11.07984050730005
 10
34.57370110600005
 20
11.05493253819997
 10
34.58392550610003
 20
11.02968735309997
  0
LWPOLYLINE
  5
299D
330
22
100
AcDbEntity
  8
1
100
AcDbPolyline
 90
       31
 70
     0
 43
0.0
 10
34.02746689390003
 20
-10.70458823489997
 10
34.03708175880002
 20
-10.70041773100001
 10
34.04599983440005
 20
-10.69608628370002
 10
34.05418505970002
 20
-10.69158662230006
 10
34.0617456178
 20
-10.68694055919997
 10
34.06876537820003
 20
-10.68216569699996
 10
34.07528122070002
 20
-10.677267395
 10
34.08135560910003
 20
-10.6722484238
 10
34.08699566050001
 20
-10.66713415139997
 10
34.09221936350002
 20
-10.66195014190003
 10
34.09705656740005
 20
-10.65669857769995
 10
34.10153745750003
 20
-10.65138763379997
 10
34.10567901540003
 20
-10.64602489690003
 10
34.10950386430002
 20
-10.6406175729
 10
34.11302526430004
 20
-10.6351749785
 10
34.11625610860003
 20
-10.62971485449998
 10
34.11922012120002
 20
-10.62421913499997
 10
34.12193954740002
 20
-10.61868562480003
 10
34.12443171690004
 20
-10.61308445339995
 10
34.12672345920004
 20
-10.60737930190004
 10
34.12880851940002
 20
-10.6015873206
 10
34.13068862560002
 20
-10.59571374709998
 10
34.13236665770003
 20
-10.58975800120004
 10
34.13384449680001
 20
-10.58372947089998
 10
34.13512686640002
 20
-10.57760348949995
 10
34.13622052000003
 20
-10.5713590208
 10
34.13712124860004
 20
-10.5649945618
 10
34.13782854780001
 20
-10.55850065239997
 10
34.13833805760004
 20
-10.55188012800005
 10
34.13864468380001
 20
-10.54513263109999
 10
34.13875012440002
 20
-10.53825828089998
  0
LWPOLYLINE
  5
29BE
330
22
100
AcDbEntity
  8
1
100
AcDbPolyline
 90
       15
 70
     0
 43
0.0
 10
26.49098838550003
 20
10.69559030239997
 10
26.49042693570005
 20
10.6955575586
 10
26.48987931460002
 20
10.69546379580003
 10
26.48934225600005
 20
10.6953078921
 10
26.48882555830002
 20
10.69509321319998
 10
26.48833599280002
 20
10.69482124000001
 10
26.48787937430004
 20
10.69449650600001
 10
26.48746230470002
 20
10.69412217870001
 10
26.48708919410001
 20
10.6937038369
 10
26.48676561560001
 20
10.69324596589996
 10
26.48649468090003
 20
10.69275501379997
 10
26.48628082630001
 20
10.69223659849996
 10
26.48612565030001
 20
10.69169769620003
 10
26.48603261460002
 20
10.69114826169999
 10
26.4860005653
 20
10.69058497679998
  0
LWPOLYLINE
  5
29CF
330
22
100
AcDbEntity
  8
1
100
AcDbPolyline
 90
       13
 70
     0
 43
0.0
 10
17.16284210969999
 20
10.47790103609998
 10
17.20663870539999
 20
10.48003613989999
 10
17.2497586268
 20
10.48591345910006
 10
17.29235705510001
 20
10.49557620169997
 10
17.33396844719999
 20
10.50889474349998
 10
17.37428138160001
 20
10.52581296739998
 10
17.4129886755
 20
10.54615355910005
 10
17.44976233940002
 20
10.56979325779997
 10
17.4843533714
 20
10.596513786
 10
17.51647185960002
 20
10.6261385208
 10
17.54591254430002
 20
10.65841923739998
 10
17.57233579110001
 20
10.69301044899998
 10
17.59585481160002
 20
10.73002731779996
  0
LINE
  5
29DE
330
22
100
AcDbEntity
  8
1
100
AcDbLine
 10
34.10974334890003
 20
11.84462186109999
 30
0.0
 11
34.16868286030001
 21
11.84684137690004
 31
0.0
  0
LINE
  5
29DF
330
22
100
AcDbEntity
  8
1
100
AcDbLine
 10
34.05244226070002
 20
11.84266598019997
 30
0.0
 11
34.10974334890003
 21
11.84462186109999
 31
0.0
  0
LWPOLYLINE
  5
29E0
330
22
100
AcDbEntity
  8
1
100
AcDbPolyline
 90
       53
 70
     0
 43
0.0
 10
34.16868286030001
 20
11.84684137690004
 10
34.19045495110004
 20
11.8473475083
 10
34.21219235100003
 20
11.84716800389998
 10
34.23390918940004
 20
11.84630147199999
 10
34.25556307880004
 20
11.84475208730003
 10
34.27712259100002
 20
11.84252186179998
 10
34.29856897800002
 20
11.83961589149999
 10
34.31988363940002
 20
11.83603686570001
 10
34.34103470330001
 20
11.83179401709998
 10
34.3619859314
 20
11.82689598489997
 10
34.38273182320001
 20
11.82134723889999
 10
34.40326338400002
 20
11.81515184379998
 10
34.4235548588
 20
11.80831965459998
 10
34.44357807200001
 20
11.80086092559998
 10
34.46333129040002
 20
11.79277852440003
 10
34.48281210860003
 20
11.7840741969
 10
34.50199436830002
 20
11.77476156160003
 10
34.52085373840004
 20
11.76485309980001
 10
34.53938233180003
 20
11.75435396910001
 10
34.55757578250001
 20
11.74326571349996
 10
34.57539919640002
 20
11.73161165480002
 10
34.59281908550003
 20
11.71941247730001
 10
34.60982686530002
 20
11.70667763739999
 10
34.62640757130003
 20
11.69341910399998
 10
34.64254685600002
 20
11.67965002440002
 10
34.65822814890004
 20
11.66538480179997
 10
34.67344315500003
 20
11.65063163779996
 10
34.68818118000001
 20
11.63539998279998
 10
34.70243285130002
 20
11.61970049320001
 10
34.71619004440004
 20
11.60354141800002
 10
34.72943832020002
 20
11.58693942959996
 10
34.7421644213
 20
11.56990910300004
 10
34.75435667880004
 20
11.55246497900003
 10
34.76600593210003
 20
11.53461527269996
 10
34.77709139970003
 20
11.51639353680002
 10
34.78758984090001
 20
11.49783447550004
 10
34.79749947330004
 20
11.47894284910001
 10
34.8068149005
 20
11.45972691139997
 10
34.81552372430002
 20
11.44021088569997
 10
34.82361236460003
 20
11.4204208342
 10
34.83107897000002
 20
11.40035949330001
 10
34.83792055010002
 20
11.38002894050004
 10
34.84412694190002
 20
11.35945721360002
 10
34.84968835210003
 20
11.33866994639999
 10
34.85460068180004
 20
11.31767642829999
 10
34.85885941330002
 20
11.2964826072
 10
34.86245601090002
 20
11.27512414089995
 10
34.86538136260004
 20
11.25363232080002
 10
34.86763268010003
 20
11.23202619389997
 10
34.86920480930002
 20
11.21032466379995
 10
34.8700957355
 20
11.18855945269996
 10
34.87030125930005
 20
11.16677333720002
 10
34.86982278070002
 20
11.14495205849999
  0
LWPOLYLINE
  5
2A17
330
22
100
AcDbEntity
  8
1
100
AcDbPolyline
 90
       11
 70
     0
 43
0.0
 10
33.75046414330001
 20
11.83686627230003
 10
33.77775102110002
 20
11.83701855129999
 10
33.80496326380001
 20
11.83725205660005
 10
33.83214702740003
 20
11.83756360940003
 10
33.85933323910001
 20
11.83795090789999
 10
33.88655219910004
 20
11.83841238050002
 10
33.91383294760004
 20
11.83894552890001
 10
33.94121019160002
 20
11.83955083209997
 10
33.96871145010005
 20
11.84022941900002
 10
33.99638732640003
 20
11.8409768418
 10
34.05244226070002
 20
11.84266598019997
  0
LWPOLYLINE
  5
2A24
330
22
100
AcDbEntity
  8
1
100
AcDbPolyline
 90
        7
 70
     0
 43
0.0
 10
17.16284210969999
 20
10.47790103609998
 10
15.97203822940002
 20
10.47216369149998
 10
14.78215889840001
 20
10.46576883699998
 10
13.59315298500002
 20
10.45871585879996
 10
12.40517388500001
 20
10.45100659870002
 10
11.2183749941
 20
10.44264289839998
 10
10.03270518050001
 20
10.43362414400002
  0
LWPOLYLINE
  5
2A2D
330
22
100
AcDbEntity
  8
1
100
AcDbPolyline
 90
        5
 70
     0
 43
0.0
 10
23.83091141950001
 20
11.44766042399999
 10
22.44514556070004
 20
11.44529166309996
 10
21.05951756030001
 20
11.4421030039
 10
19.67402741830003
 20
11.43809444650003
 10
18.2886751346
 20
11.43326599069996
  0
LINE
  5
2A34
330
22
100
AcDbEntity
  8
1
100
AcDbLine
 10
26.00460764430002
 20
11.96735323569999
 30
0.0
 11
34.21926466160002
 21
11.97737833029998
 31
0.0
  0
LINE
  5
2A35
330
22
100
AcDbEntity
  8
1
100
AcDbLine
 10
33.75046414330001
 20
11.83686627230003
 30
0.0
 11
26.50075429180004
 21
11.82798005129996
 31
0.0
  0
LINE
  5
2A36
330
22
100
AcDbEntity
  8
1
100
AcDbLine
 10
26.50633480970004
 20
11.60638062589999
 30
0.0
 11
33.72869853360004
 21
11.61519473459998
 31
0.0
  0
LINE
  5
2A37
330
22
100
AcDbEntity
  8
1
100
AcDbLine
 10
26.50633480970004
 20
11.10545693059998
 30
0.0
 11
33.72869853360004
 21
11.11427103929998
 31
0.0
  0
LINE
  5
2A38
330
22
100
AcDbEntity
  8
1
100
AcDbLine
 10
33.71335210940003
 20
10.70440441110003
 30
0.0
 11
26.49098838550003
 21
10.69559030239997
 31
0.0
  0
LINE
  5
2A39
330
22
100
AcDbEntity
  8
1
100
AcDbLine
 10
6.066649310299993
 20
10.5
 30
0.0
 11
0.4000000000000057
 21
10.5
 31
0.0
  0
LWPOLYLINE
  5
2A3A
330
22
100
AcDbEntity
  8
1
100
AcDbPolyline
 90
       12
 70
     0
 43
0.0
 10
6.066111953100005
 20
10.49999500109999
 10
6.196552494000002
 20
10.49948520199996
 10
6.536192193200008
 20
10.49492261849997
 10
6.882814504400016
 20
10.48703422689999
 10
7.242598109800013
 20
10.47696872540001
 10
7.615132747399997
 20
10.46600037360002
 10
8.003949256600009
 20
10.45514031660002
 10
8.4034030153
 20
10.44549414949995
 10
8.810635905800012
 20
10.43808453059995
 10
9.220819253400009
 20
10.43343035739997
 10
9.627449005000016
 20
10.43191144699995
 10
10.0326931783
 20
10.43362404279998
  0
LWPOLYLINE
  5
2A48
330
22
100
AcDbEntity
  8
1
100
AcDbPolyline
 90
       15
 70
     0
 43
0.0
 10
33.72869853360004
 20
11.61519473459998
 10
33.75299267120002
 20
11.61490178989999
 10
33.77725279170002
 20
11.6139654232
 10
33.80148737570002
 20
11.61238496839996
 10
33.82567098180004
 20
11.61016242370005
 10
33.84978660170003
 20
11.60729867250001
 10
33.8738174174
 20
11.60379639360002
 10
33.89774649180004
 20
11.59965737129994
 10
33.92155717320003
 20
11.59488517300002
 10
33.94523264360004
 20
11.58948247879999
 10
33.96875646390004
 20
11.58345373449998
 10
33.99211198230001
 20
11.57680250890001
 10
34.01528301860003
 20
11.56953411360001
 10
34.03824512540001
 20
11.56165586279996
 10
34.06100645190003
 20
11.55316531839997
  0
LWPOLYLINE
  5
2A59
330
22
100
AcDbEntity
  8
1
100
AcDbPolyline
 90
       51
 70
     0
 43
0.0
 10
34.21926466160002
 20
11.97737833029998
 10
34.24412870980001
 20
11.97701762879995
 10
34.26891230070004
 20
11.9758822178
 10
34.29362722870002
 20
11.97397017230003
 10
34.31823811050004
 20
11.97128726789998
 10
34.34272109250003
 20
11.96783666639999
 10
34.36705338010003
 20
11.9636242848
 10
34.39121161860004
 20
11.95865469739999
 10
34.41517363580004
 20
11.95293509399999
 10
34.43891663610003
 20
11.94647139349996
 10
34.46241913530002
 20
11.93927198199998
 10
34.48565898520002
 20
11.93134404160002
 10
34.50861538230004
 20
11.92269710209996
 10
34.53126682320004
 20
11.91333955430002
 10
34.55359325850003
 20
11.90328199610002
 10
34.57557390530002
 20
11.89253394849999
 10
34.59718945950001
 20
11.88110703339998
 10
34.61841986680003
 20
11.8690118476
 10
34.63924659490004
 20
11.85626098760002
 10
34.65965033830002
 20
11.8428660747
 10
34.67961336160002
 20
11.82884063169996
 10
34.69911714080001
 20
11.81419724669996
 10
34.71814473620003
 20
11.7989503453
 10
34.73667840420001
 20
11.78311345279996
 10
34.75470203270004
 20
11.76670185839998
 10
34.77219868560002
 20
11.7497299817
 10
34.78915309090002
 20
11.73221395629997
 10
34.80554913340004
 20
11.71416906980005
 10
34.82137240610004
 20
11.6956122793
 10
34.83660763530003
 20
11.6765597154
 10
34.85124130510002
 20
11.6570291461
 10
34.86525900220002
 20
11.63703753250001
 10
34.87864814540001
 20
11.61660342529995
 10
34.89139522120002
 20
11.59574458410003
 10
34.90348861180001
 20
11.57448034419997
 10
34.91491572690004
 20
11.55282926529997
 10
34.92566596990002
 20
11.5308114343
 10
34.93572772210001
 20
11.50844618529998
 10
34.94509145910001
 20
11.48575433720003
 10
34.95374658280002
 20
11.46275597309994
 10
34.96168469550003
 20
11.43947263480004
 10
34.96889626430004
 20
11.4159251625
 10
34.97537409670002
 20
11.3921357447
 10
34.98110980040002
 20
11.36812590370005
 10
34.98609744190003
 20
11.34391847889998
 10
34.99032982140003
 20
11.31953568349996
 10
34.99380234620003
 20
11.29500091889997
 10
34.99650908530004
 20
11.27033702289998
 10
34.99844685460002
 20
11.24556789949997
 10
34.99960984770002
 20
11.22072900469999
 10
35.00000000000003
 20
11.19580852000001
  0
LWPOLYLINE
  5
2A8E
330
22
100
AcDbEntity
  8
1
100
AcDbPolyline
 90
       45
 70
     0
 43
0.0
 10
33.72869853360004
 20
11.11427103929998
 10
33.74361801350003
 20
11.114021874
 10
33.75849953030002
 20
11.11324063410001
 10
33.77335252680001
 20
11.11192631379998
 10
33.78814867470004
 20
11.1100819307
 10
33.80286899230004
 20
11.10770882410003
 10
33.81749488340003
 20
11.10481102400001
 10
33.83200751160001
 20
11.10139122339996
 10
33.84638861670004
 20
11.09745477199999
 10
33.86061960350003
 20
11.09300570309994
 10
33.8746826405
 20
11.08805065910002
 10
33.88855946840005
 20
11.08259499280001
 10
33.90223277590002
 20
11.07664660519998
 10
33.91568473290002
 20
11.07021214160005
 10
33.92889863580001
 20
11.06330072120005
 10
33.94185717440001
 20
11.055920248
 10
33.95454433820004
 20
11.048081013
 10
33.96694342520004
 20
11.03979213849999
 10
33.97903919960004
 20
11.03106503499998
 10
33.99081565270004
 20
11.0219099967
 10
34.00225840090002
 20
11.01233949519996
 10
34.01335221030001
 20
11.00236494410001
 10
34.02408362310001
 20
10.991999813
 10
34.03443825780002
 20
10.98125657629998
 10
34.04440365060003
 20
10.97014963279997
 10
34.05396634600004
 20
10.95869245480003
 10
34.06311493780001
 20
10.94690029669999
 10
34.07183696480001
 20
10.93478755960001
 10
34.08012213660004
 20
10.92237027599998
 10
34.08795905000002
 20
10.90966370269996
 10
34.09533858280003
 20
10.89668456859999
 10
34.10225044670003
 20
10.88344890999997
 10
34.10868673680003
 20
10.86997406109998
 10
34.11463832570002
 20
10.85627678349999
 10
34.12009859160003
 20
10.84237483070001
 10
34.12505967780001
 20
10.82828539800005
 10
34.12951616110002
 20
10.81402692239999
 10
34.13346134320003
 20
10.79961737320002
 10
34.13689119190002
 20
10.78507534910005
 10
34.13980034590003
 20
10.77041914589995
 10
34.14218609350001
 20
10.75566764080003
 10
34.14404438990002
 20
10.74083946819996
 10
34.14537387400003
 20
10.7259536528
 10
34.14617149810002
 20
10.71103858519996
 10
34.14643827810002
 20
10.69608480199997
  0
LWPOLYLINE
  5
2ABD
330
22
100
AcDbEntity
  8
1
100
AcDbPolyline
 90
       10
 70
     0
 43
0.0
 10
26.25624787340001
 20
11.83079056230002
 10
26.28379858410003
 20
11.83018062650001
 10
26.31112879670002
 20
11.82964587750001
 10
26.33829561960002
 20
11.82918403180002
 10
26.36534357490001
 20
11.82879369730005
 10
26.39232994840003
 20
11.82847706780001
 10
26.41930803690002
 20
11.8282350339
 10
26.44633432950002
 20
11.82807011269995
 10
26.47349236300002
 20
11.8279854703
 10
26.50075429180004
 20
11.82798005129996
  0
LINE
  5
2AC9
330
22
100
AcDbEntity
  8
1
100
AcDbLine
 10
26.20039507980002
 20
11.83221686559994
 30
0.0
 11
26.25624787340001
 21
11.83079056230002
 31
0.0
  0
LINE
  5
2ACA
330
22
100
AcDbEntity
  8
1
100
AcDbLine
 10
26.14336835720002
 20
11.83391050069997
 30
0.0
 11
26.20039507980002
 21
11.83221686559994
 31
0.0
  0
LWPOLYLINE
  5
2ACB
330
22
100
AcDbEntity
  8
1
100
AcDbPolyline
 90
        3
 70
     0
 43
0.0
 10
26.05518944580001
 20
11.83693974139998
 10
26.08495615520002
 20
11.83586606620002
 10
26.14336835720002
 20
11.83391050069997
  0
LINE
  5
2AD7
330
22
100
AcDbEntity
  8
1
100
AcDbLine
 10
25.16077454970002
 20
10.82051496220003
 30
0.0
 11
25.22387230750002
 21
10.79775226510003
 31
0.0
  0
LWPOLYLINE
  5
2AD8
330
22
100
AcDbEntity
  8
1
100
AcDbPolyline
 90
        5
 70
     0
 43
0.0
 10
25.22643609060003
 20
10.76722469050003
 10
24.86048890010002
 20
10.9033701907
 10
24.5059190581
 20
11.06215797970003
 10
24.16272656450002
 20
11.24358805739996
 10
23.83091141950001
 20
11.44766042399999
  0
LWPOLYLINE
  5
2ADF
330
22
100
AcDbEntity
  8
1
100
AcDbPolyline
 90
      103
 70
     0
 43
0.0
 10
32.07617319730002
 20
9.197788993300036
 10
32.02820411480002
 20
9.2416047305
 10
31.97856489290001
 20
9.284926780399985
 10
31.92795288850005
 20
9.3271034192
 10
31.87639507590004
 20
9.368113687699974
 10
31.82391744900002
 20
9.407935418399972
 10
31.77054790710002
 20
9.446548905599968
 10
31.7163134255
 20
9.483933191600044
 10
31.66124277090003
 20
9.520069864999982
 10
31.60536384370002
 20
9.554939221699953
 10
31.54870621870003
 20
9.588524182699984
 10
31.49129866360005
 20
9.620806337899978
 10
31.43317149980004
 20
9.651769976399975
 10
31.37435430280002
 20
9.681398020599999
 10
31.31487807760005
 20
9.709676159800039
 10
31.25477314630001
 20
9.7365886842
 10
31.19407113320003
 20
9.762122713300016
 10
31.13280304420005
 20
9.78626393769997
 10
31.07100105750004
 20
9.809000933499987
 10
31.00869679830004
 20
9.830320821500038
 10
30.94592293200003
 20
9.85021365809996
 10
30.88271163770003
 20
9.868668020899974
 10
30.81909600020003
 20
9.885675467399948
 10
30.75510868580002
 20
9.901226055599977
 10
30.69078313030002
 20
9.915312861500012
 10
30.62615241930001
 20
9.927927444100021
 10
30.56125027040002
 20
9.939064412300012
 10
30.49611011980002
 20
9.948716843599981
 10
30.43076589690003
 20
9.956880890999968
 10
30.36525131970001
 20
9.963551165000012
 10
30.2996004588
 20
9.968725370400022
 10
30.23384724390002
 20
9.972399661800011
 10
30.16802581650001
 20
9.974573300899976
 10
30.10217024750003
 20
9.975243994199956
 10
30.03631467840004
 20
9.974412561800022
 10
29.97049325100005
 20
9.972078266900041
 10
29.90474003610004
 20
9.968243486200037
 10
29.83908917520003
 20
9.962909041399996
 10
29.77357459800004
 20
9.956078860599973
 10
29.70823037510001
 20
9.947755322099965
 10
29.64309022450001
 20
9.937943897900026
 10
29.57818807560002
 20
9.926648517699959
 10
29.51355736460002
 20
9.913876185599974
 10
29.44923180910001
 20
9.89963237500001
 10
29.38524449470003
 20
9.88392560769995
 10
29.32162885730003
 20
9.866762889299991
 10
29.25841756290004
 20
9.848154241500026
 10
29.19564369660003
 20
9.828108187499992
 10
29.13333943740003
 20
9.806636228399952
 10
29.07153745070002
 20
9.783748387399953
 10
29.01026936170001
 20
9.759457620899979
 10
28.94956734860003
 20
9.733775431500021
 10
28.88946241730002
 20
9.706716204000031
 10
28.82998619210002
 20
9.678292896299979
 10
28.77116899510003
 20
9.64852129220003
 10
28.71304183130002
 20
9.617415777900021
 10
28.65563427620003
 20
9.58499350330004
 10
28.59897665120002
 20
9.551270253399934
 10
28.54309772410002
 20
9.5162645085
 10
28.48802706950002
 20
9.479993419499976
 10
28.43379258780002
 20
9.442476758999987
 10
28.38042304590004
 20
9.403733008300036
 10
28.327945419
 20
9.363783191200013
 10
28.27638760640002
 20
9.322647081200045
 10
28.225775602
 20
9.280346909599984
 10
28.17613638010005
 20
9.236903701200048
 10
28.12749489960004
 20
9.192340848599997
 10
28.07987715320002
 20
9.14668058440003
 10
28.03330701330003
 20
9.099947414199959
 10
27.98780943760005
 20
9.052164732099981
 10
27.94340716200003
 20
9.003358106000007
 10
27.90012405760001
 20
8.953552042799969
 10
27.85798167690004
 20
8.902773119899961
 10
27.81700275460003
 20
8.851046906299984
 10
27.77720761520004
 20
8.798400933700008
 10
27.73861781020003
 20
8.74486178029997
 10
27.70125239370003
 20
8.690457874800017
 10
27.66513168910001
 20
8.635216749599976
 10
27.63027344110003
 20
8.579167671600032
 10
27.59669670260001
 20
8.522339070300006
 10
27.56441787200003
 20
8.464760990000002
 10
27.53345469260003
 20
8.406462698600023
 10
27.50382218230004
 20
8.347474955500047
 10
27.47553673790003
 20
8.287827805899951
 10
27.44861196580001
 20
8.227552661000004
 10
27.42306288220002
 20
8.166680281299989
 10
27.39890165390003
 20
8.105242664100046
 10
27.37614188570001
 20
8.043271221400004
 10
27.35479427910002
 20
7.980798470699994
 10
27.33487099920001
 20
7.917856410299975
 10
27.31638126050001
 20
7.854478010599962
 10
27.29933576300002
 20
7.790695789499977
 10
27.28374221500002
 20
7.726543101999993
 10
27.26960982930001
 20
7.662052918799986
 10
27.25694479200001
 20
7.597258909800018
 10
27.24575480960002
 20
7.532194430000004
 10
27.23604453320002
 20
7.466893394999999
 10
27.22782014710003
 20
7.401389474899985
 10
27.22108475760001
 20
7.335716760199943
 10
27.21584301410002
 20
7.269909166499985
 10
27.21209647170002
 20
7.204000888899997
 10
27.20984862340003
 20
7.138043115100003
 10
27.20909830500003
 20
7.072018782399993
  0
LWPOLYLINE
  5
2B48
330
22
100
AcDbEntity
  8
1
100
AcDbPolyline
 90
       15
 70
     0
 43
0.0
 10
34.58392550610003
 20
11.02968735309997
 10
34.59242437250003
 20
11.00688429280001
 10
34.60031258820004
 20
10.98387924730002
 10
34.60759259570003
 20
10.96066405169995
 10
34.6142570678
 20
10.93726320050001
 10
34.62030068520005
 20
10.91369290449995
 10
34.62571986700002
 20
10.88996984919998
 10
34.63051015770003
 20
10.86611050589994
 10
34.63466886270004
 20
10.84213172769995
 10
34.63819240240002
 20
10.81805020019999
 10
34.64107897610003
 20
10.79388289699994
 10
34.64332589060001
 20
10.76964667129999
 10
34.64493224380002
 20
10.74535856929998
 10
34.64589601110004
 20
10.72104408800004
 10
34.64621786730004
 20
10.69669472859999
  0
LWPOLYLINE
  5
2B59
330
22
100
AcDbEntity
  8
1
100
AcDbPolyline
 90
       15
 70
     0
 43
0.0
 10
33.71833992960001
 20
10.69941125970001
 10
33.71830794430002
 20
10.69997395569999
 10
33.71821506250001
 20
10.7005227171
 10
33.71806016870002
 20
10.70106081609998
 10
33.71784660930001
 20
10.70157843599997
 10
33.71757585340004
 20
10.70206879190005
 10
33.71725241710001
 20
10.70252606099995
 10
33.71687945250002
 20
10.70294363010003
 10
33.71646252050002
 20
10.70331708610001
 10
33.71600608920002
 20
10.70364084819999
 10
33.71551658840002
 20
10.70391180589996
 10
33.71499961750004
 20
10.70412551910004
 10
33.71446213500002
 20
10.70428039440003
 10
33.71391406870003
 20
10.7043729742
 10
33.71335210940003
 20
10.70440441110003
  0
LINE
  5
2B6A
330
22
100
AcDbEntity
  8
1
100
AcDbLine
 10
34.86768009930003
 20
3.071956882800009
 30
0.0
 11
34.86982278070002
 21
3.01288506039998
 31
0.0
  0
LINE
  5
2B6B
330
22
100
AcDbEntity
  8
1
100
AcDbLine
 10
34.86579845560001
 20
3.129386849599995
 30
0.0
 11
34.86768009930003
 21
3.071956882800009
 31
0.0
  0
LWPOLYLINE
  5
2B6C
330
22
100
AcDbEntity
  8
1
100
AcDbPolyline
 90
       53
 70
     0
 43
0.0
 10
34.86982278070002
 20
3.01288506039998
 10
34.87030124630002
 20
2.991063712500022
 10
34.87009568430003
 20
2.969276299999989
 10
34.86920468900001
 20
2.947508659700019
 10
34.86763247720001
 20
2.925803280999957
 10
34.86538109450001
 20
2.9041916667
 10
34.86245564820001
 20
2.882692614100051
 10
34.85885884410004
 20
2.861324769299983
 10
34.85459993240002
 20
2.840120088300011
 10
34.849687577
 20
2.819114903300032
 10
34.84412624400003
 20
2.798314732600033
 10
34.83791999980002
 20
2.777728596500026
 10
34.83107870830003
 20
2.757382320999965
 10
34.82361263460001
 20
2.737304158799986
 10
34.81552464190003
 20
2.717495850399984
 10
34.80681647510005
 20
2.697959808900009
 10
34.79750175340001
 20
2.67872226930001
 10
34.78759295920003
 20
2.659807633300033
 10
34.77709524790004
 20
2.641223812600003
 10
34.76601016540002
 20
2.622975184899985
 10
34.75436102260002
 20
2.605096752799965
 10
34.74216849740003
 20
2.587622106100013
 10
34.72944203510002
 20
2.570559860500054
 10
34.71619359530001
 20
2.553925029400033
 10
34.70243631290003
 20
2.537732009100011
 10
34.68818457840001
 20
2.521997425599977
 10
34.6734465847
 20
2.506729602799964
 10
34.65823177360005
 20
2.49193927120001
 10
34.64255078860003
 20
2.477635837799994
 10
34.62641186990004
 20
2.46382745569997
 10
34.60983166910003
 20
2.450528617300051
 10
34.59282474420002
 20
2.437752628399948
 10
34.57540561720004
 20
2.425511201900008
 10
34.55758249540003
 20
2.413813529800052
 10
34.53938888000005
 20
2.402680481800018
 10
34.52085942460002
 20
2.392135394199954
 10
34.50199888050003
 20
2.382180059199981
 10
34.48281548940002
 20
2.37281989569999
 10
34.46333343430001
 20
2.364067359800003
 10
34.44357873440003
 20
2.355936094400021
 10
34.42355412210003
 20
2.348427958399952
 10
34.40326167380002
 20
2.34154595169997
 10
34.38272937570002
 20
2.33530029459996
 10
34.36198281490005
 20
2.329700834300012
 10
34.34103126460002
 20
2.32475168999997
 10
34.31988066460002
 20
2.320457397499978
 10
34.29856660160004
 20
2.316826554999977
 10
34.27712030680004
 20
2.313868333599998
 10
34.25556078700004
 20
2.31158555129997
 10
34.23390690880001
 20
2.309983396999939
 10
34.2121903245
 20
2.309063928499995
 10
34.1904537181
 20
2.308831406999956
 10
34.16868286160002
 20
2.309284411999954
  0
LWPOLYLINE
  5
2BA3
330
22
100
AcDbEntity
  8
1
100
AcDbPolyline
 90
       55
 70
     0
 43
0.0
 10
34.9999500953
 20
-2.9391155056
 10
34.99988817870002
 20
-2.936052691500037
 10
34.99980078550001
 20
-2.933004997500006
 10
34.99968777150002
 20
-2.929958000800013
 10
34.99954706800003
 20
-2.926899036800023
 10
34.99937767720002
 20
-2.923815326200042
 10
34.99917624260002
 20
-2.920692790100019
 10
34.99894053970002
 20
-2.917516171299951
 10
34.99866617390001
 20
-2.914276225899982
 10
34.99834928590002
 20
-2.910956775999977
 10
34.99798604470001
 20
-2.907563366399983
 10
34.99757200830004
 20
-2.904090537499996
 10
34.99710515050003
 20
-2.900555124300012
 10
34.99658273980003
 20
-2.896969408500012
 10
34.99600245020002
 20
-2.893341590199952
 10
34.99536182240002
 20
-2.889681870699973
 10
34.99465852540001
 20
-2.885996528399971
 10
34.99389005830003
 20
-2.882293017600034
 10
34.99305447170002
 20
-2.878578012699961
 10
34.99214988660003
 20
-2.874859729899981
 10
34.99117359020005
 20
-2.871140997800011
 10
34.99012324100005
 20
-2.867426510699999
 10
34.98899584560002
 20
-2.863718886800029
 10
34.9877885537
 20
-2.860021036399984
 10
34.98649859450001
 20
-2.856336776600016
 10
34.98512345400002
 20
-2.8526701957
 10
34.98365951100004
 20
-2.849023390000013
 10
34.98210364110003
 20
-2.845399020000002
 10
34.98045183980003
 20
-2.841799483000045
 10
34.97870034900001
 20
-2.838226854100014
 10
34.97684530510003
 20
-2.834684760899961
 10
34.97488327130003
 20
-2.831176689499955
 10
34.97280920830002
 20
-2.827705139000045
 10
34.97061858480004
 20
-2.824272472799975
 10
34.96830643980002
 20
-2.820882584900004
 10
34.96586809890002
 20
-2.817538733600031
 10
34.96329817100002
 20
-2.814245188899974
 10
34.96059191450001
 20
-2.81100597110003
 10
34.95774270640004
 20
-2.807825087100013
 10
34.9547443756
 20
-2.804705955800045
 10
34.95159082600003
 20
-2.801654361900034
 10
34.94827663450002
 20
-2.798675535199947
 10
34.94479361130002
 20
-2.795774559199969
 10
34.94113425870001
 20
-2.792955912100012
 10
34.93729107740001
 20
-2.7902266392
 10
34.93325729280002
 20
-2.787592976399992
 10
34.92902323290002
 20
-2.785061830100005
 10
34.92458004590003
 20
-2.782639298399942
 10
34.91991849710001
 20
-2.780334041299965
 10
34.91503027740004
 20
-2.778153738100002
 10
34.90990375770002
 20
-2.776107429100022
 10
34.90452931980002
 20
-2.774203318799948
 10
34.89889262250003
 20
-2.772451594100061
 10
34.89297392510002
 20
-2.770866791999992
 10
34.88677980790001
 20
-2.769444066800019
  0
LWPOLYLINE
  5
2BDC
330
22
100
AcDbEntity
  8
1
100
AcDbPolyline
 90
       51
 70
     0
 43
0.0
 10
35.00000000000003
 20
-2.945342516700009
 10
34.9996098478
 20
-2.920417754000027
 10
34.99844685350002
 20
-2.895573644699993
 10
34.99650908200002
 20
-2.870798365399991
 10
34.99380233910003
 20
-2.846127386200009
 10
34.99032980820004
 20
-2.821584619299983
 10
34.98609742050002
 20
-2.797192914700019
 10
34.98110976850004
 20
-2.772975684299979
 10
34.97537405230003
 20
-2.748955154199961
 10
34.96889620540003
 20
-2.725154175999989
 10
34.96168462050003
 20
-2.701594286100032
 10
34.95374649060003
 20
-2.678297686800021
 10
34.94509134880002
 20
-2.655285232600022
 10
34.93572759310001
 20
-2.632578479100061
 10
34.92566582160004
 20
-2.610197524999989
 10
34.91491555870002
 20
-2.588163203700048
 10
34.90348842340003
 20
-2.566494866500022
 10
34.89139501270003
 20
-2.545212616699984
 10
34.87864791690004
 20
-2.524335031799978
 10
34.86525875420003
 20
-2.503881464599999
 10
34.85124103810003
 20
-2.483869693600013
 10
34.83660735060002
 20
-2.46431828819999
 10
34.82137210490004
 20
-2.445244229299987
 10
34.80554881710003
 20
-2.426665304000039
 10
34.78915276100003
 20
-2.408597663700049
 10
34.77219834410002
 20
-2.391058285700012
 10
34.75470168140004
 20
-2.374062479499968
 10
34.73667804530001
 20
-2.357626399400032
 10
34.71814437190005
 20
-2.341764487900036
 10
34.69911677350004
 20
-2.326492055899961
 10
34.67961299390004
 20
-2.311822652200021
 10
34.65964997290001
 20
-2.297770725199995
 10
34.63924623450004
 20
-2.284348887199996
 10
34.61841951370002
 20
-2.271570684300002
 10
34.5971891163
 20
-2.259447762900038
 10
34.57557357460002
 20
-2.247992743899999
 10
34.55359294270005
 20
-2.237216249899972
 10
34.53126652450001
 20
-2.22712992800001
 10
34.50861510310003
 20
-2.217743325699984
 10
34.48565872860001
 20
-2.209067066999978
 10
34.46241890380003
 20
-2.201109570199946
 10
34.43891643290001
 20
-2.193880391500044
 10
34.41517346250004
 20
-2.187386740899967
 10
34.39121147600002
 20
-2.181637031299999
 10
34.36705326780003
 20
-2.176637210400031
 10
34.34272100910005
 20
-2.172394495899993
 10
34.31823805360003
 20
-2.168913491500006
 10
34.29362719400001
 20
-2.166200142799993
 10
34.26891228370002
 20
-2.16425764180002
 10
34.24412870470002
 20
-2.163091808799947
 10
34.21926466310003
 20
-2.162700703700011
  0
LWPOLYLINE
  5
2C11
330
22
100
AcDbEntity
  8
1
100
AcDbPolyline
 90
       31
 70
     0
 43
0.0
 10
34.13875012440002
 20
-3.587143126400007
 10
34.13864468380001
 20
-3.580268776200057
 10
34.13833805760004
 20
-3.573521279299995
 10
34.13782854780001
 20
-3.566900754899961
 10
34.13712124850003
 20
-3.56040684550004
 10
34.13622052000003
 20
-3.554042386500043
 10
34.13512686640002
 20
-3.547797917699995
 10
34.13384449680001
 20
-3.541671936299962
 10
34.13236665760002
 20
-3.535643405899975
 10
34.13068862560002
 20
-3.529687660100023
 10
34.12880851940002
 20
-3.523814086600054
 10
34.12672345920004
 20
-3.518022105400007
 10
34.12443171680002
 20
-3.512316953700008
 10
34.1219395471
 20
-3.506715781900027
 10
34.11922012080004
 20
-3.501182271499999
 10
34.11625610840002
 20
-3.495686552499989
 10
34.11302526450001
 20
-3.490226429199992
 10
34.10950386480002
 20
-3.484783835199948
 10
34.10567901600001
 20
-3.47937651120003
 10
34.10153745760005
 20
-3.474013773600006
 10
34.09705656680003
 20
-3.468702828900006
 10
34.09221936230003
 20
-3.463451264300033
 10
34.08699565890004
 20
-3.458267254400027
 10
34.08135560650004
 20
-3.453152981400023
 10
34.07528121800002
 20
-3.448134010199964
 10
34.06876537780002
 20
-3.443235709899965
 10
34.06174562060002
 20
-3.438460849899968
 10
34.05418506660004
 20
-3.433814788900008
 10
34.04599984360004
 20
-3.429315128399991
 10
34.03708176540002
 20
-3.424983679700005
 10
34.02746689390003
 20
-3.420813172399959
  0
LWPOLYLINE
  5
2C32
330
22
100
AcDbEntity
  8
1
100
AcDbPolyline
 90
       37
 70
     0
 43
0.0
 10
32.99524218990001
 20
7.079080141200051
 10
32.99449187150003
 20
7.14510264239999
 10
32.99224402320005
 20
7.211054929800013
 10
32.98849748080002
 20
7.276954062900017
 10
32.98325573730003
 20
7.342748862599989
 10
32.97652034780004
 20
7.408405137699958
 10
32.96829596170002
 20
7.473888983899996
 10
32.95858568530003
 20
7.539166318199988
 10
32.9473957029
 20
7.604203485699997
 10
32.9347306656
 20
7.668966582099983
 10
32.92059827990002
 20
7.733422271200026
 10
32.90500473190002
 20
7.797536898299995
 10
32.88795923440003
 20
7.861277514999983
 10
32.8694694957
 20
7.924610785299989
 10
32.84954621580005
 20
7.987504217300056
 10
32.82819860920003
 20
8.049924863099988
 10
32.80543884100001
 20
8.111840754199988
 10
32.78127761270003
 20
8.173219399000004
 10
32.75572852910002
 20
8.234029419100011
 10
32.72880375700001
 20
8.294238846399991
 10
32.70051831260003
 20
8.353816957399999
 10
32.67088580230001
 20
8.412732374000029
 10
32.63992262290003
 20
8.470955091099995
 10
32.60764379230002
 20
8.528454385700001
 10
32.57406705380004
 20
8.58520103349997
 10
32.53920880580003
 20
8.641165030199942
 10
32.50308810120003
 20
8.696317992600029
 10
32.46572268470004
 20
8.750630697300039
 10
32.42713287970003
 20
8.804075661299975
 10
32.38733774030001
 20
8.856624502699958
 10
32.346358818
 20
8.908250695599974
 10
32.30421643730003
 20
8.958926758099948
 10
32.26093333290004
 20
9.008627176699974
 10
32.21653105730002
 20
9.057325426500028
 10
32.17103348160004
 20
9.104997059000027
 10
32.12446334170002
 20
9.15161656150002
 10
32.07617319730002
 20
9.197788993300036
  0
LWPOLYLINE
  5
2C59
330
22
100
AcDbEntity
  8
1
100
AcDbPolyline
 90
       11
 70
     0
 43
0.0
 10
34.86037968380003
 20
3.43204964969999
 10
34.86049839040001
 20
3.404700450999996
 10
34.86069822860003
 20
3.377426157200034
 10
34.86097597080004
 20
3.350180502900002
 10
34.86132928270001
 20
3.322932486999945
 10
34.86175655940002
 20
3.295651738099991
 10
34.86225527300002
 20
3.26830914650003
 10
34.86282585900003
 20
3.240869926200048
 10
34.8634694104
 20
3.213306496500024
 10
34.86418142780002
 20
3.185568132900016
 10
34.86579845560001
 20
3.129386849599995
  0
LINE
  5
2C66
330
22
100
AcDbEntity
  8
1
100
AcDbLine
 10
35.00000000000003
 20
-11.18005889070002
 30
0.0
 11
34.99998747330002
 21
-2.942214414499972
 31
0.0
  0
LINE
  5
2C67
330
22
100
AcDbEntity
  8
1
100
AcDbLine
 10
35.00000000000003
 20
11.19580852000001
 30
0.0
 11
35.00000000000003
 21
2.962346333200002
 31
0.0
  0
LINE
  5
2C68
330
22
100
AcDbEntity
  8
1
100
AcDbLine
 10
34.88677980790001
 20
-11.35595734050002
 30
0.0
 11
34.88677980790001
 21
-2.769444066800019
 31
0.0
  0
LINE
  5
2C69
330
22
100
AcDbEntity
  8
1
100
AcDbLine
 10
34.86037968380003
 20
3.43204964969999
 30
0.0
 11
34.86034103300003
 21
10.69835564440001
 31
0.0
  0
LINE
  5
2C6A
330
22
100
AcDbEntity
  8
1
100
AcDbLine
 10
34.64621786730004
 20
10.69669472859999
 30
0.0
 11
34.64621786730004
 21
3.457797415599998
 31
0.0
  0
LINE
  5
2C6B
330
22
100
AcDbEntity
  8
1
100
AcDbLine
 10
34.14643827810002
 20
10.69608480199997
 30
0.0
 11
34.14643827810002
 21
3.457187489000034
 31
0.0
  0
LINE
  5
2C6C
330
22
100
AcDbEntity
  8
1
100
AcDbLine
 10
34.13875012440002
 20
-10.53825828089998
 30
0.0
 11
34.13875012440002
 21
-3.587143126400007
 31
0.0
  0
LINE
  5
2C6D
330
22
100
AcDbEntity
  8
1
100
AcDbLine
 10
33.79552757180005
 20
2.17835379280001
 30
0.0
 11
33.79552757180005
 21
-10.45614010260004
 31
0.0
  0
LINE
  5
2C6E
330
22
100
AcDbEntity
  8
1
100
AcDbLine
 10
33.71833992960001
 20
3.460513946800006
 30
0.0
 11
33.71833992960001
 21
10.69941125970001
 31
0.0
  0
LINE
  5
2C6F
330
22
100
AcDbEntity
  8
1
100
AcDbLine
 10
33.29547068530002
 20
-10.45614010260004
 30
0.0
 11
33.29552757180005
 21
1.55435704360002
 31
0.0
  0
LINE
  5
2C70
330
22
100
AcDbEntity
  8
1
100
AcDbLine
 10
34.99998746880002
 20
-11.18318923589999
 30
0.0
 11
35.00000000000003
 21
-11.18005899510001
 31
0.0
  0
LWPOLYLINE
  5
2C71
330
22
100
AcDbEntity
  8
1
100
AcDbPolyline
 90
       15
 70
     0
 43
0.0
 10
34.64621786730004
 20
3.457797415599998
 10
34.64589601110004
 20
3.43344727059997
 10
34.64493224380002
 20
3.409130436999987
 10
34.64332589060001
 20
3.38483841430002
 10
34.64107897610003
 20
3.360596704300007
 10
34.63819240240002
 20
3.33642235559995
 10
34.63466886270004
 20
3.312332228000002
 10
34.63051015770003
 20
3.288343299199993
 10
34.62571986700002
 20
3.264472263900017
 10
34.62030068520005
 20
3.240735981499994
 10
34.6142570678
 20
3.217150934299979
 10
34.60759259570003
 20
3.193733816600058
 10
34.60031258820004
 20
3.170500852200007
 10
34.59242437250003
 20
3.147476553199965
 10
34.58392550610003
 20
3.12465274910005
  0
LWPOLYLINE
  5
2C82
330
22
100
AcDbEntity
  8
1
100
AcDbPolyline
 90
       51
 70
     0
 43
0.0
 10
35.00000000000003
 20
2.962346333200002
 10
34.9996098478
 20
2.937424890500039
 10
34.99844685350002
 20
2.912583145799999
 10
34.99650908200002
 20
2.887809274999995
 10
34.99380233910003
 20
2.863138750000018
 10
34.99032980820004
 20
2.838595483300025
 10
34.98609742050002
 20
2.814202328499959
 10
34.98110976850004
 20
2.789982699599988
 10
34.97537405230003
 20
2.765958828199984
 10
34.96889620540003
 20
2.742153569400045
 10
34.96168462050003
 20
2.71858846690003
 10
34.95374649060003
 20
2.695285728099975
 10
34.94509134880002
 20
2.6722662162
 10
34.93572759310001
 20
2.649551493600029
 10
34.92566582160004
 20
2.627161668899987
 10
34.91491555870002
 20
2.605117584000026
 10
34.90348842340003
 20
2.583438601400018
 10
34.89139501270003
 20
2.562144834299999
 10
34.87864791690004
 20
2.541254872799981
 10
34.86525875420003
 20
2.520788080700015
 10
34.85124103810003
 20
2.500762250500031
 10
34.83660735060002
 20
2.481195964100038
 10
34.82137210490004
 20
2.462106217300004
 10
34.80554881710003
 20
2.443510810999953
 10
34.78915276100003
 20
2.425425912899981
 10
34.77219834410002
 20
2.407868515199936
 10
34.75470168140004
 20
2.390853944800028
 10
34.73667804530001
 20
2.374398372200005
 10
34.71814437190005
 20
2.358516258199983
 10
34.69911677350004
 20
2.343222931100001
 10
34.67961299390004
 20
2.328531959400038
 10
34.65964997290001
 20
2.314457809899977
 10
34.63924623450004
 20
2.30101311550004
 10
34.61841951370002
 20
2.288211441999976
 10
34.5971891163
 20
2.2760644576
 10
34.57557357460002
 20
2.264584803899992
 10
34.55359294270005
 20
2.253783126299993
 10
34.53126652450001
 20
2.243671093499983
 10
34.50861510310003
 20
2.234258277300057
 10
34.48565872860001
 20
2.225555324299989
 10
34.46241890380003
 20
2.217570677799983
 10
34.43891643290001
 20
2.210313917900009
 10
34.41517346250004
 20
2.203792280599998
 10
34.39121147600002
 20
2.19801420370004
 10
34.36705326780003
 20
2.192985661900024
 10
34.34272100910005
 20
2.188713898700029
 10
34.31823805360003
 20
2.185203545599961
 10
34.29362719400001
 20
2.1824605754
 10
34.26891228370002
 20
2.180488208300005
 10
34.24412870470002
 20
2.1792923072
 10
34.21926466310003
 20
2.178870917799997
  0
LWPOLYLINE
  5
2CB7
330
22
100
AcDbEntity
  8
1
100
AcDbPolyline
 90
       45
 70
     0
 43
0.0
 10
34.14643827810002
 20
3.457187489000034
 10
34.14617151590003
 20
3.442233529600002
 10
34.14537394050001
 20
3.427316972300047
 10
34.14404453700001
 20
3.412428351699986
 10
34.14218635070003
 20
3.397596064400033
 10
34.13980074070003
 20
3.382839137399969
 10
34.1368917506
 20
3.368176214199991
 10
34.13346209010001
 20
3.353626177900025
 10
34.12951711910003
 20
3.339207336900017
 10
34.12506088420002
 20
3.324938333899979
 10
34.12010003420002
 20
3.310837049300005
 10
34.11463993220002
 20
3.296921790699968
 10
34.10868848200002
 20
3.283209918900013
 10
34.10225233550003
 20
3.269719312799963
 10
34.09534061140002
 20
3.256466725400002
 10
34.08796121680001
 20
3.243469516099992
 10
34.08012443860002
 20
3.230743744599976
 10
34.07183939860005
 20
3.218306162300052
 10
34.06311750000003
 20
3.20617205389999
 10
34.05396903260004
 20
3.194357477200014
 10
34.04440645740005
 20
3.182876864000036
 10
34.03444118020002
 20
3.171745496799985
 10
34.02408665640002
 20
3.160976880899966
 10
34.01335534930002
 20
3.150585445800004
 10
34.00226164010002
 20
3.140583701299988
 10
33.9908189866
 20
3.130985150299977
 10
33.97904262240002
 20
3.121801243599975
 10
33.96694693070003
 20
3.113044488399964
 10
33.95454792010003
 20
3.104725218300018
 10
33.94186082620001
 20
3.096854881299975
 10
33.92890235100003
 20
3.089442640800029
 10
33.91568850670001
 20
3.082498827899996
 10
33.90223659740002
 20
3.076031387200032
 10
33.88856335750003
 20
3.070049487099993
 10
33.87468650830005
 20
3.06455978629998
 10
33.86062321510002
 20
3.059570180299999
 10
33.8463918795
 20
3.055086127399988
 10
33.83201043800003
 20
3.051114362799978
 10
33.8174974515
 20
3.047658950899972
 10
33.80287118080003
 20
3.0447252875
 10
33.78815046320003
 20
3.042316113299989
 10
33.77335389530003
 20
3.040435505299967
 10
33.75850046020003
 20
3.039084850700021
 10
33.74361848730001
 20
3.03826723879996
 10
33.72869853360004
 20
3.037981639899953
  0
LWPOLYLINE
  5
2CE6
330
22
100
AcDbEntity
  8
1
100
AcDbPolyline
 90
       10
 70
     0
 43
0.0
 10
34.86344283680003
 20
10.94342557760001
 10
34.86280074820002
 20
10.91581101359998
 10
34.86223394310002
 20
10.8884175444
 10
34.86174007390002
 20
10.8611879279
 10
34.86131769730003
 20
10.83407753839998
 10
34.86096893220003
 20
10.80702896150001
 10
34.86069460250002
 20
10.77998877940001
 10
34.86049715070004
 20
10.75290037660005
 10
34.86037963390004
 20
10.72568002899999
 10
34.86034103300003
 20
10.69835564440001
  0
LINE
  5
2CF2
330
22
100
AcDbEntity
  8
1
100
AcDbLine
 10
34.86493388890003
 20
10.99940805029996
 30
0.0
 11
34.86344283680003
 21
10.94342557760001
 31
0.0
  0
LINE
  5
2CF3
330
22
100
AcDbEntity
  8
1
100
AcDbLine
 10
34.86669309180002
 20
11.05656746660003
 30
0.0
 11
34.86493388890003
 21
10.99940805029996
 31
0.0
  0
LWPOLYLINE
  5
2CF4
330
22
100
AcDbEntity
  8
1
100
AcDbPolyline
 90
        3
 70
     0
 43
0.0
 10
34.86982278070002
 20
11.14495205849999
 10
34.86871531370002
 20
11.11511585489995
 10
34.86669309180002
 20
11.05656746660003
  0
LWPOLYLINE
  5
2D17
330
22
100
AcDbEntity
  8
1
100
AcDbPolyline
 90
       29
 70
     0
 43
0.0
 10
34.58392550610003
 20
3.12465274910005
 10
34.57370110600005
 20
3.099382608399935
 10
34.56274478020004
 20
3.074447897300046
 10
34.5510512395
 20
3.049837895699965
 10
34.53863635150003
 20
3.025584763899985
 10
34.52551007060004
 20
3.001710274100048
 10
34.51168484640002
 20
2.978234870299957
 10
34.49717190170003
 20
2.955179697300025
 10
34.48198487130003
 20
2.932564425899954
 10
34.46613620670002
 20
2.910409499000024
 10
34.44964068010003
 20
2.888733745000024
 10
34.43251192820003
 20
2.8675568333
 10
34.4147658087
 20
2.846896683799968
 10
34.39641709560002
 20
2.826772123300031
 10
34.37748267630002
 20
2.807200100399995
 10
34.35797841040002
 20
2.788198533199988
 10
34.33792215570003
 20
2.769783339400021
 10
34.31733080160001
 20
2.751971465500048
 10
34.29622311380001
 20
2.7347777425
 10
34.27461695210002
 20
2.718218085999978
 10
34.25253192420001
 20
2.702306188000022
 10
34.22998679770004
 20
2.687056877200006
 10
34.20700195360002
 20
2.672482658600017
 10
34.18359700120002
 20
2.6585972222
 10
34.15979302300002
 20
2.645411842200019
 10
34.13561040160002
 20
2.632939021500021
 10
34.11107084720004
 20
2.621188763899965
 10
34.08620642730003
 20
2.610177012300027
 10
34.06100645270004
 20
2.599898452399997
  0
LINE
  5
2D36
330
22
100
AcDbEntity
  8
1
100
AcDbLine
 10
34.02746689390003
 20
-3.420813172399959
 30
0.0
 11
33.7979977654
 21
-3.668137223499968
 31
0.0
  0
LINE
  5
2D37
330
22
100
AcDbEntity
  8
1
100
AcDbLine
 10
26.76143474140002
 20
-10.70458823489997
 30
0.0
 11
27.00641567690002
 21
-10.47505930709997
 31
0.0
  0
LWPOLYLINE
  5
2DB7
330
22
100
AcDbEntity
  8
1
100
AcDbPolyline
 90
        8
 70
     0
 43
0.0
 10
23.83091141950001
 20
11.44766042399999
 10
23.89862454610005
 20
11.41993483699997
 10
24.01269622850004
 20
11.3630054143
 10
24.17644545480002
 20
11.2779685767
 10
24.37991526010004
 20
11.17184810379996
 10
24.61630245250001
 20
11.0559182211
 10
24.87946470090003
 20
10.936185201
 10
25.16077454970002
 20
10.82051496220003
  0
LWPOLYLINE
  5
2E82
330
22
100
AcDbEntity
  8
1
100
AcDbPolyline
 90
       59
 70
     0
 43
0.0
 10
30.84744138210002
 20
4.274628459300004
 10
30.88271163770003
 20
4.284336034299997
 10
30.94592293200003
 20
4.302944682099962
 10
31.00869679830004
 20
4.322990736099995
 10
31.07100105750004
 20
4.344462695199979
 10
31.13280304420005
 20
4.367350536200035
 10
31.19407113320003
 20
4.391641302600021
 10
31.25477314630001
 20
4.417323492099967
 10
31.31487807760005
 20
4.444382719600014
 10
31.37435430280002
 20
4.472806027300009
 10
31.43317149980004
 20
4.502577631400015
 10
31.49129866360005
 20
4.533683145699967
 10
31.54870621870003
 20
4.566105420300004
 10
31.60536384370002
 20
4.59982867019994
 10
31.66124277090003
 20
4.634834415100044
 10
31.7163134255
 20
4.671105504100012
 10
31.77054790710002
 20
4.708622164600001
 10
31.82391744900002
 20
4.747365915199964
 10
31.87639507590004
 20
4.787315732399974
 10
31.92795288850005
 20
4.828451842300012
 10
31.97856489290001
 20
4.870752014000004
 10
32.02820411480002
 20
4.914195222399996
 10
32.07684559530003
 20
4.958758074999991
 10
32.12446334170002
 20
5.004418339199958
 10
32.17103348160004
 20
5.051151509299984
 10
32.21653105730002
 20
5.098934191500006
 10
32.26093333290004
 20
5.147740817600038
 10
32.30421643730003
 20
5.197546880800018
 10
32.346358818
 20
5.248325803700026
 10
32.38733774030001
 20
5.300052017200016
 10
32.42713287970003
 20
5.352697989899979
 10
32.46572268470004
 20
5.406237143199973
 10
32.50308810120003
 20
5.460641048799971
 10
32.53920880580003
 20
5.515882174000012
 10
32.57406705380004
 20
5.571931251999956
 10
32.60764379230002
 20
5.628759853300039
 10
32.63992262290003
 20
5.686337933499999
 10
32.67088580230001
 20
5.744636225000022
 10
32.70051831260003
 20
5.803623968099998
 10
32.72880375700001
 20
5.86327111769998
 10
32.75572852910002
 20
5.923546262499996
 10
32.78127761270003
 20
5.984418642300056
 10
32.80543884100001
 20
6.045856259499942
 10
32.82819860920003
 20
6.107827702199983
 10
32.84954621580005
 20
6.170300452800006
 10
32.8694694957
 20
6.233242513199968
 10
32.88795923440003
 20
6.296620913000026
 10
32.90500473190002
 20
6.360403134000023
 10
32.92059827990002
 20
6.424555821500007
 10
32.9347306656
 20
6.489046004800002
 10
32.9473957029
 20
6.55384001379997
 10
32.95858568530003
 20
6.618904493499996
 10
32.96829596170002
 20
6.684205528599989
 10
32.97652034780004
 20
6.749709448700002
 10
32.98325573730003
 20
6.815382163399988
 10
32.98849748080002
 20
6.881189757100003
 10
32.99224402320005
 20
6.94709803469999
 10
32.99449187150003
 20
7.013055808499984
 10
32.99524218990001
 20
7.079080141200051
  0
LWPOLYLINE
  5
2ED2
330
22
100
AcDbEntity
  8
1
100
AcDbPolyline
 90
       15
 70
     0
 43
0.0
 10
33.71335210940003
 20
3.45550862120001
 10
33.71391355920002
 20
3.455541364999987
 10
33.71446118030002
 20
3.455635127699963
 10
33.71499823890002
 20
3.455791031499984
 10
33.71551493660002
 20
3.456005710400006
 10
33.71600450210002
 20
3.456277683599978
 10
33.7164611206
 20
3.456602417600038
 10
33.71687819020002
 20
3.456976744899975
 10
33.71725130080003
 20
3.457395086699989
 10
33.71757487930003
 20
3.457852957699969
 10
33.71784581400004
 20
3.458343909800021
 10
33.71805966860004
 20
3.458862325100028
 10
33.71821484460003
 20
3.459401227399951
 10
33.71830788030002
 20
3.459950661899995
 10
33.71833992960001
 20
3.460513946800006
  0
LINE
  5
2F37
330
22
100
AcDbEntity
  8
1
100
AcDbLine
 10
26.49098838550003
 20
3.446694512500016
 30
0.0
 11
33.71335210940003
 21
3.45550862120001
 31
0.0
  0
LINE
  5
2F38
330
22
100
AcDbEntity
  8
1
100
AcDbLine
 10
33.72869853360004
 20
3.037981639899953
 30
0.0
 11
26.50633480970004
 21
3.029167531200016
 31
0.0
  0
LINE
  5
2F39
330
22
100
AcDbEntity
  8
SK1
100
AcDbLine
 10
-2.0
 20
6.25
 30
0.0
 11
-5.599999999999994
 21
6.25
 31
0.0
  0
LINE
  5
2F3A
330
22
100
AcDbEntity
  8
SK1
100
AcDbLine
 10
-0.2999999999999829
 20
6.050000000000011
 30
0.0
 11
-1.200928839400006
 21
6.050000000000011
 31
0.0
  0
LINE
  5
2F3B
330
22
100
AcDbEntity
  8
SK1
100
AcDbLine
 10
-10.29999999999998
 20
6.0
 30
0.0
 11
-20.75
 21
6.0
 31
0.0
  0
LINE
  5
2F3C
330
22
100
AcDbEntity
  8
SK1
100
AcDbLine
 10
-21.5
 20
5.25
 30
0.0
 11
-9.549999999999982
 21
5.25
 31
0.0
  0
LINE
  5
2F3D
330
22
100
AcDbEntity
  8
SK1
100
AcDbLine
 10
-7.0
 20
4.824999999999988
 30
0.0
 11
-8.710786437599978
 21
4.824999999999988
 31
0.0
  0
LWPOLYLINE
  5
2F3E
330
22
100
AcDbEntity
  8
1
100
AcDbPolyline
 90
       45
 70
     0
 43
0.0
 10
26.50633480970004
 20
3.029167531200016
 10
26.49141532980002
 20
3.029416696600037
 10
26.476533813
 20
3.030197936399986
 10
26.46168081660003
 20
3.031512256799999
 10
26.44688466860003
 20
3.033356639800047
 10
26.43216435110003
 20
3.035729746399965
 10
26.41753845990002
 20
3.038627546600025
 10
26.40302583170001
 20
3.042047347200025
 10
26.38864472660003
 20
3.045983798599991
 10
26.37441373990004
 20
3.05043286739999
 10
26.36035070290001
 20
3.055387911500019
 10
26.34647387490003
 20
3.060843577699984
 10
26.33280056740003
 20
3.066791965300012
 10
26.31934861040003
 20
3.073226428899999
 10
26.30613470760002
 20
3.080137849300001
 10
26.29317616900002
 20
3.087518322600033
 10
26.28048900520003
 20
3.095357557600038
 10
26.26808991810003
 20
3.103646432099992
 10
26.25599414370004
 20
3.112373535500012
 10
26.24421769060001
 20
3.121528573899979
 10
26.23277494250004
 20
3.131099075299971
 10
26.22168113300001
 20
3.141073626399986
 10
26.21094972029999
 20
3.151438757600033
 10
26.20059508560002
 20
3.162181994299999
 10
26.19062969280003
 20
3.173288937699965
 10
26.18106699740002
 20
3.184746115699965
 10
26.17191840560002
 20
3.196538273899989
 10
26.16319637860005
 20
3.208651010999972
 10
26.15491120670004
 20
3.221068294499957
 10
26.14707429330002
 20
3.233774867799979
 10
26.13969476060004
 20
3.246754001999988
 10
26.13278289660002
 20
3.259989660500025
 10
26.12634660660001
 20
3.273464509400014
 10
26.12039501760003
 20
3.287161786999945
 10
26.11493475180004
 20
3.301063739800042
 10
26.10997366550004
 20
3.315153172599991
 10
26.10551718230002
 20
3.329411648199993
 10
26.10157200010002
 20
3.34382119730003
 10
26.09814215140003
 20
3.358363221399997
 10
26.09523299750004
 20
3.373019424700032
 10
26.0928472498
 20
3.387770929700025
 10
26.09098895350002
 20
3.40259910230003
 10
26.08965946930005
 20
3.417484917799981
 10
26.08886184520003
 20
3.43239998529998
 10
26.08859506520003
 20
3.447353768600009
  0
LINE
  5
2FB8
330
22
100
AcDbEntity
  8
1
100
AcDbLine
 10
34.76008611190002
 20
-2.656409171400014
 30
0.0
 11
34.75061525230001
 21
-2.647376519000033
 31
0.0
  0
LINE
  5
2FB9
330
22
100
AcDbEntity
  8
1
100
AcDbLine
 10
34.75061525230001
 20
-2.647376519000033
 30
0.0
 11
34.74147360120003
 21
-2.638539169599994
 31
0.0
  0
LINE
  5
2FBA
330
22
100
AcDbEntity
  8
1
100
AcDbLine
 10
34.74147360120003
 20
-2.638539169599994
 30
0.0
 11
34.72835293490005
 21
-2.625705031099982
 31
0.0
  0
LINE
  5
2FBB
330
22
100
AcDbEntity
  8
1
100
AcDbLine
 10
34.72835293490005
 20
-2.625705031099982
 30
0.0
 11
34.71194751490003
 21
-2.609486418100004
 31
0.0
  0
LINE
  5
2FBC
330
22
100
AcDbEntity
  8
1
100
AcDbLine
 10
34.71194751490003
 20
-2.609486418100004
 30
0.0
 11
34.68826231740002
 21
-2.585868847799986
 31
0.0
  0
LINE
  5
2FBD
330
22
100
AcDbEntity
  8
1
100
AcDbLine
 10
34.68826231740002
 20
-2.585868847799986
 30
0.0
 11
34.66075298600003
 21
-2.558251265400031
 31
0.0
  0
LINE
  5
2FBE
330
22
100
AcDbEntity
  8
1
100
AcDbLine
 10
34.66075298600003
 20
-2.558251265400031
 30
0.0
 11
34.640152672
 21
-2.537423236200027
 31
0.0
  0
LINE
  5
2FBF
330
22
100
AcDbEntity
  8
1
100
AcDbLine
 10
34.640152672
 20
-2.537423236200027
 30
0.0
 11
34.62230490000002
 21
-2.519204102499998
 31
0.0
  0
LINE
  5
2FC0
330
22
100
AcDbEntity
  8
1
100
AcDbLine
 10
34.62230490000002
 20
-2.519204102499998
 30
0.0
 11
34.61277314350002
 21
-2.509374521100028
 31
0.0
  0
LINE
  5
2FC1
330
22
100
AcDbEntity
  8
1
100
AcDbLine
 10
34.61277314350002
 20
-2.509374521100028
 30
0.0
 11
34.60284960270002
 21
-2.499036295999985
 31
0.0
  0
LWPOLYLINE
  5
2FC2
330
22
100
AcDbEntity
  8
1
100
AcDbPolyline
 90
       13
 70
     0
 43
0.0
 10
34.60284960270002
 20
-2.499036295999985
 10
34.59258625010003
 20
-2.488201812699969
 10
34.58736620960002
 20
-2.482622065999976
 10
34.58211104670002
 20
-2.476948864300027
 10
34.576824037
 20
-2.471174749700026
 10
34.57150985760004
 20
-2.465295890800007
 10
34.56618658010001
 20
-2.459319206999964
 10
34.56087232900001
 20
-2.45325246910005
 10
34.55557664120002
 20
-2.447089298700007
 10
34.55031575460004
 20
-2.440835664899964
 10
34.54509211790003
 20
-2.434467777600048
 10
34.53991254970004
 20
-2.427957091999985
 10
34.52487280940005
 20
-2.408663657300053
  0
LWPOLYLINE
  5
2FD1
330
22
100
AcDbEntity
  8
1
100
AcDbPolyline
 90
        9
 70
     0
 43
0.0
 10
34.88677980790001
 20
-2.769444066800019
 10
34.87991326730003
 20
-2.761159733399949
 10
34.87265579690003
 20
-2.753024864800011
 10
34.86501628390002
 20
-2.745036209400041
 10
34.85696806610003
 20
-2.737203522300035
 10
34.84849168500003
 20
-2.729530090000025
 10
34.83957441560003
 20
-2.722032067200018
 10
34.83019464500001
 20
-2.714728860500031
 10
34.81518718830003
 20
-2.703906183000015
  0
LWPOLYLINE
  5
2FDC
330
22
100
AcDbEntity
  8
1
100
AcDbPolyline
 90
        8
 70
     0
 43
0.0
 10
34.52487280940005
 20
-2.408663657300053
 10
34.51490069780002
 20
-2.396568665000017
 10
34.50486415610004
 20
-2.385065979300009
 10
34.49477618230003
 20
-2.37412843870004
 10
34.48464891990003
 20
-2.363739961299984
 10
34.4744806013
 20
-2.353876361699974
 10
34.46427379160002
 20
-2.344504400699975
 10
34.45402763590005
 20
-2.335635158199977
  0
LWPOLYLINE
  5
2FE6
330
22
100
AcDbEntity
  8
1
100
AcDbPolyline
 90
       55
 70
     0
 43
0.0
 10
34.45402763590005
 20
-2.335635158199977
 10
34.44935630500004
 20
-2.326157846
 10
34.44466683970001
 20
-2.317101598600004
 10
34.43995784590004
 20
-2.30847644290003
 10
34.43523350610002
 20
-2.300252298200007
 10
34.43049619570002
 20
-2.292406910199986
 10
34.42574994160003
 20
-2.284926826999992
 10
34.42099861300003
 20
-2.277795724899988
 10
34.41624505800002
 20
-2.270999964999987
 10
34.41149296480001
 20
-2.264525039200009
 10
34.406743683
 20
-2.258357231200022
 10
34.40199893710002
 20
-2.252481489599972
 10
34.39726129080003
 20
-2.246887311500017
 10
34.39253327290001
 20
-2.241562584999996
 10
34.38781671210001
 20
-2.236497085300015
 10
34.38311354890004
 20
-2.231679491399972
 10
34.37842597610003
 20
-2.227100979100043
 10
34.37375714930005
 20
-2.222752467799978
 10
34.36910612150001
 20
-2.218623405500011
 10
34.36447252200003
 20
-2.21470262620005
 10
34.3598577779
 20
-2.210982891400021
 10
34.35526272250001
 20
-2.207455467399995
 10
34.35068876750003
 20
-2.204113674199959
 10
34.34613725520004
 20
-2.20095004929999
 10
34.34160922790002
 20
-2.197958206600048
 10
34.33710560330002
 20
-2.195131106399969
 10
34.3326280979
 20
-2.192463246999977
 10
34.32817930610003
 20
-2.189949050400002
 10
34.32375751100003
 20
-2.187581705500008
 10
34.31936164390004
 20
-2.185354142099981
 10
34.31499235360002
 20
-2.183261559400023
 10
34.3106489406
 20
-2.181298005299993
 10
34.30633438010003
 20
-2.179459863600015
 10
34.30205048490001
 20
-2.17774281039999
 10
34.29780004280002
 20
-2.176143016799983
 10
34.29358499620003
 20
-2.174656363700023
 10
34.28940969400003
 20
-2.173279396699967
 10
34.28527700200002
 20
-2.172008380500017
 10
34.28119331100004
 20
-2.170840038399944
 10
34.27716439720001
 20
-2.169771236900032
 10
34.27319496940004
 20
-2.168797810800015
 10
34.26928934220001
 20
-2.167915870599983
 10
34.26545447460001
 20
-2.167121454700009
 10
34.26169535160003
 20
-2.166410624200011
 10
34.25802221040001
 20
-2.165779421399975
 10
34.25444837070001
 20
-2.165224623700055
 10
34.25096956990001
 20
-2.164740086800009
 10
34.24759204900002
 20
-2.164320587799977
 10
34.24429761610003
 20
-2.163960140199947
 10
34.24107600260004
 20
-2.163652185100033
 10
34.23790967970001
 20
-2.163393216799988
 10
34.23478172930004
 20
-2.163178023499995
 10
34.23168005080004
 20
-2.163005165000015
 10
34.22859166310002
 20
-2.162871553000059
 10
34.22550228980004
 20
-2.162776920400006
  0
LWPOLYLINE
  5
301F
330
22
100
AcDbEntity
  8
1
100
AcDbPolyline
 90
       31
 70
     0
 43
0.0
 10
34.02746689390003
 20
-3.420813172399959
 10
34.02258364220001
 20
-3.410450184300032
 10
34.01759242580005
 20
-3.400838474800025
 10
34.01248871990004
 20
-3.392016966799985
 10
34.00728609880002
 20
-3.383868891999952
 10
34.00199594420002
 20
-3.376303887699975
 10
33.99662030910003
 20
-3.369281660899957
 10
33.99115662140002
 20
-3.362734117200034
 10
33.98563013740002
 20
-3.356654297799991
 10
33.98006524790003
 20
-3.351023265500032
 10
33.97446197640002
 20
-3.345808861200055
 10
33.96882639030002
 20
-3.340978740800039
 10
33.96316475000003
 20
-3.336514522100003
 10
33.95748256460001
 20
-3.332391809900002
 10
33.95178815590004
 20
-3.328596298399986
 10
33.94609828770001
 20
-3.325114084700032
 10
33.94039314230003
 20
-3.321919565599955
 10
33.93466887380004
 20
-3.318988742499982
 10
33.92889432930002
 20
-3.316302899800064
 10
33.92303127060001
 20
-3.313833092399988
 10
33.91709710730004
 20
-3.311586011399981
 10
33.91109671200002
 20
-3.309559710199948
 10
33.90502945750001
 20
-3.307751157200016
 10
33.89890463020004
 20
-3.30615836779998
 10
33.89269736230003
 20
-3.304776254300008
 10
33.88638636750002
 20
-3.303597570600004
 10
33.87997018790003
 20
-3.302626806700004
 10
33.87343928050001
 20
-3.301864458900013
 10
33.86679661440002
 20
-3.301315262800017
 10
33.8600419512
 20
-3.300984731699998
 10
33.8531753703
 20
-3.300871027799985
  0
LWPOLYLINE
  5
3096
330
22
100
AcDbEntity
  8
1
100
AcDbPolyline
 90
       15
 70
     0
 43
0.0
 10
26.4860005653
 20
3.451687663899974
 10
26.48603255060002
 20
3.451124967800012
 10
26.48612543240003
 20
3.4505762064
 10
26.48628032620002
 20
3.450038107500006
 10
26.48649388560003
 20
3.449520487500024
 10
26.48676464150003
 20
3.449030131699998
 10
26.48708807780002
 20
3.44857286260003
 10
26.48746104240002
 20
3.448155293500008
 10
26.48787797440002
 20
3.447781837499974
 10
26.48833440570002
 20
3.447458075300005
 10
26.48882390650002
 20
3.447187117699968
 10
26.48934087740002
 20
3.446973404499942
 10
26.48987835990002
 20
3.446818529199958
 10
26.49042642620003
 20
3.446725949400047
 10
26.49098838550003
 20
3.446694512500016
  0
LWPOLYLINE
  5
30A7
330
22
100
AcDbEntity
  8
1
100
AcDbPolyline
 90
       31
 70
     0
 43
0.0
 10
26.63341802880001
 20
-10.53825828089998
 10
26.63353932440003
 20
-10.54513263109999
 10
26.63389205740003
 20
-10.55188012800005
 10
26.63447818140003
 20
-10.55850065239997
 10
26.63529183610004
 20
-10.56499456190005
 10
26.63632800580001
 20
-10.57135902089999
 10
26.63758611030002
 20
-10.57760348959999
 10
26.63906130780004
 20
-10.58372947099997
 10
26.6407613673
 20
-10.58975800140001
 10
26.64269172230002
 20
-10.59571374720002
 10
26.6448545371
 20
-10.60158732069999
 10
26.64725312450002
 20
-10.60737930199997
 10
26.64988947260003
 20
-10.61308445359998
 10
26.65275638580005
 20
-10.61868562540002
 10
26.65588472800002
 20
-10.62421913589997
 10
26.65929443410002
 20
-10.62971485480005
 10
26.66301109490002
 20
-10.63517497819998
 10
26.66706200190004
 20
-10.64061757209998
 10
26.67146198720002
 20
-10.64602489610001
 10
26.67622630510005
 20
-10.65138763379997
 10
26.68138098030002
 20
-10.65669857839998
 10
26.68694554740003
 20
-10.6619501431
 10
26.69295473080001
 20
-10.66713415290002
 10
26.69944286890001
 20
-10.67224842589996
 10
26.70643065360002
 20
-10.67726739709996
 10
26.71392627030002
 20
-10.68216569749995
 10
26.72200157720002
 20
-10.68694055739996
 10
26.73069899960001
 20
-10.69158661839998
 10
26.74011502160002
 20
-10.6960862789
 10
26.75037409710001
 20
-10.70041772760004
 10
26.76143474140002
 20
-10.70458823489997
  0
LWPOLYLINE
  5
311A
330
22
100
AcDbEntity
  8
1
100
AcDbPolyline
 90
       82
 70
     0
 43
0.0
 10
27.20909830500003
 20
7.072018782399993
 10
27.20984862340003
 20
7.00599628110001
 10
27.21209647170002
 20
6.940043993799974
 10
27.21584301410002
 20
6.874144860699971
 10
27.22108475760001
 20
6.808350060999998
 10
27.22782014710003
 20
6.742693785899973
 10
27.23604453320002
 20
6.677209939699991
 10
27.24575480960002
 20
6.611932605300012
 10
27.25694479200001
 20
6.546895437899991
 10
27.26960982930001
 20
6.482132341500005
 10
27.28374221500002
 20
6.417676652300031
 10
27.29933576300002
 20
6.353562025299993
 10
27.31638126050001
 20
6.289821408600005
 10
27.33487099920001
 20
6.226488138200011
 10
27.35479427910002
 20
6.163594706299988
 10
27.37614188570001
 20
6.101174060499999
 10
27.39890165390003
 20
6.0392581694
 10
27.42306288220002
 20
5.97787952449994
 10
27.44861196580001
 20
5.917069504499977
 10
27.47553673790003
 20
5.856860077100009
 10
27.50382218230004
 20
5.797281966200046
 10
27.53345469260003
 20
5.738366549599959
 10
27.56441787200003
 20
5.680143832499993
 10
27.59669670260001
 20
5.622644537799999
 10
27.63027344110003
 20
5.565897889999973
 10
27.66513168910001
 20
5.509933893399932
 10
27.70125239370003
 20
5.454780930999959
 10
27.73861781020003
 20
5.400468226299949
 10
27.77720761520004
 20
5.347023262200025
 10
27.81700275460003
 20
5.294474420899973
 10
27.85798167690004
 20
5.242848228000013
 10
27.90012405760001
 20
5.192172165500039
 10
27.94340716200003
 20
5.142471746900014
 10
27.98780943760005
 20
5.093773497099959
 10
28.03330701330003
 20
5.046101864599961
 10
28.07987715320002
 20
4.99948236199998
 10
28.12749489960004
 20
4.953938322300018
 10
28.17613638010005
 20
4.909494193099988
 10
28.225775602
 20
4.866172143200003
 10
28.27638760640002
 20
4.823995504400045
 10
28.327945419
 20
4.782985235800026
 10
28.38042304590004
 20
4.743163505199959
 10
28.43379258780002
 20
4.70455001800002
 10
28.48802706950002
 20
4.667165731999944
 10
28.54309772410002
 20
4.631029058499962
 10
28.59897665120002
 20
4.596159701900035
 10
28.65563427620003
 20
4.562574740899947
 10
28.71304183130002
 20
4.530292585599966
 10
28.77116899510003
 20
4.499328947099968
 10
28.82998619210002
 20
4.469700903000045
 10
28.88946241730002
 20
4.441422763799948
 10
28.94956734860003
 20
4.4145102393
 10
29.01026936170001
 20
4.388976210299972
 10
29.07153745070002
 20
4.36483498589996
 10
29.13333943740003
 20
4.3420979901
 10
29.19564369660003
 20
4.320778102100007
 10
29.25841756290004
 20
4.300885265500028
 10
29.32162885730003
 20
4.282430902699957
 10
29.38524449470003
 20
4.265423456200039
 10
29.44923180910001
 20
4.249872868000011
 10
29.51355736460002
 20
4.235786062099975
 10
29.57818807560002
 20
4.223171479499967
 10
29.64309022450001
 20
4.212034511299975
 10
29.70823037510001
 20
4.202382080000006
 10
29.77357459800004
 20
4.194218032499975
 10
29.83908917520003
 20
4.187547758599976
 10
29.90474003610004
 20
4.182373553199965
 10
29.97049325100005
 20
4.178699261799977
 10
30.03631467840004
 20
4.176525622699955
 10
30.10217024750003
 20
4.175854929299987
 10
30.16802581650001
 20
4.176686361800022
 10
30.23384724390002
 20
4.179020656600016
 10
30.2996004588
 20
4.18285543730002
 10
30.36525131970001
 20
4.188189882199992
 10
30.43076589690003
 20
4.195020063000015
 10
30.49611011980002
 20
4.203343601399978
 10
30.56125027040002
 20
4.213155025700018
 10
30.62615241930001
 20
4.224450405899972
 10
30.69078313030002
 20
4.237222738000014
 10
30.75510868580002
 20
4.25146654849999
 10
30.81909600020003
 20
4.267173315799993
 10
30.84744138210002
 20
4.274628459300004
  0
LINE
  5
316E
330
22
100
AcDbEntity
  8
1
100
AcDbLine
 10
26.63341802880001
 20
-10.51594033650002
 30
0.0
 11
26.63341802880001
 21
-10.53825828089998
 31
0.0
  0
LINE
  5
316F
330
22
100
AcDbEntity
  8
1
100
AcDbLine
 10
26.4860005653
 20
10.69058497679998
 30
0.0
 11
26.4860005653
 21
3.451687663899974
 31
0.0
  0
LINE
  5
3170
330
22
100
AcDbEntity
  8
1
100
AcDbLine
 10
26.08859506520003
 20
3.447353768600009
 30
0.0
 11
26.08859506520003
 21
10.68625108150002
 31
0.0
  0
LWPOLYLINE
  5
31E8
330
22
100
AcDbEntity
  8
1
100
AcDbPolyline
 90
       55
 70
     0
 43
0.0
 10
25.88843067700003
 20
-11.78976624910001
 10
25.88660445480002
 20
-11.79923618730004
 10
25.88508462710001
 20
-11.80828589679999
 10
25.88387943490003
 20
-11.81690540309995
 10
25.88296415490004
 20
-11.82512462980003
 10
25.88232121710002
 20
-11.8329657045
 10
25.88193740110003
 20
-11.8404420407
 10
25.88179768750001
 20
-11.84756989030001
 10
25.88188990280003
 20
-11.8543628653
 10
25.88220044350004
 20
-11.86083543010005
 10
25.88271857950002
 20
-11.8670012792
 10
25.8834322939
 20
-11.87287543669998
 10
25.88433184310003
 20
-11.87846837769996
 10
25.88540641780003
 20
-11.88379218360001
 10
25.88664719890002
 20
-11.88885706080003
 10
25.88804450630002
 20
-11.89367430940001
 10
25.88959011320003
 20
-11.89825272960002
 10
25.89127465820002
 20
-11.90260137780001
 10
25.89309186430003
 20
-11.9067307853
 10
25.89503445730003
 20
-11.9106520899
 10
25.89709606820003
 20
-11.91437252750001
 10
25.89926989540001
 20
-11.91790082569997
 10
25.90154996140001
 20
-11.92124364749997
 10
25.90392982270004
 20
-11.92440843989999
 10
25.90640407560002
 20
-11.92740157870002
 10
25.90896699150003
 20
-11.93023009109998
 10
25.91161310210003
 20
-11.93289946959999
 10
25.91433601900002
 20
-11.93541528949998
 10
25.91713277510002
 20
-11.93778432959999
 10
25.91999957440004
 20
-11.94001362330004
 10
25.92293251570004
 20
-11.94210798220001
 10
25.92592824190004
 20
-11.94407336019998
 10
25.92898132390002
 20
-11.94591336400003
 10
25.93208701150002
 20
-11.94763231309997
 10
25.93523991100003
 20
-11.94923402329999
 10
25.93843527630003
 20
-11.95072260269995
 10
25.94166641540002
 20
-11.95210149429999
 10
25.94492792400001
 20
-11.95337442210001
 10
25.94821119290003
 20
-11.95454465110003
 10
25.95150834220002
 20
-11.9556153071
 10
25.95481178050003
 20
-11.95659053120005
 10
25.95811450470001
 20
-11.95747418730002
 10
25.96140686910002
 20
-11.95827023330003
 10
25.96468123800003
 20
-11.95898260360002
 10
25.96792457900003
 20
-11.95961523379998
 10
25.97112138050003
 20
-11.96017133019995
 10
25.97427144460002
 20
-11.9606570153
 10
25.97736470570004
 20
-11.96107747489998
 10
25.98041525530002
 20
-11.96143872559997
 10
25.98342875490002
 20
-11.96174733589998
 10
25.98642042860002
 20
-11.96200683529997
 10
25.98940367540001
 20
-11.96222246089996
 10
25.99238963230002
 20
-11.96239565830001
 10
25.99538919310004
 20
-11.96252952910004
 10
25.99841648540002
 20
-11.9626243422
  0
LWPOLYLINE
  5
3264
330
22
100
AcDbEntity
  8
1
100
AcDbPolyline
 90
       15
 70
     0
 43
0.0
 10
34.06100645270004
 20
2.599898452399997
 10
34.03824512620003
 20
2.59135235260004
 10
34.01528301930003
 20
2.583418056200002
 10
33.99211198300003
 20
2.576093105500035
 10
33.96875646450002
 20
2.569384874100023
 10
33.94523264410003
 20
2.563298713300014
 10
33.92155717370002
 20
2.557838232300014
 10
33.89774649220001
 20
2.553007917300021
 10
33.87381741770003
 20
2.548810489300024
 10
33.84978660210001
 20
2.545249556399994
 10
33.82567098210001
 20
2.542326944199999
 10
33.80148737590003
 20
2.54004537259999
 10
33.77725279180004
 20
2.538405766399989
 10
33.75299267120002
 20
2.537410185999988
 10
33.72869853360004
 20
2.537057944699995
  0
LINE
  5
3275
330
22
100
AcDbEntity
  8
SK1
100
AcDbLine
 10
-1.304456457399993
 20
-6.06362966949996
 30
0.0
 11
-2.0
 21
-6.25
 31
0.0
  0
LINE
  5
3276
330
22
100
AcDbEntity
  8
1
100
AcDbLine
 10
26.11412895750004
 20
2.301602292300003
 30
0.0
 11
26.05518944590003
 21
2.29938277650001
 31
0.0
  0
LINE
  5
3277
330
22
100
AcDbEntity
  8
1
100
AcDbLine
 10
26.17143004590003
 20
2.303558173199974
 30
0.0
 11
26.11412895750004
 21
2.301602292300003
 31
0.0
  0
LINE
  5
3278
330
22
100
AcDbEntity
  8
1
100
AcDbLine
 10
17.85566243279999
 20
1.549962315299978
 30
0.0
 11
17.59585481160002
 21
1.542048054000019
 31
0.0
  0
LWPOLYLINE
  5
3279
330
22
100
AcDbEntity
  8
1
100
AcDbPolyline
 90
       12
 70
     0
 43
0.0
 10
17.59585481160002
 20
1.542048054000019
 10
17.5723394002
 20
1.541399125899943
 10
17.54590991170002
 20
1.540792913700045
 10
17.51645056620001
 20
1.540227338199997
 10
17.48430870370001
 20
1.539708637300009
 10
17.44969532210001
 20
1.539241340999979
 10
17.41290366850001
 20
1.538828493499977
 10
17.37418882540001
 20
1.538473959199961
 10
17.33387628369999
 20
1.538179808099982
 10
17.29227173199999
 20
1.537949086100013
 10
17.24968965959999
 20
1.537782729499951
 10
17.20659850039999
 20
1.537682933799942
  0
LWPOLYLINE
  5
3287
330
22
100
AcDbEntity
  8
1
100
AcDbPolyline
 90
       53
 70
     0
 43
0.0
 10
26.05518944590003
 20
2.29938277650001
 10
26.03341735520002
 20
2.298876645099994
 10
26.01167995520004
 20
2.299056149600005
 10
25.98996311690001
 20
2.299922681499992
 10
25.96830922750001
 20
2.301472066299993
 10
25.94674971530003
 20
2.303702291799993
 10
25.92530332830004
 20
2.306608262099985
 10
25.90398866700002
 20
2.310187288000008
 10
25.88283760310003
 20
2.314430136600037
 10
25.86188637500004
 20
2.319328168899971
 10
25.84114048320004
 20
2.324876914800029
 10
25.82060892250002
 20
2.331072310000024
 10
25.80031744780001
 20
2.337904499199964
 10
25.78029423460004
 20
2.345363228199971
 10
25.76054101620002
 20
2.353445629499958
 10
25.7410601981
 20
2.362149956999985
 10
25.72187793840004
 20
2.371462592300019
 10
25.70301856840001
 20
2.381371054100043
 10
25.68448997500002
 20
2.39187018480004
 10
25.66629652430004
 20
2.402958440400027
 10
25.64847311040001
 20
2.41461249910003
 10
25.63105322140001
 20
2.426811676699969
 10
25.61404544160001
 20
2.439546516500001
 10
25.59746473570005
 20
2.452805049999994
 10
25.58132545100003
 20
2.466574129599962
 10
25.56564415810004
 20
2.480839352099962
 10
25.55042915210004
 20
2.495592516200019
 10
25.53569112710003
 20
2.510824171100011
 10
25.52143945580002
 20
2.526523660699979
 10
25.50768226280002
 20
2.542682735899973
 10
25.49443398690005
 20
2.559284724400015
 10
25.48170788590002
 20
2.576315050999994
 10
25.46951562840002
 20
2.593759174899957
 10
25.45786637520001
 20
2.611608881200027
 10
25.44678090760005
 20
2.629830617099969
 10
25.43628246650002
 20
2.648389678399951
 10
25.42637283410002
 20
2.667281304800042
 10
25.41705740680004
 20
2.686497242500024
 10
25.40834858310001
 20
2.706013268199967
 10
25.4002599428
 20
2.725803319600004
 10
25.39279333750002
 20
2.745864660599977
 10
25.38595175740002
 20
2.766195213300022
 10
25.37974536550001
 20
2.786766940199981
 10
25.37418395540001
 20
2.807554207300029
 10
25.36927162560002
 20
2.828547725400028
 10
25.36501289420002
 20
2.849741546500013
 10
25.36141629670004
 20
2.871100012799956
 10
25.35849094490004
 20
2.892591832899995
 10
25.35623962740004
 20
2.914197959700004
 10
25.35466749830005
 20
2.935899489800021
 10
25.35377657210001
 20
2.957664700899954
 10
25.35357104820003
 20
2.979450816400003
 10
25.35404952690004
 20
3.001272095100034
  0
LWPOLYLINE
  5
32BE
330
22
100
AcDbEntity
  8
1
100
AcDbPolyline
 90
       11
 70
     0
 43
0.0
 10
26.47340816420001
 20
2.309357881200014
 10
26.44612128630001
 20
2.309205602199995
 10
26.41890904350004
 20
2.308972096899992
 10
26.39172527990002
 20
2.308660544100007
 10
26.364539068
 20
2.308273245599991
 10
26.33732010790001
 20
2.307811772899981
 10
26.31003935930005
 20
2.307278624499986
 10
26.2826621154
 20
2.306673321299967
 10
26.25516085670003
 20
2.30599473440003
 10
26.22748498040002
 20
2.305247311600055
 10
26.17143004590003
 20
2.303558173199974
  0
LWPOLYLINE
  5
32CB
330
22
100
AcDbEntity
  8
1
100
AcDbPolyline
 90
       12
 70
     0
 43
0.0
 10
18.2448368624
 20
1.554322992699951
 10
18.201669017
 20
1.554222967800001
 10
18.1590103231
 20
1.554056188000004
 10
18.11734460630001
 20
1.553824996499997
 10
18.07700090770001
 20
1.553530407899984
 10
18.03828230529999
 20
1.553175626600022
 10
18.00152058580002
 20
1.552762905899953
 10
17.96695866440001
 20
1.552296113500005
 10
17.93488349830002
 20
1.551778413099953
 10
17.90549474790001
 20
1.551214170100024
 10
17.8791246401
 20
1.550609481600019
 10
17.85566243279999
 20
1.549962315299978
  0
LINE
  5
32D9
330
22
100
AcDbEntity
  8
1
100
AcDbLine
 10
33.72869853360004
 20
2.537057944699995
 30
0.0
 11
26.50633480970004
 21
2.528243835899957
 31
0.0
  0
LINE
  5
32DA
330
22
100
AcDbEntity
  8
1
100
AcDbLine
 10
26.47340816420001
 20
2.309357881200014
 30
0.0
 11
33.72311801570004
 21
2.318244102099981
 31
0.0
  0
LINE
  5
32DB
330
22
100
AcDbEntity
  8
1
100
AcDbLine
 10
34.21926466310003
 20
2.178870917799997
 30
0.0
 11
26.00460764440004
 21
2.168845823099957
 31
0.0
  0
LINE
  5
32DC
330
22
100
AcDbEntity
  8
1
100
AcDbLine
 10
33.79552757180005
 20
2.158676562600021
 30
0.0
 11
27.48360136690002
 21
2.150973543799977
 31
0.0
  0
LINE
  5
32DD
330
22
100
AcDbEntity
  8
1
100
AcDbLine
 10
33.29552757180005
 20
1.55435704360002
 30
0.0
 11
18.2448368624
 21
1.554322992699951
 31
0.0
  0
LINE
  5
32DE
330
22
100
AcDbEntity
  8
1
100
AcDbLine
 10
17.20659850039999
 20
1.537682933799942
 30
0.0
 11
8.0739084617
 21
1.537648967099983
 31
0.0
  0
LINE
  5
32DF
330
22
100
AcDbEntity
  8
SK4
100
AcDbLine
 10
-25.0
 20
0.0
 30
0.0
 11
0.0
 21
0.0
 31
0.0
  0
LINE
  5
32E1
330
22
100
AcDbEntity
  8
1
100
AcDbLine
 10
33.29552757180005
 20
1.55435704360002
 30
0.0
 11
33.79552757180005
 21
1.549282320500026
 31
0.0
  0
LWPOLYLINE
  5
32E2
330
22
100
AcDbEntity
  8
1
100
AcDbPolyline
 90
       15
 70
     0
 43
0.0
 10
26.50633480970004
 20
2.528243835899957
 10
26.48204067210003
 20
2.528536780599949
 10
26.45778055150004
 20
2.529473147300052
 10
26.43354596750004
 20
2.531053602200017
 10
26.40936236120001
 20
2.533276146800005
 10
26.38524674130002
 20
2.536139898099975
 10
26.36121592560002
 20
2.539642176999961
 10
26.33728685110003
 20
2.543781199299985
 10
26.31347616970004
 20
2.548553397699947
 10
26.28980069920004
 20
2.553956091900033
 10
26.26627687890002
 20
2.559984836200044
 10
26.24292136030002
 20
2.566636061899998
 10
26.21975032400002
 20
2.573904457200001
 10
26.19678821710002
 20
2.581782708000048
 10
26.17402689060003
 20
2.590273252399981
  0
LWPOLYLINE
  5
32F3
330
22
100
AcDbEntity
  8
1
100
AcDbPolyline
 90
       51
 70
     0
 43
0.0
 10
26.00460764440004
 20
2.168845823099957
 10
25.97974359720002
 20
2.16920652470003
 10
25.95496000690002
 20
2.170341935599992
 10
25.93024507890002
 20
2.172253981200015
 10
25.90563419700001
 20
2.174936885599947
 10
25.88115121510004
 20
2.178387487099996
 10
25.85681892740002
 20
2.182599868700037
 10
25.83266068890003
 20
2.187569456000005
 10
25.80869867170003
 20
2.193289059499988
 10
25.78495567140004
 20
2.199752759899979
 10
25.76145317230004
 20
2.206952171500006
 10
25.73821332230003
 20
2.214880111800027
 10
25.71525692530002
 20
2.223527051399969
 10
25.69260548430003
 20
2.232884599199962
 10
25.67027904910003
 20
2.242942157399966
 10
25.64829840220003
 20
2.253690204999998
 10
25.62668284800003
 20
2.265117120100001
 10
25.60545244070002
 20
2.277212305899979
 10
25.58462571260003
 20
2.289963165800031
 10
25.56422196920005
 20
2.3033580787
 10
25.54425894600001
 20
2.31738352169998
 10
25.52475516680005
 20
2.332026906800024
 10
25.50572757130002
 20
2.347273808199986
 10
25.48719390330001
 20
2.363110700700019
 10
25.46917027490002
 20
2.379522295100002
 10
25.45167362190003
 20
2.396494171699998
 10
25.43471921670005
 20
2.414010197099969
 10
25.41832317410001
 20
2.432055083700049
 10
25.40249990140001
 20
2.450611874199978
 10
25.38726467220002
 20
2.469664438000052
 10
25.37263100250005
 20
2.489195007399985
 10
25.35861330530003
 20
2.509186620999969
 10
25.34522416220003
 20
2.529620728199972
 10
25.3324770863
 20
2.55047956940001
 10
25.32038369570003
 20
2.571743809300016
 10
25.30895658060001
 20
2.593394888200009
 10
25.29820633760005
 20
2.61541271919998
 10
25.28814458550002
 20
2.637777968199998
 10
25.27878084850005
 20
2.660469816299951
 10
25.27012572470002
 20
2.683468180399984
 10
25.26218761200002
 20
2.706751518700002
 10
25.25497604320003
 20
2.730298990999983
 10
25.24849821080002
 20
2.754088408799987
 10
25.24276250720004
 20
2.778098249800052
 10
25.23777486560002
 20
2.802305674600006
 10
25.23354248620001
 20
2.826688470000021
 10
25.23006996130002
 20
2.8512232347
 10
25.22736322220004
 20
2.875887130599949
 10
25.22542545300002
 20
2.900656254100056
 10
25.22426245990002
 20
2.925495148799996
 10
25.22387230750002
 20
2.950415633600016
  0
LWPOLYLINE
  5
3328
330
22
100
AcDbEntity
  8
1
100
AcDbPolyline
 90
       10
 70
     0
 43
0.0
 10
33.96762443410003
 20
2.315433591200019
 10
33.94007372340002
 20
2.316043526999976
 10
33.91274351080003
 20
2.316578275999972
 10
33.88557668790003
 20
2.31704012169996
 10
33.85852873260004
 20
2.317430456099998
 10
33.83154235910001
 20
2.317747085599989
 10
33.80456427070004
 20
2.317989119599985
 10
33.777537978
 20
2.318154040699994
 10
33.75037994450003
 20
2.318238683099991
 10
33.72311801570004
 20
2.318244102099981
  0
LINE
  5
3334
330
22
100
AcDbEntity
  8
1
100
AcDbLine
 10
34.02347722770003
 20
2.314007287899983
 30
0.0
 11
33.96762443410003
 21
2.315433591200019
 31
0.0
  0
LINE
  5
3335
330
22
100
AcDbEntity
  8
1
100
AcDbLine
 10
34.0805039503
 20
2.312313652799957
 30
0.0
 11
34.02347722770003
 21
2.314007287899983
 31
0.0
  0
LWPOLYLINE
  5
3336
330
22
100
AcDbEntity
  8
1
100
AcDbPolyline
 90
        4
 70
     0
 43
0.0
 10
8.0739084617
 20
1.537648967099983
 10
7.673040091300009
 20
1.550830319599981
 10
7.275567260299993
 20
1.590331471999945
 10
7.220150104499992
 20
1.59796356160001
  0
LWPOLYLINE
  5
333C
330
22
100
AcDbEntity
  8
1
100
AcDbPolyline
 90
        3
 70
     0
 43
0.0
 10
34.16868286160002
 20
2.309284411999954
 10
34.13891615230003
 20
2.310358087300016
 10
34.0805039503
 20
2.312313652799957
  0
LINE
  5
3341
330
22
100
AcDbEntity
  8
SK1
100
AcDbLine
 10
-1.304456457399993
 20
6.06362966949996
 30
0.0
 11
-1.200928839400006
 21
6.050000000000011
 31
0.0
  0
LWPOLYLINE
  5
3342
330
22
100
AcDbEntity
  8
1
100
AcDbPolyline
 90
        8
 70
     0
 43
0.0
 10
25.8962483121
 20
1.669173726899998
 10
25.84367542780001
 20
1.683208581799988
 10
25.71199837410001
 20
1.727476154999976
 10
25.58002772880002
 20
1.78561313900002
 10
25.44997750490001
 20
1.858497705399997
 10
25.32465866070004
 20
1.945581111500018
 10
25.20818678090001
 20
2.045084825699973
 10
25.09881556340002
 20
2.156807044800018
  0
LWPOLYLINE
  5
334C
330
22
100
AcDbEntity
  8
1
100
AcDbPolyline
 90
       29
 70
     0
 43
0.0
 10
26.17402689060003
 20
2.590273252399981
 10
26.14882691600002
 20
2.600490304700031
 10
26.12396249610004
 20
2.611441367600036
 10
26.09942294170003
 20
2.623131729499959
 10
26.0752403203
 20
2.635545525699967
 10
26.05143634220002
 20
2.648672805399996
 10
26.02803138970001
 20
2.662501115400004
 10
26.00504654560001
 20
2.677019232900022
 10
25.98250141910003
 20
2.692213515999981
 10
25.96041639130002
 20
2.708071509299998
 10
25.93881022950001
 20
2.724578429899963
 10
25.91770254180003
 20
2.741720633599982
 10
25.89711118760005
 20
2.759482248399933
 10
25.87705493300001
 20
2.777848489300026
 10
25.857550667
 20
2.796802450799987
 10
25.83861624780002
 20
2.816328258999988
 10
25.82026753460002
 20
2.836408034199962
 10
25.80252141510005
 20
2.857024869300005
 10
25.78539266330003
 20
2.878159973499975
 10
25.76889713660003
 20
2.899795465500005
 10
25.75304847210003
 20
2.92191170929999
 10
25.73786144160005
 20
2.944489912400001
 10
25.72334849690003
 20
2.967509662499992
 10
25.70952327270004
 20
2.990951321900013
 10
25.69639699180005
 20
3.014793773399958
 10
25.68398210380002
 20
3.03901660309998
 10
25.67228856310004
 20
3.063598063299991
 10
25.66133223730003
 20
3.088506032399948
 10
25.65110783720002
 20
3.113751217500009
  0
LWPOLYLINE
  5
336B
330
22
100
AcDbEntity
  8
1
100
AcDbPolyline
 90
       12
 70
     0
 43
0.0
 10
34.81518718830003
 20
-2.703906183000015
 10
34.81002603580004
 20
-2.7000527175
 10
34.8049113454
 20
-2.696058068300033
 10
34.79982562610002
 20
-2.691940370999986
 10
34.7947545655
 20
-2.687711546200034
 10
34.78970579380001
 20
-2.683389642699978
 10
34.78467652150002
 20
-2.678988206700012
 10
34.77967742140004
 20
-2.67452826379997
 10
34.77471831880001
 20
-2.670030795500053
 10
34.76979929240002
 20
-2.665504472799966
 10
34.76491735890002
 20
-2.660957067799984
 10
34.76008611190002
 20
-2.656409171400014
  0
LWPOLYLINE
  5
3379
330
22
100
AcDbEntity
  8
1
100
AcDbPolyline
 90
       15
 70
     0
 43
0.0
 10
25.65110783720002
 20
3.113751217500009
 10
25.64260897080004
 20
3.136554277799973
 10
25.63472075510004
 20
3.159559323300015
 10
25.62744074760002
 20
3.182774518799988
 10
25.62077627550002
 20
3.206175370100027
 10
25.61473265820001
 20
3.229745666100029
 10
25.60931347630003
 20
3.253468721399997
 10
25.60452318560002
 20
3.277328064699986
 10
25.60036448070003
 20
3.301306842900032
 10
25.59684094090002
 20
3.325388370399991
 10
25.59395436720001
 20
3.349555673599979
 10
25.59170745279999
 20
3.373791899299988
 10
25.59010109960002
 20
3.398080001299945
 10
25.58913733230003
 20
3.42239448250001
 10
25.58881547610003
 20
3.446743841999989
  0
LINE
  5
3393
330
22
100
AcDbEntity
  8
1
100
AcDbLine
 10
25.35619220830003
 20
11.07426726949995
 30
0.0
 11
25.35404952690004
 21
11.13333909160002
 31
0.0
  0
LINE
  5
3394
330
22
100
AcDbEntity
  8
1
100
AcDbLine
 10
25.35807385200002
 20
11.01683730279995
 30
0.0
 11
25.35619220830003
 21
11.07426726949995
 31
0.0
  0
LWPOLYLINE
  5
3395
330
22
100
AcDbEntity
  8
1
100
AcDbPolyline
 90
       53
 70
     0
 43
0.0
 10
25.35404952690004
 20
11.13333909160002
 10
25.3535710612
 20
11.15516043949998
 10
25.35377662320002
 20
11.1769478521
 10
25.35466761840002
 20
11.19871549239997
 10
25.35623983020002
 20
11.22042087109997
 10
25.35849121290002
 20
11.24203248539999
 10
25.36141665910003
 20
11.26353153809998
 10
25.36501346330005
 20
11.28489938300003
 10
25.36927237490002
 20
11.30610406400001
 10
25.37418473030002
 20
11.32710924899999
 10
25.37974606320001
 20
11.34790941980003
 10
25.38595230750002
 20
11.36849555589998
 10
25.39279359890003
 20
11.38884183139998
 10
25.40025967260004
 20
11.40891999370001
 10
25.40834766530003
 20
11.42872830210001
 10
25.41705583210001
 20
11.44826434359998
 10
25.4263705537
 20
11.46750188330003
 10
25.43627934790001
 20
11.48641651930001
 10
25.44677705920003
 20
11.50500034010002
 10
25.45786214170005
 20
11.52324896779998
 10
25.46951128450002
 20
11.54112739989995
 10
25.48170380960002
 20
11.55860204660001
 10
25.49443027190003
 20
11.57566429230002
 10
25.50767871170001
 20
11.59229912339998
 10
25.52143599410005
 20
11.60849214379999
 10
25.53568772860004
 20
11.62422672730002
 10
25.55042572240001
 20
11.63949455010004
 10
25.56564053340003
 20
11.65428488169999
 10
25.58132151840005
 20
11.66858831519994
 10
25.59746043720003
 20
11.68239669730002
 10
25.61404063800001
 20
11.69569553569999
 10
25.63104756280001
 20
11.70847152470003
 10
25.64846668980002
 20
11.72071295120002
 10
25.66628981170004
 20
11.73241062339997
 10
25.68448342700003
 20
11.7435436714
 10
25.70301288250005
 20
11.75408875900001
 10
25.72187342660004
 20
11.76404409399998
 10
25.74105681770004
 20
11.77340425760002
 10
25.76053887290001
 20
11.7821567935
 10
25.78029357270003
 20
11.79028805889999
 10
25.80031818510003
 20
11.7977961949
 10
25.82061063340001
 20
11.80467820160004
 10
25.84114293150003
 20
11.81092385870005
 10
25.86188949230001
 20
11.81652331910004
 10
25.88284104270002
 20
11.82147246330004
 10
25.90399164270002
 20
11.825766756
 10
25.92530570570003
 20
11.82939759839996
 10
25.9467520005
 20
11.83235581980006
 10
25.96831152030001
 20
11.83463860220001
 10
25.98996539860002
 20
11.83624075649999
 10
26.01168198290003
 20
11.8371602249
 10
26.03341858930003
 20
11.83739274650003
 10
26.05518944580001
 20
11.83693974139998
  0
LWPOLYLINE
  5
33CC
330
22
100
AcDbEntity
  8
1
100
AcDbPolyline
 90
       51
 70
     0
 43
0.0
 10
25.22387230750002
 20
-11.18005888900001
 10
25.2242624598
 20
-11.20498365269998
 10
25.225425454
 20
-11.22982776260005
 10
25.22736322550003
 20
-11.25460304199998
 10
25.23006996850003
 20
-11.27927402110003
 10
25.23354249940002
 20
-11.303816788
 10
25.237774887
 20
-11.32820849260002
 10
25.24276253900001
 20
-11.35242572300001
 10
25.24849825520005
 20
-11.37644625309997
 10
25.25497610220003
 20
-11.4002472313
 10
25.26218768700002
 20
-11.42380712120001
 10
25.27012581690002
 20
-11.44710372050002
 10
25.27878095880002
 20
-11.47011617470002
 10
25.28814471450002
 20
-11.49282292819998
 10
25.29820648600003
 20
-11.51520388230006
 10
25.30895674890002
 20
-11.53723820359999
 10
25.32038388410001
 20
-11.55890654080002
 10
25.33247729490003
 20
-11.5801887906
 10
25.34522439060004
 20
-11.60106637540002
 10
25.35861355330002
 20
-11.62151994269999
 10
25.37263126940002
 20
-11.64153171370003
 10
25.38726495690003
 20
-11.66108311910005
 10
25.40250020260004
 20
-11.68015717800006
 10
25.41832349040002
 20
-11.6987361033
 10
25.43471954650002
 20
-11.71680374359999
 10
25.45167396350001
 20
-11.73434312160003
 10
25.46917062610004
 20
-11.75133892779996
 10
25.48719426220003
 20
-11.76777500790001
 10
25.50572793560002
 20
-11.78363691940001
 10
25.52475553400001
 20
-11.79890935139997
 10
25.54425931360004
 20
-11.81357875510002
 10
25.56422233460001
 20
-11.82763068209999
 10
25.58462607310003
 20
-11.84105252010005
 10
25.6054527938
 20
-11.85383072300004
 10
25.62668319120002
 20
-11.86595364440001
 10
25.64829873300002
 20
-11.87740866339999
 10
25.67027936480002
 20
-11.88818515739996
 10
25.69260578300003
 20
-11.89827147929998
 10
25.71525720440002
 20
-11.90765808160006
 10
25.7382135789
 20
-11.91633434030001
 10
25.76145340370002
 20
-11.92429183709998
 10
25.78495587460003
 20
-11.9315210158
 10
25.80869884500004
 20
-11.93801466640002
 10
25.83266083150002
 20
-11.94376437599999
 10
25.85681903970002
 20
-11.94876419690001
 10
25.88115129840003
 20
-11.95300691139999
 10
25.90563425390002
 20
-11.95648791580004
 10
25.93024511350004
 20
-11.95920126449999
 10
25.95496002380003
 20
-11.96114376559995
 10
25.9797436028
 20
-11.96230959860003
 10
26.00460764430002
 20
-11.96270070370002
  0
LWPOLYLINE
  5
3401
330
22
100
AcDbEntity
  8
1
100
AcDbPolyline
 90
       57
 70
     0
 43
0.0
 10
25.22387230750002
 20
-11.18005899019999
 10
25.22389800400004
 20
-11.18319002940001
 10
25.22397468190002
 20
-11.18629193819998
 10
25.22410169790001
 20
-11.1893577056
 10
25.2242809823
 20
-11.192408365
 10
25.22451283310002
 20
-11.19545837910004
 10
25.22480150430005
 20
-11.19852044879997
 10
25.2251490479
 20
-11.20160738779998
 10
25.22556236780002
 20
-11.20473332080001
 10
25.22604605210001
 20
-11.20791361150003
 10
25.22660910080003
 20
-11.21115735589995
 10
25.22725944400003
 20
-11.21448069109999
 10
25.22800487940003
 20
-11.2178778576
 10
25.22885447230005
 20
-11.22135407860003
 10
25.22981235020004
 20
-11.22489254300001
 10
25.23088407880002
 20
-11.22848090080003
 10
25.23207440960002
 20
-11.23211099339994
 10
25.23338836680003
 20
-11.23577263959998
 10
25.23483069750003
 20
-11.23945955660002
 10
25.23640649780003
 20
-11.24316428269998
 10
25.23811974520004
 20
-11.24688017300002
 10
25.23997426520003
 20
-11.25059902539999
 10
25.24197561060004
 20
-11.25431804980002
 10
25.24412857460001
 20
-11.25803259690002
 10
25.24643926190004
 20
-11.26174004269995
 10
25.24891348650005
 20
-11.26543747839997
 10
25.25155691260002
 20
-11.26912110969999
 10
25.25437467340004
 20
-11.27278686550005
 10
25.25737417570002
 20
-11.27643266730001
 10
25.26056181180002
 20
-11.2800558783
 10
25.26394575920003
 20
-11.28365410279997
 10
25.26753369100004
 20
-11.28722526900003
 10
25.2713335121
 20
-11.29076576919999
 10
25.27535225300002
 20
-11.29427213660005
 10
25.27960021050001
 20
-11.29774187660001
 10
25.28408664690005
 20
-11.30117263430003
 10
25.28882169630004
 20
-11.30456052300002
 10
25.29381490610004
 20
-11.30790228960001
 10
25.29907729840002
 20
-11.31119367820002
 10
25.30461856770003
 20
-11.31443068210001
 10
25.31045224400003
 20
-11.3176093015
 10
25.31659093600001
 20
-11.32072612429999
 10
25.32304710130001
 20
-11.32377538019994
 10
25.3298318322
 20
-11.32675185550005
 10
25.33696183250004
 20
-11.32965046819998
 10
25.34445239400003
 20
-11.33246673919996
 10
25.35231884590002
 20
-11.33519364669996
 10
25.36057502670002
 20
-11.3378249717
 10
25.36924070090004
 20
-11.34035382749999
 10
25.37833395930005
 20
-11.34277413440003
 10
25.38787366120002
 20
-11.34507725330002
 10
25.39787678890002
 20
-11.34725552589998
 10
25.40836706410002
 20
-11.34929993080004
 10
25.41936414030002
 20
-11.35120228290003
 10
25.4308972037
 20
-11.35295241589995
 10
25.44300645920003
 20
-11.35453582320002
 10
25.45567850510003
 20
-11.35595734050002
  0
LWPOLYLINE
  5
343C
330
22
100
AcDbEntity
  8
1
100
AcDbPolyline
 90
       11
 70
     0
 43
0.0
 10
25.36349262370001
 20
10.71417450370001
 10
25.36337391720002
 20
10.74152370230001
 10
25.36317407890002
 20
10.76879799599999
 10
25.36289633680002
 20
10.79604365019998
 10
25.36254302490002
 20
10.82329166609997
 10
25.36211574810002
 20
10.85057241480001
 10
25.36161703460002
 20
10.87791500639997
 10
25.36104644850002
 20
10.90535422650003
 10
25.36040289710002
 20
10.93291765610001
 10
25.35969087970002
 20
10.96065601970002
 10
25.35807385200002
 20
11.01683730279995
  0
LINE
  5
3449
330
22
100
AcDbEntity
  8
1
100
AcDbLine
 10
25.58881547610003
 20
3.446743841999989
 30
0.0
 11
25.58881547610003
 21
10.6856411549
 31
0.0
  0
LINE
  5
344A
330
22
100
AcDbEntity
  8
1
100
AcDbLine
 10
25.45567850510003
 20
-10.78300425440005
 30
0.0
 11
25.45567850510003
 21
-11.35595734050002
 31
0.0
  0
LINE
  5
344B
330
22
100
AcDbEntity
  8
1
100
AcDbLine
 10
25.36349262370001
 20
10.71417450370001
 30
0.0
 11
25.36353127450002
 21
3.447868508999988
 31
0.0
  0
LINE
  5
344C
330
22
100
AcDbEntity
  8
1
100
AcDbLine
 10
25.22387230750002
 20
2.950415633600016
 30
0.0
 11
25.22387230750002
 21
11.18387781870001
 31
0.0
  0
LINE
  5
344D
330
22
100
AcDbEntity
  8
1
100
AcDbLine
 10
25.22387230750002
 20
-10.86297093429999
 30
0.0
 11
25.22387230750002
 21
-11.18005888900001
 31
0.0
  0
LWPOLYLINE
  5
344E
330
22
100
AcDbEntity
  8
1
100
AcDbPolyline
 90
       15
 70
     0
 43
0.0
 10
25.58881547610003
 20
10.6856411549
 10
25.58913733230003
 20
10.70999129989997
 10
25.59010109950003
 20
10.73430813339996
 10
25.59170745270004
 20
10.75860015609999
 10
25.59395436720001
 20
10.78284186599995
 10
25.59684094090002
 20
10.80701621459997
 10
25.60036448060003
 20
10.83110634220003
 10
25.6045231855
 20
10.85509527080001
 10
25.60931347620002
 20
10.87896630609998
 10
25.61473265800004
 20
10.90270258839996
 10
25.62077627540003
 20
10.92628763550004
 10
25.62744074740005
 20
10.94970475319996
 10
25.63472075490003
 20
10.97293771760002
 10
25.64260897050002
 20
10.99596201639997
 10
25.65110783680001
 20
11.0187858205
  0
LWPOLYLINE
  5
345F
330
22
100
AcDbEntity
  8
1
100
AcDbPolyline
 90
       51
 70
     0
 43
0.0
 10
25.22387230750002
 20
11.18387781870001
 10
25.2242624598
 20
11.20879926230003
 10
25.225425454
 20
11.23364100769999
 10
25.22736322550003
 20
11.25841487849999
 10
25.23006996850003
 20
11.28308540339998
 10
25.23354249940002
 20
11.30762867010003
 10
25.237774887
 20
11.33202182489998
 10
25.24276253900001
 20
11.3562414539
 10
25.24849825520005
 20
11.3802653253
 10
25.25497610220003
 20
11.40407058400001
 10
25.26218768700002
 20
11.42763568660001
 10
25.27012581690002
 20
11.45093842529997
 10
25.27878095880002
 20
11.47395793730004
 10
25.28814471450002
 20
11.49667265989996
 10
25.29820648600003
 20
11.51906248449995
 10
25.30895674890002
 20
11.54110656940003
 10
25.32038388410001
 20
11.56278555199998
 10
25.33247729490003
 20
11.58407931910005
 10
25.34522439060004
 20
11.60496928059996
 10
25.35861355330002
 20
11.62543607269998
 10
25.37263126940002
 20
11.64546190290002
 10
25.38726495690003
 20
11.6650281894
 10
25.40250020260004
 20
11.68411793609999
 10
25.41832349040002
 20
11.70271334239999
 10
25.43471954650002
 20
11.72079824050001
 10
25.45167396350001
 20
11.7383556382
 10
25.46917062610004
 20
11.75537020860002
 10
25.48719426220003
 20
11.77182578129998
 10
25.50572793560002
 20
11.7877078953
 10
25.52475553400001
 20
11.80300122230005
 10
25.54425931360004
 20
11.81769219410006
 10
25.56422233460001
 20
11.83176634360001
 10
25.58462607310003
 20
11.84521103790001
 10
25.6054527938
 20
11.85801271139996
 10
25.62668319120002
 20
11.87015969579999
 10
25.64829873300002
 20
11.88163934959999
 10
25.67027936480002
 20
11.89244102719999
 10
25.69260578300003
 20
11.90255305989996
 10
25.71525720440002
 20
11.9119658761
 10
25.7382135789
 20
11.92066882910001
 10
25.76145340370002
 20
11.92865347559996
 10
25.78495587460003
 20
11.93591023550004
 10
25.80869884500004
 20
11.9424318728
 10
25.83266083150002
 20
11.9482099498
 10
25.85681903970002
 20
11.95323849160002
 10
25.88115129840003
 20
11.95751025480001
 10
25.90563425390002
 20
11.96102060779998
 10
25.93024511350004
 20
11.96376357809998
 10
25.95496002380003
 20
11.96573594519998
 10
25.9797436028
 20
11.96693184629998
 10
26.00460764430002
 20
11.96735323569999
  0
LWPOLYLINE
  5
3494
330
22
100
AcDbEntity
  8
1
100
AcDbPolyline
 90
       45
 70
     0
 43
0.0
 10
26.08859506520003
 20
10.68625108150002
 10
26.08886182750001
 20
10.70120504099998
 10
26.08965940280001
 20
10.7161215982
 10
26.0909888063
 20
10.73101021879995
 10
26.09284699270003
 20
10.74584250610002
 10
26.09523260260005
 20
10.76059943309997
 10
26.09814159270002
 20
10.77526235629995
 10
26.10157125320001
 20
10.78981239269996
 10
26.10551622430004
 20
10.80423123370002
 10
26.10997245910002
 20
10.81850023660001
 10
26.11493330910003
 20
10.83260152120004
 10
26.12039341110005
 20
10.84651677980002
 10
26.12634486140001
 20
10.86022865160004
 10
26.13278100790001
 20
10.87371925769997
 10
26.13969273190003
 20
10.88697184519998
 10
26.14707212660003
 20
10.89996905449999
 10
26.15490890480004
 20
10.91269482589996
 10
26.16319394470003
 20
10.9251324082
 10
26.17191584340003
 20
10.93726651660006
 10
26.18106431070004
 20
10.94908109330003
 10
26.19062688590003
 20
10.96056170660006
 10
26.20059216310003
 20
10.97169307379999
 10
26.21094668700002
 20
10.98246168959997
 10
26.22167799410002
 20
10.99285312480003
 10
26.23277170320003
 20
11.00285486919995
 10
26.24421435670001
 20
11.0124534203
 10
26.25599072100005
 20
11.02163732699995
 10
26.26808641270003
 20
11.03039408209997
 10
26.28048542330004
 20
11.03871335220003
 10
26.29317251710001
 20
11.04658368919996
 10
26.30613099240003
 20
11.05399592980001
 10
26.31934483670003
 20
11.0609397426
 10
26.33279674600004
 20
11.06740718330002
 10
26.34646998580001
 20
11.07338908349999
 10
26.36034683500003
 20
11.0788787843
 10
26.37441012830004
 20
11.08386839019994
 10
26.3886414639
 20
11.08835244319999
 10
26.40302290540001
 20
11.09232420769996
 10
26.41753589180002
 20
11.09577961959996
 10
26.43216216260004
 20
11.09871328300005
 10
26.44688288020004
 20
11.1011224572
 10
26.46167944800001
 20
11.10300306519997
 10
26.47653288320004
 20
11.10435371989996
 10
26.49141485600003
 20
11.10517133169998
 10
26.50633480970004
 20
11.10545693059998
  0
LWPOLYLINE
  5
34C3
330
22
100
AcDbEntity
  8
1
100
AcDbPolyline
 90
       10
 70
     0
 43
0.0
 10
25.36042947080003
 20
3.202798575899976
 10
25.36107155940005
 20
3.230413139899951
 10
25.36163836440005
 20
3.257806609100043
 10
25.36213223370001
 20
3.285036225599981
 10
25.36255461030001
 20
3.312146615100004
 10
25.3629033753
 20
3.339195191999976
 10
25.36317770510005
 20
3.366235373999984
 10
25.36337515690002
 20
3.393323776800002
 10
25.36349267370002
 20
3.42054412449994
 10
25.36353127450002
 20
3.447868508999988
  0
LINE
  5
34CF
330
22
100
AcDbEntity
  8
1
100
AcDbLine
 10
25.35893841860002
 20
3.146816103300011
 30
0.0
 11
25.36042947080003
 21
3.202798575899976
 31
0.0
  0
LINE
  5
34D0
330
22
100
AcDbEntity
  8
1
100
AcDbLine
 10
25.35717921580005
 20
3.089656686900013
 30
0.0
 11
25.35893841860002
 21
3.146816103300011
 31
0.0
  0
LWPOLYLINE
  5
34D1
330
22
100
AcDbEntity
  8
1
100
AcDbPolyline
 90
        3
 70
     0
 43
0.0
 10
25.35404952690004
 20
3.001272095100034
 10
25.35515699390004
 20
3.031108298599974
 10
25.35717921580005
 20
3.089656686900013
  0
LINE
  5
3529
330
22
100
AcDbEntity
  8
1
100
AcDbLine
 10
27.48360136690002
 20
2.150973543799977
 30
0.0
 11
27.42191208580005
 21
2.0893346565
 31
0.0
  0
LWPOLYLINE
  5
352A
330
22
100
AcDbEntity
  8
1
100
AcDbPolyline
 90
       21
 70
     0
 43
0.0
 10
27.42191208580005
 20
2.0893346565
 10
27.37270507750003
 20
2.042540711900016
 10
27.32179083890003
 20
1.998092217600003
 10
27.26915718150002
 20
1.956083588599994
 10
27.21493706620004
 20
1.916515447800009
 10
27.15940377870001
 20
1.879438957899992
 10
27.10211512900003
 20
1.844634168899972
 10
27.04292925860003
 20
1.811904607200006
 10
26.98119991130003
 20
1.781180423899968
 10
26.91641651890001
 20
1.752224534100037
 10
26.8480191045
 20
1.725306313299995
 10
26.77552448250003
 20
1.700376263199984
 10
26.69819807480002
 20
1.677989786500006
 10
26.61544022320004
 20
1.658236906299975
 10
26.52638134840004
 20
1.642142336099993
 10
26.42989332840003
 20
1.63012700720003
 10
26.32617082760004
 20
1.623726878099944
 10
26.21458177200003
 20
1.624300732699964
 10
26.09644486580004
 20
1.633161329199992
 10
25.97216147310002
 20
1.652520041600041
 10
25.8962483121
 20
1.669173726899998
  0
LINE
  5
354A
330
22
100
AcDbEntity
  8
1
100
AcDbLine
 10
27.48360136690002
 20
2.150973543799977
 30
0.0
 11
27.50903439690004
 21
2.170681812200029
 31
0.0
  0
LINE
  5
354B
330
22
100
AcDbEntity
  8
SK1
100
AcDbLine
 10
-1.304456457399993
 20
-6.06362966949996
 30
0.0
 11
-1.200928839400006
 21
-6.050000000000011
 31
0.0
  0
LINE
  5
354C
330
22
100
AcDbEntity
  8
1
100
AcDbLine
 10
16.0
 20
-0.7414795903000027
 30
0.0
 11
6.0
 21
-0.7414795903000027
 31
0.0
  0
LINE
  5
354D
330
22
100
AcDbEntity
  8
1
100
AcDbLine
 10
34.21926466310003
 20
-2.162700703700011
 30
0.0
 11
33.79552757180005
 21
-2.162700703700011
 31
0.0
  0
LINE
  5
354E
330
22
100
AcDbEntity
  8
1
100
AcDbLine
 10
34.45402763590005
 20
-2.335635158199977
 30
0.0
 11
33.79552757180005
 21
-2.335635158199977
 31
0.0
  0
LINE
  5
354F
330
22
100
AcDbEntity
  8
1
100
AcDbLine
 10
33.8531753703
 20
-3.300871027799985
 30
0.0
 11
33.79552757180005
 21
-3.300871027799985
 31
0.0
  0
LINE
  5
3550
330
22
100
AcDbEntity
  8
1
100
AcDbLine
 10
34.22239100180002
 20
-2.162719808500014
 30
0.0
 11
34.21926477540001
 21
-2.162700703700011
 31
0.0
  0
LINE
  5
3551
330
22
100
AcDbEntity
  8
4
100
AcDbLine
 10
-3.992811711099989
 20
0.2075525519999815
 30
0.0
 11
36.53731893427488
 21
-2.603226360810424
 31
0.0
  0
LWPOLYLINE
  5
3552
330
22
100
AcDbEntity
  8
1
100
AcDbPolyline
 90
       23
 70
     0
 43
0.0
 10
7.220150104499992
 20
1.59796356160001
 10
6.880554909400018
 20
1.656180758700031
 10
6.490808216400012
 20
1.748072377500022
 10
6.108138700500006
 20
1.865850244800014
 10
5.734592278099995
 20
2.00884933550003
 10
5.372309939400025
 20
2.176465098399944
 10
5.022817982800006
 20
2.36802650339996
 10
4.687706214600012
 20
2.582898289000013
 10
4.368925102199995
 20
2.819905125599973
 10
4.068355966900014
 20
3.078040224400012
 10
3.78779605279999
 20
3.355585732099996
 10
3.528679816500016
 20
3.652133746200036
 10
3.293976942100016
 20
3.962124384300011
 10
3.087516756900015
 20
4.280792320800003
 10
2.908154788000018
 20
4.605536107300054
 10
2.75692994320002
 20
4.930552036600033
 10
2.63112140710001
 20
5.260991442699946
 10
2.527908825699995
 20
5.597995297799968
 10
2.448629723200014
 20
5.945688990999997
 10
2.392406904099999
 20
6.306150224100008
 10
2.363064173400005
 20
6.682385852899983
 10
2.364574363100018
 20
7.078204585799994
 10
2.395613195800024
 20
7.485781470400013
  0
LINE
  5
356B
330
22
100
AcDbEntity
  8
SK1
100
AcDbLine
 10
-1.304456457399993
 20
6.06362966949996
 30
0.0
 11
-2.0
 21
6.25
 31
0.0
  0
LINE
  5
356C
330
22
100
AcDbEntity
  8
1
100
AcDbLine
 10
34.02746689390003
 20
-10.70458823489997
 30
0.0
 11
33.7962945763
 21
-10.45542847000001
 31
0.0
  0
LWPOLYLINE
  5
3581
330
22
100
AcDbEntity
  8
1
100
AcDbPolyline
 90
       31
 70
     0
 43
0.0
 10
26.76143474140002
 20
-10.70458823489997
 10
26.76487222200001
 20
-10.71495122300001
 10
26.76852248060004
 20
-10.72456293250002
 10
26.77239547180003
 20
-10.73338444059999
 10
26.77646133100004
 20
-10.74153251529998
 10
26.78069606960003
 20
-10.74909751960001
 10
26.78509201320003
 20
-10.75611974639997
 10
26.78964223370002
 20
-10.76266729010001
 10
26.79432050420002
 20
-10.7687471095
 10
26.79909979180002
 20
-10.77437814180001
 10
26.8039755863
 20
-10.77959254609999
 10
26.80893730820003
 20
-10.7844226665
 10
26.81397613210004
 20
-10.78888688519998
 10
26.81908314580002
 20
-10.79300959750003
 10
26.82424803160001
 20
-10.7968051089
 10
26.82945208580003
 20
-10.80028732269994
 10
26.83471155450002
 20
-10.80348184169998
 10
26.84002693520003
 20
-10.80641266489999
 10
26.84542676990003
 20
-10.80909850749998
 10
26.85094525840003
 20
-10.8115683149
 10
26.85656592480001
 20
-10.81381539589995
 10
26.86228362490004
 20
-10.81584169709998
 10
26.8680985629
 20
-10.81765025010003
 10
26.8740011754
 20
-10.81924303949995
 10
26.88001562060004
 20
-10.82062515300004
 10
26.88616217370003
 20
-10.82180383669998
 10
26.89244291920002
 20
-10.82277460059998
 10
26.89886746920001
 20
-10.82353694839997
 10
26.90543351530002
 20
-10.82408614449997
 10
26.91214206520005
 20
-10.82441667559999
 10
26.91899278290004
 20
-10.82453037949995
  0
LWPOLYLINE
  5
35A2
330
22
100
AcDbEntity
  8
1
100
AcDbPolyline
 90
       29
 70
     0
 43
0.0
 10
25.65110783680001
 20
11.0187858205
 10
25.66133223700001
 20
11.04405596129999
 10
25.67228856280002
 20
11.06899067239999
 10
25.68398210340002
 20
11.09360067400001
 10
25.69639699150002
 20
11.11785380579999
 10
25.70952327230003
 20
11.14172829580002
 10
25.72334849650002
 20
11.1652036996
 10
25.73786144120001
 20
11.18825887260004
 10
25.75304847170003
 20
11.210874144
 10
25.76889713630001
 20
11.23302907099997
 10
25.78539266290003
 20
11.25470482499997
 10
25.80252141470004
 20
11.27588173679999
 10
25.82026753430003
 20
11.29654188629996
 10
25.83861624740001
 20
11.31666644680001
 10
25.85755066670003
 20
11.33623846980003
 10
25.87705493260003
 20
11.35524003699998
 10
25.89711118730003
 20
11.37365523089994
 10
25.91770254150004
 20
11.39146710469998
 10
25.93881022920005
 20
11.40866082779996
 10
25.96041639100003
 20
11.42522048429998
 10
25.98250141880001
 20
11.44113238239998
 10
26.00504654540003
 20
11.4563816932
 10
26.02803138950003
 20
11.47095591179999
 10
26.05143634200002
 20
11.48484134820001
 10
26.07524032010002
 20
11.49802672819999
 10
26.09942294160004
 20
11.51049954889998
 10
26.12396249600005
 20
11.52224980660003
 10
26.14882691590003
 20
11.53326155819996
 10
26.17402689050002
 20
11.54354011809999
  0
LWPOLYLINE
  5
35C1
330
22
100
AcDbEntity
  8
1
100
AcDbPolyline
 90
       13
 70
     0
 43
0.0
 10
25.16489863890001
 20
4.348923035300003
 10
25.03126252190003
 20
4.196413139199989
 10
24.91929909910004
 20
4.031119333099979
 10
24.82838572170005
 20
3.851590470299981
 10
24.76039033580003
 20
3.662179990899971
 10
24.71693655500002
 20
3.465676610800016
 10
24.69813472770005
 20
3.265323355599946
 10
24.70487016240003
 20
3.064240054199956
 10
24.73644159220004
 20
2.865585011800021
 10
24.79293059630004
 20
2.672595295899952
 10
24.87287394480001
 20
2.488154447600038
 10
24.97465609580002
 20
2.316720350999958
 10
25.09881556340002
 20
2.156807044800018
  0
LINE
  5
35D0
330
22
100
AcDbEntity
  8
1
100
AcDbLine
 10
25.22643609060003
 20
4.410676459599983
 30
0.0
 11
25.16489863890001
 21
4.348923035300003
 31
0.0
  0
LINE
  5
35E8
330
22
100
AcDbEntity
  8
SK1
100
AcDbLine
 10
-7.0
 20
-4.824999999999988
 30
0.0
 11
-8.710786437599978
 21
-4.824999999999988
 31
0.0
  0
LINE
  5
35E9
330
22
100
AcDbEntity
  8
SK1
100
AcDbLine
 10
-21.5
 20
-5.25
 30
0.0
 11
-9.549999999999982
 21
-5.25
 31
0.0
  0
LINE
  5
35EA
330
22
100
AcDbEntity
  8
SK1
100
AcDbLine
 10
-10.29999999999998
 20
-6.0
 30
0.0
 11
-20.75
 21
-6.0
 31
0.0
  0
LINE
  5
35EB
330
22
100
AcDbEntity
  8
SK1
100
AcDbLine
 10
-0.2999999999999829
 20
-6.050000000000011
 30
0.0
 11
-1.200928839400006
 21
-6.050000000000011
 31
0.0
  0
LINE
  5
35EC
330
22
100
AcDbEntity
  8
SK1
100
AcDbLine
 10
-2.0
 20
-6.25
 30
0.0
 11
-5.599999999999994
 21
-6.25
 31
0.0
  0
LWPOLYLINE
  5
362F
330
22
100
AcDbEntity
  8
1
100
AcDbPolyline
 90
        9
 70
     0
 43
0.0
 10
25.8458289628
 20
-11.70405950480005
 10
25.85009582390001
 20
-11.71673518150004
 10
25.85468264430003
 20
-11.72882843949998
 10
25.85959775450002
 20
-11.7403302692
 10
25.864816163
 20
-11.75126769970001
 10
25.87031863840002
 20
-11.76165672370001
 10
25.87609622990004
 20
-11.77152144120003
 10
25.88213165590003
 20
-11.7808949619
 10
25.88843067700003
 20
-11.78976624910001
  0
LINE
  5
363B
330
22
100
AcDbEntity
  8
1
100
AcDbLine
 10
16.0
 20
-10.18590977440004
 30
0.0
 11
16.0
 21
-0.7414795903000027
 31
0.0
  0
LWPOLYLINE
  5
363C
330
22
100
AcDbEntity
  8
1
100
AcDbPolyline
 90
       14
 70
     0
 43
0.0
 10
23.83091141950001
 20
-11.44995631400002
 10
23.90476342460002
 20
-11.43135201940004
 10
24.01929813570002
 20
-11.38290890860003
 10
24.17613893590004
 20
-11.30997328440003
 10
24.37041567570003
 20
-11.21836849030001
 10
24.59929353320001
 20
-11.1137312669
 10
24.85828990890002
 20
-11.00239777510001
 10
25.14236352840004
 20
-10.89118463980003
 10
25.45035559490003
 20
-10.7845752961
 10
25.78306289050002
 20
-10.68637769059995
 10
26.12957740490003
 20
-10.6017257812
 10
26.48340064610005
 20
-10.53593662529999
 10
26.83210084160004
 20
-10.48945727940003
 10
27.15925531280002
 20
-10.4624351329
  0
LINE
  5
3671
330
22
100
AcDbEntity
  8
1
100
AcDbLine
 10
27.15925531280002
 20
-10.4624351329
 30
0.0
 11
27.47033828590003
 21
-10.45614010260004
 31
0.0
  0
LWPOLYLINE
  5
3672
330
22
100
AcDbEntity
  8
1
100
AcDbPolyline
 90
       11
 70
     0
 43
0.0
 10
6.325110199200025
 20
-10.49999630269997
 10
6.539952759200019
 20
-10.49899100819999
 10
6.88637449250001
 20
-10.49448074220004
 10
7.245944461100009
 20
-10.48743183730005
 10
7.618206283400013
 20
-10.47907101410004
 10
8.006603650399995
 20
-10.47041190620001
 10
8.405557673700002
 20
-10.46251251169997
 10
8.812231498900018
 20
-10.45634554650002
 10
9.221842715500002
 20
-10.45243704109998
 10
9.627947291000026
 20
-10.45115833410005
 10
10.0326932362
 20
-10.45260725540004
  0
LINE
  5
3680
330
22
100
AcDbEntity
  8
1
100
AcDbLine
 10
16.0
 20
-10.18590977440004
 30
0.0
 11
6.0
 21
-10.18590977440004
 31
0.0
  0
LINE
  5
3681
330
22
100
AcDbEntity
  8
1
100
AcDbLine
 10
33.79552757180005
 20
-10.45614010260004
 30
0.0
 11
27.47033828590003
 21
-10.45614010260004
 31
0.0
  0
LINE
  5
3682
330
22
100
AcDbEntity
  8
1
100
AcDbLine
 10
6.326366207500001
 20
-10.5
 30
0.0
 11
0.4000000000000057
 21
-10.5
 31
0.0
  0
LWPOLYLINE
  5
3683
330
22
100
AcDbEntity
  8
1
100
AcDbPolyline
 90
        7
 70
     0
 43
0.0
 10
17.16284210969999
 20
-10.48818809690004
 10
15.97203824510001
 20
-10.48390334620001
 10
14.78215893000001
 20
-10.47895985709999
 10
13.59315303350001
 20
-10.47335707800005
 10
12.405173948
 20
-10.46709666359999
 10
11.21837506600002
 20
-10.46018026889999
 10
10.03270525660002
 20
-10.45260734219999
  0
LWPOLYLINE
  5
36CC
330
22
100
AcDbEntity
  8
1
100
AcDbPolyline
 90
        8
 70
     0
 43
0.0
 10
25.45567850510003
 20
-11.35595734050002
 10
25.46649208270003
 20
-11.36424347889999
 10
25.47792056690003
 20
-11.37237959370003
 10
25.48995001770004
 20
-11.38036891920001
 10
25.50262225470002
 20
-11.38820175269995
 10
25.51596781030003
 20
-11.39587483800005
 10
25.5300066053
 20
-11.40337207030001
 10
25.54477250040003
 20
-11.41067411099999
  0
LINE
  5
36D6
330
22
100
AcDbEntity
  8
1
100
AcDbLine
 10
17.85566243279999
 20
11.18142931
 30
0.0
 11
17.59585481160002
 21
10.73002731779996
 31
0.0
  0
LWPOLYLINE
  5
36D7
330
22
100
AcDbEntity
  8
1
100
AcDbPolyline
 90
       13
 70
     0
 43
0.0
 10
17.85566243279999
 20
11.18142931
 10
17.87921944910002
 20
11.21848851790002
 10
17.9056873959
 20
11.2531106271
 10
17.93518350160002
 20
11.28541304999999
 10
17.9673560809
 20
11.31504354970002
 10
18.00199120190001
 20
11.3417460558
 10
18.0387928332
 20
11.3653494815
 10
18.07750155050001
 20
11.38563534529999
 10
18.11779360010001
 20
11.40248976050003
 10
18.15935922010001
 20
11.41574308129998
 10
18.20189700980001
 20
11.42534410320002
 10
18.24495173279999
 20
11.4311716039
 10
18.2886751346
 20
11.43326599069996
  0
LWPOLYLINE
  5
36E6
330
22
100
AcDbEntity
  8
1
100
AcDbPolyline
 90
       15
 70
     0
 43
0.0
 10
26.17402689050002
 20
11.54354011809999
 10
26.19678821710002
 20
11.55208621790001
 10
26.21975032390003
 20
11.56002051429999
 10
26.24292136030002
 20
11.56734546500001
 10
26.2662768788
 20
11.57405369650001
 10
26.28980069920004
 20
11.58013985730002
 10
26.31347616960002
 20
11.58560033819998
 10
26.33728685110003
 20
11.59043065319997
 10
26.36121592560002
 20
11.59462808120003
 10
26.38524674130002
 20
11.59818901410005
 10
26.40936236120001
 20
11.60111162629999
 10
26.43354596750004
 20
11.6033931979
 10
26.45778055150004
 20
11.6050328041
 10
26.48204067210003
 20
11.60602838449995
 10
26.50633480970004
 20
11.60638062589999
  0
LWPOLYLINE
  5
36F7
330
22
100
AcDbEntity
  8
1
100
AcDbPolyline
 90
       55
 70
     0
 43
0.0
 10
34.88677980790001
 20
-11.35595734050002
 10
34.89297977660005
 20
-11.35453319239997
 10
34.89890462170001
 20
-11.35294633489997
 10
34.90454781260002
 20
-11.35119193480005
 10
34.90992894050004
 20
-11.3492844914
 10
34.91506249240001
 20
-11.34723401180002
 10
34.91995724990002
 20
-11.34504913889998
 10
34.92462385320002
 20
-11.34273934279997
 10
34.92907121410002
 20
-11.34031214830003
 10
34.93330880250002
 20
-11.33777622050001
 10
34.93734558400002
 20
-11.33513760919999
 10
34.94119139500003
 20
-11.33240319679998
 10
34.94485309370003
 20
-11.32957915000003
 10
34.94833858960002
 20
-11.32667215250001
 10
34.95165456480004
 20
-11.32368753690002
 10
34.95480841760002
 20
-11.32063112300005
 10
34.95780590940004
 20
-11.31750813309998
 10
34.96065296950002
 20
-11.31432483879996
 10
34.96335649270003
 20
-11.31108391279997
 10
34.96592377090002
 20
-11.30778881879996
 10
34.96835954160002
 20
-11.3044434546
 10
34.97066951850002
 20
-11.30105163860003
 10
34.97285806400004
 20
-11.29761707290004
 10
34.97493005370001
 20
-11.29414365709999
 10
34.97688966170003
 20
-11.2906346167
 10
34.97874148890003
 20
-11.28709327920001
 10
34.98048913110003
 20
-11.2835232383
 10
34.98213623840002
 20
-11.27992898190001
 10
34.98368724910003
 20
-11.27631115440005
 10
34.98514676770003
 20
-11.27267114349996
 10
34.98651794460002
 20
-11.26901120650001
 10
34.98780467760003
 20
-11.26533266220002
 10
34.98900932810002
 20
-11.26163971330004
 10
34.99013472410002
 20
-11.25793563699994
 10
34.99118336390001
 20
-11.25422452859999
 10
34.99215793680003
 20
-11.25050973399999
 10
34.99306069720001
 20
-11.24679677800003
 10
34.99389408310003
 20
-11.24308979830004
 10
34.99466023210002
 20
-11.2393963028
 10
34.99536119060002
 20
-11.23572311629999
 10
34.99599966990002
 20
-11.23207642569997
 10
34.99657819950002
 20
-11.22846192290001
 10
34.99709937090003
 20
-11.22488791669997
 10
34.99756575980001
 20
-11.22136070959999
 10
34.99797994280001
 20
-11.21789201300004
 10
34.99834401910005
 20
-11.21449627419997
 10
34.99866199710002
 20
-11.21117158730004
 10
34.99893727210003
 20
-11.20792626029998
 10
34.99917378290002
 20
-11.2047440993
 10
34.99937583010004
 20
-11.20161717129997
 10
34.99954572440004
 20
-11.19852900199998
 10
34.99968689450003
 20
-11.19546435960001
 10
34.99980028680003
 20
-11.1924115832
 10
34.99988793200004
 20
-11.18935868620002
 10
34.99995000620001
 20
-11.18629141410002
  0
LWPOLYLINE
  5
3730
330
22
100
AcDbEntity
  8
1
100
AcDbPolyline
 90
       55
 70
     0
 43
0.0
 10
34.22550871290003
 20
-11.96262432930001
 10
34.22859950130004
 20
-11.9625295715
 10
34.23168858800003
 20
-11.96239581989999
 10
34.23479047680002
 20
-11.9622228522
 10
34.23791892580005
 20
-11.9620074947
 10
34.24108724240003
 20
-11.96174821669996
 10
34.24431128260002
 20
-11.96143986750002
 10
34.24760754640002
 20
-11.96107902430003
 10
34.25098740970003
 20
-11.96065897290003
 10
34.25446899870002
 20
-11.96017379720001
 10
34.25804856260004
 20
-11.95961767969999
 10
34.26173363040002
 20
-11.95898385769999
 10
34.26550848800002
 20
-11.95826925169996
 10
34.26936223900003
 20
-11.95746970970003
 10
34.27328795980003
 20
-11.9565816868
 10
34.27727677960002
 20
-11.95560143489996
 10
34.28132364490003
 20
-11.9545254125
 10
34.28542241560001
 20
-11.95334981769997
 10
34.28956748060003
 20
-11.95207168309997
 10
34.29375163610001
 20
-11.95068815500002
 10
34.29797351920001
 20
-11.94919509059997
 10
34.30222971790002
 20
-11.94758891410004
 10
34.30651917630001
 20
-11.94586507140002
 10
34.31084047970001
 20
-11.94401922480006
 10
34.31519129180003
 20
-11.94204714870005
 10
34.31956886440003
 20
-11.93994501370002
 10
34.32397301880002
 20
-11.937707294
 10
34.32840275960001
 20
-11.93532922080004
 10
34.33285778870001
 20
-11.93280469339998
 10
34.33733800180005
 20
-11.93012798749998
 10
34.34184182220003
 20
-11.92729320559999
 10
34.34636758990001
 20
-11.92429510300002
 10
34.35091544990001
 20
-11.92112599789999
 10
34.35548542240002
 20
-11.91777898019995
 10
34.36007622230003
 20
-11.91424648980006
 10
34.36468704640004
 20
-11.91052140379997
 10
34.36931646870002
 20
-11.90659549959997
 10
34.37396297190003
 20
-11.90246154459998
 10
34.37862602670004
 20
-11.89810944510003
 10
34.38330545450003
 20
-11.8935297946
 10
34.38799868540002
 20
-11.88871329949995
 10
34.39270335590004
 20
-11.88365168449996
 10
34.3974186689
 20
-11.87833248800001
 10
34.40214406750005
 20
-11.87274430190001
 10
34.40687646830003
 20
-11.86687569019994
 10
34.41161320690003
 20
-11.86071632879998
 10
34.41635246900001
 20
-11.85425147300003
 10
34.42109281710003
 20
-11.84746762639997
 10
34.42583045710001
 20
-11.84035071949995
 10
34.43056209310004
 20
-11.83288808269998
 10
34.43528479360003
 20
-11.8250620192
 10
34.43999542040001
 20
-11.81685786679998
 10
34.44469129740003
 20
-11.80825385169999
 10
34.44936823730001
 20
-11.79921997980005
 10
34.45402763590005
 20
-11.78976624910001
  0
LWPOLYLINE
  5
3769
330
22
100
AcDbEntity
  8
1
100
AcDbPolyline
 90
       31
 70
     0
 43
0.0
 10
33.8531753703
 20
-10.82453037949995
 10
33.8600419512
 20
-10.82441667559999
 10
33.8667966145
 20
-10.82408614449997
 10
33.87343928060003
 20
-10.82353694839997
 10
33.87997018800002
 20
-10.82277460059998
 10
33.88638636760004
 20
-10.82180383669998
 10
33.89269736240005
 20
-10.82062515300004
 10
33.89890463040001
 20
-10.81924303940002
 10
33.90502945770004
 20
-10.81765025010003
 10
33.91109671210001
 20
-10.81584169709998
 10
33.91709710750002
 20
-10.81381539589995
 10
33.92303127070003
 20
-10.8115683149
 10
33.9288943295
 20
-10.80909850739999
 10
33.93466887450001
 20
-10.80641266449998
 10
33.94039314330001
 20
-10.80348184109999
 10
33.94609828820001
 20
-10.80028732239998
 10
33.95178815560001
 20
-10.79680510910003
 10
33.95748256400003
 20
-10.79300959790004
 10
33.96316474940005
 20
-10.78888688569998
 10
33.96882639040001
 20
-10.78442266640002
 10
33.97446197740004
 20
-10.77959254529997
 10
33.98006524930003
 20
-10.77437814050006
 10
33.98563013920003
 20
-10.7687471076
 10
33.99115662390002
 20
-10.76266728720003
 10
33.99662031150001
 20
-10.75611974330002
 10
34.0019959448
 20
-10.74909751889999
 10
34.00728609700002
 20
-10.74153251809997
 10
34.01248871570004
 20
-10.7333844478
 10
34.01759242050002
 20
-10.72456294220001
 10
34.02258363840002
 20
-10.71495123
 10
34.02746689390003
 20
-10.70458823489997
  0
LWPOLYLINE
  5
378A
330
22
100
AcDbEntity
  8
1
100
AcDbPolyline
 90
       51
 70
     0
 43
0.0
 10
34.21926466160002
 20
-11.96270070370002
 10
34.24412870980001
 20
-11.96230959870002
 10
34.26891230070004
 20
-11.96114376449998
 10
34.29362722870002
 20
-11.9592012612
 10
34.31823811050004
 20
-11.95648790860002
 10
34.34272109250003
 20
-11.95300689819998
 10
34.36705338010003
 20
-11.94876417550006
 10
34.39121161860004
 20
-11.94376434410003
 10
34.41517363580004
 20
-11.93801462190004
 10
34.43891663610003
 20
-11.93152095670001
 10
34.46241913530002
 20
-11.9242917619
 10
34.48565898520002
 20
-11.91633424790001
 10
34.50861538230004
 20
-11.90765797110003
 10
34.53126682320004
 20
-11.89827135000001
 10
34.55359325850003
 20
-11.88818500870002
 10
34.57557390530002
 20
-11.87740849480002
 10
34.59718945950001
 20
-11.86595345559999
 10
34.61841986680003
 20
-11.85383051400004
 10
34.63924659490004
 20
-11.84105229110002
 10
34.65965033830002
 20
-11.82763043339997
 10
34.67961336160002
 20
-11.81357848760001
 10
34.69911714080001
 20
-11.79890906599996
 10
34.71814473620003
 20
-11.78363661739996
 10
34.73667840420001
 20
-11.76777469080002
 10
34.75470203270004
 20
-11.7513385972
 10
34.77219868560002
 20
-11.73434277929999
 10
34.78915309090002
 20
-11.71680339150003
 10
34.80554913340004
 20
-11.69873574360002
 10
34.82137240610004
 20
-11.68015681290001
 10
34.83660763530003
 20
-11.66108275099998
 10
34.85124130510002
 20
-11.64153134510002
 10
34.86525900220002
 20
-11.62151957650002
 10
34.87864814540001
 20
-11.6010660142
 10
34.89139522120002
 20
-11.58018843669998
 10
34.90348861180001
 20
-11.55890619680002
 10
34.91491572690004
 20
-11.53723787209998
 10
34.92566596990002
 20
-11.51520356580005
 10
34.93572772210001
 20
-11.49282262879995
 10
34.94509145910001
 20
-11.4701158949
 10
34.95374658280002
 20
-11.44710346319999
 10
34.96168469550003
 20
-11.42380688919996
 10
34.96889626430004
 20
-11.40024702760001
 10
34.97537409670002
 20
-11.37644607940001
 10
34.98110980040002
 20
-11.35242558010003
 10
34.98609744190003
 20
-11.32820837999997
 10
34.99032982140003
 20
-11.30381670449998
 10
34.99380234620003
 20
-11.27927396410001
 10
34.99650908530004
 20
-11.25460300730003
 10
34.99844685460002
 20
-11.2298277456
 10
34.99960984770002
 20
-11.20498364769997
 10
35.00000000000003
 20
-11.18005889070002
  0
LINE
  5
37BF
330
22
100
AcDbEntity
  8
1
100
AcDbLine
 10
34.21926476140004
 20
-11.96270070370002
 30
0.0
 11
34.22239474670005
 21
-11.96268153330004
 31
0.0
  0
LINE
  5
37C0
330
22
100
AcDbEntity
  8
1
100
AcDbLine
 10
26.91899278290004
 20
-10.82453037949995
 30
0.0
 11
33.8531753703
 21
-10.82453037949995
 31
0.0
  0
LINE
  5
37C2
330
22
100
AcDbEntity
  8
1
100
AcDbLine
 10
25.88843067700003
 20
-11.78976624910001
 30
0.0
 11
34.45402763590005
 21
-11.78976624910001
 31
0.0
  0
LINE
  5
37C3
330
22
100
AcDbEntity
  8
1
100
AcDbLine
 10
26.00460764430002
 20
-11.96270070370002
 30
0.0
 11
34.21926466160002
 21
-11.96270070370002
 31
0.0
  0
LWPOLYLINE
  5
37C4
330
22
100
AcDbEntity
  8
1
100
AcDbPolyline
 90
        5
 70
     0
 43
0.0
 10
23.83091141950001
 20
-11.44995631400002
 10
22.44514556030003
 20
-11.44927862629998
 10
21.05951755970003
 20
-11.44778074710001
 10
19.6740274178
 20
-11.44546267650003
 10
18.2886751346
 20
-11.44232441449998
  0
LINE
  5
37CB
330
22
100
AcDbEntity
  8
1
100
AcDbLine
 10
26.00149148820003
 20
-11.96268156330001
 30
0.0
 11
26.00460754190005
 21
-11.96270070370002
 31
0.0
  0
LWPOLYLINE
  5
37CC
330
22
100
AcDbEntity
  8
1
100
AcDbPolyline
 90
       13
 70
     0
 43
0.0
 10
17.16284210969999
 20
-10.48818809690004
 10
17.20663867770003
 20
-10.49027006599999
 10
17.24975857449999
 20
-10.49609564269997
 10
17.29235697930002
 20
-10.50570785089997
 10
17.33396835430002
 20
-10.51897761839996
 10
17.37428128370001
 20
-10.53584920269998
 10
17.41298858050001
 20
-10.5561456382
 10
17.44976225280001
 20
-10.57974404699996
 10
17.48435329860001
 20
-10.60642642410005
 10
17.5164718064
 20
-10.63601647709998
 10
17.545912512
 20
-10.66826619050005
 10
17.57233577600002
 20
-10.70283043699999
 10
17.59585481160002
 20
-10.73982425919996
  0
LWPOLYLINE
  5
37DB
330
22
100
AcDbEntity
  8
1
100
AcDbPolyline
 90
       61
 70
     0
 43
0.0
 10
25.54477250040003
 20
-11.41067411099999
 10
25.56856009670003
 20
-11.42161945099997
 10
25.57665563470002
 20
-11.42560598430003
 10
25.58449553100002
 20
-11.42974203879998
 10
25.59212196660002
 20
-11.43400806739998
 10
25.59957008970002
 20
-11.43839178209998
 10
25.60683540060001
 20
-11.44287204080001
 10
25.61392870990002
 20
-11.44743252429998
 10
25.62084488360003
 20
-11.45205161289999
 10
25.62757998300003
 20
-11.45670723929999
 10
25.6341417854
 20
-11.46138992470003
 10
25.64054363110003
 20
-11.46609241250001
 10
25.64677081610003
 20
-11.47078938370003
 10
25.65281239340004
 20
-11.4754599135
 10
25.65866721240002
 20
-11.48008975150003
 10
25.6643256131
 20
-11.48465790769995
 10
25.66980283240003
 20
-11.48916847010002
 10
25.67511484910003
 20
-11.4936215989
 10
25.68025862850004
 20
-11.49800821339994
 10
25.68523236640002
 20
-11.50231652690002
 10
25.69005206820003
 20
-11.50655662290001
 10
25.69472683640004
 20
-11.51072540820001
 10
25.69928417400002
 20
-11.51484846989996
 10
25.70375630720003
 20
-11.51894488959999
 10
25.70815126390002
 20
-11.52302411940002
 10
25.71249377430002
 20
-11.52710386309997
 10
25.71677354050001
 20
-11.53117378730002
 10
25.72098739860002
 20
-11.53522905139999
 10
25.72513859110003
 20
-11.53927178449999
 10
25.72922441670002
 20
-11.54329646420001
 10
25.73326089030002
 20
-11.54732075940001
 10
25.73726095340004
 20
-11.55135342730005
 10
25.74123648590003
 20
-11.5554107003
 10
25.7452075196
 20
-11.55951059040001
 10
25.74916803620002
 20
-11.56365016059999
 10
25.75312063180002
 20
-11.56783297160001
 10
25.7570602088
 20
-11.57205579629999
 10
25.76097716930002
 20
-11.57630902660003
 10
25.76488691270004
 20
-11.58061521109999
 10
25.76879783900003
 20
-11.58498144300006
 10
25.77272564720002
 20
-11.58943666550004
 10
25.77669297460003
 20
-11.59400559319999
 10
25.78069384190002
 20
-11.5986944947
 10
25.78473528160003
 20
-11.60351643249998
 10
25.78880279790002
 20
-11.6084668487
 10
25.79288505460002
 20
-11.6135405068
 10
25.79697771340003
 20
-11.61874878230003
 10
25.80108036330003
 20
-11.62410251529996
 10
25.80516945790004
 20
-11.62958920980003
 10
25.80922736960002
 20
-11.63520431370006
 10
25.81323115180004
 20
-11.64093452459997
 10
25.81715383720001
 20
-11.64676326989996
 10
25.82098384640003
 20
-11.65269951279998
 10
25.82470766310001
 20
-11.65874680660005
 10
25.82830071420003
 20
-11.66489882160004
 10
25.83173941590002
 20
-11.67114870489996
 10
25.83500200770004
 20
-11.67750086129996
 10
25.83806412250004
 20
-11.68394690589997
 10
25.84090481750002
 20
-11.69051348139999
 10
25.84349366810002
 20
-11.69723160800004
 10
25.8458289628
 20
-11.70405950480005
  0
LWPOLYLINE
  5
381A
330
22
100
AcDbEntity
  8
1
100
AcDbPolyline
 90
       13
 70
     0
 43
0.0
 10
17.85566243279999
 20
-11.19097789730006
 10
17.87921943020001
 20
-11.22801397040001
 10
17.90568735479999
 20
-11.2626090251
 10
17.93518343319999
 20
-11.29488034740001
 10
17.96735598570001
 20
-11.32447607940003
 10
18.00199108360002
 20
-11.35114037570002
 10
18.0387927008
 20
-11.37470248350001
 10
18.07750142170002
 20
-11.39494420620002
 10
18.11779348610002
 20
-11.41175202839997
 10
18.15935912980001
 20
-11.424956651
 10
18.20189694860002
 20
-11.43450722860001
 10
18.24495170119999
 20
-11.44028307330001
 10
18.2886751346
 20
-11.44232441449998
  0
LINE
  5
3829
330
22
100
AcDbEntity
  8
1
100
AcDbLine
 10
17.85566243279999
 20
-11.19097789730006
 30
0.0
 11
17.59585481160002
 21
-10.73982425919996
 31
0.0
  0
LINE
  5
383E
330
22
100
AcDbEntity
  8
1
100
AcDbLine
 10
6.0
 20
-10.18590977440004
 30
0.0
 11
6.0
 21
-0.7414795903000027
 31
0.0
  0
LWPOLYLINE
  5
3842
330
22
100
AcDbEntity
  8
1
100
AcDbPolyline
 90
       11
 70
     0
 43
0.0
 10
3.238920023400027
 20
9.68333534230004
 10
3.411840806800029
 20
9.880678686299972
 10
3.625716447500025
 20
10.04837721749999
 10
3.883816462300018
 20
10.18880251440004
 10
4.176332300799998
 20
10.29938389559998
 10
4.499204808600012
 20
10.38120386019994
 10
4.838455313800011
 20
10.43743638589996
 10
5.178379334200002
 20
10.47184108669995
 10
5.520095146399995
 20
10.49088819599996
 10
5.858034934100004
 20
10.49894949470001
 10
6.066111953100005
 20
10.49999500109999
  0
LINE
  5
384F
330
22
100
AcDbEntity
  8
SK1
100
AcDbLine
 10
-9.417893218800003
 20
-5.117893218799963
 30
0.0
 11
-10.29999999999998
 21
-6.0
 31
0.0
  0
LINE
  5
3850
330
22
100
AcDbEntity
  8
SK1
100
AcDbLine
 10
-5.599999999999994
 20
6.25
 30
0.0
 11
-6.0
 21
6.019059892300049
 31
0.0
  0
LINE
  5
3851
330
22
100
AcDbEntity
  8
SK1
100
AcDbLine
 10
-5.599999999999994
 20
-6.25
 30
0.0
 11
-6.0
 21
-6.019059892300049
 31
0.0
  0
LINE
  5
3852
330
22
100
AcDbEntity
  8
SK1
100
AcDbLine
 10
-9.417893218800003
 20
5.117893218799963
 30
0.0
 11
-10.29999999999998
 21
6.0
 31
0.0
  0
LINE
  5
3853
330
22
100
AcDbEntity
  8
1
100
AcDbLine
 10
0.4000000000000057
 20
10.5
 30
0.0
 11
0.4000000000000057
 21
-10.5
 31
0.0
  0
LINE
  5
3854
330
22
100
AcDbEntity
  8
1
100
AcDbLine
 10
0.0
 20
10.10000000000002
 30
0.0
 11
0.0
 21
-10.10000000000002
 31
0.0
  0
LINE
  5
3855
330
22
100
AcDbEntity
  8
2
100
AcDbLine
 10
0.0
 20
14.52061895349999
 30
0.0
 11
0.0
 21
10.10000000000002
 31
0.0
  0
LWPOLYLINE
  5
3857
330
22
100
AcDbEntity
  8
1
100
AcDbPolyline
 90
       17
 70
     0
 43
0.0
 10
2.395613195800024
 20
7.485781470400013
 10
2.42066793150002
 20
7.661931369800015
 10
2.450899310200014
 20
7.833247971999981
 10
2.48652418200001
 20
7.99970173080004
 10
2.526891996100005
 20
8.16109297739996
 10
2.571556701700018
 20
8.317253279700025
 10
2.620121648500003
 20
8.468142804800038
 10
2.672167992400005
 20
8.613692958399951
 10
2.727316264200027
 20
8.753865884599974
 10
2.785149464300019
 20
8.888583015199969
 10
2.84536134000001
 20
9.017933064299995
 10
2.907604402999993
 20
9.141949621399987
 10
2.971585361300014
 20
9.260680420699998
 10
3.036986830399996
 20
9.374153408399934
 10
3.103533599800016
 20
9.48240766050003
 10
3.170797038500012
 20
9.585500839899964
 10
3.238920023400027
 20
9.68333534230004
  0
LINE
  5
386A
330
22
100
AcDbEntity
  8
1
100
AcDbLine
 10
0.4000000000000057
 20
10.5
 30
0.0
 11
0.0
 21
10.10000000000002
 31
0.0
  0
LINE
  5
386D
330
22
100
AcDbEntity
  8
1
100
AcDbLine
 10
0.4000000000000057
 20
-10.5
 30
0.0
 11
0.0
 21
-10.10000000000002
 31
0.0
  0
LINE
  5
386E
330
22
100
AcDbEntity
  8
SK1
100
AcDbLine
 10
-2.0
 20
6.25
 30
0.0
 11
-2.0
 21
-6.25
 31
0.0
  0
LINE
  5
386F
330
22
100
AcDbEntity
  8
SK1
100
AcDbLine
 10
-5.599999999999994
 20
6.25
 30
0.0
 11
-5.599999999999994
 21
-6.25
 31
0.0
  0
LINE
  5
3870
330
22
100
AcDbEntity
  8
SK1
100
AcDbLine
 10
-6.0
 20
6.019059892300049
 30
0.0
 11
-6.0
 21
-6.019059892300049
 31
0.0
  0
LINE
  5
3871
330
22
100
AcDbEntity
  8
SK1
100
AcDbLine
 10
-9.549999999999982
 20
5.25
 30
0.0
 11
-9.549999999999982
 21
-5.25
 31
0.0
  0
LINE
  5
3872
330
22
100
AcDbEntity
  8
SK1
100
AcDbLine
 10
-10.29999999999998
 20
6.0
 30
0.0
 11
-10.29999999999998
 21
-6.0
 31
0.0
  0
LINE
  5
3874
330
22
100
AcDbEntity
  8
SK1
100
AcDbLine
 10
-20.75
 20
6.0
 30
0.0
 11
-22.0
 21
4.75
 31
0.0
  0
LINE
  5
3875
330
22
100
AcDbEntity
  8
SK1
100
AcDbLine
 10
-20.75
 20
-6.0
 30
0.0
 11
-22.0
 21
-4.75
 31
0.0
  0
LINE
  5
3876
330
22
100
AcDbEntity
  8
SK1
100
AcDbLine
 10
-20.75
 20
6.0
 30
0.0
 11
-20.75
 21
-6.0
 31
0.0
  0
LINE
  5
3877
330
22
100
AcDbEntity
  8
SK1
100
AcDbLine
 10
-21.5
 20
5.25
 30
0.0
 11
-21.5
 21
-5.25
 31
0.0
  0
LINE
  5
3878
330
22
100
AcDbEntity
  8
SK1
100
AcDbLine
 10
-22.0
 20
4.75
 30
0.0
 11
-22.0
 21
-4.75
 31
0.0
  0
ARC
  5
3891
330
22
100
AcDbEntity
  8
SK3
100
AcDbCircle
 10
-20.1591481289
 20
3.970740977899993
 30
0.0
 40
2.0
100
AcDbArc
 50
203.0115695664
 51
260.1874152374
  0
ARC
  5
3892
330
22
100
AcDbEntity
  8
SK3
100
AcDbCircle
 10
-20.1591481289
 20
-3.970740977899993
 30
0.0
 40
2.0
100
AcDbArc
 50
99.81258476260004
 51
156.9884304336
  0
ARC
  5
38A9
330
22
100
AcDbEntity
  8
SK1
100
AcDbCircle
 10
-0.2999999999999829
 20
6.449999999999988
 30
0.0
 40
0.4
100
AcDbArc
 50
270.0
 51
318.5903778907
  0
ARC
  5
38AA
330
22
100
AcDbEntity
  8
SK1
100
AcDbCircle
 10
-7.0
 20
5.824999999999988
 30
0.0
 40
1.0
100
AcDbArc
 50
270.0
 51
0.0
  0
ARC
  5
38AB
330
22
100
AcDbEntity
  8
SK1
100
AcDbCircle
 10
-8.710786437599978
 20
5.824999999999988
 30
0.0
 40
1.0
100
AcDbArc
 50
225.0
 51
270.0
  0
ARC
  5
38AC
330
22
100
AcDbEntity
  8
SK1
100
AcDbCircle
 10
-0.2999999999999829
 20
-6.449999999999988
 30
0.0
 40
0.4
100
AcDbArc
 50
41.40962210930005
 51
90.0
  0
ARC
  5
38AD
330
22
100
AcDbEntity
  8
SK1
100
AcDbCircle
 10
-7.0
 20
-5.824999999999988
 30
0.0
 40
1.0
100
AcDbArc
 50
0.0
 51
90.0
  0
ARC
  5
38AE
330
22
100
AcDbEntity
  8
SK1
100
AcDbCircle
 10
-8.710786437599978
 20
-5.824999999999988
 30
0.0
 40
1.0
100
AcDbArc
 50
90.0
 51
134.9999999999999
  0
TEXT
  5
3ACD
330
22
100
AcDbEntity
  8
6
100
AcDbText
 10
62.54390249825149
 20
-3.864328820664866
 30
0.0
 40
3.5
  1
Z=2
 50
90.0
 41
1.199999999999999
100
AcDbText
  0
INSERT
  5
3ACE
330
22
100
AcDbEntity
  8
1
100
AcDbBlockReference
  2
nullp
 10
-271.9386450411702
 20
-389.8959796344513
 30
0.0
  0
INSERT
  5
3ACF
330
22
100
AcDbEntity
  8
0
100
AcDbBlockReference
  2
nullp1
 10
-408.0645295494705
 20
-444.5849634019313
 30
0.0
  0
LINE
  5
3BDE
330
22
100
AcDbEntity
  8
4
100
AcDbLine
 10
0.0
 20
0.0
 30
0.0
 11
35.75457521366974
 21
0.0
 31
0.0
  0
LINE
  5
3C27
330
22
100
AcDbEntity
  8
SK3
100
AcDbLine
 10
0.0
 20
2.0
 30
0.0
 11
-20.5
 21
2.0
 31
0.0
  0
LINE
  5
3C28
330
22
100
AcDbEntity
  8
SK3
100
AcDbLine
 10
0.0
 20
-2.0
 30
0.0
 11
-20.5
 21
-2.0
 31
0.0
  0
LWPOLYLINE
  5
3C45
330
22
100
AcDbEntity
  8
NOCUT
100
AcDbPolyline
 90
        9
 70
   129
 43
0.0
 10
17.5958548115922
 20
10.75000000000005
 42
-0.2679491924311228
 10
17.16284210969999
 20
10.5
 10
0.4000000000000057
 20
10.5
 10
0.0
 20
10.09999999999996
 10
0.0
 20
0.0
 10
33.79552757179999
 20
0.0
 10
33.79552757180003
 20
11.44999999999999
 10
18.2886751346
 20
11.44999999999999
 42
0.2679491924311228
 10
17.8556624327
 20
11.19999999999999
  0
DIMENSION
  5
3C61
330
22
100
AcDbEntity
  8
2
100
AcDbDimension
  2
*D80
 10
44.65899035065189
 20
3.249999999999997
 30
0.0
 11
42.59649035065189
 21
0.0000000000000051
 31
0.0
 70
    32
  1
%%c<>
 71
     5
 42
6.5
  3
ISO-25
100
AcDbAlignedDimension
 13
35.75457521366974
 23
-3.25
 33
0.0
 14
35.75457521366974
 24
3.25
 34
0.0
 50
90.0
100
AcDbRotatedDimension
  0
DIMENSION
  5
3C80
330
22
100
AcDbEntity
  8
2
100
AcDbDimension
  2
*D81
 10
11.00000000000003
 20
17.68139849748837
 30
0.0
 11
23.00000000000003
 21
19.5566445604805
 31
0.0
 70
    32
 71
     5
 42
24.0
  3
ISO-25
100
AcDbAlignedDimension
 13
35.00000000000003
 23
12.0
 33
0.0
 14
11.00000000000003
 24
12.0
 34
0.0
100
AcDbRotatedDimension
  0
ENDSEC
  0
SECTION
  2
OBJECTS
  0
DICTIONARY
  5
C
330
0
100
AcDbDictionary
281
     1
  3
ACAD_COLOR
350
1B
  3
ACAD_GROUP
350
D
  3
ACAD_LAYOUT
350
19
  3
ACAD_MATERIAL
350
1A
  3
ACAD_MLINESTYLE
350
16
  3
ACAD_PLOTSETTINGS
350
18
  3
ACAD_PLOTSTYLENAME
350
E
  3
ACAD_TABLESTYLE
350
1C
  3
ACDBHEADERROUNDTRIPXREC
350
3CD3
  3
AcDbVariableDictionary
350
3BE2
  0
DICTIONARY
  5
3BDF
330
22
100
AcDbDictionary
280
     1
281
     1
  3
ACAD_SORTENTS
360
3BE0
  0
DICTIONARY
  5
1B
102
{ACAD_REACTORS
330
C
102
}
330
C
100
AcDbDictionary
281
     1
  0
DICTIONARY
  5
D
102
{ACAD_REACTORS
330
C
102
}
330
C
100
AcDbDictionary
281
     1
  0
DICTIONARY
  5
19
102
{ACAD_REACTORS
330
C
102
}
330
C
100
AcDbDictionary
281
     1
  3
Layout1
350
21
  3
Model
350
25
  0
DICTIONARY
  5
1A
102
{ACAD_REACTORS
330
C
102
}
330
C
100
AcDbDictionary
281
     1
  0
DICTIONARY
  5
16
102
{ACAD_REACTORS
330
C
102
}
330
C
100
AcDbDictionary
281
     1
  3
Standard
350
17
  0
DICTIONARY
  5
18
102
{ACAD_REACTORS
330
C
102
}
330
C
100
AcDbDictionary
281
     1
  0
ACDBDICTIONARYWDFLT
  5
E
102
{ACAD_REACTORS
330
C
102
}
330
C
100
AcDbDictionary
281
     1
  3
Normal
350
F
100
AcDbDictionaryWithDefault
340
F
  0
DICTIONARY
  5
1C
102
{ACAD_REACTORS
330
C
102
}
330
C
100
AcDbDictionary
281
     1
  3
Standard
350
1D
  0
DICTIONARY
  5
3CD3
102
{ACAD_REACTORS
330
C
102
}
330
C
100
AcDbDictionary
281
     1
  0
DICTIONARY
  5
3BE2
102
{ACAD_REACTORS
330
C
102
}
330
C
100
AcDbDictionary
281
     1
  3
CTABLESTYLE
350
3BE3
  3
DIMASSOC
350
3CC4
  3
PROJECTNAME
350
3CC5
  0
SORTENTSTABLE
  5
3BE0
102
{ACAD_REACTORS
330
3BDF
102
}
330
3BDF
100
AcDbSortentsTable
330
22
331
3393
  5
354D
331
3379
  5
354C
331
2C70
  5
2F3D
331
2FBC
  5
3276
331
38AD
  5
3C49
331
800
  5
800
331
3529
  5
363B
331
3278
  5
3341
331
383E
  5
388E
331
354B
  5
3672
331
237B
  5
238E
331
3769
  5
386D
331
2F37
  5
2FDC
331
293F
  5
2A37
331
3335
  5
34CF
331
311A
  5
32DF
331
2DB7
  5
2FC1
331
299D
  5
2AC9
331
778
  5
778
331
2FBA
  5
3264
331
38AB
  5
3A01
331
2968
  5
2ABD
331
3276
  5
3336
331
381A
  5
3878
331
356B
  5
36E6
331
3878
  5
39F3
331
293D
  5
2A35
331
2E82
  5
2FC2
331
3287
  5
334C
331
2C6E
  5
2F3B
331
2379
  5
238B
331
3829
  5
388D
331
38A9
  5
39FF
331
3683
  5
3851
331
3342
  5
352A
331
2FB8
  5
3170
331
3672
  5
383E
331
3096
  5
32DD
331
3876
  5
39EE
331
3854
  5
3895
331
293B
  5
2A2D
331
2C6C
  5
2F39
331
30A7
  5
32DE
331
2D17
  5
2FBE
331
3681
  5
384F
331
32E1
  5
344D
331
2942
  5
2A3A
331
2C59
  5
2D36
331
34D1
  5
362F
331
3852
  5
3893
331
3581
  5
3730
331
2939
  5
2A17
331
3874
  5
39EC
331
2953
  5
2A59
331
36D6
  5
3853
331
2ABD
  5
2C69
331
3ACF
  5
3C60
331
2D37
  5
2FC0
331
2ADF
  5
2C6F
331
2CB7
  5
2FB9
331
29DF
  5
2AD8
331
2C6A
  5
2F37
331
3ACD
  5
3C4B
331
3872
  5
38AE
331
3850
  5
3891
331
34CF
  5
35EB
331
2940
  5
2A38
331
3170
  5
32F3
331
2C68
  5
2E82
331
32DF
  5
3449
331
3BDE
  5
344A
331
2C11
  5
2CF4
331
35EC
  5
37CB
331
333C
  5
34D1
331
344D
  5
35C1
331
2ACA
  5
2C6B
331
3870
  5
38AA
331
3892
  5
39FD
331
35C1
  5
378A
331
343C
  5
3552
331
2B6C
  5
2CE6
331
3552
  5
36D7
331
2C66
  5
2D37
331
316E
  5
32E1
331
2F3E
  5
316F
331
2CE6
  5
2FBA
331
2A8E
  5
2C68
331
32DD
  5
3401
331
2A39
  5
2C32
331
35EA
  5
37C3
331
35D0
  5
37BF
331
37CC
  5
3876
331
344B
  5
3581
331
2A37
  5
2BDC
331
2B48
  5
2C70
331
3C27
  5
2387
331
2A59
  5
2C67
331
2391
  5
29DE
331
386E
  5
389A
331
2B6A
  5
2C82
331
37C3
  5
3872
331
3550
  5
36CC
331
2A48
  5
2C66
331
301F
  5
32DC
331
2FC1
  5
32BE
331
32DB
  5
3395
331
2F3C
  5
311A
331
295E
  5
2A8E
331
2B59
  5
2C71
331
35E8
  5
37C0
331
3449
  5
356B
331
2A35
  5
2B6C
331
2FBF
  5
3279
331
2CF3
  5
2FBC
331
37DB
  5
3877
331
336B
  5
354B
331
3730
  5
386A
331
354E
  5
3682
331
2AD7
  5
2C6D
331
2F3A
  5
3096
331
32D9
  5
3393
331
3394
  5
354E
331
2C71
  5
2F3E
331
3C45
  5
39FE
331
386A
  5
3898
331
38AE
  5
3C4A
331
36CC
  5
3852
331
37BF
  5
386F
331
2FBD
  5
3277
331
3279
  5
3342
331
363B
  5
37DB
331
352A
  5
363C
331
354C
  5
3680
331
3494
  5
35E9
331
2C82
  5
2FB8
331
3336
  5
34D0
331
2F38
  5
2FE6
331
31E8
  5
3328
331
779
  5
779
331
2FBB
  5
3275
331
38AC
  5
3A02
331
292D
  5
29E0
331
3277
  5
333C
331
356C
  5
36F7
331
354A
  5
3671
331
3857
  5
3897
331
378A
  5
386E
331
3334
  5
34C3
331
2FE6
  5
32DB
331
293E
  5
2A36
331
2A17
  5
2B48
331
2C6F
  5
2F3C
331
237A
  5
238D
331
34C3
  5
35EA
331
2FB9
  5
31E8
331
38AA
  5
3A00
331
2BDC
  5
2CF3
331
36E6
  5
3855
331
3275
  5
3335
331
2378
  5
2389
331
3877
  5
39F2
331
3855
  5
3896
331
293C
  5
2A34
331
36F7
  5
3857
331
2C6D
  5
2F3A
331
3264
  5
3334
331
3842
  5
388F
331
3682
  5
3850
331
32E2
  5
344E
331
2FD1
  5
32D9
331
2943
  5
2A48
331
29BE
  5
2ACA
331
3341
  5
3529
331
29E0
  5
2ADF
331
2A24
  5
2B59
331
3671
  5
3829
331
2376
  5
2386
331
3853
  5
3894
331
3875
  5
39ED
331
32F3
  5
345F
331
293A
  5
2A24
331
1362
  5
236C
331
36D7
  5
3854
331
2C6B
  5
2F38
331
29CF
  5
2ACB
331
3680
  5
3842
331
2941
  5
2A39
331
29DE
  5
2AD7
331
3851
  5
3892
331
34D0
  5
35EC
331
35A2
  5
3769
331
2ED2
  5
2FD1
331
3ACE
  5
3C50
331
2C69
  5
2ED2
331
32BE
  5
336B
331
2D36
  5
2FBF
331
344E
  5
35D0
331
2ACB
  5
2C6C
331
384F
  5
3890
331
3871
  5
38AD
331
3401
  5
3551
331
2BA3
  5
2CF2
331
345F
  5
35E8
331
2C67
  5
2DB7
331
32DE
  5
343C
331
316F
  5
32E2
331
2A3A
  5
2C59
331
2AC9
  5
2C6A
331
35EB
  5
37C4
331
362F
  5
37CC
331
344C
  5
35A2
331
2C32
  5
2D17
331
2A38
  5
2C11
331
3C28
  5
238C
331
2FC2
  5
32CB
331
3891
  5
39FA
331
386F
  5
38A9
331
37C4
  5
3874
331
334C
  5
354A
331
2FDC
  5
32DA
331
2B6B
  5
2CB7
331
32CB
  5
3379
331
3551
  5
36D6
331
33CC
  5
3550
331
32DC
  5
33CC
331
2F3D
  5
316E
331
798
  5
798
331
35E9
  5
37C2
331
37CB
  5
3875
331
344A
  5
356C
331
2A36
  5
2BA3
331
2FC0
  5
3287
331
386D
  5
3899
331
3328
  5
3494
331
37C2
  5
3871
331
2AD8
  5
2C6E
331
2CF4
  5
2FBD
331
354F
  5
3683
331
32DA
  5
3394
331
2F3B
  5
30A7
331
2A2D
  5
2B6A
331
3395
  5
354F
331
2A34
  5
2B6B
331
37C0
  5
3870
331
363C
  5
381A
331
2CF2
  5
2FBB
331
354D
  5
3681
331
2FBE
  5
3278
331
2F39
  5
301F
331
7B6
  5
7B6
  0
LAYOUT
  5
21
102
{ACAD_XDICTIONARY
360
3CD4
102
}
102
{ACAD_REACTORS
330
19
102
}
330
19
100
AcDbPlotSettings
  1

  2
\\ingdom02\ITB3
  4

  6

 40
0.0
 41
0.0
 42
0.0
 43
0.0
 44
0.0
 45
0.0
 46
0.0
 47
0.0
 48
0.0
 49
0.0
140
0.0
141
0.0
142
1.0
143
1.0
 70
   688
 72
     0
 73
     0
 74
     5
  7

 75
    16
147
1.0
148
0.0
149
0.0
100
AcDbLayout
  1
Layout1
 70
     0
 71
     1
 10
0.0
 20
0.0
 11
12.0
 21
9.0
 12
0.0
 22
0.0
 32
0.0
 14
0.0
 24
0.0
 34
0.0
 15
0.0
 25
0.0
 35
0.0
146
0.0
 13
0.0
 23
0.0
 33
0.0
 16
1.0
 26
0.0
 36
0.0
 17
0.0
 27
1.0
 37
0.0
 76
     0
330
1E
  0
LAYOUT
  5
25
102
{ACAD_XDICTIONARY
360
3CD6
102
}
102
{ACAD_REACTORS
330
19
102
}
330
19
100
AcDbPlotSettings
  1

  2
\\ingdom02\ITB3
  4

  6

 40
0.0
 41
0.0
 42
0.0
 43
0.0
 44
0.0
 45
0.0
 46
0.0
 47
0.0
 48
0.0
 49
0.0
140
0.0
141
0.0
142
1.0
143
1.0
 70
  1712
 72
     0
 73
     0
 74
     0
  7

 75
     0
147
1.0
148
0.0
149
0.0
100
AcDbLayout
  1
Model
 70
     1
 71
     0
 10
0.0
 20
0.0
 11
12.0
 21
9.0
 12
0.0
 22
0.0
 32
0.0
 14
0.0
 24
0.0
 34
0.0
 15
0.0
 25
0.0
 35
0.0
146
0.0
 13
0.0
 23
0.0
 33
0.0
 16
1.0
 26
0.0
 36
0.0
 17
0.0
 27
1.0
 37
0.0
 76
     0
330
22
  0
MLINESTYLE
  5
17
102
{ACAD_REACTORS
330
16
102
}
330
16
100
AcDbMlineStyle
  2
STANDARD
 70
     0
  3

 62
   256
 51
90.0
 52
90.0
 71
     2
 49
0.5
 62
   256
  6
BYLAYER
 49
-0.5
 62
   256
  6
BYLAYER
  0
ACDBPLACEHOLDER
  5
F
102
{ACAD_REACTORS
330
E
102
}
330
E
  0
TABLESTYLE
  5
1D
102
{ACAD_REACTORS
330
1C
102
}
330
1C
100
AcDbTableStyle
  3
Standard
 70
     0
 71
     0
 40
0.06
 41
0.06
280
     0
281
     0
  7
STANDARD
140
0.18
170
     2
 62
     0
 63
     7
283
     0
274
    -2
284
     1
 64
     0
275
    -2
285
     1
 65
     0
276
    -2
286
     1
 66
     0
277
    -2
287
     1
 67
     0
278
    -2
288
     1
 68
     0
279
    -2
289
     1
 69
     0
  7
STANDARD
140
0.25
170
     5
 62
     0
 63
     7
283
     0
274
    -2
284
     1
 64
     0
275
    -2
285
     1
 65
     0
276
    -2
286
     1
 66
     0
277
    -2
287
     1
 67
     0
278
    -2
288
     1
 68
     0
279
    -2
289
     1
 69
     0
  7
STANDARD
140
0.18
170
     5
 62
     0
 63
     7
283
     0
274
    -2
284
     1
 64
     0
275
    -2
285
     1
 65
     0
276
    -2
286
     1
 66
     0
277
    -2
287
     1
 67
     0
278
    -2
288
     1
 68
     0
279
    -2
289
     1
 69
     0
  0
DICTIONARYVAR
  5
3BE3
102
{ACAD_REACTORS
330
3BE2
102
}
330
3BE2
100
DictionaryVariables
280
     0
  1
STANDARD
  0
DICTIONARYVAR
  5
3CC4
102
{ACAD_REACTORS
330
3BE2
102
}
330
3BE2
100
DictionaryVariables
280
     0
  1
1
  0
DICTIONARYVAR
  5
3CC5
102
{ACAD_REACTORS
330
3BE2
102
}
330
3BE2
100
DictionaryVariables
280
     0
  1

  0
DICTIONARY
  5
3CD4
330
21
100
AcDbDictionary
280
     1
281
     1
  3
ACAD_XREC_ROUNDTRIP
360
3CD5
  0
DICTIONARY
  5
3CD6
330
25
100
AcDbDictionary
280
     1
281
     1
  3
ACAD_XREC_ROUNDTRIP
360
3CD7
  0
XRECORD
  5
3CD5
102
{ACAD_REACTORS
330
3CD4
102
}
330
3CD4
100
AcDbXrecord
280
     1
102
SHADEPLOT
 70
     0
102
SHADEPLOTRESLEVEL
 70
     2
102
SHADEPLOTCUSTOMDPI
 70
   300
  0
XRECORD
  5
3CD7
102
{ACAD_REACTORS
330
3CD6
102
}
330
3CD6
100
AcDbXrecord
280
     1
102
SHADEPLOT
 70
     0
102
SHADEPLOTRESLEVEL
 70
     2
102
SHADEPLOTCUSTOMDPI
 70
   300
  0
ENDSEC
  0
EOF
