  0
SECTION
  2
HEADER
  9
$ACADVER
  1
AC1015
  9
$ACADMAINTVER
 70
    20
  9
$DWGCODEPAGE
  3
ANSI_1252
  9
$INSBASE
 10
0.0
 20
0.0
 30
0.0
  9
$EXTMIN
 10
-29.47451139775308
 20
-20.71560229675163
 30
-0.0015258207003583
  9
$EXTMAX
 10
83.13323199059277
 20
24.29677757861862
 30
0.0000000349246037
  9
$LIMMIN
 10
0.0
 20
0.0
  9
$LIMMAX
 10
594.0
 20
420.0
  9
$ORTHOMODE
 70
     0
  9
$REGENMODE
 70
     1
  9
$FILLMODE
 70
     1
  9
$QTEXTMODE
 70
     0
  9
$MIRRTEXT
 70
     0
  9
$LTSCALE
 40
10.0
  9
$ATTMODE
 70
     1
  9
$TEXTSIZE
 40
0.2
  9
$TRACEWID
 40
0.05
  9
$TEXTSTYLE
  7
STANDARD
  9
$CLAYER
  8
0
  9
$CELTYPE
  6
ByLayer
  9
$CECOLOR
 62
   256
  9
$CELTSCALE
 40
1.0
  9
$DISPSILH
 70
     0
  9
$DIMSCALE
 40
1.0
  9
$DIMASZ
 40
2.5
  9
$DIMEXO
 40
0.625
  9
$DIMDLI
 40
3.75
  9
$DIMRND
 40
0.0
  9
$DIMDLE
 40
0.0
  9
$DIMEXE
 40
1.25
  9
$DIMTP
 40
0.0
  9
$DIMTM
 40
0.0
  9
$DIMTXT
 40
2.5
  9
$DIMCEN
 40
2.5
  9
$DIMTSZ
 40
0.0
  9
$DIMTOL
 70
     0
  9
$DIMLIM
 70
     0
  9
$DIMTIH
 70
     0
  9
$DIMTOH
 70
     0
  9
$DIMSE1
 70
     0
  9
$DIMSE2
 70
     0
  9
$DIMTAD
 70
     1
  9
$DIMZIN
 70
     8
  9
$DIMBLK
  1

  9
$DIMASO
 70
     1
  9
$DIMSHO
 70
     1
  9
$DIMPOST
  1

  9
$DIMAPOST
  1

  9
$DIMALT
 70
     0
  9
$DIMALTD
 70
     3
  9
$DIMALTF
 40
0.03937007874016
  9
$DIMLFAC
 40
1.0
  9
$DIMTOFL
 70
     1
  9
$DIMTVP
 40
0.0
  9
$DIMTIX
 70
     0
  9
$DIMSOXD
 70
     0
  9
$DIMSAH
 70
     0
  9
$DIMBLK1
  1

  9
$DIMBLK2
  1

  9
$DIMSTYLE
  2
ISO-25
  9
$DIMCLRD
 70
     0
  9
$DIMCLRE
 70
     0
  9
$DIMCLRT
 70
     0
  9
$DIMTFAC
 40
1.0
  9
$DIMGAP
 40
0.625
  9
$DIMJUST
 70
     0
  9
$DIMSD1
 70
     0
  9
$DIMSD2
 70
     0
  9
$DIMTOLJ
 70
     0
  9
$DIMTZIN
 70
     8
  9
$DIMALTZ
 70
     0
  9
$DIMALTTZ
 70
     0
  9
$DIMUPT
 70
     0
  9
$DIMDEC
 70
     2
  9
$DIMTDEC
 70
     2
  9
$DIMALTU
 70
     2
  9
$DIMALTTD
 70
     3
  9
$DIMTXSTY
  7
STANDARD
  9
$DIMAUNIT
 70
     0
  9
$DIMADEC
 70
     0
  9
$DIMALTRND
 40
0.0
  9
$DIMAZIN
 70
     0
  9
$DIMDSEP
 70
    44
  9
$DIMATFIT
 70
     3
  9
$DIMFRAC
 70
     0
  9
$DIMLDRBLK
  1

  9
$DIMLUNIT
 70
     2
  9
$DIMLWD
 70
    -2
  9
$DIMLWE
 70
    -2
  9
$DIMTMOVE
 70
     0
  9
$LUNITS
 70
     2
  9
$LUPREC
 70
     4
  9
$SKETCHINC
 40
0.1
  9
$FILLETRAD
 40
0.0
  9
$AUNITS
 70
     0
  9
$AUPREC
 70
     0
  9
$MENU
  1

  9
$ELEVATION
 40
0.0
  9
$PELEVATION
 40
0.0
  9
$THICKNESS
 40
0.0
  9
$LIMCHECK
 70
     0
  9
$CHAMFERA
 40
0.0
  9
$CHAMFERB
 40
0.0
  9
$CHAMFERC
 40
0.0
  9
$CHAMFERD
 40
0.0
  9
$SKPOLY
 70
     0
  9
$TDCREATE
 40
2454209.435858739
  9
$TDUCREATE
 40
2454209.352525405
  9
$TDUPDATE
 40
2454209.673677407
  9
$TDUUPDATE
 40
2454209.590344074
  9
$TDINDWG
 40
0.0420679514
  9
$TDUSRTIMER
 40
0.0407170139
  9
$USRTIMER
 70
     1
  9
$ANGBASE
 50
0.0
  9
$ANGDIR
 70
     0
  9
$PDMODE
 70
     0
  9
$PDSIZE
 40
3.0
  9
$PLINEWID
 40
0.0
  9
$SPLFRAME
 70
     0
  9
$SPLINETYPE
 70
     6
  9
$SPLINESEGS
 70
     8
  9
$HANDSEED
  5
1AF7
  9
$SURFTAB1
 70
     6
  9
$SURFTAB2
 70
     6
  9
$SURFTYPE
 70
     6
  9
$SURFU
 70
     6
  9
$SURFV
 70
     6
  9
$UCSBASE
  2

  9
$UCSNAME
  2

  9
$UCSORG
 10
0.0
 20
0.0
 30
0.0
  9
$UCSXDIR
 10
1.0
 20
0.0
 30
0.0
  9
$UCSYDIR
 10
0.0
 20
1.0
 30
0.0
  9
$UCSORTHOREF
  2

  9
$UCSORTHOVIEW
 70
     0
  9
$UCSORGTOP
 10
0.0
 20
0.0
 30
0.0
  9
$UCSORGBOTTOM
 10
0.0
 20
0.0
 30
0.0
  9
$UCSORGLEFT
 10
0.0
 20
0.0
 30
0.0
  9
$UCSORGRIGHT
 10
0.0
 20
0.0
 30
0.0
  9
$UCSORGFRONT
 10
0.0
 20
0.0
 30
0.0
  9
$UCSORGBACK
 10
0.0
 20
0.0
 30
0.0
  9
$PUCSBASE
  2

  9
$PUCSNAME
  2

  9
$PUCSORG
 10
0.0
 20
0.0
 30
0.0
  9
$PUCSXDIR
 10
1.0
 20
0.0
 30
0.0
  9
$PUCSYDIR
 10
0.0
 20
1.0
 30
0.0
  9
$PUCSORTHOREF
  2

  9
$PUCSORTHOVIEW
 70
     0
  9
$PUCSORGTOP
 10
0.0
 20
0.0
 30
0.0
  9
$PUCSORGBOTTOM
 10
0.0
 20
0.0
 30
0.0
  9
$PUCSORGLEFT
 10
0.0
 20
0.0
 30
0.0
  9
$PUCSORGRIGHT
 10
0.0
 20
0.0
 30
0.0
  9
$PUCSORGFRONT
 10
0.0
 20
0.0
 30
0.0
  9
$PUCSORGBACK
 10
0.0
 20
0.0
 30
0.0
  9
$USERI1
 70
     0
  9
$USERI2
 70
     0
  9
$USERI3
 70
     0
  9
$USERI4
 70
     0
  9
$USERI5
 70
     0
  9
$USERR1
 40
0.0
  9
$USERR2
 40
0.0
  9
$USERR3
 40
0.0
  9
$USERR4
 40
0.0
  9
$USERR5
 40
0.0
  9
$WORLDVIEW
 70
     1
  9
$SHADEDGE
 70
     3
  9
$SHADEDIF
 70
    70
  9
$TILEMODE
 70
     1
  9
$MAXACTVP
 70
    64
  9
$PINSBASE
 10
0.0
 20
0.0
 30
0.0
  9
$PLIMCHECK
 70
     0
  9
$PEXTMIN
 10
100.0
 20
100.0
 30
100.0
  9
$PEXTMAX
 10
-100.0
 20
-100.0
 30
-100.0
  9
$PLIMMIN
 10
0.0
 20
0.0
  9
$PLIMMAX
 10
12.0
 20
9.0
  9
$UNITMODE
 70
     0
  9
$VISRETAIN
 70
     1
  9
$PLINEGEN
 70
     1
  9
$PSLTSCALE
 70
     1
  9
$TREEDEPTH
 70
  3020
  9
$CMLSTYLE
  2
Standard
  9
$CMLJUST
 70
     0
  9
$CMLSCALE
 40
1.0
  9
$PROXYGRAPHICS
 70
     1
  9
$MEASUREMENT
 70
     0
  9
$CELWEIGHT
370
    -1
  9
$ENDCAPS
280
     0
  9
$JOINSTYLE
280
     0
  9
$LWDISPLAY
290
     0
  9
$INSUNITS
 70
     0
  9
$HYPERLINKBASE
  1

  9
$STYLESHEET
  1

  9
$XEDIT
290
     1
  9
$CEPSNTYPE
380
     0
  9
$PSTYLEMODE
290
     1
  9
$FINGERPRINTGUID
  2
{8ED7293A-7023-460F-B994-ADE5544FC450}
  9
$VERSIONGUID
  2
{5ABD8BB7-65B6-4FE6-A400-7F90344F4B47}
  9
$EXTNAMES
290
     1
  9
$PSVPSCALE
 40
0.0
  9
$OLESTARTUP
290
     0
  0
ENDSEC
  0
SECTION
  2
CLASSES
  0
CLASS
  1
ACDBDICTIONARYWDFLT
  2
AcDbDictionaryWithDefault
  3
ObjectDBX Classes
 90
        0
280
     0
281
     0
  0
CLASS
  1
TABLESTYLE
  2
AcDbTableStyle
  3
ObjectDBX Classes
 90
     2047
280
     0
281
     0
  0
CLASS
  1
SORTENTSTABLE
  2
AcDbSortentsTable
  3
ObjectDBX Classes
 90
        0
280
     0
281
     0
  0
CLASS
  1
DICTIONARYVAR
  2
AcDbDictionaryVar
  3
ObjectDBX Classes
 90
        0
280
     0
281
     0
  0
CLASS
  1
ACDBPLACEHOLDER
  2
AcDbPlaceHolder
  3
ObjectDBX Classes
 90
        0
280
     0
281
     0
  0
CLASS
  1
LAYOUT
  2
AcDbLayout
  3
ObjectDBX Classes
 90
        0
280
     0
281
     0
  0
ENDSEC
  0
SECTION
  2
TABLES
  0
TABLE
  2
VPORT
  5
8
330
0
100
AcDbSymbolTable
 70
    10
  0
VPORT
  5
1AF1
330
8
100
AcDbSymbolTableRecord
100
AcDbViewportTableRecord
  2
*Active
 70
     0
 10
0.0
 20
0.0
 11
1.0
 21
1.0
 12
26.82936029641985
 22
1.790587640933495
 13
0.0
 23
0.0
 14
1.0
 24
1.0
 15
0.0
 25
0.0
 16
0.0
 26
0.0
 36
1.0
 17
0.0
 27
0.0
 37
0.0
 40
74.72572641782028
 41
1.514429109159347
 42
50.0
 43
0.0
 44
0.0
 50
0.0
 51
0.0
 71
     0
 72
   100
 73
     1
 74
     1
 75
     0
 76
     0
 77
     0
 78
     0
281
     0
 65
     1
110
0.0
120
0.0
130
0.0
111
1.0
121
0.0
131
0.0
112
0.0
122
1.0
132
0.0
 79
     0
146
0.0
  0
ENDTAB
  0
TABLE
  2
LTYPE
  5
5
330
0
100
AcDbSymbolTable
 70
     6
  0
LTYPE
  5
13
330
5
100
AcDbSymbolTableRecord
100
AcDbLinetypeTableRecord
  2
ByBlock
 70
     0
  3

 72
    65
 73
     0
 40
0.0
  0
LTYPE
  5
14
330
5
100
AcDbSymbolTableRecord
100
AcDbLinetypeTableRecord
  2
ByLayer
 70
     0
  3

 72
    65
 73
     0
 40
0.0
  0
LTYPE
  5
15
330
5
100
AcDbSymbolTableRecord
100
AcDbLinetypeTableRecord
  2
CONTINUOUS
 70
     0
  3
Solid line
 72
    65
 73
     0
 40
0.0
  0
LTYPE
  5
27
330
5
100
AcDbSymbolTableRecord
100
AcDbLinetypeTableRecord
  2
CENTER
 70
     0
  3
____ _ ____ _ ____ _ ____ _ ____ _ ____ _ ____
 72
    65
 73
     4
 40
0.6
 49
0.375
 74
     0
 49
-0.075
 74
     0
 49
0.075
 74
     0
 49
-0.075
 74
     0
  0
LTYPE
  5
28
330
5
100
AcDbSymbolTableRecord
100
AcDbLinetypeTableRecord
  2
HIDDEN
 70
     0
  3
- - - - - - - - - - - - - - - - - - - -
 72
    65
 73
     2
 40
0.2
 49
0.1
 74
     0
 49
-0.1
 74
     0
  0
ENDTAB
  0
TABLE
  2
LAYER
  5
2
330
0
100
AcDbSymbolTable
 70
    16
  0
LAYER
  5
10
330
2
100
AcDbSymbolTableRecord
100
AcDbLayerTableRecord
  2
0
 70
     0
 62
     7
  6
CONTINUOUS
370
    -3
390
F
  0
LAYER
  5
2C
330
2
100
AcDbSymbolTableRecord
100
AcDbLayerTableRecord
  2
SK1
 70
     0
 62
     4
  6
CONTINUOUS
370
    -3
390
F
  0
LAYER
  5
2D
330
2
100
AcDbSymbolTableRecord
100
AcDbLayerTableRecord
  2
1
 70
     0
 62
     4
  6
CONTINUOUS
370
    -3
390
F
  0
LAYER
  5
2E
330
2
100
AcDbSymbolTableRecord
100
AcDbLayerTableRecord
  2
2
 70
     0
 62
     7
  6
CONTINUOUS
370
    -3
390
F
  0
LAYER
  5
2F
330
2
100
AcDbSymbolTableRecord
100
AcDbLayerTableRecord
  2
SK2
 70
     0
 62
     7
  6
CONTINUOUS
370
    -3
390
F
  0
LAYER
  5
30
330
2
100
AcDbSymbolTableRecord
100
AcDbLayerTableRecord
  2
3
 70
     0
 62
     1
  6
HIDDEN
370
    -3
390
F
  0
LAYER
  5
31
330
2
100
AcDbSymbolTableRecord
100
AcDbLayerTableRecord
  2
SK3
 70
     0
 62
     1
  6
HIDDEN
370
    -3
390
F
  0
LAYER
  5
32
330
2
100
AcDbSymbolTableRecord
100
AcDbLayerTableRecord
  2
4
 70
     0
 62
     2
  6
CENTER
370
    -3
390
F
  0
LAYER
  5
33
330
2
100
AcDbSymbolTableRecord
100
AcDbLayerTableRecord
  2
SK4
 70
     0
 62
     2
  6
CENTER
370
    -3
390
F
  0
LAYER
  5
36
330
2
100
AcDbSymbolTableRecord
100
AcDbLayerTableRecord
  2
6
 70
     0
 62
     5
  6
CONTINUOUS
370
    -3
390
F
  0
LAYER
  5
1392
330
2
100
AcDbSymbolTableRecord
100
AcDbLayerTableRecord
  2
Defpoints
 70
     0
 62
     7
  6
CONTINUOUS
290
     0
370
    -3
390
F
  0
LAYER
  5
1393
330
2
100
AcDbSymbolTableRecord
100
AcDbLayerTableRecord
  2
CUT
 70
     0
 62
     1
  6
CONTINUOUS
370
    -3
390
F
  0
LAYER
  5
1394
330
2
100
AcDbSymbolTableRecord
100
AcDbLayerTableRecord
  2
NOCUT
 70
     0
 62
     7
  6
CONTINUOUS
370
    -3
390
F
  0
ENDTAB
  0
TABLE
  2
STYLE
  5
3
330
0
100
AcDbSymbolTable
 70
     3
  0
STYLE
  5
11
330
3
100
AcDbSymbolTableRecord
100
AcDbTextStyleTableRecord
  2
STANDARD
 70
     0
 40
0.0
 41
0.8
 50
0.0
 71
     0
 42
0.2
  3
ISOCP
  4

  0
ENDTAB
  0
TABLE
  2
VIEW
  5
6
330
0
100
AcDbSymbolTable
 70
     0
  0
ENDTAB
  0
TABLE
  2
UCS
  5
7
330
0
100
AcDbSymbolTable
 70
     0
  0
ENDTAB
  0
TABLE
  2
APPID
  5
9
330
0
100
AcDbSymbolTable
 70
     1
  0
APPID
  5
12
330
9
100
AcDbSymbolTableRecord
100
AcDbRegAppTableRecord
  2
ACAD
 70
     0
  0
ENDTAB
  0
TABLE
  2
DIMSTYLE
  5
A
330
0
100
AcDbSymbolTable
 70
     2
100
AcDbDimStyleTable
 71
     1
340
1395
  0
DIMSTYLE
105
3A
330
A
100
AcDbSymbolTableRecord
100
AcDbDimStyleTableRecord
  2
STANDARD
 70
     0
279
     2
340
11
  0
DIMSTYLE
105
1395
102
{ACAD_REACTORS
330
1397
330
1398
330
1399
330
5B7
330
5B8
330
5BC
330
1A5E
330
1A86
102
}
330
A
100
AcDbSymbolTableRecord
100
AcDbDimStyleTableRecord
  2
ISO-25
 70
     0
 41
2.5
 42
0.625
 43
3.75
 44
1.25
 73
     0
 74
     0
 77
     1
 78
     8
140
2.5
141
2.5
143
0.03937007874016
147
0.625
171
     3
172
     1
271
     2
272
     2
274
     3
278
    44
283
     0
284
     8
340
11
  0
ENDTAB
  0
TABLE
  2
BLOCK_RECORD
  5
1
330
0
100
AcDbSymbolTable
 70
    45
  0
BLOCK_RECORD
  5
22
102
{ACAD_XDICTIONARY
360
19C5
102
}
330
1
100
AcDbSymbolTableRecord
100
AcDbBlockTableRecord
  2
*Model_Space
340
25
  0
BLOCK_RECORD
  5
1E
330
1
100
AcDbSymbolTableRecord
100
AcDbBlockTableRecord
  2
*Paper_Space
340
21
  0
BLOCK_RECORD
  5
135F
330
1
100
AcDbSymbolTableRecord
100
AcDbBlockTableRecord
  2
nullp
340
0
310
2800000020000000200000000100080000000000000400000000000000000000000000000000000000000000000080000080000000808000800000008000800080800000C0C0C000C0DCC000F0CAA6000020400000206000002080000020A0000020C0000020E00000400000004020000040400000406000004080000040A0
310
000040C0000040E00000600000006020000060400000606000006080000060A0000060C0000060E00000800000008020000080400000806000008080000080A0000080C0000080E00000A0000000A0200000A0400000A0600000A0800000A0A00000A0C00000A0E00000C0000000C0200000C0400000C0600000C0800000C0
310
A00000C0C00000C0E00000E0000000E0200000E0400000E0600000E0800000E0A00000E0C00000E0E00040000000400020004000400040006000400080004000A0004000C0004000E00040200000402020004020400040206000402080004020A0004020C0004020E000404000004040200040404000404060004040800040
310
40A0004040C0004040E00040600000406020004060400040606000406080004060A0004060C0004060E00040800000408020004080400040806000408080004080A0004080C0004080E00040A0000040A0200040A0400040A0600040A0800040A0A00040A0C00040A0E00040C0000040C0200040C0400040C0600040C08000
310
40C0A00040C0C00040C0E00040E0000040E0200040E0400040E0600040E0800040E0A00040E0C00040E0E00080000000800020008000400080006000800080008000A0008000C0008000E00080200000802020008020400080206000802080008020A0008020C0008020E00080400000804020008040400080406000804080
310
008040A0008040C0008040E00080600000806020008060400080606000806080008060A0008060C0008060E00080800000808020008080400080806000808080008080A0008080C0008080E00080A0000080A0200080A0400080A0600080A0800080A0A00080A0C00080A0E00080C0000080C0200080C0400080C0600080C0
310
800080C0A00080C0C00080C0E00080E0000080E0200080E0400080E0600080E0800080E0A00080E0C00080E0E000C0000000C0002000C0004000C0006000C0008000C000A000C000C000C000E000C0200000C0202000C0204000C0206000C0208000C020A000C020C000C020E000C0400000C0402000C0404000C0406000C0
310
408000C040A000C040C000C040E000C0600000C0602000C0604000C0606000C0608000C060A000C060C000C060E000C0800000C0802000C0804000C0806000C0808000C080A000C080C000C080E000C0A00000C0A02000C0A04000C0A06000C0A08000C0A0A000C0A0C000C0A0E000C0C00000C0C02000C0C04000C0C06000
310
C0C08000C0C0A000F0FBFF00A4A0A000808080000000FF0000FF000000FFFF00FF000000FF00FF00FFFF0000FFFFFF0000000000000000000000000000000000000000000000000000000000000000000000000000000000000000000000FEFEFE00000000000000000000000000000000000000000000000000FEFEFEFEFE
310
FEFEFEFE000000000000000000000000000000000000000000FEFEFEFEFEFEFEFEFE0000FEFE000000000000000000000000000000000000FEFEFEFEFEFEFEFEFEFE00000000FEFE00000000000000000000000000000000FEFEFEFEFEFEFEFEFEFE000000000000FEFE00000000000000000000000000FEFEFEFEFEFEFEFE
310
FEFEFE0000000000000000FEFE00000000000000000000FEFEFEFEFEFEFEFEFEFEFEFE000000000000000000FE000000000000000000FEFEFEFEFEFEFEFEFEFEFEFEFE00000000000000000000FE00000000000000FEFEFEFEFEFEFEFEFEFEFEFEFEFE00000000000000000000FE000000000000FEFEFEFEFEFEFEFEFEFEFE
310
FEFEFEFE0000000000000000000000FE0000000000FEFEFEFEFEFEFEFEFEFEFEFEFEFEFE0000000000000000000000FE0000000000FEFEFEFEFEFEFEFEFEFEFEFEFEFEFE0000000000000000000000FE00000000FEFEFEFEFEFEFEFEFEFEFEFEFEFEFEFE000000000000000000000000FE000000FEFEFEFEFEFEFEFEFEFEFE
310
FEFEFEFEFE000000000000000000000000FE000000FEFEFEFEFEFEFEFEFEFEFEFEFEFEFEFE00000000000000000000000000FE0000FEFEFEFEFEFEFEFEFEFEFEFEFEFEFEFEFEFEFEFEFEFEFEFEFEFEFEFEFEFE000000FE000000000000000000000000FEFEFEFEFEFEFEFEFEFEFEFEFEFEFEFE000000FE0000000000000000
310
00000000FEFEFEFEFEFEFEFEFEFEFEFEFEFEFEFE000000FE000000000000000000000000FEFEFEFEFEFEFEFEFEFEFEFEFEFEFE00000000FE000000000000000000000000FEFEFEFEFEFEFEFEFEFEFEFEFEFEFE0000000000FE0000000000000000000000FEFEFEFEFEFEFEFEFEFEFEFEFEFEFE000000000000FE0000000000
310
0000000000FEFEFEFEFEFEFEFEFEFEFEFEFEFE00000000000000FE00000000000000000000FEFEFEFEFEFEFEFEFEFEFEFEFE000000000000000000FE000000000000000000FEFEFEFEFEFEFEFEFEFEFEFE0000000000000000000000FE0000000000000000FEFEFEFEFEFEFEFEFEFEFEFE000000000000000000000000FE00
310
000000000000FEFEFEFEFEFEFEFEFEFEFE00000000000000000000000000FE00000000000000FEFEFEFEFEFEFEFEFE00000000000000000000000000000000FEFEFEFEFE0000FEFEFEFEFEFEFEFE00000000000000000000000000000000000000000000FEFEFEFEFEFEFEFEFE000000000000000000000000000000000000
310
00000000000000FEFEFEFE000000000000000000000000000000000000000000000000000000000000000000000000000000000000000000
102
{BLKREFS
331
1668
331
1941
102
}
  0
BLOCK_RECORD
  5
1368
330
1
100
AcDbSymbolTableRecord
100
AcDbBlockTableRecord
  2
nullp1
340
0
310
2800000020000000200000000100080000000000000400000000000000000000000000000000000000000000000080000080000000808000800000008000800080800000C0C0C000C0DCC000F0CAA6000020400000206000002080000020A0000020C0000020E00000400000004020000040400000406000004080000040A0
310
000040C0000040E00000600000006020000060400000606000006080000060A0000060C0000060E00000800000008020000080400000806000008080000080A0000080C0000080E00000A0000000A0200000A0400000A0600000A0800000A0A00000A0C00000A0E00000C0000000C0200000C0400000C0600000C0800000C0
310
A00000C0C00000C0E00000E0000000E0200000E0400000E0600000E0800000E0A00000E0C00000E0E00040000000400020004000400040006000400080004000A0004000C0004000E00040200000402020004020400040206000402080004020A0004020C0004020E000404000004040200040404000404060004040800040
310
40A0004040C0004040E00040600000406020004060400040606000406080004060A0004060C0004060E00040800000408020004080400040806000408080004080A0004080C0004080E00040A0000040A0200040A0400040A0600040A0800040A0A00040A0C00040A0E00040C0000040C0200040C0400040C0600040C08000
310
40C0A00040C0C00040C0E00040E0000040E0200040E0400040E0600040E0800040E0A00040E0C00040E0E00080000000800020008000400080006000800080008000A0008000C0008000E00080200000802020008020400080206000802080008020A0008020C0008020E00080400000804020008040400080406000804080
310
008040A0008040C0008040E00080600000806020008060400080606000806080008060A0008060C0008060E00080800000808020008080400080806000808080008080A0008080C0008080E00080A0000080A0200080A0400080A0600080A0800080A0A00080A0C00080A0E00080C0000080C0200080C0400080C0600080C0
310
800080C0A00080C0C00080C0E00080E0000080E0200080E0400080E0600080E0800080E0A00080E0C00080E0E000C0000000C0002000C0004000C0006000C0008000C000A000C000C000C000E000C0200000C0202000C0204000C0206000C0208000C020A000C020C000C020E000C0400000C0402000C0404000C0406000C0
310
408000C040A000C040C000C040E000C0600000C0602000C0604000C0606000C0608000C060A000C060C000C060E000C0800000C0802000C0804000C0806000C0808000C080A000C080C000C080E000C0A00000C0A02000C0A04000C0A06000C0A08000C0A0A000C0A0C000C0A0E000C0C00000C0C02000C0C04000C0C06000
310
C0C08000C0C0A000F0FBFF00A4A0A000808080000000FF0000FF000000FFFF00FF000000FF00FF00FFFF0000FFFFFF00000000000000000000000000000000000000000000000000000000000000000000000000000000000000000000000000FE0000000000000000000000000000000000000000000000000000000000FE
310
FEFEFEFE000000000000000000000000000000000000000000FEFEFEFEFEFE0000FE0000FEFE000000000000000000000000000000000000FE0000000000000000FE00000000FEFE00000000000000000000000000000000FE0000000000000000FE000000000000FEFE00000000000000000000000000FE00000000000000
310
0000FE0000000000000000FEFE00000000000000000000FE00000000000000000000FE000000000000000000FE000000000000000000FE0000000000000000000000FE00000000000000000000FE0000000000000000FE0000000000000000000000FE00000000000000000000FE00000000000000FE000000000000000000
310
000000FE0000000000000000000000FE0000000000FE00000000000000000000000000FE0000000000000000000000FE0000000000FE00000000000000000000000000FE0000000000000000000000FE0000000000FE00000000000000000000000000FE000000000000000000000000FE00000000FE000000000000000000
310
00000000FE000000000000000000000000FE00000000FE00000000000000000000000000FE00000000000000000000000000FE0000FEFEFEFEFEFEFEFEFEFEFEFEFEFEFEFEFEFEFEFEFEFEFEFEFEFEFEFEFEFE000000FE00000000000000000000000000FE00000000000000000000000000FE000000FE0000000000000000
310
0000000000FE000000000000000000000000FE00000000FE00000000000000000000000000FE000000000000000000000000FE00000000FE00000000000000000000000000FE0000000000000000000000FE000000000000FE000000000000000000000000FE0000000000000000000000FE00000000000000FE0000000000
310
000000000000FE00000000000000000000FE0000000000000000FE0000000000000000000000FE00000000000000000000FE000000000000000000FE00000000000000000000FE000000000000000000FE0000000000000000000000FE000000000000000000FE000000000000000000FE000000000000000000000000FE00
310
00000000000000FE00000000000000FEFE00000000000000000000000000FE0000000000000000FE0000000000FEFE00000000000000000000000000000000FEFEFEFEFE000000FE000000FEFE0000000000000000000000000000000000000000000000FEFEFEFEFEFEFE0000000000000000000000000000000000000000
310
0000000000000000FE0000000000000000000000000000000000000000000000000000000000000000000000000000000000000000000000
102
{BLKREFS
331
1669
331
1942
102
}
  0
BLOCK_RECORD
  5
1983
330
1
100
AcDbSymbolTableRecord
100
AcDbBlockTableRecord
  2
*D37
340
0
  0
BLOCK_RECORD
  5
198F
330
1
100
AcDbSymbolTableRecord
100
AcDbBlockTableRecord
  2
*D38
340
0
  0
BLOCK_RECORD
  5
199B
330
1
100
AcDbSymbolTableRecord
100
AcDbBlockTableRecord
  2
*D39
340
0
  0
BLOCK_RECORD
  5
1A5F
330
1
100
AcDbSymbolTableRecord
100
AcDbBlockTableRecord
  2
*D43
340
0
  0
BLOCK_RECORD
  5
1A87
330
1
100
AcDbSymbolTableRecord
100
AcDbBlockTableRecord
  2
*D44
340
0
  0
ENDTAB
  0
ENDSEC
  0
SECTION
  2
BLOCKS
  0
BLOCK
  5
23
330
22
100
AcDbEntity
  8
0
100
AcDbBlockBegin
  2
*Model_Space
 70
     0
 10
0.0
 20
0.0
 30
0.0
  3
*Model_Space
  1

  0
ENDBLK
  5
24
330
22
100
AcDbEntity
  8
0
100
AcDbBlockEnd
  0
BLOCK
  5
1F
330
1E
100
AcDbEntity
 67
     1
  8
0
100
AcDbBlockBegin
  2
*Paper_Space
 70
     0
 10
0.0
 20
0.0
 30
0.0
  3
*Paper_Space
  1

  0
ENDBLK
  5
20
330
1E
100
AcDbEntity
 67
     1
  8
0
100
AcDbBlockEnd
  0
BLOCK
  5
1360
330
135F
100
AcDbEntity
  8
0
100
AcDbBlockBegin
  2
nullp
 70
     0
 10
0.0
 20
0.0
 30
0.0
  3
nullp
  1

  0
HATCH
  5
1361
330
135F
100
AcDbEntity
  8
1
100
AcDbHatch
 10
0.0
 20
0.0
 30
0.0
210
0.0
220
0.0
230
1.0
  2
SOLID
 70
     1
 71
     0
 91
        2
 92
        7
 72
     1
 73
     1
 93
        3
 10
271.9386450411704
 20
389.8959796344513
 42
0.0
 10
274.8896170952829
 20
389.8959796344513
 42
0.4142135623730966
 10
271.9386450411704
 20
392.8469516885638
 42
0.0
 97
        0
 92
        7
 72
     1
 73
     1
 93
        3
 10
271.9386450411704
 20
386.9450075803387
 42
0.0
 10
271.9386450411704
 20
389.8959796344513
 42
0.0
 10
268.9876729870576
 20
389.8959796344513
 42
0.4142135623730966
 97
        0
 75
     0
 76
     1
 47
0.1190009775223266
 98
        2
 10
272.6831980999823
 20
390.8172041078278
 10
270.6591804393174
 20
388.1991827114049
  0
LWPOLYLINE
  5
1362
330
135F
100
AcDbEntity
  8
1
100
AcDbPolyline
 90
        3
 70
     1
 43
0.0
 10
271.9386450411702
 20
389.8959796344513
 10
268.9876729870576
 20
389.8959796344513
 42
0.4142135623730966
 10
271.9386450411702
 20
386.9450075803387
  0
LINE
  5
1363
330
135F
100
AcDbEntity
  8
1
100
AcDbLine
 10
271.9386450411702
 20
392.8469516885638
 30
0.0
 11
271.9386450411702
 21
386.9450075803387
 31
0.0
  0
LWPOLYLINE
  5
1364
330
135F
100
AcDbEntity
  8
1
100
AcDbPolyline
 90
        3
 70
     1
 43
0.0
 10
271.9386450411702
 20
392.8469516885638
 10
271.9386450411702
 20
389.8959796344513
 10
274.8896170952829
 20
389.8959796344513
 42
0.4142135623730966
  0
LINE
  5
1365
330
135F
100
AcDbEntity
  8
1
100
AcDbLine
 10
268.9876729870575
 20
389.8959796344513
 30
0.0
 11
274.8896170952828
 21
389.8959796344513
 31
0.0
  0
CIRCLE
  5
1366
330
135F
100
AcDbEntity
  8
1
100
AcDbCircle
 10
271.9386450411704
 20
389.8959796344513
 30
0.0
 40
2.950972054112601
  0
ENDBLK
  5
1367
330
135F
100
AcDbEntity
  8
0
100
AcDbBlockEnd
  0
BLOCK
  5
1369
330
1368
100
AcDbEntity
  8
0
100
AcDbBlockBegin
  2
nullp1
 70
     0
 10
0.0
 20
0.0
 30
0.0
  3
nullp1
  1

  0
LINE
  5
136A
330
1368
100
AcDbEntity
  8
1
100
AcDbLine
 10
442.6007601796219
 20
432.5849634019313
 30
0.0
 11
443.5282989193195
 21
432.5849634019313
 31
0.0
  0
CIRCLE
  5
136B
330
1368
100
AcDbEntity
  8
1
100
AcDbCircle
 10
443.0645295494706
 20
432.5849634019313
 30
0.0
 40
0.463769369848821
  0
LINE
  5
136C
330
1368
100
AcDbEntity
  8
1
100
AcDbLine
 10
443.0645295494706
 20
433.0487327717801
 30
0.0
 11
443.0645295494706
 21
432.1211940320826
 31
0.0
  0
ENDBLK
  5
136D
330
1368
100
AcDbEntity
  8
0
100
AcDbBlockEnd
  0
BLOCK
  5
198D
330
1983
100
AcDbEntity
  8
0
100
AcDbBlockBegin
  2
*D37
 70
     1
 10
0.0
 20
0.0
 30
0.0
  3
*D37
  1

  0
LINE
  5
1AA5
330
1983
100
AcDbEntity
  8
SK2
 62
     0
370
    -2
100
AcDbLine
 10
-19.92500000000002
 20
-5.000000000000056
 30
0.0
 11
-27.70503806890001
 21
-5.000000000000054
 31
0.0
  0
LINE
  5
1AA6
330
1983
100
AcDbEntity
  8
SK2
 62
     0
370
    -2
100
AcDbLine
 10
-19.92500000000002
 20
4.999999999999943
 30
0.0
 11
-27.70503806890001
 21
4.999999999999945
 31
0.0
  0
LINE
  5
1AA7
330
1983
100
AcDbEntity
  8
SK2
 62
     0
370
    -2
100
AcDbLine
 10
-26.45503806890001
 20
-2.500000000000055
 30
0.0
 11
-26.45503806890001
 21
2.499999999999944
 31
0.0
  0
SOLID
  5
1AA8
330
1983
100
AcDbEntity
  8
SK2
 62
     0
100
AcDbTrace
 10
-26.87170473556668
 20
-2.500000000000055
 30
0.0
 11
-26.03837140223334
 21
-2.500000000000055
 31
0.0
 12
-26.45503806890001
 22
-5.000000000000055
 32
0.0
 13
-26.45503806890001
 23
-5.000000000000055
 33
0.0
  0
SOLID
  5
1AA9
330
1983
100
AcDbEntity
  8
SK2
 62
     0
100
AcDbTrace
 10
-26.87170473556668
 20
2.499999999999944
 30
0.0
 11
-26.03837140223334
 21
2.499999999999944
 31
0.0
 12
-26.45503806890001
 22
4.999999999999944
 32
0.0
 13
-26.45503806890001
 23
4.999999999999944
 33
0.0
  0
MTEXT
  5
1AAA
330
1983
100
AcDbEntity
  8
SK2
 62
     0
100
AcDbMText
 10
-28.33003806890001
 20
-0.053419485200038
 30
0.0
 40
2.5
 41
0.0
 71
     5
 72
     1
  1
M10
 11
0.0000000000000001
 21
1.0
 31
0.0
 73
     1
 44
1.0
1001
ACAD
1000
MTEXTBEGIN
1070
    73
1070
     1
1070
    44
1040
1.0
1070
    74
1070
     0
1000
MTEXTEND
  0
POINT
  5
1AAB
330
1983
100
AcDbEntity
  8
Defpoints
 62
     0
100
AcDbPoint
 10
-19.30000000000002
 20
-5.000000000000056
 30
0.0
  0
POINT
  5
1AAC
330
1983
100
AcDbEntity
  8
Defpoints
 62
     0
100
AcDbPoint
 10
-19.30000000000002
 20
4.999999999999943
 30
0.0
  0
POINT
  5
1AAD
330
1983
100
AcDbEntity
  8
Defpoints
 62
     0
100
AcDbPoint
 10
-26.45503806890001
 20
4.999999999999944
 30
0.0
  0
ENDBLK
  5
198E
330
1983
100
AcDbEntity
  8
0
100
AcDbBlockEnd
  0
BLOCK
  5
1999
330
198F
100
AcDbEntity
  8
0
100
AcDbBlockBegin
  2
*D38
 70
     1
 10
0.0
 20
0.0
 30
0.0
  3
*D38
  1

  0
LINE
  5
1AAE
330
198F
100
AcDbEntity
  8
2
 62
     0
370
    -2
100
AcDbLine
 10
0.0
 20
10.87104245541019
 30
0.0
 11
0.0000000000000008
 21
22.51952097583075
 31
0.0
  0
LINE
  5
1AAF
330
198F
100
AcDbEntity
  8
2
 62
     0
370
    -2
100
AcDbLine
 10
34.99999999999999
 20
0.1249999999999432
 30
0.0
 11
34.99999999999999
 21
22.51952097583075
 31
0.0
  0
LINE
  5
1AB0
330
198F
100
AcDbEntity
  8
2
 62
     0
370
    -2
100
AcDbLine
 10
2.5
 20
21.26952097583075
 30
0.0
 11
32.49999999999999
 21
21.26952097583075
 31
0.0
  0
SOLID
  5
1AB1
330
198F
100
AcDbEntity
  8
2
 62
     0
100
AcDbTrace
 10
2.5
 20
21.68618764249741
 30
0.0
 11
2.5
 21
20.85285430916408
 31
0.0
 12
0.0000000000000007
 22
21.26952097583075
 32
0.0
 13
0.0000000000000007
 23
21.26952097583075
 33
0.0
  0
SOLID
  5
1AB2
330
198F
100
AcDbEntity
  8
2
 62
     0
100
AcDbTrace
 10
32.49999999999999
 20
21.68618764249741
 30
0.0
 11
32.49999999999999
 21
20.85285430916408
 31
0.0
 12
34.99999999999999
 22
21.26952097583075
 32
0.0
 13
34.99999999999999
 23
21.26952097583075
 33
0.0
  0
MTEXT
  5
1AB3
330
198F
100
AcDbEntity
  8
2
 62
     0
100
AcDbMText
 10
17.43075705440002
 20
23.14452097583075
 30
0.0
 40
2.5
 41
0.0
 71
     5
 72
     1
  1
35
 73
     1
 44
1.0
1001
ACAD
1000
MTEXTBEGIN
1070
    73
1070
     1
1070
    44
1040
1.0
1070
    74
1070
     0
1000
MTEXTEND
  0
POINT
  5
1AB4
330
198F
100
AcDbEntity
  8
Defpoints
 62
     0
100
AcDbPoint
 10
0.0
 20
10.24604245541019
 30
0.0
  0
POINT
  5
1AB5
330
198F
100
AcDbEntity
  8
Defpoints
 62
     0
100
AcDbPoint
 10
34.99999999999999
 20
-0.5000000000000569
 30
0.0
  0
POINT
  5
1AB6
330
198F
100
AcDbEntity
  8
Defpoints
 62
     0
100
AcDbPoint
 10
34.99999999999999
 20
21.26952097583075
 30
0.0
  0
ENDBLK
  5
199A
330
198F
100
AcDbEntity
  8
0
100
AcDbBlockEnd
  0
BLOCK
  5
19A6
330
199B
100
AcDbEntity
  8
0
100
AcDbBlockBegin
  2
*D39
 70
     1
 10
0.0
 20
0.0
 30
0.0
  3
*D39
  1

  0
LINE
  5
1AB7
330
199B
100
AcDbEntity
  8
2
 62
     0
370
    -2
100
AcDbLine
 10
36.12499999999999
 20
-10.00000000000006
 30
0.0
 11
48.11716285267452
 21
-10.00000000000006
 31
0.0
  0
LINE
  5
1AB8
330
199B
100
AcDbEntity
  8
2
 62
     0
370
    -2
100
AcDbLine
 10
31.35296558208783
 20
9.999999999999943
 30
0.0
 11
48.11716285267452
 21
9.999999999999937
 31
0.0
  0
LINE
  5
1AB9
330
199B
100
AcDbEntity
  8
2
 62
     0
370
    -2
100
AcDbLine
 10
46.86716285267452
 20
-7.50000000000006
 30
0.0
 11
46.86716285267452
 21
7.499999999999937
 31
0.0
  0
SOLID
  5
1ABA
330
199B
100
AcDbEntity
  8
2
 62
     0
100
AcDbTrace
 10
46.45049618600785
 20
-7.50000000000006
 30
0.0
 11
47.28382951934118
 21
-7.50000000000006
 31
0.0
 12
46.86716285267452
 22
-10.00000000000006
 32
0.0
 13
46.86716285267452
 23
-10.00000000000006
 33
0.0
  0
SOLID
  5
1ABB
330
199B
100
AcDbEntity
  8
2
 62
     0
100
AcDbTrace
 10
46.45049618600785
 20
7.499999999999937
 30
0.0
 11
47.28382951934118
 21
7.499999999999937
 31
0.0
 12
46.86716285267452
 22
9.999999999999937
 32
0.0
 13
46.86716285267452
 23
9.999999999999937
 33
0.0
  0
MTEXT
  5
1ABC
330
199B
100
AcDbEntity
  8
2
 62
     0
100
AcDbMText
 10
44.9919167896824
 20
0.0724359104020211
 30
0.0
 40
2.5
 41
0.0
 71
     5
 72
     1
  1
%%c20
 11
0.0000000000000001
 21
1.0
 31
0.0
 73
     1
 44
1.0
1001
ACAD
1000
MTEXTBEGIN
1070
    73
1070
     1
1070
    44
1040
1.0
1070
    74
1070
     0
1000
MTEXTEND
  0
POINT
  5
1ABD
330
199B
100
AcDbEntity
  8
Defpoints
 62
     0
100
AcDbPoint
 10
35.49999999999999
 20
-10.00000000000005
 30
0.0
  0
POINT
  5
1ABE
330
199B
100
AcDbEntity
  8
Defpoints
 62
     0
100
AcDbPoint
 10
30.72796558208783
 20
9.999999999999943
 30
0.0
  0
POINT
  5
1ABF
330
199B
100
AcDbEntity
  8
Defpoints
 62
     0
100
AcDbPoint
 10
46.86716285267452
 20
9.999999999999937
 30
0.0
  0
ENDBLK
  5
19A7
330
199B
100
AcDbEntity
  8
0
100
AcDbBlockEnd
  0
BLOCK
  5
1A69
330
1A5F
100
AcDbEntity
  8
0
100
AcDbBlockBegin
  2
*D43
 70
     1
 10
0.0
 20
0.0
 30
0.0
  3
*D43
  1

  0
LINE
  5
1AC0
330
1A5F
100
AcDbEntity
  8
0
 62
     0
370
    -2
100
AcDbLine
 10
36.87089271120276
 20
-4.750000000000056
 30
0.0
 11
43.10833150002967
 21
-4.750000000000058
 31
0.0
  0
LINE
  5
1AC1
330
1A5F
100
AcDbEntity
  8
0
 62
     0
370
    -2
100
AcDbLine
 10
36.87089271120276
 20
4.749999999999943
 30
0.0
 11
43.10833150002967
 21
4.749999999999941
 31
0.0
  0
LINE
  5
1AC2
330
1A5F
100
AcDbEntity
  8
0
 62
     0
370
    -2
100
AcDbLine
 10
41.85833150002967
 20
-2.250000000000058
 30
0.0
 11
41.85833150002967
 21
2.249999999999941
 31
0.0
  0
SOLID
  5
1AC3
330
1A5F
100
AcDbEntity
  8
0
 62
     0
100
AcDbTrace
 10
41.44166483336301
 20
-2.250000000000058
 30
0.0
 11
42.27499816669634
 21
-2.250000000000058
 31
0.0
 12
41.85833150002967
 22
-4.750000000000057
 32
0.0
 13
41.85833150002967
 23
-4.750000000000057
 33
0.0
  0
SOLID
  5
1AC4
330
1A5F
100
AcDbEntity
  8
0
 62
     0
100
AcDbTrace
 10
41.44166483336301
 20
2.249999999999941
 30
0.0
 11
42.27499816669634
 21
2.249999999999941
 31
0.0
 12
41.85833150002967
 22
4.749999999999942
 32
0.0
 13
41.85833150002967
 23
4.749999999999942
 33
0.0
  0
MTEXT
  5
1AC5
330
1A5F
100
AcDbEntity
  8
0
 62
     0
100
AcDbMText
 10
39.79643569880429
 20
0.0000000000000003
 30
0.0
 40
2.5
 41
0.0
 71
     5
 72
     1
  1
%%c9,5
 11
0.0000000000000001
 21
1.0
 31
0.0
 73
     1
 44
1.0
1001
ACAD
1000
MTEXTBEGIN
1070
    73
1070
     1
1070
    44
1040
1.0
1070
    74
1070
     0
1000
MTEXTEND
  0
POINT
  5
1AC6
330
1A5F
100
AcDbEntity
  8
Defpoints
 62
     0
100
AcDbPoint
 10
36.24589271120276
 20
-4.750000000000056
 30
0.0
  0
POINT
  5
1AC7
330
1A5F
100
AcDbEntity
  8
Defpoints
 62
     0
100
AcDbPoint
 10
36.24589271120276
 20
4.749999999999943
 30
0.0
  0
POINT
  5
1AC8
330
1A5F
100
AcDbEntity
  8
Defpoints
 62
     0
100
AcDbPoint
 10
41.85833150002967
 20
4.749999999999942
 30
0.0
  0
ENDBLK
  5
1A6A
330
1A5F
100
AcDbEntity
  8
0
100
AcDbBlockEnd
  0
BLOCK
  5
1A91
330
1A87
100
AcDbEntity
  8
0
100
AcDbBlockBegin
  2
*D44
 70
     1
 10
0.0
 20
0.0
 30
0.0
  3
*D44
  1

  0
LINE
  5
1AE2
330
1A87
100
AcDbEntity
  8
2
 62
     0
370
    -2
100
AcDbLine
 10
34.99999999999999
 20
10.62499999999994
 30
0.0
 11
34.99999999999999
 21
17.68870931166879
 31
0.0
  0
LINE
  5
1AE3
330
1A87
100
AcDbEntity
  8
2
 62
     0
370
    -2
100
AcDbLine
 10
14.99999999999998
 20
10.62499999999994
 30
0.0
 11
14.99999999999998
 21
17.68870931166879
 31
0.0
  0
LINE
  5
1AE4
330
1A87
100
AcDbEntity
  8
2
 62
     0
370
    -2
100
AcDbLine
 10
32.49999999999999
 20
16.43870931166879
 30
0.0
 11
17.49999999999998
 21
16.43870931166879
 31
0.0
  0
SOLID
  5
1AE5
330
1A87
100
AcDbEntity
  8
2
 62
     0
100
AcDbTrace
 10
32.49999999999999
 20
16.85537597833545
 30
0.0
 11
32.49999999999999
 21
16.02204264500212
 31
0.0
 12
34.99999999999999
 22
16.43870931166879
 32
0.0
 13
34.99999999999999
 23
16.43870931166879
 33
0.0
  0
SOLID
  5
1AE6
330
1A87
100
AcDbEntity
  8
2
 62
     0
100
AcDbTrace
 10
17.49999999999998
 20
16.85537597833545
 30
0.0
 11
17.49999999999998
 21
16.02204264500212
 31
0.0
 12
14.99999999999998
 22
16.43870931166879
 32
0.0
 13
14.99999999999998
 23
16.43870931166879
 33
0.0
  0
MTEXT
  5
1AE7
330
1A87
100
AcDbEntity
  8
2
 62
     0
100
AcDbMText
 10
24.99999999999999
 20
18.31395537466091
 30
0.0
 40
2.5
 41
0.0
 71
     5
 72
     1
  1
20
 73
     1
 44
1.0
1001
ACAD
1000
MTEXTBEGIN
1070
    73
1070
     1
1070
    44
1040
1.0
1070
    74
1070
     0
1000
MTEXTEND
  0
POINT
  5
1AE8
330
1A87
100
AcDbEntity
  8
Defpoints
 62
     0
100
AcDbPoint
 10
34.99999999999999
 20
9.999999999999943
 30
0.0
  0
POINT
  5
1AE9
330
1A87
100
AcDbEntity
  8
Defpoints
 62
     0
100
AcDbPoint
 10
14.99999999999998
 20
9.999999999999943
 30
0.0
  0
POINT
  5
1AEA
330
1A87
100
AcDbEntity
  8
Defpoints
 62
     0
100
AcDbPoint
 10
14.99999999999998
 20
16.43870931166879
 30
0.0
  0
ENDBLK
  5
1A92
330
1A87
100
AcDbEntity
  8
0
100
AcDbBlockEnd
  0
ENDSEC
  0
SECTION
  2
ENTITIES
  0
DIMENSION
  5
5B7
330
22
100
AcDbEntity
  8
SK2
100
AcDbDimension
  2
*D37
 10
-26.45503806890001
 20
4.999999999999944
 30
0.0
 11
-26.45503806890001
 21
-0.0534194852000383
 31
0.0
 70
   160
  1
M<>
 71
     5
 42
10.0
  3
ISO-25
100
AcDbAlignedDimension
 13
-19.30000000000002
 23
-5.000000000000056
 33
0.0
 14
-19.30000000000002
 24
4.999999999999943
 34
0.0
 50
90.0
100
AcDbRotatedDimension
  0
DIMENSION
  5
5B8
330
22
100
AcDbEntity
  8
2
100
AcDbDimension
  2
*D38
 10
34.99999999999999
 20
21.26952097583075
 30
0.0
 11
17.43075705440002
 21
21.26952097583075
 31
0.0
 70
   160
  1
<>
 71
     5
 42
34.99999999999999
  3
ISO-25
100
AcDbAlignedDimension
 13
0.0
 23
10.24604245541019
 33
0.0
 14
34.99999999999999
 24
-0.5000000000000569
 34
0.0
100
AcDbRotatedDimension
  0
DIMENSION
  5
5BC
330
22
100
AcDbEntity
  8
2
100
AcDbDimension
  2
*D39
 10
46.86716285267452
 20
9.999999999999937
 30
0.0
 11
46.86716285267452
 21
0.0724359104020209
 31
0.0
 70
   160
  1
%%c<>
 71
     5
 42
20.0
  3
ISO-25
100
AcDbAlignedDimension
 13
35.49999999999999
 23
-10.00000000000005
 33
0.0
 14
30.72796558208783
 24
9.999999999999943
 34
0.0
 50
90.0
100
AcDbRotatedDimension
  0
TEXT
  5
5BE
330
22
100
AcDbEntity
  8
6
100
AcDbText
 10
11.98361292491886
 20
-20.66183181244509
 30
0.0
 40
3.5
  1
15C1D020035X6R01
 41
1.199999999999999
 72
     1
 11
35.08361292491882
 21
-20.66183181244509
 31
0.0
100
AcDbText
  0
TEXT
  5
5BF
330
22
100
AcDbEntity
  8
6
100
AcDbText
 10
45.83908146449134
 20
17.0761957799437
 30
0.0
 40
3.0
  1
SHLT060204N-PH
 41
1.199999999999999
100
AcDbText
  0
LWPOLYLINE
  5
87A
330
22
100
AcDbEntity
  8
CUT
100
AcDbPolyline
 90
      238
 70
     1
 43
0.0
 10
34.99999999999996
 20
-4.453781000000105
 10
34.99999999999996
 20
-9.604162000000087
 10
34.99984531399999
 20
-9.614691923400073
 10
34.99940799999997
 20
-9.625214000000084
 10
34.99869018629998
 20
-9.635684116600089
 10
34.99768999999997
 20
-9.646131000000082
 10
34.99640779609997
 20
-9.656540778200053
 10
34.99484399999996
 20
-9.666912000000081
 10
34.99299587589998
 20
-9.677261135600076
 10
34.99087099999999
 20
-9.687557000000083
 10
34.98845273929998
 20
-9.697881749400039
 10
34.98576599999997
 20
-9.708140000000071
 10
34.98277983259998
 20
-9.718450528800076
 10
34.97952699999998
 20
-9.728680000000053
 10
34.97598289539998
 20
-9.738888177200067
 10
34.97216699999997
 20
-9.748998000000085
 10
34.96807158919997
 20
-9.759013796400097
 10
34.96369799999998
 20
-9.768911000000059
 10
34.95902839899996
 20
-9.778717046900055
 10
34.95409599999995
 20
-9.788394000000096
 10
34.94883427869998
 20
-9.798092933900079
 10
34.94332299999998
 20
-9.807652000000075
 10
34.93752499509999
 20
-9.817120524200049
 10
34.93147299999997
 20
-9.826429000000075
 10
34.92519085039997
 20
-9.835529248000057
 10
34.91864599999998
 20
-9.844442000000071
 10
34.91189172319999
 20
-9.853078006000089
 10
34.90488399999997
 20
-9.861510000000066
 10
34.89758339109996
 20
-9.869795599100086
 10
34.89005099999999
 20
-9.877871000000084
 10
34.88227211779999
 20
-9.885757659400042
 10
34.87427699999996
 20
-9.893425000000092
 10
34.86610295679999
 20
-9.900839120400064
 10
34.85772399999998
 20
-9.908021000000076
 10
34.84921107819999
 20
-9.91490666260006
 10
34.84049899999998
 20
-9.921538000000055
 10
34.83151990709997
 20
-9.927951393600096
 10
34.82235699999997
 20
-9.934100000000057
 10
34.81299677269998
 20
-9.940012098600107
 10
34.80348099999996
 20
-9.945670000000063
 10
34.79388670529998
 20
-9.951039012600062
 10
34.78415799999995
 20
-9.956161000000065
 10
34.7744664312
 20
-9.960954983600061
 10
34.76465099999997
 20
-9.965489000000104
 10
34.75476012369997
 20
-9.969724353600099
 10
34.74475499999996
 20
-9.97368300000005
 10
34.73467103469999
 20
-9.977359685700093
 10
34.72449299999996
 20
-9.980767000000071
 10
34.7143056746
 20
-9.983885020700085
 10
34.70404199999997
 20
-9.986742000000106
 10
34.69384104359996
 20
-9.989306724000073
 10
34.68357799999997
 20
-9.991610000000093
 10
34.67335536619997
 20
-9.993625514600068
 10
34.66308299999999
 20
-9.995370000000093
 10
34.65280128639996
 20
-9.996834151100074
 10
34.64248399999998
 20
-9.998022000000105
 10
34.63214284079997
 20
-9.998932101400043
 10
34.62178099999996
 20
-9.999565000000075
 10
34.61138038129998
 20
-9.999921507000067
 10
34.60097399999997
 20
-10.00000000000005
 10
33.34885999999996
 20
-9.99274500000007
 10
29.41364099999997
 20
-9.974913000000071
 10
29.40308804799999
 20
-9.974721222300047
 10
29.39254399999997
 20
-9.97424600000005
 10
29.38204740199997
 20
-9.973489681400053
 10
29.37157499999996
 20
-9.972451000000091
 10
29.36113577599999
 20
-9.971130124200044
 10
29.35073599999997
 20
-9.969528000000082
 10
29.34035345239995
 20
-9.967640759200037
 10
29.33002499999997
 20
-9.965477000000078
 10
29.3196644113
 20
-9.963018997500057
 10
29.30937099999996
 20
-9.960293000000092
 10
29.29902073609999
 20
-9.95726643350008
 10
29.28875199999998
 20
-9.953974000000073
 10
29.27850106739997
 20
-9.950389668100058
 10
29.26834899999996
 20
-9.946534000000099
 10
29.25828811809997
 20
-9.942397631500057
 10
29.24834599999999
 20
-9.937984000000085
 10
29.23849150109997
 20
-9.933274349900045
 10
29.22876599999997
 20
-9.928303000000084
 10
29.21901557229997
 20
-9.923001022500102
 10
29.20940499999996
 20
-9.917450000000087
 10
29.1998826479
 20
-9.911611596500051
 10
29.19051999999995
 20
-9.90552000000008
 10
29.18136349309996
 20
-9.899198021500069
 10
29.17239399999996
 20
-9.892614000000094
 10
29.16370043399998
 20
-9.885820838100073
 10
29.15520999999997
 20
-9.878775000000075
 10
29.14686442529997
 20
-9.871437077700079
 10
29.13872799999997
 20
-9.863868000000081
 10
29.13077880159996
 20
-9.856052035800075
 10
29.12304799999997
 20
-9.848020000000076
 10
29.11557046949999
 20
-9.839810386900069
 10
29.10832399999997
 20
-9.831396000000097
 10
29.10137400629999
 20
-9.822849117900091
 10
29.09467699999998
 20
-9.814103000000102
 10
29.08819724149997
 20
-9.80509110210005
 10
29.08198099999997
 20
-9.795895000000086
 10
29.07600141649995
 20
-9.786503103100073
 10
29.07027499999997
 20
-9.7769550000001
 10
29.06483865829996
 20
-9.767331002000105
 10
29.05964799999997
 20
-9.757572000000095
 10
29.05478650239998
 20
-9.747852912400048
 10
29.05018399999996
 20
-9.73800900000009
 10
29.04588161299996
 20
-9.728092223100077
 10
29.04185499999996
 20
-9.718060000000093
 10
29.03811081549999
 20
-9.707952138300072
 10
29.03463499999997
 20
-9.697749000000101
 10
29.03144971249997
 20
-9.687539379100087
 10
29.02852499999996
 20
-9.677252000000066
 10
29.02589413439996
 20
-9.667030747300088
 10
29.02352399999997
 20
-9.656746000000055
 10
29.0214424986
 20
-9.646505174500077
 10
29.01963199999996
 20
-9.636213000000054
 10
29.01810342689997
 20
-9.625914627500094
 10
29.01685099999999
 20
-9.615579000000082
 10
29.01587604699996
 20
-9.605223660600074
 10
29.01517799999995
 20
-9.594846000000075
 10
29.01475716179998
 20
-9.584433298300041
 10
29.01461599999997
 20
-9.574013000000093
 10
29.01461599999997
 20
-4.388391000000069
 10
29.01476962789998
 20
-4.377878539600033
 10
29.01520699999999
 20
-4.367374000000097
 10
29.01592530289999
 20
-4.356923861700067
 10
29.01692599999997
 20
-4.346497000000056
 10
29.01820827399998
 20
-4.33610818780005
 10
29.01977199999997
 20
-4.325758000000064
 10
29.02161999829998
 20
-4.315431281200062
 10
29.02374499999998
 20
-4.305158000000062
 10
29.02616330109997
 20
-4.294857686400064
 10
29.02884999999996
 20
-4.284624000000064
 10
29.03183557849998
 20
-4.274339340800054
 10
29.03508799999999
 20
-4.264136000000064
 10
29.03863184409996
 20
-4.253956093700082
 10
29.04244799999997
 20
-4.243875000000059
 10
29.04654389509996
 20
-4.233888513800025
 10
29.05091799999998
 20
-4.22402100000005
 10
29.05558764929997
 20
-4.214245769800072
 10
29.06051999999995
 20
-4.204600000000084
 10
29.06578112509997
 20
-4.194934275500088
 10
29.07129199999999
 20
-4.185409000000106
 10
29.07708978459998
 20
-4.175975526700085
 10
29.08314199999997
 20
-4.166703000000097
 10
29.08942476449998
 20
-4.157639453000058
 10
29.09596999999998
 20
-4.148764000000085
 10
29.10272443439998
 20
-4.140164662800088
 10
29.10973199999997
 20
-4.131770000000074
 10
29.11703264869998
 20
-4.123522943600107
 10
29.12456499999997
 20
-4.115487000000086
 10
29.13234410199997
 20
-4.107639994600049
 10
29.14033899999997
 20
-4.100013000000103
 10
29.14851325829996
 20
-4.092638975000056
 10
29.15689199999999
 20
-4.085498000000086
 10
29.16540523929997
 20
-4.078652972500094
 10
29.17411699999998
 20
-4.072063000000071
 10
29.18309648349996
 20
-4.065690790800033
 10
29.19225899999997
 20
-4.059584000000086
 10
29.20161959059995
 20
-4.053713569200056
 10
29.21113499999997
 20
-4.048098000000095
 10
29.22072971069999
 20
-4.042770764400074
 10
29.23045799999996
 20
-4.037691000000052
 10
29.24015006179998
 20
-4.032937903700087
 10
29.24996499999999
 20
-4.02844500000009
 10
29.25985590339998
 20
-4.024250064000057
 10
29.26985999999995
 20
-4.020332000000053
 10
29.27994498369999
 20
-4.016694789500093
 10
29.29012299999995
 20
-4.01332700000006
 10
29.30031085129999
 20
-4.010247601600099
 10
29.31057399999999
 20
-4.007429000000058
 10
29.32077496279998
 20
-4.004901420400074
 10
29.33103699999997
 20
-4.002635000000054
 10
29.34126063509997
 20
-4.000655161000054
 10
29.35153299999998
 20
-3.998946000000103
 10
29.36181521849995
 20
-3.997516249000057
 10
29.37213199999998
 20
-3.99636200000009
 10
29.38247362129998
 20
-3.995484337200025
 10
29.39283499999995
 20
-3.994883000000072
 10
29.40323552629998
 20
-3.994557314900077
 10
29.41364099999997
 20
-3.99450900000005
 10
33.16998599999995
 20
-4.036420000000077
 10
34.60097399999997
 20
-4.056748000000084
 10
34.61152888609998
 20
-4.057057190200055
 10
34.62207199999996
 20
-4.057644000000095
 10
34.63256964709997
 20
-4.058505649800054
 10
34.64304099999997
 20
-4.05964300000005
 10
34.65348089289996
 20
-4.061055913800032
 10
34.66387999999997
 20
-4.062743000000068
 10
34.67426236419998
 20
-4.064708642100072
 10
34.68458999999997
 20
-4.066944000000091
 10
34.69495100809998
 20
-4.069467936300043
 10
34.70524499999995
 20
-4.072253000000102
 10
34.71559490159997
 20
-4.075331802800064
 10
34.72586399999996
 20
-4.078670000000101
 10
34.73611368479995
 20
-4.082293629500099
 10
34.74626599999995
 20
-4.086182000000064
 10
34.75632625649998
 20
-4.090342683400081
 10
34.76626999999998
 20
-4.094774000000086
 10
34.77612316449997
 20
-4.099493017800057
 10
34.78584999999997
 20
-4.104468000000053
 10
34.79559878859998
 20
-4.109764718400072
 10
34.80521099999997
 20
-4.115305000000091
 10
34.81473155209999
 20
-4.121123302500052
 10
34.82409599999995
 20
-4.127190000000098
 10
34.83324968629997
 20
-4.133476964000067
 10
34.84222099999995
 20
-4.140021000000103
 10
34.85091271449995
 20
-4.146762652100051
 10
34.85940599999997
 20
-4.153753000000051
 10
34.86774931829997
 20
-4.161024350300067
 10
34.87588799999999
 20
-4.168524000000104
 10
34.8838348362
 20
-4.17625820040007
 10
34.89156799999996
 20
-4.184206000000074
 10
34.89904329519998
 20
-4.192320410000093
 10
34.90629199999997
 20
-4.200638000000083
 10
34.91323980919997
 20
-4.209076870000103
 10
34.91993899999996
 20
-4.217714000000057
 10
34.9264160405
 20
-4.226603206400056
 10
34.93263399999996
 20
-4.235676000000069
 10
34.93861223039998
 20
-4.244932425700085
 10
34.94434099999997
 20
-4.254345000000057
 10
34.94977600219999
 20
-4.263823719200047
 10
34.95496799999997
 20
-4.273438000000055
 10
34.95982807869997
 20
-4.283005292700067
 10
34.96443199999998
 20
-4.292698000000086
 10
34.96873327099998
 20
-4.30245281810005
 10
34.97276099999995
 20
-4.312324000000103
 10
34.97650375009995
 20
-4.322262385300064
 10
34.97997999999997
 20
-4.332297000000096
 10
34.98316492519997
 20
-4.34233070730005
 10
34.98609099999998
 20
-4.35244300000005
 10
34.98872160149996
 20
-4.362483252700087
 10
34.99109199999997
 20
-4.372588000000064
 10
34.99317247679996
 20
-4.382643950500096
 10
34.99498299999995
 20
-4.392752000000086
 10
34.99651181929996
 20
-4.402859569300062
 10
34.99776499999998
 20
-4.413005000000055
 10
34.99873953279998
 20
-4.423165607100088
 10
34.99943699999996
 20
-4.433349000000077
 10
34.99985758909996
 20
-4.443561179300104
  0
LINE
  5
8BE
330
22
100
AcDbEntity
  8
3
100
AcDbLine
 10
18.19999999999997
 20
1.749999999999886
 30
0.0
 11
18.19999999999997
 21
-1.750000000000113
 31
0.0
  0
LINE
  5
8BF
330
22
100
AcDbEntity
  8
3
100
AcDbLine
 10
19.25150608329999
 20
-0.0000000000001137
 30
0.0
 11
18.19999999999997
 21
-1.750000000000113
 31
0.0
  0
LINE
  5
8C1
330
22
100
AcDbEntity
  8
3
100
AcDbLine
 10
19.25150608329999
 20
-0.0000000000001137
 30
0.0
 11
18.19999999999997
 21
1.749999999999886
 31
0.0
  0
LINE
  5
8C8
330
22
100
AcDbEntity
  8
3
100
AcDbLine
 10
18.19999999999997
 20
1.749999999999886
 30
0.0
 11
0.0000000000000142
 21
1.749999999999943
 31
0.0
  0
LINE
  5
8CE
330
22
100
AcDbEntity
  8
3
100
AcDbLine
 10
18.19999999999997
 20
-1.750000000000113
 30
0.0
 11
0.0
 21
-1.750000000000056
 31
0.0
  0
LINE
  5
8E7
330
22
100
AcDbEntity
  8
SK3
100
AcDbLine
 10
-18.30000000000001
 20
1.749999999999943
 30
0.0
 11
-18.30000000000004
 21
-1.750000000000056
 31
0.0
  0
LWPOLYLINE
  5
8E9
330
22
100
AcDbEntity
  8
1
100
AcDbPolyline
 90
       15
 70
     0
 43
0.0
 10
29.41364131850001
 20
9.969272101299907
 10
29.37008228329999
 20
9.96673715969996
 10
29.32707726120002
 20
9.959355158400001
 10
29.28435551670002
 20
9.947108199199931
 10
29.24272925690001
 20
9.930049976499958
 10
29.2025906226
 20
9.908085081199999
 10
29.16492907780001
 20
9.881642925199969
 10
29.13077782870001
 20
9.850929052499964
 10
29.10039778960003
 20
9.816519657799915
 10
29.0743366521
 20
9.778712062899955
 10
29.05276729
 20
9.73854843069995
 10
29.0360889983
 20
9.697047621799924
 10
29.0241702055
 20
9.654576865199999
 10
29.01701262979999
 20
9.611931365999907
 10
29.0146156984
 20
9.568846055899996
  0
LWPOLYLINE
  5
8FA
330
22
100
AcDbEntity
  8
1
100
AcDbPolyline
 90
       15
 70
     0
 43
0.0
 10
29.64257496710001
 20
9.597437316699938
 10
29.61512418149998
 20
9.595839803399996
 10
29.58802253359998
 20
9.591187686199987
 10
29.56109940629999
 20
9.583469685900013
 10
29.5348666506
 20
9.572719640399952
 10
29.50957139239999
 20
9.558877423099943
 10
29.4858371893
 20
9.542213648199947
 10
29.464315165
 20
9.522857849199908
 10
29.44516974700001
 20
9.501173142199945
 10
29.428746089
 20
9.477346898699977
 10
29.41515313569998
 20
9.452035886899977
 10
29.4046425216
 20
9.425882189999924
 10
29.39713133079998
 20
9.399117234699986
 10
29.392620646
 20
9.372242157099947
 10
29.39111010639998
 20
9.345089911799959
  0
LWPOLYLINE
  5
90B
330
22
100
AcDbEntity
  8
1
100
AcDbPolyline
 90
       13
 70
     0
 43
0.0
 10
14.79289321880002
 20
8.952852446499946
 10
14.82574250989999
 20
8.954176950699945
 10
14.85829485819998
 20
8.957630993999941
 10
14.8906185698
 20
8.963230397599943
 10
14.9225087265
 20
8.970927698199943
 10
14.95382649650001
 20
8.980700197099963
 10
14.9844419278
 20
8.992489421199991
 10
15.01421686729999
 20
9.006252716399956
 10
15.04303708709999
 20
9.021919927199974
 10
15.07077737589999
 20
9.039433738599939
 10
15.0973325298
 20
9.058712974399952
 10
15.12253724
 20
9.079644818199938
 10
15.1464466094
 20
9.102266875599923
  0
LINE
  5
91A
330
22
100
AcDbEntity
  8
1
100
AcDbLine
 10
29.41364131850001
 20
9.969272101299907
 30
0.0
 11
34.6009743799
 21
9.975602676599976
 31
0.0
  0
LINE
  5
91B
330
22
100
AcDbEntity
  8
1
100
AcDbLine
 10
34.6009743799
 20
9.895614860999955
 30
0.0
 11
29.41364131850001
 21
9.889284285699943
 31
0.0
  0
LINE
  5
91C
330
22
100
AcDbEntity
  8
1
100
AcDbLine
 10
29.64257496710001
 20
9.597437316699938
 30
0.0
 11
34.3859920261
 21
9.603226140900005
 31
0.0
  0
LINE
  5
91D
330
22
100
AcDbEntity
  8
1
100
AcDbLine
 10
34.3859920261
 20
9.551155160500002
 30
0.0
 11
33.5410951258
 21
9.550124055799983
 31
0.0
  0
LINE
  5
91E
330
22
100
AcDbEntity
  8
1
100
AcDbLine
 10
30.4874718674
 20
9.546397441099941
 30
0.0
 11
29.64257496710001
 21
9.545366336399922
 31
0.0
  0
LINE
  5
91F
330
22
100
AcDbEntity
  8
1
100
AcDbLine
 10
33.25321819680001
 20
9.483282861699933
 30
0.0
 11
30.77534879649999
 21
9.480258891799962
 31
0.0
  0
LWPOLYLINE
  5
920
330
22
100
AcDbEntity
  8
1
100
AcDbPolyline
 90
        7
 70
     0
 43
0.0
 10
28.07151949559999
 20
9.449999363099948
 10
26.8011476258
 20
9.449581550900006
 10
24.57020829309998
 20
9.446827695499962
 10
22.3394646137
 20
9.441498028599937
 10
20.10992035139999
 20
9.433596985699921
 10
17.8825792699
 20
9.423129001999996
 10
15.6571067812
 20
9.410092599199913
  0
LINE
  5
929
330
22
100
AcDbEntity
  8
1
100
AcDbLine
 10
29.0146156984
 20
9.449765536499967
 30
0.0
 11
28.07151949559999
 21
9.449999363099948
 31
0.0
  0
LWPOLYLINE
  5
92A
330
22
100
AcDbEntity
  8
1
100
AcDbPolyline
 90
        7
 70
     0
 43
0.0
 10
30.48747186550001
 20
9.546397441099941
 10
30.49672448360001
 20
9.546192726299921
 10
30.50595210959999
 20
9.545557822299997
 10
30.5151719913
 20
9.544490326799973
 10
30.52433238579998
 20
9.542997446499953
 10
30.53338155050001
 20
9.541086387999996
 10
30.54233673280002
 20
9.538754749100007
  0
LWPOLYLINE
  5
933
330
22
100
AcDbEntity
  8
1
100
AcDbPolyline
 90
       15
 70
     0
 43
0.0
 10
34.6009743799
 20
9.895614860999955
 10
34.63582160809999
 20
9.89367196219996
 10
34.67022562570001
 20
9.887850333899962
 10
34.70440302140001
 20
9.878136186099936
 10
34.7377040292
 20
9.86457088849994
 10
34.7698149367
 20
9.84707734799997
 10
34.79994417249999
 20
9.825997162099952
 10
34.82726517169998
 20
9.801492748499924
 10
34.85156920300001
 20
9.774024553599929
 10
34.87241811300002
 20
9.743829365299916
 10
34.8896736027
 20
9.711740576499948
 10
34.90301623610001
 20
9.67857249589997
 10
34.9125512703
 20
9.644619163499953
 10
34.91827733090001
 20
9.610516740200012
 10
34.920194876
 20
9.576053172399952
  0
LWPOLYLINE
  5
944
330
22
100
AcDbEntity
  8
1
100
AcDbPolyline
 90
       13
 70
     0
 43
0.0
 10
34.3859920261
 20
9.551155160500002
 10
34.41144421059998
 20
9.549504478699986
 10
34.4364284105
 20
9.54454806839999
 10
34.46120869069999
 20
9.536242213699949
 10
34.4849928567
 20
9.524718062299996
 10
34.50725979759999
 20
9.509964596799932
 10
34.5274603278
 20
9.492364597000005
 10
34.54491161290001
 20
9.472064849199909
 10
34.55949348820001
 20
9.449762316899978
 10
34.57084546010002
 20
9.426034145699929
 10
34.5790056812
 20
9.401386575699973
 10
34.5838818884
 20
9.376605556599997
 10
34.58550483610002
 20
9.351429105199997
  0
LINE
  5
953
330
22
100
AcDbEntity
  8
1
100
AcDbLine
 10
33.9705212011
 20
8.609830921799925
 30
0.0
 11
34.58550483610002
 21
8.504598048799948
 31
0.0
  0
LINE
  5
954
330
22
100
AcDbEntity
  8
1
100
AcDbLine
 10
34.57781279639998
 20
8.449598198299952
 30
0.0
 11
33.9628291614
 21
8.554831071199998
 31
0.0
  0
LWPOLYLINE
  5
956
330
22
100
AcDbEntity
  8
1
100
AcDbPolyline
 90
       20
 70
     0
 43
0.0
 10
32.34266651329448
 20
8.694905992811072
 10
32.46737566099999
 20
8.665379920899965
 10
32.58981904720001
 20
8.627481716299939
 10
32.70915549490001
 20
8.580658232299981
 10
32.82471367890001
 20
8.525114273599967
 10
32.93587400239998
 20
8.46121246789994
 10
33.04203014739999
 20
8.389338709999947
 10
33.14258525339999
 20
8.309884210099994
 10
33.23694877780001
 20
8.223247418099902
 10
33.32456720000001
 20
8.129858826299937
 10
33.40502264720003
 20
8.030307885499951
 10
33.477940395
 20
7.925245198999959
 10
33.54294719810001
 20
7.815342856899974
 10
33.59973359550001
 20
7.701178212499939
 10
33.64796306070001
 20
7.583393607499942
 10
33.68750537370001
 20
7.462547787099936
 10
33.71830600870003
 20
7.339337976899969
 10
33.7402838115
 20
7.214454048499931
 10
33.7533272964
 20
7.088526775999923
 10
33.75729261079998
 20
6.975151052799958
  0
LWPOLYLINE
  5
96C
330
22
100
AcDbEntity
  8
1
100
AcDbPolyline
 90
        7
 70
     0
 43
0.0
 10
30.72048393100001
 20
9.487901583699965
 10
30.7294390858
 20
9.48556995049995
 10
30.7384882338
 20
9.483658894599955
 10
30.74764862239998
 20
9.482166012999982
 10
30.75686850940001
 20
9.481098514699965
 10
30.76609615220001
 20
9.480463608599961
 10
30.7753487984
 20
9.480258891799962
  0
LWPOLYLINE
  5
975
330
22
100
AcDbEntity
  8
1
100
AcDbPolyline
 90
        7
 70
     0
 43
0.0
 10
30.4261351247
 20
8.939703705499994
 10
30.41717996829998
 20
8.942035339099959
 10
30.40813081930001
 20
8.943946395299917
 10
30.39897043030002
 20
8.945439276999991
 10
30.38975054370001
 20
8.946506775199964
 10
30.3805229019
 20
8.94714168129991
 10
30.37127025739998
 20
8.947346397999979
  0
LINE
  5
97E
330
22
100
AcDbEntity
  8
1
100
AcDbLine
 10
30.72048393100001
 20
9.487901583699965
 30
0.0
 11
30.54233673280002
 21
9.538754749100007
 31
0.0
  0
LINE
  5
97F
330
22
100
AcDbEntity
  8
1
100
AcDbLine
 10
30.42613512289999
 20
8.939703706099976
 30
0.0
 11
30.60428232119999
 21
8.888850540699934
 31
0.0
  0
LWPOLYLINE
  5
9B1
330
22
100
AcDbEntity
  8
1
100
AcDbPolyline
 90
       11
 70
     0
 43
0.0
 10
33.9705212011
 20
8.851754122499926
 10
33.9693132213
 20
8.867112554299978
 10
33.9657408506
 20
8.882002625200016
 10
33.95973931090002
 20
8.896670749599934
 10
33.95150293649998
 20
8.910377683699948
 10
33.9410476794
 20
8.922553635399935
 10
33.9288439084
 20
8.93293666369999
 10
33.91518052489998
 20
8.941071884599921
 10
33.90061788389998
 20
8.946968334899906
 10
33.8858947229
 20
8.950465599499977
 10
33.87076479610001
 20
8.951617150099991
  0
LWPOLYLINE
  5
9BE
330
22
100
AcDbEntity
  8
1
100
AcDbPolyline
 90
       15
 70
     0
 43
0.0
 10
34.99999999999999
 20
9.576150565899979
 10
34.99752388579999
 20
9.619806295599914
 10
34.99021110800003
 20
9.662900841199984
 10
34.97804413900001
 20
9.705705536899984
 10
34.9610755614
 20
9.74740638009996
 10
34.9392097067
 20
9.787610215699942
 10
34.91287380120001
 20
9.825325835999933
 10
34.88227166149999
 20
9.859517918199969
 10
34.8479778484
 20
9.889925652099918
 10
34.81028833790002
 20
9.916000453399988
 10
34.77024270220001
 20
9.937570321199984
 10
34.72885698840001
 20
9.954236286499963
 10
34.68649774700002
 20
9.966130669099982
 10
34.6439583649
 20
9.973252715399951
 10
34.6009743799
 20
9.975602676599976
  0
LWPOLYLINE
  5
9CF
330
22
100
AcDbEntity
  8
1
100
AcDbPolyline
 90
       15
 70
     0
 43
0.0
 10
34.63745688679999
 20
9.351492506999989
 10
34.63589644630001
 20
9.379004229099962
 10
34.63128795359999
 20
9.406162294599937
 10
34.6236203628
 20
9.433137697399899
 10
34.61292681139999
 20
9.459417455399943
 10
34.5991470092
 20
9.484753803199964
 10
34.58255019319999
 20
9.508522084599917
 10
34.56326480800003
 20
9.530069841799956
 10
34.54165294030001
 20
9.54923271299998
 10
34.51790111320001
 20
9.565664981899999
 10
34.4926644625
 20
9.579258253899922
 10
34.46658329820001
 20
9.589761099899931
 10
34.43988861950002
 20
9.597256907499968
 10
34.41308041659998
 20
9.601745201699941
 10
34.3859920261
 20
9.603226140900005
  0
LWPOLYLINE
  5
9E0
330
22
100
AcDbEntity
  8
1
100
AcDbPolyline
 90
        9
 70
     0
 43
0.0
 10
34.55389138299999
 20
-4.868530823800028
 10
34.5520342974
 20
-4.835781772100062
 10
34.546549714
 20
-4.803449245100068
 10
34.53742448729999
 20
-4.771329695000076
 10
34.5246980541
 20
-4.740033764900033
 10
34.50829866309998
 20
-4.709856278400025
 10
34.48854673390001
 20
-4.681541145600021
 10
34.46559512899999
 20
-4.655865163500038
 10
34.46111062530001
 20
-4.651882751900075
  0
LWPOLYLINE
  5
9EB
330
22
100
AcDbEntity
  8
1
100
AcDbPolyline
 90
       15
 70
     0
 43
0.0
 10
34.90956652499999
 20
-4.511991818300089
 10
34.90704848530003
 20
-4.467186142500054
 10
34.89953457380001
 20
-4.422967951000032
 10
34.887163895
 20
-4.379866951900055
 10
34.87004741130001
 20
-4.338438787800043
 10
34.84838950089998
 20
-4.299199898300059
 10
34.82250419149999
 20
-4.262617793100048
 10
34.79269829190001
 20
-4.229163932700032
 10
34.7593273044
 20
-4.199281826500055
 10
34.7228391442
 20
-4.173332480300018
 10
34.68369804780001
 20
-4.151619240100046
 10
34.6423676548
 20
-4.134458502400036
 10
34.59936184759998
 20
-4.122053516600033
 10
34.55523660030001
 20
-4.114513956800067
 10
34.5105409049
 20
-4.111991818300055
  0
LWPOLYLINE
  5
9FC
330
22
100
AcDbEntity
  8
1
100
AcDbPolyline
 90
       41
 70
     0
 43
0.0
 10
33.85031473489998
 20
6.976892995099944
 10
33.84460697780002
 20
7.12170472729997
 10
33.82767796479998
 20
7.265238163199967
 10
33.79945886110001
 20
7.408028573499905
 10
33.76015617170002
 20
7.548470146199974
 10
33.70978559850001
 20
7.685422758799916
 10
33.64885071560001
 20
7.818024613599959
 10
33.57766093950001
 20
7.945266419599931
 10
33.4968144452
 20
8.06645053349996
 10
33.40682827120001
 20
8.180741126199961
 10
33.30825524370001
 20
8.28754346379992
 10
33.20157064179999
 20
8.386135446099956
 10
33.08752414550002
 20
8.476063343099951
 10
32.96676785570002
 20
8.556800642399934
 10
32.84006978879999
 20
8.627843590599923
 10
32.70812264739998
 20
8.688589398899921
 10
32.5718044744
 20
8.738808660899962
 10
32.4319232139
 20
8.778185571199969
 10
32.2893818649
 20
8.806376536799973
 10
32.1450573719
 20
8.822740122899972
 10
31.99983584179999
 20
8.827854048999938
 10
31.85460383010001
 20
8.822254310399955
 10
31.7102369352
 20
8.805424645699929
 10
31.56759733580002
 20
8.776844309599937
 10
31.42761184750002
 20
8.737062748799928
 10
31.29123828020001
 20
8.68631388679995
 10
31.15924582950003
 20
8.625023547599994
 10
31.03248007889998
 20
8.553515205599921
 10
30.9116696741
 20
8.472329832799914
 10
30.79760881470001
 20
8.381929259599928
 10
30.69094642139997
 20
8.28287438429993
 10
30.59243909600001
 20
8.17561962529993
 10
30.50255799479997
 20
8.060946252399901
 10
30.42185116470002
 20
7.939515913299942
 10
30.35084453540001
 20
7.812141892899944
 10
30.29016637940002
 20
7.679518733400016
 10
30.24005771489998
 20
7.54266431139996
 10
30.20096418210001
 20
7.402471748999971
 10
30.17290018700002
 20
7.260009851699919
 10
30.15604905169998
 20
7.116815946299936
 10
30.1503496687
 20
6.972377590500002
  0
LWPOLYLINE
  5
A27
330
22
100
AcDbEntity
  8
1
100
AcDbPolyline
 90
        7
 70
     0
 43
0.0
 10
34.5191668268
 20
5.732439357700002
 10
34.51938233999998
 20
5.723165821299915
 10
34.52002702949999
 20
5.713917857899957
 10
34.52110331300001
 20
5.704678183400005
 10
34.52260393729999
 20
5.695498649999933
 10
34.5245216492
 20
5.686431110199976
 10
34.52685886659999
 20
5.677458279799964
  0
LWPOLYLINE
  5
A30
330
22
100
AcDbEntity
  8
1
100
AcDbPolyline
 90
        7
 70
     0
 43
0.0
 10
33.9705212011
 20
5.344248464399981
 10
33.97030568789999
 20
5.353522000799955
 10
33.96966099839999
 20
5.362769964199912
 10
33.96858471489999
 20
5.372009638699978
 10
33.96708409059999
 20
5.381189172000006
 10
33.9651663787
 20
5.390256711899951
 10
33.96282916130001
 20
5.399229542299963
  0
LINE
  5
A39
330
22
100
AcDbEntity
  8
1
100
AcDbLine
 10
34.99999999999999
 20
-9.561899723800024
 30
0.0
 11
34.99999999999999
 21
-4.361899723800036
 31
0.0
  0
LINE
  5
A3A
330
22
100
AcDbEntity
  8
1
100
AcDbLine
 10
34.99999999999999
 20
9.576150565899979
 30
0.0
 11
34.99999999999999
 21
4.376942551099944
 31
0.0
  0
LINE
  5
A3B
330
22
100
AcDbEntity
  8
1
100
AcDbLine
 10
34.920194876
 20
4.376845157599973
 30
0.0
 11
34.920194876
 21
9.576053172399952
 31
0.0
  0
LINE
  5
A3C
330
22
100
AcDbEntity
  8
1
100
AcDbLine
 10
34.90956652499999
 20
-9.411807629300028
 30
0.0
 11
34.90956652499999
 21
-4.511991818300089
 31
0.0
  0
LINE
  5
A3D
330
22
100
AcDbEntity
  8
1
100
AcDbLine
 10
34.65364774960001
 20
-4.868530862300019
 30
0.0
 11
34.65364774960001
 21
-9.055268585300041
 31
0.0
  0
LINE
  5
A3E
330
22
100
AcDbEntity
  8
1
100
AcDbLine
 10
34.63745688679999
 20
9.351492506999989
 30
0.0
 11
34.63745688679999
 21
4.597216716499985
 31
0.0
  0
LINE
  5
A3F
330
22
100
AcDbEntity
  8
1
100
AcDbLine
 10
34.58550483610002
 20
4.597153314699937
 30
0.0
 11
34.58550483610002
 21
5.443984370999942
 31
0.0
  0
LINE
  5
A40
330
22
100
AcDbEntity
  8
1
100
AcDbLine
 10
34.58550483610002
 20
8.504598048799948
 30
0.0
 11
34.58550483610002
 21
9.351429105199997
 31
0.0
  0
LINE
  5
A41
330
22
100
AcDbEntity
  8
1
100
AcDbLine
 10
34.55389138299999
 20
-4.868530823800028
 30
0.0
 11
34.55389138299999
 21
-9.055268623800031
 31
0.0
  0
LINE
  5
A42
330
22
100
AcDbEntity
  8
1
100
AcDbLine
 10
34.5191668268
 20
8.215981145599926
 30
0.0
 11
34.5191668268
 21
5.732439357700002
 31
0.0
  0
LINE
  5
A43
330
22
100
AcDbEntity
  8
1
100
AcDbLine
 10
34.46111062530001
 20
-8.819380046600031
 30
0.0
 11
34.46111062530001
 21
-8.955268623800009
 31
0.0
  0
LINE
  5
A44
330
22
100
AcDbEntity
  8
1
100
AcDbLine
 10
34.46111062530001
 20
3.976345817199955
 30
0.0
 11
34.46111062530001
 21
-8.819380046600031
 31
0.0
  0
LINE
  5
A45
330
22
100
AcDbEntity
  8
1
100
AcDbLine
 10
33.9705212011
 20
8.851754122499926
 30
0.0
 11
33.9705212011
 21
8.609830921799925
 31
0.0
  0
LINE
  5
A46
330
22
100
AcDbEntity
  8
1
100
AcDbLine
 10
33.9705212011
 20
5.34424846639996
 30
0.0
 11
33.9705212011
 21
5.102325265599915
 31
0.0
  0
LINE
  5
A47
330
22
100
AcDbEntity
  8
1
100
AcDbLine
 10
33.96111062530001
 20
3.018644084799973
 30
0.0
 11
33.96111062530001
 21
-9.320606678300066
 31
0.0
  0
LINE
  5
A48
330
22
100
AcDbEntity
  8
1
100
AcDbLine
 10
33.90418319180002
 20
8.321214020299919
 30
0.0
 11
33.90418319180002
 21
5.632703451099928
 31
0.0
  0
LWPOLYLINE
  5
A49
330
22
100
AcDbEntity
  8
1
100
AcDbPolyline
 90
        7
 70
     0
 43
0.0
 10
34.58550483610002
 20
8.504598050799984
 10
34.58528932290001
 20
8.495323988400002
 10
34.5846446334
 20
8.486074451499973
 10
34.58356834990001
 20
8.47683214999995
 10
34.5820677256
 20
8.467648953899924
 10
34.58015001369999
 20
8.458576733399979
 10
34.57781279639998
 20
8.449598198299952
  0
LWPOLYLINE
  5
A52
330
22
100
AcDbEntity
  8
1
100
AcDbPolyline
 90
        7
 70
     0
 43
0.0
 10
33.90418319180002
 20
8.321214020299919
 10
33.90439870490001
 20
8.330488080999941
 10
33.9050433943
 20
8.339737616899981
 10
33.90611967779999
 20
8.348979917999997
 10
33.90762030210003
 20
8.358163114399985
 10
33.9095380143
 20
8.367235335999907
 10
33.9118752321
 20
8.376213872699963
  0
LWPOLYLINE
  5
A5B
330
22
100
AcDbEntity
  8
1
100
AcDbPolyline
 90
       15
 70
     0
 43
0.0
 10
34.99999999999999
 20
-9.561899723800024
 10
34.99752388579999
 20
-9.605565125800069
 10
34.99021110800003
 20
-9.648675161700055
 10
34.97804413900001
 20
-9.691501228399999
 10
34.9610755614
 20
-9.733229135300064
 10
34.9392097067
 20
-9.773465784100039
 10
34.91287380120001
 20
-9.811219294500006
 10
34.88227166149999
 20
-9.845453937400009
 10
34.8479778484
 20
-9.875908161500092
 10
34.81028833790002
 20
-9.902032937600097
 10
34.77024270220001
 20
-9.923654969900042
 10
34.72885698840001
 20
-9.94037398840004
 10
34.68649774700002
 20
-9.952321885600042
 10
34.6439583649
 20
-9.959496939400082
 10
34.6009743799
 20
-9.961899723800001
  0
LWPOLYLINE
  5
A6C
330
22
100
AcDbEntity
  8
1
100
AcDbPolyline
 90
       15
 70
     0
 43
0.0
 10
34.65364774960001
 20
-9.055268585199996
 10
34.65117163540002
 20
-9.098933987200041
 10
34.6438588576
 20
-9.142044023100027
 10
34.63169188850002
 20
-9.184870089900016
 10
34.61472331100002
 20
-9.22659799680008
 10
34.5928574563
 20
-9.266834645500011
 10
34.5665215508
 20
-9.304588156000022
 10
34.53591941109998
 20
-9.338822798900025
 10
34.50162559800002
 20
-9.369277022999995
 10
34.46393608750002
 20
-9.3954017991
 10
34.42389045169999
 20
-9.417023831300014
 10
34.38250473800001
 20
-9.433742849800012
 10
34.34014549660002
 20
-9.445690747000014
 10
34.2976061145
 20
-9.452865800800054
 10
34.25462212950002
 20
-9.455268585300018
  0
LWPOLYLINE
  5
A7D
330
22
100
AcDbEntity
  8
1
100
AcDbPolyline
 90
       14
 70
     0
 43
0.0
 10
34.46111062530001
 20
-8.955268623800009
 10
34.45925353970002
 20
-8.988017675300056
 10
34.45376895630001
 20
-9.020350202200063
 10
34.44464372960001
 20
-9.052469752299998
 10
34.43191729639999
 20
-9.083765682400041
 10
34.4155179054
 20
-9.113943169000094
 10
34.39576597630001
 20
-9.14225830180004
 10
34.37281437149998
 20
-9.167934284000068
 10
34.34709401169998
 20
-9.190774952100014
 10
34.31882687880001
 20
-9.210368534200028
 10
34.288792652
 20
-9.226585058400019
 10
34.2577533666
 20
-9.239124322200041
 10
34.22598393560001
 20
-9.248085245100071
 10
34.2211156156
 20
-9.248906377400032
  0
LWPOLYLINE
  5
A8D
330
22
100
AcDbEntity
  8
1
100
AcDbPolyline
 90
       15
 70
     0
 43
0.0
 10
34.920194876
 20
4.376845157599973
 10
34.9182139846
 20
4.341915738899956
 10
34.91236376239998
 20
4.307425823299979
 10
34.9026301871
 20
4.273158309299958
 10
34.88905532509999
 20
4.239764501399918
 10
34.87156264139999
 20
4.20755873709993
 10
34.85049391700001
 20
4.177334816699953
 10
34.8260122052
 20
4.149921396399918
 10
34.7985771547
 20
4.125528246299893
 10
34.76842554630001
 20
4.104594811799927
 10
34.73638903769999
 20
4.087260723399992
 10
34.70328046669998
 20
4.07384714029996
 10
34.6693930736
 20
4.064248922499928
 10
34.63536156790001
 20
4.0584682219
 10
34.6009743799
 20
4.056504321299939
  0
LWPOLYLINE
  5
A9E
330
22
100
AcDbEntity
  8
1
100
AcDbPolyline
 90
       13
 70
     0
 43
0.0
 10
34.46111062530001
 20
-8.819380046600031
 10
34.4569217306
 20
-8.885435121400064
 10
34.44426259530001
 20
-8.949759834800033
 10
34.4228202938
 20
-9.01315172750003
 10
34.3935336032
 20
-9.073218177600097
 10
34.3570307813
 20
-9.127884301700021
 10
34.31393045980001
 20
-9.176994425500026
 10
34.26481054610001
 20
-9.219903255600002
 10
34.210421471
 20
-9.256004765499994
 10
34.15104609300001
 20
-9.284646490600039
 10
34.08866503699999
 20
-9.305322451500046
 10
34.02561257839999
 20
-9.317218747299989
 10
33.96111062530001
 20
-9.320606678300066
  0
LWPOLYLINE
  5
AAD
330
22
100
AcDbEntity
  8
1
100
AcDbPolyline
 90
       13
 70
     0
 43
0.0
 10
34.58550483610002
 20
4.597153314699937
 10
34.58382693380001
 20
4.571640816899957
 10
34.57885142299999
 20
4.546593350599948
 10
34.57053436620002
 20
4.521746192899968
 10
34.55900757620002
 20
4.497893512399912
 10
34.54426069520001
 20
4.475557600599927
 10
34.5266762975
 20
4.455289366999977
 10
34.50640166550001
 20
4.437773388999971
 10
34.48413231720001
 20
4.423130955200008
 10
34.46044451880001
 20
4.411724087799939
 10
34.4358433078
 20
4.403515162999951
 10
34.41111295099999
 20
4.398597612399953
 10
34.3859920261
 20
4.39694029200001
  0
LWPOLYLINE
  5
ACF
330
22
100
AcDbEntity
  8
1
100
AcDbPolyline
 90
        5
 70
     0
 43
0.0
 10
29.4561917775
 20
-9.38905463610007
 10
29.46757119739998
 20
-9.369050942400008
 10
29.47892128860001
 20
-9.346234690300036
 10
29.4902420513
 20
-9.320605879900028
 10
29.50153348550002
 20
-9.292164511200098
  0
LINE
  5
AD6
330
22
100
AcDbEntity
  8
1
100
AcDbLine
 10
34.99999999999999
 20
-4.361899723800036
 30
0.0
 11
34.90956652499999
 21
-4.511991818300089
 31
0.0
  0
LINE
  5
AD7
330
22
100
AcDbEntity
  8
1
100
AcDbLine
 10
34.5105409049
 20
-4.111991818300055
 30
0.0
 11
34.6009743799
 21
-3.961899723800001
 31
0.0
  0
LINE
  5
AD8
330
22
100
AcDbEntity
  8
1
100
AcDbLine
 10
34.90956652499999
 20
-4.511991818300089
 30
0.0
 11
34.65364774960001
 21
-4.868530862300019
 31
0.0
  0
LINE
  5
AD9
330
22
100
AcDbEntity
  8
1
100
AcDbLine
 10
34.46111062530001
 20
-4.180856732900053
 30
0.0
 11
34.5105409049
 21
-4.111991818300055
 31
0.0
  0
LINE
  5
AE9
330
22
100
AcDbEntity
  8
1
100
AcDbLine
 10
34.46111062530001
 20
-4.968530823800051
 30
0.0
 11
34.55389138299999
 21
-4.868530823800028
 31
0.0
  0
LWPOLYLINE
  5
AEA
330
22
100
AcDbEntity
  8
1
100
AcDbPolyline
 90
        9
 70
     0
 43
0.0
 10
29.50153348550002
 20
-9.292164511200098
 10
29.5068632408
 20
-9.286574318500015
 10
29.51723663610001
 20
-9.281417396700021
 10
29.53297267449999
 20
-9.276645272400003
 10
29.55311434650001
 20
-9.272498087100018
 10
29.57723275049999
 20
-9.269165461000056
 10
29.60406256559999
 20
-9.266770005600051
 10
29.63201946740002
 20
-9.265504874000043
 10
29.66163156409998
 20
-9.265323626000053
  0
LINE
  5
AF5
330
22
100
AcDbEntity
  8
1
100
AcDbLine
 10
30.07808305080001
 20
-9.355268623800043
 30
0.0
 11
30.16662597669999
 21
-9.272310483400019
 31
0.0
  0
LINE
  5
AF6
330
22
100
AcDbEntity
  8
1
100
AcDbLine
 10
30.07808308919998
 20
-9.455268585300018
 30
0.0
 11
29.62266079889999
 21
-9.811807629300062
 31
0.0
  0
LINE
  5
AF7
330
22
100
AcDbEntity
  8
1
100
AcDbLine
 10
29.62266079889999
 20
-9.811807629300062
 30
0.0
 11
29.41364131850001
 21
-9.961899723800001
 31
0.0
  0
LINE
  5
AF8
330
22
100
AcDbEntity
  8
1
100
AcDbLine
 10
29.0146156984
 20
-9.561899723800024
 30
0.0
 11
29.17538713999999
 21
-9.446453439300057
 31
0.0
  0
LWPOLYLINE
  5
B47
330
22
100
AcDbEntity
  8
1
100
AcDbPolyline
 90
        7
 70
     0
 43
0.0
 10
33.48623025850002
 20
9.542347450199997
 10
33.495185415
 20
9.544700941399923
 10
33.50423456399999
 20
9.546634084499999
 10
33.513394953
 20
9.548149324699977
 10
33.5226148396
 20
9.549239326699932
 10
33.53184248140001
 20
9.54989675539997
 10
33.5410951258
 20
9.550124055799983
  0
LWPOLYLINE
  5
B50
330
22
100
AcDbEntity
  8
1
100
AcDbPolyline
 90
        7
 70
     0
 43
0.0
 10
33.3963820844
 20
8.892257994999965
 10
33.38742692790003
 20
8.889904503799925
 10
33.3783777789
 20
8.887971360699964
 10
33.36921738990002
 20
8.886456120499985
 10
33.3599975033
 20
8.885366118499916
 10
33.35076986149998
 20
8.884708689799992
 10
33.34151721710002
 20
8.884481389399979
  0
LINE
  5
B59
330
22
100
AcDbEntity
  8
1
100
AcDbLine
 10
29.443062157
 20
8.498322257399934
 30
0.0
 11
30.0301432026
 21
8.605022119299974
 31
0.0
  0
LINE
  5
B5A
330
22
100
AcDbEntity
  8
1
100
AcDbLine
 10
30.03783524229998
 20
8.550041043399971
 30
0.0
 11
29.45075419679999
 21
8.443341181399944
 31
0.0
  0
LINE
  5
B5B
330
22
100
AcDbEntity
  8
1
100
AcDbLine
 10
29.50170812660001
 20
8.264848348599969
 30
0.0
 11
30.08878917220001
 21
8.371548210499952
 31
0.0
  0
LINE
  5
B5C
330
22
100
AcDbEntity
  8
1
100
AcDbLine
 10
30.09648121190001
 20
8.316567134500019
 30
0.0
 11
29.50940016639997
 21
8.209867272699966
 31
0.0
  0
LWPOLYLINE
  5
B6A
330
22
100
AcDbEntity
  8
1
100
AcDbPolyline
 90
       11
 70
     0
 43
0.0
 10
30.1298996076
 20
8.94705183139996
 10
30.11457478340002
 20
8.945822383999939
 10
30.09971437170002
 20
8.942223699799967
 10
30.08507244159999
 20
8.936190552399921
 10
30.07138678540001
 20
8.927918621299909
 10
30.05922591310001
 20
8.917424588699986
 10
30.04885174019999
 20
8.905180220099964
 10
30.0407184635
 20
8.8914756323
 10
30.03481774909999
 20
8.876872452999975
 10
30.0313105453
 20
8.862111307199938
 10
30.0301432026
 20
8.846945319999974
  0
LWPOLYLINE
  5
B8C
330
22
100
AcDbEntity
  8
1
100
AcDbPolyline
 90
        7
 70
     0
 43
0.0
 10
33.2532181948
 20
9.483282861699933
 10
33.26247081289999
 20
9.483510159999923
 10
33.27169843899999
 20
9.484167586699925
 10
33.2809183207
 20
9.485257585900001
 10
33.29007871520001
 20
9.486772824699983
 10
33.2991278798
 20
9.488705970199987
 10
33.3080830622
 20
9.491059466799924
  0
LWPOLYLINE
  5
B95
330
22
100
AcDbEntity
  8
1
100
AcDbPolyline
 90
        7
 70
     0
 43
0.0
 10
33.62939414809999
 20
8.951322583499916
 10
33.62014153
 20
8.951095285199983
 10
33.61091390389997
 20
8.950437858499924
 10
33.60169402230001
 20
8.949347859299962
 10
33.59253362780002
 20
8.94783262049998
 10
33.58348446309999
 20
8.945899474899931
 10
33.57452928079998
 20
8.943545978399981
  0
LWPOLYLINE
  5
B9F
330
22
100
AcDbEntity
  8
1
100
AcDbPolyline
 90
        7
 70
     0
 43
0.0
 10
14.79289321880002
 20
8.952852446499946
 10
14.0080196672
 20
8.94705230689999
 10
13.22384996039999
 20
8.940919300999951
 10
12.4403641354
 20
8.934453098099936
 10
11.65762208139999
 20
8.927654690399947
 10
10.87568368760001
 20
8.920525070099984
 10
10.0945289909
 20
8.913063906399941
  0
LINE
  5
BA9
330
22
100
AcDbEntity
  8
1
100
AcDbLine
 10
30.1298996076
 20
8.94705183139996
 30
0.0
 11
30.37127025739998
 21
8.947346397999979
 31
0.0
  0
LINE
  5
BAA
330
22
100
AcDbEntity
  8
1
100
AcDbLine
 10
33.62939414610001
 20
8.951322583499916
 30
0.0
 11
33.87076479610001
 21
8.951617150099991
 31
0.0
  0
LINE
  5
BAB
330
22
100
AcDbEntity
  8
1
100
AcDbLine
 10
30.65914718660001
 20
8.8812078487
 30
0.0
 11
33.34151721710002
 21
8.884481389399979
 31
0.0
  0
LINE
  5
BAC
330
22
100
AcDbEntity
  8
1
100
AcDbLine
 10
5.252059272300002
 20
8.999999999999943
 30
0.0
 11
0.3999999999999915
 21
8.999999999999943
 31
0.0
  0
LWPOLYLINE
  5
BAE
330
22
100
AcDbEntity
  8
1
100
AcDbPolyline
 90
        4
 70
     0
 43
0.0
 10
5.240157704600008
 20
8.999997693599937
 10
5.644707383199985
 20
8.996556702099951
 10
6.058479223499986
 20
8.987992341799952
 10
6.486800757699981
 20
8.975867330399978
  0
LWPOLYLINE
  5
BBF
330
22
100
AcDbEntity
  8
1
100
AcDbPolyline
 90
        7
 70
     0
 43
0.0
 10
30.65914718660001
 20
8.8812078487
 10
30.64989457020001
 20
8.881412563399976
 10
30.64066694519998
 20
8.8820474673999
 10
30.6314470638
 20
8.883114962799936
 10
30.62228666899999
 20
8.884607843199944
 10
30.6132375033
 20
8.886518901899989
 10
30.6042823193
 20
8.888850541199985
  0
LWPOLYLINE
  5
BC8
330
22
100
AcDbEntity
  8
1
100
AcDbPolyline
 90
        8
 70
     0
 43
0.0
 10
6.486800757699981
 20
8.975867330399978
 10
7.361160601499975
 20
8.948203162799927
 10
7.805756531100016
 20
8.935309963699978
 10
8.255045133099983
 20
8.924437518599972
 10
8.70889281620002
 20
8.916312837599946
 10
9.1669463562
 20
8.911522240199985
 10
9.628758279099983
 20
8.91042155499997
 10
10.09447774300001
 20
8.913063384399947
  0
LWPOLYLINE
  5
BD2
330
22
100
AcDbEntity
  8
1
100
AcDbPolyline
 90
       21
 70
     0
 43
0.0
 10
1.821037064899996
 20
7.937156075699931
 10
2.002861279400008
 20
7.928485442299972
 10
2.217119073500001
 20
7.920043479299977
 10
2.462884970399997
 20
7.911867158499944
 10
2.739071631899989
 20
7.903992158999983
 10
3.044484633900012
 20
7.896453023899937
 10
3.377774314900008
 20
7.889282589299966
 10
3.737497563800005
 20
7.882512378899946
 10
4.122066605400007
 20
7.876171802300007
 10
4.529814228900008
 20
7.870288818699975
 10
4.958942941699987
 20
7.864888892599992
 10
5.407589897600004
 20
7.85999593409997
 10
5.873779967999993
 20
7.855631015399978
 10
6.355486568399996
 20
7.851813580199973
 10
6.850592049500008
 20
7.848559940799987
 10
7.356940906900021
 20
7.845884732899946
 10
7.872310630499995
 20
7.843799227399927
 10
8.394453954599995
 20
7.842312991299934
 10
8.921082412500012
 20
7.841432062799924
 10
9.449895844300002
 20
7.841160766299935
 10
9.978581456900016
 20
7.841499810699929
  0
LWPOLYLINE
  5
BEB
330
22
100
AcDbEntity
  8
1
100
AcDbPolyline
 90
        3
 70
     0
 43
0.0
 10
32.21341892420002
 20
8.715172192899956
 10
32.28171373550002
 20
8.705767376599965
 10
32.34266651329476
 20
8.694905992811015
  0
LINE
  5
C34
330
22
100
AcDbEntity
  8
1
100
AcDbLine
 10
33.91187523149999
 20
8.376213870799972
 30
0.0
 11
34.52685886659999
 21
8.270980998099901
 31
0.0
  0
LINE
  5
C35
330
22
100
AcDbEntity
  8
1
100
AcDbLine
 10
34.5191668268
 20
8.215981147499974
 30
0.0
 11
33.90418319180002
 21
8.321214020299919
 31
0.0
  0
LWPOLYLINE
  5
C5F
330
22
100
AcDbEntity
  8
1
100
AcDbPolyline
 90
        7
 70
     0
 43
0.0
 10
33.57452927889999
 20
5.009566880099953
 10
33.5834844354
 20
5.007235246499988
 10
33.59253358440002
 20
5.00532419039996
 10
33.6016939734
 20
5.0038313087
 10
33.61091386
 20
5.002763810399983
 10
33.62014150180001
 20
5.002128904399967
 10
33.6293941462
 20
5.001924187700012
  0
LWPOLYLINE
  5
C68
330
22
100
AcDbEntity
  8
1
100
AcDbPolyline
 90
        4
 70
     0
 43
0.0
 10
31.58244601599999
 20
5.270612790599898
 10
31.53098271800001
 20
5.284294419699961
 10
31.46507566019999
 20
5.304309033699951
 10
31.40024178079999
 20
5.32682250199997
  0
LWPOLYLINE
  5
C7C
330
22
100
AcDbEntity
  8
1
100
AcDbPolyline
 90
        8
 70
     0
 43
0.0
 10
31.61484978
 20
5.26359490989995
 10
31.48213675290002
 20
5.299333346799926
 10
31.3527380769
 20
5.345353751199979
 10
31.22751415710001
 20
5.401434796599971
 10
31.10723045300002
 20
5.46715258279994
 10
30.99263748750001
 20
5.541988640599925
 10
30.88448607010001
 20
5.625393418399994
 10
30.78340539579999
 20
5.716890637099936
  0
LINE
  5
C86
330
22
100
AcDbEntity
  8
1
100
AcDbLine
 10
33.57452928079998
 20
5.009566879599958
 30
0.0
 11
33.39638208249998
 21
5.060420044999943
 31
0.0
  0
LWPOLYLINE
  5
CB8
330
22
100
AcDbEntity
  8
1
100
AcDbPolyline
 90
        3
 70
     0
 43
0.0
 10
31.1514407184
 20
5.441664772399917
 10
31.09202414529999
 20
5.4765354516
 10
31.03400422349999
 20
5.513738644099987
  0
LWPOLYLINE
  5
D4B
330
22
100
AcDbEntity
  8
1
100
AcDbPolyline
 90
        3
 70
     0
 43
0.0
 10
31.03400422349999
 20
5.513738644099987
 10
30.97753432149999
 20
5.553174249199912
 10
30.92276052769999
 20
5.594727233299977
  0
LINE
  5
D50
330
22
100
AcDbEntity
  8
1
100
AcDbLine
 10
29.39111010639998
 20
9.345089911799959
 30
0.0
 11
29.0944208225
 21
9.568943449399966
 31
0.0
  0
LINE
  5
D51
330
22
100
AcDbEntity
  8
1
100
AcDbLine
 10
34.63745688679999
 20
4.597216716499985
 30
0.0
 11
34.920194876
 21
4.376845157599973
 31
0.0
  0
LINE
  5
D52
330
22
100
AcDbEntity
  8
1
100
AcDbLine
 10
33.9705212011
 20
5.102325265599915
 30
0.0
 11
34.58550483610002
 21
4.597153314699937
 31
0.0
  0
LWPOLYLINE
  5
D53
330
22
100
AcDbEntity
  8
1
100
AcDbPolyline
 90
        3
 70
     0
 43
0.0
 10
30.92276052769999
 20
5.594727233299977
 10
30.86980781870001
 20
5.638278718199956
 10
30.81887491899998
 20
5.68362184839998
  0
LINE
  5
D60
330
22
100
AcDbEntity
  8
1
100
AcDbLine
 10
30.0301432026
 20
8.846945319999974
 30
0.0
 11
29.443062157
 21
9.345153313699995
 31
0.0
  0
LWPOLYLINE
  5
D62
330
22
100
AcDbEntity
  8
1
100
AcDbPolyline
 90
       22
 70
     0
 43
0.0
 10
30.81887491899998
 20
5.68362184839998
 10
30.76982303359999
 20
5.730842067799926
 10
30.7226032752
 20
5.779982076699923
 10
30.67722104419998
 20
5.831055101899949
 10
30.63361266989999
 20
5.884183129599932
 10
30.5920100215
 20
5.939138413799923
 10
30.5525691943
 20
5.995738140499952
 10
30.51536427239999
 20
6.053885371199953
 10
30.48047544300001
 20
6.113458902599973
 10
30.44798575420002
 20
6.174309404499979
 10
30.41798865980001
 20
6.236230902300007
 10
30.3904622772
 20
6.299236333899955
 10
30.3654186351
 20
6.363292162899938
 10
30.3428817369
 20
6.42835020589996
 10
30.32286185100002
 20
6.494426126199982
 10
30.30544023610001
 20
6.561301278099904
 10
30.29066938819999
 20
6.628779215599934
 10
30.27856353060001
 20
6.696782209199909
 10
30.26913263470003
 20
6.765270532399938
 10
30.2624144423
 20
6.833928727499937
 10
30.25840963189999
 20
6.902436909100003
 10
30.25708165300001
 20
6.970758342999999
  0
LINE
  5
D87
330
22
100
AcDbEntity
  8
1
100
AcDbLine
 10
34.3859920261
 20
4.39694029200001
 30
0.0
 11
33.87076479610001
 21
5.002218754299974
 31
0.0
  0
LINE
  5
DAE
330
22
100
AcDbEntity
  8
1
100
AcDbLine
 10
29.64257496710001
 20
9.545366336399922
 30
0.0
 11
30.1298996076
 21
8.94705183139996
 31
0.0
  0
LINE
  5
DC6
330
22
100
AcDbEntity
  8
1
100
AcDbLine
 10
29.41364131850001
 20
9.889284285699943
 30
0.0
 11
29.64257496710001
 21
9.597437316699938
 31
0.0
  0
LINE
  5
DC7
330
22
100
AcDbEntity
  8
1
100
AcDbLine
 10
34.6009743799
 20
4.056504321299939
 30
0.0
 11
34.3859920261
 21
4.344869311600007
 31
0.0
  0
LINE
  5
DD3
330
22
100
AcDbEntity
  8
1
100
AcDbLine
 10
34.57781279639998
 20
5.498965446999989
 30
0.0
 11
34.52685886659999
 21
5.677458279799964
 31
0.0
  0
LINE
  5
DD4
330
22
100
AcDbEntity
  8
1
100
AcDbLine
 10
33.91187523149999
 20
5.577722375199982
 30
0.0
 11
33.96282916130001
 21
5.399229542299963
 31
0.0
  0
LWPOLYLINE
  5
DD5
330
22
100
AcDbEntity
  8
1
100
AcDbPolyline
 90
        7
 70
     0
 43
0.0
 10
34.5778127958
 20
5.498965448799935
 10
34.58015000790001
 20
5.489992644299945
 10
34.5820677174
 20
5.480925120099982
 10
34.5835683431
 20
5.47174559230001
 10
34.58464462940002
 20
5.462505912899985
 10
34.58528932090001
 20
5.453257933700001
 10
34.58550483610002
 20
5.443984370999942
  0
LWPOLYLINE
  5
DDE
330
22
100
AcDbEntity
  8
1
100
AcDbPolyline
 90
        7
 70
     0
 43
0.0
 10
33.9118752321
 20
5.577722373299991
 10
33.90953802
 20
5.586695177799924
 10
33.90762031040002
 20
5.595762702000001
 10
33.90611968479998
 20
5.604942229799974
 10
33.90504339850001
 20
5.614181909199942
 10
33.904398707
 20
5.623429888299938
 10
33.90418319180002
 20
5.632703451099928
  0
LINE
  5
DE7
330
22
100
AcDbEntity
  8
1
100
AcDbLine
 10
33.5410951258
 20
9.550124055799983
 30
0.0
 11
33.62939414610001
 21
8.951322583499916
 31
0.0
  0
LINE
  5
DE8
330
22
100
AcDbEntity
  8
1
100
AcDbLine
 10
33.57452928069999
 20
8.943545978399981
 30
0.0
 11
33.48623026030002
 21
9.542347450699935
 31
0.0
  0
LINE
  5
DE9
330
22
100
AcDbEntity
  8
1
100
AcDbLine
 10
33.3080830622
 20
9.491059466799924
 30
0.0
 11
33.39638208249998
 21
8.892257994499971
 31
0.0
  0
LINE
  5
DEA
330
22
100
AcDbEntity
  8
1
100
AcDbLine
 10
33.34151721710002
 20
8.884481389399979
 30
0.0
 11
33.25321819680001
 21
9.483282861699933
 31
0.0
  0
LWPOLYLINE
  5
DEB
330
22
100
AcDbEntity
  8
1
100
AcDbPolyline
 90
       11
 70
     0
 43
0.0
 10
30.0301432026
 20
5.097516463199951
 10
30.0313511824
 20
5.082158031299911
 10
30.03492355309997
 20
5.067267960499975
 10
30.04092509280001
 20
5.052599836099943
 10
30.04916146719999
 20
5.038892901999986
 10
30.0596167243
 20
5.026716950200011
 10
30.07182049520002
 20
5.016333921899956
 10
30.08548387879999
 20
5.008198700999912
 10
30.10004651979999
 20
5.002302250699926
 10
30.1147696808
 20
4.998804986099969
 10
30.1298996076
 20
4.997653435499955
  0
LWPOLYLINE
  5
DF8
330
22
100
AcDbEntity
  8
1
100
AcDbPolyline
 90
       41
 70
     0
 43
0.0
 10
30.1503496687
 20
6.972377590500002
 10
30.15605742590002
 20
6.827565858399964
 10
30.17298643880001
 20
6.684032422499967
 10
30.2012055426
 20
6.541242012199973
 10
30.24050823200001
 20
6.400800439500017
 10
30.2908788052
 20
6.263847826799974
 10
30.3518136881
 20
6.131245972099918
 10
30.42300346419999
 20
6.004004166099946
 10
30.5038499585
 20
5.882820052199974
 10
30.59383613250002
 20
5.768529459499973
 10
30.69240915990001
 20
5.66172712179997
 10
30.7990937618
 20
5.563135139499991
 10
30.91314025809997
 20
5.473207242599983
 10
31.03389654800002
 20
5.392469943299943
 10
31.16059461479999
 20
5.321426995099955
 10
31.2925417563
 20
5.260681186699912
 10
31.42885992930001
 20
5.210461924799972
 10
31.56874118969999
 20
5.171085014500022
 10
31.71128253880001
 20
5.142894048899961
 10
31.85560703169999
 20
5.126530462799962
 10
32.00082856179999
 20
5.121416536600008
 10
32.14606057360003
 20
5.127016275199991
 10
32.29042746840001
 20
5.143845939999948
 10
32.43306706780002
 20
5.17242627609994
 10
32.57305255610003
 20
5.212207836899949
 10
32.70942612340001
 20
5.262956698899927
 10
32.84141857420001
 20
5.32424703809994
 10
32.96818432470001
 20
5.395755379999968
 10
33.0889947296
 20
5.476940752899963
 10
33.20305558899999
 20
5.567341326099949
 10
33.30971798220002
 20
5.666396201399948
 10
33.40822530760001
 20
5.773650960399947
 10
33.4981064089
 20
5.888324333199932
 10
33.57881323899999
 20
6.009754672399935
 10
33.64981986830001
 20
6.137128692799933
 10
33.71049802430001
 20
6.269751852299975
 10
33.7606066888
 20
6.406606274299974
 10
33.79970022159999
 20
6.546798836599975
 10
33.82776421660002
 20
6.689260733899914
 10
33.84461535199999
 20
6.832454639399998
 10
33.85031473489998
 20
6.976892995099944
  0
LWPOLYLINE
  5
E2C
330
22
100
AcDbEntity
  8
1
100
AcDbPolyline
 90
       24
 70
     0
 43
0.0
 10
33.75729261079998
 20
6.975151185999948
 10
33.75275234109999
 20
6.853538047999961
 10
33.7377241951
 20
6.718120452299956
 10
33.71234410269999
 20
6.583839590399975
 10
33.67671959020003
 20
6.451533609399973
 10
33.6309240163
 20
6.322098255499952
 10
33.57504642439999
 20
6.196442996299936
 10
33.50933916540002
 20
6.075238116599962
 10
33.4342653769
 20
5.959357497799942
 10
33.35026908709999
 20
5.849598113599938
 10
33.2578473006
 20
5.746801681799979
 10
33.157536686
 20
5.651756438199925
 10
33.0500423498
 20
5.565039280599933
 10
32.93615364729998
 20
5.487146321399961
 10
32.8166272957
 20
5.418527495599903
 10
32.69226740239999
 20
5.359642299899917
 10
32.56375881289999
 20
5.310845044699988
 10
32.43189253569999
 20
5.272324594899941
 10
32.29746103630002
 20
5.244203686699904
 10
32.16125267950001
 20
5.226618888799919
 10
32.0240720908
 20
5.219721125499972
 10
31.88669060770001
 20
5.223639148099948
 10
31.74999919190002
 20
5.238310603099932
 10
31.61484978
 20
5.26359490989995
  0
LINE
  5
E46
330
22
100
AcDbEntity
  8
1
100
AcDbLine
 10
33.6293941462
 20
5.001924187700012
 30
0.0
 11
33.54109512569998
 21
4.395909187299992
 31
0.0
  0
LINE
  5
E47
330
22
100
AcDbEntity
  8
1
100
AcDbLine
 10
33.48623026030002
 20
4.403551879299925
 30
0.0
 11
33.57452928079998
 21
5.009566879599958
 31
0.0
  0
LINE
  5
E48
330
22
100
AcDbEntity
  8
1
100
AcDbLine
 10
33.39638208249998
 20
5.060420044999943
 30
0.0
 11
33.3080830622
 21
4.454405044599923
 31
0.0
  0
LINE
  5
E49
330
22
100
AcDbEntity
  8
1
100
AcDbLine
 10
33.25321819669999
 20
4.46204773659997
 30
0.0
 11
33.34151721710002
 21
5.068062736899946
 31
0.0
  0
LWPOLYLINE
  5
E4A
330
22
100
AcDbEntity
  8
1
100
AcDbPolyline
 90
        7
 70
     0
 43
0.0
 10
34.52685886659999
 20
8.270980998099901
 10
34.5245216549
 20
8.262002490599911
 10
34.52260394559998
 20
8.252930286799937
 10
34.52110332
 20
8.243747096599975
 10
34.52002703370001
 20
8.234504789799984
 10
34.5193823421
 20
8.22525523609994
 10
34.5191668268
 20
8.215981145599926
  0
LWPOLYLINE
  5
E53
330
22
100
AcDbEntity
  8
1
100
AcDbPolyline
 90
        7
 70
     0
 43
0.0
 10
33.96282916080001
 20
8.55483106929995
 10
33.9651663728
 20
8.563809578499956
 10
33.96708408239998
 20
8.572881783299976
 10
33.96858470810001
 20
8.582064973899946
 10
33.9696609944
 20
8.591307280299929
 10
33.97030568590002
 20
8.600556832999984
 10
33.9705212011
 20
8.609830921799925
  0
LINE
  5
E5C
330
22
100
AcDbEntity
  8
1
100
AcDbLine
 10
34.52685886659999
 20
8.270980998099901
 30
0.0
 11
34.57781279639998
 21
8.449598198299952
 31
0.0
  0
LINE
  5
E5D
330
22
100
AcDbEntity
  8
1
100
AcDbLine
 10
33.9628291614
 20
8.554831071199998
 30
0.0
 11
33.91187523149999
 21
8.376213870799972
 31
0.0
  0
LWPOLYLINE
  5
E5E
330
22
100
AcDbEntity
  8
1
100
AcDbPolyline
 90
        7
 70
     0
 43
0.0
 10
30.6042823193
 20
5.057012590599924
 10
30.61323747580001
 20
5.059366081799964
 10
30.6222866248
 20
5.06129922499997
 10
30.63144701380001
 20
5.062814465200005
 10
30.64066690040001
 20
5.063904467199961
 10
30.6498945421
 20
5.064561895899998
 10
30.65914718660001
 20
5.064789196299898
  0
LWPOLYLINE
  5
E67
330
22
100
AcDbEntity
  8
1
100
AcDbPolyline
 90
        7
 70
     0
 43
0.0
 10
30.54233673460003
 20
4.399959178199935
 10
30.53338157820001
 20
4.397605687000009
 10
30.52433242919999
 20
4.395672543799946
 10
30.5151720402
 20
4.394157303699955
 10
30.50595215360001
 20
4.393067301699943
 10
30.4967245118
 20
4.392409872999962
 10
30.48747186729999
 20
4.392182572499962
  0
LINE
  5
E78
330
22
100
AcDbEntity
  8
1
100
AcDbLine
 10
33.90418319180002
 20
5.632703451099928
 30
0.0
 11
34.5191668268
 21
5.732439355699966
 31
0.0
  0
LINE
  5
E79
330
22
100
AcDbEntity
  8
1
100
AcDbLine
 10
34.52685886659999
 20
5.677458279799964
 30
0.0
 11
33.91187523149999
 21
5.577722375199982
 31
0.0
  0
LINE
  5
E7A
330
22
100
AcDbEntity
  8
1
100
AcDbLine
 10
33.96282916130001
 20
5.399229542299963
 30
0.0
 11
34.57781279639998
 21
5.498965446999989
 31
0.0
  0
LINE
  5
E7B
330
22
100
AcDbEntity
  8
1
100
AcDbLine
 10
34.58550483610002
 20
5.443984370999942
 30
0.0
 11
33.9705212011
 21
5.34424846639996
 31
0.0
  0
LWPOLYLINE
  5
E7C
330
22
100
AcDbEntity
  8
1
100
AcDbPolyline
 90
       11
 70
     0
 43
0.0
 10
33.87076479610001
 20
5.002218754299974
 10
33.88608962030001
 20
5.003448201699939
 10
33.90095003200001
 20
5.007046885899967
 10
33.91559196210001
 20
5.013080033299956
 10
33.92927761829999
 20
5.021351964399968
 10
33.94143849059999
 20
5.031845997000004
 10
33.95181266350001
 20
5.044090365599913
 10
33.9599459402
 20
5.057794953399991
 10
33.9658466545
 20
5.072398132700016
 10
33.9693538584
 20
5.087159278499939
 10
33.9705212011
 20
5.102325265599915
  0
LWPOLYLINE
  5
E96
330
22
100
AcDbEntity
  8
1
100
AcDbPolyline
 90
       15
 70
     0
 43
0.0
 10
34.3859920261
 20
4.344869311600007
 10
34.41344281160001
 20
4.346466824999936
 10
34.44054445959999
 20
4.351118942099958
 10
34.4674675868
 20
4.35883694249992
 10
34.49370034259998
 20
4.36958698799998
 10
34.51899560079998
 20
4.383429205299933
 10
34.54272980389998
 20
4.400092980099941
 10
34.56425182809998
 20
4.41944877919991
 10
34.58339724620002
 20
4.441133486199987
 10
34.5998209042
 20
4.464959729699955
 10
34.61341385749999
 20
4.490270741399967
 10
34.62392447159998
 20
4.516424438299964
 10
34.63143566239999
 20
4.543189393700004
 10
34.63594634709999
 20
4.570064471299929
 10
34.63745688679999
 20
4.597216716499985
  0
LWPOLYLINE
  5
EA7
330
22
100
AcDbEntity
  8
1
100
AcDbPolyline
 90
       15
 70
     0
 43
0.0
 10
34.6009743799
 20
3.976516505699919
 10
34.64453341509999
 20
3.97905144729998
 10
34.68753843720002
 20
3.986433448699983
 10
34.73026018180001
 20
3.998680407799952
 10
34.77188644159999
 20
4.015738630499981
 10
34.8120250759
 20
4.03770352579994
 10
34.8496866206
 20
4.064145681799971
 10
34.8838378697
 20
4.094859554499976
 10
34.91421790880001
 20
4.129268949199911
 10
34.94027904630001
 20
4.167076544099984
 10
34.9618484084
 20
4.207240176299933
 10
34.97852670019999
 20
4.248740985200015
 10
34.99044549290001
 20
4.291211741799941
 10
34.99760306860002
 20
4.333857240999918
 10
34.99999999999999
 20
4.376942551099944
  0
LWPOLYLINE
  5
EB8
330
22
100
AcDbEntity
  8
1
100
AcDbPolyline
 90
        7
 70
     0
 43
0.0
 10
30.37127025559998
 20
4.997948002099917
 10
30.3805228737
 20
4.998175300499951
 10
30.38975049970002
 20
4.998832727199953
 10
30.39897038139999
 20
4.999922726299928
 10
30.40813077590001
 20
5.001437965200011
 10
30.41717994060001
 20
5.003371110699958
 10
30.42613512289999
 20
5.00572460730001
  0
LWPOLYLINE
  5
EC1
330
22
100
AcDbEntity
  8
1
100
AcDbPolyline
 90
        7
 70
     0
 43
0.0
 10
30.7753487984
 20
4.459023766699942
 10
30.76609618030001
 20
4.458796468299965
 10
30.75686855420001
 20
4.458139041699951
 10
30.74764867250001
 20
4.457049042499932
 10
30.73848827800002
 20
4.45553380369995
 10
30.72943911340001
 20
4.453600658099901
 10
30.72048393100001
 20
4.451247161600008
  0
LINE
  5
ECA
330
22
100
AcDbEntity
  8
1
100
AcDbLine
 10
15.35021410529999
 20
3.016715362899958
 30
0.0
 11
15.09743231930001
 21
3.012285595499974
 31
0.0
  0
LINE
  5
ECB
330
22
100
AcDbEntity
  8
1
100
AcDbLine
 10
15.42984121729999
 20
3.017643358999976
 30
0.0
 11
15.35021410529999
 21
3.016715362899958
 31
0.0
  0
LINE
  5
ECC
330
22
100
AcDbEntity
  8
1
100
AcDbLine
 10
15.09743231930001
 20
3.012285595499974
 30
0.0
 11
15.01431970119999
 21
3.01133411950002
 31
0.0
  0
LINE
  5
ECD
330
22
100
AcDbEntity
  8
1
100
AcDbLine
 10
15.01431970119999
 20
3.01133411950002
 30
0.0
 11
14.92260129409998
 21
3.010697667099918
 31
0.0
  0
LINE
  5
ECE
330
22
100
AcDbEntity
  8
1
100
AcDbLine
 10
15.5524670992
 20
3.018441477999999
 30
0.0
 11
15.42984121729999
 21
3.017643358999976
 31
0.0
  0
LINE
  5
ECF
330
22
100
AcDbEntity
  8
1
100
AcDbLine
 10
14.92260129409998
 20
3.010697667099918
 30
0.0
 11
14.8257887836
 21
3.010402674299939
 31
0.0
  0
LINE
  5
ED0
330
22
100
AcDbEntity
  8
1
100
AcDbLine
 10
33.34151721710002
 20
5.068062736899946
 30
0.0
 11
30.65914718660001
 21
5.064789196299898
 31
0.0
  0
LINE
  5
ED1
330
22
100
AcDbEntity
  8
1
100
AcDbLine
 10
33.87076479610001
 20
5.002218754299974
 30
0.0
 11
33.6293941462
 21
5.001924187700012
 31
0.0
  0
LINE
  5
ED2
330
22
100
AcDbEntity
  8
1
100
AcDbLine
 10
30.3712702575
 20
4.997948002099917
 30
0.0
 11
30.1298996076
 21
4.997653435499955
 31
0.0
  0
LINE
  5
ED3
330
22
100
AcDbEntity
  8
1
100
AcDbLine
 10
30.7753487964
 20
4.459023766699942
 30
0.0
 11
33.25321819669999
 21
4.46204773659997
 31
0.0
  0
LINE
  5
ED4
330
22
100
AcDbEntity
  8
1
100
AcDbLine
 10
29.64257496710001
 20
4.391151467799943
 30
0.0
 11
30.4874718674
 21
4.392182572499962
 31
0.0
  0
LINE
  5
ED5
330
22
100
AcDbEntity
  8
1
100
AcDbLine
 10
33.54109512569998
 20
4.395909187299992
 30
0.0
 11
34.3859920261
 21
4.39694029200001
 31
0.0
  0
LINE
  5
ED6
330
22
100
AcDbEntity
  8
1
100
AcDbLine
 10
34.3859920261
 20
4.344869311600007
 30
0.0
 11
29.64257496710001
 21
4.339080487499927
 31
0.0
  0
LINE
  5
ED7
330
22
100
AcDbEntity
  8
1
100
AcDbLine
 10
29.41364131850001
 20
4.050173745999927
 30
0.0
 11
34.6009743799
 21
4.056504321299939
 31
0.0
  0
LINE
  5
ED8
330
22
100
AcDbEntity
  8
1
100
AcDbLine
 10
34.6009743799
 20
3.976516505699919
 30
0.0
 11
29.41364131850001
 21
3.970185930399964
 31
0.0
  0
LINE
  5
ED9
330
22
100
AcDbEntity
  8
1
100
AcDbLine
 10
34.46111062530001
 20
3.972535731699906
 30
0.0
 11
30.30037412540001
 21
3.967458005699938
 31
0.0
  0
LINE
  5
EDA
330
22
100
AcDbEntity
  8
1
100
AcDbLine
 10
34.46111062530001
 20
3.672017752799945
 30
0.0
 11
29.62551243239999
 21
3.666256418699958
 31
0.0
  0
LINE
  5
EDB
330
22
100
AcDbEntity
  8
1
100
AcDbLine
 10
29.63518159559998
 20
3.666330214199945
 30
0.0
 11
12.26015681170001
 21
3.644927837099942
 31
0.0
  0
LINE
  5
EDC
330
22
100
AcDbEntity
  8
SK1
100
AcDbLine
 10
-2.000000000000014
 20
5.249999999999943
 30
0.0
 11
-5.900000000000019
 21
5.249999999999943
 31
0.0
  0
LINE
  5
EDD
330
22
100
AcDbEntity
  8
SK1
100
AcDbLine
 10
-0.2999999999999971
 20
5.049999999999954
 30
0.0
 11
-1.200928839499994
 21
5.049999999999954
 31
0.0
  0
LINE
  5
EDE
330
22
100
AcDbEntity
  8
SK1
100
AcDbLine
 10
-10.00000000000001
 20
4.999999999999943
 30
0.0
 11
-18.80000000000002
 21
4.999999999999943
 31
0.0
  0
LINE
  5
EDF
330
22
100
AcDbEntity
  8
SK1
100
AcDbLine
 10
-19.55000000000002
 20
4.249999999999943
 30
0.0
 11
-9.250000000000014
 21
4.249999999999943
 31
0.0
  0
LINE
  5
EE0
330
22
100
AcDbEntity
  8
SK1
100
AcDbLine
 10
-7.100000000000008
 20
3.974999999999965
 30
0.0
 11
-8.643629150100011
 21
3.974999999999965
 31
0.0
  0
LINE
  5
EE1
330
22
100
AcDbEntity
  8
1
100
AcDbLine
 10
33.96111062530001
 20
3.018644084799973
 30
0.0
 11
15.5524670992
 21
3.018441477999999
 31
0.0
  0
LINE
  5
EE2
330
22
100
AcDbEntity
  8
1
100
AcDbLine
 10
14.8257887836
 20
3.010402674299939
 30
0.0
 11
6.102121928000016
 21
3.010382609699945
 31
0.0
  0
LINE
  5
EE3
330
22
100
AcDbEntity
  8
1
100
AcDbLine
 10
34.0720581316
 20
3.018415811099941
 30
0.0
 11
33.96111062530001
 21
3.018644084799973
 31
0.0
  0
LINE
  5
EE4
330
22
100
AcDbEntity
  8
1
100
AcDbLine
 10
34.1765565082
 20
3.017750240099985
 30
0.0
 11
34.0720581316
 21
3.018415811099941
 31
0.0
  0
LINE
  5
EE5
330
22
100
AcDbEntity
  8
1
100
AcDbLine
 10
34.27048164040001
 20
3.016679807599984
 30
0.0
 11
34.1765565082
 21
3.017750240099985
 31
0.0
  0
LWPOLYLINE
  5
EE6
330
22
100
AcDbEntity
  8
1
100
AcDbPolyline
 90
        7
 70
     0
 43
0.0
 10
33.34151721710002
 20
5.068062736899946
 10
33.3507698335
 20
5.067858022299958
 10
33.35999745849999
 20
5.067223118299978
 10
33.36921733979999
 20
5.066155622899941
 10
33.37837773470001
 20
5.064662742499933
 10
33.38742690029999
 20
5.062751683799945
 10
33.3963820844
 20
5.060420044500006
  0
LWPOLYLINE
  5
EEF
330
22
100
AcDbEntity
  8
1
100
AcDbPolyline
 90
        7
 70
     0
 43
0.0
 10
33.54109512770002
 20
4.395909187299992
 10
33.53184250960003
 20
4.396113902099955
 10
33.5226148835
 20
4.396748806099935
 10
33.51339500190001
 20
4.397816301599959
 10
33.5042346074
 20
4.39930918189998
 10
33.49518544269999
 20
4.401220240399936
 10
33.48623026040001
 20
4.403551879299925
  0
LWPOLYLINE
  5
EF8
330
22
100
AcDbEntity
  8
1
100
AcDbPolyline
 90
       15
 70
     0
 43
0.0
 10
29.41364131850001
 20
4.050173745999927
 10
29.37879409029999
 20
4.05211664479998
 10
29.34439007270002
 20
4.057938273099921
 10
29.31021267700002
 20
4.067652420900003
 10
29.27691166920001
 20
4.081217718499942
 10
29.2448007618
 20
4.098711258999969
 10
29.21467152590002
 20
4.119791444899931
 10
29.1873505267
 20
4.144295858499958
 10
29.1630464954
 20
4.171764053400011
 10
29.14219758540001
 20
4.20195924169991
 10
29.12494209570001
 20
4.234048030499991
 10
29.11159946229999
 20
4.267216111199957
 10
29.10206442809998
 20
4.301169443499929
 10
29.0963383675
 20
4.335271866799928
 10
29.0944208225
 20
4.369735434599931
  0
LWPOLYLINE
  5
F09
330
22
100
AcDbEntity
  8
1
100
AcDbPolyline
 90
        4
 70
     0
 43
0.0
 10
29.63518159559998
 20
3.666330214199945
 10
29.5340529663
 20
3.672139364899919
 10
29.43619385690001
 20
3.68829707539993
 10
29.41347632499999
 20
3.693651116099943
  0
LWPOLYLINE
  5
F0F
330
22
100
AcDbEntity
  8
1
100
AcDbPolyline
 90
       13
 70
     0
 43
0.0
 10
29.64257496710001
 20
4.391151467799943
 10
29.61712278259999
 20
4.392802149599958
 10
29.59213858259999
 20
4.397758559899955
 10
29.56735830249998
 20
4.406064414699983
 10
29.5435741365
 20
4.417588566099936
 10
29.52130719559999
 20
4.432342031600001
 10
29.5011066654
 20
4.449942031399928
 10
29.48365538030002
 20
4.470241779199909
 10
29.46907350489998
 20
4.492544311499955
 10
29.45772153310001
 20
4.516272482700003
 10
29.449561312
 20
4.540920052599972
 10
29.44468510479998
 20
4.565701071799935
 10
29.443062157
 20
4.590877523199935
  0
LINE
  5
F1E
330
22
100
AcDbEntity
  8
1
100
AcDbLine
 10
29.50940016639997
 20
5.726325480900015
 30
0.0
 11
30.09648121190001
 21
5.628056565399958
 31
0.0
  0
LINE
  5
F1F
330
22
100
AcDbEntity
  8
1
100
AcDbLine
 10
30.08878917220001
 20
5.573056714799974
 30
0.0
 11
29.50170812660001
 21
5.671325630299918
 31
0.0
  0
LINE
  5
F20
330
22
100
AcDbEntity
  8
1
100
AcDbLine
 10
29.45075419679999
 20
5.49270843009998
 30
0.0
 11
30.03783524229998
 21
5.394439514399948
 31
0.0
  0
LINE
  5
F21
330
22
100
AcDbEntity
  8
1
100
AcDbLine
 10
30.0301432026
 20
5.339439663899952
 30
0.0
 11
29.443062157
 21
5.437708579499997
 31
0.0
  0
LWPOLYLINE
  5
F4C
330
22
100
AcDbEntity
  8
1
100
AcDbPolyline
 90
        7
 70
     0
 43
0.0
 10
33.3080830622
 20
4.454405044599923
 10
33.29912790740001
 20
4.456736677799938
 10
33.2900787594
 20
4.458647733799921
 10
33.28091837070001
 20
4.46014061539995
 10
33.27169848380002
 20
4.461208113699967
 10
33.262470841
 20
4.461843019799971
 10
33.2532181948
 20
4.46204773659997
  0
LINE
  5
F55
330
22
100
AcDbEntity
  8
1
100
AcDbLine
 10
33.3080830622
 20
4.454405044599923
 30
0.0
 11
33.48623026030002
 21
4.403551879299925
 31
0.0
  0
LWPOLYLINE
  5
F56
330
22
100
AcDbEntity
  8
1
100
AcDbPolyline
 90
       21
 70
     0
 43
0.0
 10
29.41347632499999
 20
3.693651116099943
 10
29.34128105940001
 20
3.714951513499954
 10
29.2502841979
 20
3.751658176099965
 10
29.16367122389998
 20
3.798279079399947
 10
29.08262394630002
 20
3.854042833699963
 10
29.00822453030001
 20
3.918438392599966
 10
28.94123985790002
 20
3.990546742899937
 10
28.88261451480001
 20
4.069633325499978
 10
28.8328975548
 20
4.154633732799936
 10
28.79285128510002
 20
4.244624975199997
 10
28.7627805312
 20
4.338448240599916
 10
28.7432288724
 20
4.43503630579994
 10
28.73424235509999
 20
4.533191414999976
 10
28.73611985289999
 20
4.631753200099979
 10
28.7486464643
 20
4.729542275599897
 10
28.77186209080001
 20
4.825360663299989
 10
28.80530119720003
 20
4.918103774199948
 10
28.848742839
 20
5.006593345299961
 10
28.90149314599999
 20
5.089852420099987
 10
28.96268865979998
 20
5.166340073799915
 10
29.0146156984
 20
5.218490875200018
  0
LWPOLYLINE
  5
F6D
330
22
100
AcDbEntity
  8
1
100
AcDbPolyline
 90
        8
 70
     0
 43
0.0
 10
34.46111062530001
 20
3.009461926399922
 10
34.4578314843
 20
3.010510613899953
 10
34.44828911550001
 20
3.011532727099961
 10
34.432335662
 20
3.012535306099948
 10
34.41041469460002
 20
3.013497230699954
 10
34.38272744800001
 20
3.014402982099966
 10
34.34985307470002
 20
3.015242796899997
 10
34.27048164040001
 20
3.016679807599984
  0
LINE
  5
F77
330
22
100
AcDbEntity
  8
1
100
AcDbLine
 10
29.47562651290001
 20
3.684517224899934
 30
0.0
 11
29.3767628925
 21
3.728993473099933
 31
0.0
  0
LWPOLYLINE
  5
F78
330
22
100
AcDbEntity
  8
1
100
AcDbPolyline
 90
       15
 70
     0
 43
0.0
 10
29.3767628925
 20
3.728993473099933
 10
29.28398172139999
 20
3.785096739499977
 10
29.19863748370001
 20
3.852008454799999
 10
29.1219756515
 20
3.928752245799955
 10
29.05511336739998
 20
4.014209423199929
 10
28.9990252944
 20
4.107134290200008
 10
28.95452963059999
 20
4.206171537700015
 10
28.9222753243
 20
4.309876773899929
 10
28.90273266120001
 20
4.416737830599913
 10
28.8961866124
 20
4.525196469299942
 10
28.9027326443
 20
4.633671085900004
 10
28.92227529380001
 20
4.740579842099919
 10
28.9545295935
 20
4.844363806199964
 10
28.99902526660002
 20
4.943509657399943
 10
29.0146156984
 20
4.969377417299995
  0
LINE
  5
FA2
330
22
100
AcDbEntity
  8
1
100
AcDbLine
 10
30.08878917220001
 20
8.371548210499952
 30
0.0
 11
30.03783524229998
 21
8.550041043399971
 31
0.0
  0
LINE
  5
FA3
330
22
100
AcDbEntity
  8
1
100
AcDbLine
 10
29.45075419679999
 20
8.443341181399944
 30
0.0
 11
29.50170812660001
 21
8.264848348599969
 31
0.0
  0
LWPOLYLINE
  5
FA4
330
22
100
AcDbEntity
  8
1
100
AcDbPolyline
 90
        7
 70
     0
 43
0.0
 10
30.0887891716
 20
8.371548212399943
 10
30.09112638359999
 20
8.362575407899953
 10
30.09304409319999
 20
8.35350788369999
 10
30.0945447189
 20
8.344328355899961
 10
30.09562100520002
 20
8.335088676399948
 10
30.0962656967
 20
8.325840697300009
 10
30.09648121190001
 20
8.316567134500019
  0
LWPOLYLINE
  5
FAD
330
22
100
AcDbEntity
  8
1
100
AcDbPolyline
 90
        7
 70
     0
 43
0.0
 10
29.45075419729999
 20
8.44334117959994
 10
29.4484169853
 20
8.452313984099987
 10
29.44649927569999
 20
8.461381508199963
 10
29.4449986501
 20
8.470561036099979
 10
29.44392236380002
 20
8.479800715500005
 10
29.4432776723
 20
8.489048694599944
 10
29.443062157
 20
8.498322257399934
  0
LINE
  5
FB6
330
22
100
AcDbEntity
  8
1
100
AcDbLine
 10
30.65914718660001
 20
5.064789196299898
 30
0.0
 11
30.7753487964
 21
4.459023766699942
 31
0.0
  0
LINE
  5
FB7
330
22
100
AcDbEntity
  8
1
100
AcDbLine
 10
30.72048393100001
 20
4.451247161600008
 30
0.0
 11
30.60428232119999
 21
5.057012591199963
 31
0.0
  0
LINE
  5
FB8
330
22
100
AcDbEntity
  8
1
100
AcDbLine
 10
30.42613512289999
 20
5.00572460730001
 30
0.0
 11
30.54233673280002
 21
4.399959177699997
 31
0.0
  0
LINE
  5
FB9
330
22
100
AcDbEntity
  8
1
100
AcDbLine
 10
30.4874718674
 20
4.392182572499962
 30
0.0
 11
30.3712702575
 21
4.997948002099917
 31
0.0
  0
LWPOLYLINE
  5
FBA
330
22
100
AcDbEntity
  8
1
100
AcDbPolyline
 90
       15
 70
     0
 43
0.0
 10
29.39111010639998
 20
4.590814121399944
 10
29.39267054680001
 20
4.563302399199926
 10
29.39727903949999
 20
4.536144333799938
 10
29.40494663029999
 20
4.509168930999919
 10
29.41564018180002
 20
4.482889172999989
 10
29.42941998389999
 20
4.45755282509998
 10
29.44601679989999
 20
4.433784543799902
 10
29.4653021852
 20
4.412236786499988
 10
29.48691405290002
 20
4.393073915299908
 10
29.51066587989997
 20
4.37664164649999
 10
29.5359025307
 20
4.36304837450001
 10
29.561983695
 20
4.352545528400014
 10
29.5886783737
 20
4.345049720799977
 10
29.61548657659999
 20
4.340561426600004
 10
29.64257496710001
 20
4.339080487499927
  0
LWPOLYLINE
  5
FCB
330
22
100
AcDbEntity
  8
1
100
AcDbPolyline
 90
       15
 70
     0
 43
0.0
 10
29.0146156984
 20
4.36963804109996
 10
29.01709181260001
 20
4.325982311399968
 10
29.02440459040001
 20
4.282887765799955
 10
29.03657155950002
 20
4.2400830702
 10
29.05354013700002
 20
4.19838222689998
 10
29.07540599169998
 20
4.158178391299941
 10
29.10174189720003
 20
4.120462770999949
 10
29.13234403700001
 20
4.086270688799913
 10
29.16663785000002
 20
4.055862954899907
 10
29.20432736050002
 20
4.029788153599952
 10
29.24437299629999
 20
4.008218285899999
 10
29.28575870999999
 20
3.991552320499977
 10
29.32811795139999
 20
3.979657937899958
 10
29.37065733350001
 20
3.972535891599989
 10
29.41364131850001
 20
3.970185930399964
  0
LWPOLYLINE
  5
FDC
330
22
100
AcDbEntity
  8
1
100
AcDbPolyline
 90
        7
 70
     0
 43
0.0
 10
30.0301432026
 20
8.605022121199965
 10
30.03035871579998
 20
8.595748584899922
 10
30.03100340529999
 20
8.586500621499965
 10
30.03207968880001
 20
8.577260947000013
 10
30.03358031309999
 20
8.568081413599941
 10
30.035498025
 20
8.559013873799926
 10
30.03783524229998
 20
8.550041043299984
  0
LWPOLYLINE
  5
FE5
330
22
100
AcDbEntity
  8
1
100
AcDbPolyline
 90
        7
 70
     0
 43
0.0
 10
29.50940016639997
 20
8.20986727069993
 10
29.5091846532
 20
8.219140807099961
 10
29.50853996369999
 20
8.228388770499975
 10
29.50746368020002
 20
8.237628444999927
 10
29.50596305589998
 20
8.246807978299955
 10
29.50404534389999
 20
8.255875518199957
 10
29.50170812660001
 20
8.264848348599969
  0
LINE
  5
FEE
330
22
100
AcDbEntity
  8
1
100
AcDbLine
 10
30.09648121190001
 20
5.628056565399958
 30
0.0
 11
30.09648121190001
 21
8.316567134500019
 31
0.0
  0
LINE
  5
FEF
330
22
100
AcDbEntity
  8
1
100
AcDbLine
 10
30.0301432026
 20
5.097516463199951
 30
0.0
 11
30.0301432026
 21
5.339439663899952
 31
0.0
  0
LINE
  5
FF0
330
22
100
AcDbEntity
  8
1
100
AcDbLine
 10
30.0301432026
 20
8.605022119299974
 30
0.0
 11
30.0301432026
 21
8.846945319999974
 31
0.0
  0
LINE
  5
FF1
330
22
100
AcDbEntity
  8
1
100
AcDbLine
 10
29.50940016639997
 20
8.209867272699966
 30
0.0
 11
29.50940016639997
 21
5.726325480900015
 31
0.0
  0
LINE
  5
FF2
330
22
100
AcDbEntity
  8
1
100
AcDbLine
 10
29.443062157
 20
9.345153313699995
 30
0.0
 11
29.443062157
 21
8.498322257399934
 31
0.0
  0
LINE
  5
FF3
330
22
100
AcDbEntity
  8
1
100
AcDbLine
 10
29.443062157
 20
5.437708579499997
 30
0.0
 11
29.443062157
 21
4.590877523199935
 31
0.0
  0
LINE
  5
FF4
330
22
100
AcDbEntity
  8
1
100
AcDbLine
 10
29.39111010639998
 20
4.590814121399944
 30
0.0
 11
29.39111010639998
 21
9.345089911799959
 31
0.0
  0
LINE
  5
FF5
330
22
100
AcDbEntity
  8
1
100
AcDbLine
 10
29.0944208225
 20
9.568943449399966
 30
0.0
 11
29.0944208225
 21
4.369735434599931
 31
0.0
  0
LINE
  5
FF6
330
22
100
AcDbEntity
  8
1
100
AcDbLine
 10
29.0146156984
 20
4.36963804109996
 30
0.0
 11
29.0146156984
 21
9.568846055899996
 31
0.0
  0
LINE
  5
FF7
330
22
100
AcDbEntity
  8
1
100
AcDbLine
 10
29.0146156984
 20
-9.450000000000045
 30
0.0
 11
29.0146156984
 21
-9.561899723800024
 31
0.0
  0
LWPOLYLINE
  5
FF8
330
22
100
AcDbEntity
  8
1
100
AcDbPolyline
 90
       44
 70
     0
 43
0.0
 10
30.25708165300001
 20
6.970758364999937
 10
30.25840963399999
 20
7.039083070900005
 10
30.26241444790001
 20
7.107601045799981
 10
30.2691326434
 20
7.176275641499955
 10
30.27856354179998
 20
7.24478698029992
 10
30.29066940220001
 20
7.312819521099982
 10
30.30544025280001
 20
7.380333510399964
 10
30.3228618703
 20
7.447251183599973
 10
30.34288175889999
 20
7.513375967299964
 10
30.36541866029999
 20
7.578489018599952
 10
30.39046230590002
 20
7.642605974699961
 10
30.4179886923
 20
7.705678593199934
 10
30.44798579030003
 20
7.767673307799952
 10
30.48047548200002
 20
7.828603108699951
 10
30.515364314
 20
7.888261794399966
 10
30.55256923860002
 20
7.946499832699998
 10
30.59201006829999
 20
8.003195823999988
 10
30.63361271860002
 20
8.058252648499944
 10
30.6772210942
 20
8.111487111600013
 10
30.7226033262
 20
8.162670901599994
 10
30.76982308560001
 20
8.211926160399968
 10
30.81887497220002
 20
8.259266101999969
 10
30.86980787340001
 20
8.304733545999908
 10
30.92276058430001
 20
8.348414274699962
 10
30.97753438
 20
8.390100947599989
 10
31.0340042838
 20
8.429674381199959
 10
31.09202420749999
 20
8.467019185599951
 10
31.15144078300001
 20
8.502034885799957
 10
31.21209488890001
 20
8.534636271699923
 10
31.27373626149999
 20
8.564713247199961
 10
31.33644333710002
 20
8.592325638799934
 10
31.4002418628
 20
8.617484419499987
 10
31.46507574529998
 20
8.640156130499974
 10
31.5309828045
 20
8.66033160609993
 10
31.59771356520001
 20
8.677913671699911
 10
31.66504220590001
 20
8.692839820499955
 10
31.73290205159999
 20
8.705097625799965
 10
31.80119686339999
 20
8.714669131399944
 10
31.86978411930001
 20
8.721535449800001
 10
31.93850599130001
 20
8.725687092899931
 10
32.00730789409998
 20
8.727126987599945
 10
32.07610979669998
 20
8.725855019899938
 10
32.1448316685
 20
8.721871108299978
 10
32.21341892420002
 20
8.715172192899956
  0
LWPOLYLINE
  5
1026
330
22
100
AcDbEntity
  8
1
100
AcDbPolyline
 90
        7
 70
     0
 43
0.0
 10
30.09648121190001
 20
5.628056565299914
 10
30.09626569880003
 20
5.618782504699936
 10
30.09562100930002
 20
5.609532968799896
 10
30.09454472589998
 20
5.600290667599949
 10
30.09304410150001
 20
5.591107471299892
 10
30.09112638930002
 20
5.58203524969997
 10
30.0887891716
 20
5.573056712899983
  0
LWPOLYLINE
  5
102F
330
22
100
AcDbEntity
  8
1
100
AcDbPolyline
 90
        7
 70
     0
 43
0.0
 10
29.443062157
 20
5.437708577599948
 10
29.44327767029999
 20
5.44698263999993
 10
29.44392235970001
 20
5.456232176899959
 10
29.44499864319998
 20
5.465474478399983
 10
29.44649926750002
 20
5.474657674399963
 10
29.44841697950001
 20
5.483729894999953
 10
29.45075419679999
 20
5.49270843009998
  0
LWPOLYLINE
  5
1050
330
22
100
AcDbEntity
  8
1
100
AcDbPolyline
 90
       15
 70
     0
 43
0.0
 10
29.0944208225
 20
9.568943449399966
 10
29.09640171380001
 20
9.603872868099927
 10
29.10225193609999
 20
9.63836278369996
 10
29.11198551130001
 20
9.672630297699981
 10
29.12556037329999
 20
9.706024105599908
 10
29.14305305710001
 20
9.738229869899953
 10
29.16412178149999
 20
9.768453790299929
 10
29.1886034933
 20
9.795867210599908
 10
29.21603854370001
 20
9.820260360699933
 10
29.24619015210003
 20
9.841193795299943
 10
29.27822666069999
 20
9.858527883599947
 10
29.3113352317
 20
9.871941466699922
 10
29.34522262479998
 20
9.881539684599943
 10
29.37925413050003
 20
9.887320385099997
 10
29.41364131850001
 20
9.889284285699943
  0
LWPOLYLINE
  5
1061
330
22
100
AcDbEntity
  8
1
100
AcDbPolyline
 90
       13
 70
     0
 43
0.0
 10
29.443062157
 20
9.345153313699995
 10
29.44474005940002
 20
9.370665811599963
 10
29.4497155701
 20
9.395713277999959
 10
29.45803262690002
 20
9.42056043569994
 10
29.4695594169
 20
9.444413116099951
 10
29.48430629790001
 20
9.466749027899936
 10
29.5018906957
 20
9.487017261499943
 10
29.52216532780001
 20
9.504533239399961
 10
29.5444346762
 20
9.519175673199924
 10
29.5681224746
 20
9.530582540599937
 10
29.59272368559998
 20
9.538791465399981
 10
29.61745404240001
 20
9.543709015999922
 10
29.64257496710001
 20
9.545366336399922
  0
LINE
  5
1070
330
22
100
AcDbEntity
  8
1
100
AcDbLine
 10
30.77534879649999
 20
9.480258891799962
 30
0.0
 11
30.65914718660001
 21
8.8812078487
 31
0.0
  0
LINE
  5
1071
330
22
100
AcDbEntity
  8
1
100
AcDbLine
 10
30.60428232119999
 20
8.888850540699934
 30
0.0
 11
30.72048393100001
 21
9.487901583699965
 31
0.0
  0
LINE
  5
1072
330
22
100
AcDbEntity
  8
1
100
AcDbLine
 10
30.54233673280002
 20
9.538754749100007
 30
0.0
 11
30.42613512289999
 21
8.939703706099976
 31
0.0
  0
LINE
  5
1073
330
22
100
AcDbEntity
  8
1
100
AcDbLine
 10
30.37127025739998
 20
8.947346397999979
 30
0.0
 11
30.4874718674
 21
9.546397441099941
 31
0.0
  0
LWPOLYLINE
  5
1074
330
22
100
AcDbEntity
  8
1
100
AcDbPolyline
 90
        7
 70
     0
 43
0.0
 10
30.03783524290002
 20
5.394439516299939
 10
30.0354980309
 20
5.385461007199978
 10
30.03358032129999
 20
5.37638880229997
 10
30.03207969559999
 20
5.367205611799931
 10
30.0310034093
 20
5.357963305399948
 10
30.03035871780002
 20
5.348713752700007
 10
30.0301432026
 20
5.339439663899952
  0
LWPOLYLINE
  5
107D
330
22
100
AcDbEntity
  8
1
100
AcDbPolyline
 90
        7
 70
     0
 43
0.0
 10
29.50170812660001
 20
5.671325630299918
 10
29.50404533819999
 20
5.680304137799907
 10
29.50596304759999
 20
5.689376341599995
 10
29.50746367319998
 20
5.698559531799958
 10
29.5085399595
 20
5.70780183849996
 10
29.5091846511
 20
5.717051392299993
 10
29.50940016639997
 20
5.72632548279995
  0
LINE
  5
1086
330
22
100
AcDbEntity
  8
1
100
AcDbLine
 10
30.03783524229998
 20
5.394439514399948
 30
0.0
 11
30.08878917220001
 21
5.573056714799974
 31
0.0
  0
LINE
  5
1087
330
22
100
AcDbEntity
  8
1
100
AcDbLine
 10
29.50170812660001
 20
5.671325630299918
 30
0.0
 11
29.45075419679999
 21
5.49270843009998
 31
0.0
  0
LINE
  5
10BB
330
22
100
AcDbEntity
  8
1
100
AcDbLine
 10
34.3859920261
 20
9.603226140900005
 30
0.0
 11
34.6009743799
 21
9.895614860999955
 31
0.0
  0
LINE
  5
10D0
330
22
100
AcDbEntity
  8
SK1
100
AcDbLine
 10
-1.304456457500009
 20
-5.063629669500016
 30
0.0
 11
-2.000000000000014
 21
-5.250000000000056
 31
0.0
  0
LINE
  5
10D1
330
22
100
AcDbEntity
  8
4
100
AcDbLine
 10
12.02552577550001
 20
-0.3905164374000378
 30
0.0
 11
34.77484912917622
 21
2.596224760637767
 31
0.0
  0
LINE
  5
10D2
330
22
100
AcDbEntity
  8
1
100
AcDbLine
 10
13.99999999999998
 20
0.558421984899951
 30
0.0
 11
4.999999999999985
 21
0.558421984899951
 31
0.0
  0
LINE
  5
10D3
330
22
100
AcDbEntity
  8
1
100
AcDbLine
 10
34.4611106254
 20
-0.0000000000000568
 30
0.0
 11
34.99999999999999
 21
-0.0000000000000568
 31
0.0
  0
LINE
  5
10D4
330
22
100
AcDbEntity
  8
4
100
AcDbLine
 10
36.24589271120276
 20
-0.0000000000000568
 30
0.0
 11
0.0
 21
0.0
 31
0.0
  0
LWPOLYLINE
  5
10D5
330
22
100
AcDbEntity
  8
1
100
AcDbPolyline
 90
        3
 70
     0
 43
0.0
 10
6.102121928000016
 20
3.010382609699945
 10
5.773500622399993
 20
3.020684744899938
 10
5.546605327899996
 20
3.040673065899966
  0
LWPOLYLINE
  5
10DA
330
22
100
AcDbEntity
  8
1
100
AcDbPolyline
 90
       24
 70
     0
 43
0.0
 10
5.546605327899996
 20
3.040673065899966
 10
5.446154066400012
 20
3.05290028639996
 10
5.118710708800009
 20
3.106942782799933
 10
4.795285203299997
 20
3.182644771699926
 10
4.478595907499979
 20
3.280168303899927
 10
4.171460158800002
 20
3.398014119299944
 10
3.877002036599989
 20
3.535306482599992
 10
3.597019672900003
 20
3.689942319999943
 10
3.333876265699998
 20
3.860420424299945
 10
3.089000696799999
 20
4.043788171799974
 10
2.8647743426
 20
4.237319584499971
 10
2.6607029165
 20
4.438872274299967
 10
2.477860458999984
 20
4.64507263509995
 10
2.313923364199993
 20
4.857075981999969
 10
2.167013108099993
 20
5.074519673599979
 10
2.036868485799999
 20
5.29801137079994
 10
1.922261508199994
 20
5.528465957599962
 10
1.824214003299999
 20
5.763573998999959
 10
1.743288635500007
 20
6.003029937099938
 10
1.679634906499998
 20
6.241438758099945
 10
1.634275359300005
 20
6.475060570200014
 10
1.605153533700004
 20
6.700545234899948
 10
1.590339364999991
 20
6.913690529199925
 10
1.590476208199987
 20
7.115858045399932
  0
LINE
  5
10F4
330
22
100
AcDbEntity
  8
SK1
100
AcDbLine
 10
-1.304456457500009
 20
5.063629669500016
 30
0.0
 11
-1.200928839499994
 21
5.049999999999954
 31
0.0
  0
LINE
  5
10F5
330
22
100
AcDbEntity
  8
1
100
AcDbLine
 10
34.65364774960001
 20
-9.055268585300041
 30
0.0
 11
34.90956652499999
 21
-9.411807629300028
 31
0.0
  0
LINE
  5
10F6
330
22
100
AcDbEntity
  8
1
100
AcDbLine
 10
34.5105409049
 20
-9.811807629300062
 30
0.0
 11
34.25462212950002
 21
-9.455268585300018
 31
0.0
  0
LINE
  5
10F7
330
22
100
AcDbEntity
  8
1
100
AcDbLine
 10
34.90956652499999
 20
-9.411807629300028
 30
0.0
 11
34.99999999999999
 21
-9.561899723800024
 31
0.0
  0
LINE
  5
10F8
330
22
100
AcDbEntity
  8
1
100
AcDbLine
 10
34.6009743799
 20
-9.961899723800001
 30
0.0
 11
34.5105409049
 21
-9.811807629300062
 31
0.0
  0
LINE
  5
10F9
330
22
100
AcDbEntity
  8
1
100
AcDbLine
 10
29.64257496710001
 20
4.339080487499927
 30
0.0
 11
29.41364131850001
 21
4.050173745999927
 31
0.0
  0
LINE
  5
110E
330
22
100
AcDbEntity
  8
1
100
AcDbLine
 10
30.1298996076
 20
4.997653435499955
 30
0.0
 11
29.64257496710001
 21
4.391151467799943
 31
0.0
  0
LINE
  5
1122
330
22
100
AcDbEntity
  8
1
100
AcDbLine
 10
33.87076479610001
 20
8.951617150099991
 30
0.0
 11
34.3859920261
 21
9.551155160500002
 31
0.0
  0
LWPOLYLINE
  5
1123
330
22
100
AcDbEntity
  8
1
100
AcDbPolyline
 90
        9
 70
     0
 43
0.0
 10
30.30037412540001
 20
3.967458005699938
 10
30.23348389329998
 20
3.900066741699902
 10
30.16076788420001
 20
3.840657740499977
 10
30.0817778056
 20
3.788969104199907
 10
29.99785853510001
 20
3.745786527000007
 10
29.91023845760002
 20
3.711779825099995
 10
29.8188187581
 20
3.687034735399947
 10
29.7239489139
 20
3.671898892699971
 10
29.62551243239999
 20
3.666256418699958
  0
LINE
  5
112E
330
22
100
AcDbEntity
  8
1
100
AcDbLine
 10
29.443062157
 20
4.590877523199935
 30
0.0
 11
30.0301432026
 21
5.097516463199951
 31
0.0
  0
LINE
  5
112F
330
22
100
AcDbEntity
  8
1
100
AcDbLine
 10
30.3049894672
 20
3.971273723799924
 30
0.0
 11
30.30037412540001
 21
3.967458005699938
 31
0.0
  0
LINE
  5
1130
330
22
100
AcDbEntity
  8
1
100
AcDbLine
 10
34.58550483610002
 20
9.351429105199997
 30
0.0
 11
33.9705212011
 21
8.851754122499926
 31
0.0
  0
LINE
  5
1131
330
22
100
AcDbEntity
  8
1
100
AcDbLine
 10
34.920194876
 20
9.576053172399952
 30
0.0
 11
34.63745688679999
 21
9.351492506999989
 31
0.0
  0
LINE
  5
1132
330
22
100
AcDbEntity
  8
1
100
AcDbLine
 10
29.0944208225
 20
4.369735434599931
 30
0.0
 11
29.39111010639998
 21
4.590814121399944
 31
0.0
  0
LINE
  5
1133
330
22
100
AcDbEntity
  8
1
100
AcDbLine
 10
30.54233673280002
 20
4.399959177699997
 30
0.0
 11
30.72048393100001
 21
4.451247161600008
 31
0.0
  0
LINE
  5
1134
330
22
100
AcDbEntity
  8
SK1
100
AcDbLine
 10
-1.304456457500009
 20
-5.063629669500016
 30
0.0
 11
-1.200928839499994
 21
-5.050000000000068
 31
0.0
  0
LWPOLYLINE
  5
1135
330
22
100
AcDbEntity
  8
1
100
AcDbPolyline
 90
       15
 70
     0
 43
0.0
 10
34.6009743799
 20
-3.961899723800001
 10
34.64453341509999
 20
-3.964381884400097
 10
34.68753843720002
 20
-3.971712519300069
 10
34.73026018180001
 20
-3.983909198800006
 10
34.77188644159999
 20
-4.000919211900054
 10
34.8120250759
 20
-4.022838460800073
 10
34.8496866206
 20
-4.049238675800097
 10
34.8838378697
 20
-4.079915542900039
 10
34.91421790880001
 20
-4.114293098000018
 10
34.94027904630001
 20
-4.152074642400009
 10
34.9618484084
 20
-4.192218065500014
 10
34.97852670019999
 20
-4.23370483900004
 10
34.99044549290001
 20
-4.276167517299995
 10
34.99760306860002
 20
-4.318810776200052
 10
34.99999999999999
 20
-4.361899723800036
  0
LINE
  5
1146
330
22
100
AcDbEntity
  8
SK1
100
AcDbLine
 10
-1.304456457500009
 20
5.063629669500016
 30
0.0
 11
-2.000000000000014
 21
5.249999999999943
 31
0.0
  0
LWPOLYLINE
  5
116A
330
22
100
AcDbEntity
  8
1
100
AcDbPolyline
 90
       11
 70
     0
 43
0.0
 10
34.46111062530001
 20
-4.526978234000068
 10
34.46567282549999
 20
-4.529469599300057
 10
34.50333437020002
 20
-4.555869814400068
 10
34.5374856193
 20
-4.586546681500067
 10
34.56786565840001
 20
-4.620924236500059
 10
34.5939267959
 20
-4.658705780899992
 10
34.61549615800003
 20
-4.698849204099985
 10
34.63217444979999
 20
-4.740335977600068
 10
34.64409324249998
 20
-4.782798655900023
 10
34.65125081820001
 20
-4.825441914800023
 10
34.65364774960001
 20
-4.868530862300019
  0
LINE
  5
1177
330
22
100
AcDbEntity
  8
1
100
AcDbLine
 10
34.55389138299999
 20
-9.055268623800031
 30
0.0
 11
34.46111062530001
 21
-8.955268623800009
 31
0.0
  0
LINE
  5
1178
330
22
100
AcDbEntity
  8
1
100
AcDbLine
 10
34.17733332120001
 20
-9.271965955499979
 30
0.0
 11
34.25462216790002
 21
-9.355268623800043
 31
0.0
  0
LINE
  5
1182
330
22
100
AcDbEntity
  8
1
100
AcDbLine
 10
30.60428232119999
 20
5.057012591199963
 30
0.0
 11
30.42613512289999
 21
5.00572460730001
 31
0.0
  0
LINE
  5
1183
330
22
100
AcDbEntity
  8
1
100
AcDbLine
 10
33.39638208249998
 20
8.892257994499971
 30
0.0
 11
33.57452928069999
 21
8.943545978399981
 31
0.0
  0
LINE
  5
1184
330
22
100
AcDbEntity
  8
1
100
AcDbLine
 10
34.6009743799
 20
-3.961899723800001
 30
0.0
 11
34.46111062530001
 21
-3.961899723800001
 31
0.0
  0
LINE
  5
1185
330
22
100
AcDbEntity
  8
SK1
100
AcDbLine
 10
-7.100000000000008
 20
-3.975000000000079
 30
0.0
 11
-8.643629150100011
 21
-3.975000000000079
 31
0.0
  0
LINE
  5
1186
330
22
100
AcDbEntity
  8
1
100
AcDbLine
 10
34.46111062530001
 20
-4.111991818300055
 30
0.0
 11
34.5105409049
 21
-4.111991818300055
 31
0.0
  0
LINE
  5
1187
330
22
100
AcDbEntity
  8
SK1
100
AcDbLine
 10
-19.55000000000002
 20
-4.250000000000056
 30
0.0
 11
-9.250000000000014
 21
-4.250000000000056
 31
0.0
  0
LINE
  5
1188
330
22
100
AcDbEntity
  8
SK1
100
AcDbLine
 10
-10.00000000000001
 20
-5.000000000000056
 30
0.0
 11
-18.80000000000002
 21
-5.000000000000056
 31
0.0
  0
LINE
  5
1189
330
22
100
AcDbEntity
  8
SK1
100
AcDbLine
 10
-0.2999999999999971
 20
-5.050000000000068
 30
0.0
 11
-1.200928839499994
 21
-5.050000000000068
 31
0.0
  0
LINE
  5
118A
330
22
100
AcDbEntity
  8
SK1
100
AcDbLine
 10
-2.000000000000014
 20
-5.250000000000056
 30
0.0
 11
-5.900000000000019
 21
-5.250000000000056
 31
0.0
  0
LWPOLYLINE
  5
11DD
330
22
100
AcDbEntity
  8
1
100
AcDbPolyline
 90
       15
 70
     0
 43
0.0
 10
12.26015681170001
 20
3.644927837099942
 10
11.96792633189999
 20
3.849004673499905
 10
11.69230538800001
 20
4.072231787099951
 10
11.43266010289998
 20
4.315245510199986
 10
11.19089210809999
 20
4.576136845599933
 10
10.9683614728
 20
4.853723417099956
 10
10.7660590066
 20
5.146461693899937
 10
10.5851773566
 20
5.452967436099982
 10
10.4264710808
 20
5.771580395299963
 10
10.29093015009998
 20
6.100742337700012
 10
10.17904097270001
 20
6.438762979699959
 10
10.09151999200001
 20
6.784284256899979
 10
10.0286670727
 20
7.134751277799921
 10
9.991088229300018
 20
7.486780514899919
 10
9.978581456900016
 20
7.841499810699929
  0
LWPOLYLINE
  5
11EE
330
22
100
AcDbEntity
  8
1
100
AcDbPolyline
 90
        8
 70
     0
 43
0.0
 10
29.86737575220001
 20
-9.268170202699991
 10
29.89283044940002
 20
-9.290774952100036
 10
29.92109758220001
 20
-9.310368534200051
 10
29.95113180909998
 20
-9.326585058400041
 10
29.98217109440002
 20
-9.339124322200063
 10
30.0139405254
 20
-9.348085245100094
 10
30.045845062
 20
-9.35346653549999
 10
30.07808305080001
 20
-9.355268623800043
  0
LINE
  5
11F8
330
22
100
AcDbEntity
  8
1
100
AcDbLine
 10
33.48623026030002
 20
9.542347450699935
 30
0.0
 11
33.3080830622
 21
9.491059466799924
 31
0.0
  0
LWPOLYLINE
  5
1211
330
22
100
AcDbEntity
  8
1
100
AcDbPolyline
 90
       15
 70
     0
 43
0.0
 10
34.25462216790002
 20
-9.355268623800043
 10
34.2872914444
 20
-9.353407003300048
 10
34.31954521089999
 20
-9.347909027200046
 10
34.3515865193
 20
-9.338761517500074
 10
34.38280621419999
 20
-9.326004007700021
 10
34.41291018989999
 20
-9.309564571100054
 10
34.4411563485
 20
-9.2897644098
 10
34.4667697853
 20
-9.266756759500026
 10
34.4895548146
 20
-9.240973593200067
 10
34.5091006677
 20
-9.212637434900045
 10
34.52527768930001
 20
-9.182529867500079
 10
34.53778640809999
 20
-9.151414787400028
 10
34.5467255027
 20
-9.119567778600071
 10
34.55209368450001
 20
-9.087585334500033
 10
34.55389138299999
 20
-9.055268623800031
  0
LWPOLYLINE
  5
1222
330
22
100
AcDbEntity
  8
1
100
AcDbPolyline
 90
       15
 70
     0
 43
0.0
 10
34.5105409049
 20
-9.811807629300062
 10
34.55523398500002
 20
-9.8092869006
 10
34.5993479145
 20
-9.80175118110003
 10
34.6423446013
 20
-9.7893496131
 10
34.68367116889998
 20
-9.77219201400004
 10
34.7228146783
 20
-9.750481012699992
 10
34.7593074675
 20
-9.724532698500013
 10
34.79268074560001
 20
-9.694653104099984
 10
34.82248915090001
 20
-9.661201539900048
 10
34.84837548120002
 20
-9.624624083300091
 10
34.8700356335
 20
-9.58538760430008
 10
34.8871552708
 20
-9.543955582800037
 10
34.89952933649998
 20
-9.500845463700102
 10
34.9070470203
 20
-9.456615985600024
 10
34.90956652499999
 20
-9.411807629300028
  0
LWPOLYLINE
  5
124A
330
22
100
AcDbEntity
  8
1
100
AcDbPolyline
 90
        5
 70
     0
 43
0.0
 10
29.1080723113
 20
-9.450002361000031
 10
29.1386722564
 20
-9.449533348700072
 10
29.24461970489999
 20
-9.440645712000048
 10
29.35045954529999
 20
-9.420486141200058
 10
29.4561917775
 20
-9.38905463610007
  0
LWPOLYLINE
  5
1251
330
22
100
AcDbEntity
  8
1
100
AcDbPolyline
 90
       12
 70
     0
 43
0.0
 10
5.491724028999996
 20
-8.99999897620006
 10
5.632969776899997
 20
-8.999595837400022
 10
6.0451370878
 20
-8.994957741800078
 10
6.473539699700026
 20
-8.986302883000007
 10
6.908465099600007
 20
-8.975496583300071
 10
7.350526330699992
 20
-8.963941598800033
 10
7.796931053699992
 20
-8.952952313600064
 10
8.248182902100026
 20
-8.943515979100027
 10
8.704010054199997
 20
-8.936387365200005
 10
9.163946535500016
 20
-8.932152637600097
 10
9.627366191300026
 20
-8.931165994000082
 10
10.09447773980001
 20
-8.933485066200091
  0
LINE
  5
1260
330
22
100
AcDbEntity
  8
1
100
AcDbLine
 10
13.99999999999998
 20
-8.058421984900007
 30
0.0
 11
4.999999999999985
 21
-8.058421984900007
 31
0.0
  0
LINE
  5
1261
330
22
100
AcDbEntity
  8
1
100
AcDbLine
 10
5.498712004500006
 20
-9.000000000000056
 30
0.0
 11
0.3999999999999915
 21
-9.000000000000056
 31
0.0
  0
LINE
  5
1262
330
22
100
AcDbEntity
  8
1
100
AcDbLine
 10
34.25462216790002
 20
-9.355268623800043
 30
0.0
 11
30.07808305080001
 21
-9.355268623800043
 31
0.0
  0
LINE
  5
1263
330
22
100
AcDbEntity
  8
1
100
AcDbLine
 10
29.1080229896
 20
-9.450000000000045
 30
0.0
 11
25.71322175440001
 21
-9.450000000000045
 31
0.0
  0
LINE
  5
1264
330
22
100
AcDbEntity
  8
1
100
AcDbLine
 10
34.25462212950002
 20
-9.455268585300018
 30
0.0
 11
30.07808308919998
 21
-9.455268585300018
 31
0.0
  0
LINE
  5
1265
330
22
100
AcDbEntity
  8
1
100
AcDbLine
 10
29.62266079889999
 20
-9.811807629300062
 30
0.0
 11
34.5105409049
 21
-9.811807629300062
 31
0.0
  0
LINE
  5
1266
330
22
100
AcDbEntity
  8
1
100
AcDbLine
 10
29.41364131850001
 20
-9.961899723800001
 30
0.0
 11
34.6009743799
 21
-9.961899723800001
 31
0.0
  0
LWPOLYLINE
  5
1267
330
22
100
AcDbEntity
  8
1
100
AcDbPolyline
 90
        6
 70
     0
 43
0.0
 10
25.71301969
 20
-9.449999672100034
 10
24.5702082381
 20
-9.449661940300018
 10
22.3394645609
 20
-9.447054256000058
 10
20.10992031260001
 20
-9.441873340000029
 10
17.88257924759999
 20
-9.434122403200035
 10
15.6571067812
 20
-9.423800375300061
  0
LWPOLYLINE
  5
126F
330
22
100
AcDbEntity
  8
1
100
AcDbPolyline
 90
        7
 70
     0
 43
0.0
 10
14.79289321880002
 20
-8.967545411300022
 10
14.00801966850001
 20
-8.96270238680006
 10
13.22384996309999
 20
-8.95752558630005
 10
12.44036413979999
 20
-8.952014703200063
 10
11.6576220868
 20
-8.946170656900051
 10
10.87568369220001
 20
-8.939994366599989
 10
10.09452899329999
 20
-8.933485525900039
  0
LWPOLYLINE
  5
1278
330
22
100
AcDbEntity
  8
1
100
AcDbPolyline
 90
        7
 70
     0
 43
0.0
 10
33.96111062530001
 20
-9.320606678300066
 10
33.24190949970001
 20
-9.312057865100086
 10
32.52373818790001
 20
-9.303242579000084
 10
31.80657915940002
 20
-9.294160387100021
 10
31.0904850054
 20
-9.28481258740004
 10
30.3755083171
 20
-9.275200477999987
 10
29.66163156409998
 20
-9.265323626000053
  0
LWPOLYLINE
  5
1289
330
22
100
AcDbEntity
  8
1
100
AcDbPolyline
 90
       13
 70
     0
 43
0.0
 10
14.79289321880002
 20
-8.967545411300022
 10
14.825742492
 20
-8.968830020900043
 10
14.85829482309999
 20
-8.972244854200027
 10
14.89061851680002
 20
-8.977805650899995
 10
14.92250865880002
 20
-8.985465192100036
 10
14.95382642029999
 20
-8.995200945900023
 10
14.98444184949998
 20
-9.006954590800091
 10
15.01421679579998
 20
-9.020683637400054
 10
15.04303702780002
 20
-9.036318058300082
 10
15.0707773326
 20
-9.053800684200041
 10
15.09733250329999
 20
-9.073050452600057
 10
15.1225372276
 20
-9.093954730100051
 10
15.1464466094
 20
-9.116551061300015
  0
LWPOLYLINE
  5
1298
330
22
100
AcDbEntity
  8
1
100
AcDbPolyline
 90
       15
 70
     0
 43
0.0
 10
29.62266079889999
 20
-9.811807629300062
 10
29.5779705616
 20
-9.809280246800028
 10
29.53385172809998
 20
-9.801748645300051
 10
29.4908531027
 20
-9.789348796700039
 10
29.44952797749998
 20
-9.772191964000057
 10
29.4103882145
 20
-9.750483461100031
 10
29.37389809220001
 20
-9.724536546500075
 10
29.340521361
 20
-9.694654923700056
 10
29.3107092634
 20
-9.661196438200022
 10
29.28481996409998
 20
-9.624612240500027
 10
29.2631591868
 20
-9.585370834800016
 10
29.24604104289999
 20
-9.543942796900068
 10
29.23366891459999
 20
-9.500839340200002
 10
29.22615347989999
 20
-9.456612103500049
 10
29.22534693670001
 20
-9.442262450899988
  0
LWPOLYLINE
  5
12A9
330
22
100
AcDbEntity
  8
1
100
AcDbPolyline
 90
       10
 70
     0
 43
0.0
 10
30.07808308919998
 20
-9.455268585300018
 10
30.03452405399999
 20
-9.452786424600049
 10
29.99151903189999
 20
-9.445455789800007
 10
29.94879728739999
 20
-9.433259110300014
 10
29.9071710276
 20
-9.416249097200079
 10
29.8670323932
 20
-9.39432984830006
 10
29.8293708485
 20
-9.367929633200049
 10
29.7952195994
 20
-9.33725276610005
 10
29.76483956029999
 20
-9.302875211100058
 10
29.7396819211
 20
-9.266403492800066
  0
LWPOLYLINE
  5
12B5
330
22
100
AcDbEntity
  8
1
100
AcDbPolyline
 90
       15
 70
     0
 43
0.0
 10
29.41364131850001
 20
-9.961899723800001
 10
29.37008228329999
 20
-9.959417563200076
 10
29.32707726120002
 20
-9.952086928300047
 10
29.28435551670002
 20
-9.939890248799997
 10
29.24272925690001
 20
-9.922880235700063
 10
29.2025906226
 20
-9.900960986800043
 10
29.16492907780001
 20
-9.874560771700032
 10
29.13077782870001
 20
-9.843883904700078
 10
29.10039778960003
 20
-9.809506349600042
 10
29.0743366521
 20
-9.771724805199994
 10
29.05276729
 20
-9.731581382100046
 10
29.0360889983
 20
-9.690094608600077
 10
29.0241702055
 20
-9.647631930300065
 10
29.01701262979999
 20
-9.604988671400064
 10
29.0146156984
 20
-9.561899723800024
  0
LINE
  5
12C6
330
22
100
AcDbEntity
  8
1
100
AcDbLine
 10
15.6571067812
 20
3.018644084799973
 30
0.0
 11
15.6571067812
 21
-9.423800375300061
 31
0.0
  0
LINE
  5
12C7
330
22
100
AcDbEntity
  8
1
100
AcDbLine
 10
15.30355339059999
 20
-9.275033039600032
 30
0.0
 11
15.30355339059999
 21
3.015960165999956
 31
0.0
  0
LINE
  5
12C8
330
22
100
AcDbEntity
  8
1
100
AcDbLine
 10
15.1464466094
 20
3.013075957599994
 30
0.0
 11
15.1464466094
 21
-9.116551061300015
 31
0.0
  0
LINE
  5
12C9
330
22
100
AcDbEntity
  8
1
100
AcDbLine
 10
14.79289321880002
 20
-8.967545411300022
 30
0.0
 11
14.79289321880002
 21
3.010382609699945
 31
0.0
  0
LINE
  5
12CA
330
22
100
AcDbEntity
  8
1
100
AcDbLine
 10
13.99999999999998
 20
-8.058421984900007
 30
0.0
 11
13.99999999999998
 21
0.558421984899951
 31
0.0
  0
LWPOLYLINE
  5
12CB
330
22
100
AcDbEntity
  8
1
100
AcDbPolyline
 90
       12
 70
     0
 43
0.0
 10
11.45871562839998
 20
3.010382609699945
 10
11.46219616739999
 20
3.014881210299961
 10
11.50365349939999
 20
3.061459402299988
 10
11.55425459460001
 20
3.113087349599936
 10
11.61382046089999
 20
3.169152122399907
 10
11.68218658300002
 20
3.229277997799954
 10
11.75935924389999
 20
3.293106792899948
 10
11.84465839009998
 20
3.359879769899919
 10
11.9373984738
 20
3.428693264399953
 10
12.03764451620002
 20
3.499367354899902
 10
12.1452127303
 20
3.571682839199922
 10
12.26015051479997
 20
3.644927829399989
  0
LINE
  5
12D9
330
22
100
AcDbEntity
  8
1
100
AcDbLine
 10
15.30355339059999
 20
9.260916447999989
 30
0.0
 11
15.1464466094
 21
9.102266875599923
 31
0.0
  0
LWPOLYLINE
  5
12DA
330
22
100
AcDbEntity
  8
1
100
AcDbPolyline
 90
       13
 70
     0
 43
0.0
 10
15.30355339059999
 20
9.260916447999989
 10
15.32750236709999
 20
9.283563385799993
 10
15.35275077290002
 20
9.304512239199937
 10
15.37935738220001
 20
9.323802149100004
 10
15.407145873
 20
9.341315692299986
 10
15.43600283350001
 20
9.356966299100008
 10
15.46579830739999
 20
9.370700550399931
 10
15.49640845190002
 20
9.382448059999944
 10
15.52770151489999
 20
9.392173159299943
 10
15.5595477634
 20
9.399823367999999
 10
15.59181729660001
 20
9.40537873369999
 10
15.624315326
 20
9.408797130099969
 10
15.6571067812
 20
9.410092599199913
  0
LWPOLYLINE
  5
12E9
330
22
100
AcDbEntity
  8
1
100
AcDbPolyline
 90
       13
 70
     0
 43
0.0
 10
15.30355339059999
 20
-9.275033039600032
 10
15.32750236190002
 20
-9.297654191200081
 10
15.352750763
 20
-9.318575414700092
 10
15.3793573674
 20
-9.337835785300057
 10
15.40714585409999
 20
-9.355318077300012
 10
15.43600281179998
 20
-9.370935846200097
 10
15.46579828460001
 20
-9.38463582310004
 10
15.4964084301
 20
-9.396347762200036
 10
15.52770149569998
 20
-9.406036149600026
 10
15.55954774839999
 20
-9.413648654900043
 10
15.5918172866
 20
-9.419165481300012
 10
15.62431532099999
 20
-9.422544732999995
 10
15.6571067812
 20
-9.423800375300061
  0
LINE
  5
12F8
330
22
100
AcDbEntity
  8
1
100
AcDbLine
 10
15.30355339059999
 20
-9.275033039600032
 30
0.0
 11
15.1464466094
 21
-9.116551061300015
 31
0.0
  0
LWPOLYLINE
  5
12F9
330
22
100
AcDbEntity
  8
1
100
AcDbPolyline
 90
        5
 70
     0
 43
0.0
 10
9.978581456900016
 20
7.841499810699929
 10
9.985784979900003
 20
8.111233259899904
 10
10.00751074330001
 20
8.379738425599896
 10
10.0437587469
 20
8.647015307799961
 10
10.0945289909
 20
8.913063906399941
  0
LINE
  5
1300
330
22
100
AcDbEntity
  8
1
100
AcDbLine
 10
4.999999999999985
 20
-8.058421984900007
 30
0.0
 11
4.999999999999985
 21
0.558421984899951
 31
0.0
  0
LINE
  5
1301
330
22
100
AcDbEntity
  8
SK1
100
AcDbLine
 10
-9.209314575100009
 20
-4.209314575100052
 30
0.0
 11
-10.00000000000001
 21
-5.000000000000056
 31
0.0
  0
LINE
  5
1302
330
22
100
AcDbEntity
  8
SK1
100
AcDbLine
 10
-5.900000000000019
 20
5.249999999999943
 30
0.0
 11
-6.300000000000025
 21
5.019059892299992
 31
0.0
  0
LINE
  5
1303
330
22
100
AcDbEntity
  8
SK1
100
AcDbLine
 10
-5.900000000000019
 20
-5.250000000000056
 30
0.0
 11
-6.300000000000025
 21
-5.019059892299992
 31
0.0
  0
LINE
  5
1304
330
22
100
AcDbEntity
  8
SK1
100
AcDbLine
 10
-9.209314575100009
 20
4.20931457499995
 30
0.0
 11
-10.00000000000001
 21
4.999999999999943
 31
0.0
  0
LWPOLYLINE
  5
1305
330
22
100
AcDbEntity
  8
1
100
AcDbPolyline
 90
        7
 70
     0
 43
0.0
 10
1.590476208199987
 20
7.115858045399932
 10
1.599561806899998
 20
7.262491835599917
 10
1.620291663700001
 20
7.405932910499984
 10
1.6525793168
 20
7.546055355199996
 10
1.696684152000003
 20
7.681782968699963
 10
1.752865555400006
 20
7.8121564505999
 10
1.821037064899996
 20
7.937156075699931
  0
LWPOLYLINE
  5
130E
330
22
100
AcDbEntity
  8
1
100
AcDbPolyline
 90
       16
 70
     0
 43
0.0
 10
1.821037064899996
 20
7.937156075699931
 10
1.932859094799994
 20
8.095921177700006
 10
2.062284064899998
 20
8.239332299799968
 10
2.209816507100001
 20
8.368041823199916
 10
2.373942825699984
 20
8.482520711899951
 10
2.553413921099988
 20
8.5833118173
 10
2.747940836899985
 20
8.671193426899947
 10
2.956682699500007
 20
8.746867941399955
 10
3.180046161100008
 20
8.811137153499942
 10
3.417317661900014
 20
8.864673649099984
 10
3.671016965299983
 20
8.908396349599911
 10
3.942703988800005
 20
8.943066611999995
 10
4.234544709500013
 20
8.969064823899941
 10
4.548492740400021
 20
8.986913801199989
 10
4.88674508999999
 20
8.997019395499989
 10
5.240157704600008
 20
8.999997693599937
  0
LINE
  5
1320
330
22
100
AcDbEntity
  8
1
100
AcDbLine
 10
0.3999999999999915
 20
8.999999999999943
 30
0.0
 11
0.0
 21
8.599999999999965
 31
0.0
  0
LINE
  5
1321
330
22
100
AcDbEntity
  8
1
100
AcDbLine
 10
0.3999999999999915
 20
-9.000000000000056
 30
0.0
 11
0.0
 21
-8.600000000000079
 31
0.0
  0
LWPOLYLINE
  5
1322
330
22
100
AcDbEntity
  8
1
100
AcDbPolyline
 90
       17
 70
     0
 43
0.0
 10
1.590476208199987
 20
7.115858045399932
 10
1.670793140400007
 20
6.735274523299949
 10
1.780405885199996
 20
6.362140579399977
 10
1.918650430900001
 20
5.998716583599957
 10
2.084689319899993
 20
5.647204085099986
 10
2.27751672219999
 20
5.309732475399982
 10
2.495964528499982
 20
4.988346089199922
 10
2.738709426099987
 20
4.684991820199968
 10
3.004280915600006
 20
4.40150732709992
 10
3.291070218599983
 20
4.139609901799929
 10
3.597340023599983
 20
3.900886065699921
 10
3.921235010000017
 20
3.686781959599954
 10
4.260793087700008
 20
3.498594582899954
 10
4.613957282300006
 20
3.337463936499943
 10
4.978588196800004
 20
3.204366117299969
 10
5.352476970799997
 20
3.100107405099947
 10
5.550635498700003
 20
3.06119798589998
  0
LINE
  5
1335
330
22
100
AcDbEntity
  8
1
100
AcDbLine
 10
0.3999999999999915
 20
8.999999999999943
 30
0.0
 11
0.3999999999999915
 21
-9.000000000000056
 31
0.0
  0
LINE
  5
1336
330
22
100
AcDbEntity
  8
1
100
AcDbLine
 10
0.0
 20
8.599999999999965
 30
0.0
 11
0.0
 21
-8.600000000000079
 31
0.0
  0
LINE
  5
1337
330
22
100
AcDbEntity
  8
SK1
100
AcDbLine
 10
-0.2999999999999971
 20
5.049999999999954
 30
0.0
 11
-0.2999999999999971
 21
-5.050000000000068
 31
0.0
  0
LINE
  5
1338
330
22
100
AcDbEntity
  8
SK1
100
AcDbLine
 10
-1.200928839499994
 20
5.049999999999954
 30
0.0
 11
-1.200928839499994
 21
-5.050000000000068
 31
0.0
  0
LINE
  5
1339
330
22
100
AcDbEntity
  8
SK1
100
AcDbLine
 10
-1.304456457500009
 20
5.063629669500016
 30
0.0
 11
-1.304456457500009
 21
-5.063629669500016
 31
0.0
  0
LINE
  5
133A
330
22
100
AcDbEntity
  8
SK1
100
AcDbLine
 10
-2.000000000000014
 20
5.249999999999943
 30
0.0
 11
-2.000000000000014
 21
-5.250000000000056
 31
0.0
  0
LINE
  5
133B
330
22
100
AcDbEntity
  8
SK1
100
AcDbLine
 10
-5.900000000000019
 20
5.249999999999943
 30
0.0
 11
-5.900000000000019
 21
-5.250000000000056
 31
0.0
  0
LINE
  5
133C
330
22
100
AcDbEntity
  8
SK1
100
AcDbLine
 10
-6.300000000000025
 20
5.019059892299992
 30
0.0
 11
-6.300000000000025
 21
-5.019059892299992
 31
0.0
  0
LINE
  5
133D
330
22
100
AcDbEntity
  8
SK1
100
AcDbLine
 10
-7.100000000000008
 20
3.974999999999965
 30
0.0
 11
-7.100000000000008
 21
-3.975000000000079
 31
0.0
  0
LINE
  5
133E
330
22
100
AcDbEntity
  8
SK1
100
AcDbLine
 10
-8.643629150100011
 20
3.974999999999965
 30
0.0
 11
-8.643629150100011
 21
-3.975000000000079
 31
0.0
  0
LINE
  5
133F
330
22
100
AcDbEntity
  8
SK1
100
AcDbLine
 10
-18.80000000000002
 20
4.999999999999943
 30
0.0
 11
-19.80000000000002
 21
3.999999999999943
 31
0.0
  0
LINE
  5
1340
330
22
100
AcDbEntity
  8
SK1
100
AcDbLine
 10
-18.80000000000002
 20
-5.000000000000056
 30
0.0
 11
-19.80000000000002
 21
-4.000000000000056
 31
0.0
  0
LINE
  5
1341
330
22
100
AcDbEntity
  8
SK1
100
AcDbLine
 10
-9.209314575100009
 20
4.20931457499995
 30
0.0
 11
-9.209314575100009
 21
-4.209314575100052
 31
0.0
  0
LINE
  5
1342
330
22
100
AcDbEntity
  8
SK1
100
AcDbLine
 10
-9.250000000000014
 20
4.249999999999943
 30
0.0
 11
-9.250000000000014
 21
-4.250000000000056
 31
0.0
  0
LINE
  5
1343
330
22
100
AcDbEntity
  8
SK1
100
AcDbLine
 10
-10.00000000000001
 20
4.999999999999943
 30
0.0
 11
-10.00000000000001
 21
-5.000000000000056
 31
0.0
  0
LINE
  5
1344
330
22
100
AcDbEntity
  8
SK1
100
AcDbLine
 10
-18.80000000000002
 20
4.999999999999943
 30
0.0
 11
-18.80000000000002
 21
-5.000000000000056
 31
0.0
  0
LINE
  5
1345
330
22
100
AcDbEntity
  8
SK1
100
AcDbLine
 10
-19.55000000000002
 20
4.249999999999943
 30
0.0
 11
-19.55000000000002
 21
-4.250000000000056
 31
0.0
  0
LINE
  5
1346
330
22
100
AcDbEntity
  8
SK1
100
AcDbLine
 10
-19.80000000000002
 20
3.999820270999919
 30
0.0
 11
-19.80000000000002
 21
-3.999820271000032
 31
0.0
  0
ARC
  5
1355
330
22
100
AcDbEntity
  8
SK3
100
AcDbCircle
 10
-18.30000000000002
 20
3.749999999999943
 30
0.0
 40
2.0
100
AcDbArc
 50
221.4096221092999
 51
270.0
  0
ARC
  5
1356
330
22
100
AcDbEntity
  8
SK3
100
AcDbCircle
 10
-18.30000000000002
 20
-3.750000000000056
 30
0.0
 40
2.0
100
AcDbArc
 50
90.0
 51
138.5903778906999
  0
ARC
  5
1357
330
22
100
AcDbEntity
  8
SK1
100
AcDbCircle
 10
-0.2999999999999971
 20
5.449999999999931
 30
0.0
 40
0.4
100
AcDbArc
 50
270.0
 51
318.6186209881
  0
ARC
  5
1358
330
22
100
AcDbEntity
  8
SK1
100
AcDbCircle
 10
-7.099999999999994
 20
4.77499999999992
 30
0.0
 40
0.8
100
AcDbArc
 50
270.0
 51
0.0
  0
ARC
  5
1359
330
22
100
AcDbEntity
  8
SK1
100
AcDbCircle
 10
-8.643629150099997
 20
4.77499999999992
 30
0.0
 40
0.8
100
AcDbArc
 50
225.0
 51
270.0
  0
ARC
  5
135A
330
22
100
AcDbEntity
  8
SK1
100
AcDbCircle
 10
-0.2999999999999971
 20
-5.450000000000045
 30
0.0
 40
0.4
100
AcDbArc
 50
41.38137901189998
 51
90.0
  0
ARC
  5
135B
330
22
100
AcDbEntity
  8
SK1
100
AcDbCircle
 10
-7.099999999999994
 20
-4.775000000000034
 30
0.0
 40
0.8
100
AcDbArc
 50
0.0
 51
90.0
  0
ARC
  5
135C
330
22
100
AcDbEntity
  8
SK1
100
AcDbCircle
 10
-8.643629150099997
 20
-4.775000000000034
 30
0.0
 40
0.8
100
AcDbArc
 50
90.0
 51
134.9999999999999
  0
TEXT
  5
135D
330
22
100
AcDbEntity
  8
6
100
AcDbText
 10
52.03749415563975
 20
-5.004708790328038
 30
0.0
 40
3.5
  1
Z=2
 50
90.0
 41
1.199999999999999
100
AcDbText
  0
INSERT
  5
1941
330
22
100
AcDbEntity
  8
1
100
AcDbBlockReference
  2
nullp
 10
-271.9386450411702
 20
-389.8959796344513
 30
0.0
  0
INSERT
  5
1942
330
22
100
AcDbEntity
  8
0
100
AcDbBlockReference
  2
nullp1
 10
-408.0645295494705
 20
-442.5849634019313
 30
0.0
  0
LINE
  5
1A10
330
22
100
AcDbEntity
  8
SK4
100
AcDbLine
 10
0.0
 20
0.0
 30
0.0
 11
-22.80000000000002
 21
-0.0000000000000568
 31
0.0
  0
LINE
  5
1A12
330
22
100
AcDbEntity
  8
SK3
100
AcDbLine
 10
0.0000000000000142
 20
1.749999999999943
 30
0.0
 11
-18.30000000000001
 21
1.749999999999943
 31
0.0
  0
LINE
  5
1A13
330
22
100
AcDbEntity
  8
SK3
100
AcDbLine
 10
0.0
 20
-1.750000000000056
 30
0.0
 11
-18.30000000000004
 21
-1.750000000000056
 31
0.0
  0
LWPOLYLINE
  5
1A18
330
22
100
AcDbEntity
  8
NOCUT
100
AcDbPolyline
 90
       10
 70
   129
 43
0.0
 10
15.1464466094
 20
9.146446609400015
 10
15.30355339050668
 20
9.303553390593322
 42
-0.1989123673796576
 10
15.65710678109995
 20
9.449999999999988
 10
33.96111062529995
 20
9.449999999999988
 42
-0.4142135623730951
 10
34.46111062529995
 20
8.949999999999988
 10
34.46111062529995
 20
0.0
 10
0.0
 20
0.0
 10
0.0
 20
8.599999999999965
 10
0.3999999999999772
 20
9.0
 10
14.79289321879996
 20
9.0
 42
0.1989123673796578
  0
DIMENSION
  5
1A5E
330
22
100
AcDbEntity
  8
0
100
AcDbDimension
  2
*D43
 10
41.85833150002967
 20
4.749999999999942
 30
0.0
 11
41.85833150002967
 21
0.0
 31
0.0
 70
   160
  1
%%c<>
 71
     5
 42
9.5
  3
ISO-25
100
AcDbAlignedDimension
 13
36.24589271120276
 23
-4.750000000000056
 33
0.0
 14
36.24589271120276
 24
4.749999999999943
 34
0.0
 50
90.0
100
AcDbRotatedDimension
  0
DIMENSION
  5
1A86
330
22
100
AcDbEntity
  8
2
100
AcDbDimension
  2
*D44
 10
14.99999999999998
 20
16.43870931166879
 30
0.0
 11
24.99999999999999
 21
16.43870931166879
 31
0.0
 70
   160
 71
     5
 42
20.0
  3
ISO-25
100
AcDbAlignedDimension
 13
34.99999999999999
 23
9.999999999999943
 33
0.0
 14
14.99999999999998
 24
9.999999999999943
 34
0.0
100
AcDbRotatedDimension
  0
ENDSEC
  0
SECTION
  2
OBJECTS
  0
DICTIONARY
  5
C
330
0
100
AcDbDictionary
281
     1
  3
ACAD_COLOR
350
1B
  3
ACAD_GROUP
350
D
  3
ACAD_LAYOUT
350
19
  3
ACAD_MATERIAL
350
1A
  3
ACAD_MLINESTYLE
350
16
  3
ACAD_PLOTSETTINGS
350
18
  3
ACAD_PLOTSTYLENAME
350
E
  3
ACAD_TABLESTYLE
350
1C
  3
ACDBHEADERROUNDTRIPXREC
350
1AF2
  3
AcDbVariableDictionary
350
1A15
  0
DICTIONARY
  5
19C5
330
22
100
AcDbDictionary
280
     1
281
     1
  3
ACAD_SORTENTS
360
19C6
  0
DICTIONARY
  5
1B
102
{ACAD_REACTORS
330
C
102
}
330
C
100
AcDbDictionary
281
     1
  0
DICTIONARY
  5
D
102
{ACAD_REACTORS
330
C
102
}
330
C
100
AcDbDictionary
281
     1
  0
DICTIONARY
  5
19
102
{ACAD_REACTORS
330
C
102
}
330
C
100
AcDbDictionary
281
     1
  3
Layout1
350
21
  3
Model
350
25
  0
DICTIONARY
  5
1A
102
{ACAD_REACTORS
330
C
102
}
330
C
100
AcDbDictionary
281
     1
  0
DICTIONARY
  5
16
102
{ACAD_REACTORS
330
C
102
}
330
C
100
AcDbDictionary
281
     1
  3
Standard
350
17
  0
DICTIONARY
  5
18
102
{ACAD_REACTORS
330
C
102
}
330
C
100
AcDbDictionary
281
     1
  0
ACDBDICTIONARYWDFLT
  5
E
102
{ACAD_REACTORS
330
C
102
}
330
C
100
AcDbDictionary
281
     1
  3
Normal
350
F
100
AcDbDictionaryWithDefault
340
F
  0
DICTIONARY
  5
1C
102
{ACAD_REACTORS
330
C
102
}
330
C
100
AcDbDictionary
281
     1
  3
Standard
350
1D
  0
DICTIONARY
  5
1AF2
102
{ACAD_REACTORS
330
C
102
}
330
C
100
AcDbDictionary
281
     1
  0
DICTIONARY
  5
1A15
102
{ACAD_REACTORS
330
C
102
}
330
C
100
AcDbDictionary
281
     1
  3
CTABLESTYLE
350
1A16
  3
DIMASSOC
350
1AD2
  3
PROJECTNAME
350
1AD3
  0
SORTENTSTABLE
  5
19C6
102
{ACAD_REACTORS
330
19C5
102
}
330
19C5
100
AcDbSortentsTable
330
22
331
1320
  5
1346
331
929
  5
9E0
331
ECE
  5
EDF
331
D87
  5
E47
331
1341
  5
1675
331
10D1
  5
112E
331
12CB
  5
1339
331
A43
  5
AD6
331
1A13
  5
933
331
112F
  5
118B
331
E2C
  5
E96
331
EDF
  5
F4C
331
102F
  5
10D4
331
ECC
  5
EDD
331
133F
  5
1673
331
12C9
  5
1337
331
A41
  5
ABC
331
F4C
  5
FE5
331
E5D
  5
ECF
331
A7D
  5
B20
331
A5B
  5
AF7
331
D52
  5
DF8
331
EDD
  5
F21
331
12DA
  5
133B
331
A30
  5
A48
331
BD2
  5
D62
331
A6C
  5
AF9
331
B5B
  5
BE9
331
FAD
  5
FF6
331
B9F
  5
C56
331
F78
  5
FF2
331
ECA
  5
EDB
331
133D
  5
1351
331
12C7
  5
1335
331
A3F
  5
A9E
331
BBF
  5
D60
331
1942
  5
1A5C
331
12E9
  5
133C
331
B6A
  5
C09
331
FF8
  5
10BC
331
BAE
  5
D4B
331
D50
  5
DEA
331
AD9
  5
B77
331
EDB
  5
F1F
331
B8C
  5
C20
331
10F8
  5
1183
331
B59
  5
BBF
331
E4A
  5
ECC
331
FEF
  5
1072
331
AEA
  5
B8C
331
1178
  5
1261
331
1289
  5
1305
331
133B
  5
134F
331
FBA
  5
1038
331
FDC
  5
1061
331
135D
  5
1686
331
A3D
  5
A7D
331
11F8
  5
12B5
331
FF6
  5
10AE
331
E7B
  5
ED5
331
BAC
  5
CB2
331
AD7
  5
B65
331
1278
  5
1304
331
1189
  5
1281
331
C5F
  5
DAF
331
ED9
  5
F0F
331
DEA
  5
E7A
331
10F6
  5
1179
331
12F8
  5
133D
331
E48
  5
EC1
331
8E7
  5
954
331
FCB
  5
1050
331
956
  5
A3C
331
1267
  5
1302
331
1087
  5
110F
331
5BF
  5
5BF
331
12A9
  5
1320
331
1339
  5
134D
331
FB8
  5
1026
331
135B
  5
1684
331
A3B
  5
A5B
331
FF4
  5
1088
331
E79
  5
ED3
331
BAA
  5
C90
331
1074
  5
10F9
331
954
  5
A3B
331
1187
  5
126F
331
AF7
  5
BAB
331
DC6
  5
E49
331
ED7
  5
EF8
331
1298
  5
130E
331
DE8
  5
E78
331
10F4
  5
1177
331
E46
  5
EA7
331
1265
  5
1300
331
10DA
  5
116A
331
97F
  5
A40
331
1359
  5
1682
331
A39
  5
A49
331
1305
  5
1344
331
FF2
  5
1086
331
1072
  5
10F7
331
96C
  5
A3D
331
1185
  5
1266
331
ED5
  5
EE6
331
AF5
  5
B9F
331
8C1
  5
8CF
331
F77
  5
FF1
331
91F
  5
9BE
331
1263
  5
12F8
331
F55
  5
FEE
331
EE6
  5
FA2
331
FB6
  5
FF7
331
DD5
  5
E5E
331
F20
  5
FCB
331
FF0
  5
1074
331
1303
  5
1342
331
1123
  5
1189
331
E53
  5
ECD
331
1183
  5
1264
331
1070
  5
10F5
331
FA3
  5
FF4
331
1346
  5
167C
331
ED3
  5
EE4
331
1A18
  5
167D
331
F0F
  5
FB8
331
8BF
  5
8C7
331
BC8
  5
D61
331
1134
  5
11C6
331
1336
  5
134A
331
B95
  5
C35
331
91D
  5
987
331
1261
  5
12DA
331
1357
  5
1680
331
EE4
  5
F89
331
DD3
  5
E5C
331
A48
  5
AEA
331
1301
  5
1340
331
C35
  5
D9B
331
ACF
  5
B5A
331
ED1
  5
EE2
331
1344
  5
1678
331
9E0
  5
A44
331
10D4
  5
1133
331
FE5
  5
1070
331
1132
  5
119D
331
91B
  5
97E
331
A46
  5
AD9
331
C68
  5
DC7
331
1355
  5
167E
331
EE2
  5
F6D
331
F1E
  5
FB9
331
8CE
  5
92A
331
5B7
  5
5B7
331
1321
  5
1347
331
92A
  5
A27
331
ECF
  5
EE0
331
1342
  5
1676
331
11DD
  5
1298
331
110E
  5
1186
331
A44
  5
AD7
331
10D2
  5
112F
331
1130
  5
1191
331
11EE
  5
12A9
331
EE0
  5
F55
331
107D
  5
10FA
331
124A
  5
12CA
331
1050
  5
10DA
331
ECD
  5
EDE
331
DDE
  5
E67
331
1340
  5
1674
331
EEF
  5
FA3
331
10D0
  5
1123
331
12CA
  5
1338
331
A42
  5
ACF
331
1A12
  5
91E
331
F09
  5
FAD
331
130E
  5
1345
331
112E
  5
118A
331
D53
  5
E23
331
1061
  5
10F4
331
EDE
  5
F22
331
C86
  5
DDE
331
975
  5
A3E
331
E5E
  5
ED0
331
B5C
  5
BF2
331
ECB
  5
EDC
331
9FC
  5
A46
331
133E
  5
1672
331
1A10
  5
1146
331
12C8
  5
1336
331
A40
  5
AAD
331
F6D
  5
FF0
331
A9E
  5
B50
331
116A
  5
1251
331
D51
  5
DEB
331
9EB
  5
A45
331
EDC
  5
F20
331
E5C
  5
ECE
331
12D9
  5
133A
331
10F9
  5
1185
331
B5A
  5
BC8
331
A8D
  5
B47
331
8C8
  5
8D7
331
D62
  5
E46
331
D60
  5
E2C
331
AE9
  5
B84
331
133C
  5
1350
331
12C6
  5
1322
331
A3E
  5
A8D
331
B47
  5
BB4
331
1941
  5
1A21
331
E7C
  5
ED6
331
FF7
  5
10BB
331
E96
  5
ED7
331
118A
  5
1289
331
EB8
  5
ED9
331
AD8
  5
B6A
331
10BB
  5
1122
331
DEB
  5
E7B
331
EDA
  5
F1E
331
10F7
  5
1182
331
12F9
  5
133E
331
E49
  5
ECA
331
AAD
  5
B59
331
EA7
  5
ED8
331
FEE
  5
1071
331
133A
  5
134E
331
FB9
  5
102F
331
135C
  5
1685
331
A3C
  5
A6C
331
FF5
  5
109B
331
E7A
  5
ED4
331
BAB
  5
CB1
331
933
  5
A30
331
DC7
  5
E53
331
1188
  5
1278
331
ED8
  5
F09
331
AF8
  5
BAD
331
DE9
  5
E79
331
10F5
  5
1178
331
E47
  5
EB8
331
944
  5
A39
331
AD6
  5
B5D
331
1266
  5
1301
331
1177
  5
125F
331
1086
  5
110E
331
5BE
  5
5BE
331
1338
  5
134C
331
DF8
  5
E7C
331
135A
  5
1683
331
A3A
  5
A52
331
FF3
  5
1087
331
E78
  5
ED2
331
BA9
  5
C87
331
1073
  5
10F8
331
D4B
  5
DE9
331
953
  5
A3A
331
1186
  5
1267
331
AF6
  5
BAA
331
ED6
  5
EEF
331
DE7
  5
E70
331
9B1
  5
A41
331
1026
  5
10D0
331
E67
  5
ED1
331
920
  5
9CF
331
F56
  5
FEF
331
EF8
  5
FA4
331
1264
  5
12F9
331
97E
  5
A3F
331
FB7
  5
FF8
331
5BC
  5
5BC
331
1358
  5
1681
331
F21
  5
FDC
331
FF1
  5
107D
331
1304
  5
1343
331
A52
  5
AF6
331
1146
  5
124A
331
1251
  5
12CB
331
1184
  5
1265
331
1071
  5
10F6
331
ED4
  5
EE5
331
FA4
  5
FF5
331
C7C
  5
DD4
331
A27
  5
A47
331
1135
  5
11DD
331
BEB
  5
D7A
331
1337
  5
134B
331
91E
  5
9B1
331
1262
  5
12E9
331
A49
  5
AF5
331
CB8
  5
DE7
331
EE5
  5
F94
331
DD4
  5
E5D
331
1302
  5
1341
331
1122
  5
1187
331
8E9
  5
955
331
90B
  5
96C
331
1182
  5
1262
331
ED2
  5
EE3
331
12B5
  5
1321
331
FA2
  5
FF3
331
1345
  5
167B
331
10D5
  5
1147
331
A47
  5
AE9
331
9CF
  5
A43
331
8BE
  5
8C5
331
87A
  5
8BC
331
1133
  5
11A3
331
8FA
  5
956
331
1335
  5
1349
331
91C
  5
97F
331
B50
  5
BBE
331
1260
  5
12D9
331
EC1
  5
EDA
331
EE3
  5
F77
331
1356
  5
167F
331
9BE
  5
A42
331
F1F
  5
FBA
331
5B8
  5
5B8
331
1300
  5
133F
331
1211
  5
12C6
331
1322
  5
1348
331
126F
  5
1303
331
C34
  5
D87
331
ED0
  5
EE1
331
1343
  5
1677
331
10D3
  5
1131
331
A45
  5
AD8
331
1131
  5
1198
331
1222
  5
12C7
331
EE1
  5
F56
331
DAE
  5
E48
331
91A
  5
975
  0
LAYOUT
  5
21
102
{ACAD_XDICTIONARY
360
1AF3
102
}
102
{ACAD_REACTORS
330
19
102
}
330
19
100
AcDbPlotSettings
  1

  2
\\ingdom02\ITB3
  4

  6

 40
0.0
 41
0.0
 42
0.0
 43
0.0
 44
0.0
 45
0.0
 46
0.0
 47
0.0
 48
0.0
 49
0.0
140
0.0
141
0.0
142
1.0
143
1.0
 70
   688
 72
     0
 73
     0
 74
     5
  7

 75
    16
147
1.0
148
0.0
149
0.0
100
AcDbLayout
  1
Layout1
 70
     1
 71
     1
 10
0.0
 20
0.0
 11
12.0
 21
9.0
 12
0.0
 22
0.0
 32
0.0
 14
100.0
 24
100.0
 34
100.0
 15
-100.0
 25
-100.0
 35
-100.0
146
0.0
 13
0.0
 23
0.0
 33
0.0
 16
1.0
 26
0.0
 36
0.0
 17
0.0
 27
1.0
 37
0.0
 76
     0
330
1E
  0
LAYOUT
  5
25
102
{ACAD_XDICTIONARY
360
1AF5
102
}
102
{ACAD_REACTORS
330
19
102
}
330
19
100
AcDbPlotSettings
  1

  2
\\ingdom02\ITB3
  4

  6

 40
0.0
 41
0.0
 42
0.0
 43
0.0
 44
0.0
 45
0.0
 46
0.0
 47
0.0
 48
0.0
 49
0.0
140
0.0
141
0.0
142
1.0
143
1.0
 70
  1712
 72
     0
 73
     0
 74
     0
  7

 75
     0
147
1.0
148
0.0
149
0.0
100
AcDbLayout
  1
Model
 70
     1
 71
     0
 10
0.0
 20
0.0
 11
12.0
 21
9.0
 12
0.0
 22
0.0
 32
0.0
 14
0.0
 24
0.0
 34
0.0
 15
0.0
 25
0.0
 35
0.0
146
0.0
 13
0.0
 23
0.0
 33
0.0
 16
1.0
 26
0.0
 36
0.0
 17
0.0
 27
1.0
 37
0.0
 76
     0
330
22
  0
MLINESTYLE
  5
17
102
{ACAD_REACTORS
330
16
102
}
330
16
100
AcDbMlineStyle
  2
STANDARD
 70
     0
  3

 62
   256
 51
90.0
 52
90.0
 71
     2
 49
0.5
 62
   256
  6
BYLAYER
 49
-0.5
 62
   256
  6
BYLAYER
  0
ACDBPLACEHOLDER
  5
F
102
{ACAD_REACTORS
330
E
102
}
330
E
  0
TABLESTYLE
  5
1D
102
{ACAD_REACTORS
330
1C
102
}
330
1C
100
AcDbTableStyle
  3
Standard
 70
     0
 71
     0
 40
0.06
 41
0.06
280
     0
281
     0
  7
STANDARD
140
0.18
170
     2
 62
     0
 63
     7
283
     0
274
    -2
284
     1
 64
     0
275
    -2
285
     1
 65
     0
276
    -2
286
     1
 66
     0
277
    -2
287
     1
 67
     0
278
    -2
288
     1
 68
     0
279
    -2
289
     1
 69
     0
  7
STANDARD
140
0.25
170
     5
 62
     0
 63
     7
283
     0
274
    -2
284
     1
 64
     0
275
    -2
285
     1
 65
     0
276
    -2
286
     1
 66
     0
277
    -2
287
     1
 67
     0
278
    -2
288
     1
 68
     0
279
    -2
289
     1
 69
     0
  7
STANDARD
140
0.18
170
     5
 62
     0
 63
     7
283
     0
274
    -2
284
     1
 64
     0
275
    -2
285
     1
 65
     0
276
    -2
286
     1
 66
     0
277
    -2
287
     1
 67
     0
278
    -2
288
     1
 68
     0
279
    -2
289
     1
 69
     0
  0
DICTIONARYVAR
  5
1A16
102
{ACAD_REACTORS
330
1A15
102
}
330
1A15
100
DictionaryVariables
280
     0
  1
STANDARD
  0
DICTIONARYVAR
  5
1AD2
102
{ACAD_REACTORS
330
1A15
102
}
330
1A15
100
DictionaryVariables
280
     0
  1
1
  0
DICTIONARYVAR
  5
1AD3
102
{ACAD_REACTORS
330
1A15
102
}
330
1A15
100
DictionaryVariables
280
     0
  1

  0
DICTIONARY
  5
1AF3
330
21
100
AcDbDictionary
280
     1
281
     1
  3
ACAD_XREC_ROUNDTRIP
360
1AF4
  0
DICTIONARY
  5
1AF5
330
25
100
AcDbDictionary
280
     1
281
     1
  3
ACAD_XREC_ROUNDTRIP
360
1AF6
  0
XRECORD
  5
1AF4
102
{ACAD_REACTORS
330
1AF3
102
}
330
1AF3
100
AcDbXrecord
280
     1
102
SHADEPLOT
 70
     0
102
SHADEPLOTRESLEVEL
 70
     2
102
SHADEPLOTCUSTOMDPI
 70
   300
  0
XRECORD
  5
1AF6
102
{ACAD_REACTORS
330
1AF5
102
}
330
1AF5
100
AcDbXrecord
280
     1
102
SHADEPLOT
 70
     0
102
SHADEPLOTRESLEVEL
 70
     2
102
SHADEPLOTCUSTOMDPI
 70
   300
  0
ENDSEC
  0
EOF
