  0
SECTION
  2
HEADER
  9
$ACADVER
  1
AC1015
  9
$ACADMAINTVER
 70
    20
  9
$DWGCODEPAGE
  3
ANSI_1252
  9
$INSBASE
 10
0.0
 20
0.0
 30
0.0
  9
$EXTMIN
 10
-29.56585558499887
 20
-24.39788723410789
 30
-0.0015258207003583
  9
$EXTMAX
 10
73.71524125583846
 20
22.41760305410446
 30
0.0000000349246037
  9
$LIMMIN
 10
0.0
 20
0.0
  9
$LIMMAX
 10
594.0
 20
420.0
  9
$ORTHOMODE
 70
     0
  9
$REGENMODE
 70
     1
  9
$FILLMODE
 70
     1
  9
$QTEXTMODE
 70
     0
  9
$MIRRTEXT
 70
     0
  9
$LTSCALE
 40
10.0
  9
$ATTMODE
 70
     1
  9
$TEXTSIZE
 40
0.2
  9
$TRACEWID
 40
0.05
  9
$TEXTSTYLE
  7
STANDARD
  9
$CLAYER
  8
0
  9
$CELTYPE
  6
ByLayer
  9
$CECOLOR
 62
   256
  9
$CELTSCALE
 40
1.0
  9
$DISPSILH
 70
     0
  9
$DIMSCALE
 40
1.0
  9
$DIMASZ
 40
2.5
  9
$DIMEXO
 40
0.625
  9
$DIMDLI
 40
3.75
  9
$DIMRND
 40
0.0
  9
$DIMDLE
 40
0.0
  9
$DIMEXE
 40
1.25
  9
$DIMTP
 40
0.0
  9
$DIMTM
 40
0.0
  9
$DIMTXT
 40
2.5
  9
$DIMCEN
 40
2.5
  9
$DIMTSZ
 40
0.0
  9
$DIMTOL
 70
     0
  9
$DIMLIM
 70
     0
  9
$DIMTIH
 70
     0
  9
$DIMTOH
 70
     0
  9
$DIMSE1
 70
     0
  9
$DIMSE2
 70
     0
  9
$DIMTAD
 70
     1
  9
$DIMZIN
 70
     8
  9
$DIMBLK
  1

  9
$DIMASO
 70
     1
  9
$DIMSHO
 70
     1
  9
$DIMPOST
  1

  9
$DIMAPOST
  1

  9
$DIMALT
 70
     0
  9
$DIMALTD
 70
     3
  9
$DIMALTF
 40
0.03937007874016
  9
$DIMLFAC
 40
1.0
  9
$DIMTOFL
 70
     1
  9
$DIMTVP
 40
0.0
  9
$DIMTIX
 70
     0
  9
$DIMSOXD
 70
     0
  9
$DIMSAH
 70
     0
  9
$DIMBLK1
  1

  9
$DIMBLK2
  1

  9
$DIMSTYLE
  2
ISO-25
  9
$DIMCLRD
 70
     0
  9
$DIMCLRE
 70
     0
  9
$DIMCLRT
 70
     0
  9
$DIMTFAC
 40
1.0
  9
$DIMGAP
 40
0.625
  9
$DIMJUST
 70
     0
  9
$DIMSD1
 70
     0
  9
$DIMSD2
 70
     0
  9
$DIMTOLJ
 70
     0
  9
$DIMTZIN
 70
     8
  9
$DIMALTZ
 70
     0
  9
$DIMALTTZ
 70
     0
  9
$DIMUPT
 70
     0
  9
$DIMDEC
 70
     2
  9
$DIMTDEC
 70
     2
  9
$DIMALTU
 70
     2
  9
$DIMALTTD
 70
     3
  9
$DIMTXSTY
  7
STANDARD
  9
$DIMAUNIT
 70
     0
  9
$DIMADEC
 70
     0
  9
$DIMALTRND
 40
0.0
  9
$DIMAZIN
 70
     0
  9
$DIMDSEP
 70
    44
  9
$DIMATFIT
 70
     3
  9
$DIMFRAC
 70
     0
  9
$DIMLDRBLK
  1

  9
$DIMLUNIT
 70
     2
  9
$DIMLWD
 70
    -2
  9
$DIMLWE
 70
    -2
  9
$DIMTMOVE
 70
     0
  9
$LUNITS
 70
     2
  9
$LUPREC
 70
     4
  9
$SKETCHINC
 40
0.1
  9
$FILLETRAD
 40
0.0
  9
$AUNITS
 70
     0
  9
$AUPREC
 70
     0
  9
$MENU
  1

  9
$ELEVATION
 40
0.0
  9
$PELEVATION
 40
0.0
  9
$THICKNESS
 40
0.0
  9
$LIMCHECK
 70
     0
  9
$CHAMFERA
 40
0.0
  9
$CHAMFERB
 40
0.0
  9
$CHAMFERC
 40
0.0
  9
$CHAMFERD
 40
0.0
  9
$SKPOLY
 70
     0
  9
$TDCREATE
 40
2454209.438802570
  9
$TDUCREATE
 40
2454209.355469236
  9
$TDUPDATE
 40
2454209.673591146
  9
$TDUUPDATE
 40
2454209.590257812
  9
$TDINDWG
 40
0.0415204977
  9
$TDUSRTIMER
 40
0.0406338194
  9
$USRTIMER
 70
     1
  9
$ANGBASE
 50
0.0
  9
$ANGDIR
 70
     0
  9
$PDMODE
 70
     0
  9
$PDSIZE
 40
3.5
  9
$PLINEWID
 40
0.0
  9
$SPLFRAME
 70
     0
  9
$SPLINETYPE
 70
     6
  9
$SPLINESEGS
 70
     8
  9
$HANDSEED
  5
16B0
  9
$SURFTAB1
 70
     6
  9
$SURFTAB2
 70
     6
  9
$SURFTYPE
 70
     6
  9
$SURFU
 70
     6
  9
$SURFV
 70
     6
  9
$UCSBASE
  2

  9
$UCSNAME
  2

  9
$UCSORG
 10
0.0
 20
0.0
 30
0.0
  9
$UCSXDIR
 10
1.0
 20
0.0
 30
0.0
  9
$UCSYDIR
 10
0.0
 20
1.0
 30
0.0
  9
$UCSORTHOREF
  2

  9
$UCSORTHOVIEW
 70
     0
  9
$UCSORGTOP
 10
0.0
 20
0.0
 30
0.0
  9
$UCSORGBOTTOM
 10
0.0
 20
0.0
 30
0.0
  9
$UCSORGLEFT
 10
0.0
 20
0.0
 30
0.0
  9
$UCSORGRIGHT
 10
0.0
 20
0.0
 30
0.0
  9
$UCSORGFRONT
 10
0.0
 20
0.0
 30
0.0
  9
$UCSORGBACK
 10
0.0
 20
0.0
 30
0.0
  9
$PUCSBASE
  2

  9
$PUCSNAME
  2

  9
$PUCSORG
 10
0.0
 20
0.0
 30
0.0
  9
$PUCSXDIR
 10
1.0
 20
0.0
 30
0.0
  9
$PUCSYDIR
 10
0.0
 20
1.0
 30
0.0
  9
$PUCSORTHOREF
  2

  9
$PUCSORTHOVIEW
 70
     0
  9
$PUCSORGTOP
 10
0.0
 20
0.0
 30
0.0
  9
$PUCSORGBOTTOM
 10
0.0
 20
0.0
 30
0.0
  9
$PUCSORGLEFT
 10
0.0
 20
0.0
 30
0.0
  9
$PUCSORGRIGHT
 10
0.0
 20
0.0
 30
0.0
  9
$PUCSORGFRONT
 10
0.0
 20
0.0
 30
0.0
  9
$PUCSORGBACK
 10
0.0
 20
0.0
 30
0.0
  9
$USERI1
 70
     0
  9
$USERI2
 70
     0
  9
$USERI3
 70
     0
  9
$USERI4
 70
     0
  9
$USERI5
 70
     0
  9
$USERR1
 40
0.0
  9
$USERR2
 40
0.0
  9
$USERR3
 40
0.0
  9
$USERR4
 40
0.0
  9
$USERR5
 40
0.0
  9
$WORLDVIEW
 70
     1
  9
$SHADEDGE
 70
     3
  9
$SHADEDIF
 70
    70
  9
$TILEMODE
 70
     1
  9
$MAXACTVP
 70
    64
  9
$PINSBASE
 10
0.0
 20
0.0
 30
0.0
  9
$PLIMCHECK
 70
     0
  9
$PEXTMIN
 10
100.0
 20
100.0
 30
100.0
  9
$PEXTMAX
 10
-100.0
 20
-100.0
 30
-100.0
  9
$PLIMMIN
 10
0.0
 20
0.0
  9
$PLIMMAX
 10
12.0
 20
9.0
  9
$UNITMODE
 70
     0
  9
$VISRETAIN
 70
     1
  9
$PLINEGEN
 70
     1
  9
$PSLTSCALE
 70
     1
  9
$TREEDEPTH
 70
  3020
  9
$CMLSTYLE
  2
Standard
  9
$CMLJUST
 70
     0
  9
$CMLSCALE
 40
1.0
  9
$PROXYGRAPHICS
 70
     1
  9
$MEASUREMENT
 70
     0
  9
$CELWEIGHT
370
    -1
  9
$ENDCAPS
280
     0
  9
$JOINSTYLE
280
     0
  9
$LWDISPLAY
290
     0
  9
$INSUNITS
 70
     0
  9
$HYPERLINKBASE
  1

  9
$STYLESHEET
  1

  9
$XEDIT
290
     1
  9
$CEPSNTYPE
380
     0
  9
$PSTYLEMODE
290
     1
  9
$FINGERPRINTGUID
  2
{80C2D032-DA4C-4E24-85F5-C54136F8731B}
  9
$VERSIONGUID
  2
{DEEE595D-F0D9-4893-9526-5D072193070E}
  9
$EXTNAMES
290
     1
  9
$PSVPSCALE
 40
0.0
  9
$OLESTARTUP
290
     0
  0
ENDSEC
  0
SECTION
  2
CLASSES
  0
CLASS
  1
ACDBDICTIONARYWDFLT
  2
AcDbDictionaryWithDefault
  3
ObjectDBX Classes
 90
        0
280
     0
281
     0
  0
CLASS
  1
TABLESTYLE
  2
AcDbTableStyle
  3
ObjectDBX Classes
 90
     2047
280
     0
281
     0
  0
CLASS
  1
SORTENTSTABLE
  2
AcDbSortentsTable
  3
ObjectDBX Classes
 90
        0
280
     0
281
     0
  0
CLASS
  1
DICTIONARYVAR
  2
AcDbDictionaryVar
  3
ObjectDBX Classes
 90
        0
280
     0
281
     0
  0
CLASS
  1
ACDBPLACEHOLDER
  2
AcDbPlaceHolder
  3
ObjectDBX Classes
 90
        0
280
     0
281
     0
  0
CLASS
  1
LAYOUT
  2
AcDbLayout
  3
ObjectDBX Classes
 90
        0
280
     0
281
     0
  0
ENDSEC
  0
SECTION
  2
TABLES
  0
TABLE
  2
VPORT
  5
8
330
0
100
AcDbSymbolTable
 70
     5
  0
VPORT
  5
16AA
330
8
100
AcDbSymbolTableRecord
100
AcDbViewportTableRecord
  2
*Active
 70
     0
 10
0.0
 20
0.0
 11
1.0
 21
1.0
 12
22.0746928354198
 22
-0.9901420900017114
 13
0.0
 23
0.0
 14
1.0
 24
1.0
 15
0.0
 25
0.0
 16
0.0
 26
0.0
 36
1.0
 17
0.0
 27
0.0
 37
0.0
 40
68.5366277170203
 41
1.514429109159347
 42
50.0
 43
0.0
 44
0.0
 50
0.0
 51
0.0
 71
     0
 72
   100
 73
     1
 74
     1
 75
     0
 76
     0
 77
     0
 78
     0
281
     0
 65
     1
110
0.0
120
0.0
130
0.0
111
1.0
121
0.0
131
0.0
112
0.0
122
1.0
132
0.0
 79
     0
146
0.0
  0
ENDTAB
  0
TABLE
  2
LTYPE
  5
5
330
0
100
AcDbSymbolTable
 70
     6
  0
LTYPE
  5
13
330
5
100
AcDbSymbolTableRecord
100
AcDbLinetypeTableRecord
  2
ByBlock
 70
     0
  3

 72
    65
 73
     0
 40
0.0
  0
LTYPE
  5
14
330
5
100
AcDbSymbolTableRecord
100
AcDbLinetypeTableRecord
  2
ByLayer
 70
     0
  3

 72
    65
 73
     0
 40
0.0
  0
LTYPE
  5
15
330
5
100
AcDbSymbolTableRecord
100
AcDbLinetypeTableRecord
  2
CONTINUOUS
 70
     0
  3
Solid line
 72
    65
 73
     0
 40
0.0
  0
LTYPE
  5
27
330
5
100
AcDbSymbolTableRecord
100
AcDbLinetypeTableRecord
  2
CENTER
 70
     0
  3
____ _ ____ _ ____ _ ____ _ ____ _ ____ _ ____
 72
    65
 73
     4
 40
0.6
 49
0.375
 74
     0
 49
-0.075
 74
     0
 49
0.075
 74
     0
 49
-0.075
 74
     0
  0
LTYPE
  5
28
330
5
100
AcDbSymbolTableRecord
100
AcDbLinetypeTableRecord
  2
HIDDEN
 70
     0
  3
- - - - - - - - - - - - - - - - - - - -
 72
    65
 73
     2
 40
0.2
 49
0.1
 74
     0
 49
-0.1
 74
     0
  0
ENDTAB
  0
TABLE
  2
LAYER
  5
2
102
{ACAD_XDICTIONARY
360
1576
102
}
330
0
100
AcDbSymbolTable
 70
    16
  0
LAYER
  5
10
330
2
100
AcDbSymbolTableRecord
100
AcDbLayerTableRecord
  2
0
 70
     0
 62
     7
  6
CONTINUOUS
370
    -3
390
F
  0
LAYER
  5
2C
330
2
100
AcDbSymbolTableRecord
100
AcDbLayerTableRecord
  2
SK1
 70
     0
 62
     4
  6
CONTINUOUS
370
    -3
390
F
  0
LAYER
  5
2D
330
2
100
AcDbSymbolTableRecord
100
AcDbLayerTableRecord
  2
1
 70
     0
 62
     4
  6
CONTINUOUS
370
    -3
390
F
  0
LAYER
  5
2E
330
2
100
AcDbSymbolTableRecord
100
AcDbLayerTableRecord
  2
2
 70
     0
 62
     7
  6
CONTINUOUS
370
    -3
390
F
  0
LAYER
  5
2F
330
2
100
AcDbSymbolTableRecord
100
AcDbLayerTableRecord
  2
SK2
 70
     0
 62
     7
  6
CONTINUOUS
370
    -3
390
F
  0
LAYER
  5
30
330
2
100
AcDbSymbolTableRecord
100
AcDbLayerTableRecord
  2
3
 70
     0
 62
     1
  6
HIDDEN
370
    -3
390
F
  0
LAYER
  5
31
330
2
100
AcDbSymbolTableRecord
100
AcDbLayerTableRecord
  2
SK3
 70
     0
 62
     1
  6
HIDDEN
370
    -3
390
F
  0
LAYER
  5
32
330
2
100
AcDbSymbolTableRecord
100
AcDbLayerTableRecord
  2
4
 70
     0
 62
     2
  6
CENTER
370
    -3
390
F
  0
LAYER
  5
33
330
2
100
AcDbSymbolTableRecord
100
AcDbLayerTableRecord
  2
SK4
 70
     0
 62
     2
  6
CENTER
370
    -3
390
F
  0
LAYER
  5
36
330
2
100
AcDbSymbolTableRecord
100
AcDbLayerTableRecord
  2
6
 70
     0
 62
     5
  6
CONTINUOUS
370
    -3
390
F
  0
LAYER
  5
570
330
2
100
AcDbSymbolTableRecord
100
AcDbLayerTableRecord
  2
DEFPOINTS
 70
     0
 62
     7
  6
CONTINUOUS
290
     0
370
    -3
390
F
  0
LAYER
  5
1232
330
2
100
AcDbSymbolTableRecord
100
AcDbLayerTableRecord
  2
CUT
 70
     0
 62
     1
  6
CONTINUOUS
370
    -3
390
F
  0
LAYER
  5
1233
330
2
100
AcDbSymbolTableRecord
100
AcDbLayerTableRecord
  2
NOCUT
 70
     0
 62
     7
  6
CONTINUOUS
370
    -3
390
F
  0
ENDTAB
  0
TABLE
  2
STYLE
  5
3
330
0
100
AcDbSymbolTable
 70
     3
  0
STYLE
  5
11
330
3
100
AcDbSymbolTableRecord
100
AcDbTextStyleTableRecord
  2
STANDARD
 70
     0
 40
0.0
 41
0.8
 50
0.0
 71
     0
 42
0.2
  3
ISOCP
  4

  0
ENDTAB
  0
TABLE
  2
VIEW
  5
6
330
0
100
AcDbSymbolTable
 70
     0
  0
ENDTAB
  0
TABLE
  2
UCS
  5
7
330
0
100
AcDbSymbolTable
 70
     0
  0
ENDTAB
  0
TABLE
  2
APPID
  5
9
330
0
100
AcDbSymbolTable
 70
     1
  0
APPID
  5
12
330
9
100
AcDbSymbolTableRecord
100
AcDbRegAppTableRecord
  2
ACAD
 70
     0
  0
ENDTAB
  0
TABLE
  2
DIMSTYLE
  5
A
330
0
100
AcDbSymbolTable
 70
     2
100
AcDbDimStyleTable
 71
     2
340
1234
340
3A
  0
DIMSTYLE
105
3A
330
A
100
AcDbSymbolTableRecord
100
AcDbDimStyleTableRecord
  2
STANDARD
 70
     0
279
     2
340
11
  0
DIMSTYLE
105
1234
102
{ACAD_REACTORS
330
1236
330
1237
330
1238
330
1384
330
1385
330
5E0
330
5DA
330
5DF
330
1636
330
165F
102
}
330
A
100
AcDbSymbolTableRecord
100
AcDbDimStyleTableRecord
  2
ISO-25
 70
     0
 41
2.5
 42
0.625
 43
3.75
 44
1.25
 73
     0
 74
     0
 77
     1
 78
     8
140
2.5
141
2.5
143
0.03937007874016
147
0.625
171
     3
172
     1
271
     2
272
     2
274
     3
278
    44
283
     0
284
     8
340
11
  0
ENDTAB
  0
TABLE
  2
BLOCK_RECORD
  5
1
330
0
100
AcDbSymbolTable
 70
    56
  0
BLOCK_RECORD
  5
22
102
{ACAD_XDICTIONARY
360
1607
102
}
330
1
100
AcDbSymbolTableRecord
100
AcDbBlockTableRecord
  2
*Model_Space
340
25
  0
BLOCK_RECORD
  5
1E
330
1
100
AcDbSymbolTableRecord
100
AcDbBlockTableRecord
  2
*Paper_Space
340
21
  0
BLOCK_RECORD
  5
11E7
330
1
100
AcDbSymbolTableRecord
100
AcDbBlockTableRecord
  2
nullp
340
0
310
2800000020000000200000000100080000000000000400000000000000000000000000000000000000000000000080000080000000808000800000008000800080800000C0C0C000C0DCC000F0CAA6000020400000206000002080000020A0000020C0000020E00000400000004020000040400000406000004080000040A0
310
000040C0000040E00000600000006020000060400000606000006080000060A0000060C0000060E00000800000008020000080400000806000008080000080A0000080C0000080E00000A0000000A0200000A0400000A0600000A0800000A0A00000A0C00000A0E00000C0000000C0200000C0400000C0600000C0800000C0
310
A00000C0C00000C0E00000E0000000E0200000E0400000E0600000E0800000E0A00000E0C00000E0E00040000000400020004000400040006000400080004000A0004000C0004000E00040200000402020004020400040206000402080004020A0004020C0004020E000404000004040200040404000404060004040800040
310
40A0004040C0004040E00040600000406020004060400040606000406080004060A0004060C0004060E00040800000408020004080400040806000408080004080A0004080C0004080E00040A0000040A0200040A0400040A0600040A0800040A0A00040A0C00040A0E00040C0000040C0200040C0400040C0600040C08000
310
40C0A00040C0C00040C0E00040E0000040E0200040E0400040E0600040E0800040E0A00040E0C00040E0E00080000000800020008000400080006000800080008000A0008000C0008000E00080200000802020008020400080206000802080008020A0008020C0008020E00080400000804020008040400080406000804080
310
008040A0008040C0008040E00080600000806020008060400080606000806080008060A0008060C0008060E00080800000808020008080400080806000808080008080A0008080C0008080E00080A0000080A0200080A0400080A0600080A0800080A0A00080A0C00080A0E00080C0000080C0200080C0400080C0600080C0
310
800080C0A00080C0C00080C0E00080E0000080E0200080E0400080E0600080E0800080E0A00080E0C00080E0E000C0000000C0002000C0004000C0006000C0008000C000A000C000C000C000E000C0200000C0202000C0204000C0206000C0208000C020A000C020C000C020E000C0400000C0402000C0404000C0406000C0
310
408000C040A000C040C000C040E000C0600000C0602000C0604000C0606000C0608000C060A000C060C000C060E000C0800000C0802000C0804000C0806000C0808000C080A000C080C000C080E000C0A00000C0A02000C0A04000C0A06000C0A08000C0A0A000C0A0C000C0A0E000C0C00000C0C02000C0C04000C0C06000
310
C0C08000C0C0A000F0FBFF00A4A0A000808080000000FF0000FF000000FFFF00FF000000FF00FF00FFFF0000FFFFFF0000000000000000000000000000000000000000000000000000000000000000000000000000000000000000000000FEFEFE00000000000000000000000000000000000000000000000000FEFEFEFEFE
310
FEFEFEFE000000000000000000000000000000000000000000FEFEFEFEFEFEFEFEFE0000FEFE000000000000000000000000000000000000FEFEFEFEFEFEFEFEFEFE00000000FEFE00000000000000000000000000000000FEFEFEFEFEFEFEFEFEFE000000000000FEFE00000000000000000000000000FEFEFEFEFEFEFEFE
310
FEFEFE0000000000000000FEFE00000000000000000000FEFEFEFEFEFEFEFEFEFEFEFE000000000000000000FE000000000000000000FEFEFEFEFEFEFEFEFEFEFEFEFE00000000000000000000FE00000000000000FEFEFEFEFEFEFEFEFEFEFEFEFEFE00000000000000000000FE000000000000FEFEFEFEFEFEFEFEFEFEFE
310
FEFEFEFE0000000000000000000000FE0000000000FEFEFEFEFEFEFEFEFEFEFEFEFEFEFE0000000000000000000000FE0000000000FEFEFEFEFEFEFEFEFEFEFEFEFEFEFE0000000000000000000000FE00000000FEFEFEFEFEFEFEFEFEFEFEFEFEFEFEFE000000000000000000000000FE000000FEFEFEFEFEFEFEFEFEFEFE
310
FEFEFEFEFE000000000000000000000000FE000000FEFEFEFEFEFEFEFEFEFEFEFEFEFEFEFE00000000000000000000000000FE0000FEFEFEFEFEFEFEFEFEFEFEFEFEFEFEFEFEFEFEFEFEFEFEFEFEFEFEFEFEFE000000FE000000000000000000000000FEFEFEFEFEFEFEFEFEFEFEFEFEFEFEFE000000FE0000000000000000
310
00000000FEFEFEFEFEFEFEFEFEFEFEFEFEFEFEFE000000FE000000000000000000000000FEFEFEFEFEFEFEFEFEFEFEFEFEFEFE00000000FE000000000000000000000000FEFEFEFEFEFEFEFEFEFEFEFEFEFEFE0000000000FE0000000000000000000000FEFEFEFEFEFEFEFEFEFEFEFEFEFEFE000000000000FE0000000000
310
0000000000FEFEFEFEFEFEFEFEFEFEFEFEFEFE00000000000000FE00000000000000000000FEFEFEFEFEFEFEFEFEFEFEFEFE000000000000000000FE000000000000000000FEFEFEFEFEFEFEFEFEFEFEFE0000000000000000000000FE0000000000000000FEFEFEFEFEFEFEFEFEFEFEFE000000000000000000000000FE00
310
000000000000FEFEFEFEFEFEFEFEFEFEFE00000000000000000000000000FE00000000000000FEFEFEFEFEFEFEFEFE00000000000000000000000000000000FEFEFEFEFE0000FEFEFEFEFEFEFEFE00000000000000000000000000000000000000000000FEFEFEFEFEFEFEFEFE000000000000000000000000000000000000
310
00000000000000FEFEFEFE000000000000000000000000000000000000000000000000000000000000000000000000000000000000000000
102
{BLKREFS
331
1382
331
14D7
102
}
  0
BLOCK_RECORD
  5
11F0
330
1
100
AcDbSymbolTableRecord
100
AcDbBlockTableRecord
  2
nullp1
340
0
310
2800000020000000200000000100080000000000000400000000000000000000000000000000000000000000000080000080000000808000800000008000800080800000C0C0C000C0DCC000F0CAA6000020400000206000002080000020A0000020C0000020E00000400000004020000040400000406000004080000040A0
310
000040C0000040E00000600000006020000060400000606000006080000060A0000060C0000060E00000800000008020000080400000806000008080000080A0000080C0000080E00000A0000000A0200000A0400000A0600000A0800000A0A00000A0C00000A0E00000C0000000C0200000C0400000C0600000C0800000C0
310
A00000C0C00000C0E00000E0000000E0200000E0400000E0600000E0800000E0A00000E0C00000E0E00040000000400020004000400040006000400080004000A0004000C0004000E00040200000402020004020400040206000402080004020A0004020C0004020E000404000004040200040404000404060004040800040
310
40A0004040C0004040E00040600000406020004060400040606000406080004060A0004060C0004060E00040800000408020004080400040806000408080004080A0004080C0004080E00040A0000040A0200040A0400040A0600040A0800040A0A00040A0C00040A0E00040C0000040C0200040C0400040C0600040C08000
310
40C0A00040C0C00040C0E00040E0000040E0200040E0400040E0600040E0800040E0A00040E0C00040E0E00080000000800020008000400080006000800080008000A0008000C0008000E00080200000802020008020400080206000802080008020A0008020C0008020E00080400000804020008040400080406000804080
310
008040A0008040C0008040E00080600000806020008060400080606000806080008060A0008060C0008060E00080800000808020008080400080806000808080008080A0008080C0008080E00080A0000080A0200080A0400080A0600080A0800080A0A00080A0C00080A0E00080C0000080C0200080C0400080C0600080C0
310
800080C0A00080C0C00080C0E00080E0000080E0200080E0400080E0600080E0800080E0A00080E0C00080E0E000C0000000C0002000C0004000C0006000C0008000C000A000C000C000C000E000C0200000C0202000C0204000C0206000C0208000C020A000C020C000C020E000C0400000C0402000C0404000C0406000C0
310
408000C040A000C040C000C040E000C0600000C0602000C0604000C0606000C0608000C060A000C060C000C060E000C0800000C0802000C0804000C0806000C0808000C080A000C080C000C080E000C0A00000C0A02000C0A04000C0A06000C0A08000C0A0A000C0A0C000C0A0E000C0C00000C0C02000C0C04000C0C06000
310
C0C08000C0C0A000F0FBFF00A4A0A000808080000000FF0000FF000000FFFF00FF000000FF00FF00FFFF0000FFFFFF00000000000000000000000000000000000000000000000000000000000000000000000000000000000000000000000000FE0000000000000000000000000000000000000000000000000000000000FE
310
FEFEFEFE000000000000000000000000000000000000000000FEFEFEFEFEFE0000FE0000FEFE000000000000000000000000000000000000FE0000000000000000FE00000000FEFE00000000000000000000000000000000FE0000000000000000FE000000000000FEFE00000000000000000000000000FE00000000000000
310
0000FE0000000000000000FEFE00000000000000000000FE00000000000000000000FE000000000000000000FE000000000000000000FE0000000000000000000000FE00000000000000000000FE0000000000000000FE0000000000000000000000FE00000000000000000000FE00000000000000FE000000000000000000
310
000000FE0000000000000000000000FE0000000000FE00000000000000000000000000FE0000000000000000000000FE0000000000FE00000000000000000000000000FE0000000000000000000000FE0000000000FE00000000000000000000000000FE000000000000000000000000FE00000000FE000000000000000000
310
00000000FE000000000000000000000000FE00000000FE00000000000000000000000000FE00000000000000000000000000FE0000FEFEFEFEFEFEFEFEFEFEFEFEFEFEFEFEFEFEFEFEFEFEFEFEFEFEFEFEFEFE000000FE00000000000000000000000000FE00000000000000000000000000FE000000FE0000000000000000
310
0000000000FE000000000000000000000000FE00000000FE00000000000000000000000000FE000000000000000000000000FE00000000FE00000000000000000000000000FE0000000000000000000000FE000000000000FE000000000000000000000000FE0000000000000000000000FE00000000000000FE0000000000
310
000000000000FE00000000000000000000FE0000000000000000FE0000000000000000000000FE00000000000000000000FE000000000000000000FE00000000000000000000FE000000000000000000FE0000000000000000000000FE000000000000000000FE000000000000000000FE000000000000000000000000FE00
310
00000000000000FE00000000000000FEFE00000000000000000000000000FE0000000000000000FE0000000000FEFE00000000000000000000000000000000FEFEFEFEFE000000FE000000FEFE0000000000000000000000000000000000000000000000FEFEFEFEFEFEFE0000000000000000000000000000000000000000
310
0000000000000000FE0000000000000000000000000000000000000000000000000000000000000000000000000000000000000000000000
102
{BLKREFS
331
1383
331
14D8
102
}
  0
BLOCK_RECORD
  5
1579
330
1
100
AcDbSymbolTableRecord
100
AcDbBlockTableRecord
  2
*D50
340
0
  0
BLOCK_RECORD
  5
1585
330
1
100
AcDbSymbolTableRecord
100
AcDbBlockTableRecord
  2
*D51
340
0
  0
BLOCK_RECORD
  5
1592
330
1
100
AcDbSymbolTableRecord
100
AcDbBlockTableRecord
  2
*D52
340
0
  0
BLOCK_RECORD
  5
1637
330
1
100
AcDbSymbolTableRecord
100
AcDbBlockTableRecord
  2
*D54
340
0
  0
BLOCK_RECORD
  5
1660
330
1
100
AcDbSymbolTableRecord
100
AcDbBlockTableRecord
  2
*D55
340
0
  0
ENDTAB
  0
ENDSEC
  0
SECTION
  2
BLOCKS
  0
BLOCK
  5
23
330
22
100
AcDbEntity
  8
0
100
AcDbBlockBegin
  2
*Model_Space
 70
     0
 10
0.0
 20
0.0
 30
0.0
  3
*Model_Space
  1

  0
ENDBLK
  5
24
330
22
100
AcDbEntity
  8
0
100
AcDbBlockEnd
  0
BLOCK
  5
1F
330
1E
100
AcDbEntity
 67
     1
  8
0
100
AcDbBlockBegin
  2
*Paper_Space
 70
     0
 10
0.0
 20
0.0
 30
0.0
  3
*Paper_Space
  1

  0
ENDBLK
  5
20
330
1E
100
AcDbEntity
 67
     1
  8
0
100
AcDbBlockEnd
  0
BLOCK
  5
11E8
330
11E7
100
AcDbEntity
  8
0
100
AcDbBlockBegin
  2
nullp
 70
     0
 10
0.0
 20
0.0
 30
0.0
  3
nullp
  1

  0
HATCH
  5
11E9
330
11E7
100
AcDbEntity
  8
1
100
AcDbHatch
 10
0.0
 20
0.0
 30
0.0
210
0.0
220
0.0
230
1.0
  2
SOLID
 70
     1
 71
     0
 91
        2
 92
        7
 72
     1
 73
     1
 93
        3
 10
271.9386450411704
 20
389.8959796344513
 42
0.0
 10
274.8896170952829
 20
389.8959796344513
 42
0.4142135623730966
 10
271.9386450411704
 20
392.8469516885638
 42
0.0
 97
        0
 92
        7
 72
     1
 73
     1
 93
        3
 10
271.9386450411704
 20
386.9450075803387
 42
0.0
 10
271.9386450411704
 20
389.8959796344513
 42
0.0
 10
268.9876729870576
 20
389.8959796344513
 42
0.4142135623730966
 97
        0
 75
     0
 76
     1
 47
0.1190009775223266
 98
        2
 10
272.6831980999823
 20
390.8172041078278
 10
270.6591804393174
 20
388.1991827114049
  0
LWPOLYLINE
  5
11EA
330
11E7
100
AcDbEntity
  8
1
100
AcDbPolyline
 90
        3
 70
     1
 43
0.0
 10
271.9386450411702
 20
389.8959796344513
 10
268.9876729870576
 20
389.8959796344513
 42
0.4142135623730966
 10
271.9386450411702
 20
386.9450075803387
  0
LINE
  5
11EB
330
11E7
100
AcDbEntity
  8
1
100
AcDbLine
 10
271.9386450411702
 20
392.8469516885638
 30
0.0
 11
271.9386450411702
 21
386.9450075803387
 31
0.0
  0
LWPOLYLINE
  5
11EC
330
11E7
100
AcDbEntity
  8
1
100
AcDbPolyline
 90
        3
 70
     1
 43
0.0
 10
271.9386450411702
 20
392.8469516885638
 10
271.9386450411702
 20
389.8959796344513
 10
274.8896170952829
 20
389.8959796344513
 42
0.4142135623730966
  0
LINE
  5
11ED
330
11E7
100
AcDbEntity
  8
1
100
AcDbLine
 10
268.9876729870575
 20
389.8959796344513
 30
0.0
 11
274.8896170952828
 21
389.8959796344513
 31
0.0
  0
CIRCLE
  5
11EE
330
11E7
100
AcDbEntity
  8
1
100
AcDbCircle
 10
271.9386450411704
 20
389.8959796344513
 30
0.0
 40
2.950972054112601
  0
ENDBLK
  5
11EF
330
11E7
100
AcDbEntity
  8
0
100
AcDbBlockEnd
  0
BLOCK
  5
11F1
330
11F0
100
AcDbEntity
  8
0
100
AcDbBlockBegin
  2
nullp1
 70
     0
 10
0.0
 20
0.0
 30
0.0
  3
nullp1
  1

  0
LINE
  5
11F2
330
11F0
100
AcDbEntity
  8
1
100
AcDbLine
 10
442.6007601796219
 20
432.5849634019313
 30
0.0
 11
443.5282989193195
 21
432.5849634019313
 31
0.0
  0
CIRCLE
  5
11F3
330
11F0
100
AcDbEntity
  8
1
100
AcDbCircle
 10
443.0645295494706
 20
432.5849634019313
 30
0.0
 40
0.463769369848821
  0
LINE
  5
11F4
330
11F0
100
AcDbEntity
  8
1
100
AcDbLine
 10
443.0645295494706
 20
433.0487327717801
 30
0.0
 11
443.0645295494706
 21
432.1211940320826
 31
0.0
  0
ENDBLK
  5
11F5
330
11F0
100
AcDbEntity
  8
0
100
AcDbBlockEnd
  0
BLOCK
  5
1583
330
1579
100
AcDbEntity
  8
0
100
AcDbBlockBegin
  2
*D50
 70
     1
 10
0.0
 20
0.0
 30
0.0
  3
*D50
  1

  0
LINE
  5
1687
330
1579
100
AcDbEntity
  8
2
 62
     0
370
    -2
100
AcDbLine
 10
0.0
 20
8.990026032781941
 30
0.0
 11
0.0000000000000008
 21
20.66578054921473
 31
0.0
  0
LINE
  5
1688
330
1579
100
AcDbEntity
  8
2
 62
     0
370
    -2
100
AcDbLine
 10
30.00000000000003
 20
0.125
 30
0.0
 11
30.00000000000003
 21
20.66578054921473
 31
0.0
  0
LINE
  5
1689
330
1579
100
AcDbEntity
  8
2
 62
     0
370
    -2
100
AcDbLine
 10
2.5
 20
19.41578054921473
 30
0.0
 11
27.50000000000003
 21
19.41578054921473
 31
0.0
  0
SOLID
  5
168A
330
1579
100
AcDbEntity
  8
2
 62
     0
100
AcDbTrace
 10
2.5
 20
19.8324472158814
 30
0.0
 11
2.5
 21
18.99911388254806
 31
0.0
 12
0.0000000000000007
 22
19.41578054921473
 32
0.0
 13
0.0000000000000007
 23
19.41578054921473
 33
0.0
  0
SOLID
  5
168B
330
1579
100
AcDbEntity
  8
2
 62
     0
100
AcDbTrace
 10
27.50000000000003
 20
19.8324472158814
 30
0.0
 11
27.50000000000003
 21
18.99911388254806
 31
0.0
 12
30.00000000000003
 22
19.41578054921473
 32
0.0
 13
30.00000000000003
 23
19.41578054921473
 33
0.0
  0
MTEXT
  5
168C
330
1579
100
AcDbEntity
  8
2
 62
     0
100
AcDbMText
 10
15.1835580112
 20
21.29078054921473
 30
0.0
 40
2.5
 41
0.0
 71
     5
 72
     1
  1
30
 73
     1
 44
1.0
1001
ACAD
1000
MTEXTBEGIN
1070
    73
1070
     1
1070
    44
1040
1.0
1070
    74
1070
     0
1000
MTEXTEND
  0
POINT
  5
168D
330
1579
100
AcDbEntity
  8
DEFPOINTS
 62
     0
100
AcDbPoint
 10
0.0
 20
8.365026032781941
 30
0.0
  0
POINT
  5
168E
330
1579
100
AcDbEntity
  8
DEFPOINTS
 62
     0
100
AcDbPoint
 10
30.00000000000003
 20
-0.5
 30
0.0
  0
POINT
  5
168F
330
1579
100
AcDbEntity
  8
DEFPOINTS
 62
     0
100
AcDbPoint
 10
30.00000000000003
 20
19.41578054921473
 30
0.0
  0
ENDBLK
  5
1584
330
1579
100
AcDbEntity
  8
0
100
AcDbBlockEnd
  0
BLOCK
  5
1590
330
1585
100
AcDbEntity
  8
0
100
AcDbBlockBegin
  2
*D51
 70
     1
 10
0.0
 20
0.0
 30
0.0
  3
*D51
  1

  0
LINE
  5
1675
330
1585
100
AcDbEntity
  8
2
 62
     0
370
    -2
100
AcDbLine
 10
24.629466612508
 20
9.0
 30
0.0
 11
47.21773275112247
 21
8.999999999999992
 31
0.0
  0
LINE
  5
1676
330
1585
100
AcDbEntity
  8
2
 62
     0
370
    -2
100
AcDbLine
 10
31.12500000000003
 20
-9.0
 30
0.0
 11
47.21773275112247
 21
-9.000000000000005
 31
0.0
  0
LINE
  5
1677
330
1585
100
AcDbEntity
  8
2
 62
     0
370
    -2
100
AcDbLine
 10
45.96773275112247
 20
6.499999999999993
 30
0.0
 11
45.96773275112247
 21
-6.500000000000004
 31
0.0
  0
SOLID
  5
1678
330
1585
100
AcDbEntity
  8
2
 62
     0
100
AcDbTrace
 10
45.5510660844558
 20
6.499999999999993
 30
0.0
 11
46.38439941778913
 21
6.499999999999992
 31
0.0
 12
45.96773275112247
 22
8.999999999999992
 32
0.0
 13
45.96773275112247
 23
8.999999999999992
 33
0.0
  0
SOLID
  5
1679
330
1585
100
AcDbEntity
  8
2
 62
     0
100
AcDbTrace
 10
45.5510660844558
 20
-6.500000000000004
 30
0.0
 11
46.38439941778913
 21
-6.500000000000005
 31
0.0
 12
45.96773275112247
 22
-9.000000000000005
 32
0.0
 13
45.96773275112247
 23
-9.000000000000005
 33
0.0
  0
MTEXT
  5
167A
330
1585
100
AcDbEntity
  8
2
 62
     0
100
AcDbMText
 10
44.09273275112247
 20
0.1636152640407433
 30
0.0
 40
2.5
 41
0.0
 71
     5
 72
     1
  1
%%c18
 11
0.0000000000000001
 21
1.0
 31
0.0
 73
     1
 44
1.0
1001
ACAD
1000
MTEXTBEGIN
1070
    73
1070
     1
1070
    44
1040
1.0
1070
    74
1070
     0
1000
MTEXTEND
  0
POINT
  5
167B
330
1585
100
AcDbEntity
  8
DEFPOINTS
 62
     0
100
AcDbPoint
 10
24.004466612508
 20
9.0
 30
0.0
  0
POINT
  5
167C
330
1585
100
AcDbEntity
  8
DEFPOINTS
 62
     0
100
AcDbPoint
 10
30.50000000000003
 20
-9.0
 30
0.0
  0
POINT
  5
167D
330
1585
100
AcDbEntity
  8
DEFPOINTS
 62
     0
100
AcDbPoint
 10
45.96773275112247
 20
-9.000000000000005
 30
0.0
  0
ENDBLK
  5
1591
330
1585
100
AcDbEntity
  8
0
100
AcDbBlockEnd
  0
BLOCK
  5
159C
330
1592
100
AcDbEntity
  8
0
100
AcDbBlockBegin
  2
*D52
 70
     1
 10
0.0
 20
0.0
 30
0.0
  3
*D52
  1

  0
LINE
  5
167E
330
1592
100
AcDbEntity
  8
SK2
 62
     0
370
    -2
100
AcDbLine
 10
-17.92499999999998
 20
-3.999999999999999
 30
0.0
 11
-27.78284935029998
 21
-3.999999999999996
 31
0.0
  0
LINE
  5
167F
330
1592
100
AcDbEntity
  8
SK2
 62
     0
370
    -2
100
AcDbLine
 10
-17.92499999999998
 20
4.0
 30
0.0
 11
-27.78284935029998
 21
4.000000000000002
 31
0.0
  0
LINE
  5
1680
330
1592
100
AcDbEntity
  8
SK2
 62
     0
370
    -2
100
AcDbLine
 10
-26.53284935029998
 20
-1.499999999999996
 30
0.0
 11
-26.53284935029998
 21
1.500000000000002
 31
0.0
  0
SOLID
  5
1681
330
1592
100
AcDbEntity
  8
SK2
 62
     0
100
AcDbTrace
 10
-26.94951601696665
 20
-1.499999999999996
 30
0.0
 11
-26.11618268363331
 21
-1.499999999999996
 31
0.0
 12
-26.53284935029998
 22
-3.999999999999996
 32
0.0
 13
-26.53284935029998
 23
-3.999999999999996
 33
0.0
  0
SOLID
  5
1682
330
1592
100
AcDbEntity
  8
SK2
 62
     0
100
AcDbTrace
 10
-26.94951601696665
 20
1.500000000000002
 30
0.0
 11
-26.11618268363331
 21
1.500000000000002
 31
0.0
 12
-26.53284935029998
 22
4.000000000000002
 32
0.0
 13
-26.53284935029998
 23
4.000000000000002
 33
0.0
  0
MTEXT
  5
1683
330
1592
100
AcDbEntity
  8
SK2
 62
     0
100
AcDbMText
 10
-28.40784935029999
 20
0.0325461122000095
 30
0.0
 40
2.5
 41
0.0
 71
     5
 72
     1
  1
M8
 11
0.0000000000000001
 21
1.0
 31
0.0
 73
     1
 44
1.0
1001
ACAD
1000
MTEXTBEGIN
1070
    73
1070
     1
1070
    44
1040
1.0
1070
    74
1070
     0
1000
MTEXTEND
  0
POINT
  5
1684
330
1592
100
AcDbEntity
  8
DEFPOINTS
 62
     0
100
AcDbPoint
 10
-17.29999999999998
 20
-3.999999999999999
 30
0.0
  0
POINT
  5
1685
330
1592
100
AcDbEntity
  8
DEFPOINTS
 62
     0
100
AcDbPoint
 10
-17.29999999999998
 20
4.0
 30
0.0
  0
POINT
  5
1686
330
1592
100
AcDbEntity
  8
DEFPOINTS
 62
     0
100
AcDbPoint
 10
-26.53284935029998
 20
4.000000000000002
 30
0.0
  0
ENDBLK
  5
159D
330
1592
100
AcDbEntity
  8
0
100
AcDbBlockEnd
  0
BLOCK
  5
1641
330
1637
100
AcDbEntity
  8
0
100
AcDbBlockBegin
  2
*D54
 70
     1
 10
0.0
 20
0.0
 30
0.0
  3
*D54
  1

  0
LINE
  5
1690
330
1637
100
AcDbEntity
  8
0
 62
     0
370
    -2
100
AcDbLine
 10
32.67435541466085
 20
3.75
 30
0.0
 11
41.86349989799902
 21
3.749999999999997
 31
0.0
  0
LINE
  5
1691
330
1637
100
AcDbEntity
  8
0
 62
     0
370
    -2
100
AcDbLine
 10
32.67435541466085
 20
-3.75
 30
0.0
 11
41.86349989799902
 21
-3.750000000000002
 31
0.0
  0
LINE
  5
1692
330
1637
100
AcDbEntity
  8
0
 62
     0
370
    -2
100
AcDbLine
 10
40.61349989799902
 20
1.249999999999997
 30
0.0
 11
40.61349989799902
 21
-1.250000000000002
 31
0.0
  0
SOLID
  5
1693
330
1637
100
AcDbEntity
  8
0
 62
     0
100
AcDbTrace
 10
40.19683323133235
 20
1.249999999999997
 30
0.0
 11
41.03016656466568
 21
1.249999999999997
 31
0.0
 12
40.61349989799902
 22
3.749999999999997
 32
0.0
 13
40.61349989799902
 23
3.749999999999997
 33
0.0
  0
SOLID
  5
1694
330
1637
100
AcDbEntity
  8
0
 62
     0
100
AcDbTrace
 10
40.19683323133235
 20
-1.250000000000002
 30
0.0
 11
41.03016656466568
 21
-1.250000000000002
 31
0.0
 12
40.61349989799902
 22
-3.750000000000002
 32
0.0
 13
40.61349989799902
 23
-3.750000000000002
 33
0.0
  0
MTEXT
  5
1695
330
1637
100
AcDbEntity
  8
0
 62
     0
100
AcDbMText
 10
38.55099989799902
 20
0.0000000000000571
 30
0.0
 40
2.5
 41
0.0
 71
     5
 72
     1
  1
%%c7,5
 11
0.0000000000000001
 21
1.0
 31
0.0
 73
     1
 44
1.0
1001
ACAD
1000
MTEXTBEGIN
1070
    73
1070
     1
1070
    44
1040
1.0
1070
    74
1070
     0
1000
MTEXTEND
  0
POINT
  5
1696
330
1637
100
AcDbEntity
  8
DEFPOINTS
 62
     0
100
AcDbPoint
 10
32.04935541466085
 20
3.75
 30
0.0
  0
POINT
  5
1697
330
1637
100
AcDbEntity
  8
DEFPOINTS
 62
     0
100
AcDbPoint
 10
32.04935541466085
 20
-3.75
 30
0.0
  0
POINT
  5
1698
330
1637
100
AcDbEntity
  8
DEFPOINTS
 62
     0
100
AcDbPoint
 10
40.61349989799902
 20
-3.750000000000002
 30
0.0
  0
ENDBLK
  5
1642
330
1637
100
AcDbEntity
  8
0
100
AcDbBlockEnd
  0
BLOCK
  5
166A
330
1660
100
AcDbEntity
  8
0
100
AcDbBlockBegin
  2
*D55
 70
     1
 10
0.0
 20
0.0
 30
0.0
  3
*D55
  1

  0
LINE
  5
1699
330
1660
100
AcDbEntity
  8
2
 62
     0
370
    -2
100
AcDbLine
 10
30.00000000000003
 20
9.625
 30
0.0
 11
30.00000000000003
 21
16.58004224040718
 31
0.0
  0
LINE
  5
169A
330
1660
100
AcDbEntity
  8
2
 62
     0
370
    -2
100
AcDbLine
 10
12.00000000000003
 20
9.625
 30
0.0
 11
12.00000000000003
 21
16.58004224040718
 31
0.0
  0
LINE
  5
169B
330
1660
100
AcDbEntity
  8
2
 62
     0
370
    -2
100
AcDbLine
 10
27.50000000000003
 20
15.33004224040718
 30
0.0
 11
14.50000000000003
 21
15.33004224040718
 31
0.0
  0
SOLID
  5
169C
330
1660
100
AcDbEntity
  8
2
 62
     0
100
AcDbTrace
 10
27.50000000000003
 20
15.74670890707384
 30
0.0
 11
27.50000000000003
 21
14.91337557374051
 31
0.0
 12
30.00000000000003
 22
15.33004224040718
 32
0.0
 13
30.00000000000003
 23
15.33004224040718
 33
0.0
  0
SOLID
  5
169D
330
1660
100
AcDbEntity
  8
2
 62
     0
100
AcDbTrace
 10
14.50000000000003
 20
15.74670890707384
 30
0.0
 11
14.50000000000003
 21
14.91337557374051
 31
0.0
 12
12.00000000000003
 22
15.33004224040718
 32
0.0
 13
12.00000000000003
 23
15.33004224040718
 33
0.0
  0
MTEXT
  5
169E
330
1660
100
AcDbEntity
  8
2
 62
     0
100
AcDbMText
 10
21.00000000000003
 20
17.20504224040718
 30
0.0
 40
2.5
 41
0.0
 71
     5
 72
     1
  1
18
 73
     1
 44
1.0
1001
ACAD
1000
MTEXTBEGIN
1070
    73
1070
     1
1070
    44
1040
1.0
1070
    74
1070
     0
1000
MTEXTEND
  0
POINT
  5
169F
330
1660
100
AcDbEntity
  8
DEFPOINTS
 62
     0
100
AcDbPoint
 10
30.00000000000003
 20
9.0
 30
0.0
  0
POINT
  5
16A0
330
1660
100
AcDbEntity
  8
DEFPOINTS
 62
     0
100
AcDbPoint
 10
12.00000000000003
 20
9.0
 30
0.0
  0
POINT
  5
16A1
330
1660
100
AcDbEntity
  8
DEFPOINTS
 62
     0
100
AcDbPoint
 10
12.00000000000003
 20
15.33004224040718
 30
0.0
  0
ENDBLK
  5
166B
330
1660
100
AcDbEntity
  8
0
100
AcDbBlockEnd
  0
ENDSEC
  0
SECTION
  2
ENTITIES
  0
DIMENSION
  5
5DA
330
22
100
AcDbEntity
  8
2
100
AcDbDimension
  2
*D51
 10
45.96773275112247
 20
-9.000000000000005
 30
0.0
 11
45.96773275112247
 21
0.1636152640407431
 31
0.0
 70
   160
  1
%%c<>
 71
     5
 42
18.0
  3
ISO-25
100
AcDbAlignedDimension
 13
24.004466612508
 23
9.0
 33
0.0
 14
30.50000000000003
 24
-9.0
 34
0.0
 50
270.0
100
AcDbRotatedDimension
  0
DIMENSION
  5
5DF
330
22
100
AcDbEntity
  8
SK2
100
AcDbDimension
  2
*D52
 10
-26.53284935029998
 20
4.000000000000002
 30
0.0
 11
-26.53284935029998
 21
0.0325461122000093
 31
0.0
 70
   160
  1
M<>
 71
     5
 42
8.0
  3
ISO-25
100
AcDbAlignedDimension
 13
-17.29999999999998
 23
-4.0
 33
0.0
 14
-17.29999999999998
 24
4.0
 34
0.0
 50
90.0
100
AcDbRotatedDimension
  0
DIMENSION
  5
5E0
330
22
100
AcDbEntity
  8
2
100
AcDbDimension
  2
*D50
 10
30.00000000000003
 20
19.41578054921473
 30
0.0
 11
15.1835580112
 21
19.41578054921473
 31
0.0
 70
   160
  1
<>
 71
     5
 42
30.00000000000003
  3
ISO-25
100
AcDbAlignedDimension
 13
0.0
 23
8.365026032781941
 33
0.0
 14
30.00000000000003
 24
-0.5
 34
0.0
100
AcDbRotatedDimension
  0
TEXT
  5
5E6
330
22
100
AcDbEntity
  8
6
100
AcDbText
 10
-11.62688400163297
 20
-24.55113802353782
 30
0.0
 40
3.5
  1
15C1D018030X5R01
 41
1.199999999999999
 72
     1
 11
11.05311599836699
 21
-24.55113802353782
 31
0.0
100
AcDbText
  0
TEXT
  5
5E7
330
22
100
AcDbEntity
  8
6
100
AcDbText
 10
36.44376533711199
 20
13.96776895583565
 30
0.0
 40
3.0
  1
SHLT060204N-PH
 41
1.199999999999999
100
AcDbText
  0
LWPOLYLINE
  5
89D
330
22
100
AcDbEntity
  8
CUT
100
AcDbPolyline
 90
      238
 70
     1
 43
0.0
 10
27.99111200000002
 20
-8.991041999999993
 10
24.41364100000001
 20
-8.976159999999993
 10
24.40308812359999
 20
-8.975971407200006
 10
24.39254400000002
 20
-8.97550000000001
 10
24.38204744199999
 20
-8.974747746800005
 10
24.37157499999998
 20
-8.973712999999975
 10
24.36113582179999
 20
-8.972395690300004
 10
24.35073600000001
 20
-8.970797000000004
 10
24.34035347329999
 20
-8.968913347699981
 10
24.33002500000001
 20
-8.966752999999982
 10
24.3196644571
 20
-8.964298008400021
 10
24.309371
 20
-8.961574999999982
 10
24.2990207732
 20
-8.958551929000009
 10
24.28875199999999
 20
-8.955263000000002
 10
24.27850107779998
 20
-8.951681770300012
 10
24.268349
 20
-8.947829000000012
 10
24.25828813929999
 20
-8.943695668100019
 10
24.248346
 20
-8.939284999999983
 10
24.2384914605
 20
-8.934578003000012
 10
24.22876599999998
 20
-8.929609000000027
 10
24.2190155662
 20
-8.924309081700016
 10
24.20940499999998
 20
-8.91876000000002
 10
24.1998826677
 20
-8.912923603400031
 10
24.19051999999999
 20
-8.906834000000003
 10
24.18136353429998
 20
-8.900514011200016
 10
24.172394
 20
-8.893932000000006
 10
24.16370037269999
 20
-8.887140940800009
 10
24.15520999999998
 20
-8.880096999999977
 10
24.14686436299999
 20
-8.872760173000017
 10
24.13872799999999
 20
-8.865191999999979
 10
24.1307787886
 20
-8.857377053600032
 10
24.12304800000001
 20
-8.849346000000025
 10
24.1155704366
 20
-8.84113692880004
 10
24.10832400000001
 20
-8.832722999999987
 10
24.10137398719999
 20
-8.8241766342
 10
24.09467699999999
 20
-8.815430999999989
 10
24.08819719029998
 20
-8.806419140000002
 10
24.08198100000002
 20
-8.79722300000003
 10
24.0760014588
 20
-8.787831079200032
 10
24.07027500000001
 20
-8.778282999999987
 10
24.0648385415
 20
-8.768659059400022
 10
24.05964800000001
 20
-8.758899999999982
 10
24.05478646779997
 20
-8.749179429000037
 10
24.050184
 20
-8.739333999999985
 10
24.0458816522
 20
-8.729416695200029
 10
24.041855
 20
-8.71938399999999
 10
24.03811072969998
 20
-8.709274667099975
 10
24.03463500000001
 20
-8.699070000000006
 10
24.03144973990001
 20
-8.688858863400014
 10
24.028525
 20
-8.678569999999979
 10
24.02589409469999
 20
-8.668347251800014
 10
24.02352399999998
 20
-8.658060999999975
 10
24.02144247289999
 20
-8.647817674999998
 10
24.019632
 20
-8.637522999999987
 10
24.01810344579999
 20
-8.62722261959999
 10
24.016851
 20
-8.616885000000024
 10
24.01587602480001
 20
-8.606527161200006
 10
24.01517799999999
 20
-8.59614700000003
 10
24.01475718409998
 20
-8.5857317942
 10
24.01461599999999
 20
-8.575309000000004
 10
24.01461599999999
 20
-3.388360999999974
 10
24.01476966979999
 20
-3.37785254190004
 10
24.01520700000001
 20
-3.367351999999982
 10
24.01592527490001
 20
-3.356905354599973
 10
24.01692599999999
 20
-3.34648199999998
 10
24.01820826539998
 20
-3.336097678600026
 10
24.01977199999999
 20
-3.325752000000022
 10
24.0216200008
 20
-3.315429770799994
 10
24.02374499999999
 20
-3.305160999999998
 10
24.02616323589999
 20
-3.294865651300028
 10
24.02885000000001
 20
-3.284636999999975
 10
24.0318356054
 20
-3.274358330100028
 10
24.035088
 20
-3.264161000000001
 10
24.03863179639998
 20
-3.253986543300015
 10
24.04244800000001
 20
-3.243911000000025
 10
24.04654383319999
 20
-3.233931450900001
 10
24.050918
 20
-3.22407099999998
 10
24.0555876745
 20
-3.214302732299984
 10
24.06052
 20
-3.204663999999979
 10
24.0657810841
 20
-3.195005698300008
 10
24.071292
 20
-3.18548800000002
 10
24.07708979699999
 20
-3.176062466300038
 10
24.08314199999998
 20
-3.166798000000028
 10
24.08942478660001
 20
-3.157742385599988
 10
24.09597
 20
-3.148874999999975
 10
24.1027243536
 20
-3.14028399
 10
24.10973199999998
 20
-3.131897999999978
 10
24.11703270029998
 20
-3.1236603758
 10
24.12456499999999
 20
-3.115634
 10
24.13234419349996
 20
-3.10779595240001
 10
24.14033900000001
 20
-3.100178000000028
 10
24.1485132302
 20
-3.092813292699986
 10
24.156892
 20
-3.085682000000019
 10
24.16540530769998
 20
-3.078846871900054
 10
24.174117
 20
-3.07226700000001
 10
24.18309659970001
 20
-3.065904745099999
 10
24.19225900000001
 20
-3.059807999999975
 10
24.20161968569999
 20
-3.053947504599989
 10
24.21113499999999
 20
-3.048341999999991
 10
24.22072979719999
 20
-3.043024687000013
 10
24.230458
 20
-3.03795500000001
 10
24.24015015399999
 20
-3.033211815000015
 10
24.24996500000001
 20
-3.028728999999998
 10
24.25985604099998
 20
-3.024544062500012
 10
24.26985999999999
 20
-3.020636000000024
 10
24.27994514330001
 20
-3.017008388300041
 10
24.290123
 20
-3.013649999999984
 10
24.3003109638
 20
-3.010579584100014
 10
24.310574
 20
-3.007769999999993
 10
24.32077507369999
 20
-3.005251415800046
 10
24.33103700000001
 20
-3.002994000000001
 10
24.3412607686
 20
-3.001022772600038
 10
24.35153299999999
 20
-2.999322000000006
 10
24.36181533739997
 20
-2.997900339099999
 10
24.37213199999999
 20
-2.996754000000009
 10
24.38247373089999
 20
-2.995884003400021
 10
24.39283499999999
 20
-2.995290000000011
 10
24.40323562559999
 20
-2.994971149000036
 10
24.41364100000001
 20
-2.994929000000013
 10
27.27561799999998
 20
-3.028778999999985
 10
29.60097399999998
 20
-3.065641000000027
 10
29.61152911049999
 20
-3.065976968899974
 10
29.62207199999998
 20
-3.066587000000026
 10
29.63256978909999
 20
-3.067468870699997
 10
29.64304100000001
 20
-3.068623999999999
 10
29.65348088979999
 20
-3.070052648199975
 10
29.66387999999998
 20
-3.071753000000001
 10
29.67426221369999
 20
-3.07372898340003
 10
29.68458999999999
 20
-3.075971999999978
 10
29.69495076109999
 20
-3.07850108810004
 10
29.70524499999999
 20
-3.081289000000026
 10
29.71559451499999
 20
-3.084368001799987
 10
29.725864
 20
-3.08770400000003
 10
29.7361131662
 20
-3.091322317800006
 10
29.74626599999999
 20
-3.095203000000026
 10
29.75632561209997
 20
-3.099352799299992
 10
29.76626999999999
 20
-3.103770999999994
 10
29.77612249389998
 20
-3.108473427999967
 10
29.78585000000001
 20
-3.113429999999993
 10
29.7955980353
 20
-3.118705049400034
 10
29.80521100000002
 20
-3.124221999999974
 10
29.81473071420001
 20
-3.130013062399996
 10
29.824096
 20
-3.136051000000009
 10
29.83324884319998
 20
-3.142306001700035
 10
29.842221
 20
-3.148817000000008
 10
29.8509117619
 20
-3.155522178900014
 10
29.85940600000001
 20
-3.162475000000029
 10
29.86774835689997
 20
-3.169704267899987
 10
29.87588800000001
 20
-3.177161000000012
 10
29.8838340765
 20
-3.184848327400004
 10
29.89156799999998
 20
-3.192748999999992
 10
29.89904250039998
 20
-3.200813495300053
 10
29.90629199999998
 20
-3.209081000000026
 10
29.91323900929998
 20
-3.217465890800042
 10
29.919939
 20
-3.226048999999989
 10
29.9264154258
 20
-3.23488054889998
 10
29.93263399999998
 20
-3.243896000000006
 10
29.9386116862
 20
-3.253091761400014
 10
29.94434099999998
 20
-3.262444000000016
 10
29.94977556730001
 20
-3.271860016700031
 10
29.95496799999998
 20
-3.281411999999988
 10
29.95982770719999
 20
-3.290915558800008
 10
29.96443200000001
 20
-3.300544999999999
 10
29.96873299879999
 20
-3.310234549699998
 10
29.97276099999999
 20
-3.320041000000003
 10
29.97650350469999
 20
-3.329913150499976
 10
29.97997999999999
 20
-3.339881999999988
 10
29.98316476829998
 20
-3.349847995000004
 10
29.98609100000002
 20
-3.359892999999999
 10
29.98872154329999
 20
-3.369866548900006
 10
29.99109200000001
 20
-3.379905000000007
 10
29.99317238789999
 20
-3.389893796600006
 10
29.99498299999999
 20
-3.399935000000027
 10
29.9965117953
 20
-3.409975444800011
 10
29.99776499999999
 20
-3.420053999999993
 10
29.99873949299999
 20
-3.4301465355
 10
29.999437
 20
-3.440262000000018
 10
29.99985765349996
 20
-3.450407148500005
 10
30.0
 20
-3.460559999999986
 10
30.0
 20
-8.604092999999977
 10
29.9998453225
 20
-8.614623922600003
 10
29.99940799999999
 20
-8.625147000000026
 10
29.99869019150001
 20
-8.635617617000036
 10
29.99769
 20
-8.646065000000021
 10
29.99640778089997
 20
-8.656475274700028
 10
29.994844
 20
-8.666847000000018
 10
29.99299586629999
 20
-8.67719713170004
 10
29.990871
 20
-8.687494000000015
 10
29.98845274419998
 20
-8.697819747300002
 10
29.98576599999998
 20
-8.708078999999997
 10
29.9827798316
 20
-8.718390524299991
 10
29.97952699999999
 20
-8.728620999999975
 10
29.9759829054
 20
-8.738830176799979
 10
29.97216699999999
 20
-8.748941000000002
 10
29.9680715616
 20
-8.758957777400041
 10
29.963698
 20
-8.768856000000027
 10
29.95902836799999
 20
-8.778663522600027
 10
29.95409599999999
 20
-8.788342
 10
29.94883432499998
 20
-8.798042448800003
 10
29.94332299999999
 20
-8.807603000000028
 10
29.93752504589997
 20
-8.817072549300007
 10
29.93147300000001
 20
-8.826382000000023
 10
29.92519078849998
 20
-8.835483187900024
 10
29.91864599999999
 20
-8.844397000000014
 10
29.91189176179998
 20
-8.853034529700039
 10
29.90488400000001
 20
-8.861468000000002
 10
29.8975833547
 20
-8.869754539300004
 10
29.890051
 20
-8.877831000000014
 10
29.88227208459998
 20
-8.885719612200034
 10
29.87427699999998
 20
-8.893389000000013
 10
29.86610301720001
 20
-8.900804651800001
 10
29.85772399999999
 20
-8.907987999999988
 10
29.84921112250001
 20
-8.914875203800022
 10
29.840499
 20
-8.921508000000017
 10
29.8315199244
 20
-8.927922384499993
 10
29.82235699999998
 20
-8.934072000000014
 10
29.81299674109997
 20
-8.939985524700034
 10
29.803481
 20
-8.945645000000013
 10
29.79388672369998
 20
-8.951015503500002
 10
29.78415799999999
 20
-8.956139000000007
 10
29.77446646749999
 20
-8.960934522099989
 10
29.76465099999998
 20
-8.965469999999982
 10
29.7547601812
 20
-8.969706464900013
 10
29.744755
 20
-8.97366599999998
 10
29.73467098289999
 20
-8.977343474300027
 10
29.724493
 20
-8.980751999999995
 10
29.71430568989999
 20
-8.983872027800032
 10
29.70404199999999
 20
-8.98673100000002
 10
29.69384110669998
 20
-8.989296891200012
 10
29.68357799999998
 20
-8.991601000000002
 10
29.67335536659999
 20
-8.993617486400012
 10
29.663083
 20
-8.995362999999997
 10
29.65280129699997
 20
-8.996828076399992
 10
29.642484
 20
-8.998017000000004
 10
29.63214284889998
 20
-8.998928542499982
 10
29.621781
 20
-8.999563000000023
 10
29.6113804188
 20
-8.999920816100029
 10
29.60097399999998
 20
-9.0
  0
LINE
  5
8E0
330
22
100
AcDbEntity
  8
3
100
AcDbLine
 10
10.20000000000002
 20
1.399999999999977
 30
0.0
 11
10.20000000000002
 21
-1.400000000000034
 31
0.0
  0
LINE
  5
8E1
330
22
100
AcDbEntity
  8
3
100
AcDbLine
 10
11.04120486660002
 20
0.0
 30
0.0
 11
10.20000000000002
 21
-1.400000000000034
 31
0.0
  0
LINE
  5
8E7
330
22
100
AcDbEntity
  8
3
100
AcDbLine
 10
11.04120486660002
 20
0.0
 30
0.0
 11
10.20000000000002
 21
1.399999999999977
 31
0.0
  0
LINE
  5
8EB
330
22
100
AcDbEntity
  8
3
100
AcDbLine
 10
10.20000000000002
 20
1.399999999999977
 30
0.0
 11
0.0000000000000284
 21
1.399999999999977
 31
0.0
  0
LINE
  5
8EE
330
22
100
AcDbEntity
  8
3
100
AcDbLine
 10
10.20000000000002
 20
-1.400000000000034
 30
0.0
 11
0.0000000000000284
 21
-1.400000000000034
 31
0.0
  0
LINE
  5
908
330
22
100
AcDbEntity
  8
SK3
100
AcDbLine
 10
-16.29999999999998
 20
1.399999999999977
 30
0.0
 11
-16.29999999999998
 21
-1.400000000000034
 31
0.0
  0
LWPOLYLINE
  5
90A
330
22
100
AcDbEntity
  8
1
100
AcDbPolyline
 90
       15
 70
     0
 43
0.0
 10
24.41364131860002
 20
8.972598952999987
 10
24.37008228330001
 20
8.970064011399983
 10
24.32707726130002
 20
8.962682010100024
 10
24.28435551670003
 20
8.950435050999942
 10
24.24272925690002
 20
8.933376828299969
 10
24.20259062260001
 20
8.911411932899966
 10
24.16492907780003
 20
8.884969776899993
 10
24.13077782880004
 20
8.854255904199931
 10
24.10039778960001
 20
8.819846509499939
 10
24.07433665210002
 20
8.782038914599979
 10
24.05276729010001
 20
8.741875282399973
 10
24.03608899830002
 20
8.700374473599993
 10
24.0241702056
 20
8.657903716900023
 10
24.01701262980004
 20
8.615258217799976
 10
24.01461569849999
 20
8.57217290769995
  0
LINE
  5
91B
330
22
100
AcDbEntity
  8
1
100
AcDbLine
 10
24.41364131860002
 20
8.972598952999987
 30
0.0
 11
29.60097437990004
 21
8.97892952839993
 31
0.0
  0
LINE
  5
91C
330
22
100
AcDbEntity
  8
1
100
AcDbLine
 10
29.60097437990004
 20
8.898941712799967
 30
0.0
 11
24.41364131860002
 21
8.892611137399967
 31
0.0
  0
LWPOLYLINE
  5
91D
330
22
100
AcDbEntity
  8
1
100
AcDbPolyline
 90
       15
 70
     0
 43
0.0
 10
29.60097437990004
 20
8.898941712799967
 10
29.6358216081
 20
8.896998813999971
 10
29.67022562580002
 20
8.891177185599929
 10
29.70440302140003
 20
8.881463037900005
 10
29.7377040293
 20
8.867897740199964
 10
29.76981493670002
 20
8.850404199699994
 10
29.79994417250003
 20
8.829324013799976
 10
29.82726517180001
 20
8.804819600199948
 10
29.85156920310001
 20
8.777351405299953
 10
29.87241811310003
 20
8.747156217099984
 10
29.88967360270001
 20
8.715067428199972
 10
29.90301623610003
 20
8.681899347599994
 10
29.91255127030001
 20
8.64794601519992
 10
29.91827733090003
 20
8.613843591899978
 10
29.92019487600001
 20
8.579380024199963
  0
LWPOLYLINE
  5
92E
330
22
100
AcDbEntity
  8
1
100
AcDbPolyline
 90
       13
 70
     0
 43
0.0
 10
29.38599202610001
 20
8.554482012299956
 10
29.41144421060002
 20
8.552831330499998
 10
29.4364284106
 20
8.547874920199944
 10
29.4612086907
 20
8.539569065399973
 10
29.48499285670002
 20
8.528044913999963
 10
29.5072597976
 20
8.513291448499956
 10
29.52746032780002
 20
8.495691448700029
 10
29.54491161290003
 20
8.475391700899933
 10
29.55949348830001
 20
8.453089168600001
 10
29.5708454601
 20
8.429360997399953
 10
29.57900568120002
 20
8.404713427499984
 10
29.58388188840002
 20
8.379932408300021
 10
29.58550483620001
 20
8.354755956900021
  0
LINE
  5
93D
330
22
100
AcDbEntity
  8
1
100
AcDbLine
 10
29.4439481009
 20
-8.059100929500004
 30
0.0
 11
29.43191729650002
 21
-8.088686219400074
 31
0.0
  0
LWPOLYLINE
  5
93E
330
22
100
AcDbEntity
  8
1
100
AcDbPolyline
 90
       11
 70
     0
 43
0.0
 10
29.43191729650002
 20
-8.088686219400074
 10
29.41551790540001
 20
-8.118863706000013
 10
29.39576597630003
 20
-8.147178838800016
 10
29.3728143715
 20
-8.172854820999987
 10
29.34709401170002
 20
-8.195695489100046
 10
29.3188268788
 20
-8.215289071200061
 10
29.28879265200001
 20
-8.231505595400051
 10
29.25775336670003
 20
-8.244044859200016
 10
29.22598393560003
 20
-8.25300578209999
 10
29.19407939910002
 20
-8.258387072499999
 10
29.16184141030001
 20
-8.260189160800052
  0
LINE
  5
94B
330
22
100
AcDbEntity
  8
1
100
AcDbLine
 10
28.9611171652
 20
-8.336637138600053
 30
0.0
 11
29.46111062540001
 21
-8.049234836200071
 31
0.0
  0
LWPOLYLINE
  5
973
330
22
100
AcDbEntity
  8
1
100
AcDbPolyline
 90
        7
 70
     0
 43
0.0
 10
28.48623025850003
 20
8.545674301900021
 10
28.49518541500004
 20
8.548027793099947
 10
28.504234564
 20
8.549960936299953
 10
28.51339495300002
 20
8.551476176399944
 10
28.52261483960001
 20
8.552566178399956
 10
28.53184248140002
 20
8.553223607099994
 10
28.5410951259
 20
8.553450907599994
  0
LWPOLYLINE
  5
97C
330
22
100
AcDbEntity
  8
1
100
AcDbPolyline
 90
        7
 70
     0
 43
0.0
 10
28.39638208440002
 20
7.895584846799977
 10
28.38742692790001
 20
7.893231355599937
 10
28.37837777890002
 20
7.891298212399931
 10
28.36921738990003
 20
7.889782972200009
 10
28.3599975034
 20
7.88869297019994
 10
28.35076986160004
 20
7.888035541500016
 10
28.34151721710004
 20
7.887808241100003
  0
LWPOLYLINE
  5
992
330
22
100
AcDbEntity
  8
1
100
AcDbPolyline
 90
       11
 70
     0
 43
0.0
 10
25.12989960760001
 20
7.950378683099927
 10
25.1145747834
 20
7.949149235699962
 10
25.09971437170003
 20
7.945550551499991
 10
25.08507244170002
 20
7.939517404099944
 10
25.07138678550001
 20
7.931245472999989
 10
25.05922591320001
 20
7.92075144040001
 10
25.04885174029999
 20
7.908507071799988
 10
25.0407184636
 20
7.894802483999967
 10
25.03481774920004
 20
7.880199304699999
 10
25.03131054530002
 20
7.865438159000007
 10
25.03014320260002
 20
7.850272171799986
  0
LWPOLYLINE
  5
9AC
330
22
100
AcDbEntity
  8
1
100
AcDbPolyline
 90
       15
 70
     0
 43
0.0
 10
24.64257496710002
 20
8.600764168499949
 10
24.61512418160004
 20
8.59916665510002
 10
24.5880225336
 20
8.594514537999998
 10
24.56109940640002
 20
8.58679653759998
 10
24.53486665060001
 20
8.576046492099976
 10
24.50957139250002
 20
8.56220427479991
 10
24.48583718930001
 20
8.545540499999958
 10
24.46431516510001
 20
8.526184700899932
 10
24.44516974700003
 20
8.504499993899969
 10
24.42874608900002
 20
8.480673750400001
 10
24.41515313570003
 20
8.455362738699989
 10
24.40464252160001
 20
8.429209041799992
 10
24.39713133080002
 20
8.402444086399952
 10
24.3926206461
 20
8.375569008799971
 10
24.39111010650004
 20
8.348416763599971
  0
LWPOLYLINE
  5
9BD
330
22
100
AcDbEntity
  8
1
100
AcDbPolyline
 90
       15
 70
     0
 43
0.0
 10
12.08578643770002
 20
6.448581723099948
 10
12.14201386890002
 20
6.450672850099977
 10
12.19787913880003
 20
6.455904315599923
 10
12.25346783530003
 20
6.464292355400004
 10
12.30852319440001
 20
6.47578826239993
 10
12.36287865950001
 20
6.490371898299997
 10
12.41634919540002
 20
6.50797379209996
 10
12.46874231240002
 20
6.528543699499948
 10
12.51991381680003
 20
6.552003801399962
 10
12.56970242410003
 20
6.578289940299953
 10
12.61796691830002
 20
6.607310887499977
 10
12.66455893400004
 20
6.638991094999994
 10
12.70933863500005
 20
6.673219363700013
 10
12.75209306850001
 20
6.709842264299993
 10
12.79289321880003
 20
6.74891093970001
  0
LWPOLYLINE
  5
9CE
330
22
100
AcDbEntity
  8
1
100
AcDbPolyline
 90
        7
 70
     0
 43
0.0
 10
28.25321819480001
 20
8.486609713399957
 10
28.26247081290001
 20
8.486837011799991
 10
28.27169843900004
 20
8.487494438399949
 10
28.28091832070004
 20
8.488584437599968
 10
28.29007871520003
 20
8.49009967639995
 10
28.29912787980004
 20
8.492032821999941
 10
28.30808306220001
 20
8.494386318499948
  0
LWPOLYLINE
  5
9D7
330
22
100
AcDbEntity
  8
1
100
AcDbPolyline
 90
        7
 70
     0
 43
0.0
 10
28.6293941481
 20
7.954649435299984
 10
28.62014153000001
 20
7.954422136900006
 10
28.61091390400003
 20
7.953764710299935
 10
28.60169402230003
 20
7.952674711099973
 10
28.59253362780001
 20
7.951159472200004
 10
28.58348446310003
 20
7.949226326699943
 10
28.57452928080002
 20
7.946872830100005
  0
LINE
  5
9E0
330
22
100
AcDbEntity
  8
1
100
AcDbLine
 10
10.07864437260002
 20
6.429312879199983
 30
0.0
 11
9.078182300100024
 21
6.418549037199966
 31
0.0
  0
LINE
  5
9E1
330
22
100
AcDbEntity
  8
1
100
AcDbLine
 10
11.08122844140004
 20
6.439324797200015
 30
0.0
 11
10.07864437260002
 21
6.429312879199983
 31
0.0
  0
LINE
  5
9E2
330
22
100
AcDbEntity
  8
1
100
AcDbLine
 10
12.08578643770002
 20
6.448581723099948
 30
0.0
 11
11.08122844140004
 21
6.439324797200015
 31
0.0
  0
LINE
  5
9E3
330
22
100
AcDbEntity
  8
1
100
AcDbLine
 10
24.64257496710002
 20
8.600764168499949
 30
0.0
 11
29.38599202610001
 21
8.606552992599972
 31
0.0
  0
LINE
  5
9E4
330
22
100
AcDbEntity
  8
1
100
AcDbLine
 10
29.38599202610001
 20
8.554482012299956
 30
0.0
 11
28.5410951259
 21
8.553450907599994
 31
0.0
  0
LINE
  5
9E5
330
22
100
AcDbEntity
  8
1
100
AcDbLine
 10
25.48747186750001
 20
8.549724292799965
 30
0.0
 11
24.64257496710002
 21
8.548693188099946
 31
0.0
  0
LINE
  5
9E6
330
22
100
AcDbEntity
  8
1
100
AcDbLine
 10
28.25321819679999
 20
8.486609713399957
 30
0.0
 11
25.77534879650003
 21
8.483585743499986
 31
0.0
  0
LINE
  5
9E7
330
22
100
AcDbEntity
  8
1
100
AcDbLine
 10
25.12989960760001
 20
7.950378683099927
 30
0.0
 11
25.37127025750005
 21
7.950673249700002
 31
0.0
  0
LINE
  5
9E8
330
22
100
AcDbEntity
  8
1
100
AcDbLine
 10
28.62939414620001
 20
7.954649435299984
 30
0.0
 11
28.87076479609999
 21
7.954944001900003
 31
0.0
  0
LINE
  5
9E9
330
22
100
AcDbEntity
  8
1
100
AcDbLine
 10
25.65914718660002
 20
7.884534700500012
 30
0.0
 11
28.34151721710004
 21
7.887808241100003
 31
0.0
  0
LWPOLYLINE
  5
9EA
330
22
100
AcDbEntity
  8
1
100
AcDbPolyline
 90
        5
 70
     0
 43
0.0
 10
24.01461569849999
 20
8.499971338399916
 10
21.95866634090001
 20
8.49846936269995
 10
19.88568663580003
 20
8.494484161199977
 10
17.81367808450002
 20
8.488028884999948
 10
15.74264068710002
 20
8.479103533999989
  0
LINE
  5
9F1
330
22
100
AcDbEntity
  8
1
100
AcDbLine
 10
4.902934212700017
 20
6.5
 30
0.0
 11
0.4000000000000341
 21
6.5
 31
0.0
  0
LWPOLYLINE
  5
9F2
330
22
100
AcDbEntity
  8
1
100
AcDbPolyline
 90
       11
 70
     0
 43
0.0
 10
4.901927784500031
 20
6.499999937099971
 10
5.285787619100034
 20
6.496230778899985
 10
5.668993940400014
 20
6.487033553599985
 10
6.068204467700013
 20
6.474321868000004
 10
6.480492877800031
 20
6.459954151899978
 10
6.903359220400034
 20
6.445729585299943
 10
7.333780331200017
 20
6.433125839199931
 10
7.768551986200037
 20
6.423453103099973
 10
8.205717414000019
 20
6.41751223679995
 10
8.641873662800037
 20
6.415840447799951
 10
9.078155049900033
 20
6.418548723399965
  0
LWPOLYLINE
  5
9FF
330
22
100
AcDbEntity
  8
1
100
AcDbPolyline
 90
        7
 70
     0
 43
0.0
 10
25.48747186550003
 20
8.549724292799965
 10
25.49672448360002
 20
8.549519578000001
 10
25.50595210970002
 20
8.548884673999964
 10
25.51517199130001
 20
8.54781717849994
 10
25.52433238580003
 20
8.546324298199976
 10
25.5333815505
 20
8.544413239699963
 10
25.54233673290003
 20
8.542081600799974
  0
LWPOLYLINE
  5
A08
330
22
100
AcDbEntity
  8
1
100
AcDbPolyline
 90
        7
 70
     0
 43
0.0
 10
25.65914718660002
 20
7.884534700500012
 10
25.64989457019999
 20
7.8847394151
 10
25.6406669452
 20
7.885374319099923
 10
25.6314470639
 20
7.88644181449996
 10
25.62228666900001
 20
7.887934694899968
 10
25.6132375034
 20
7.889845753599956
 10
25.60428231930001
 20
7.892177392900009
  0
LINE
  5
A12
330
22
100
AcDbEntity
  8
1
100
AcDbLine
 10
27.16275878640002
 20
7.720687848299974
 30
0.0
 11
27.29923113150003
 21
7.704665413799943
 31
0.0
  0
LINE
  5
A2A
330
22
100
AcDbEntity
  8
1
100
AcDbLine
 10
27.2159974837
 20
7.717262488499954
 30
0.0
 11
27.34254636230003
 21
7.697558571699971
 31
0.0
  0
LINE
  5
A43
330
22
100
AcDbEntity
  8
1
100
AcDbLine
 10
27.29923113150003
 20
7.704665413799943
 30
0.0
 11
27.38729174260001
 21
7.687216570799989
 31
0.0
  0
LWPOLYLINE
  5
A53
330
22
100
AcDbEntity
  8
1
100
AcDbPolyline
 90
       20
 70
     0
 43
0.0
 10
27.34254636230003
 20
7.697558571699971
 10
27.46737566100001
 20
7.668706772599989
 10
27.58981904730001
 20
7.63080856800002
 10
27.70915549490002
 20
7.583985084000005
 10
27.82471367900001
 20
7.528441125399979
 10
27.93587400240003
 20
7.464539319599964
 10
28.04203014740003
 20
7.392665561699971
 10
28.1425852534
 20
7.313211061799961
 10
28.23694877790001
 20
7.22657426989997
 10
28.32456720000002
 20
7.133185678000018
 10
28.40502264720001
 20
7.033634737199975
 10
28.47794039510001
 20
6.928572050699983
 10
28.54294719810003
 20
6.818669708599998
 10
28.59973359560001
 20
6.704505064199963
 10
28.64796306070002
 20
6.586720459199966
 10
28.68750537380004
 20
6.465874638799959
 10
28.71830600870001
 20
6.342664828599993
 10
28.74028381160002
 20
6.217780900199954
 10
28.75332729640002
 20
6.091853627799935
 10
28.75729261090001
 20
5.978477904599969
  0
LWPOLYLINE
  5
A6A
330
22
100
AcDbEntity
  8
1
100
AcDbPolyline
 90
        7
 70
     0
 43
0.0
 10
25.72048393099999
 20
8.491228435500033
 10
25.72943908580004
 20
8.488896802299905
 10
25.73848823380001
 20
8.486985746299922
 10
25.74764862250004
 20
8.485492864700006
 10
25.75686850940002
 20
8.484425366399989
 10
25.76609615220002
 20
8.483790460299985
 10
25.77534879839999
 20
8.483585743499986
  0
LWPOLYLINE
  5
A73
330
22
100
AcDbEntity
  8
1
100
AcDbPolyline
 90
        7
 70
     0
 43
0.0
 10
25.4261351248
 20
7.943030557299948
 10
25.41717996830002
 20
7.945362190899913
 10
25.40813081930003
 20
7.947273246999941
 10
25.39897043030001
 20
7.948766128700015
 10
25.38975054370002
 20
7.949833626999918
 10
25.38052290190001
 20
7.950468532999991
 10
25.37127025750005
 20
7.950673249700002
  0
LINE
  5
A83
330
22
100
AcDbEntity
  8
1
100
AcDbLine
 10
25.72048393099999
 20
8.491228435500033
 30
0.0
 11
25.54233673290003
 21
8.542081600799974
 31
0.0
  0
LINE
  5
A84
330
22
100
AcDbEntity
  8
1
100
AcDbLine
 10
25.42613512290001
 20
7.943030557799943
 30
0.0
 11
25.6042823212
 21
7.892177392399958
 31
0.0
  0
LWPOLYLINE
  5
AED
330
22
100
AcDbEntity
  8
1
100
AcDbPolyline
 90
       11
 70
     0
 43
0.0
 10
28.97052120110001
 20
7.85508097419995
 10
28.96931322130001
 20
7.87043940609999
 10
28.96574085060001
 20
7.885329476899983
 10
28.95973931090001
 20
7.899997601399945
 10
28.95150293650002
 20
7.913704535399972
 10
28.94104767940002
 20
7.925880487200004
 10
28.92884390850003
 20
7.936263515500002
 10
28.91518052490003
 20
7.944398736399989
 10
28.9006178839
 20
7.950295186699975
 10
28.88589472290002
 20
7.953792451299932
 10
28.87076479609999
 20
7.954944001900003
  0
LWPOLYLINE
  5
AFA
330
22
100
AcDbEntity
  8
1
100
AcDbPolyline
 90
       15
 70
     0
 43
0.0
 10
30.00000000000003
 20
8.579477417600003
 10
29.99752388580004
 20
8.623133147299938
 10
29.99021110800001
 20
8.666227692900008
 10
29.97804413900002
 20
8.709032388600007
 10
29.96107556150003
 20
8.750733231799983
 10
29.9392097068
 20
8.790937067399966
 10
29.91287380130001
 20
8.828652687699957
 10
29.8822716615
 20
8.862844769999981
 10
29.84797784850002
 20
8.893252503799942
 10
29.81028833800002
 20
8.919327305100011
 10
29.77024270220002
 20
8.940897172900008
 10
29.72885698840002
 20
8.957563138199986
 10
29.68649774700003
 20
8.969457520899936
 10
29.64395836500001
 20
8.976579567199962
 10
29.60097437990004
 20
8.97892952839993
  0
LWPOLYLINE
  5
B0B
330
22
100
AcDbEntity
  8
1
100
AcDbPolyline
 90
       15
 70
     0
 43
0.0
 10
29.63745688680001
 20
8.354819358700012
 10
29.63589644640001
 20
8.382331080899916
 10
29.6312879537
 20
8.409489146299961
 10
29.6236203629
 20
8.436464549099923
 10
29.61292681150002
 20
8.462744307099967
 10
29.5991470093
 20
8.488080654999976
 10
29.58255019330002
 20
8.511848936299941
 10
29.56326480800001
 20
8.533396693599968
 10
29.54165294030003
 20
8.552559564799935
 10
29.51790111330002
 20
8.568991833599966
 10
29.49266446250002
 20
8.582585105599946
 10
29.46658329820002
 20
8.593087951699942
 10
29.43988861950001
 20
8.600583759299979
 10
29.41308041660003
 20
8.605072053499952
 10
29.38599202610001
 20
8.606552992599972
  0
LWPOLYLINE
  5
B1C
330
22
100
AcDbEntity
  8
1
100
AcDbPolyline
 90
        9
 70
     0
 43
0.0
 10
29.55389138300001
 20
-3.873451360800061
 10
29.55203429740004
 20
-3.840702309100038
 10
29.54654971400004
 20
-3.808369782099987
 10
29.53742448730003
 20
-3.776250231999995
 10
29.52469805420003
 20
-3.744954301900065
 10
29.50829866310002
 20
-3.714776815400057
 10
29.48854673400001
 20
-3.686461682600054
 10
29.46559512900001
 20
-3.660785700500071
 10
29.46111062540001
 20
-3.656803288899993
  0
LWPOLYLINE
  5
B27
330
22
100
AcDbEntity
  8
1
100
AcDbPolyline
 90
       15
 70
     0
 43
0.0
 10
29.909566525
 20
-3.516912355300007
 10
29.90704848530001
 20
-3.472106679499972
 10
29.8995345738
 20
-3.427888488099995
 10
29.88716389500002
 20
-3.38478748890003
 10
29.87004741140004
 20
-3.343359324800076
 10
29.8483895009
 20
-3.304120435300035
 10
29.82250419160002
 20
-3.267538330100023
 10
29.79269829190002
 20
-3.234084469700064
 10
29.75932730450001
 20
-3.20420236350003
 10
29.72283914420001
 20
-3.17825301730005
 10
29.68369804780002
 20
-3.156539777100022
 10
29.64236765480001
 20
-3.139379039400068
 10
29.5993618476
 20
-3.126974053600008
 10
29.55523660030002
 20
-3.119434493799985
 10
29.51054090490004
 20
-3.11691235530003
  0
LWPOLYLINE
  5
B38
330
22
100
AcDbEntity
  8
1
100
AcDbPolyline
 90
        7
 70
     0
 43
0.0
 10
29.51916682680002
 20
4.735766209400026
 10
29.51938234000002
 20
4.726492672999995
 10
29.5200270295
 20
4.717244709599981
 10
29.52110331300003
 20
4.708005035099972
 10
29.5226039373
 20
4.698825501800001
 10
29.52452164930003
 20
4.689757961899999
 10
29.52685886660004
 20
4.680785131499987
  0
LWPOLYLINE
  5
B41
330
22
100
AcDbEntity
  8
1
100
AcDbPolyline
 90
        7
 70
     0
 43
0.0
 10
28.97052120110001
 20
4.347575316199993
 10
28.97030568790001
 20
4.356848852499979
 10
28.9696609984
 20
4.366096815899936
 10
28.96858471490003
 20
4.375336490400002
 10
28.96708409060003
 20
4.38451602379996
 10
28.96516637870002
 20
4.393583563599975
 10
28.96282916140001
 20
4.402556393999986
  0
LINE
  5
B4A
330
22
100
AcDbEntity
  8
1
100
AcDbLine
 10
30.00000000000003
 20
-8.566820260800056
 30
0.0
 11
30.00000000000003
 21
-3.366820260800068
 31
0.0
  0
LINE
  5
B4B
330
22
100
AcDbEntity
  8
1
100
AcDbLine
 10
30.00000000000003
 20
8.579477417600003
 30
0.0
 11
30.00000000000003
 21
3.380269402799967
 31
0.0
  0
LINE
  5
B4C
330
22
100
AcDbEntity
  8
1
100
AcDbLine
 10
29.92019487600001
 20
3.380172009399984
 30
0.0
 11
29.92019487600001
 21
8.579380024199963
 31
0.0
  0
LINE
  5
B4D
330
22
100
AcDbEntity
  8
1
100
AcDbLine
 10
29.909566525
 20
-8.416728166300003
 30
0.0
 11
29.909566525
 21
-3.516912355300007
 31
0.0
  0
LINE
  5
B4E
330
22
100
AcDbEntity
  8
1
100
AcDbLine
 10
29.6536477496
 20
-3.873451399300051
 30
0.0
 11
29.6536477496
 21
-8.060189122300073
 31
0.0
  0
LINE
  5
B4F
330
22
100
AcDbEntity
  8
1
100
AcDbLine
 10
29.63745688680001
 20
8.354819358700012
 30
0.0
 11
29.63745688680001
 21
3.600543568299997
 31
0.0
  0
LINE
  5
B50
330
22
100
AcDbEntity
  8
1
100
AcDbLine
 10
29.58550483620001
 20
3.600480166399961
 30
0.0
 11
29.58550483620001
 21
4.447311222699966
 31
0.0
  0
LINE
  5
B51
330
22
100
AcDbEntity
  8
1
100
AcDbLine
 10
29.58550483620001
 20
7.507924900599959
 30
0.0
 11
29.58550483620001
 21
8.354755956900021
 31
0.0
  0
LINE
  5
B52
330
22
100
AcDbEntity
  8
1
100
AcDbLine
 10
29.55389138300001
 20
-3.873451360800061
 30
0.0
 11
29.55389138300001
 21
-8.060189160800064
 31
0.0
  0
LINE
  5
B53
330
22
100
AcDbEntity
  8
1
100
AcDbLine
 10
29.51916682680002
 20
7.219307997299949
 30
0.0
 11
29.51916682680002
 21
4.735766209400026
 31
0.0
  0
LINE
  5
B54
330
22
100
AcDbEntity
  8
1
100
AcDbLine
 10
29.46111062540001
 20
2.979672668899979
 30
0.0
 11
29.46111062540001
 21
-8.049234836200071
 31
0.0
  0
LINE
  5
B55
330
22
100
AcDbEntity
  8
1
100
AcDbLine
 10
28.97052120110001
 20
7.85508097419995
 30
0.0
 11
28.97052120110001
 21
7.613157773499949
 31
0.0
  0
LINE
  5
B56
330
22
100
AcDbEntity
  8
1
100
AcDbLine
 10
28.97052120110001
 20
4.347575318099927
 30
0.0
 11
28.97052120110001
 21
4.105652117399927
 31
0.0
  0
LINE
  5
B57
330
22
100
AcDbEntity
  8
1
100
AcDbLine
 10
28.9611171652
 20
2.409447961999944
 30
0.0
 11
28.9611171652
 21
-8.336637138600053
 31
0.0
  0
LINE
  5
B58
330
22
100
AcDbEntity
  8
1
100
AcDbLine
 10
28.9041831918
 20
7.324540871999943
 30
0.0
 11
28.9041831918
 21
4.636030302899996
 31
0.0
  0
LWPOLYLINE
  5
B59
330
22
100
AcDbEntity
  8
1
100
AcDbPolyline
 90
        7
 70
     0
 43
0.0
 10
29.58550483620001
 20
7.507924902499951
 10
29.58528932300001
 20
7.498650840099969
 10
29.58464463350001
 20
7.489401303199997
 10
29.58356835000001
 20
7.480159001699973
 10
29.58206772570003
 20
7.470975805699993
 10
29.5801500137
 20
7.461903585100003
 10
29.5778127964
 20
7.45292505010002
  0
LWPOLYLINE
  5
B62
330
22
100
AcDbEntity
  8
1
100
AcDbPolyline
 90
        7
 70
     0
 43
0.0
 10
28.9041831918
 20
7.324540872099987
 10
28.90439870490002
 20
7.333814932699965
 10
28.90504339440003
 20
7.343064468600005
 10
28.90611967780001
 20
7.352306769799952
 10
28.90762030220003
 20
7.361489966100009
 10
28.90953801440003
 20
7.370562187699931
 10
28.91187523210002
 20
7.379540724499918
  0
LWPOLYLINE
  5
B6B
330
22
100
AcDbEntity
  8
1
100
AcDbPolyline
 90
       15
 70
     0
 43
0.0
 10
30.00000000000003
 20
-8.566820260800056
 10
29.99752388580004
 20
-8.610485662799987
 10
29.99021110800001
 20
-8.65359569870003
 10
29.97804413900002
 20
-8.696421765400032
 10
29.96107556150003
 20
-8.738149672300039
 10
29.9392097068
 20
-8.778386321100015
 10
29.91287380130001
 20
-8.816139831500038
 10
29.8822716615
 20
-8.850374474400041
 10
29.84797784850002
 20
-8.88082869850001
 10
29.81028833800002
 20
-8.90695347470006
 10
29.77024270220002
 20
-8.928575506900074
 10
29.72885698840002
 20
-8.945294525400015
 10
29.68649774700003
 20
-8.957242422600018
 10
29.64395836500001
 20
-8.964417476400001
 10
29.60097437990004
 20
-8.966820260800034
  0
LWPOLYLINE
  5
B7C
330
22
100
AcDbEntity
  8
1
100
AcDbPolyline
 90
       15
 70
     0
 43
0.0
 10
29.6536477496
 20
-8.060189122200029
 10
29.65117163540003
 20
-8.103854524200016
 10
29.64385885760001
 20
-8.146964560200046
 10
29.63169188860002
 20
-8.189790626900048
 10
29.61472331100001
 20
-8.231518533799999
 10
29.59285745630001
 20
-8.271755182500044
 10
29.56652155090001
 20
-8.309508693000054
 10
29.5359194111
 20
-8.343743335900057
 10
29.50162559810002
 20
-8.374197560000027
 10
29.46393608760002
 20
-8.400322336100032
 10
29.42389045179999
 20
-8.421944368300046
 10
29.38250473800002
 20
-8.438663386800044
 10
29.34014549660003
 20
-8.450611284000046
 10
29.2976061146
 20
-8.45778633780003
 10
29.25462212950001
 20
-8.46018912230005
  0
LWPOLYLINE
  5
B8D
330
22
100
AcDbEntity
  8
1
100
AcDbPolyline
 90
       15
 70
     0
 43
0.0
 10
29.92019487600001
 20
3.380172009399984
 10
29.9182139847
 20
3.345242590699967
 10
29.91236376240002
 20
3.31075267509999
 10
29.90263018720003
 20
3.276485160999982
 10
29.88905532519999
 20
3.243091353199986
 10
29.87156264140003
 20
3.210885588799953
 10
29.850493917
 20
3.18066166839992
 10
29.82601220520002
 20
3.153248248099941
 10
29.7985771548
 20
3.12885509800003
 10
29.76842554640001
 20
3.107921663499951
 10
29.73638903770001
 20
3.090587575100016
 10
29.70328046670002
 20
3.077173992099972
 10
29.66939307360002
 20
3.067575774199951
 10
29.63536156800001
 20
3.061795073599967
 10
29.60097437990004
 20
3.05983117300002
  0
LWPOLYLINE
  5
B9E
330
22
100
AcDbEntity
  8
1
100
AcDbPolyline
 90
       13
 70
     0
 43
0.0
 10
29.58550483620001
 20
3.600480166399961
 10
29.58382693380002
 20
3.574967668700026
 10
29.57885142310002
 20
3.54992020239996
 10
29.57053436630003
 20
3.525073044599992
 10
29.55900757630002
 20
3.50122036419998
 10
29.54426069530001
 20
3.478884452299951
 10
29.5266762976
 20
3.458616218700001
 10
29.50640166560004
 20
3.441100240699995
 10
29.48413231720002
 20
3.426457806899975
 10
29.46044451880002
 20
3.415050939499963
 10
29.43584330780002
 20
3.406842014699975
 10
29.41111295100001
 20
3.40192446409992
 10
29.38599202610001
 20
3.400267143699977
  0
LWPOLYLINE
  5
BC0
330
22
100
AcDbEntity
  8
1
100
AcDbPolyline
 90
        9
 70
     0
 43
0.0
 10
24.50153348550003
 20
-8.302881076500057
 10
24.5068953018
 20
-8.296244456800025
 10
24.51730494490002
 20
-8.29013254120008
 10
24.53309003530001
 20
-8.284487382300085
 10
24.55326771170002
 20
-8.279590248300053
 10
24.57738072620003
 20
-8.275664141700019
 10
24.60417985810003
 20
-8.272847050900054
 10
24.63208826610003
 20
-8.271359775000007
 10
24.66163156410002
 20
-8.271148682900047
  0
LINE
  5
BF2
330
22
100
AcDbEntity
  8
SK1
100
AcDbLine
 10
-1.304456457499981
 20
-4.063629669500016
 30
0.0
 11
-2.0
 21
-4.25
 31
0.0
  0
LWPOLYLINE
  5
BF3
330
22
100
AcDbEntity
  8
1
100
AcDbPolyline
 90
        7
 70
     0
 43
0.0
 10
25.60428231930001
 20
4.060339442399936
 10
25.61323747580002
 20
4.062692933599976
 10
25.62228662480004
 20
4.064626076699937
 10
25.63144701380003
 20
4.066141316899972
 10
25.64066690040002
 20
4.067231318899985
 10
25.6498945422
 20
4.067888747600022
 10
25.65914718660002
 20
4.068116047999978
  0
LWPOLYLINE
  5
BFC
330
22
100
AcDbEntity
  8
1
100
AcDbPolyline
 90
        7
 70
     0
 43
0.0
 10
25.54233673470003
 20
3.403286029899959
 10
25.53338157820002
 20
3.400932538699976
 10
25.52433242920003
 20
3.398999395599958
 10
25.51517204020001
 20
3.397484155399979
 10
25.5059521536
 20
3.39639415339991
 10
25.49672451180001
 20
3.395736724699986
 10
25.48747186740002
 20
3.395509424299973
  0
LWPOLYLINE
  5
C0D
330
22
100
AcDbEntity
  8
1
100
AcDbPolyline
 90
       11
 70
     0
 43
0.0
 10
28.87076479609999
 20
4.005545605999941
 10
28.88608962030003
 20
4.006775053399962
 10
28.90095003200002
 20
4.010373737599991
 10
28.9155919621
 20
4.01640688499998
 10
28.92927761830004
 20
4.024678816099992
 10
28.94143849060004
 20
4.035172848700028
 10
28.95181266349999
 20
4.047417217299937
 10
28.95994594020002
 20
4.061121805100015
 10
28.9658466546
 20
4.07572498449997
 10
28.96935385840001
 20
4.090486130199963
 10
28.97052120110001
 20
4.105652117399927
  0
LWPOLYLINE
  5
C27
330
22
100
AcDbEntity
  8
1
100
AcDbPolyline
 90
       15
 70
     0
 43
0.0
 10
29.38599202610001
 20
3.348196163399961
 10
29.41344281170001
 20
3.34979367669996
 10
29.44054445960001
 20
3.354445793899969
 10
29.4674675869
 20
3.362163794199943
 10
29.49370034259999
 20
3.372913839700004
 10
29.51899560080003
 20
3.386756056999956
 10
29.54272980390001
 20
3.403419831900009
 10
29.56425182820002
 20
3.422775630899934
 10
29.58339724620001
 20
3.444460337900011
 10
29.59982090420004
 20
3.468286581399979
 10
29.61341385750001
 20
3.493597593199979
 10
29.62392447160002
 20
3.519751289999987
 10
29.63143566240001
 20
3.546516245399971
 10
29.63594634720002
 20
3.573391323000009
 10
29.63745688680001
 20
3.600543568299997
  0
LWPOLYLINE
  5
C38
330
22
100
AcDbEntity
  8
1
100
AcDbPolyline
 90
       15
 70
     0
 43
0.0
 10
29.60097437990004
 20
2.979843357399943
 10
29.64453341520002
 20
2.982378299099934
 10
29.68753843720003
 20
2.989760300400007
 10
29.73026018180002
 20
3.002007259499919
 10
29.77188644160003
 20
3.019065482200005
 10
29.81202507590001
 20
3.041030377499964
 10
29.84968662070003
 20
3.067472533599982
 10
29.88383786970002
 20
3.09818640629993
 10
29.91421790880003
 20
3.132595800999979
 10
29.94027904640001
 20
3.170403395899938
 10
29.96184840839999
 20
3.210567028000014
 10
29.97852670020001
 20
3.252067836899982
 10
29.9904454929
 20
3.294538593600009
 10
29.99760306870001
 20
3.337184092699942
 10
30.00000000000003
 20
3.380269402799967
  0
LWPOLYLINE
  5
C49
330
22
100
AcDbEntity
  8
1
100
AcDbPolyline
 90
        9
 70
     0
 43
0.0
 10
24.62402023760001
 20
2.672178236799993
 10
24.71822576010001
 20
2.677347271099961
 10
24.81108436710002
 20
2.691802700799996
 10
24.90314113000002
 20
2.716232919999981
 10
24.99256975910004
 20
2.750015594799947
 10
25.07813140240001
 20
2.793058418899988
 10
25.15850594040001
 20
2.84456162229992
 10
25.23179740960001
 20
2.903108153799962
 10
25.29849758650002
 20
2.969297810299963
  0
LWPOLYLINE
  5
C54
330
22
100
AcDbEntity
  8
1
100
AcDbPolyline
 90
        7
 70
     0
 43
0.0
 10
25.37127025560002
 20
4.001274853899985
 10
25.38052287370002
 20
4.001502152199975
 10
25.38975049980002
 20
4.002159578899977
 10
25.39897038140003
 20
4.003249578099939
 10
25.40813077590002
 20
4.004764816899978
 10
25.41717994060002
 20
4.00669796249997
 10
25.42613512300003
 20
4.009051458999977
  0
LWPOLYLINE
  5
C5D
330
22
100
AcDbEntity
  8
1
100
AcDbPolyline
 90
        7
 70
     0
 43
0.0
 10
25.77534879839999
 20
3.462350618399966
 10
25.7660961803
 20
3.462123320099976
 10
25.75686855420002
 20
3.461465893399918
 10
25.74764867260001
 20
3.460375894199955
 10
25.73848827800004
 20
3.458860655399973
 10
25.72943911340002
 20
3.456927509899969
 10
25.72048393099999
 20
3.454574013299975
  0
LINE
  5
C66
330
22
100
AcDbEntity
  8
1
100
AcDbLine
 10
13.62132034359999
 20
2.39346576639997
 30
0.0
 11
12.7928932188
 21
2.37823165019995
 31
0.0
  0
LINE
  5
C67
330
22
100
AcDbEntity
  8
1
100
AcDbLine
 10
28.34151721710004
 20
4.071389588700014
 30
0.0
 11
25.65914718660002
 21
4.068116047999978
 31
0.0
  0
LINE
  5
C68
330
22
100
AcDbEntity
  8
1
100
AcDbLine
 10
28.87076479609999
 20
4.005545605999941
 30
0.0
 11
28.6293941463
 21
4.005251039399979
 31
0.0
  0
LINE
  5
C69
330
22
100
AcDbEntity
  8
1
100
AcDbLine
 10
25.3712702576
 20
4.001274853899985
 30
0.0
 11
25.12989960760001
 21
4.00098028729991
 31
0.0
  0
LINE
  5
C6A
330
22
100
AcDbEntity
  8
1
100
AcDbLine
 10
25.77534879640001
 20
3.462350618399966
 30
0.0
 11
28.2532181967
 21
3.465374588299994
 31
0.0
  0
LINE
  5
C6B
330
22
100
AcDbEntity
  8
1
100
AcDbLine
 10
24.64257496710002
 20
3.394478319599954
 30
0.0
 11
25.48747186740002
 21
3.395509424299973
 31
0.0
  0
LINE
  5
C6C
330
22
100
AcDbEntity
  8
1
100
AcDbLine
 10
28.54109512580004
 20
3.399236039000015
 30
0.0
 11
29.38599202610001
 21
3.400267143699977
 31
0.0
  0
LINE
  5
C6D
330
22
100
AcDbEntity
  8
1
100
AcDbLine
 10
29.38599202610001
 20
3.348196163399961
 30
0.0
 11
24.64257496710002
 21
3.342407339199951
 31
0.0
  0
LINE
  5
C6E
330
22
100
AcDbEntity
  8
1
100
AcDbLine
 10
24.41364131860002
 20
3.053500597699951
 30
0.0
 11
29.60097437990004
 21
3.05983117300002
 31
0.0
  0
LINE
  5
C6F
330
22
100
AcDbEntity
  8
1
100
AcDbLine
 10
29.60097437990004
 20
2.979843357399943
 30
0.0
 11
24.41364131860002
 21
2.973512782099987
 31
0.0
  0
LINE
  5
C70
330
22
100
AcDbEntity
  8
1
100
AcDbLine
 10
25.29849758650002
 20
2.969297810299963
 30
0.0
 11
29.46111062540001
 21
2.974377826399972
 31
0.0
  0
LINE
  5
C71
330
22
100
AcDbEntity
  8
SK1
100
AcDbLine
 10
-2.0
 20
4.25
 30
0.0
 11
-5.899999999999977
 21
4.25
 31
0.0
  0
LINE
  5
C72
330
22
100
AcDbEntity
  8
SK1
100
AcDbLine
 10
-0.2999999999999829
 20
4.049999999999954
 30
0.0
 11
-1.200928839400006
 21
4.049999999999954
 31
0.0
  0
LINE
  5
C73
330
22
100
AcDbEntity
  8
SK1
100
AcDbLine
 10
-9.299999999999982
 20
4.0
 30
0.0
 11
-16.79999999999998
 21
4.0
 31
0.0
  0
LINE
  5
C74
330
22
100
AcDbEntity
  8
SK1
100
AcDbLine
 10
-17.39999999999997
 20
3.399999999999977
 30
0.0
 11
-8.699999999999988
 21
3.399999999999977
 31
0.0
  0
LINE
  5
C75
330
22
100
AcDbEntity
  8
SK1
100
AcDbLine
 10
-6.899999999999977
 20
3.125
 30
0.0
 11
-8.176471862599981
 21
3.125
 31
0.0
  0
LWPOLYLINE
  5
C76
330
22
100
AcDbEntity
  8
1
100
AcDbPolyline
 90
        7
 70
     0
 43
0.0
 10
28.34151721710004
 20
4.071389588700014
 10
28.35076983350001
 20
4.071184873999982
 10
28.35999745850001
 20
4.070549970000001
 10
28.36921733990002
 20
4.069482474599965
 10
28.37837773469999
 20
4.067989594199957
 10
28.38742690040002
 20
4.066078535500025
 10
28.39638208440002
 20
4.063746896200029
  0
LWPOLYLINE
  5
C7F
330
22
100
AcDbEntity
  8
1
100
AcDbPolyline
 90
        7
 70
     0
 43
0.0
 10
28.5410951277
 20
3.399236039000015
 10
28.53184250960001
 20
3.399440753799922
 10
28.5226148836
 20
3.400075657799959
 10
28.51339500189999
 20
3.401143153299983
 10
28.50423460740001
 20
3.402636033600003
 10
28.49518544270001
 20
3.40454709209996
 10
28.48623026040002
 20
3.406878730999949
  0
LWPOLYLINE
  5
C88
330
22
100
AcDbEntity
  8
1
100
AcDbPolyline
 90
       15
 70
     0
 43
0.0
 10
24.41364131860002
 20
3.053500597699951
 10
24.37879409039999
 20
3.055443496500004
 10
24.34439007270001
 20
3.061265124899932
 10
24.31021267710003
 20
3.07097927259997
 10
24.27691166920002
 20
3.084544570199966
 10
24.24480076180001
 20
3.102038110799981
 10
24.21467152600002
 20
3.123118296699942
 10
24.18735052670001
 20
3.147622710199925
 10
24.16304649540001
 20
3.175090905099978
 10
24.14219758540003
 20
3.205286093399934
 10
24.12494209580001
 20
3.237374882299945
 10
24.11159946230004
 20
3.27054296289998
 10
24.10206442820004
 20
3.304496295299941
 10
24.09633836760003
 20
3.338598718499952
 10
24.09442082250001
 20
3.373062286299955
  0
LWPOLYLINE
  5
C99
330
22
100
AcDbEntity
  8
1
100
AcDbPolyline
 90
       13
 70
     0
 43
0.0
 10
24.64257496710002
 20
3.394478319599954
 10
24.61712278260001
 20
3.39612900139997
 10
24.59213858269999
 20
3.401085411699966
 10
24.56735830250003
 20
3.40939126639995
 10
24.54357413650001
 20
3.42091541779996
 10
24.5213071956
 20
3.435668883299968
 10
24.50110666540002
 20
3.453268883099951
 10
24.48365538030001
 20
3.473568630899933
 10
24.46907350500004
 20
3.495871163199979
 10
24.45772153310003
 20
3.519599334400027
 10
24.44956131200001
 20
3.544246904399983
 10
24.44468510480002
 20
3.569027923499959
 10
24.44306215710003
 20
3.594204374899959
  0
LWPOLYLINE
  5
CF6
330
22
100
AcDbEntity
  8
1
100
AcDbPolyline
 90
        7
 70
     0
 43
0.0
 10
28.57452927900002
 20
4.012893731900021
 10
28.58348443540001
 20
4.010562098299999
 10
28.59253358440003
 20
4.008651042099984
 10
28.60169397340002
 20
4.007158160500011
 10
28.61091386000004
 20
4.006090662199994
 10
28.62014150179999
 20
4.005455756099991
 10
28.6293941463
 20
4.005251039399979
  0
LWPOLYLINE
  5
CFF
330
22
100
AcDbEntity
  8
1
100
AcDbPolyline
 90
        7
 70
     0
 43
0.0
 10
28.30808306220001
 20
3.457731896399991
 10
28.29912790740002
 20
3.460063529599949
 10
28.29007875939999
 20
3.461974585500001
 10
28.28091837080001
 20
3.463467467099974
 10
28.27169848380001
 20
3.464534965399991
 10
28.26247084100001
 20
3.465169871499995
 10
28.25321819480001
 20
3.465374588299994
  0
LINE
  5
D19
330
22
100
AcDbEntity
  8
1
100
AcDbLine
 10
28.57452928090001
 20
4.012893731299925
 30
0.0
 11
28.39638208250003
 21
4.063746896699967
 31
0.0
  0
LINE
  5
D1A
330
22
100
AcDbEntity
  8
1
100
AcDbLine
 10
28.30808306220001
 20
3.457731896399991
 30
0.0
 11
28.48623026040002
 21
3.406878730999949
 31
0.0
  0
LWPOLYLINE
  5
D1B
330
22
100
AcDbEntity
  8
1
100
AcDbPolyline
 90
        7
 70
     0
 43
0.0
 10
26.61484978000004
 20
4.266921761699961
 10
26.48458231820001
 20
4.30266412239996
 10
26.35566204910003
 20
4.350177325899949
 10
26.23087038070003
 20
4.407685796999942
 10
26.11095744640002
 20
4.474846760199966
 10
25.99668145690001
 20
4.551238903899957
 10
25.8887595146
 20
4.636381264099952
  0
LINE
  5
DA1
330
22
100
AcDbEntity
  8
1
100
AcDbLine
 10
25.8887595146
 20
4.636381264099952
 30
0.0
 11
25.78784788990004
 21
4.729753524999978
 31
0.0
  0
LWPOLYLINE
  5
DA2
330
22
100
AcDbEntity
  8
1
100
AcDbPolyline
 90
       11
 70
     0
 43
0.0
 10
25.78784788990004
 20
4.729753524999978
 10
25.69456582020001
 20
4.830782149199933
 10
25.60948627480002
 20
4.938847209799916
 10
25.533129181
 20
5.053291594999961
 10
25.46597529740001
 20
5.17339715099996
 10
25.40844591230001
 20
5.29840445489998
 10
25.36088395320002
 20
5.427562070399972
 10
25.32357738080003
 20
5.560095670399959
 10
25.29676444730001
 20
5.695169620299964
 10
25.28061215160003
 20
5.831936959599943
 10
25.2752173268
 20
5.969558874399979
  0
LINE
  5
DF7
330
22
100
AcDbEntity
  8
1
100
AcDbLine
 10
29.5778127964
 20
4.502292298700012
 30
0.0
 11
29.52685886660004
 21
4.680785131499987
 31
0.0
  0
LINE
  5
DF8
330
22
100
AcDbEntity
  8
1
100
AcDbLine
 10
28.91187523150001
 20
4.581049226900006
 30
0.0
 11
28.96282916140001
 21
4.402556393999986
 31
0.0
  0
LWPOLYLINE
  5
DF9
330
22
100
AcDbEntity
  8
1
100
AcDbPolyline
 90
        7
 70
     0
 43
0.0
 10
29.5778127959
 20
4.502292300500016
 10
29.58015000790002
 20
4.493319495999969
 10
29.58206771750003
 20
4.484251971899993
 10
29.58356834310001
 20
4.475072443999977
 10
29.5846446294
 20
4.465832764599952
 10
29.58528932090002
 20
4.456584785500012
 10
29.58550483620001
 20
4.447311222699966
  0
LWPOLYLINE
  5
E02
330
22
100
AcDbEntity
  8
1
100
AcDbPolyline
 90
        7
 70
     0
 43
0.0
 10
28.91187523210002
 20
4.581049224999958
 10
28.9095380201
 20
4.590022029499948
 10
28.90762031050002
 20
4.599089553700025
 10
28.90611968480002
 20
4.608269081499997
 10
28.90504339850003
 20
4.617508760999953
 10
28.90439870700001
 20
4.626756740100006
 10
28.9041831918
 20
4.636030302899996
  0
LWPOLYLINE
  5
E0B
330
22
100
AcDbEntity
  8
1
100
AcDbPolyline
 90
       24
 70
     0
 43
0.0
 10
28.75729261090001
 20
5.978478037699915
 10
28.7527523412
 20
5.856864899699985
 10
28.73772419509999
 20
5.72144730399998
 10
28.7123441027
 20
5.587166442099942
 10
28.67671959030003
 20
5.454860461099997
 10
28.6309240164
 20
5.325425107199976
 10
28.57504642450002
 20
5.199769848099947
 10
28.50933916540001
 20
5.078564968299986
 10
28.43426537690002
 20
4.962684349499966
 10
28.3502690871
 20
4.852924965299962
 10
28.25784730060002
 20
4.750128533499946
 10
28.15753668600001
 20
4.655083289999993
 10
28.05004234980004
 20
4.568366132299956
 10
27.93615364740003
 20
4.490473173099928
 10
27.81662729570002
 20
4.421854347299927
 10
27.69226740240004
 20
4.362969151599941
 10
27.56375881290001
 20
4.314171896499999
 10
27.4318925357
 20
4.275651446599908
 10
27.29746103630004
 20
4.247530538399928
 10
27.16125267950002
 20
4.229945740499999
 10
27.02407209080002
 20
4.223047977199996
 10
26.88669060770002
 20
4.22696599989996
 10
26.74999919190003
 20
4.241637454799956
 10
26.61484978000004
 20
4.266921761699961
  0
LWPOLYLINE
  5
E38
330
22
100
AcDbEntity
  8
1
100
AcDbPolyline
 90
        7
 70
     0
 43
0.0
 10
29.52685886660004
 20
7.274307849799924
 10
29.52452165500003
 20
7.265329342399979
 10
29.52260394560003
 20
7.256257138499961
 10
29.52110332000001
 20
7.247073948299998
 10
29.52002703370002
 20
7.237831641599939
 10
29.51938234210002
 20
7.228582087799964
 10
29.51916682680002
 20
7.219307997299949
  0
LWPOLYLINE
  5
E41
330
22
100
AcDbEntity
  8
1
100
AcDbPolyline
 90
        7
 70
     0
 43
0.0
 10
28.96282916080003
 20
7.558157921099962
 10
28.9651663729
 20
7.567136430199923
 10
28.96708408250004
 20
7.576208635099987
 10
28.96858470810002
 20
7.58539182559997
 10
28.96966099440002
 20
7.594634131999953
 10
28.9703056859
 20
7.603883684700008
 10
28.97052120110001
 20
7.613157773499949
  0
LINE
  5
E4A
330
22
100
AcDbEntity
  8
1
100
AcDbLine
 10
29.52685886660004
 20
7.274307849799924
 30
0.0
 11
29.5778127964
 21
7.452925049999976
 31
0.0
  0
LINE
  5
E4B
330
22
100
AcDbEntity
  8
1
100
AcDbLine
 10
28.96282916140001
 20
7.55815792300001
 30
0.0
 11
28.91187523150001
 21
7.379540722599983
 31
0.0
  0
LWPOLYLINE
  5
E4C
330
22
100
AcDbEntity
  8
1
100
AcDbPolyline
 90
        5
 70
     0
 43
0.0
 10
24.4561917776
 20
-8.418880160300034
 10
24.46758592050003
 20
-8.39459363800006
 10
24.47894091950002
 20
-8.367164949900029
 10
24.49025677450001
 20
-8.336594095999998
 10
24.50153348550003
 20
-8.302881076500057
  0
LINE
  5
E53
330
22
100
AcDbEntity
  8
4
100
AcDbLine
 10
4.016267804800008
 20
-0.3119970944000556
 30
0.0
 11
38.67287487420004
 21
3.311907464899945
 31
0.0
  0
LINE
  5
E54
330
22
100
AcDbEntity
  8
1
100
AcDbLine
 10
13.83803130780001
 20
2.397054030899937
 30
0.0
 11
13.62132034359999
 21
2.39346576639997
 31
0.0
  0
LINE
  5
E55
330
22
100
AcDbEntity
  8
1
100
AcDbLine
 10
12.7928932188
 20
2.37823165019995
 30
0.0
 11
12.7095828322
 21
2.37685179229993
 31
0.0
  0
LINE
  5
E56
330
22
100
AcDbEntity
  8
1
100
AcDbLine
 10
14.07309821339999
 20
2.400235853199944
 30
0.0
 11
13.83803130780001
 21
2.397054030899937
 31
0.0
  0
LINE
  5
E57
330
22
100
AcDbEntity
  8
1
100
AcDbLine
 10
12.7095828322
 20
2.37685179229993
 30
0.0
 11
12.57012855729999
 21
2.375120720699953
 31
0.0
  0
LINE
  5
E58
330
22
100
AcDbEntity
  8
1
100
AcDbLine
 10
14.32444854599998
 20
2.402983722199962
 30
0.0
 11
14.07309821339999
 21
2.400235853199944
 31
0.0
  0
LINE
  5
E59
330
22
100
AcDbEntity
  8
1
100
AcDbLine
 10
14.590019434
 20
2.405273924899972
 30
0.0
 11
14.32444854599998
 21
2.402983722199962
 31
0.0
  0
LINE
  5
E5A
330
22
100
AcDbEntity
  8
1
100
AcDbLine
 10
12.57012855729999
 20
2.375120720699953
 30
0.0
 11
12.4168574631
 21
2.373843247600007
 31
0.0
  0
LINE
  5
E5B
330
22
100
AcDbEntity
  8
1
100
AcDbLine
 10
14.867528386
 20
2.407083895599953
 30
0.0
 11
14.590019434
 21
2.405273924899972
 31
0.0
  0
LINE
  5
E5C
330
22
100
AcDbEntity
  8
1
100
AcDbLine
 10
15.15423193009999
 20
2.408392516399942
 30
0.0
 11
14.867528386
 21
2.407083895599953
 31
0.0
  0
LINE
  5
E5D
330
22
100
AcDbEntity
  8
1
100
AcDbLine
 10
12.4168574631
 20
2.373843247600007
 30
0.0
 11
12.25396456769999
 21
2.373058989299977
 31
0.0
  0
LINE
  5
E5E
330
22
100
AcDbEntity
  8
1
100
AcDbLine
 10
15.4469702282
 20
2.409183460899953
 30
0.0
 11
15.15423193009999
 21
2.408392516399942
 31
0.0
  0
LINE
  5
E5F
330
22
100
AcDbEntity
  8
1
100
AcDbLine
 10
12.25396456769999
 20
2.373058989299977
 30
0.0
 11
12.08578643769999
 21
2.372793729299985
 31
0.0
  0
LINE
  5
E60
330
22
100
AcDbEntity
  8
1
100
AcDbLine
 10
15.74264068709999
 20
2.409447961999944
 30
0.0
 11
15.4469702282
 21
2.409183460899953
 31
0.0
  0
LINE
  5
E61
330
22
100
AcDbEntity
  8
1
100
AcDbLine
 10
28.9611171652
 20
2.409447961999944
 30
0.0
 11
15.74264068709999
 21
2.409447961999944
 31
0.0
  0
LINE
  5
E62
330
22
100
AcDbEntity
  8
1
100
AcDbLine
 10
12.08578643769999
 20
2.372793729299985
 30
0.0
 11
6.471905380399988
 21
2.372793729299985
 31
0.0
  0
LINE
  5
E63
330
22
100
AcDbEntity
  8
1
100
AcDbLine
 10
12.0
 20
1.430675529199959
 30
0.0
 11
5.0
 21
1.430675529199959
 31
0.0
  0
LINE
  5
E64
330
22
100
AcDbEntity
  8
SK4
100
AcDbLine
 10
-18.90446670013756
 20
0.0
 30
0.0
 11
0.0
 21
0.0
 31
0.0
  0
LINE
  5
E65
330
22
100
AcDbEntity
  8
1
100
AcDbLine
 10
29.46111062420002
 20
0.0
 30
0.0
 11
30.00000000000003
 21
0.0
 31
0.0
  0
LINE
  5
E66
330
22
100
AcDbEntity
  8
1
100
AcDbLine
 10
28.9611171652
 20
2.409447961999944
 30
0.0
 11
29.46111062540001
 21
2.404213581699934
 31
0.0
  0
LWPOLYLINE
  5
E67
330
22
100
AcDbEntity
  8
1
100
AcDbPolyline
 90
        3
 70
     0
 43
0.0
 10
6.471905380399988
 20
2.372793729299985
 10
6.181817005999988
 20
2.380720667399941
 10
5.916582084899999
 20
2.403154187099971
  0
LINE
  5
E6C
330
22
100
AcDbEntity
  8
SK1
100
AcDbLine
 10
-1.304456457499981
 20
4.063629669399972
 30
0.0
 11
-1.200928839400006
 21
4.049999999999954
 31
0.0
  0
LWPOLYLINE
  5
E6D
330
22
100
AcDbEntity
  8
1
100
AcDbPolyline
 90
        4
 70
     0
 43
0.0
 10
24.40714021510002
 20
2.698537691500007
 10
24.44508541730002
 20
2.689979810399961
 10
24.53338392640001
 20
2.676850426899989
 10
24.62402023760001
 20
2.672178236799993
  0
LINE
  5
E73
330
22
100
AcDbEntity
  8
1
100
AcDbLine
 10
24.49585582970002
 20
2.682430597799964
 30
0.0
 11
24.4504169468
 21
2.697834965899915
 31
0.0
  0
LWPOLYLINE
  5
E74
330
22
100
AcDbEntity
  8
1
100
AcDbPolyline
 90
       14
 70
     0
 43
0.0
 10
24.4504169468
 20
2.697834965899915
 10
24.34509170990003
 20
2.749766196899997
 10
24.24744424440002
 20
2.815042176799977
 10
24.15914806220002
 20
2.892545148299973
 10
24.08171547540002
 20
2.980947792499989
 10
24.0164702948
 20
3.078738072099952
 10
23.96452853750003
 20
3.184243090299958
 10
23.9267789777
 20
3.295657801900006
 10
23.90386757179999
 20
3.411076333300002
 10
23.89618660660003
 20
3.528523433999964
 10
23.9038675754
 20
3.645989317399937
 10
23.92677900929999
 20
3.761463837099938
 10
23.96452864700001
 20
3.872970769999994
 10
24.01461569849999
 20
3.974830595999947
  0
LWPOLYLINE
  5
E84
330
22
100
AcDbEntity
  8
1
100
AcDbPolyline
 90
        9
 70
     0
 43
0.0
 10
23.88553411670003
 20
3.06847929839995
 10
23.93382838280002
 20
3.002343543899996
 10
23.98928765060003
 20
2.939968044199929
 10
24.05251079530001
 20
2.880918717299948
 10
24.12192516350001
 20
2.827516882199972
 10
24.19631343780003
 20
2.781399736699938
 10
24.27534164870002
 20
2.742830514299953
 10
24.35861404800002
 20
2.712228483700016
 10
24.40714021510002
 20
2.698537691500007
  0
LWPOLYLINE
  5
E8F
330
22
100
AcDbEntity
  8
1
100
AcDbPolyline
 90
       15
 70
     0
 43
0.0
 10
23.88553411670003
 20
3.06847929839995
 10
23.83827010190001
 20
3.147729113399918
 10
23.79965961410002
 20
3.230513886899984
 10
23.76956914320002
 20
3.317291424599943
 10
23.74839921950002
 20
3.406688309599985
 10
23.73651213640002
 20
3.497806741099964
 10
23.733889094
 20
3.589677675599943
 10
23.74070347259999
 20
3.68134803839996
 10
23.75674102510001
 20
3.771872122499985
 10
23.78197970810004
 20
3.860281946099973
 10
23.81601629050002
 20
3.945691258599993
 10
23.85862819650004
 20
4.027149184699965
 10
23.90925141730003
 20
4.103881616699936
 10
23.96716797660003
 20
4.174661105199959
 10
24.01461569849999
 20
4.221954028599952
  0
LINE
  5
EB9
330
22
100
AcDbEntity
  8
1
100
AcDbLine
 10
25.08878917220002
 20
7.374875062199976
 30
0.0
 11
25.03783524240004
 21
7.553367895099995
 31
0.0
  0
LINE
  5
EBA
330
22
100
AcDbEntity
  8
1
100
AcDbLine
 10
24.45075419680001
 20
7.446668033099967
 30
0.0
 11
24.50170812660002
 21
7.268175200299936
 31
0.0
  0
LWPOLYLINE
  5
EBB
330
22
100
AcDbEntity
  8
1
100
AcDbPolyline
 90
        7
 70
     0
 43
0.0
 10
25.08878917170003
 20
7.37487506409991
 10
25.09112638370002
 20
7.365902259599977
 10
25.09304409330002
 20
7.356834735399957
 10
25.09454471890001
 20
7.347655207599984
 10
25.09562100520003
 20
7.338415528199959
 10
25.09626569670002
 20
7.329167549099963
 10
25.09648121190003
 20
7.319893986299973
  0
LWPOLYLINE
  5
EC4
330
22
100
AcDbEntity
  8
1
100
AcDbPolyline
 90
        7
 70
     0
 43
0.0
 10
24.45075419740002
 20
7.446668031299964
 10
24.4484169854
 20
7.455640835800011
 10
24.44649927580002
 20
7.464708359999974
 10
24.44499865009999
 20
7.473887887799946
 10
24.44392236380003
 20
7.483127567199971
 10
24.44327767230002
 20
7.492375546399955
 10
24.44306215710003
 20
7.501649109099957
  0
LWPOLYLINE
  5
ECD
330
22
100
AcDbEntity
  8
1
100
AcDbPolyline
 90
       11
 70
     0
 43
0.0
 10
25.03014320260002
 20
4.100843314899975
 10
25.03135118240002
 20
4.085484883099923
 10
25.03492355310001
 20
4.070594812199999
 10
25.04092509280003
 20
4.055926687799967
 10
25.04916146720001
 20
4.04221975370001
 10
25.05961672430002
 20
4.030043801999966
 10
25.07182049530002
 20
4.019660773700024
 10
25.08548387880001
 20
4.01152555279998
 10
25.10004651980001
 20
4.005629102499995
 10
25.11476968080001
 20
4.00213183789998
 10
25.12989960760001
 20
4.00098028729991
  0
LWPOLYLINE
  5
EDA
330
22
100
AcDbEntity
  8
1
100
AcDbPolyline
 90
       15
 70
     0
 43
0.0
 10
24.39111010650004
 20
3.594140973099968
 10
24.39267054690001
 20
3.566629250999937
 10
24.3972790396
 20
3.539471185500019
 10
24.40494663040002
 20
3.512495782699943
 10
24.4156401818
 20
3.486216024700013
 10
24.42941998400002
 20
3.460879676899992
 10
24.44601680000002
 20
3.437111395499982
 10
24.46530218520002
 20
3.4155636383
 10
24.48691405300002
 20
3.396400767099976
 10
24.51066588000003
 20
3.379968498199957
 10
24.53590253070002
 20
3.366375226199977
 10
24.56198369500004
 20
3.355872380199969
 10
24.58867837370002
 20
3.348376572599988
 10
24.61548657660001
 20
3.343888278399958
 10
24.64257496710002
 20
3.342407339199951
  0
LWPOLYLINE
  5
EEB
330
22
100
AcDbEntity
  8
1
100
AcDbPolyline
 90
       15
 70
     0
 43
0.0
 10
24.01461569849999
 20
3.372964892799984
 10
24.01709181270002
 20
3.329309163099935
 10
24.02440459050001
 20
3.286214617499979
 10
24.03657155950003
 20
3.243409921900024
 10
24.05354013700003
 20
3.201709078699991
 10
24.07540599170002
 20
3.161505243000021
 10
24.10174189720001
 20
3.123789622799961
 10
24.132344037
 20
3.089597540499994
 10
24.16663785000003
 20
3.059189806599931
 10
24.20432736050003
 20
3.033115005399963
 10
24.2443729963
 20
3.011545137600023
 10
24.28575871010003
 20
2.994879172299931
 10
24.32811795150002
 20
2.982984789599981
 10
24.37065733349999
 20
2.975862743300012
 10
24.41364131860002
 20
2.973512782099987
  0
LWPOLYLINE
  5
EFC
330
22
100
AcDbEntity
  8
1
100
AcDbPolyline
 90
        7
 70
     0
 43
0.0
 10
25.03014320260002
 20
7.608348973000033
 10
25.03035871580002
 20
7.599075436599946
 10
25.0310034053
 20
7.589827473199989
 10
25.03207968880003
 20
7.58058779869998
 10
25.0335803131
 20
7.571408265400009
 10
25.03549802510003
 20
7.562340725500007
 10
25.03783524240004
 20
7.553367895099995
  0
LWPOLYLINE
  5
F05
330
22
100
AcDbEntity
  8
1
100
AcDbPolyline
 90
        7
 70
     0
 43
0.0
 10
24.50940016640001
 20
7.213194122399954
 10
24.50918465320001
 20
7.222467658799928
 10
24.5085399637
 20
7.231715622199999
 10
24.50746368020001
 20
7.240955296699951
 10
24.5059630559
 20
7.250134830100023
 10
24.50404534400002
 20
7.259202369899981
 10
24.50170812660002
 20
7.268175200299936
  0
LINE
  5
F0E
330
22
100
AcDbEntity
  8
1
100
AcDbLine
 10
25.09648121190003
 20
4.631383417099982
 30
0.0
 11
25.09648121190003
 21
7.319893986299973
 31
0.0
  0
LINE
  5
F0F
330
22
100
AcDbEntity
  8
1
100
AcDbLine
 10
25.03014320260002
 20
4.100843314899975
 30
0.0
 11
25.03014320260002
 21
4.342766515599976
 31
0.0
  0
LINE
  5
F10
330
22
100
AcDbEntity
  8
1
100
AcDbLine
 10
25.03014320260002
 20
7.608348970999941
 30
0.0
 11
25.03014320260002
 21
7.850272171799986
 31
0.0
  0
LINE
  5
F11
330
22
100
AcDbEntity
  8
1
100
AcDbLine
 10
24.50940016640001
 20
7.21319412439999
 30
0.0
 11
24.50940016640001
 21
4.729652332599982
 31
0.0
  0
LINE
  5
F12
330
22
100
AcDbEntity
  8
1
100
AcDbLine
 10
24.44306215710003
 20
8.348480165399962
 30
0.0
 11
24.44306215710003
 21
7.501649109099957
 31
0.0
  0
LINE
  5
F13
330
22
100
AcDbEntity
  8
1
100
AcDbLine
 10
24.44306215710003
 20
4.441035431299951
 30
0.0
 11
24.44306215710003
 21
3.594204374899959
 31
0.0
  0
LINE
  5
F14
330
22
100
AcDbEntity
  8
1
100
AcDbLine
 10
24.39111010650004
 20
3.594140973099968
 30
0.0
 11
24.39111010650004
 21
8.348416763599971
 31
0.0
  0
LINE
  5
F15
330
22
100
AcDbEntity
  8
1
100
AcDbLine
 10
24.09442082250001
 20
8.57227030109999
 30
0.0
 11
24.09442082250001
 21
3.373062286299955
 31
0.0
  0
LINE
  5
F16
330
22
100
AcDbEntity
  8
1
100
AcDbLine
 10
24.01461569849999
 20
3.372964892799984
 30
0.0
 11
24.01461569849999
 21
8.57217290769995
 31
0.0
  0
LINE
  5
F17
330
22
100
AcDbEntity
  8
1
100
AcDbLine
 10
24.01461569849999
 20
-8.5
 30
0.0
 11
24.01461569849999
 21
-8.566820260800056
 31
0.0
  0
LWPOLYLINE
  5
F18
330
22
100
AcDbEntity
  8
1
100
AcDbPolyline
 90
        7
 70
     0
 43
0.0
 10
25.09648121190003
 20
4.631383417099982
 10
25.09626569880001
 20
4.62210935639996
 10
25.09562100940002
 20
4.612859820499977
 10
25.09454472589999
 20
4.603617519400017
 10
25.09304410160002
 20
4.594434323000029
 10
25.09112638940002
 20
4.585362101399994
 10
25.08878917170003
 20
4.576383564699995
  0
LWPOLYLINE
  5
F21
330
22
100
AcDbEntity
  8
1
100
AcDbPolyline
 90
        7
 70
     0
 43
0.0
 10
24.44306215710003
 20
4.441035429299972
 10
24.44327767030001
 20
4.450309491699954
 10
24.44392235980001
 20
4.459559028599983
 10
24.44499864330004
 20
4.468801330100006
 10
24.44649926760002
 20
4.477984526199975
 10
24.4484169795
 20
4.487056746699977
 10
24.45075419680001
 20
4.496035281800004
  0
LWPOLYLINE
  5
F2A
330
22
100
AcDbEntity
  8
1
100
AcDbPolyline
 90
       22
 70
     0
 43
0.0
 10
25.2752173268
 20
5.969558896399973
 10
25.2806121511
 20
6.107193949999953
 10
25.29676444260002
 20
6.244000690699976
 10
25.32357737000001
 20
6.37914006989996
 10
25.36088393490002
 20
6.511764715500021
 10
25.40844588420004
 20
6.641038407799953
 10
25.4659752577
 20
6.766186118399957
 10
25.5331291283
 20
6.886455574199942
 10
25.60948620800002
 20
7.001086324399977
 10
25.69456573830001
 20
7.109359041799962
 10
25.78784779260002
 20
7.210615345799965
 10
25.8887594018
 20
7.304233910800007
 10
25.99668132880001
 20
7.389639688300007
 10
26.11095730380004
 20
7.466310760400006
 10
26.2308702245
 20
7.533764412799939
 10
26.35566188080003
 20
7.591577483099968
 10
26.48458213949999
 20
7.639405364599952
 10
26.61685809700001
 20
7.676958513199963
 10
26.7516557431
 20
7.703997130499999
 10
26.88812808470002
 20
7.720352677699963
 10
27.02544343500003
 20
7.725927518899993
 10
27.16275878640002
 20
7.720687848299974
  0
LWPOLYLINE
  5
F42
330
22
100
AcDbEntity
  8
1
100
AcDbPolyline
 90
       15
 70
     0
 43
0.0
 10
24.09442082250001
 20
8.57227030109999
 10
24.09640171380002
 20
8.60719971979995
 10
24.1022519361
 20
8.641689635399984
 10
24.11198551130002
 20
8.675957149499936
 10
24.12556037330001
 20
8.709350957299932
 10
24.14305305710002
 20
8.741556721699964
 10
24.1641217815
 20
8.77178064209994
 10
24.18860349330004
 20
8.799194062399976
 10
24.2160385437
 20
8.823587212500001
 10
24.24619015210002
 20
8.844520646999967
 10
24.27822666080002
 20
8.861854735299971
 10
24.3113352318
 20
8.875268318399946
 10
24.34522262490003
 20
8.884866536299966
 10
24.37925413050002
 20
8.890647236799964
 10
24.41364131860002
 20
8.892611137399967
  0
LWPOLYLINE
  5
F53
330
22
100
AcDbEntity
  8
1
100
AcDbPolyline
 90
       13
 70
     0
 43
0.0
 10
24.44306215710003
 20
8.348480165399962
 10
24.4447400594
 20
8.373992663299986
 10
24.4497155702
 20
8.399040129699983
 10
24.45803262690001
 20
8.423887287399963
 10
24.46955941690001
 20
8.447739967799975
 10
24.48430629800004
 20
8.470075879700004
 10
24.50189069570001
 20
8.490344113199967
 10
24.5221653278
 20
8.507860091099985
 10
24.54443467620001
 20
8.522502524899948
 10
24.56812247470003
 20
8.533909392299904
 10
24.59272368570004
 20
8.542118317099948
 10
24.61745404240003
 20
8.547035867699946
 10
24.64257496710002
 20
8.548693188099946
  0
LWPOLYLINE
  5
F62
330
22
100
AcDbEntity
  8
1
100
AcDbPolyline
 90
        7
 70
     0
 43
0.0
 10
25.03783524290003
 20
4.397766368099951
 10
25.03549803089999
 20
4.388787858899945
 10
25.03358032130001
 20
4.379715654099925
 10
25.03207969560004
 20
4.370532463499955
 10
25.0310034094
 20
4.361290157099972
 10
25.03035871780003
 20
4.352040604399974
 10
25.03014320260002
 20
4.342766515599976
  0
LWPOLYLINE
  5
F6B
330
22
100
AcDbEntity
  8
1
100
AcDbPolyline
 90
        7
 70
     0
 43
0.0
 10
24.50170812660002
 20
4.674652482099986
 10
24.50404533830002
 20
4.683630989499931
 10
24.50596304760001
 20
4.692703193300019
 10
24.50746367320002
 20
4.701886383499982
 10
24.50853995950001
 20
4.711128690299972
 10
24.50918465110002
 20
4.720378244000016
 10
24.50940016640001
 20
4.729652334499917
  0
LINE
  5
F74
330
22
100
AcDbEntity
  8
1
100
AcDbLine
 10
25.03783524240004
 20
4.397766366200016
 30
0.0
 11
25.08878917220002
 21
4.576383566599929
 31
0.0
  0
LINE
  5
F75
330
22
100
AcDbEntity
  8
1
100
AcDbLine
 10
24.50170812660002
 20
4.674652481999942
 30
0.0
 11
24.45075419680001
 21
4.496035281800004
 31
0.0
  0
LINE
  5
FBD
330
22
100
AcDbEntity
  8
1
100
AcDbLine
 10
25.29849758650002
 20
2.969297810299963
 30
0.0
 11
25.3048152563
 21
2.974600362899991
 31
0.0
  0
LINE
  5
FBE
330
22
100
AcDbEntity
  8
1
100
AcDbLine
 10
25.54233673290003
 20
3.403286029400021
 30
0.0
 11
25.72048393099999
 21
3.454574013299975
 31
0.0
  0
LINE
  5
FBF
330
22
100
AcDbEntity
  8
SK1
100
AcDbLine
 10
-1.304456457499981
 20
-4.063629669500016
 30
0.0
 11
-1.200928839400006
 21
-4.050000000000011
 31
0.0
  0
LINE
  5
FC0
330
22
100
AcDbEntity
  8
1
100
AcDbLine
 10
29.60097437990004
 20
-2.966820260800034
 30
0.0
 11
29.46111062540001
 21
-2.966820260800034
 31
0.0
  0
LINE
  5
FC1
330
22
100
AcDbEntity
  8
1
100
AcDbLine
 10
29.46111062540001
 20
-3.11691235530003
 30
0.0
 11
29.51054090490004
 21
-3.11691235530003
 31
0.0
  0
LINE
  5
FC2
330
22
100
AcDbEntity
  8
SK1
100
AcDbLine
 10
-6.899999999999977
 20
-3.125
 30
0.0
 11
-8.176471862599981
 21
-3.125
 31
0.0
  0
LINE
  5
FC3
330
22
100
AcDbEntity
  8
SK1
100
AcDbLine
 10
-17.39999999999997
 20
-3.400000000000034
 30
0.0
 11
-8.699999999999988
 21
-3.400000000000034
 31
0.0
  0
LWPOLYLINE
  5
FC4
330
22
100
AcDbEntity
  8
1
100
AcDbPolyline
 90
       15
 70
     0
 43
0.0
 10
29.60097437990004
 20
-2.966820260800034
 10
29.64453341520002
 20
-2.969302421400016
 10
29.68753843720003
 20
-2.976633056299988
 10
29.73026018180002
 20
-2.988829735800038
 10
29.77188644160003
 20
-3.005839748900029
 10
29.81202507590001
 20
-3.027758997799992
 10
29.84968662070003
 20
-3.05415921290006
 10
29.88383786970002
 20
-3.084836079900014
 10
29.91421790880003
 20
-3.11921363500005
 10
29.94027904640001
 20
-3.156995179400041
 10
29.96184840839999
 20
-3.197138602500046
 10
29.97852670020001
 20
-3.238625376000015
 10
29.9904454929
 20
-3.281088054300028
 10
29.99760306870001
 20
-3.323731313200028
 10
30.00000000000003
 20
-3.366820260800068
  0
LWPOLYLINE
  5
FD5
330
22
100
AcDbEntity
  8
1
100
AcDbPolyline
 90
       15
 70
     0
 43
0.0
 10
5.916582084899999
 20
2.403154187099971
 10
5.599324960399997
 20
2.448642949099962
 10
5.309768191199992
 20
2.508388244999991
 10
5.025839631499991
 20
2.585360021099972
 10
4.749691120699992
 20
2.678278157699935
 10
4.483607740299987
 20
2.786636201999954
 10
4.230268354299994
 20
2.907828156699963
 10
3.993704715999996
 20
3.03922015159992
 10
3.772143239200005
 20
3.180293420400005
 10
3.565335979499991
 20
3.329655424499947
 10
3.37273776500001
 20
3.487028109099924
 10
3.193598138300018
 20
3.651790971999957
 10
3.028285011899981
 20
3.823082459299996
 10
2.876930865700018
 20
3.999963361799984
 10
2.739491539900001
 20
4.181508788499968
  0
LINE
  5
FE6
330
22
100
AcDbEntity
  8
SK1
100
AcDbLine
 10
-1.304456457499981
 20
4.063629669399972
 30
0.0
 11
-2.0
 21
4.25
 31
0.0
  0
LWPOLYLINE
  5
FE7
330
22
100
AcDbEntity
  8
1
100
AcDbPolyline
 90
       11
 70
     0
 43
0.0
 10
29.46111062540001
 20
-3.531898770999987
 10
29.46567282550001
 20
-3.534390136299975
 10
29.50333437030002
 20
-3.560790351400044
 10
29.53748561930002
 20
-3.591467218499985
 10
29.56786565840003
 20
-3.625844773500034
 10
29.59392679590002
 20
-3.663626317900025
 10
29.61549615800001
 20
-3.703769741100018
 10
29.63217444980001
 20
-3.745256514600043
 10
29.64409324250002
 20
-3.787719192900055
 10
29.65125081820003
 20
-3.830362451800056
 10
29.6536477496
 20
-3.873451399300051
  0
LINE
  5
101B
330
22
100
AcDbEntity
  8
1
100
AcDbLine
 10
25.6042823212
 20
4.060339442899987
 30
0.0
 11
25.42613512300003
 21
4.009051458999977
 31
0.0
  0
LWPOLYLINE
  5
101C
330
22
100
AcDbEntity
  8
1
100
AcDbPolyline
 90
       11
 70
     0
 43
0.0
 10
5.103447355500009
 20
-6.499996008700065
 10
5.288876350099997
 20
-6.499076423500014
 10
5.672458960699998
 20
-6.493134950500063
 10
6.071880407999998
 20
-6.483308951400033
 10
6.484075167300005
 20
-6.471437842800014
 10
6.906341425899995
 20
-6.45929214510005
 10
7.335936728299998
 20
-6.448327222399996
 10
7.769804243500004
 20
-6.439810669899998
 10
8.206185284700012
 20
-6.434546372099987
 10
8.641955017899988
 20
-6.433063225599994
 10
9.078155054399985
 20
-6.435473542200043
  0
LINE
  5
1029
330
22
100
AcDbEntity
  8
SK1
100
AcDbLine
 10
-9.299999999999982
 20
-4.0
 30
0.0
 11
-16.79999999999998
 21
-4.0
 31
0.0
  0
LINE
  5
102A
330
22
100
AcDbEntity
  8
SK1
100
AcDbLine
 10
-0.2999999999999829
 20
-4.050000000000011
 30
0.0
 11
-1.200928839400006
 21
-4.050000000000011
 31
0.0
  0
LINE
  5
102B
330
22
100
AcDbEntity
  8
SK1
100
AcDbLine
 10
-2.0
 20
-4.25
 30
0.0
 11
-5.899999999999977
 21
-4.25
 31
0.0
  0
LINE
  5
102C
330
22
100
AcDbEntity
  8
1
100
AcDbLine
 10
12.0
 20
-5.970580526700018
 30
0.0
 11
5.0
 21
-5.970580526700018
 31
0.0
  0
LINE
  5
10A0
330
22
100
AcDbEntity
  8
1
100
AcDbLine
 10
28.39638208250003
 20
7.895584846199994
 30
0.0
 11
28.57452928080002
 21
7.946872830100005
 31
0.0
  0
LINE
  5
10A1
330
22
100
AcDbEntity
  8
1
100
AcDbLine
 10
28.48623026040002
 20
8.545674302399959
 30
0.0
 11
28.30808306220001
 21
8.494386318499948
 31
0.0
  0
LWPOLYLINE
  5
10BA
330
22
100
AcDbEntity
  8
1
100
AcDbPolyline
 90
       15
 70
     0
 43
0.0
 10
29.25462216800003
 20
-8.360189160800018
 10
29.28729144440001
 20
-8.358327540300024
 10
29.31954521090001
 20
-8.352829564200021
 10
29.35158651940003
 20
-8.343682054499993
 10
29.38280621420003
 20
-8.330924544700053
 10
29.4129101899
 20
-8.314485108099972
 10
29.44115634849999
 20
-8.294684946800032
 10
29.46676978530002
 20
-8.271677296500058
 10
29.48955481460001
 20
-8.245894130200042
 10
29.5091006678
 20
-8.217557971900021
 10
29.52527768930003
 20
-8.187450404499998
 10
29.53778640820002
 20
-8.15633532440006
 10
29.54672550270002
 20
-8.12448831559999
 10
29.55209368449999
 20
-8.092505871500065
 10
29.55389138300001
 20
-8.060189160800064
  0
LWPOLYLINE
  5
10CB
330
22
100
AcDbEntity
  8
1
100
AcDbPolyline
 90
       15
 70
     0
 43
0.0
 10
29.51054090490004
 20
-8.816728166299981
 10
29.55523398500003
 20
-8.814207437600032
 10
29.59934791450002
 20
-8.806671718100005
 10
29.6423446014
 20
-8.794270150100032
 10
29.68367116890002
 20
-8.777112551000016
 10
29.7228146784
 20
-8.755401549700025
 10
29.75930746750004
 20
-8.729453235500045
 10
29.79268074560002
 20
-8.699573641100016
 10
29.82248915090003
 20
-8.666122076900023
 10
29.84837548120001
 20
-8.629544620300009
 10
29.87003563360003
 20
-8.590308141299999
 10
29.88715527080001
 20
-8.54887611980007
 10
29.89952933650002
 20
-8.50576600070002
 10
29.90704702030001
 20
-8.461536522600056
 10
29.909566525
 20
-8.416728166300003
  0
LWPOLYLINE
  5
10DC
330
22
100
AcDbEntity
  8
1
100
AcDbPolyline
 90
        5
 70
     0
 43
0.0
 10
24.0755823952
 20
-8.500000119200024
 10
24.13879117510001
 20
-8.497775029700051
 10
24.24477826320003
 20
-8.484026751600083
 10
24.35057846400003
 20
-8.457728461800002
 10
24.4561917776
 20
-8.418880160300034
  0
LINE
  5
10FA
330
22
100
AcDbEntity
  8
1
100
AcDbLine
 10
5.110386234700001
 20
-6.5
 30
0.0
 11
0.4000000000000057
 21
-6.5
 31
0.0
  0
LINE
  5
10FC
330
22
100
AcDbEntity
  8
1
100
AcDbLine
 10
29.09412339110003
 20
-8.260189160800052
 30
0.0
 11
29.16184141030001
 21
-8.260189160800052
 31
0.0
  0
LINE
  5
10FD
330
22
100
AcDbEntity
  8
1
100
AcDbLine
 10
29.25462216800003
 20
-8.360189160800018
 30
0.0
 11
25.07808305080002
 21
-8.360189160800018
 31
0.0
  0
LINE
  5
10FE
330
22
100
AcDbEntity
  8
1
100
AcDbLine
 10
29.25462212950001
 20
-8.46018912230005
 30
0.0
 11
25.07808308930001
 21
-8.46018912230005
 31
0.0
  0
LINE
  5
10FF
330
22
100
AcDbEntity
  8
1
100
AcDbLine
 10
24.07552209350001
 20
-8.5
 30
0.0
 11
22.14338148050001
 21
-8.5
 31
0.0
  0
LINE
  5
1100
330
22
100
AcDbEntity
  8
1
100
AcDbLine
 10
24.62266079890003
 20
-8.816728166299981
 30
0.0
 11
29.51054090490004
 21
-8.816728166299981
 31
0.0
  0
LINE
  5
1101
330
22
100
AcDbEntity
  8
1
100
AcDbLine
 10
24.41364131860002
 20
-8.966820260800034
 30
0.0
 11
29.60097437990004
 21
-8.966820260800034
 31
0.0
  0
LWPOLYLINE
  5
1102
330
22
100
AcDbEntity
  8
1
100
AcDbPolyline
 90
        4
 70
     0
 43
0.0
 10
22.14289978410002
 20
-8.499999125200076
 10
19.88568682589999
 20
-8.498533778500018
 10
17.81367822710001
 20
-8.494606565000026
 10
15.74264068709999
 20
-8.488207715000044
  0
LINE
  5
1109
330
22
100
AcDbEntity
  8
1
100
AcDbLine
 10
12.08578643769999
 20
-6.461840070999983
 30
0.0
 11
11.08122844109999
 21
-6.453807875400059
 31
0.0
  0
LINE
  5
110A
330
22
100
AcDbEntity
  8
1
100
AcDbLine
 10
11.08122844109999
 20
-6.453807875400059
 30
0.0
 11
10.0786443721
 21
-6.44501816340005
 31
0.0
  0
LINE
  5
110B
330
22
100
AcDbEntity
  8
1
100
AcDbLine
 10
10.0786443721
 20
-6.44501816340005
 30
0.0
 11
9.0781823019
 21
-6.43547382280002
 31
0.0
  0
LWPOLYLINE
  5
110C
330
22
100
AcDbEntity
  8
1
100
AcDbPolyline
 90
        7
 70
     0
 43
0.0
 10
28.9611171652
 20
-8.336637138600053
 10
28.24104375300001
 20
-8.326461645700021
 10
27.52234607290001
 20
-8.315989794000017
 10
26.80500419410004
 20
-8.305220965900048
 10
26.08907790880002
 20
-8.294157014500001
 10
25.37462700900003
 20
-8.282799792700075
 10
24.66163156410002
 20
-8.271148682900047
  0
LWPOLYLINE
  5
1115
330
22
100
AcDbEntity
  8
1
100
AcDbPolyline
 90
       15
 70
     0
 43
0.0
 10
12.08578643769999
 20
-6.461840070999983
 10
12.14201385570001
 20
-6.463862885900084
 10
12.19787911040001
 20
-6.469026957700066
 10
12.25346778830001
 20
-6.47734841980008
 10
12.3085231295
 20
-6.488778871900024
 10
12.3628785809
 20
-6.503298376100019
 10
12.4163491084
 20
-6.520837678500015
 10
12.46874222580001
 20
-6.541346764000024
 10
12.51991373730001
 20
-6.564747978400077
 10
12.5697023587
 20
-6.590977353100015
 10
12.61796687029999
 20
-6.619943816399995
 10
12.6645589037
 20
-6.651571989700016
 10
12.7093386203
 20
-6.685750824900026
 10
12.75209306349998
 20
-6.722327125800063
 10
12.7928932188
 20
-6.761351957900046
  0
LWPOLYLINE
  5
112E
330
22
100
AcDbEntity
  8
1
100
AcDbPolyline
 90
       14
 70
     0
 43
0.0
 10
24.62266079890003
 20
-8.816728166299981
 10
24.57797056160001
 20
-8.814200783800004
 10
24.53385172820004
 20
-8.806669182300083
 10
24.49085310280003
 20
-8.794269333700071
 10
24.44952797750003
 20
-8.777112501000033
 10
24.41038821460001
 20
-8.755403998100007
 10
24.37389809220003
 20
-8.729457083499994
 10
24.34052136100002
 20
-8.699575460700032
 10
24.3107092635
 20
-8.666116975299985
 10
24.28481996410003
 20
-8.629532777500003
 10
24.2631591869
 20
-8.590291371800049
 10
24.24604104300002
 20
-8.548863333900044
 10
24.23366891470002
 20
-8.505759877200034
 10
24.23029509790001
 20
-8.485905457700084
  0
LWPOLYLINE
  5
113E
330
22
100
AcDbEntity
  8
1
100
AcDbPolyline
 90
       10
 70
     0
 43
0.0
 10
25.07808308930001
 20
-8.46018912230005
 10
25.03452405400003
 20
-8.457706961700012
 10
24.99151903200001
 20
-8.450376326800039
 10
24.94879728740003
 20
-8.438179647300046
 10
24.90717102759999
 20
-8.421169634199998
 10
24.86703239330001
 20
-8.399250385300035
 10
24.82937084849999
 20
-8.372850170200081
 10
24.79521959940001
 20
-8.342173303100025
 10
24.7648395603
 20
-8.307795748099977
 10
24.74044939010003
 20
-8.272436650700001
  0
LWPOLYLINE
  5
114A
330
22
100
AcDbEntity
  8
1
100
AcDbPolyline
 90
       15
 70
     0
 43
0.0
 10
24.41364131860002
 20
-8.966820260800034
 10
24.37008228330001
 20
-8.964338100200052
 10
24.32707726130002
 20
-8.957007465300023
 10
24.28435551670003
 20
-8.944810785800029
 10
24.24272925690002
 20
-8.927800772700095
 10
24.20259062260001
 20
-8.905881523800019
 10
24.16492907780003
 20
-8.879481308700064
 10
24.13077782880004
 20
-8.848804441699996
 10
24.10039778960001
 20
-8.814426886600074
 10
24.07433665210002
 20
-8.776645342200026
 10
24.05276729010001
 20
-8.736501919100078
 10
24.03608899830002
 20
-8.695015145599995
 10
24.0241702056
 20
-8.65255246730004
 10
24.01701262980004
 20
-8.60990920840004
 10
24.01461569849999
 20
-8.566820260800056
  0
LWPOLYLINE
  5
115B
330
22
100
AcDbEntity
  8
1
100
AcDbPolyline
 90
        8
 70
     0
 43
0.0
 10
24.86900478530001
 20
-8.274537383600033
 10
24.89283044940001
 20
-8.295695489100069
 10
24.92109758230004
 20
-8.315289071200027
 10
24.95113180910002
 20
-8.331505595400017
 10
24.98217109440003
 20
-8.344044859199982
 10
25.01394052550001
 20
-8.353005782100012
 10
25.04584506200001
 20
-8.358387072500022
 10
25.07808305080002
 20
-8.360189160800018
  0
LINE
  5
1165
330
22
100
AcDbEntity
  8
1
100
AcDbLine
 10
12.0
 20
-5.970580526700018
 30
0.0
 11
12.0
 21
1.430675529199959
 31
0.0
  0
LWPOLYLINE
  5
1175
330
22
100
AcDbEntity
  8
1
100
AcDbPolyline
 90
        3
 70
     0
 43
0.0
 10
13.62132034360002
 20
7.586429397799975
 10
13.48062137280001
 20
7.444348378099959
 10
12.79289321880003
 20
6.74891093970001
  0
LWPOLYLINE
  5
117A
330
22
100
AcDbEntity
  8
1
100
AcDbPolyline
 90
       17
 70
     0
 43
0.0
 10
13.62132034360002
 20
7.586429397799975
 10
13.72799002940002
 20
7.688978152599986
 10
13.83928185400003
 20
7.785970514499922
 10
13.95534814650003
 20
7.877522492099956
 10
14.07573191940002
 20
7.963286060199948
 10
14.20012786550003
 20
8.043004483299966
 10
14.32823327360003
 20
8.116519901199978
 10
14.45975304500004
 20
8.18363452519992
 10
14.59435903490003
 20
8.244211405599969
 10
14.73173608390004
 20
8.298081981799953
 10
14.87155013670005
 20
8.345143297499987
 10
15.01347555810002
 20
8.385260050199917
 10
15.15717192800002
 20
8.418360718399924
 10
15.30232075560002
 20
8.444342190699956
 10
15.44853061800003
 20
8.463163935299974
 10
15.59524173020003
 20
8.474741686900017
 10
15.74264068710002
 20
8.479103533999989
  0
LWPOLYLINE
  5
118D
330
22
100
AcDbEntity
  8
1
100
AcDbPolyline
 90
       17
 70
     0
 43
0.0
 10
13.62132034359999
 20
-7.597986834400046
 10
13.7279900208
 20
-7.700421004800034
 10
13.83928184539999
 20
-7.797292300900039
 10
13.95534814789999
 20
-7.888716564300011
 10
14.07573193689998
 20
-7.974346270000012
 10
14.20012790269999
 20
-8.053925012100023
 10
14.32823333070001
 20
-8.127295274599987
 10
14.45975311879999
 20
-8.194259596300014
 10
14.5943591198
 20
-8.254681407700047
 10
14.7317361698
 20
-8.308392506299981
 10
14.87155021629999
 20
-8.355290330300022
 10
15.0134756244
 20
-8.395239955500073
 10
15.15717197750001
 20
-8.428170266300014
 10
15.3023207871
 20
-8.453978526000014
 10
15.44853063330001
 20
-8.472624673799998
 10
15.5952417355
 20
-8.48402511520004
 10
15.74264068709999
 20
-8.488207715000044
  0
LINE
  5
11A0
330
22
100
AcDbEntity
  8
1
100
AcDbLine
 10
13.62132034359999
 20
-7.597986834400046
 30
0.0
 11
13.2023722891
 21
-7.175184554400061
 31
0.0
  0
LINE
  5
11A1
330
22
100
AcDbEntity
  8
1
100
AcDbLine
 10
13.2023722891
 20
-7.175184554400061
 30
0.0
 11
12.7928932188
 21
-6.761351957900046
 31
0.0
  0
LWPOLYLINE
  5
11A2
330
22
100
AcDbEntity
  8
1
100
AcDbPolyline
 90
       23
 70
     0
 43
0.0
 10
2.739491539900001
 20
4.181508788499968
 10
2.623181893000008
 20
4.358226223499968
 10
2.525572928499997
 20
4.53308986129997
 10
2.446562891899986
 20
4.706017701399957
 10
2.386457046200007
 20
4.874661604399989
 10
2.3457048116
 20
5.037146581999934
 10
2.323771961700032
 20
5.192938024199975
 10
2.320187734900031
 20
5.340757880899957
 10
2.335211156600024
 20
5.481484479999949
 10
2.368469505700034
 20
5.615334385999972
 10
2.421387259700026
 20
5.742177042899982
 10
2.494862077000021
 20
5.862131582799975
 10
2.590101693100024
 20
5.973855306399968
 10
2.708424285400013
 20
6.076631964499938
 10
2.850396187000029
 20
6.169201780899925
 10
3.016431018300039
 20
6.250632983899947
 10
3.208305096200035
 20
6.320716079799922
 10
3.428209696100026
 20
6.379423039099947
 10
3.675313563700029
 20
6.426060645999939
 10
3.950408560200031
 20
6.460733371199978
 10
4.250816614900031
 20
6.48386215849996
 10
4.574750497900026
 20
6.496439529399992
 10
4.901927784500031
 20
6.499999937099971
  0
LINE
  5
11BB
330
22
100
AcDbEntity
  8
1
100
AcDbLine
 10
5.0
 20
-5.970580526700018
 30
0.0
 11
5.0
 21
1.430675529199959
 31
0.0
  0
LINE
  5
11BC
330
22
100
AcDbEntity
  8
SK1
100
AcDbLine
 10
-5.899999999999977
 20
4.25
 30
0.0
 11
-6.299999999999982
 21
4.019059892299935
 31
0.0
  0
LINE
  5
11BD
330
22
100
AcDbEntity
  8
SK1
100
AcDbLine
 10
-5.899999999999977
 20
-4.25
 30
0.0
 11
-6.299999999999982
 21
-4.01905989239998
 31
0.0
  0
LINE
  5
11BE
330
22
100
AcDbEntity
  8
SK1
100
AcDbLine
 10
-8.600735931299993
 20
-3.300735931299982
 30
0.0
 11
-9.299999999999982
 21
-4.0
 31
0.0
  0
LINE
  5
11BF
330
22
100
AcDbEntity
  8
1
100
AcDbLine
 10
0.4000000000000341
 20
6.5
 30
0.0
 11
0.0000000000000284
 21
6.099999999999965
 31
0.0
  0
LINE
  5
11C0
330
22
100
AcDbEntity
  8
SK1
100
AcDbLine
 10
-8.600735931299993
 20
3.300735931199994
 30
0.0
 11
-9.299999999999982
 21
4.0
 31
0.0
  0
LINE
  5
11C1
330
22
100
AcDbEntity
  8
1
100
AcDbLine
 10
0.4000000000000057
 20
-6.5
 30
0.0
 11
0.0
 21
-6.100000000000022
 31
0.0
  0
LINE
  5
11C2
330
22
100
AcDbEntity
  8
1
100
AcDbLine
 10
0.4000000000000341
 20
6.5
 30
0.0
 11
0.4000000000000057
 21
-6.5
 31
0.0
  0
LINE
  5
11C3
330
22
100
AcDbEntity
  8
1
100
AcDbLine
 10
0.0000000000000284
 20
6.099999999999965
 30
0.0
 11
0.0
 21
-6.100000000000022
 31
0.0
  0
LINE
  5
11C4
330
22
100
AcDbEntity
  8
2
100
AcDbLine
 10
0.0000000000000284
 20
12.40802006029997
 30
0.0
 11
0.0000000000000284
 21
6.099999999999965
 31
0.0
  0
LINE
  5
11C6
330
22
100
AcDbEntity
  8
SK1
100
AcDbLine
 10
-2.0
 20
4.25
 30
0.0
 11
-2.0
 21
-4.25
 31
0.0
  0
LINE
  5
11C7
330
22
100
AcDbEntity
  8
SK1
100
AcDbLine
 10
-5.899999999999977
 20
4.25
 30
0.0
 11
-5.899999999999977
 21
-4.25
 31
0.0
  0
LINE
  5
11C8
330
22
100
AcDbEntity
  8
SK1
100
AcDbLine
 10
-6.299999999999982
 20
4.019059892299935
 30
0.0
 11
-6.299999999999982
 21
-4.01905989239998
 31
0.0
  0
LINE
  5
11C9
330
22
100
AcDbEntity
  8
SK1
100
AcDbLine
 10
-16.79999999999998
 20
4.0
 30
0.0
 11
-17.79999999999998
 21
3.0
 31
0.0
  0
LINE
  5
11CA
330
22
100
AcDbEntity
  8
SK1
100
AcDbLine
 10
-16.79999999999998
 20
-4.0
 30
0.0
 11
-17.79999999999998
 21
-3.0
 31
0.0
  0
LINE
  5
11CB
330
22
100
AcDbEntity
  8
SK1
100
AcDbLine
 10
-8.699999999999988
 20
3.399999999999977
 30
0.0
 11
-8.699999999999988
 21
-3.400000000000034
 31
0.0
  0
LINE
  5
11CC
330
22
100
AcDbEntity
  8
SK1
100
AcDbLine
 10
-9.299999999999982
 20
4.0
 30
0.0
 11
-9.299999999999982
 21
-4.0
 31
0.0
  0
LINE
  5
11CD
330
22
100
AcDbEntity
  8
SK1
100
AcDbLine
 10
-16.79999999999998
 20
4.0
 30
0.0
 11
-16.79999999999998
 21
-4.0
 31
0.0
  0
LINE
  5
11CE
330
22
100
AcDbEntity
  8
SK1
100
AcDbLine
 10
-17.39999999999997
 20
3.399999999999977
 30
0.0
 11
-17.39999999999997
 21
-3.400000000000034
 31
0.0
  0
LINE
  5
11CF
330
22
100
AcDbEntity
  8
SK1
100
AcDbLine
 10
-17.79999999999998
 20
2.99976135899999
 30
0.0
 11
-17.79999999999998
 21
-2.999761359100034
 31
0.0
  0
ARC
  5
11D6
330
22
100
AcDbEntity
  8
SK3
100
AcDbCircle
 10
-16.29999999999998
 20
-3.400000000000034
 30
0.0
 40
2.0
100
AcDbArc
 50
90.0
 51
138.5903778906999
  0
ARC
  5
11D9
330
22
100
AcDbEntity
  8
SK3
100
AcDbCircle
 10
-16.29999999999998
 20
3.399999999999977
 30
0.0
 40
2.0
100
AcDbArc
 50
221.4096221093
 51
270.0
  0
ARC
  5
11DE
330
22
100
AcDbEntity
  8
SK1
100
AcDbCircle
 10
-0.2999999999999829
 20
4.449999999999988
 30
0.0
 40
0.4
100
AcDbArc
 50
270.0
 51
318.5903778907
  0
ARC
  5
11DF
330
22
100
AcDbEntity
  8
SK1
100
AcDbCircle
 10
-6.899999999999977
 20
3.724999999999965
 30
0.0
 40
0.6
100
AcDbArc
 50
270.0
 51
0.0
  0
ARC
  5
11E0
330
22
100
AcDbEntity
  8
SK1
100
AcDbCircle
 10
-8.176471862599981
 20
3.724999999999965
 30
0.0
 40
0.6
100
AcDbArc
 50
225.0
 51
270.0
  0
ARC
  5
11E1
330
22
100
AcDbEntity
  8
SK1
100
AcDbCircle
 10
-0.2999999999999829
 20
-4.450000000000045
 30
0.0
 40
0.4
100
AcDbArc
 50
41.40962210930005
 51
90.0
  0
ARC
  5
11E2
330
22
100
AcDbEntity
  8
SK1
100
AcDbCircle
 10
-6.899999999999977
 20
-3.725000000000022
 30
0.0
 40
0.6
100
AcDbArc
 50
0.0
 51
90.0
  0
ARC
  5
11E3
330
22
100
AcDbEntity
  8
SK1
100
AcDbCircle
 10
-8.176471862599981
 20
-3.725000000000022
 30
0.0
 40
0.6
100
AcDbArc
 50
90.0
 51
134.9999999999999
  0
TEXT
  5
14D6
330
22
100
AcDbEntity
  8
6
100
AcDbText
 10
54.68748140894291
 20
-4.175480317597987
 30
0.0
 40
3.5
  1
Z=2
 50
90.0
 41
1.199999999999999
100
AcDbText
  0
INSERT
  5
14D7
330
22
100
AcDbEntity
  8
1
100
AcDbBlockReference
  2
nullp
 10
-271.9386450411702
 20
-389.8959796344513
 30
0.0
  0
INSERT
  5
14D8
330
22
100
AcDbEntity
  8
0
100
AcDbBlockReference
  2
nullp1
 10
-413.0645295494705
 20
-441.5849634019313
 30
0.0
  0
LINE
  5
1606
330
22
100
AcDbEntity
  8
4
100
AcDbLine
 10
0.0
 20
0.0
 30
0.0
 11
32.04935541466085
 21
0.0
 31
0.0
  0
LINE
  5
1613
330
22
100
AcDbEntity
  8
SK3
100
AcDbLine
 10
0.0000000000000284
 20
1.399999999999977
 30
0.0
 11
-16.29999999999998
 21
1.399999999999977
 31
0.0
  0
LINE
  5
1614
330
22
100
AcDbEntity
  8
SK3
100
AcDbLine
 10
0.0000000000000284
 20
-1.400000000000034
 30
0.0
 11
-16.29999999999998
 21
-1.400000000000034
 31
0.0
  0
LWPOLYLINE
  5
1618
330
22
100
AcDbEntity
  8
NOCUT
100
AcDbPolyline
 90
       10
 70
   129
 43
0.0
 10
13.62132034360002
 20
7.621320343600075
 10
12.79289321878659
 20
6.792893218813503
 42
-0.198912367379658
 10
12.08578643760003
 20
6.500000000000056
 10
0.4000000000000057
 20
6.500000000000056
 10
0.0000000000000284
 20
6.100000000000022
 10
0.0000000000000284
 20
0.0
 10
29.46111062540001
 20
0.0000000000000568
 10
29.46111062540001
 20
8.211328513000012
 10
28.96111716520002
 20
8.500000000000056
 10
15.74264068709999
 20
8.500000000000056
 42
0.1989123673796576
  0
LWPOLYLINE
  5
161B
330
22
100
AcDbEntity
  8
NOCUT
100
AcDbPolyline
 90
        2
 70
   128
 43
0.0
 10
0.0000000000000284
 20
5.081702984600042
 10
0.0000000000000284
 20
4.185424868900042
  0
DIMENSION
  5
1636
330
22
100
AcDbEntity
  8
0
100
AcDbDimension
  2
*D54
 10
40.61349989799902
 20
-3.750000000000002
 30
0.0
 11
40.61349989799902
 21
0.0000000000000568
 31
0.0
 70
   160
  1
%%c<>
 71
     5
 42
7.5
  3
ISO-25
100
AcDbAlignedDimension
 13
32.04935541466085
 23
3.75
 33
0.0
 14
32.04935541466085
 24
-3.75
 34
0.0
 50
90.0
100
AcDbRotatedDimension
  0
DIMENSION
  5
165F
330
22
100
AcDbEntity
  8
2
100
AcDbDimension
  2
*D55
 10
12.00000000000003
 20
15.33004224040718
 30
0.0
 11
21.00000000000003
 21
17.20504224040718
 31
0.0
 70
    32
 71
     5
 42
18.0
  3
ISO-25
100
AcDbAlignedDimension
 13
30.00000000000003
 23
9.0
 33
0.0
 14
12.00000000000003
 24
9.0
 34
0.0
100
AcDbRotatedDimension
  0
ENDSEC
  0
SECTION
  2
OBJECTS
  0
DICTIONARY
  5
C
330
0
100
AcDbDictionary
281
     1
  3
ACAD_COLOR
350
1B
  3
ACAD_GROUP
350
D
  3
ACAD_LAYOUT
350
19
  3
ACAD_MATERIAL
350
1A
  3
ACAD_MLINESTYLE
350
16
  3
ACAD_PLOTSETTINGS
350
18
  3
ACAD_PLOTSTYLENAME
350
E
  3
ACAD_TABLESTYLE
350
1C
  3
ACDBHEADERROUNDTRIPXREC
350
16AB
  3
AcDbVariableDictionary
350
1616
  0
DICTIONARY
  5
1576
330
2
100
AcDbDictionary
280
     1
281
     1
  3
ACAD_LAYERFILTERS
360
1578
  3
ACLYDICTIONARY
360
1577
  0
DICTIONARY
  5
1607
330
22
100
AcDbDictionary
280
     1
281
     1
  3
ACAD_SORTENTS
360
1608
  0
DICTIONARY
  5
1B
102
{ACAD_REACTORS
330
C
102
}
330
C
100
AcDbDictionary
281
     1
  0
DICTIONARY
  5
D
102
{ACAD_REACTORS
330
C
102
}
330
C
100
AcDbDictionary
281
     1
  0
DICTIONARY
  5
19
102
{ACAD_REACTORS
330
C
102
}
330
C
100
AcDbDictionary
281
     1
  3
Layout1
350
21
  3
Model
350
25
  0
DICTIONARY
  5
1A
102
{ACAD_REACTORS
330
C
102
}
330
C
100
AcDbDictionary
281
     1
  0
DICTIONARY
  5
16
102
{ACAD_REACTORS
330
C
102
}
330
C
100
AcDbDictionary
281
     1
  3
Standard
350
17
  0
DICTIONARY
  5
18
102
{ACAD_REACTORS
330
C
102
}
330
C
100
AcDbDictionary
281
     1
  0
ACDBDICTIONARYWDFLT
  5
E
102
{ACAD_REACTORS
330
C
102
}
330
C
100
AcDbDictionary
281
     1
  3
Normal
350
F
100
AcDbDictionaryWithDefault
340
F
  0
DICTIONARY
  5
1C
102
{ACAD_REACTORS
330
C
102
}
330
C
100
AcDbDictionary
281
     1
  3
Standard
350
1D
  0
DICTIONARY
  5
16AB
102
{ACAD_REACTORS
330
C
102
}
330
C
100
AcDbDictionary
281
     1
  0
DICTIONARY
  5
1616
102
{ACAD_REACTORS
330
C
102
}
330
C
100
AcDbDictionary
281
     1
  3
CTABLESTYLE
350
1617
  3
DIMASSOC
350
16A2
  3
PROJECTNAME
350
16A3
  0
DICTIONARY
  5
1578
102
{ACAD_REACTORS
330
1576
102
}
330
1576
100
AcDbDictionary
281
     1
  0
DICTIONARY
  5
1577
102
{ACAD_REACTORS
330
1576
102
}
330
1576
100
AcDbDictionary
281
     1
1001
ACAD
1000
<All
  0
SORTENTSTABLE
  5
1608
102
{ACAD_REACTORS
330
1607
102
}
330
1607
100
AcDbSortentsTable
330
22
331
FC0
  5
10FC
331
E57
  5
E6C
331
DF9
  5
E5C
331
11DF
  5
139C
331
1618
  5
139A
331
B4D
  5
B9E
331
F13
  5
FC3
331
10FC
  5
11A0
331
C69
  5
CF6
331
973
  5
9EA
331
FBE
  5
10DC
331
11A1
  5
11CE
331
E55
  5
E66
331
AED
  5
B54
331
11C3
  5
138B
331
DA2
  5
E59
331
110B
  5
11C1
331
101C
  5
110B
331
B4B
  5
B7C
331
F11
  5
FC1
331
E66
  5
F11
331
D1A
  5
E56
331
10FA
  5
118D
331
EC4
  5
F53
331
C67
  5
C88
331
9D7
  5
A2A
331
113E
  5
11C6
331
DF7
  5
E5A
331
115B
  5
11C8
331
F42
  5
102A
331
E53
  5
E64
331
C54
  5
C75
331
E8F
  5
F18
331
11C1
  5
11E2
331
1109
  5
11BF
331
C76
  5
E41
331
B6B
  5
C69
331
1614
  5
9D7
331
B8D
  5
C6B
331
F0F
  5
FBF
331
CF6
  5
E53
331
F53
  5
102B
331
F75
  5
10BA
331
102B
  5
112E
331
E64
  5
EFC
331
B9E
  5
C6C
331
B7C
  5
C6A
331
5E0
  5
5E0
331
F62
  5
102C
331
10CB
  5
1175
331
E73
  5
F15
331
B0B
  5
B56
331
11BF
  5
11DC
331
11D9
  5
1399
331
C74
  5
E0B
331
C27
  5
C72
331
10BA
  5
1165
331
AFA
  5
B55
331
9E9
  5
B1C
331
E62
  5
EDA
331
10DC
  5
117A
331
E84
  5
F17
331
B1C
  5
B57
331
1029
  5
110C
331
B58
  5
C66
331
C72
  5
DF9
331
11BD
  5
11D2
331
8EB
  5
9AC
331
E02
  5
E5D
331
11CE
  5
1396
331
E60
  5
EC4
331
9E7
  5
AFA
331
B56
  5
C54
331
97C
  5
9F1
331
BF2
  5
C6E
331
11BB
  5
11D0
331
ECD
  5
F62
331
C70
  5
DF7
331
E5E
  5
EBA
331
9E5
  5
A84
331
11CC
  5
1394
331
8E0
  5
93E
331
B54
  5
C38
331
91C
  5
9E4
331
93E
  5
9E8
331
5DA
  5
5DA
331
1101
  5
11BD
331
B41
  5
B62
331
E5C
  5
E8F
331
9E3
  5
A73
331
FE7
  5
1109
331
C5D
  5
C76
331
C7F
  5
E4A
331
11CA
  5
1392
331
EBA
  5
F2A
331
B52
  5
C0D
331
14D8
  5
1628
331
F18
  5
101B
331
CFF
  5
E54
331
1175
  5
11CA
331
E6D
  5
F14
331
C6E
  5
DA1
331
B27
  5
B58
331
E4B
  5
E62
331
B38
  5
B59
331
EEB
  5
F74
331
F05
  5
FBD
331
94B
  5
9E9
331
E38
  5
E5F
331
FC3
  5
10FF
331
F6B
  5
10A0
331
E5A
  5
E74
331
9E1
  5
A53
331
11C8
  5
138F
331
11E2
  5
139F
331
EDA
  5
F6B
331
B50
  5
BF3
331
EFC
  5
F75
331
A83
  5
B52
331
161B
  5
9E0
331
14D6
  5
1626
331
10A1
  5
115B
331
F16
  5
FE6
331
10FF
  5
11BB
331
C6C
  5
D1A
331
9F2
  5
B41
331
5E7
  5
5E7
331
FC1
  5
10FD
331
11C6
  5
138D
331
E58
  5
E6D
331
11E0
  5
139D
331
B4E
  5
BC0
331
F14
  5
FC4
331
E0B
  5
E5E
331
10FD
  5
11A1
331
C6A
  5
CFF
331
A12
  5
B4C
331
DF8
  5
E5B
331
E56
  5
E67
331
FBF
  5
10FA
331
11A2
  5
11CF
331
9FF
  5
B4A
331
11C4
  5
138C
331
A43
  5
B4E
331
110C
  5
11C2
331
11DE
  5
139B
331
112E
  5
11C4
331
B4C
  5
B8D
331
F12
  5
FC2
331
E67
  5
F12
331
D1B
  5
E57
331
C68
  5
C99
331
F21
  5
101C
331
FBD
  5
10CB
331
11A0
  5
11CD
331
DA1
  5
E58
331
11C2
  5
11E3
331
C99
  5
E4C
331
110A
  5
11C0
331
101B
  5
110A
331
B4A
  5
B6B
331
F10
  5
FC0
331
D19
  5
E55
331
E65
  5
F10
331
992
  5
9F2
331
C66
  5
C7F
331
8E7
  5
992
331
102C
  5
113E
331
C88
  5
E4B
331
E54
  5
E65
331
E74
  5
F16
331
C75
  5
E38
331
11C0
  5
11E1
331
8EE
  5
9CE
331
F0E
  5
FBE
331
1613
  5
9BD
331
E41
  5
E60
331
118D
  5
11CC
331
F74
  5
10A1
331
E63
  5
EEB
331
9EA
  5
B27
331
B59
  5
C67
331
102A
  5
1115
331
A6A
  5
B50
331
5DF
  5
5DF
331
117A
  5
11CB
331
11BE
  5
11D9
331
C73
  5
E02
331
114A
  5
11C7
331
BC0
  5
C6D
331
11CF
  5
1397
331
E61
  5
ECD
331
9E8
  5
B0B
331
B57
  5
C5D
331
BF3
  5
C6F
331
11BC
  5
11D1
331
11D6
  5
1398
331
C71
  5
DF8
331
92E
  5
9E6
331
89D
  5
93D
331
E5F
  5
EBB
331
9E6
  5
AED
331
A08
  5
B4B
331
11CD
  5
1395
331
A2A
  5
B4D
331
8E1
  5
973
331
1115
  5
11C3
331
91D
  5
9E5
331
1606
  5
F05
331
B55
  5
C49
331
1102
  5
11BE
331
90A
  5
9E2
331
A53
  5
B4F
331
F2A
  5
1029
331
9E4
  5
A83
331
1165
  5
11C9
331
9AC
  5
9FF
331
E5D
  5
EB9
331
11CB
  5
1393
331
9CE
  5
A12
331
EBB
  5
F42
331
91B
  5
9E3
331
93D
  5
9E7
331
C6F
  5
DA2
331
9BD
  5
A08
331
E4C
  5
E63
331
B53
  5
C27
331
1100
  5
11BC
331
908
  5
9E1
331
B62
  5
C68
331
A73
  5
B51
331
FC4
  5
1100
331
FE6
  5
1102
331
E5B
  5
E84
331
11C9
  5
1390
331
EB9
  5
F21
331
11E3
  5
13A0
331
B51
  5
BFC
331
14D7
  5
1627
331
F17
  5
FE7
331
A84
  5
B53
331
FD5
  5
1101
331
E6C
  5
F13
331
C6D
  5
D1B
331
E4A
  5
E61
331
9E2
  5
A6A
331
BFC
  5
C70
331
FC2
  5
10FE
331
11C7
  5
138E
331
E59
  5
E73
331
C38
  5
C73
331
9E0
  5
A43
331
11E1
  5
139E
331
B4F
  5
BF2
331
F15
  5
FD5
331
10A0
  5
114A
331
C0D
  5
C71
331
10FE
  5
11A2
331
C6B
  5
D19
331
C49
  5
C74
331
9F1
  5
B38
331
5E6
  5
5E6
  0
LAYOUT
  5
21
102
{ACAD_XDICTIONARY
360
16AC
102
}
102
{ACAD_REACTORS
330
19
102
}
330
19
100
AcDbPlotSettings
  1

  2
\\ingdom02\ITB3
  4

  6

 40
0.0
 41
0.0
 42
0.0
 43
0.0
 44
0.0
 45
0.0
 46
0.0
 47
0.0
 48
0.0
 49
0.0
140
0.0
141
0.0
142
1.0
143
1.0
 70
   688
 72
     0
 73
     0
 74
     5
  7

 75
    16
147
1.0
148
0.0
149
0.0
100
AcDbLayout
  1
Layout1
 70
     1
 71
     1
 10
0.0
 20
0.0
 11
12.0
 21
9.0
 12
0.0
 22
0.0
 32
0.0
 14
100.0
 24
100.0
 34
100.0
 15
-100.0
 25
-100.0
 35
-100.0
146
0.0
 13
0.0
 23
0.0
 33
0.0
 16
1.0
 26
0.0
 36
0.0
 17
0.0
 27
1.0
 37
0.0
 76
     0
330
1E
  0
LAYOUT
  5
25
102
{ACAD_XDICTIONARY
360
16AE
102
}
102
{ACAD_REACTORS
330
19
102
}
330
19
100
AcDbPlotSettings
  1

  2
\\ingdom02\ITB3
  4

  6

 40
0.0
 41
0.0
 42
0.0
 43
0.0
 44
0.0
 45
0.0
 46
0.0
 47
0.0
 48
0.0
 49
0.0
140
0.0
141
0.0
142
1.0
143
1.0
 70
  1712
 72
     0
 73
     0
 74
     0
  7

 75
     0
147
1.0
148
0.0
149
0.0
100
AcDbLayout
  1
Model
 70
     1
 71
     0
 10
0.0
 20
0.0
 11
12.0
 21
9.0
 12
0.0
 22
0.0
 32
0.0
 14
0.0
 24
0.0
 34
0.0
 15
0.0
 25
0.0
 35
0.0
146
0.0
 13
0.0
 23
0.0
 33
0.0
 16
1.0
 26
0.0
 36
0.0
 17
0.0
 27
1.0
 37
0.0
 76
     0
330
22
  0
MLINESTYLE
  5
17
102
{ACAD_REACTORS
330
16
102
}
330
16
100
AcDbMlineStyle
  2
STANDARD
 70
     0
  3

 62
   256
 51
90.0
 52
90.0
 71
     2
 49
0.5
 62
   256
  6
BYLAYER
 49
-0.5
 62
   256
  6
BYLAYER
  0
ACDBPLACEHOLDER
  5
F
102
{ACAD_REACTORS
330
E
102
}
330
E
  0
TABLESTYLE
  5
1D
102
{ACAD_REACTORS
330
1C
102
}
330
1C
100
AcDbTableStyle
  3
Standard
 70
     0
 71
     0
 40
0.06
 41
0.06
280
     0
281
     0
  7
STANDARD
140
0.18
170
     2
 62
     0
 63
     7
283
     0
274
    -2
284
     1
 64
     0
275
    -2
285
     1
 65
     0
276
    -2
286
     1
 66
     0
277
    -2
287
     1
 67
     0
278
    -2
288
     1
 68
     0
279
    -2
289
     1
 69
     0
  7
STANDARD
140
0.25
170
     5
 62
     0
 63
     7
283
     0
274
    -2
284
     1
 64
     0
275
    -2
285
     1
 65
     0
276
    -2
286
     1
 66
     0
277
    -2
287
     1
 67
     0
278
    -2
288
     1
 68
     0
279
    -2
289
     1
 69
     0
  7
STANDARD
140
0.18
170
     5
 62
     0
 63
     7
283
     0
274
    -2
284
     1
 64
     0
275
    -2
285
     1
 65
     0
276
    -2
286
     1
 66
     0
277
    -2
287
     1
 67
     0
278
    -2
288
     1
 68
     0
279
    -2
289
     1
 69
     0
  0
DICTIONARYVAR
  5
1617
102
{ACAD_REACTORS
330
1616
102
}
330
1616
100
DictionaryVariables
280
     0
  1
STANDARD
  0
DICTIONARYVAR
  5
16A2
102
{ACAD_REACTORS
330
1616
102
}
330
1616
100
DictionaryVariables
280
     0
  1
1
  0
DICTIONARYVAR
  5
16A3
102
{ACAD_REACTORS
330
1616
102
}
330
1616
100
DictionaryVariables
280
     0
  1

  0
DICTIONARY
  5
16AC
330
21
100
AcDbDictionary
280
     1
281
     1
  3
ACAD_XREC_ROUNDTRIP
360
16AD
  0
DICTIONARY
  5
16AE
330
25
100
AcDbDictionary
280
     1
281
     1
  3
ACAD_XREC_ROUNDTRIP
360
16AF
  0
XRECORD
  5
16AD
102
{ACAD_REACTORS
330
16AC
102
}
330
16AC
100
AcDbXrecord
280
     1
102
SHADEPLOT
 70
     0
102
SHADEPLOTRESLEVEL
 70
     2
102
SHADEPLOTCUSTOMDPI
 70
   300
  0
XRECORD
  5
16AF
102
{ACAD_REACTORS
330
16AE
102
}
330
16AE
100
AcDbXrecord
280
     1
102
SHADEPLOT
 70
     0
102
SHADEPLOTRESLEVEL
 70
     2
102
SHADEPLOTCUSTOMDPI
 70
   300
  0
ENDSEC
  0
EOF
