  0
SECTION
  2
HEADER
  9
$ACADVER
  1
AC1014
  9
$ACADMAINTVER
 70
     9
  9
$DWGCODEPAGE
  3
ANSI_1252
  9
$INSBASE
 10
0.0
 20
0.0
 30
0.0
  9
$EXTMIN
 10
-75.03938422116357
 20
-34.97006376424735
 30
-0.0000000349181948
  9
$EXTMAX
 10
72.05134156051065
 20
80.01239600624467
 30
0.0000000814935746
  9
$LIMMIN
 10
0.0
 20
0.0
  9
$LIMMAX
 10
210.0
 20
297.0
  9
$ORTHOMODE
 70
     0
  9
$REGENMODE
 70
     1
  9
$FILLMODE
 70
     1
  9
$QTEXTMODE
 70
     0
  9
$MIRRTEXT
 70
     1
  9
$DRAGMODE
 70
     2
  9
$LTSCALE
 40
1.0
  9
$OSMODE
 70
  2599
  9
$ATTMODE
 70
     1
  9
$TEXTSIZE
 40
2.5
  9
$TRACEWID
 40
1.0
  9
$TEXTSTYLE
  7
STANDARD
  9
$CLAYER
  8
0
  9
$CELTYPE
  6
BYLAYER
  9
$CECOLOR
 62
   256
  9
$CELTSCALE
 40
1.0
  9
$DELOBJ
 70
     1
  9
$DISPSILH
 70
     0
  9
$DIMSCALE
 40
1.0
  9
$DIMASZ
 40
2.5
  9
$DIMEXO
 40
0.0
  9
$DIMDLI
 40
10.0
  9
$DIMRND
 40
0.0
  9
$DIMDLE
 40
0.0
  9
$DIMEXE
 40
1.0
  9
$DIMTP
 40
0.1
  9
$DIMTM
 40
0.1
  9
$DIMTXT
 40
3.5
  9
$DIMCEN
 40
0.0
  9
$DIMTSZ
 40
0.0
  9
$DIMTOL
 70
     0
  9
$DIMLIM
 70
     0
  9
$DIMTIH
 70
     0
  9
$DIMTOH
 70
     0
  9
$DIMSE1
 70
     0
  9
$DIMSE2
 70
     0
  9
$DIMTAD
 70
     1
  9
$DIMZIN
 70
     8
  9
$DIMBLK
  1

  9
$DIMASO
 70
     1
  9
$DIMSHO
 70
     1
  9
$DIMPOST
  1

  9
$DIMAPOST
  1
"
  9
$DIMALT
 70
     0
  9
$DIMALTD
 70
     2
  9
$DIMALTF
 40
0.0393701
  9
$DIMLFAC
 40
1.0
  9
$DIMTOFL
 70
     1
  9
$DIMTVP
 40
0.0
  9
$DIMTIX
 70
     0
  9
$DIMSOXD
 70
     0
  9
$DIMSAH
 70
     0
  9
$DIMBLK1
  1

  9
$DIMBLK2
  1

  9
$DIMSTYLE
  2
AM_DIN
  9
$DIMCLRD
 70
   256
  9
$DIMCLRE
 70
   256
  9
$DIMCLRT
 70
     2
  9
$DIMTFAC
 40
0.71
  9
$DIMGAP
 40
1.5
  9
$DIMJUST
 70
     0
  9
$DIMSD1
 70
     0
  9
$DIMSD2
 70
     0
  9
$DIMTOLJ
 70
     1
  9
$DIMTZIN
 70
     8
  9
$DIMALTZ
 70
     8
  9
$DIMALTTZ
 70
     8
  9
$DIMFIT
 70
     5
  9
$DIMUPT
 70
     0
  9
$DIMUNIT
 70
     2
  9
$DIMDEC
 70
     2
  9
$DIMTDEC
 70
     2
  9
$DIMALTU
 70
     2
  9
$DIMALTTD
 70
     2
  9
$DIMTXSTY
  7
STANDARD
  9
$DIMAUNIT
 70
     0
  9
$LUNITS
 70
     2
  9
$LUPREC
 70
     2
  9
$SKETCHINC
 40
1.0
  9
$FILLETRAD
 40
0.8
  9
$AUNITS
 70
     0
  9
$AUPREC
 70
     0
  9
$MENU
  1
.
  9
$ELEVATION
 40
0.0
  9
$PELEVATION
 40
0.0
  9
$THICKNESS
 40
0.0
  9
$LIMCHECK
 70
     0
  9
$BLIPMODE
 70
     0
  9
$CHAMFERA
 40
2.5
  9
$CHAMFERB
 40
2.5
  9
$CHAMFERC
 40
0.0
  9
$CHAMFERD
 40
0.0
  9
$SKPOLY
 70
     0
  9
$TDCREATE
 40
2453447.430070810
  9
$TDUPDATE
 40
2453793.326236481
  9
$TDINDWG
 40
0.1778146644
  9
$TDUSRTIMER
 40
0.1777903241
  9
$USRTIMER
 70
     1
  9
$ANGBASE
 50
0.0
  9
$ANGDIR
 70
     0
  9
$PDMODE
 70
     0
  9
$PDSIZE
 40
0.0
  9
$PLINEWID
 40
0.0
  9
$COORDS
 70
     0
  9
$SPLFRAME
 70
     0
  9
$SPLINETYPE
 70
     6
  9
$SPLINESEGS
 70
     8
  9
$ATTDIA
 70
     1
  9
$ATTREQ
 70
     1
  9
$HANDLING
 70
 22529
  9
$HANDSEED
  5
8C0A
  9
$SURFTAB1
 70
     6
  9
$SURFTAB2
 70
     6
  9
$SURFTYPE
 70
     6
  9
$SURFU
 70
     6
  9
$SURFV
 70
     6
  9
$UCSNAME
  2

  9
$UCSORG
 10
0.0
 20
0.0
 30
0.0
  9
$UCSXDIR
 10
1.0
 20
0.0
 30
0.0
  9
$UCSYDIR
 10
0.0
 20
1.0
 30
0.0
  9
$PUCSNAME
  2

  9
$PUCSORG
 10
0.0
 20
0.0
 30
0.0
  9
$PUCSXDIR
 10
1.0
 20
0.0
 30
0.0
  9
$PUCSYDIR
 10
0.0
 20
1.0
 30
0.0
  9
$USERI1
 70
     0
  9
$USERI2
 70
     0
  9
$USERI3
 70
     0
  9
$USERI4
 70
     0
  9
$USERI5
 70
     0
  9
$USERR1
 40
0.0
  9
$USERR2
 40
0.0
  9
$USERR3
 40
0.0
  9
$USERR4
 40
0.0
  9
$USERR5
 40
0.0
  9
$WORLDVIEW
 70
     1
  9
$SHADEDGE
 70
     3
  9
$SHADEDIF
 70
    70
  9
$TILEMODE
 70
     1
  9
$MAXACTVP
 70
    64
  9
$PINSBASE
 10
0.0
 20
0.0
 30
0.0
  9
$PLIMCHECK
 70
     0
  9
$PEXTMIN
 10
1.000000000000000E+20
 20
1.000000000000000E+20
 30
1.000000000000000E+20
  9
$PEXTMAX
 10
-1.000000000000000E+20
 20
-1.000000000000000E+20
 30
-1.000000000000000E+20
  9
$PLIMMIN
 10
0.0
 20
0.0
  9
$PLIMMAX
 10
420.0
 20
297.0
  9
$UNITMODE
 70
     0
  9
$VISRETAIN
 70
     1
  9
$PLINEGEN
 70
     0
  9
$PSLTSCALE
 70
     1
  9
$TREEDEPTH
 70
  3020
  9
$PICKSTYLE
 70
     0
  9
$CMLSTYLE
  2
STANDARD
  9
$CMLJUST
 70
     0
  9
$CMLSCALE
 40
1.0
  9
$PROXYGRAPHICS
 70
     1
  9
$MEASUREMENT
 70
     1
  0
ENDSEC
  0
SECTION
  2
CLASSES
  0
CLASS
  1
ACDBDICTIONARYWDFLT
  2
AcDbDictionaryWithDefault
  3
AutoCAD 2000
 90
        0
280
     0
281
     0
  0
CLASS
  1
ACDBPLACEHOLDER
  2
AcDbPlaceHolder
  3
AutoCAD 2000
 90
        0
280
     0
281
     0
  0
CLASS
  1
LAYOUT
  2
AcDbLayout
  3
AutoCAD 2000
 90
        0
280
     0
281
     0
  0
CLASS
  1
AMGSETTINGSOBJ
  2
AmgSettingsObj
  3
"AcadM|Product Description: AutoCAD Mechanical 2000|Company: Autodesk"
 90
        0
280
     0
281
     0
  0
CLASS
  1
ACME_DOCUMENT
  2
AcMeDbDoc
  3
AcMeServices
 90
        0
280
     0
281
     0
  0
CLASS
  1
ACMESCOPE
  2
AcMeScope
  3
AcMeServices
 90
        0
280
     0
281
     0
  0
CLASS
  1
ACMECOMMANDHISTORY
  2
AcMeCommandHistory
  3
AcMeServices
 90
        0
280
     0
281
     0
  0
CLASS
  1
ACIMSYSVARMAN
  2
AcImSysVarManager
  3
AcMeServices
 90
        0
280
     0
281
     0
  0
CLASS
  1
ACIMREALSYSVAR
  2
AcImRealSysVar
  3
AcMeServices
 90
        0
280
     0
281
     0
  0
CLASS
  1
ACIMINTSYSVAR
  2
AcImIntSysVar
  3
AcMeServices
 90
        0
280
     0
281
     0
  0
CLASS
  1
ACMEDRAWINGMAN
  2
AcMeDrawingMan
  3
AcMeServices
 90
        0
280
     0
281
     0
  0
CLASS
  1
ACMEVIEW
  2
AcMeView
  3
AcMeServices
 90
        0
280
     0
281
     0
  0
CLASS
  1
ACDBENTITYCACHE
  2
AcMeEntityCache
  3
AcMeServices
 90
        0
280
     0
281
     0
  0
CLASS
  1
GSMANAGER
  2
AcMeGSManager
  3
AcMeServices
 90
        0
280
     0
281
     0
  0
CLASS
  1
AMDTINTERNALREACTOR
  2
AmdtInternalReactor
  3
AcMeServices
 90
        0
280
     0
281
     0
  0
CLASS
  1
ACMESTATEMGR
  2
AcMeStateMgr
  3
AcMeServices
 90
        0
280
     0
281
     0
  0
CLASS
  1
ACGREFMASTER
  2
AcGrefMaster
  3
AcAttribServices
 90
        0
280
     0
281
     0
  0
CLASS
  1
ACME_DATABASE
  2
AcMeDbDatabase
  3
AcMeServices
 90
        0
280
     0
281
     0
  0
CLASS
  1
ACRFINSADJUSTERMGR
  2
AcRfInsAdjusterMgr
  3
AcMeServices
 90
        0
280
     0
281
     0
  0
CLASS
  1
ACGREFACADMASTER
  2
AcGrefacadMaster
  3
AcGrefServices
 90
        0
280
     0
281
     0
  0
CLASS
  1
AMIMASTER
  2
AmiMaster
  3
AmiServices
 90
        0
280
     0
281
     0
  0
CLASS
  1
ACMDATADICTIONARY
  2
AcmDataDictionary
  3
"AcmSymBB|Product Description: AutoCAD Mechanical 2000|Company: Autodesk"
 90
        0
280
     0
281
     0
  0
CLASS
  1
ACMDATAENTRYBLOCK
  2
AcmDataEntryBlock
  3
"AcmSymBB|Product Description: AutoCAD Mechanical 2000|Company: Autodesk"
 90
        0
280
     0
281
     0
  0
CLASS
  1
ACIMSTRSYSVAR
  2
AcImStrSysVar
  3
AcMeServices
 90
        0
280
     0
281
     0
  0
CLASS
  1
ACMSTANDARDANSI
  2
AcmStandardANSI
  3
"Amdt_StdImp|Product Description: AutoCAD Mechanical 2000|Company: Autodesk"
 90
        0
280
     0
281
     0
  0
CLASS
  1
AMGOBJPROPCFG
  2
AmgObjPropCfg
  3
"AmgLay|Product Description: AutoCAD Mechanical 2000|Company: Autodesk"
 90
        1
280
     0
281
     0
  0
CLASS
  1
ACMSURFSTANDARDANSI
  2
AcmSurfTextStdANSI
  3
"Amdt_StdImp|Product Description: AutoCAD Mechanical 2000|Company: Autodesk"
 90
        0
280
     0
281
     0
  0
CLASS
  1
ACMFCFSTANDARDANSI
  2
AcmFCFStdANSI
  3
"Amdt_StdImp|Product Description: AutoCAD Mechanical 2000|Company: Autodesk"
 90
        0
280
     0
281
     0
  0
CLASS
  1
ACMWELDSTANDARDANSI
  2
AcmWeldingStdANSI
  3
"Amdt_StdImp|Product Description: AutoCAD Mechanical 2000|Company: Autodesk"
 90
        0
280
     0
281
     0
  0
CLASS
  1
ACMIDSTANDARDANSI
  2
AcmIdStdANSI
  3
"Amdt_StdImp|Product Description: AutoCAD Mechanical 2000|Company: Autodesk"
 90
        0
280
     0
281
     0
  0
CLASS
  1
ACMDATUMSTANDARDANSI
  2
AcmDatumStdANSI
  3
"Amdt_StdImp|Product Description: AutoCAD Mechanical 2000|Company: Autodesk"
 90
        0
280
     0
281
     0
  0
CLASS
  1
ACMBOMSTANDARDANSI
  2
AcmBOMStdANSI
  3
"Amdt_StdImp|Product Description: AutoCAD Mechanical 2000|Company: Autodesk"
 90
        0
280
     0
281
     0
  0
CLASS
  1
ACMDETAILSTANDARDANSI
  2
AmdtDetailSymStdANSI
  3
"Amdt_StdImp|Product Description: AutoCAD Mechanical 2000|Company: Autodesk"
 90
        0
280
     0
281
     0
  0
CLASS
  1
ACMSECTIONSTANDARDANSI
  2
AmdtSectionSymStdANSI
  3
"Amdt_StdImp|Product Description: AutoCAD Mechanical 2000|Company: Autodesk"
 90
        0
280
     0
281
     0
  0
CLASS
  1
ACMCENTERLINESTANDARDANSI
  2
AmdtCenterLineStdANSI
  3
"Amdt_StdImp|Product Description: AutoCAD Mechanical 2000|Company: Autodesk"
 90
        0
280
     0
281
     0
  0
CLASS
  1
ACMNOTESTANDARDANSI
  2
AmdtNoteStdANSI
  3
"Amdt_StdImp|Product Description: AutoCAD Mechanical 2000|Company: Autodesk"
 90
        0
280
     0
281
     0
  0
CLASS
  1
ACAMGLAYSTD
  2
AcAmgLayStd
  3
"AcAmgLayStd|Product Description: AutoCAD Mechanical 2000|Company: Autodesk"
 90
        0
280
     0
281
     0
  0
CLASS
  1
ACAMGDIMSTD
  2
AcAmgDimStd
  3
"AcAmgDimStd|Product Description: AutoCAD Mechanical 2000|Company: Autodesk"
 90
        0
280
     0
281
     0
  0
CLASS
  1
ACAMGHOLECHARTSTDANSI
  2
AcAmgHoleChartStdANSI
  3
ACMSYMBB_MODULE_NAME
 90
        0
280
     0
281
     0
  0
CLASS
  1
ACAMGTITLESTD
  2
AcAmgTitleStd
  3
"TITLEAPP"
 90
        0
280
     0
281
     0
  0
CLASS
  1
ACAMGFILTERDAT
  2
AcAmgFilterDat
  3
"AcadM|Product Description: AutoCAD Mechanical 2000|Company: Autodesk"
 90
        0
280
     0
281
     0
  0
CLASS
  1
LAYER_INDEX
  2
AcDbLayerIndex
  3
AutoCAD 2000
 90
        0
280
     0
281
     0
  0
CLASS
  1
IDBUFFER
  2
AcDbIdBuffer
  3
AutoCAD 2000
 90
        0
280
     0
281
     0
  0
CLASS
  1
DICTIONARYVAR
  2
AcDbDictionaryVar
  3
AutoCAD 2000
 90
        0
280
     0
281
     0
  0
CLASS
  1
ACMSTANDARDDIN
  2
AcmStandardDIN
  3
"Amdt_StdImp|Product Description: AutoCAD Mechanical 2000|Company: Autodesk"
 90
        0
280
     0
281
     0
  0
CLASS
  1
AMDTEDGESTANDARDDIN
  2
AmdtEdgeStdDIN
  3
"Amdt_StdImp|Product Description: AutoCAD Mechanical 2000|Company: Autodesk"
 90
        0
280
     0
281
     0
  0
CLASS
  1
ACMSURFSTANDARDDIN
  2
AcmSurfTextStdDIN
  3
"Amdt_StdImp|Product Description: AutoCAD Mechanical 2000|Company: Autodesk"
 90
        0
280
     0
281
     0
  0
CLASS
  1
ACMFCFSTANDARDDIN
  2
AcmFCFStdDIN
  3
"Amdt_StdImp|Product Description: AutoCAD Mechanical 2000|Company: Autodesk"
 90
        0
280
     0
281
     0
  0
CLASS
  1
ACMWELDSTANDARDDIN
  2
AcmWeldingStdDIN
  3
"Amdt_StdImp|Product Description: AutoCAD Mechanical 2000|Company: Autodesk"
 90
        0
280
     0
281
     0
  0
CLASS
  1
ACMIDSTANDARDDIN
  2
AcmIdStdDIN
  3
"Amdt_StdImp|Product Description: AutoCAD Mechanical 2000|Company: Autodesk"
 90
        0
280
     0
281
     0
  0
CLASS
  1
ACMDATUMSTANDARDDIN
  2
AcmDatumStdDIN
  3
"Amdt_StdImp|Product Description: AutoCAD Mechanical 2000|Company: Autodesk"
 90
        0
280
     0
281
     0
  0
CLASS
  1
ACMBOMSTANDARDDIN
  2
AcmBOMStdDIN
  3
"Amdt_StdImp|Product Description: AutoCAD Mechanical 2000|Company: Autodesk"
 90
        0
280
     0
281
     0
  0
CLASS
  1
ACMDETAILSTANDARDDIN
  2
AmdtDetailSymStdDIN
  3
"Amdt_StdImp|Product Description: AutoCAD Mechanical 2000|Company: Autodesk"
 90
        0
280
     0
281
     0
  0
CLASS
  1
ACMSECTIONSTANDARDDIN
  2
AmdtSectionSymStdDIN
  3
"Amdt_StdImp|Product Description: AutoCAD Mechanical 2000|Company: Autodesk"
 90
        0
280
     0
281
     0
  0
CLASS
  1
ACMCENTERLINESTANDARDDIN
  2
AmdtCenterLineStdDIN
  3
"Amdt_StdImp|Product Description: AutoCAD Mechanical 2000|Company: Autodesk"
 90
        0
280
     0
281
     0
  0
CLASS
  1
ACMNOTESTANDARDDIN
  2
AmdtNoteStdDIN
  3
"Amdt_StdImp|Product Description: AutoCAD Mechanical 2000|Company: Autodesk"
 90
        0
280
     0
281
     0
  0
CLASS
  1
ACAMGHOLECHARTSTDDIN
  2
AcAmgHoleChartStdDIN
  3
ACMSYMBB_MODULE_NAME
 90
        0
280
     0
281
     0
  0
CLASS
  1
AMDTFORMULAUPDATEDISPATCHER
  2
AmdtFormulaUpdateDispatcher
  3
AcMeServices
 90
        0
280
     0
281
     0
  0
CLASS
  1
ACMSURFSYM
  2
AcmSurfaceTexture
  3
"AcmSymBB|Product Description: AutoCAD Mechanical 2000|Company: Autodesk"
 90
     1023
280
     0
281
     1
  0
CLASS
  1
LONG_TRANSACTION
  2
AcDbLongTransaction
  3
AutoCAD 2000
 90
        0
280
     0
281
     0
  0
CLASS
  1
LWPOLYLINE
  2
AcDbPolyline
  3
AutoCAD 2000
 90
        0
280
     0
281
     1
  0
CLASS
  1
HATCH
  2
AcDbHatch
  3
AutoCAD 2000
 90
        0
280
     0
281
     1
  0
CLASS
  1
XRECORD
  2
AcDbXrecord
  3
AutoCAD 2000
 90
        0
280
     0
281
     0
  0
ENDSEC
  0
SECTION
  2
TABLES
  0
TABLE
  2
VPORT
  5
6A1E
330
0
100
AcDbSymbolTable
 70
    10
  0
VPORT
  5
8BE5
330
6A1E
100
AcDbSymbolTableRecord
100
AcDbViewportTableRecord
  2
*ACTIVE
 70
     0
 10
0.0
 20
0.0
 11
1.0
 21
1.0
 12
67.48030788941822
 22
131.0149681178763
 13
0.0
 23
0.0
 14
2.5
 24
2.5
 15
10.0
 25
10.0
 16
0.0
 26
0.0
 36
1.0
 17
0.0
 27
0.0
 37
0.0
 40
335.6792264878702
 41
1.716417910447761
 42
50.0
 43
0.0
 44
0.0
 50
0.0
 51
0.0
 71
    16
 72
 10000
 73
     1
 74
     3
 75
     0
 76
     0
 77
     0
 78
     0
  0
ENDTAB
  0
TABLE
  2
LTYPE
  5
6A1B
330
0
100
AcDbSymbolTable
 70
    16
  0
LTYPE
  5
6A29
330
6A1B
100
AcDbSymbolTableRecord
100
AcDbLinetypeTableRecord
  2
BYBLOCK
 70
     0
  3

 72
    65
 73
     0
 40
0.0
  0
LTYPE
  5
6A2A
330
6A1B
100
AcDbSymbolTableRecord
100
AcDbLinetypeTableRecord
  2
BYLAYER
 70
     0
  3

 72
    65
 73
     0
 40
0.0
  0
LTYPE
  5
6A2B
330
6A1B
100
AcDbSymbolTableRecord
100
AcDbLinetypeTableRecord
  2
CONTINUOUS
 70
     0
  3
Solid line
 72
    65
 73
     0
 40
0.0
  0
LTYPE
  5
6A39
330
6A1B
100
AcDbSymbolTableRecord
100
AcDbLinetypeTableRecord
  2
AMCONSTR
 70
     0
  3
_______________________
 72
    65
 73
     2
 40
9999.0
 49
9999.0
 74
     0
 49
0.0
 74
     0
  0
LTYPE
  5
6A43
330
6A1B
100
AcDbSymbolTableRecord
100
AcDbLinetypeTableRecord
  2
CENTER
 70
     0
  3
__ . __
 72
    65
 73
     4
 40
7.0
 49
4.0
 74
     0
 49
-1.0
 74
     0
 49
1.0
 74
     0
 49
-1.0
 74
     0
  0
LTYPE
  5
6A45
330
6A1B
100
AcDbSymbolTableRecord
100
AcDbLinetypeTableRecord
  2
PHANTOM2
 70
     0
  3
Phantom (.5x) ___ _ _ ___ _ _ ___ _ _ ___ _ _
 72
    65
 73
     6
 40
1.25
 49
0.625
 74
     0
 49
-0.125
 74
     0
 49
0.125
 74
     0
 49
-0.125
 74
     0
 49
0.125
 74
     0
 49
-0.125
 74
     0
  0
LTYPE
  5
6A46
330
6A1B
100
AcDbSymbolTableRecord
100
AcDbLinetypeTableRecord
  2
ACANSTGB
 70
     0
  3
__ . . __ . .
 72
    65
 73
     6
 40
0.35433070866
 49
0.15748031496
 74
     0
 49
-0.03937007874
 74
     0
 49
0.03937007874
 74
     0
 49
-0.03937007874
 74
     0
 49
0.03937007874
 74
     0
 49
-0.03937007874
 74
     0
  0
LTYPE
  5
6A47
330
6A1B
100
AcDbSymbolTableRecord
100
AcDbLinetypeTableRecord
  2
ACANSTGL
 70
     0
  3
_ _ _ _ _
 72
    65
 73
     2
 40
0.11811023622
 49
0.07874015748
 74
     0
 49
-0.03937007874
 74
     0
  0
LTYPE
  5
6A48
330
6A1B
100
AcDbSymbolTableRecord
100
AcDbLinetypeTableRecord
  2
DASHED
 70
     0
  3
__ __ __ __ __ __ __ __ __ __ __ __ __ __ __ __
 72
    65
 73
     2
 40
19.05
 49
12.7
 74
     0
 49
-6.349999999999998
 74
     0
  0
LTYPE
  5
6D97
330
6A1B
100
AcDbSymbolTableRecord
100
AcDbLinetypeTableRecord
  2
ACDINWELD
 70
     0
  3
_ _ _ _ _
 72
    65
 73
     2
 40
2.0
 49
2.0
 74
     0
 49
-1.0
 74
     0
  0
LTYPE
  5
6D98
330
6A1B
100
AcDbSymbolTableRecord
100
AcDbLinetypeTableRecord
  2
ACDINTGB
 70
     0
  3
__ . . __ . .
 72
    65
 73
     6
 40
9.0
 49
4.0
 74
     0
 49
-1.0
 74
     0
 49
1.0
 74
     0
 49
-1.0
 74
     0
 49
1.0
 74
     0
 49
-1.0
 74
     0
  0
LTYPE
  5
6D99
330
6A1B
100
AcDbSymbolTableRecord
100
AcDbLinetypeTableRecord
  2
ACDINTGL
 70
     0
  3
_ _ _ _ _
 72
    65
 73
     2
 40
3.0
 49
2.0
 74
     0
 49
-1.0
 74
     0
  0
LTYPE
  5
7FA3
330
6A1B
100
AcDbSymbolTableRecord
100
AcDbLinetypeTableRecord
  2
AMZIGZAG
 70
     0
  3
/\/-/\/-/\/-/\/-/\/-/\/
 72
    65
 73
     2
 40
11.00009999999999
 49
0.0001
 74
     4
 75
   135
340
6A5B
 46
0.04
 50
0.0
 44
0.0
 45
0.0
 49
-11.0
 74
     0
  0
LTYPE
  5
7FA4
330
6A1B
100
AcDbSymbolTableRecord
100
AcDbLinetypeTableRecord
  2
AM_DIN_F_W050
 70
     0
  3
__ __ __ __ __ __ __ __ __ __ __ __ __ __ __
 72
    65
 73
     2
 40
6.25
 49
4.75
 74
     0
 49
-1.5
 74
     0
  0
LTYPE
  5
7FA5
330
6A1B
100
AcDbSymbolTableRecord
100
AcDbLinetypeTableRecord
  2
AM_DIN_G_W050
 70
     0
  3
____ . ____ . ____ . ____ . ____ . ____ . ____
 72
    65
 73
     4
 40
13.75
 49
9.75
 74
     0
 49
-1.5
 74
     0
 49
1.0
 74
     0
 49
-1.5
 74
     0
  0
LTYPE
  5
7FA6
330
6A1B
100
AcDbSymbolTableRecord
100
AcDbLinetypeTableRecord
  2
AM_DIN_K_W050
 70
     0
  3
_____ . . _____ . . _____ . . ____ .. ____
 72
    65
 73
     6
 40
16.25
 49
9.75
 74
     0
 49
-1.5
 74
     0
 49
1.0
 74
     0
 49
-1.5
 74
     0
 49
1.0
 74
     0
 49
-1.5
 74
     0
  0
LTYPE
  5
7FA7
330
6A1B
100
AcDbSymbolTableRecord
100
AcDbLinetypeTableRecord
  2
AM_DIN_G_W050X2
 70
     0
  3
__ . __ . __ . __ . __ . __
 72
    65
 73
     4
 40
6.875
 49
4.75
 74
     0
 49
-0.875
 74
     0
 49
0.375
 74
     0
 49
-0.875
 74
     0
  0
LTYPE
  5
7FA8
330
6A1B
100
AcDbSymbolTableRecord
100
AcDbLinetypeTableRecord
  2
AM_DIN_F_W050X2
 70
     0
  3
 _ _ _ _ _ _ _ _ _ _ _ _
 72
    65
 73
     2
 40
3.125
 49
2.25
 74
     0
 49
-0.875
 74
     0
  0
ENDTAB
  0
TABLE
  2
LAYER
  5
6A18
330
0
100
AcDbSymbolTable
 70
    12
  0
LAYER
  5
6A26
330
6A18
100
AcDbSymbolTableRecord
100
AcDbLayerTableRecord
  2
0
 70
     0
 62
     7
  6
CONTINUOUS
  0
LAYER
  5
6A4B
330
6A18
100
AcDbSymbolTableRecord
100
AcDbLayerTableRecord
  2
DEFPOINTS
 70
     0
 62
     7
  6
CONTINUOUS
  0
LAYER
  5
6A4C
330
6A18
100
AcDbSymbolTableRecord
100
AcDbLayerTableRecord
  2
1
 70
     0
 62
     4
  6
CONTINUOUS
  0
LAYER
  5
6A4D
330
6A18
100
AcDbSymbolTableRecord
100
AcDbLayerTableRecord
  2
2
 70
     0
 62
     7
  6
CONTINUOUS
  0
LAYER
  5
6A4F
330
6A18
100
AcDbSymbolTableRecord
100
AcDbLayerTableRecord
  2
4
 70
     0
 62
     2
  6
CENTER
  0
LAYER
  5
6A50
330
6A18
100
AcDbSymbolTableRecord
100
AcDbLayerTableRecord
  2
6
 70
     0
 62
     5
  6
CONTINUOUS
  0
LAYER
  5
6A53
330
6A18
100
AcDbSymbolTableRecord
100
AcDbLayerTableRecord
  2
SK1
 70
     0
 62
     4
  6
CONTINUOUS
  0
LAYER
  5
6A54
330
6A18
100
AcDbSymbolTableRecord
100
AcDbLayerTableRecord
  2
SK2
 70
     0
 62
     7
  6
CONTINUOUS
  0
LAYER
  5
6A55
330
6A18
100
AcDbSymbolTableRecord
100
AcDbLayerTableRecord
  2
SK3
 70
     0
 62
     1
  6
DASHED
  0
LAYER
  5
6A56
330
6A18
100
AcDbSymbolTableRecord
100
AcDbLayerTableRecord
  2
SK4
 70
     0
 62
     2
  6
CENTER
  0
LAYER
  5
6A57
330
6A18
100
AcDbSymbolTableRecord
100
AcDbLayerTableRecord
  2
CUT
 70
     0
 62
     1
  6
CONTINUOUS
  0
LAYER
  5
6A58
330
6A18
100
AcDbSymbolTableRecord
100
AcDbLayerTableRecord
  2
NOCUT
 70
     0
 62
     7
  6
CONTINUOUS
  0
ENDTAB
  0
TABLE
  2
STYLE
  5
6A19
330
0
100
AcDbSymbolTable
 70
     6
  0
STYLE
  5
6A27
330
6A19
100
AcDbSymbolTableRecord
100
AcDbTextStyleTableRecord
  2
STANDARD
 70
     0
 40
0.0
 41
1.0
 50
0.0
 71
     0
 42
2.5
  3
ISOCP.SHX
  4

  0
STYLE
  5
6A5B
330
6A19
100
AcDbSymbolTableRecord
100
AcDbTextStyleTableRecord
  2

 70
     1
 40
0.0
 41
1.0
 50
0.0
 71
     0
 42
2.5
  3
ltypeshp.shx
  4

  0
STYLE
  5
6A5E
330
6A19
100
AcDbSymbolTableRecord
100
AcDbTextStyleTableRecord
  2
ACANSTS
 70
     0
 40
1.0
 41
1.0
 50
0.0
 71
     0
 42
0.2
  3
romans.shx
  4

  0
STYLE
  5
6A5F
330
6A19
100
AcDbSymbolTableRecord
100
AcDbTextStyleTableRecord
  2
ACANSGDT
 70
     0
 40
0.0
 41
1.0
 50
0.0
 71
     0
 42
0.2
  3
amgdtans.shx
  4

  0
STYLE
  5
6D9A
330
6A19
100
AcDbSymbolTableRecord
100
AcDbTextStyleTableRecord
  2
ACDINTS
 70
     0
 40
1.0
 41
1.0
 50
0.0
 71
     0
 42
2.5
  3
isocp.shx
  4

  0
STYLE
  5
6D9B
330
6A19
100
AcDbSymbolTableRecord
100
AcDbTextStyleTableRecord
  2
ACDINGDT
 70
     0
 40
0.0
 41
1.0
 50
0.0
 71
     0
 42
2.5
  3
amgdt.shx
  4

  0
ENDTAB
  0
TABLE
  2
VIEW
  5
6A1C
330
0
100
AcDbSymbolTable
 70
     6
  0
VIEW
  5
6A60
330
6A1C
100
AcDbSymbolTableRecord
100
AcDbViewTableRecord
  2
AM_VIEW1
 70
     0
 40
148.5
 10
131.508173076923
 20
222.75
 41
263.016346153846
 11
0.0
 21
0.0
 31
1.0
 12
0.0
 22
0.0
 32
0.0
 42
50.0
 43
0.0
 44
0.0
 50
0.0
 71
    16
  0
VIEW
  5
6A61
330
6A1C
100
AcDbSymbolTableRecord
100
AcDbViewTableRecord
  2
AM_VIEW2
 70
     0
 40
148.5
 10
78.4918269230769
 20
222.75
 41
263.016346153846
 11
0.0
 21
0.0
 31
1.0
 12
0.0
 22
0.0
 32
0.0
 42
50.0
 43
0.0
 44
0.0
 50
0.0
 71
    16
  0
VIEW
  5
6A62
330
6A1C
100
AcDbSymbolTableRecord
100
AcDbViewTableRecord
  2
AM_VIEW3
 70
     0
 40
148.5
 10
131.508173076923
 20
74.25
 41
263.016346153846
 11
0.0
 21
0.0
 31
1.0
 12
0.0
 22
0.0
 32
0.0
 42
50.0
 43
0.0
 44
0.0
 50
0.0
 71
    16
  0
VIEW
  5
6A63
330
6A1C
100
AcDbSymbolTableRecord
100
AcDbViewTableRecord
  2
AM_VIEW4
 70
     0
 40
148.5
 10
78.4918269230769
 20
74.25
 41
263.016346153846
 11
0.0
 21
0.0
 31
1.0
 12
0.0
 22
0.0
 32
0.0
 42
50.0
 43
0.0
 44
0.0
 50
0.0
 71
    16
  0
VIEW
  5
6A64
330
6A1C
100
AcDbSymbolTableRecord
100
AcDbViewTableRecord
  2
AM_VIEW5
 70
     0
 40
148.5
 10
105.0
 20
148.5
 41
263.016346153846
 11
0.0
 21
0.0
 31
1.0
 12
0.0
 22
0.0
 32
0.0
 42
50.0
 43
0.0
 44
0.0
 50
0.0
 71
    16
  0
VIEW
  5
6A65
330
6A1C
100
AcDbSymbolTableRecord
100
AcDbViewTableRecord
  2
AM_VIEW6
 70
     0
 40
296.9970299999999
 10
105.0
 20
148.5
 41
526.0274319807693
 11
0.0
 21
0.0
 31
1.0
 12
0.0
 22
0.0
 32
0.0
 42
50.0
 43
0.0
 44
0.0
 50
0.0
 71
    16
  0
ENDTAB
  0
TABLE
  2
UCS
  5
6A1D
330
0
100
AcDbSymbolTable
 70
     0
  0
ENDTAB
  0
TABLE
  2
APPID
  5
6A1F
330
0
100
AcDbSymbolTable
 70
    42
  0
APPID
  5
6A28
330
6A1F
100
AcDbSymbolTableRecord
100
AcDbRegAppTableRecord
  2
ACAD
 70
     0
  0
APPID
  5
6A66
330
6A1F
100
AcDbSymbolTableRecord
100
AcDbRegAppTableRecord
  2
MCAD_NO_VIS
 70
     0
  0
APPID
  5
6A67
330
6A1F
100
AcDbSymbolTableRecord
100
AcDbRegAppTableRecord
  2
ACAD_TEMP_GRAPHIC
 70
     0
  0
APPID
  5
6A68
330
6A1F
100
AcDbSymbolTableRecord
100
AcDbRegAppTableRecord
  2
ACATTRIBSERVICES
 70
     0
  0
APPID
  5
6A69
330
6A1F
100
AcDbSymbolTableRecord
100
AcDbRegAppTableRecord
  2
GENIUS_GENDIMSH_14
 70
     0
  0
APPID
  5
6A6A
330
6A1F
100
AcDbSymbolTableRecord
100
AcDbRegAppTableRecord
  2
GENIUS_GENBLLY_14
 70
     0
  0
APPID
  5
6A6B
330
6A1F
100
AcDbSymbolTableRecord
100
AcDbRegAppTableRecord
  2
GENIUS_GENTRA_14
 70
     0
  0
APPID
  5
6A6C
330
6A1F
100
AcDbSymbolTableRecord
100
AcDbRegAppTableRecord
  2
GENIUS_GENODEF_13
 70
     0
  0
APPID
  5
6A6D
330
6A1F
100
AcDbSymbolTableRecord
100
AcDbRegAppTableRecord
  2
GENIUS_GENOLIS_13
 70
     0
  0
APPID
  5
6A6E
330
6A1F
100
AcDbSymbolTableRecord
100
AcDbRegAppTableRecord
  2
GENIUS_GENOENT_13
 70
     0
  0
APPID
  5
6A6F
330
6A1F
100
AcDbSymbolTableRecord
100
AcDbRegAppTableRecord
  2
GENIUS_GENOBJ-N-TIT_13
 70
     0
  0
APPID
  5
6A70
330
6A1F
100
AcDbSymbolTableRecord
100
AcDbRegAppTableRecord
  2
GENIUS_GENTITLE_13
 70
     0
  0
APPID
  5
6A71
330
6A1F
100
AcDbSymbolTableRecord
100
AcDbRegAppTableRecord
  2
GENIUS_GENOREF_13
 70
     0
  0
APPID
  5
6A72
330
6A1F
100
AcDbSymbolTableRecord
100
AcDbRegAppTableRecord
  2
GENIUS_GENSCREG_15
 70
     0
  0
APPID
  5
6A73
330
6A1F
100
AcDbSymbolTableRecord
100
AcDbRegAppTableRecord
  2
GENIUS_GENOBJ-N-SDF_13
 70
     0
  0
APPID
  5
6A74
330
6A1F
100
AcDbSymbolTableRecord
100
AcDbRegAppTableRecord
  2
ACADIGES
 70
     0
  0
APPID
  5
6A75
330
6A1F
100
AcDbSymbolTableRecord
100
AcDbRegAppTableRecord
  2
GENIUS_GENOBJ-N-HTC_13
 70
     0
  0
APPID
  5
6A76
330
6A1F
100
AcDbSymbolTableRecord
100
AcDbRegAppTableRecord
  2
GENIUS_GENHATCH_13
 70
     0
  0
APPID
  5
6DA2
330
6A1F
100
AcDbSymbolTableRecord
100
AcDbRegAppTableRecord
  2
GENIUS_GENOBJ-N-CRS_13
 70
     0
  0
APPID
  5
6DA3
330
6A1F
100
AcDbSymbolTableRecord
100
AcDbRegAppTableRecord
  2
GENIUS_GENOBJ-N-FIL_13
 70
     0
  0
APPID
  5
6DD2
330
6A1F
100
AcDbSymbolTableRecord
100
AcDbRegAppTableRecord
  2
GENIUS_GENFIL_13
 70
     0
  0
APPID
  5
6DD3
330
6A1F
100
AcDbSymbolTableRecord
100
AcDbRegAppTableRecord
  2
GENIUS_GENOBJ-N-CHA_13
 70
     0
  0
APPID
  5
874F
330
6A1F
100
AcDbSymbolTableRecord
100
AcDbRegAppTableRecord
  2
GENIUS12
 70
     0
  0
APPID
  5
8750
330
6A1F
100
AcDbSymbolTableRecord
100
AcDbRegAppTableRecord
  2
GENIUS_GENCFG_13
 70
     0
  0
APPID
  5
8751
330
6A1F
100
AcDbSymbolTableRecord
100
AcDbRegAppTableRecord
  2
GENIUS_GENCFG0_13
 70
     0
  0
APPID
  5
8752
330
6A1F
100
AcDbSymbolTableRecord
100
AcDbRegAppTableRecord
  2
GENIUS_GENCFG1_13
 70
     0
  0
APPID
  5
8753
330
6A1F
100
AcDbSymbolTableRecord
100
AcDbRegAppTableRecord
  2
GENIUS_GENCFG2_13
 70
     0
  0
APPID
  5
8754
330
6A1F
100
AcDbSymbolTableRecord
100
AcDbRegAppTableRecord
  2
GENIUS_GENCFG3_13
 70
     0
  0
APPID
  5
8755
330
6A1F
100
AcDbSymbolTableRecord
100
AcDbRegAppTableRecord
  2
GENIUS_GENCFG4_13
 70
     0
  0
APPID
  5
8756
330
6A1F
100
AcDbSymbolTableRecord
100
AcDbRegAppTableRecord
  2
GENIUS_GEVCFG0_13
 70
     0
  0
APPID
  5
8757
330
6A1F
100
AcDbSymbolTableRecord
100
AcDbRegAppTableRecord
  2
GENIUS_GEFCFG0_13
 70
     0
  0
APPID
  5
8758
330
6A1F
100
AcDbSymbolTableRecord
100
AcDbRegAppTableRecord
  2
GEV_VCCNULL_SWITCH_OFF
 70
     0
  0
APPID
  5
8759
330
6A1F
100
AcDbSymbolTableRecord
100
AcDbRegAppTableRecord
  2
GENIUS_GENDTOL_13
 70
     0
  0
APPID
  5
875A
330
6A1F
100
AcDbSymbolTableRecord
100
AcDbRegAppTableRecord
  2
GENIUS_GENOBJ-F-SUF_13
 70
     0
  0
APPID
  5
875B
330
6A1F
100
AcDbSymbolTableRecord
100
AcDbRegAppTableRecord
  2
GENIUS_GENDIM_13
 70
     0
  0
APPID
  5
875C
330
6A1F
100
AcDbSymbolTableRecord
100
AcDbRegAppTableRecord
  2
GENIUS_GE3DTOL_13
 70
     0
  0
APPID
  5
875D
330
6A1F
100
AcDbSymbolTableRecord
100
AcDbRegAppTableRecord
  2
AD_DRAW
 70
     0
  0
APPID
  5
875E
330
6A1F
100
AcDbSymbolTableRecord
100
AcDbRegAppTableRecord
  2
ASURF_PCURVE_APPNAME
 70
     0
  0
APPID
  5
875F
330
6A1F
100
AcDbSymbolTableRecord
100
AcDbRegAppTableRecord
  2
AMG_3D2D_5_0
 70
     0
  0
APPID
  5
8760
330
6A1F
100
AcDbSymbolTableRecord
100
AcDbRegAppTableRecord
  2
DESIGNERASSEMBLIES
 70
     0
  0
APPID
  5
8761
330
6A1F
100
AcDbSymbolTableRecord
100
AcDbRegAppTableRecord
  2
ACADM_DIM_EDIT
 70
     0
  0
APPID
  5
8762
330
6A1F
100
AcDbSymbolTableRecord
100
AcDbRegAppTableRecord
  2
AMDT_DM_ADJ
 70
     0
  0
ENDTAB
  0
TABLE
  2
DIMSTYLE
  5
6A20
330
0
100
AcDbSymbolTable
 70
    14
  0
DIMSTYLE
105
6A77
102
{ACAD_REACTORS
330
8933
330
8960
330
89BB
330
89E3
330
8A37
330
8A5F
102
}
330
6A20
100
AcDbSymbolTableRecord
100
AcDbDimStyleTableRecord
  2
AM_DIN
 70
     0
  3

  4
"
  5

  6

  7

 40
1.0
 41
2.5
 42
0.0
 43
10.0
 44
1.0
 45
0.0
 46
0.0
 47
0.1
 48
0.1
140
3.5
141
0.0
142
0.0
143
0.0393701
144
1.0
145
0.0
146
0.71
147
1.5
 71
     0
 72
     0
 73
     0
 74
     0
 75
     0
 76
     0
 77
     1
 78
     8
170
     0
171
     2
172
     1
173
     0
174
     0
175
     0
176
   256
177
   256
178
     2
270
     2
271
     2
272
     2
273
     2
274
     2
340
6A27
275
     0
280
     0
281
     0
282
     0
283
     1
284
     8
285
     8
286
     8
287
     5
288
     0
  0
DIMSTYLE
105
6A7E
330
6A20
100
AcDbSymbolTableRecord
100
AcDbDimStyleTableRecord
  2
STANDARD
 70
     0
  3

  4

  5

  6

  7

 40
1.0
 41
0.18
 42
0.0625
 43
0.38
 44
0.18
 45
0.0
 46
0.0
 47
0.0
 48
0.0
140
0.18
141
0.09
142
0.0
143
25.4
144
1.0
145
0.0
146
1.0
147
0.09
 71
     0
 72
     0
 73
     1
 74
     1
 75
     0
 76
     0
 77
     0
 78
     0
170
     0
171
     2
172
     0
173
     0
174
     0
175
     0
176
     0
177
     0
178
     0
270
     2
271
     2
272
     2
273
     2
274
     2
340
6A27
275
     0
280
     0
281
     0
282
     0
283
     1
284
     8
285
     8
286
     8
287
     5
288
     0
  0
DIMSTYLE
105
6A7F
330
6A20
100
AcDbSymbolTableRecord
100
AcDbDimStyleTableRecord
  2
AM_ANSI
 70
     0
  3

  4
mm
  5

  6

  7

 40
1.0
 41
0.1
 42
0.05
 43
0.5
 44
0.1
 45
0.0
 46
0.0
 47
0.1
 48
0.1
140
0.12
141
0.0
142
0.0
143
25.4
144
1.0
145
0.0
146
0.71
147
0.06
 71
     0
 72
     0
 73
     1
 74
     1
 75
     0
 76
     0
 77
     0
 78
     7
170
     0
171
     2
172
     0
173
     0
174
     0
175
     0
176
   256
177
   256
178
     2
270
     2
271
     2
272
     2
273
     2
274
     2
340
6A27
275
     0
280
     0
281
     0
282
     0
283
     1
284
     8
285
     8
286
     8
287
     5
288
     0
  0
DIMSTYLE
105
6A80
330
6A20
100
AcDbSymbolTableRecord
100
AcDbDimStyleTableRecord
  2
AM_ANSI$3
 70
     0
  3

  4
mm
  5

  6

  7

 40
1.0
 41
0.1
 42
0.05
 43
0.5
 44
0.1
 45
0.0
 46
0.0
 47
0.1
 48
0.1
140
0.12
141
0.0
142
0.0
143
25.4
144
1.0
145
0.0
146
0.71
147
0.06
 71
     0
 72
     0
 73
     1
 74
     1
 75
     0
 76
     0
 77
     0
 78
     7
170
     0
171
     2
172
     0
173
     0
174
     0
175
     0
176
   256
177
   256
178
     2
270
     2
271
     2
272
     2
273
     2
274
     2
340
6A27
275
     0
280
     0
281
     0
282
     0
283
     1
284
     8
285
     8
286
     8
287
     5
288
     0
  0
DIMSTYLE
105
6A81
330
6A20
100
AcDbSymbolTableRecord
100
AcDbDimStyleTableRecord
  2
AM_ANSI$4
 70
     0
  3

  4
mm
  5

  6

  7

 40
1.0
 41
0.1
 42
0.05
 43
0.5
 44
0.1
 45
0.0
 46
0.0
 47
0.1
 48
0.1
140
0.12
141
0.0
142
0.0
143
25.4
144
1.0
145
0.0
146
0.71
147
0.06
 71
     0
 72
     0
 73
     1
 74
     1
 75
     0
 76
     0
 77
     0
 78
     7
170
     0
171
     2
172
     0
173
     0
174
     0
175
     0
176
   256
177
   256
178
     2
270
     2
271
     2
272
     2
273
     2
274
     2
340
6A27
275
     0
280
     0
281
     0
282
     0
283
     1
284
     8
285
     8
286
     8
287
     5
288
     0
  0
DIMSTYLE
105
6A82
330
6A20
100
AcDbSymbolTableRecord
100
AcDbDimStyleTableRecord
  2
AM_ANSI$7
 70
     0
  3

  4
mm
  5

  6

  7

 40
1.0
 41
0.1
 42
0.05
 43
0.5
 44
0.1
 45
0.0
 46
0.0
 47
0.1
 48
0.1
140
0.24
141
0.0
142
0.0
143
25.4
144
1.0
145
0.0
146
0.71
147
0.06
 71
     0
 72
     0
 73
     1
 74
     1
 75
     0
 76
     0
 77
     0
 78
     7
170
     0
171
     2
172
     0
173
     0
174
     0
175
     0
176
   256
177
   256
178
     2
270
     2
271
     2
272
     2
273
     2
274
     2
340
6A27
275
     0
280
     0
281
     0
282
     0
283
     1
284
     8
285
     8
286
     8
287
     5
288
     0
  0
DIMSTYLE
105
6A83
330
6A20
100
AcDbSymbolTableRecord
100
AcDbDimStyleTableRecord
  2
AM_ANSI$SF
 70
     0
  3

  4
mm
  5

  6

  7

 40
1.0
 41
0.1
 42
0.05
 43
0.5
 44
0.1
 45
0.0
 46
0.0
 47
0.1
 48
0.1
140
0.12
141
0.0
142
0.0
143
25.4
144
1.0
145
0.0
146
0.71
147
0.06
 71
     0
 72
     0
 73
     1
 74
     1
 75
     1
 76
     1
 77
     0
 78
     7
170
     0
171
     2
172
     0
173
     0
174
     0
175
     0
176
   256
177
   256
178
     2
270
     2
271
     2
272
     2
273
     2
274
     2
340
6A27
275
     0
280
     0
281
     0
282
     0
283
     1
284
     8
285
     8
286
     8
287
     5
288
     0
  0
DIMSTYLE
105
6A84
330
6A20
100
AcDbSymbolTableRecord
100
AcDbDimStyleTableRecord
  2
AM_ANSI$SH
 70
     0
  3

  4
mm
  5

  6

  7

 40
1.0
 41
0.1
 42
0.05
 43
0.5
 44
0.1
 45
0.0
 46
0.0
 47
0.1
 48
0.1
140
0.12
141
0.0
142
0.0
143
25.4
144
1.0
145
0.0
146
0.71
147
0.06
 71
     0
 72
     0
 73
     1
 74
     1
 75
     1
 76
     1
 77
     0
 78
     7
170
     0
171
     2
172
     0
173
     1
174
     0
175
     0
176
   256
177
   256
178
     2
270
     2
271
     2
272
     2
273
     2
274
     2
340
6A27
275
     0
280
     0
281
     0
282
     0
283
     1
284
     8
285
     8
286
     8
287
     5
288
     0
  0
DIMSTYLE
105
6D9C
330
6A20
100
AcDbSymbolTableRecord
100
AcDbDimStyleTableRecord
  2
AM_DIN$3
 70
     0
  3

  4
"
  5

  6

  7

 40
1.0
 41
3.5
 42
0.0
 43
10.0
 44
1.0
 45
0.0
 46
0.0
 47
0.1
 48
0.1
140
3.5
141
0.0
142
0.0
143
0.0393701
144
1.0
145
0.0
146
0.71
147
1.5
 71
     0
 72
     0
 73
     0
 74
     1
 75
     0
 76
     0
 77
     1
 78
     8
170
     0
171
     2
172
     0
173
     0
174
     0
175
     0
176
   256
177
   256
178
     2
270
     2
271
     2
272
     2
273
     2
274
     2
340
6A27
275
     0
280
     0
281
     0
282
     0
283
     0
284
     8
285
     0
286
     0
287
     0
288
     1
  0
DIMSTYLE
105
6D9D
330
6A20
100
AcDbSymbolTableRecord
100
AcDbDimStyleTableRecord
  2
AM_DIN$4
 70
     0
  3

  4
"
  5

  6

  7

 40
1.0
 41
3.5
 42
0.0
 43
10.0
 44
1.0
 45
0.0
 46
0.0
 47
0.1
 48
0.1
140
3.5
141
0.0
142
0.0
143
0.0393701
144
1.0
145
0.0
146
0.71
147
1.5
 71
     0
 72
     0
 73
     0
 74
     1
 75
     0
 76
     0
 77
     1
 78
     8
170
     0
171
     2
172
     0
173
     0
174
     0
175
     0
176
   256
177
   256
178
     2
270
     2
271
     2
272
     2
273
     2
274
     2
340
6A27
275
     0
280
     0
281
     0
282
     0
283
     0
284
     8
285
     0
286
     0
287
     0
288
     1
  0
DIMSTYLE
105
6D9E
330
6A20
100
AcDbSymbolTableRecord
100
AcDbDimStyleTableRecord
  2
AM_DIN$6
 70
     0
  3

  4
"
  5

  6

  7

 40
1.0
 41
3.5
 42
0.0
 43
0.0
 44
1.0
 45
0.0
 46
0.0
 47
0.1
 48
0.1
140
3.5
141
0.0
142
0.0
143
0.0393701
144
1.0
145
0.0
146
0.71
147
1.5
 71
     0
 72
     0
 73
     0
 74
     0
 75
     0
 76
     0
 77
     0
 78
     8
170
     0
171
     2
172
     1
173
     0
174
     0
175
     0
176
   256
177
   256
178
     2
270
     2
271
     2
272
     2
273
     2
274
     2
340
6A27
275
     0
280
     0
281
     0
282
     0
283
     0
284
     8
285
     0
286
     0
287
     3
288
     0
  0
DIMSTYLE
105
6D9F
330
6A20
100
AcDbSymbolTableRecord
100
AcDbDimStyleTableRecord
  2
AM_DIN$7
 70
     0
  3

  4
"
  5

  6

  7

 40
1.0
 41
3.5
 42
0.0
 43
10.0
 44
1.0
 45
0.0
 46
0.0
 47
0.1
 48
0.1
140
3.5
141
0.0
142
0.0
143
0.0393701
144
1.0
145
0.0
146
0.71
147
1.5
 71
     0
 72
     0
 73
     0
 74
     0
 75
     0
 76
     0
 77
     1
 78
     8
170
     0
171
     2
172
     1
173
     0
174
     0
175
     0
176
   256
177
   256
178
     2
270
     2
271
     2
272
     2
273
     2
274
     2
340
6A27
275
     0
280
     0
281
     0
282
     0
283
     0
284
     8
285
     0
286
     0
287
     3
288
     0
  0
DIMSTYLE
105
6DA0
330
6A20
100
AcDbSymbolTableRecord
100
AcDbDimStyleTableRecord
  2
AM_DIN$SF
 70
     0
  3

  4
"
  5

  6

  7

 40
1.0
 41
2.5
 42
1.0
 43
10.0
 44
1.0
 45
0.0
 46
0.0
 47
0.1
 48
0.1
140
3.5
141
0.0
142
0.0
143
0.0393701
144
1.0
145
0.0
146
0.71
147
1.5
 71
     0
 72
     0
 73
     0
 74
     0
 75
     1
 76
     1
 77
     1
 78
     8
170
     0
171
     2
172
     1
173
     0
174
     0
175
     0
176
   256
177
   256
178
     2
270
     2
271
     2
272
     3
273
     2
274
     4
340
6A27
275
     0
280
     0
281
     0
282
     0
283
     0
284
     8
285
     0
286
     0
287
     3
288
     0
  0
DIMSTYLE
105
6DA1
330
6A20
100
AcDbSymbolTableRecord
100
AcDbDimStyleTableRecord
  2
AM_DIN$SH
 70
     0
  3

  4
"
  5

  6
GENAXEH
  7

 40
1.0
 41
2.5
 42
1.0
 43
10.0
 44
1.0
 45
0.0
 46
0.0
 47
0.1
 48
0.1
140
3.5
141
0.0
142
0.0
143
0.0393701
144
2.0
145
0.0
146
0.71
147
1.5
 71
     0
 72
     0
 73
     0
 74
     0
 75
     1
 76
     1
 77
     1
 78
     8
170
     0
171
     2
172
     1
173
     1
174
     0
175
     0
176
   256
177
   256
178
     2
270
     2
271
     2
272
     3
273
     2
274
     4
340
6A27
275
     0
280
     0
281
     0
282
     0
283
     0
284
     8
285
     0
286
     0
287
     3
288
     0
  0
ENDTAB
  0
TABLE
  2
BLOCK_RECORD
  5
6A17
330
0
100
AcDbSymbolTable
 70
     7
  0
BLOCK_RECORD
  5
6A34
102
{ACAD_XDICTIONARY
360
6B62
102
}
330
6A17
100
AcDbSymbolTableRecord
100
AcDbBlockTableRecord
  2
*MODEL_SPACE
  0
BLOCK_RECORD
  5
6A30
102
{ACAD_XDICTIONARY
360
8C07
102
}
330
6A17
100
AcDbSymbolTableRecord
100
AcDbBlockTableRecord
  2
*PAPER_SPACE
  0
BLOCK_RECORD
  5
6D93
330
6A17
100
AcDbSymbolTableRecord
100
AcDbBlockTableRecord
  2
GENAXEH
  0
BLOCK_RECORD
  5
8934
330
6A17
100
AcDbSymbolTableRecord
100
AcDbBlockTableRecord
  2
*D1
  0
BLOCK_RECORD
  5
8961
330
6A17
100
AcDbSymbolTableRecord
100
AcDbBlockTableRecord
  2
*D2
  0
BLOCK_RECORD
  5
89BC
330
6A17
100
AcDbSymbolTableRecord
100
AcDbBlockTableRecord
  2
*D3
  0
BLOCK_RECORD
  5
89E4
330
6A17
100
AcDbSymbolTableRecord
100
AcDbBlockTableRecord
  2
*D4
  0
BLOCK_RECORD
  5
8A38
330
6A17
100
AcDbSymbolTableRecord
100
AcDbBlockTableRecord
  2
*D5
  0
BLOCK_RECORD
  5
8A60
330
6A17
100
AcDbSymbolTableRecord
100
AcDbBlockTableRecord
  2
*D6
  0
ENDTAB
  0
ENDSEC
  0
SECTION
  2
BLOCKS
  0
BLOCK
  5
6A35
330
6A34
100
AcDbEntity
  8
0
100
AcDbBlockBegin
  2
*MODEL_SPACE
 70
     0
 10
0.0
 20
0.0
 30
0.0
  3
*MODEL_SPACE
  1

  0
ENDBLK
  5
6A36
330
6A34
100
AcDbEntity
  8
0
100
AcDbBlockEnd
  0
BLOCK
  5
6A31
330
6A30
100
AcDbEntity
 67
     1
  8
0
100
AcDbBlockBegin
  2
*PAPER_SPACE
 70
     0
 10
0.0
 20
0.0
 30
0.0
  3
*PAPER_SPACE
  1

  0
ENDBLK
  5
6A32
330
6A30
100
AcDbEntity
 67
     1
  8
0
100
AcDbBlockEnd
  0
BLOCK
  5
6D95
330
6D93
100
AcDbEntity
  8
0
100
AcDbBlockBegin
  2
GENAXEH
 70
     0
 10
0.0
 20
0.0
 30
0.0
  3
GENAXEH
  1

  0
LINE
  5
6D94
330
6D93
100
AcDbEntity
  8
0
100
AcDbLine
 10
-1.0
 20
0.0
 30
0.0
 11
1.0
 21
0.0
 31
0.0
  0
ENDBLK
  5
6D96
330
6D93
100
AcDbEntity
  8
0
100
AcDbBlockEnd
  0
BLOCK
  5
893E
330
8934
100
AcDbEntity
  8
0
100
AcDbBlockBegin
  2
*D1
 70
     1
 10
0.0
 20
0.0
 30
0.0
  3
*D1
  1

  0
LINE
  5
8BAA
330
8934
100
AcDbEntity
  8
2
100
AcDbLine
 10
25.00000000000013
 20
8.999999999999783
 30
0.0
 11
66.38636080063964
 21
8.999999999999772
 31
0.0
  0
LINE
  5
8BAB
330
8934
100
AcDbEntity
  8
2
100
AcDbLine
 10
25.0000000000002
 20
-9.000000000000216
 30
0.0
 11
66.38636080063964
 21
-9.000000000000227
 31
0.0
  0
LINE
  5
8BAC
330
8934
100
AcDbEntity
  8
2
100
AcDbLine
 10
65.38636080063963
 20
6.499999999999772
 30
0.0
 11
65.38636080063963
 21
-6.500000000000227
 31
0.0
  0
SOLID
  5
8BAD
330
8934
100
AcDbEntity
  8
2
100
AcDbTrace
 10
64.96969413397296
 20
6.499999999999772
 30
0.0
 11
65.8030274673063
 21
6.499999999999772
 31
0.0
 12
65.38636080063963
 22
8.999999999999772
 32
0.0
 13
65.38636080063963
 23
8.999999999999772
 33
0.0
  0
SOLID
  5
8BAE
330
8934
100
AcDbEntity
  8
2
100
AcDbTrace
 10
64.96969413397296
 20
-6.500000000000227
 30
0.0
 11
65.8030274673063
 21
-6.500000000000227
 31
0.0
 12
65.38636080063963
 22
-9.000000000000227
 32
0.0
 13
65.38636080063963
 23
-9.000000000000227
 33
0.0
  0
MTEXT
  5
8BAF
330
8934
100
AcDbEntity
  8
2
 62
     2
100
AcDbMText
 10
62.13636080063963
 20
-0.0000000000002168
 30
0.0
 40
3.5
 41
0.0
 71
     5
 72
     1
  1
\A1;%%c18
 11
0.0000000000000001
 21
1.0
 31
0.0
1001
ACAD
1000
MTEXTBEGIN
1070
    73
1070
     1
1070
    44
1040
1.0
1070
    74
1070
     0
1000
MTEXTEND
  0
POINT
  5
8BB0
330
8934
100
AcDbEntity
  8
DEFPOINTS
 62
     0
100
AcDbPoint
 10
25.00000000000013
 20
8.999999999999783
 30
0.0
  0
POINT
  5
8BB1
330
8934
100
AcDbEntity
  8
DEFPOINTS
 62
     0
100
AcDbPoint
 10
25.0000000000002
 20
-9.000000000000216
 30
0.0
  0
POINT
  5
8BB2
330
8934
100
AcDbEntity
  8
DEFPOINTS
 62
     0
100
AcDbPoint
 10
65.38636080063963
 20
-9.000000000000227
 30
0.0
  0
ENDBLK
  5
893F
330
8934
100
AcDbEntity
  8
0
100
AcDbBlockEnd
  0
BLOCK
  5
896B
330
8961
100
AcDbEntity
  8
0
100
AcDbBlockBegin
  2
*D2
 70
     1
 10
0.0
 20
0.0
 30
0.0
  3
*D2
  1

  0
LINE
  5
8BC9
330
8961
100
AcDbEntity
  8
2
100
AcDbLine
 10
25.00000000000013
 20
3.749999999999783
 30
0.0
 11
55.16839314705079
 21
3.749999999999774
 31
0.0
  0
LINE
  5
8BCA
330
8961
100
AcDbEntity
  8
2
100
AcDbLine
 10
25.00000000000021
 20
-3.750000000000216
 30
0.0
 11
55.16839314705079
 21
-3.750000000000225
 31
0.0
  0
LINE
  5
8BCB
330
8961
100
AcDbEntity
  8
2
100
AcDbLine
 10
54.16839314705079
 20
6.249999999999774
 30
0.0
 11
54.16839314705079
 21
8.749999999999774
 31
0.0
  0
LINE
  5
8BCC
330
8961
100
AcDbEntity
  8
2
100
AcDbLine
 10
54.16839314705079
 20
-6.250000000000225
 30
0.0
 11
54.16839314705079
 21
-8.750000000000225
 31
0.0
  0
MTEXT
  5
8BCD
330
8961
100
AcDbEntity
  8
2
 62
     2
100
AcDbMText
 10
51.97860436376481
 20
14.70230070537286
 30
0.0
 40
3.5
 41
0.0
 71
     5
 72
     1
  1
\A1;%%c7.5
 11
0.0000000000000001
 21
1.0
 31
0.0
1001
ACAD
1000
MTEXTBEGIN
1070
    73
1070
     1
1070
    44
1040
1.0
1070
    74
1070
     0
1000
MTEXTEND
  0
LINE
  5
8BCE
330
8961
100
AcDbEntity
  8
2
100
AcDbLine
 10
54.16839314705079
 20
3.749999999999775
 30
0.0
 11
54.16839314705079
 21
-3.750000000000224
 31
0.0
  0
SOLID
  5
8BCF
330
8961
100
AcDbEntity
  8
2
100
AcDbTrace
 10
53.75172648038413
 20
6.249999999999775
 30
0.0
 11
54.58505981371746
 21
6.249999999999774
 31
0.0
 12
54.16839314705079
 22
3.749999999999775
 32
0.0
 13
54.16839314705079
 23
3.749999999999775
 33
0.0
  0
SOLID
  5
8BD0
330
8961
100
AcDbEntity
  8
2
100
AcDbTrace
 10
53.75172648038413
 20
-6.250000000000224
 30
0.0
 11
54.58505981371746
 21
-6.250000000000225
 31
0.0
 12
54.16839314705079
 22
-3.750000000000224
 32
0.0
 13
54.16839314705079
 23
-3.750000000000224
 33
0.0
  0
POINT
  5
8BD1
330
8961
100
AcDbEntity
  8
DEFPOINTS
 62
     0
100
AcDbPoint
 10
25.00000000000013
 20
3.749999999999783
 30
0.0
  0
POINT
  5
8BD2
330
8961
100
AcDbEntity
  8
DEFPOINTS
 62
     0
100
AcDbPoint
 10
25.00000000000021
 20
-3.750000000000216
 30
0.0
  0
POINT
  5
8BD3
330
8961
100
AcDbEntity
  8
DEFPOINTS
 62
     0
100
AcDbPoint
 10
54.16839314705079
 20
-3.750000000000224
 30
0.0
  0
ENDBLK
  5
896C
330
8961
100
AcDbEntity
  8
0
100
AcDbBlockEnd
  0
BLOCK
  5
89C6
330
89BC
100
AcDbEntity
  8
0
100
AcDbBlockBegin
  2
*D3
 70
     1
 10
0.0
 20
0.0
 30
0.0
  3
*D3
  1

  0
LINE
  5
8B41
330
89BC
100
AcDbEntity
  8
2
100
AcDbLine
 10
25.00000000000013
 20
8.999999999999783
 30
0.0
 11
25.00000000000014
 21
75.99999999999994
 31
0.0
  0
LINE
  5
8B42
330
89BC
100
AcDbEntity
  8
2
100
AcDbLine
 10
0.000000000000135
 20
9.999999999999879
 30
0.0
 11
0.000000000000139
 21
75.99999999999994
 31
0.0
  0
LINE
  5
8B43
330
89BC
100
AcDbEntity
  8
2
100
AcDbLine
 10
22.50000000000013
 20
74.99999999999994
 30
0.0
 11
2.500000000000138
 21
74.99999999999994
 31
0.0
  0
SOLID
  5
8B44
330
89BC
100
AcDbEntity
  8
2
100
AcDbTrace
 10
22.50000000000013
 20
75.41666666666661
 30
0.0
 11
22.50000000000013
 21
74.58333333333327
 31
0.0
 12
25.00000000000014
 22
74.99999999999994
 32
0.0
 13
25.00000000000014
 23
74.99999999999994
 33
0.0
  0
SOLID
  5
8B45
330
89BC
100
AcDbEntity
  8
2
100
AcDbTrace
 10
2.500000000000138
 20
75.41666666666661
 30
0.0
 11
2.500000000000138
 21
74.58333333333327
 31
0.0
 12
0.000000000000139
 22
74.99999999999994
 32
0.0
 13
0.000000000000139
 23
74.99999999999994
 33
0.0
  0
MTEXT
  5
8B46
330
89BC
100
AcDbEntity
  8
2
 62
     2
100
AcDbMText
 10
12.50000000000013
 20
78.25034448818891
 30
0.0
 40
3.5
 41
0.0
 71
     5
 72
     1
  1
\A1;25
1001
ACAD
1000
MTEXTBEGIN
1070
    73
1070
     1
1070
    44
1040
1.0
1070
    74
1070
     0
1000
MTEXTEND
  0
POINT
  5
8B47
330
89BC
100
AcDbEntity
  8
DEFPOINTS
 62
     0
100
AcDbPoint
 10
25.00000000000013
 20
8.999999999999783
 30
0.0
  0
POINT
  5
8B48
330
89BC
100
AcDbEntity
  8
DEFPOINTS
 62
     0
100
AcDbPoint
 10
0.000000000000135
 20
9.999999999999879
 30
0.0
  0
POINT
  5
8B49
330
89BC
100
AcDbEntity
  8
DEFPOINTS
 62
     0
100
AcDbPoint
 10
0.000000000000139
 20
74.99999999999994
 30
0.0
  0
ENDBLK
  5
89C7
330
89BC
100
AcDbEntity
  8
0
100
AcDbBlockEnd
  0
BLOCK
  5
89EE
330
89E4
100
AcDbEntity
  8
0
100
AcDbBlockBegin
  2
*D4
 70
     1
 10
0.0
 20
0.0
 30
0.0
  3
*D4
  1

  0
LINE
  5
8B6B
330
89E4
100
AcDbEntity
  8
2
100
AcDbLine
 10
25.00000000000013
 20
8.999999999999783
 30
0.0
 11
25.00000000000014
 21
60.99999999999986
 31
0.0
  0
LINE
  5
8B6C
330
89E4
100
AcDbEntity
  8
2
100
AcDbLine
 10
7.000000000000204
 20
8.337225204202628
 30
0.0
 11
7.000000000000207
 21
60.99999999999986
 31
0.0
  0
LINE
  5
8B6D
330
89E4
100
AcDbEntity
  8
2
100
AcDbLine
 10
22.50000000000013
 20
59.99999999999985
 30
0.0
 11
9.500000000000207
 21
59.99999999999985
 31
0.0
  0
SOLID
  5
8B6E
330
89E4
100
AcDbEntity
  8
2
100
AcDbTrace
 10
22.50000000000013
 20
60.41666666666652
 30
0.0
 11
22.50000000000013
 21
59.58333333333319
 31
0.0
 12
25.00000000000014
 22
59.99999999999985
 32
0.0
 13
25.00000000000014
 23
59.99999999999985
 33
0.0
  0
SOLID
  5
8B6F
330
89E4
100
AcDbEntity
  8
2
100
AcDbTrace
 10
9.500000000000207
 20
60.41666666666652
 30
0.0
 11
9.500000000000207
 21
59.58333333333319
 31
0.0
 12
7.000000000000207
 22
59.99999999999985
 32
0.0
 13
7.000000000000207
 23
59.99999999999985
 33
0.0
  0
MTEXT
  5
8B70
330
89E4
100
AcDbEntity
  8
2
 62
     2
100
AcDbMText
 10
16.00000000000017
 20
63.24999999999985
 30
0.0
 40
3.5
 41
0.0
 71
     5
 72
     1
  1
\A1;18
1001
ACAD
1000
MTEXTBEGIN
1070
    73
1070
     1
1070
    44
1040
1.0
1070
    74
1070
     0
1000
MTEXTEND
  0
POINT
  5
8B71
330
89E4
100
AcDbEntity
  8
DEFPOINTS
 62
     0
100
AcDbPoint
 10
25.00000000000013
 20
8.999999999999783
 30
0.0
  0
POINT
  5
8B72
330
89E4
100
AcDbEntity
  8
DEFPOINTS
 62
     0
100
AcDbPoint
 10
7.000000000000204
 20
8.337225204202628
 30
0.0
  0
POINT
  5
8B73
330
89E4
100
AcDbEntity
  8
DEFPOINTS
 62
     0
100
AcDbPoint
 10
7.000000000000207
 20
59.99999999999985
 30
0.0
  0
ENDBLK
  5
89EF
330
89E4
100
AcDbEntity
  8
0
100
AcDbBlockEnd
  0
BLOCK
  5
8A42
330
8A38
100
AcDbEntity
  8
0
100
AcDbBlockBegin
  2
*D5
 70
     1
 10
0.0
 20
0.0
 30
0.0
  3
*D5
  1

  0
LINE
  5
8BDB
330
8A38
100
AcDbEntity
  8
SK2
100
AcDbLine
 10
25.0000000000002
 20
-9.000000000000216
 30
0.0
 11
25.0000000000002
 21
-34.94613141453567
 31
0.0
  0
LINE
  5
8BDC
330
8A38
100
AcDbEntity
  8
SK2
100
AcDbLine
 10
-49.99999999999986
 20
-9.000000000000063
 30
0.0
 11
-49.99999999999986
 21
-34.94613141453567
 31
0.0
  0
LINE
  5
8BDD
330
8A38
100
AcDbEntity
  8
SK2
100
AcDbLine
 10
22.5000000000002
 20
-33.94613141453567
 30
0.0
 11
-47.49999999999986
 21
-33.94613141453567
 31
0.0
  0
SOLID
  5
8BDE
330
8A38
100
AcDbEntity
  8
SK2
100
AcDbTrace
 10
22.5000000000002
 20
-33.529464747869
 30
0.0
 11
22.5000000000002
 21
-34.36279808120233
 31
0.0
 12
25.0000000000002
 22
-33.94613141453567
 32
0.0
 13
25.0000000000002
 23
-33.94613141453567
 33
0.0
  0
SOLID
  5
8BDF
330
8A38
100
AcDbEntity
  8
SK2
100
AcDbTrace
 10
-47.49999999999986
 20
-33.529464747869
 30
0.0
 11
-47.49999999999986
 21
-34.36279808120233
 31
0.0
 12
-49.99999999999986
 22
-33.94613141453567
 32
0.0
 13
-49.99999999999986
 23
-33.94613141453567
 33
0.0
  0
MTEXT
  5
8BE0
330
8A38
100
AcDbEntity
  8
SK2
 62
     2
100
AcDbMText
 10
-12.49999999999983
 20
-30.69613141453567
 30
0.0
 40
3.5
 41
0.0
 71
     5
 72
     1
  1
\A1;75
1001
ACAD
1000
MTEXTBEGIN
1070
    73
1070
     1
1070
    44
1040
1.0
1070
    74
1070
     0
1000
MTEXTEND
  0
POINT
  5
8BE1
330
8A38
100
AcDbEntity
  8
DEFPOINTS
 62
     0
100
AcDbPoint
 10
25.0000000000002
 20
-9.000000000000216
 30
0.0
  0
POINT
  5
8BE2
330
8A38
100
AcDbEntity
  8
DEFPOINTS
 62
     0
100
AcDbPoint
 10
-49.99999999999986
 20
-9.000000000000063
 30
0.0
  0
POINT
  5
8BE3
330
8A38
100
AcDbEntity
  8
DEFPOINTS
 62
     0
100
AcDbPoint
 10
-49.99999999999986
 20
-33.94613141453567
 30
0.0
  0
ENDBLK
  5
8A43
330
8A38
100
AcDbEntity
  8
0
100
AcDbBlockEnd
  0
BLOCK
  5
8A6A
330
8A60
100
AcDbEntity
  8
0
100
AcDbBlockBegin
  2
*D6
 70
     1
 10
0.0
 20
0.0
 30
0.0
  3
*D6
  1

  0
LINE
  5
8A88
330
8A60
100
AcDbEntity
  8
SK2
100
AcDbLine
 10
-48.9999999999998
 20
-10.00000000000012
 30
0.0
 11
-71.0293822803618
 21
-10.00000000000011
 31
0.0
  0
LINE
  5
8A89
330
8A60
100
AcDbEntity
  8
SK2
100
AcDbLine
 10
-48.99999999999987
 20
9.999999999999879
 30
0.0
 11
-71.0293822803618
 21
9.999999999999886
 31
0.0
  0
LINE
  5
8A8A
330
8A60
100
AcDbEntity
  8
SK2
100
AcDbLine
 10
-70.0293822803618
 20
-7.500000000000113
 30
0.0
 11
-70.0293822803618
 21
7.499999999999886
 31
0.0
  0
SOLID
  5
8A8B
330
8A60
100
AcDbEntity
  8
SK2
100
AcDbTrace
 10
-70.44604894702847
 20
-7.500000000000113
 30
0.0
 11
-69.61271561369513
 21
-7.500000000000114
 31
0.0
 12
-70.0293822803618
 22
-10.00000000000011
 32
0.0
 13
-70.0293822803618
 23
-10.00000000000011
 33
0.0
  0
SOLID
  5
8A8C
330
8A60
100
AcDbEntity
  8
SK2
100
AcDbTrace
 10
-70.44604894702847
 20
7.499999999999886
 30
0.0
 11
-69.61271561369513
 21
7.499999999999885
 31
0.0
 12
-70.0293822803618
 22
9.999999999999886
 32
0.0
 13
-70.0293822803618
 23
9.999999999999886
 33
0.0
  0
MTEXT
  5
8A8D
330
8A60
100
AcDbEntity
  8
SK2
 62
     2
100
AcDbMText
 10
-73.27972676855077
 20
-0.000000000000125
 30
0.0
 40
3.5
 41
0.0
 71
     5
 72
     1
  1
\A1;%%c20
 11
0.0000000000000001
 21
1.0
 31
0.0
1001
ACAD
1000
MTEXTBEGIN
1070
    73
1070
     1
1070
    44
1040
1.0
1070
    74
1070
     0
1000
MTEXTEND
  0
POINT
  5
8A8E
330
8A60
100
AcDbEntity
  8
DEFPOINTS
 62
     0
100
AcDbPoint
 10
-48.9999999999998
 20
-10.00000000000012
 30
0.0
  0
POINT
  5
8A8F
330
8A60
100
AcDbEntity
  8
DEFPOINTS
 62
     0
100
AcDbPoint
 10
-48.99999999999987
 20
9.999999999999879
 30
0.0
  0
POINT
  5
8A90
330
8A60
100
AcDbEntity
  8
DEFPOINTS
 62
     0
100
AcDbPoint
 10
-70.0293822803618
 20
9.999999999999886
 30
0.0
  0
ENDBLK
  5
8A6B
330
8A60
100
AcDbEntity
  8
0
100
AcDbBlockEnd
  0
ENDSEC
  0
SECTION
  2
ENTITIES
  0
LINE
  5
752A
330
6A34
100
AcDbEntity
  8
SK4
100
AcDbLine
 10
0.0
 20
0.0
 30
0.0
 11
-53.29139166031325
 21
-0.0000000000002074
 31
0.0
  0
TEXT
  5
7545
330
6A34
100
AcDbEntity
  8
6
100
AcDbText
 10
28.27061228415903
 20
-18.73376014154451
 30
0.0
 40
3.5
  1
15C1D018025W4R01
100
AcDbText
  0
LINE
  5
7554
330
6A34
100
AcDbEntity
  8
SK1
100
AcDbLine
 10
25.0000000000002
 20
-9.463769369849035
 30
0.0
 11
25.0000000000002
 21
-8.536230630151397
 31
0.0
  0
LINE
  5
7555
330
6A34
100
AcDbEntity
  8
SK1
100
AcDbLine
 10
24.53623063015138
 20
-9.000000000000216
 30
0.0
 11
25.46376936984902
 21
-9.000000000000216
 31
0.0
  0
CIRCLE
  5
7556
330
6A34
100
AcDbEntity
  8
SK1
100
AcDbCircle
 10
25.0000000000002
 20
-9.000000000000216
 30
0.0
 40
0.4637693698488208
  0
LINE
  5
755E
330
6A34
100
AcDbEntity
  8
NOCUT
100
AcDbLine
 10
24.23805483511335
 20
-0.0000000000002438
 30
0.0
 11
0.0
 21
-0.0000000000001705
 31
0.0
  0
LINE
  5
755F
330
6A34
100
AcDbEntity
  8
4
100
AcDbLine
 10
25.97494342658336
 20
-0.0000000000002177
 30
0.0
 11
0.0
 21
0.0
 31
0.0
  0
LINE
  5
7561
330
6A34
100
AcDbEntity
  8
SK1
100
AcDbLine
 10
-1.555716359597507
 20
-1.555716359597749
 30
0.0
 11
1.555716359597749
 21
1.555716359597508
 31
0.0
  0
LINE
  5
7563
330
6A34
100
AcDbEntity
  8
SK1
100
AcDbLine
 10
-1.555716359597507
 20
1.555716359597508
 30
0.0
 11
1.555716359597749
 21
-1.555716359597749
 31
0.0
  0
LINE
  5
7588
330
6A34
100
AcDbEntity
  8
SK1
100
AcDbLine
 10
25.00000000000013
 20
9.463769369848602
 30
0.0
 11
25.00000000000013
 21
8.536230630150964
 31
0.0
  0
LINE
  5
7589
330
6A34
100
AcDbEntity
  8
SK1
100
AcDbLine
 10
24.53623063015131
 20
8.999999999999783
 30
0.0
 11
25.46376936984895
 21
8.999999999999783
 31
0.0
  0
CIRCLE
  5
758A
330
6A34
100
AcDbEntity
  8
SK1
100
AcDbCircle
 10
25.00000000000013
 20
8.999999999999783
 30
0.0
 40
0.4637693698488208
  0
TEXT
  5
7F0E
330
6A34
100
AcDbEntity
  8
6
100
AcDbText
 10
25.92250690725919
 20
11.23782808433177
 30
0.0
 40
2.5
  1
SHLT060204N
100
AcDbText
  0
LINE
  5
8027
330
6A34
100
AcDbEntity
  8
4
100
AcDbLine
 10
2.295975744989289
 20
-0.0000000000005399
 30
0.0
 11
14.86952721782949
 21
3.794020046330567
 31
0.0
  0
LINE
  5
811E
330
6A34
100
AcDbEntity
  8
1
100
AcDbLine
 10
5.811660343575182
 20
8.337225204202628
 30
0.0
 11
19.00002655102513
 21
8.337225204202622
 31
0.0
  0
LINE
  5
8120
330
6A34
100
AcDbEntity
  8
NOCUT
100
AcDbLine
 10
5.811660343585854
 20
-8.337225204202876
 30
0.0
 11
24.23805483511336
 21
-8.337225204203274
 31
0.0
  0
LINE
  5
8147
330
6A34
100
AcDbEntity
  8
1
100
AcDbLine
 10
5.811660343586785
 20
-8.337225204202677
 30
0.0
 11
24.2380548351133
 21
-8.337225204202407
 31
0.0
  0
LINE
  5
814F
330
6A34
100
AcDbEntity
  8
1
100
AcDbLine
 10
24.2380548351133
 20
-8.337225204202407
 30
0.0
 11
24.23805483511337
 21
3.000026551024781
 31
0.0
  0
ARC
  5
816C
330
6A34
100
AcDbEntity
  8
1
100
AcDbCircle
 10
5.997619199334157
 20
5.662694599914514
 30
0.0
 40
3.861824398235425
100
AcDbArc
 50
115.8171390871005
 51
259.5057160454078
  0
LINE
  5
844B
330
6A34
100
AcDbEntity
  8
1
100
AcDbLine
 10
24.23805483511336
 20
1.865466617155462
 30
0.0
 11
5.057773778890714
 21
1.865466617155465
 31
0.0
  0
LINE
  5
8486
330
6A34
100
AcDbEntity
  8
1
100
AcDbLine
 10
5.811660343586219
 20
1.865466617155465
 30
0.0
 11
5.81166034358633
 21
-8.337225204202827
 31
0.0
  0
LINE
  5
8499
330
6A34
100
AcDbEntity
  8
NOCUT
100
AcDbLine
 10
24.23805483511335
 20
-0.0000000000002438
 30
0.0
 11
24.23805483511336
 21
-8.337225204203274
 31
0.0
  0
ARC
  5
8695
330
6A34
100
AcDbEntity
  8
SK3
 48
0.3
100
AcDbCircle
 10
5.997619199334272
 20
-5.662694599915747
 30
0.0
 40
3.86182439823688
100
AcDbArc
 50
100.4942839545917
 51
244.1828609129163
  0
LINE
  5
8696
330
6A34
100
AcDbEntity
  8
SK3
 48
0.3
100
AcDbLine
 10
24.23805483511334
 20
-1.865466617156561
 30
0.0
 11
5.057773778878626
 21
-1.865466617155473
 31
0.0
  0
LINE
  5
87D9
330
6A34
100
AcDbEntity
  8
1
100
AcDbLine
 10
0.0000000000001066
 20
-10.00000000000012
 30
0.0
 11
0.000000000000135
 21
9.999999999999879
 31
0.0
  0
LINE
  5
87DA
330
6A34
100
AcDbEntity
  8
SK1
100
AcDbLine
 10
0.000000000000135
 20
9.999999999999879
 30
0.0
 11
-48.99999999999987
 21
9.999999999999879
 31
0.0
  0
LINE
  5
87DB
330
6A34
100
AcDbEntity
  8
SK1
100
AcDbLine
 10
-48.99999999999987
 20
9.999999999999879
 30
0.0
 11
-49.99999999999986
 21
8.999999999999879
 31
0.0
  0
LINE
  5
87DC
330
6A34
100
AcDbEntity
  8
SK1
100
AcDbLine
 10
-49.99999999999986
 20
8.999999999999879
 30
0.0
 11
-49.99999999999986
 21
-9.000000000000063
 31
0.0
  0
LINE
  5
87DD
330
6A34
100
AcDbEntity
  8
SK1
100
AcDbLine
 10
-49.99999999999986
 20
-9.000000000000063
 30
0.0
 11
-48.9999999999998
 21
-10.00000000000012
 31
0.0
  0
LINE
  5
87DE
330
6A34
100
AcDbEntity
  8
SK1
100
AcDbLine
 10
-48.9999999999998
 20
-10.00000000000012
 30
0.0
 11
0.0000000000001066
 21
-10.00000000000012
 31
0.0
  0
LINE
  5
87DF
330
6A34
100
AcDbEntity
  8
SK1
100
AcDbLine
 10
-48.99999999999987
 20
-10.00000000000006
 30
0.0
 11
-48.99999999999987
 21
9.999999999999879
 31
0.0
  0
LINE
  5
87E0
330
6A34
100
AcDbEntity
  8
SK1
100
AcDbLine
 10
-19.49999999999764
 20
-5.723500000000122
 30
0.0
 11
-19.49999999999764
 21
5.72349999999988
 31
0.0
  0
LINE
  5
87E1
330
6A34
100
AcDbEntity
  8
SK1
100
AcDbLine
 10
-19.49999999999764
 20
5.72349999999988
 30
0.0
 11
-30.49999999999764
 21
5.723499999999852
 31
0.0
  0
LINE
  5
87E2
330
6A34
100
AcDbEntity
  8
SK1
100
AcDbLine
 10
-30.49999999999764
 20
5.723499999999852
 30
0.0
 11
-30.49999999999764
 21
-5.723500000000093
 31
0.0
  0
LINE
  5
87E3
330
6A34
100
AcDbEntity
  8
SK1
100
AcDbLine
 10
-30.49999999999764
 20
-5.723500000000093
 30
0.0
 11
-19.49999999999764
 21
-5.723500000000122
 31
0.0
  0
ARC
  5
87E4
330
6A34
100
AcDbEntity
  8
SK1
100
AcDbCircle
 10
-27.69957006944202
 20
-0.0000000000000924
 30
0.0
 40
9.99957006944439
100
AcDbArc
 50
325.0840190482517
 51
34.91598095174803
  0
ARC
  5
87E5
330
6A34
100
AcDbEntity
  8
SK1
100
AcDbCircle
 10
-22.30042993055301
 20
-0.0000000000000924
 30
0.0
 40
9.999570069444599
100
AcDbArc
 50
145.084019048253
 51
214.9159809517472
  0
CIRCLE
  5
8834
330
6A34
100
AcDbEntity
  8
1
100
AcDbCircle
 10
22.00001327551263
 20
6.000013275512282
 30
0.0
 40
1.6956446703625
  0
LINE
  5
8835
330
6A34
100
AcDbEntity
  8
CUT
100
AcDbLine
 10
19.00002655102513
 20
8.582610542679784
 30
0.0
 11
19.00002655102513
 21
3.41741600834478
 31
0.0
  0
LINE
  5
8836
330
6A34
100
AcDbEntity
  8
1
100
AcDbLine
 10
19.00002655102513
 20
8.582610542679784
 30
0.0
 11
19.00002655102513
 21
3.41741600834478
 31
0.0
  0
LINE
  5
8837
330
6A34
100
AcDbEntity
  8
CUT
100
AcDbLine
 10
25.00000000000013
 20
3.41741600834478
 30
0.0
 11
25.00000000000013
 21
8.582610542679784
 31
0.0
  0
LINE
  5
8838
330
6A34
100
AcDbEntity
  8
1
100
AcDbLine
 10
25.00000000000013
 20
3.41741600834478
 30
0.0
 11
25.00000000000013
 21
8.582610542679784
 31
0.0
  0
ARC
  5
8839
330
6A34
100
AcDbEntity
  8
CUT
100
AcDbCircle
 10
19.41741600834513
 20
8.582610542679779
 30
0.0
 40
0.4173894573200001
100
AcDbArc
 50
90.0
 51
179.9999999999994
1001
GENIUS_GENOBJ-N-FIL_13
1002
{
1000
OWNER
1000
GEN
1002
}
1001
GENIUS_GENODEF_13
1002
{
1000
HIER
1070
     0
1002
}
1002
{
1000
MANEDIT
1070
     0
1002
}
1002
{
1000
NOSEL
1070
     0
1002
}
1002
{
1000
BEHIND
1070
     0
1002
}
1002
{
1000
OTHER
1070
     0
1002
}
1002
{
1000
REACTOR
1002
}
  0
ARC
  5
883A
330
6A34
100
AcDbEntity
  8
1
100
AcDbCircle
 10
19.41741600834513
 20
8.582610542679779
 30
0.0
 40
0.4173894573200001
100
AcDbArc
 50
90.0
 51
179.9999999999994
1001
GENIUS_GENOBJ-N-FIL_13
1002
{
1000
OWNER
1000
GEN
1002
}
1001
GENIUS_GENODEF_13
1002
{
1000
HIER
1070
     0
1002
}
1002
{
1000
MANEDIT
1070
     0
1002
}
1002
{
1000
NOSEL
1070
     0
1002
}
1002
{
1000
BEHIND
1070
     0
1002
}
1002
{
1000
OTHER
1070
     0
1002
}
1002
{
1000
REACTOR
1002
}
  0
LINE
  5
883B
330
6A34
100
AcDbEntity
  8
CUT
100
AcDbLine
 10
19.41741600834513
 20
8.999999999999783
 30
0.0
 11
24.58261054268013
 21
8.999999999999783
 31
0.0
  0
LINE
  5
883C
330
6A34
100
AcDbEntity
  8
1
100
AcDbLine
 10
19.41741600834513
 20
8.999999999999783
 30
0.0
 11
24.58261054268013
 21
8.999999999999783
 31
0.0
  0
ARC
  5
8840
330
6A34
100
AcDbEntity
  8
CUT
100
AcDbCircle
 10
24.58261054268013
 20
8.582610542679784
 30
0.0
 40
0.4173894573200001
100
AcDbArc
 50
0.0
 51
90.0
1001
GENIUS_GENODEF_13
1002
{
1000
HIER
1070
     0
1002
}
1002
{
1000
MANEDIT
1070
     0
1002
}
1002
{
1000
NOSEL
1070
     0
1002
}
1002
{
1000
BEHIND
1070
     0
1002
}
1002
{
1000
OTHER
1070
     0
1002
}
1002
{
1000
REACTOR
1002
}
1001
GENIUS_GENOBJ-N-FIL_13
1002
{
1000
OWNER
1000
GEN
1002
}
  0
ARC
  5
8841
330
6A34
100
AcDbEntity
  8
1
100
AcDbCircle
 10
24.58261054268013
 20
8.582610542679784
 30
0.0
 40
0.4173894573200001
100
AcDbArc
 50
0.0
 51
90.0
1001
GENIUS_GENODEF_13
1002
{
1000
HIER
1070
     0
1002
}
1002
{
1000
MANEDIT
1070
     0
1002
}
1002
{
1000
NOSEL
1070
     0
1002
}
1002
{
1000
BEHIND
1070
     0
1002
}
1002
{
1000
OTHER
1070
     0
1002
}
1002
{
1000
REACTOR
1002
}
1001
GENIUS_GENOBJ-N-FIL_13
1002
{
1000
OWNER
1000
GEN
1002
}
  0
LINE
  5
8842
330
6A34
100
AcDbEntity
  8
CUT
100
AcDbLine
 10
19.41741600834513
 20
3.000026551024782
 30
0.0
 11
24.58261054268013
 21
3.000026551024782
 31
0.0
  0
LINE
  5
8843
330
6A34
100
AcDbEntity
  8
1
100
AcDbLine
 10
19.41741600834513
 20
3.000026551024782
 30
0.0
 11
24.58261054268013
 21
3.000026551024782
 31
0.0
  0
ARC
  5
8844
330
6A34
100
AcDbEntity
  8
CUT
100
AcDbCircle
 10
24.58261054268015
 20
3.417416008344774
 30
0.0
 40
0.4173894573200001
100
AcDbArc
 50
269.9999999999979
 51
0.0000000000010178
1001
GENIUS_GENOBJ-N-FIL_13
1002
{
1000
OWNER
1000
GEN
1002
}
1001
GENIUS_GENODEF_13
1002
{
1000
HIER
1070
     0
1002
}
1002
{
1000
MANEDIT
1070
     0
1002
}
1002
{
1000
NOSEL
1070
     0
1002
}
1002
{
1000
BEHIND
1070
     0
1002
}
1002
{
1000
OTHER
1070
     0
1002
}
1002
{
1000
REACTOR
1002
}
  0
ARC
  5
8845
330
6A34
100
AcDbEntity
  8
1
100
AcDbCircle
 10
24.58261054268015
 20
3.417416008344774
 30
0.0
 40
0.4173894573200001
100
AcDbArc
 50
269.9999999999979
 51
0.0000000000010178
1001
GENIUS_GENOBJ-N-FIL_13
1002
{
1000
OWNER
1000
GEN
1002
}
1001
GENIUS_GENODEF_13
1002
{
1000
HIER
1070
     0
1002
}
1002
{
1000
MANEDIT
1070
     0
1002
}
1002
{
1000
NOSEL
1070
     0
1002
}
1002
{
1000
BEHIND
1070
     0
1002
}
1002
{
1000
OTHER
1070
     0
1002
}
1002
{
1000
REACTOR
1002
}
  0
ARC
  5
8846
330
6A34
100
AcDbEntity
  8
CUT
100
AcDbCircle
 10
19.41741600834513
 20
3.41741600834478
 30
0.0
 40
0.4173894573200001
100
AcDbArc
 50
180.0
 51
270.0
1001
GENIUS_GENOBJ-N-FIL_13
1002
{
1000
OWNER
1000
GEN
1002
}
1001
GENIUS_GENODEF_13
1002
{
1000
HIER
1070
     0
1002
}
1002
{
1000
MANEDIT
1070
     0
1002
}
1002
{
1000
NOSEL
1070
     0
1002
}
1002
{
1000
BEHIND
1070
     0
1002
}
1002
{
1000
OTHER
1070
     0
1002
}
1002
{
1000
REACTOR
1002
}
  0
ARC
  5
8847
330
6A34
100
AcDbEntity
  8
1
100
AcDbCircle
 10
19.41741600834513
 20
3.41741600834478
 30
0.0
 40
0.4173894573200001
100
AcDbArc
 50
180.0
 51
270.0
1001
GENIUS_GENOBJ-N-FIL_13
1002
{
1000
OWNER
1000
GEN
1002
}
1001
GENIUS_GENODEF_13
1002
{
1000
HIER
1070
     0
1002
}
1002
{
1000
MANEDIT
1070
     0
1002
}
1002
{
1000
NOSEL
1070
     0
1002
}
1002
{
1000
BEHIND
1070
     0
1002
}
1002
{
1000
OTHER
1070
     0
1002
}
1002
{
1000
REACTOR
1002
}
  0
ARC
  5
884C
330
6A34
100
AcDbEntity
  8
SK3
100
AcDbCircle
 10
19.41739635528071
 20
-3.41739635528072
 30
0.0
 40
0.4173909267079999
100
AcDbArc
 50
90.0
 51
179.9999999999994
1001
GENIUS_GENOBJ-N-FIL_13
1002
{
1000
OWNER
1000
GEN
1002
}
1001
GENIUS_GENODEF_13
1002
{
1000
HIER
1070
     0
1002
}
1002
{
1000
MANEDIT
1070
     0
1002
}
1002
{
1000
NOSEL
1070
     0
1002
}
1002
{
1000
BEHIND
1070
     0
1002
}
1002
{
1000
OTHER
1070
     0
1002
}
1002
{
1000
REACTOR
1002
}
  0
ARC
  5
884D
330
6A34
100
AcDbEntity
  8
1
100
AcDbCircle
 10
19.41739635528071
 20
-8.58260907329222
 30
0.0
 40
0.4173909267079999
100
AcDbArc
 50
180.0
 51
270.0
1001
GENIUS_GENOBJ-N-FIL_13
1002
{
1000
OWNER
1000
GEN
1002
}
1001
GENIUS_GENODEF_13
1002
{
1000
HIER
1070
     0
1002
}
1002
{
1000
MANEDIT
1070
     0
1002
}
1002
{
1000
NOSEL
1070
     0
1002
}
1002
{
1000
BEHIND
1070
     0
1002
}
1002
{
1000
OTHER
1070
     0
1002
}
1002
{
1000
REACTOR
1002
}
  0
CIRCLE
  5
884E
330
6A34
100
AcDbEntity
  8
SK3
100
AcDbCircle
 10
22.00000271428646
 20
-6.000002714286074
 30
0.0
 40
1.695650639751249
  0
LINE
  5
884F
330
6A34
100
AcDbEntity
  8
1
 48
0.3
100
AcDbLine
 10
25.00000000000021
 20
-8.58260907329222
 30
0.0
 11
25.00000000000021
 21
-3.417396355280716
 31
0.0
  0
LINE
  5
8850
330
6A34
100
AcDbEntity
  8
SK3
 48
0.3
100
AcDbLine
 10
19.00000542857272
 20
-3.417396355280716
 30
0.0
 11
19.00000542857272
 21
-8.337225204203102
 31
0.0
  0
LINE
  5
8851
330
6A34
100
AcDbEntity
  8
1
 48
0.3
100
AcDbLine
 10
19.41739635528071
 20
-9.000000000000216
 30
0.0
 11
24.58260907329222
 21
-9.000000000000216
 31
0.0
  0
LINE
  5
8852
330
6A34
100
AcDbEntity
  8
1
 48
0.3
100
AcDbLine
 10
19.00000542857272
 20
-8.337225204203102
 30
0.0
 11
19.00000542857272
 21
-8.58260907329222
 31
0.0
  0
ARC
  5
8854
330
6A34
100
AcDbEntity
  8
1
100
AcDbCircle
 10
24.58260907329224
 20
-8.582609073292227
 30
0.0
 40
0.4173909267079999
100
AcDbArc
 50
269.9999999999979
 51
0.0000000000010178
1001
GENIUS_GENOBJ-N-FIL_13
1002
{
1000
OWNER
1000
GEN
1002
}
1001
GENIUS_GENODEF_13
1002
{
1000
HIER
1070
     0
1002
}
1002
{
1000
MANEDIT
1070
     0
1002
}
1002
{
1000
NOSEL
1070
     0
1002
}
1002
{
1000
BEHIND
1070
     0
1002
}
1002
{
1000
OTHER
1070
     0
1002
}
1002
{
1000
REACTOR
1002
}
  0
LINE
  5
8857
330
6A34
100
AcDbEntity
  8
SK3
 48
0.3
100
AcDbLine
 10
19.41739635528071
 20
-3.000005428572718
 30
0.0
 11
24.23805483511332
 21
-3.000005428572718
 31
0.0
  0
LINE
  5
8858
330
6A34
100
AcDbEntity
  8
1
 48
0.3
100
AcDbLine
 10
24.23805483511332
 20
-3.000005428572718
 30
0.0
 11
24.58260907329222
 21
-3.000005428572718
 31
0.0
  0
ARC
  5
8859
330
6A34
100
AcDbEntity
  8
1
100
AcDbCircle
 10
24.58260907329222
 20
-3.417396355280716
 30
0.0
 40
0.4173909267079999
100
AcDbArc
 50
0.0
 51
90.0
1001
GENIUS_GENODEF_13
1002
{
1000
HIER
1070
     0
1002
}
1002
{
1000
MANEDIT
1070
     0
1002
}
1002
{
1000
NOSEL
1070
     0
1002
}
1002
{
1000
BEHIND
1070
     0
1002
}
1002
{
1000
OTHER
1070
     0
1002
}
1002
{
1000
REACTOR
1002
}
1001
GENIUS_GENOBJ-N-FIL_13
1002
{
1000
OWNER
1000
GEN
1002
}
  0
LINE
  5
889F
330
6A34
100
AcDbEntity
  8
1
100
AcDbLine
 10
5.811660343584806
 20
8.337225204200571
 30
0.0
 11
2.70967995759627
 21
9.999999999997397
 31
0.0
  0
LINE
  5
88A8
330
6A34
100
AcDbEntity
  8
NOCUT
100
AcDbLine
 10
0.0000000000002414
 20
0.0
 30
0.0
 11
0.0000000000001066
 21
-10.00000000000012
 31
0.0
  0
LINE
  5
88B9
330
6A34
100
AcDbEntity
  8
1
100
AcDbLine
 10
2.709679957597922
 20
-10.00000000000015
 30
0.0
 11
5.811660343586352
 21
-8.337225204202768
 31
0.0
  0
LINE
  5
88EE
330
6A34
100
AcDbEntity
  8
1
100
AcDbLine
 10
0.000000000000135
 20
9.999999999999879
 30
0.0
 11
2.70967995759627
 21
9.999999999997397
 31
0.0
  0
LINE
  5
88F6
330
6A34
100
AcDbEntity
  8
1
100
AcDbLine
 10
0.0000000000001066
 20
-10.00000000000012
 30
0.0
 11
2.709679957597922
 21
-10.00000000000015
 31
0.0
  0
LINE
  5
88FE
330
6A34
100
AcDbEntity
  8
1
100
AcDbLine
 10
2.70967995759627
 20
9.999999999997397
 30
0.0
 11
2.709679957596461
 21
7.688316288544388
 31
0.0
  0
LINE
  5
8906
330
6A34
100
AcDbEntity
  8
NOCUT
100
AcDbLine
 10
5.811660343585854
 20
-8.337225204202876
 30
0.0
 11
2.709679957597922
 21
-10.00000000000015
 31
0.0
  0
LINE
  5
890A
330
6A34
100
AcDbEntity
  8
NOCUT
100
AcDbLine
 10
0.0000000000001066
 20
-10.00000000000012
 30
0.0
 11
2.709679957597922
 21
-10.00000000000015
 31
0.0
  0
DIMENSION
  5
8933
330
6A34
100
AcDbEntity
  8
2
100
AcDbDimension
  2
*D1
 10
65.38636080063963
 20
-9.000000000000227
 30
0.0
 11
62.13636080063963
 21
-0.0000000000002168
 31
0.0
 70
    32
  1
%%c<>
  3
AM_DIN
100
AcDbAlignedDimension
 13
25.00000000000013
 23
8.999999999999783
 33
0.0
 14
25.0000000000002
 24
-9.000000000000216
 34
0.0
 50
90.0
100
AcDbRotatedDimension
  0
DIMENSION
  5
8960
330
6A34
100
AcDbEntity
  8
2
100
AcDbDimension
  2
*D2
 10
54.16839314705079
 20
-3.750000000000224
 30
0.0
 11
51.97860436376481
 21
14.70230070537286
 31
0.0
 70
   160
  1
%%c<>
  3
AM_DIN
100
AcDbAlignedDimension
 13
25.00000000000013
 23
3.749999999999783
 33
0.0
 14
25.00000000000021
 24
-3.750000000000216
 34
0.0
 50
90.0
100
AcDbRotatedDimension
  0
DIMENSION
  5
89BB
330
6A34
100
AcDbEntity
  8
2
100
AcDbDimension
  2
*D3
 10
0.000000000000139
 20
74.99999999999994
 30
0.0
 11
12.50000000000013
 21
78.25034448818891
 31
0.0
 70
    32
  3
AM_DIN
100
AcDbAlignedDimension
 13
25.00000000000013
 23
8.999999999999783
 33
0.0
 14
0.000000000000135
 24
9.999999999999879
 34
0.0
100
AcDbRotatedDimension
  0
DIMENSION
  5
89E3
330
6A34
100
AcDbEntity
  8
2
100
AcDbDimension
  2
*D4
 10
7.000000000000207
 20
59.99999999999985
 30
0.0
 11
16.00000000000017
 21
63.24999999999985
 31
0.0
 70
    32
  3
AM_DIN
100
AcDbAlignedDimension
 13
25.00000000000013
 23
8.999999999999783
 33
0.0
 14
7.000000000000204
 24
8.337225204202628
 34
0.0
100
AcDbRotatedDimension
  0
DIMENSION
  5
8A37
330
6A34
100
AcDbEntity
  8
SK2
100
AcDbDimension
  2
*D5
 10
-49.99999999999986
 20
-33.94613141453567
 30
0.0
 11
-12.49999999999983
 21
-30.69613141453567
 31
0.0
 70
    32
  3
AM_DIN
100
AcDbAlignedDimension
 13
25.0000000000002
 23
-9.000000000000216
 33
0.0
 14
-49.99999999999986
 24
-9.000000000000063
 34
0.0
 50
0.0000000000001132
100
AcDbRotatedDimension
  0
DIMENSION
  5
8A5F
330
6A34
100
AcDbEntity
  8
SK2
100
AcDbDimension
  2
*D6
 10
-70.0293822803618
 20
9.999999999999886
 30
0.0
 11
-73.27972676855077
 21
-0.000000000000125
 31
0.0
 70
    32
  1
%%c<>
  3
AM_DIN
100
AcDbAlignedDimension
 13
-48.9999999999998
 23
-10.00000000000012
 33
0.0
 14
-48.99999999999987
 24
9.999999999999879
 34
0.0
 50
90.00000000000003
100
AcDbRotatedDimension
  0
TEXT
  5
8AA7
330
6A34
100
AcDbEntity
  8
6
100
AcDbText
 10
72.20545682508964
 20
-3.956269344203073
 30
0.0
 40
3.5
  1
Z=2
 50
89.99999999999998
100
AcDbText
  0
LINE
  5
8B76
330
6A34
100
AcDbEntity
  8
1
100
AcDbLine
 10
2.709679957596795
 20
3.637072911284096
 30
0.0
 11
2.709679957597922
 21
-10.00000000000015
 31
0.0
  0
LINE
  5
8B78
330
6A34
100
AcDbEntity
  8
4
100
AcDbLine
 10
2.295975744989289
 20
0.000000000000185
 30
0.0
 11
14.86952721782947
 21
-3.794020046330998
 31
0.0
  0
CIRCLE
  5
8B83
330
6A34
100
AcDbEntity
  8
SK1
100
AcDbCircle
 10
0.0000000000001206
 20
-0.0000000000001206
 30
0.0
 40
2.200115174948665
  0
ENDSEC
  0
SECTION
  2
OBJECTS
  0
DICTIONARY
  5
6A22
330
0
100
AcDbDictionary
  3
ACAD_GROUP
350
6A23
  3
ACAD_LAYOUT
350
6A2F
  3
ACAD_MLINESTYLE
350
6A2C
  3
ACAD_PLOTSETTINGS
350
6A2E
  3
ACAD_PLOTSTYLENAME
350
6A24
  3
ACDBHEADERROUNDTRIPXREC
350
8BE6
  3
ACDBVARIABLEDICTIONARY
350
6B78
  3
ACMDICTIONARY
350
6B39
  3
AMG
350
6B22
  3
AMGSNAPSETTINGS
350
6B59
  3
DWGPROPS
350
8B94
  0
DICTIONARY
  5
6B62
330
6A34
100
AcDbDictionary
280
     1
  3
ACAD_INDEX
360
6B63
  3
ACAD_LAYOUTSELFREF
360
8C09
  0
DICTIONARY
  5
8C07
330
6A30
100
AcDbDictionary
280
     1
  3
ACAD_LAYOUTSELFREF
360
8C08
  0
DICTIONARY
  5
6A23
102
{ACAD_REACTORS
330
6A22
102
}
330
6A22
100
AcDbDictionary
  0
DICTIONARY
  5
6A2F
102
{ACAD_REACTORS
330
6A22
102
}
330
6A22
100
AcDbDictionary
  0
DICTIONARY
  5
6A2C
102
{ACAD_REACTORS
330
6A22
102
}
330
6A22
100
AcDbDictionary
  3
STANDARD
350
6A2D
  0
DICTIONARY
  5
6A2E
102
{ACAD_REACTORS
330
6A22
102
}
330
6A22
100
AcDbDictionary
  0
ACDBDICTIONARYWDFLT
  5
6A24
102
{ACAD_REACTORS
330
6A22
102
}
330
6A22
100
AcDbDictionary
281
     1
  3
Normal
350
6A25
100
AcDbDictionaryWithDefault
340
6A25
  0
DICTIONARY
  5
8BE6
102
{ACAD_REACTORS
330
6A22
102
}
330
6A22
100
AcDbDictionary
  3
CEPSNTYPE
350
8BF0
  3
DIMSTYLEDATA
350
8BF4
  3
FINGERPRINTGUID
350
8BF1
  3
HYPERLINKBASE
350
8BE9
  3
INSUNITS
350
8BEF
  3
LAYOUTDICT
350
8BEB
  3
LWETCUNION
350
8BEE
  3
PLOTSETDICT
350
8BEC
  3
PLOTSTYLNAMDICT
350
8BED
  3
PSVPSCALE
350
8BF3
  3
PUCSBASE
350
8BF7
  3
PUCSORGBACK
350
8BFD
  3
PUCSORGBOTTOM
350
8BF9
  3
PUCSORGFRONT
350
8BFC
  3
PUCSORGLEFT
350
8BFA
  3
PUCSORGRIGHT
350
8BFB
  3
PUCSORGTOP
350
8BF8
  3
PUCSORTHOREF
350
8BF5
  3
PUCSORTHOVIEW
350
8BF6
  3
STYLESHEET
350
8BEA
  3
TSTACKALIGN
350
8BE7
  3
TSTACKSIZE
350
8BE8
  3
UCSBASE
350
8C00
  3
UCSORGBACK
350
8C06
  3
UCSORGBOTTOM
350
8C02
  3
UCSORGFRONT
350
8C05
  3
UCSORGLEFT
350
8C03
  3
UCSORGRIGHT
350
8C04
  3
UCSORGTOP
350
8C01
  3
UCSORTHOREF
350
8BFE
  3
UCSORTHOVIEW
350
8BFF
  3
VERSIONGUID
350
8BF2
  0
DICTIONARY
  5
6B78
102
{ACAD_REACTORS
330
6A22
102
}
330
6A22
100
AcDbDictionary
  3
DIMASSOC
350
6B7A
  3
INDEXCTL
350
6B79
  0
DICTIONARY
  5
6B39
102
{ACAD_REACTORS
330
6A22
102
}
330
6A22
100
AcDbDictionary
  3
ACMSTDDICTIONARY
350
6B3F
  0
DICTIONARY
  5
6B22
102
{ACAD_REACTORS
330
6A22
102
}
330
6A22
100
AcDbDictionary
  3
ACMGSETTINGS
350
6B23
  0
DICTIONARY
  5
6B59
102
{ACAD_REACTORS
330
6A22
102
}
330
6A22
100
AcDbDictionary
  0
XRECORD
  5
8B94
102
{ACAD_REACTORS
330
6A22
102
}
330
6A22
100
AcDbXrecord
  1
DWGPROPS COOKIE
  2

  3

  4

  6

  7

  8

  9

300
AmdtFileType=84
301
=
302
=
303
=
304
=
305
=
306
=
307
=
308
=
309
=
 40
0.1764438310185185
 41
2453447.43007081
 42
2453792.708548043
  1

 90
        1
  0
DICTIONARY
  5
6B63
102
{ACAD_REACTORS
330
6B62
102
}
330
6B62
100
AcDbDictionary
  3
*A1
350
6B64
  0
XRECORD
  5
8C09
102
{ACAD_REACTORS
330
6B62
102
}
330
6B62
100
AcDbXrecord
340
6A34
  0
XRECORD
  5
8C08
102
{ACAD_REACTORS
330
8C07
102
}
330
8C07
100
AcDbXrecord
340
6A30
  0
MLINESTYLE
  5
6A2D
102
{ACAD_REACTORS
330
6A2C
102
}
330
6A2C
100
AcDbMlineStyle
  2
STANDARD
 70
     0
  3

 62
   256
 51
90.0
 52
90.0
 71
     2
 49
0.5
 62
   256
  6
BYLAYER
 49
-0.5
 62
   256
  6
BYLAYER
  0
ACDBPLACEHOLDER
  5
6A25
102
{ACAD_REACTORS
330
6A24
102
}
330
6A24
100
AcDbPlaceHolder
280
     0
  0
XRECORD
  5
8BF0
102
{ACAD_REACTORS
330
8BE6
102
}
330
8BE6
100
AcDbXrecord
 90
        0
  0
XRECORD
  5
8BF4
102
{ACAD_REACTORS
330
8BE6
102
}
330
8BE6
100
AcDbXrecord
1000
DSTYLE
1002
{
1070
   279
 70
     2
1002
}
  0
XRECORD
  5
8BF1
102
{ACAD_REACTORS
330
8BE6
102
}
330
8BE6
100
AcDbXrecord
  1
{5E8163B8-4D8F-4110-B677-A6458ADDE735}
  0
XRECORD
  5
8BE9
102
{ACAD_REACTORS
330
8BE6
102
}
330
8BE6
100
AcDbXrecord
  1

  0
XRECORD
  5
8BEF
102
{ACAD_REACTORS
330
8BE6
102
}
330
8BE6
100
AcDbXrecord
 90
        4
  0
XRECORD
  5
8BEB
102
{ACAD_REACTORS
330
8BE6
102
}
330
8BE6
100
AcDbXrecord
340
6A2F
  0
XRECORD
  5
8BEE
102
{ACAD_REACTORS
330
8BE6
102
}
330
8BE6
100
AcDbXrecord
 90
    10781
  0
XRECORD
  5
8BEC
102
{ACAD_REACTORS
330
8BE6
102
}
330
8BE6
100
AcDbXrecord
340
6A2E
  0
XRECORD
  5
8BED
102
{ACAD_REACTORS
330
8BE6
102
}
330
8BE6
100
AcDbXrecord
340
6A24
  0
XRECORD
  5
8BF3
102
{ACAD_REACTORS
330
8BE6
102
}
330
8BE6
100
AcDbXrecord
 40
0.0
  0
XRECORD
  5
8BF7
102
{ACAD_REACTORS
330
8BE6
102
}
330
8BE6
100
AcDbXrecord
340
0
  0
XRECORD
  5
8BFD
102
{ACAD_REACTORS
330
8BE6
102
}
330
8BE6
100
AcDbXrecord
 10
0.0
 20
0.0
 30
0.0
  0
XRECORD
  5
8BF9
102
{ACAD_REACTORS
330
8BE6
102
}
330
8BE6
100
AcDbXrecord
 10
0.0
 20
0.0
 30
0.0
  0
XRECORD
  5
8BFC
102
{ACAD_REACTORS
330
8BE6
102
}
330
8BE6
100
AcDbXrecord
 10
0.0
 20
0.0
 30
0.0
  0
XRECORD
  5
8BFA
102
{ACAD_REACTORS
330
8BE6
102
}
330
8BE6
100
AcDbXrecord
 10
0.0
 20
0.0
 30
0.0
  0
XRECORD
  5
8BFB
102
{ACAD_REACTORS
330
8BE6
102
}
330
8BE6
100
AcDbXrecord
 10
0.0
 20
0.0
 30
0.0
  0
XRECORD
  5
8BF8
102
{ACAD_REACTORS
330
8BE6
102
}
330
8BE6
100
AcDbXrecord
 10
0.0
 20
0.0
 30
0.0
  0
XRECORD
  5
8BF5
102
{ACAD_REACTORS
330
8BE6
102
}
330
8BE6
100
AcDbXrecord
340
0
  0
XRECORD
  5
8BF6
102
{ACAD_REACTORS
330
8BE6
102
}
330
8BE6
100
AcDbXrecord
 70
     0
  0
XRECORD
  5
8BEA
102
{ACAD_REACTORS
330
8BE6
102
}
330
8BE6
100
AcDbXrecord
  1

  0
XRECORD
  5
8BE7
102
{ACAD_REACTORS
330
8BE6
102
}
330
8BE6
100
AcDbXrecord
 90
        1
  0
XRECORD
  5
8BE8
102
{ACAD_REACTORS
330
8BE6
102
}
330
8BE6
100
AcDbXrecord
 90
       70
  0
XRECORD
  5
8C00
102
{ACAD_REACTORS
330
8BE6
102
}
330
8BE6
100
AcDbXrecord
340
0
  0
XRECORD
  5
8C06
102
{ACAD_REACTORS
330
8BE6
102
}
330
8BE6
100
AcDbXrecord
 10
0.0
 20
0.0
 30
0.0
  0
XRECORD
  5
8C02
102
{ACAD_REACTORS
330
8BE6
102
}
330
8BE6
100
AcDbXrecord
 10
0.0
 20
0.0
 30
0.0
  0
XRECORD
  5
8C05
102
{ACAD_REACTORS
330
8BE6
102
}
330
8BE6
100
AcDbXrecord
 10
0.0
 20
0.0
 30
0.0
  0
XRECORD
  5
8C03
102
{ACAD_REACTORS
330
8BE6
102
}
330
8BE6
100
AcDbXrecord
 10
0.0
 20
0.0
 30
0.0
  0
XRECORD
  5
8C04
102
{ACAD_REACTORS
330
8BE6
102
}
330
8BE6
100
AcDbXrecord
 10
0.0
 20
0.0
 30
0.0
  0
XRECORD
  5
8C01
102
{ACAD_REACTORS
330
8BE6
102
}
330
8BE6
100
AcDbXrecord
 10
0.0
 20
0.0
 30
0.0
  0
XRECORD
  5
8BFE
102
{ACAD_REACTORS
330
8BE6
102
}
330
8BE6
100
AcDbXrecord
340
0
  0
XRECORD
  5
8BFF
102
{ACAD_REACTORS
330
8BE6
102
}
330
8BE6
100
AcDbXrecord
 70
     0
  0
XRECORD
  5
8BF2
102
{ACAD_REACTORS
330
8BE6
102
}
330
8BE6
100
AcDbXrecord
  1
{03744716-46DE-48D2-91C6-ABB8672729B6}
  0
DICTIONARYVAR
  5
6B7A
102
{ACAD_REACTORS
330
6B78
102
}
330
6B78
100
DictionaryVariables
280
     0
  1
1
  0
DICTIONARYVAR
  5
6B79
102
{ACAD_REACTORS
330
6B78
102
}
330
6B78
100
DictionaryVariables
280
     0
  1
1
  0
DICTIONARY
  5
6B3F
102
{ACAD_REACTORS
330
6B39
102
}
330
6B39
100
AcDbDictionary
  0
DICTIONARY
  5
6B23
102
{ACAD_REACTORS
330
6B22
102
}
330
6B22
100
AcDbDictionary
  3
DWGSETTINGS
350
6B24
  0
LAYER_INDEX
  5
6B64
102
{ACAD_REACTORS
330
6B63
102
}
330
6B63
100
AcDbIndex
 40
2453793.326236481
100
AcDbLayerIndex
  8
0
360
6B65
 90
        0
  8
DEFPOINTS
360
6B66
 90
        0
  8
1
360
6B67
 90
       29
  8
2
360
6B68
 90
        4
  8
4
360
6B69
 90
        3
  8
6
360
6B6A
 90
        3
  8
SK1
360
6B6B
 90
       21
  8
SK2
360
6B6C
 90
        2
  8
SK3
360
6B6D
 90
        6
  8
SK4
360
6B6E
 90
        1
  8
CUT
360
6B6F
 90
        8
  8
NOCUT
360
6B70
 90
        6
  0
XRECORD
  5
6B24
102
{ACAD_REACTORS
330
6B23
102
}
330
6B23
100
AcDbXrecord
  1
VERSION
140
15.0
  1
PRODUCT
  2
AutoCAD Mechanical 2000
  0
IDBUFFER
  5
6B65
330
0
100
AcDbIdBuffer
  0
IDBUFFER
  5
6B66
330
0
100
AcDbIdBuffer
  0
IDBUFFER
  5
6B67
330
0
100
AcDbIdBuffer
330
811E
330
8147
330
814F
330
816C
330
844B
330
8486
330
87D9
330
8834
330
8836
330
8838
330
883A
330
883C
330
8841
330
8843
330
8845
330
8847
330
884D
330
884F
330
8851
330
8852
330
8854
330
8858
330
8859
330
889F
330
88B9
330
88EE
330
88F6
330
88FE
330
8B76
  0
IDBUFFER
  5
6B68
330
0
100
AcDbIdBuffer
330
8933
330
8960
330
89BB
330
89E3
  0
IDBUFFER
  5
6B69
330
0
100
AcDbIdBuffer
330
755F
330
8027
330
8B78
  0
IDBUFFER
  5
6B6A
330
0
100
AcDbIdBuffer
330
7545
330
7F0E
330
8AA7
  0
IDBUFFER
  5
6B6B
330
0
100
AcDbIdBuffer
330
7554
330
7555
330
7556
330
7561
330
7563
330
7588
330
7589
330
758A
330
87DA
330
87DB
330
87DC
330
87DD
330
87DE
330
87DF
330
87E0
330
87E1
330
87E2
330
87E3
330
87E4
330
87E5
330
8B83
  0
IDBUFFER
  5
6B6C
330
0
100
AcDbIdBuffer
330
8A5F
330
8A37
  0
IDBUFFER
  5
6B6D
330
0
100
AcDbIdBuffer
330
8695
330
8696
330
884C
330
884E
330
8850
330
8857
  0
IDBUFFER
  5
6B6E
330
0
100
AcDbIdBuffer
330
752A
  0
IDBUFFER
  5
6B6F
330
0
100
AcDbIdBuffer
330
8835
330
8837
330
8839
330
883B
330
8840
330
8842
330
8844
330
8846
  0
IDBUFFER
  5
6B70
330
0
100
AcDbIdBuffer
330
755E
330
8120
330
8499
330
88A8
330
8906
330
890A
  0
ENDSEC
  0
EOF
