  0
SECTION
  2
HEADER
  9
$ACADVER
  1
AC1015
  9
$ACADMAINTVER
 70
    20
  9
$DWGCODEPAGE
  3
ANSI_1252
  9
$INSBASE
 10
0.0
 20
0.0
 30
0.0
  9
$EXTMIN
 10
-26.982695181601
 20
-21.28967189845821
 30
-0.0015258207003583
  9
$EXTMAX
 10
70.40698319534659
 20
27.64068655627864
 30
0.0000000349246037
  9
$LIMMIN
 10
0.0
 20
0.0
  9
$LIMMAX
 10
594.0
 20
420.0
  9
$ORTHOMODE
 70
     0
  9
$REGENMODE
 70
     1
  9
$FILLMODE
 70
     1
  9
$QTEXTMODE
 70
     0
  9
$MIRRTEXT
 70
     0
  9
$LTSCALE
 40
10.0
  9
$ATTMODE
 70
     1
  9
$TEXTSIZE
 40
0.2
  9
$TRACEWID
 40
0.05
  9
$TEXTSTYLE
  7
STANDARD
  9
$CLAYER
  8
0
  9
$CELTYPE
  6
ByLayer
  9
$CECOLOR
 62
   256
  9
$CELTSCALE
 40
1.0
  9
$DISPSILH
 70
     0
  9
$DIMSCALE
 40
1.0
  9
$DIMASZ
 40
2.5
  9
$DIMEXO
 40
0.625
  9
$DIMDLI
 40
3.75
  9
$DIMRND
 40
0.0
  9
$DIMDLE
 40
0.0
  9
$DIMEXE
 40
1.25
  9
$DIMTP
 40
0.0
  9
$DIMTM
 40
0.0
  9
$DIMTXT
 40
2.5
  9
$DIMCEN
 40
2.5
  9
$DIMTSZ
 40
0.0
  9
$DIMTOL
 70
     0
  9
$DIMLIM
 70
     0
  9
$DIMTIH
 70
     0
  9
$DIMTOH
 70
     0
  9
$DIMSE1
 70
     0
  9
$DIMSE2
 70
     0
  9
$DIMTAD
 70
     1
  9
$DIMZIN
 70
     8
  9
$DIMBLK
  1

  9
$DIMASO
 70
     1
  9
$DIMSHO
 70
     1
  9
$DIMPOST
  1

  9
$DIMAPOST
  1

  9
$DIMALT
 70
     0
  9
$DIMALTD
 70
     3
  9
$DIMALTF
 40
0.03937007874016
  9
$DIMLFAC
 40
1.0
  9
$DIMTOFL
 70
     1
  9
$DIMTVP
 40
0.0
  9
$DIMTIX
 70
     0
  9
$DIMSOXD
 70
     0
  9
$DIMSAH
 70
     0
  9
$DIMBLK1
  1

  9
$DIMBLK2
  1

  9
$DIMSTYLE
  2
ISO-25
  9
$DIMCLRD
 70
     0
  9
$DIMCLRE
 70
     0
  9
$DIMCLRT
 70
     0
  9
$DIMTFAC
 40
1.0
  9
$DIMGAP
 40
0.625
  9
$DIMJUST
 70
     0
  9
$DIMSD1
 70
     0
  9
$DIMSD2
 70
     0
  9
$DIMTOLJ
 70
     0
  9
$DIMTZIN
 70
     8
  9
$DIMALTZ
 70
     0
  9
$DIMALTTZ
 70
     0
  9
$DIMUPT
 70
     0
  9
$DIMDEC
 70
     2
  9
$DIMTDEC
 70
     2
  9
$DIMALTU
 70
     2
  9
$DIMALTTD
 70
     3
  9
$DIMTXSTY
  7
STANDARD
  9
$DIMAUNIT
 70
     0
  9
$DIMADEC
 70
     0
  9
$DIMALTRND
 40
0.0
  9
$DIMAZIN
 70
     0
  9
$DIMDSEP
 70
    44
  9
$DIMATFIT
 70
     3
  9
$DIMFRAC
 70
     0
  9
$DIMLDRBLK
  1

  9
$DIMLUNIT
 70
     2
  9
$DIMLWD
 70
    -2
  9
$DIMLWE
 70
    -2
  9
$DIMTMOVE
 70
     0
  9
$LUNITS
 70
     2
  9
$LUPREC
 70
     4
  9
$SKETCHINC
 40
0.1
  9
$FILLETRAD
 40
0.0
  9
$AUNITS
 70
     0
  9
$AUPREC
 70
     0
  9
$MENU
  1

  9
$ELEVATION
 40
0.0
  9
$PELEVATION
 40
0.0
  9
$THICKNESS
 40
0.0
  9
$LIMCHECK
 70
     0
  9
$CHAMFERA
 40
0.0
  9
$CHAMFERB
 40
0.0
  9
$CHAMFERC
 40
0.0
  9
$CHAMFERD
 40
0.0
  9
$SKPOLY
 70
     0
  9
$TDCREATE
 40
2454209.330473021
  9
$TDUCREATE
 40
2454209.247139688
  9
$TDUPDATE
 40
2454209.673449537
  9
$TDUUPDATE
 40
2454209.590116204
  9
$TDINDWG
 40
0.0415047338
  9
$TDUSRTIMER
 40
0.0404965509
  9
$USRTIMER
 70
     1
  9
$ANGBASE
 50
0.0
  9
$ANGDIR
 70
     0
  9
$PDMODE
 70
     0
  9
$PDSIZE
 40
2.5
  9
$PLINEWID
 40
0.0
  9
$SPLFRAME
 70
     0
  9
$SPLINETYPE
 70
     6
  9
$SPLINESEGS
 70
     8
  9
$HANDSEED
  5
1C9F
  9
$SURFTAB1
 70
     6
  9
$SURFTAB2
 70
     6
  9
$SURFTYPE
 70
     6
  9
$SURFU
 70
     6
  9
$SURFV
 70
     6
  9
$UCSBASE
  2

  9
$UCSNAME
  2

  9
$UCSORG
 10
0.0
 20
0.0
 30
0.0
  9
$UCSXDIR
 10
1.0
 20
0.0
 30
0.0
  9
$UCSYDIR
 10
0.0
 20
1.0
 30
0.0
  9
$UCSORTHOREF
  2

  9
$UCSORTHOVIEW
 70
     0
  9
$UCSORGTOP
 10
0.0
 20
0.0
 30
0.0
  9
$UCSORGBOTTOM
 10
0.0
 20
0.0
 30
0.0
  9
$UCSORGLEFT
 10
0.0
 20
0.0
 30
0.0
  9
$UCSORGRIGHT
 10
0.0
 20
0.0
 30
0.0
  9
$UCSORGFRONT
 10
0.0
 20
0.0
 30
0.0
  9
$UCSORGBACK
 10
0.0
 20
0.0
 30
0.0
  9
$PUCSBASE
  2

  9
$PUCSNAME
  2

  9
$PUCSORG
 10
0.0
 20
0.0
 30
0.0
  9
$PUCSXDIR
 10
1.0
 20
0.0
 30
0.0
  9
$PUCSYDIR
 10
0.0
 20
1.0
 30
0.0
  9
$PUCSORTHOREF
  2

  9
$PUCSORTHOVIEW
 70
     0
  9
$PUCSORGTOP
 10
0.0
 20
0.0
 30
0.0
  9
$PUCSORGBOTTOM
 10
0.0
 20
0.0
 30
0.0
  9
$PUCSORGLEFT
 10
0.0
 20
0.0
 30
0.0
  9
$PUCSORGRIGHT
 10
0.0
 20
0.0
 30
0.0
  9
$PUCSORGFRONT
 10
0.0
 20
0.0
 30
0.0
  9
$PUCSORGBACK
 10
0.0
 20
0.0
 30
0.0
  9
$USERI1
 70
     0
  9
$USERI2
 70
     0
  9
$USERI3
 70
     0
  9
$USERI4
 70
     0
  9
$USERI5
 70
     0
  9
$USERR1
 40
0.0
  9
$USERR2
 40
0.0
  9
$USERR3
 40
0.0
  9
$USERR4
 40
0.0
  9
$USERR5
 40
0.0
  9
$WORLDVIEW
 70
     1
  9
$SHADEDGE
 70
     3
  9
$SHADEDIF
 70
    70
  9
$TILEMODE
 70
     1
  9
$MAXACTVP
 70
    64
  9
$PINSBASE
 10
0.0
 20
0.0
 30
0.0
  9
$PLIMCHECK
 70
     0
  9
$PEXTMIN
 10
100.0
 20
100.0
 30
100.0
  9
$PEXTMAX
 10
-100.0
 20
-100.0
 30
-100.0
  9
$PLIMMIN
 10
0.0
 20
0.0
  9
$PLIMMAX
 10
12.0
 20
9.0
  9
$UNITMODE
 70
     0
  9
$VISRETAIN
 70
     1
  9
$PLINEGEN
 70
     1
  9
$PSLTSCALE
 70
     1
  9
$TREEDEPTH
 70
  3020
  9
$CMLSTYLE
  2
Standard
  9
$CMLJUST
 70
     0
  9
$CMLSCALE
 40
1.0
  9
$PROXYGRAPHICS
 70
     1
  9
$MEASUREMENT
 70
     0
  9
$CELWEIGHT
370
    -1
  9
$ENDCAPS
280
     0
  9
$JOINSTYLE
280
     0
  9
$LWDISPLAY
290
     0
  9
$INSUNITS
 70
     0
  9
$HYPERLINKBASE
  1

  9
$STYLESHEET
  1

  9
$XEDIT
290
     1
  9
$CEPSNTYPE
380
     0
  9
$PSTYLEMODE
290
     1
  9
$FINGERPRINTGUID
  2
{E911A120-F424-4B61-BCF7-8A6FFDD4E3C2}
  9
$VERSIONGUID
  2
{03F74817-E0A7-4750-8410-FAD22E5F06B6}
  9
$EXTNAMES
290
     1
  9
$PSVPSCALE
 40
0.0
  9
$OLESTARTUP
290
     0
  0
ENDSEC
  0
SECTION
  2
CLASSES
  0
CLASS
  1
ACDBDICTIONARYWDFLT
  2
AcDbDictionaryWithDefault
  3
ObjectDBX Classes
 90
        0
280
     0
281
     0
  0
CLASS
  1
TABLESTYLE
  2
AcDbTableStyle
  3
ObjectDBX Classes
 90
     2047
280
     0
281
     0
  0
CLASS
  1
DICTIONARYVAR
  2
AcDbDictionaryVar
  3
ObjectDBX Classes
 90
        0
280
     0
281
     0
  0
CLASS
  1
SORTENTSTABLE
  2
AcDbSortentsTable
  3
ObjectDBX Classes
 90
        0
280
     0
281
     0
  0
CLASS
  1
ACDBPLACEHOLDER
  2
AcDbPlaceHolder
  3
ObjectDBX Classes
 90
        0
280
     0
281
     0
  0
CLASS
  1
LAYOUT
  2
AcDbLayout
  3
ObjectDBX Classes
 90
        0
280
     0
281
     0
  0
ENDSEC
  0
SECTION
  2
TABLES
  0
TABLE
  2
VPORT
  5
8
330
0
100
AcDbSymbolTable
 70
     6
  0
VPORT
  5
1C99
330
8
100
AcDbSymbolTableRecord
100
AcDbViewportTableRecord
  2
*Active
 70
     0
 10
0.0
 20
0.0
 11
1.0
 21
1.0
 12
21.71214400687279
 22
3.175507328910214
 13
0.0
 23
0.0
 14
1.0
 24
1.0
 15
0.0
 25
0.0
 16
0.0
 26
0.0
 36
1.0
 17
0.0
 27
0.0
 37
0.0
 40
64.62712281887771
 41
1.514429109159347
 42
50.0
 43
0.0
 44
0.0
 50
0.0
 51
0.0
 71
     0
 72
   100
 73
     1
 74
     1
 75
     0
 76
     0
 77
     0
 78
     0
281
     0
 65
     1
110
0.0
120
0.0
130
0.0
111
1.0
121
0.0
131
0.0
112
0.0
122
1.0
132
0.0
 79
     0
146
0.0
  0
ENDTAB
  0
TABLE
  2
LTYPE
  5
5
330
0
100
AcDbSymbolTable
 70
     6
  0
LTYPE
  5
13
330
5
100
AcDbSymbolTableRecord
100
AcDbLinetypeTableRecord
  2
ByBlock
 70
     0
  3

 72
    65
 73
     0
 40
0.0
  0
LTYPE
  5
14
330
5
100
AcDbSymbolTableRecord
100
AcDbLinetypeTableRecord
  2
ByLayer
 70
     0
  3

 72
    65
 73
     0
 40
0.0
  0
LTYPE
  5
15
330
5
100
AcDbSymbolTableRecord
100
AcDbLinetypeTableRecord
  2
CONTINUOUS
 70
     0
  3
Solid line
 72
    65
 73
     0
 40
0.0
  0
LTYPE
  5
27
330
5
100
AcDbSymbolTableRecord
100
AcDbLinetypeTableRecord
  2
CENTER
 70
     0
  3
____ _ ____ _ ____ _ ____ _ ____ _ ____ _ ____
 72
    65
 73
     4
 40
0.6
 49
0.375
 74
     0
 49
-0.075
 74
     0
 49
0.075
 74
     0
 49
-0.075
 74
     0
  0
LTYPE
  5
28
330
5
100
AcDbSymbolTableRecord
100
AcDbLinetypeTableRecord
  2
HIDDEN
 70
     0
  3
- - - - - - - - - - - - - - - - - - - -
 72
    65
 73
     2
 40
0.2
 49
0.1
 74
     0
 49
-0.1
 74
     0
  0
ENDTAB
  0
TABLE
  2
LAYER
  5
2
330
0
100
AcDbSymbolTable
 70
    16
  0
LAYER
  5
10
330
2
100
AcDbSymbolTableRecord
100
AcDbLayerTableRecord
  2
0
 70
     0
 62
     7
  6
CONTINUOUS
370
    -3
390
F
  0
LAYER
  5
2C
330
2
100
AcDbSymbolTableRecord
100
AcDbLayerTableRecord
  2
SK1
 70
     0
 62
     4
  6
CONTINUOUS
370
    -3
390
F
  0
LAYER
  5
2D
330
2
100
AcDbSymbolTableRecord
100
AcDbLayerTableRecord
  2
1
 70
     0
 62
     4
  6
CONTINUOUS
370
    -3
390
F
  0
LAYER
  5
2E
330
2
100
AcDbSymbolTableRecord
100
AcDbLayerTableRecord
  2
2
 70
     0
 62
     7
  6
CONTINUOUS
370
    -3
390
F
  0
LAYER
  5
2F
330
2
100
AcDbSymbolTableRecord
100
AcDbLayerTableRecord
  2
SK2
 70
     0
 62
     7
  6
CONTINUOUS
370
    -3
390
F
  0
LAYER
  5
30
330
2
100
AcDbSymbolTableRecord
100
AcDbLayerTableRecord
  2
3
 70
     0
 62
     1
  6
HIDDEN
370
    -3
390
F
  0
LAYER
  5
31
330
2
100
AcDbSymbolTableRecord
100
AcDbLayerTableRecord
  2
SK3
 70
     0
 62
     1
  6
HIDDEN
370
    -3
390
F
  0
LAYER
  5
32
330
2
100
AcDbSymbolTableRecord
100
AcDbLayerTableRecord
  2
4
 70
     0
 62
     2
  6
CENTER
370
    -3
390
F
  0
LAYER
  5
33
330
2
100
AcDbSymbolTableRecord
100
AcDbLayerTableRecord
  2
SK4
 70
     0
 62
     2
  6
CENTER
370
    -3
390
F
  0
LAYER
  5
36
330
2
100
AcDbSymbolTableRecord
100
AcDbLayerTableRecord
  2
6
 70
     0
 62
     5
  6
CONTINUOUS
370
    -3
390
F
  0
LAYER
  5
1824
330
2
100
AcDbSymbolTableRecord
100
AcDbLayerTableRecord
  2
Defpoints
 70
     0
 62
     7
  6
CONTINUOUS
290
     0
370
    -3
390
F
  0
LAYER
  5
1825
330
2
100
AcDbSymbolTableRecord
100
AcDbLayerTableRecord
  2
CUT
 70
     0
 62
     1
  6
CONTINUOUS
370
    -3
390
F
  0
LAYER
  5
1826
330
2
100
AcDbSymbolTableRecord
100
AcDbLayerTableRecord
  2
NOCUT
 70
     0
 62
     7
  6
CONTINUOUS
370
    -3
390
F
  0
ENDTAB
  0
TABLE
  2
STYLE
  5
3
330
0
100
AcDbSymbolTable
 70
     3
  0
STYLE
  5
11
330
3
100
AcDbSymbolTableRecord
100
AcDbTextStyleTableRecord
  2
STANDARD
 70
     0
 40
0.0
 41
0.8
 50
0.0
 71
     0
 42
0.2
  3
ISOCP
  4

  0
ENDTAB
  0
TABLE
  2
VIEW
  5
6
330
0
100
AcDbSymbolTable
 70
     0
  0
ENDTAB
  0
TABLE
  2
UCS
  5
7
330
0
100
AcDbSymbolTable
 70
     0
  0
ENDTAB
  0
TABLE
  2
APPID
  5
9
330
0
100
AcDbSymbolTable
 70
     1
  0
APPID
  5
12
330
9
100
AcDbSymbolTableRecord
100
AcDbRegAppTableRecord
  2
ACAD
 70
     0
  0
ENDTAB
  0
TABLE
  2
DIMSTYLE
  5
A
330
0
100
AcDbSymbolTable
 70
     2
100
AcDbDimStyleTable
 71
     2
340
1827
340
3A
  0
DIMSTYLE
105
3A
330
A
100
AcDbSymbolTableRecord
100
AcDbDimStyleTableRecord
  2
STANDARD
 70
     0
279
     2
340
11
  0
DIMSTYLE
105
1827
102
{ACAD_REACTORS
330
1829
330
182A
330
182B
330
1977
330
1978
330
5B0
330
5B1
330
5B3
330
1BB2
330
1C49
102
}
330
A
100
AcDbSymbolTableRecord
100
AcDbDimStyleTableRecord
  2
ISO-25
 70
     0
 41
2.5
 42
0.625
 43
3.75
 44
1.25
 73
     0
 74
     0
 77
     1
 78
     8
140
2.5
141
2.5
143
0.03937007874016
147
0.625
171
     3
172
     1
271
     2
272
     2
274
     3
278
    44
283
     0
284
     8
340
11
  0
ENDTAB
  0
TABLE
  2
BLOCK_RECORD
  5
1
330
0
100
AcDbSymbolTable
 70
    47
  0
BLOCK_RECORD
  5
22
102
{ACAD_XDICTIONARY
360
1B9F
102
}
330
1
100
AcDbSymbolTableRecord
100
AcDbBlockTableRecord
  2
*Model_Space
340
25
  0
BLOCK_RECORD
  5
1E
330
1
100
AcDbSymbolTableRecord
100
AcDbBlockTableRecord
  2
*Paper_Space
340
21
  0
BLOCK_RECORD
  5
17D9
330
1
100
AcDbSymbolTableRecord
100
AcDbBlockTableRecord
  2
nullp
340
0
310
2800000020000000200000000100080000000000000400000000000000000000000000000000000000000000000080000080000000808000800000008000800080800000C0C0C000C0DCC000F0CAA6000020400000206000002080000020A0000020C0000020E00000400000004020000040400000406000004080000040A0
310
000040C0000040E00000600000006020000060400000606000006080000060A0000060C0000060E00000800000008020000080400000806000008080000080A0000080C0000080E00000A0000000A0200000A0400000A0600000A0800000A0A00000A0C00000A0E00000C0000000C0200000C0400000C0600000C0800000C0
310
A00000C0C00000C0E00000E0000000E0200000E0400000E0600000E0800000E0A00000E0C00000E0E00040000000400020004000400040006000400080004000A0004000C0004000E00040200000402020004020400040206000402080004020A0004020C0004020E000404000004040200040404000404060004040800040
310
40A0004040C0004040E00040600000406020004060400040606000406080004060A0004060C0004060E00040800000408020004080400040806000408080004080A0004080C0004080E00040A0000040A0200040A0400040A0600040A0800040A0A00040A0C00040A0E00040C0000040C0200040C0400040C0600040C08000
310
40C0A00040C0C00040C0E00040E0000040E0200040E0400040E0600040E0800040E0A00040E0C00040E0E00080000000800020008000400080006000800080008000A0008000C0008000E00080200000802020008020400080206000802080008020A0008020C0008020E00080400000804020008040400080406000804080
310
008040A0008040C0008040E00080600000806020008060400080606000806080008060A0008060C0008060E00080800000808020008080400080806000808080008080A0008080C0008080E00080A0000080A0200080A0400080A0600080A0800080A0A00080A0C00080A0E00080C0000080C0200080C0400080C0600080C0
310
800080C0A00080C0C00080C0E00080E0000080E0200080E0400080E0600080E0800080E0A00080E0C00080E0E000C0000000C0002000C0004000C0006000C0008000C000A000C000C000C000E000C0200000C0202000C0204000C0206000C0208000C020A000C020C000C020E000C0400000C0402000C0404000C0406000C0
310
408000C040A000C040C000C040E000C0600000C0602000C0604000C0606000C0608000C060A000C060C000C060E000C0800000C0802000C0804000C0806000C0808000C080A000C080C000C080E000C0A00000C0A02000C0A04000C0A06000C0A08000C0A0A000C0A0C000C0A0E000C0C00000C0C02000C0C04000C0C06000
310
C0C08000C0C0A000F0FBFF00A4A0A000808080000000FF0000FF000000FFFF00FF000000FF00FF00FFFF0000FFFFFF0000000000000000000000000000000000000000000000000000000000000000000000000000000000000000000000FEFEFE00000000000000000000000000000000000000000000000000FEFEFEFEFE
310
FEFEFEFE000000000000000000000000000000000000000000FEFEFEFEFEFEFEFEFE0000FEFE000000000000000000000000000000000000FEFEFEFEFEFEFEFEFEFE00000000FEFE00000000000000000000000000000000FEFEFEFEFEFEFEFEFEFE000000000000FEFE00000000000000000000000000FEFEFEFEFEFEFEFE
310
FEFEFE0000000000000000FEFE00000000000000000000FEFEFEFEFEFEFEFEFEFEFEFE000000000000000000FE000000000000000000FEFEFEFEFEFEFEFEFEFEFEFEFE00000000000000000000FE00000000000000FEFEFEFEFEFEFEFEFEFEFEFEFEFE00000000000000000000FE000000000000FEFEFEFEFEFEFEFEFEFEFE
310
FEFEFEFE0000000000000000000000FE0000000000FEFEFEFEFEFEFEFEFEFEFEFEFEFEFE0000000000000000000000FE0000000000FEFEFEFEFEFEFEFEFEFEFEFEFEFEFE0000000000000000000000FE00000000FEFEFEFEFEFEFEFEFEFEFEFEFEFEFEFE000000000000000000000000FE000000FEFEFEFEFEFEFEFEFEFEFE
310
FEFEFEFEFE000000000000000000000000FE000000FEFEFEFEFEFEFEFEFEFEFEFEFEFEFEFE00000000000000000000000000FE0000FEFEFEFEFEFEFEFEFEFEFEFEFEFEFEFEFEFEFEFEFEFEFEFEFEFEFEFEFEFE000000FE000000000000000000000000FEFEFEFEFEFEFEFEFEFEFEFEFEFEFEFE000000FE0000000000000000
310
00000000FEFEFEFEFEFEFEFEFEFEFEFEFEFEFEFE000000FE000000000000000000000000FEFEFEFEFEFEFEFEFEFEFEFEFEFEFE00000000FE000000000000000000000000FEFEFEFEFEFEFEFEFEFEFEFEFEFEFE0000000000FE0000000000000000000000FEFEFEFEFEFEFEFEFEFEFEFEFEFEFE000000000000FE0000000000
310
0000000000FEFEFEFEFEFEFEFEFEFEFEFEFEFE00000000000000FE00000000000000000000FEFEFEFEFEFEFEFEFEFEFEFEFE000000000000000000FE000000000000000000FEFEFEFEFEFEFEFEFEFEFEFE0000000000000000000000FE0000000000000000FEFEFEFEFEFEFEFEFEFEFEFE000000000000000000000000FE00
310
000000000000FEFEFEFEFEFEFEFEFEFEFE00000000000000000000000000FE00000000000000FEFEFEFEFEFEFEFEFE00000000000000000000000000000000FEFEFEFEFE0000FEFEFEFEFEFEFEFE00000000000000000000000000000000000000000000FEFEFEFEFEFEFEFEFE000000000000000000000000000000000000
310
00000000000000FEFEFEFE000000000000000000000000000000000000000000000000000000000000000000000000000000000000000000
102
{BLKREFS
331
1975
331
1ACA
102
}
  0
BLOCK_RECORD
  5
17E2
330
1
100
AcDbSymbolTableRecord
100
AcDbBlockTableRecord
  2
nullp1
340
0
310
2800000020000000200000000100080000000000000400000000000000000000000000000000000000000000000080000080000000808000800000008000800080800000C0C0C000C0DCC000F0CAA6000020400000206000002080000020A0000020C0000020E00000400000004020000040400000406000004080000040A0
310
000040C0000040E00000600000006020000060400000606000006080000060A0000060C0000060E00000800000008020000080400000806000008080000080A0000080C0000080E00000A0000000A0200000A0400000A0600000A0800000A0A00000A0C00000A0E00000C0000000C0200000C0400000C0600000C0800000C0
310
A00000C0C00000C0E00000E0000000E0200000E0400000E0600000E0800000E0A00000E0C00000E0E00040000000400020004000400040006000400080004000A0004000C0004000E00040200000402020004020400040206000402080004020A0004020C0004020E000404000004040200040404000404060004040800040
310
40A0004040C0004040E00040600000406020004060400040606000406080004060A0004060C0004060E00040800000408020004080400040806000408080004080A0004080C0004080E00040A0000040A0200040A0400040A0600040A0800040A0A00040A0C00040A0E00040C0000040C0200040C0400040C0600040C08000
310
40C0A00040C0C00040C0E00040E0000040E0200040E0400040E0600040E0800040E0A00040E0C00040E0E00080000000800020008000400080006000800080008000A0008000C0008000E00080200000802020008020400080206000802080008020A0008020C0008020E00080400000804020008040400080406000804080
310
008040A0008040C0008040E00080600000806020008060400080606000806080008060A0008060C0008060E00080800000808020008080400080806000808080008080A0008080C0008080E00080A0000080A0200080A0400080A0600080A0800080A0A00080A0C00080A0E00080C0000080C0200080C0400080C0600080C0
310
800080C0A00080C0C00080C0E00080E0000080E0200080E0400080E0600080E0800080E0A00080E0C00080E0E000C0000000C0002000C0004000C0006000C0008000C000A000C000C000C000E000C0200000C0202000C0204000C0206000C0208000C020A000C020C000C020E000C0400000C0402000C0404000C0406000C0
310
408000C040A000C040C000C040E000C0600000C0602000C0604000C0606000C0608000C060A000C060C000C060E000C0800000C0802000C0804000C0806000C0808000C080A000C080C000C080E000C0A00000C0A02000C0A04000C0A06000C0A08000C0A0A000C0A0C000C0A0E000C0C00000C0C02000C0C04000C0C06000
310
C0C08000C0C0A000F0FBFF00A4A0A000808080000000FF0000FF000000FFFF00FF000000FF00FF00FFFF0000FFFFFF00000000000000000000000000000000000000000000000000000000000000000000000000000000000000000000000000FE0000000000000000000000000000000000000000000000000000000000FE
310
FEFEFEFE000000000000000000000000000000000000000000FEFEFEFEFEFE0000FE0000FEFE000000000000000000000000000000000000FE0000000000000000FE00000000FEFE00000000000000000000000000000000FE0000000000000000FE000000000000FEFE00000000000000000000000000FE00000000000000
310
0000FE0000000000000000FEFE00000000000000000000FE00000000000000000000FE000000000000000000FE000000000000000000FE0000000000000000000000FE00000000000000000000FE0000000000000000FE0000000000000000000000FE00000000000000000000FE00000000000000FE000000000000000000
310
000000FE0000000000000000000000FE0000000000FE00000000000000000000000000FE0000000000000000000000FE0000000000FE00000000000000000000000000FE0000000000000000000000FE0000000000FE00000000000000000000000000FE000000000000000000000000FE00000000FE000000000000000000
310
00000000FE000000000000000000000000FE00000000FE00000000000000000000000000FE00000000000000000000000000FE0000FEFEFEFEFEFEFEFEFEFEFEFEFEFEFEFEFEFEFEFEFEFEFEFEFEFEFEFEFEFE000000FE00000000000000000000000000FE00000000000000000000000000FE000000FE0000000000000000
310
0000000000FE000000000000000000000000FE00000000FE00000000000000000000000000FE000000000000000000000000FE00000000FE00000000000000000000000000FE0000000000000000000000FE000000000000FE000000000000000000000000FE0000000000000000000000FE00000000000000FE0000000000
310
000000000000FE00000000000000000000FE0000000000000000FE0000000000000000000000FE00000000000000000000FE000000000000000000FE00000000000000000000FE000000000000000000FE0000000000000000000000FE000000000000000000FE000000000000000000FE000000000000000000000000FE00
310
00000000000000FE00000000000000FEFE00000000000000000000000000FE0000000000000000FE0000000000FEFE00000000000000000000000000000000FEFEFEFEFE000000FE000000FEFE0000000000000000000000000000000000000000000000FEFEFEFEFEFEFE0000000000000000000000000000000000000000
310
0000000000000000FE0000000000000000000000000000000000000000000000000000000000000000000000000000000000000000000000
102
{BLKREFS
331
1976
331
1ACB
102
}
  0
BLOCK_RECORD
  5
1B37
330
1
100
AcDbSymbolTableRecord
100
AcDbBlockTableRecord
  2
*D41
340
0
  0
BLOCK_RECORD
  5
1B43
330
1
100
AcDbSymbolTableRecord
100
AcDbBlockTableRecord
  2
*D42
340
0
  0
BLOCK_RECORD
  5
1B4F
330
1
100
AcDbSymbolTableRecord
100
AcDbBlockTableRecord
  2
*D43
340
0
  0
BLOCK_RECORD
  5
1BB3
330
1
100
AcDbSymbolTableRecord
100
AcDbBlockTableRecord
  2
*D45
340
0
  0
BLOCK_RECORD
  5
1C4A
330
1
100
AcDbSymbolTableRecord
100
AcDbBlockTableRecord
  2
*D46
340
0
  0
ENDTAB
  0
ENDSEC
  0
SECTION
  2
BLOCKS
  0
BLOCK
  5
23
330
22
100
AcDbEntity
  8
0
100
AcDbBlockBegin
  2
*Model_Space
 70
     0
 10
0.0
 20
0.0
 30
0.0
  3
*Model_Space
  1

  0
ENDBLK
  5
24
330
22
100
AcDbEntity
  8
0
100
AcDbBlockEnd
  0
BLOCK
  5
1F
330
1E
100
AcDbEntity
 67
     1
  8
0
100
AcDbBlockBegin
  2
*Paper_Space
 70
     0
 10
0.0
 20
0.0
 30
0.0
  3
*Paper_Space
  1

  0
ENDBLK
  5
20
330
1E
100
AcDbEntity
 67
     1
  8
0
100
AcDbBlockEnd
  0
BLOCK
  5
17DA
330
17D9
100
AcDbEntity
  8
0
100
AcDbBlockBegin
  2
nullp
 70
     0
 10
0.0
 20
0.0
 30
0.0
  3
nullp
  1

  0
HATCH
  5
17DB
330
17D9
100
AcDbEntity
  8
1
100
AcDbHatch
 10
0.0
 20
0.0
 30
0.0
210
0.0
220
0.0
230
1.0
  2
SOLID
 70
     1
 71
     0
 91
        2
 92
        7
 72
     1
 73
     1
 93
        3
 10
271.9386450411704
 20
389.8959796344513
 42
0.0
 10
274.8896170952829
 20
389.8959796344513
 42
0.4142135623730966
 10
271.9386450411704
 20
392.8469516885638
 42
0.0
 97
        0
 92
        7
 72
     1
 73
     1
 93
        3
 10
271.9386450411704
 20
386.9450075803387
 42
0.0
 10
271.9386450411704
 20
389.8959796344513
 42
0.0
 10
268.9876729870576
 20
389.8959796344513
 42
0.4142135623730966
 97
        0
 75
     0
 76
     1
 47
0.1190009775223266
 98
        2
 10
272.6831980999823
 20
390.8172041078278
 10
270.6591804393174
 20
388.1991827114049
  0
LWPOLYLINE
  5
17DC
330
17D9
100
AcDbEntity
  8
1
100
AcDbPolyline
 90
        3
 70
     1
 43
0.0
 10
271.9386450411702
 20
389.8959796344513
 10
268.9876729870576
 20
389.8959796344513
 42
0.4142135623730966
 10
271.9386450411702
 20
386.9450075803387
  0
LINE
  5
17DD
330
17D9
100
AcDbEntity
  8
1
100
AcDbLine
 10
271.9386450411702
 20
392.8469516885638
 30
0.0
 11
271.9386450411702
 21
386.9450075803387
 31
0.0
  0
LWPOLYLINE
  5
17DE
330
17D9
100
AcDbEntity
  8
1
100
AcDbPolyline
 90
        3
 70
     1
 43
0.0
 10
271.9386450411702
 20
392.8469516885638
 10
271.9386450411702
 20
389.8959796344513
 10
274.8896170952829
 20
389.8959796344513
 42
0.4142135623730966
  0
LINE
  5
17DF
330
17D9
100
AcDbEntity
  8
1
100
AcDbLine
 10
268.9876729870575
 20
389.8959796344513
 30
0.0
 11
274.8896170952828
 21
389.8959796344513
 31
0.0
  0
CIRCLE
  5
17E0
330
17D9
100
AcDbEntity
  8
1
100
AcDbCircle
 10
271.9386450411704
 20
389.8959796344513
 30
0.0
 40
2.950972054112601
  0
ENDBLK
  5
17E1
330
17D9
100
AcDbEntity
  8
0
100
AcDbBlockEnd
  0
BLOCK
  5
17E3
330
17E2
100
AcDbEntity
  8
0
100
AcDbBlockBegin
  2
nullp1
 70
     0
 10
0.0
 20
0.0
 30
0.0
  3
nullp1
  1

  0
LINE
  5
17E4
330
17E2
100
AcDbEntity
  8
1
100
AcDbLine
 10
442.6007601796219
 20
432.5849634019313
 30
0.0
 11
443.5282989193195
 21
432.5849634019313
 31
0.0
  0
CIRCLE
  5
17E5
330
17E2
100
AcDbEntity
  8
1
100
AcDbCircle
 10
443.0645295494706
 20
432.5849634019313
 30
0.0
 40
0.463769369848821
  0
LINE
  5
17E6
330
17E2
100
AcDbEntity
  8
1
100
AcDbLine
 10
443.0645295494706
 20
433.0487327717801
 30
0.0
 11
443.0645295494706
 21
432.1211940320826
 31
0.0
  0
ENDBLK
  5
17E7
330
17E2
100
AcDbEntity
  8
0
100
AcDbBlockEnd
  0
BLOCK
  5
1B41
330
1B37
100
AcDbEntity
  8
0
100
AcDbBlockBegin
  2
*D41
 70
     1
 10
0.0
 20
0.0
 30
0.0
  3
*D41
  1

  0
LINE
  5
1C68
330
1B37
100
AcDbEntity
  8
SK2
 62
     0
370
    -2
100
AcDbLine
 10
-18.32499999999999
 20
4.0
 30
0.0
 11
-25.22429411165078
 21
4.000000000000001
 31
0.0
  0
LINE
  5
1C69
330
1B37
100
AcDbEntity
  8
SK2
 62
     0
370
    -2
100
AcDbLine
 10
-18.32499999999999
 20
-3.999999999999999
 30
0.0
 11
-25.22429411165078
 21
-3.999999999999996
 31
0.0
  0
LINE
  5
1C6A
330
1B37
100
AcDbEntity
  8
SK2
 62
     0
370
    -2
100
AcDbLine
 10
-23.97429411165078
 20
1.500000000000001
 30
0.0
 11
-23.97429411165078
 21
-1.499999999999998
 31
0.0
  0
SOLID
  5
1C6B
330
1B37
100
AcDbEntity
  8
SK2
 62
     0
100
AcDbTrace
 10
-24.39096077831745
 20
1.500000000000001
 30
0.0
 11
-23.55762744498411
 21
1.500000000000001
 31
0.0
 12
-23.97429411165078
 22
4.000000000000001
 32
0.0
 13
-23.97429411165078
 23
4.000000000000001
 33
0.0
  0
SOLID
  5
1C6C
330
1B37
100
AcDbEntity
  8
SK2
 62
     0
100
AcDbTrace
 10
-24.39096077831745
 20
-1.499999999999998
 30
0.0
 11
-23.55762744498411
 21
-1.499999999999998
 31
0.0
 12
-23.97429411165078
 22
-3.999999999999998
 32
0.0
 13
-23.97429411165078
 23
-3.999999999999998
 33
0.0
  0
MTEXT
  5
1C6D
330
1B37
100
AcDbEntity
  8
SK2
 62
     0
100
AcDbMText
 10
-25.84929411165078
 20
0.0142118473999633
 30
0.0
 40
2.5
 41
0.0
 71
     5
 72
     1
  1
M8
 11
0.0000000000000001
 21
1.0
 31
0.0
 73
     1
 44
1.0
1001
ACAD
1000
MTEXTBEGIN
1070
    73
1070
     1
1070
    44
1040
1.0
1070
    74
1070
     0
1000
MTEXTEND
  0
POINT
  5
1C6E
330
1B37
100
AcDbEntity
  8
Defpoints
 62
     0
100
AcDbPoint
 10
-17.69999999999999
 20
4.0
 30
0.0
  0
POINT
  5
1C6F
330
1B37
100
AcDbEntity
  8
Defpoints
 62
     0
100
AcDbPoint
 10
-17.69999999999999
 20
-3.999999999999999
 30
0.0
  0
POINT
  5
1C70
330
1B37
100
AcDbEntity
  8
Defpoints
 62
     0
100
AcDbPoint
 10
-23.97429411165078
 20
-3.999999999999998
 30
0.0
  0
ENDBLK
  5
1B42
330
1B37
100
AcDbEntity
  8
0
100
AcDbBlockEnd
  0
BLOCK
  5
1B4D
330
1B43
100
AcDbEntity
  8
0
100
AcDbBlockBegin
  2
*D42
 70
     1
 10
0.0
 20
0.0
 30
0.0
  3
*D42
  1

  0
LINE
  5
1C71
330
1B43
100
AcDbEntity
  8
2
 62
     0
370
    -2
100
AcDbLine
 10
-0.4000000000000056
 20
8.240665466455766
 30
0.0
 11
-0.400000000000005
 21
19.67988337365932
 31
0.0
  0
LINE
  5
1C72
330
1B43
100
AcDbEntity
  8
2
 62
     0
370
    -2
100
AcDbLine
 10
29.59999999999999
 20
0.125
 30
0.0
 11
29.59999999999999
 21
19.67988337365932
 31
0.0
  0
LINE
  5
1C73
330
1B43
100
AcDbEntity
  8
2
 62
     0
370
    -2
100
AcDbLine
 10
2.099999999999995
 20
18.42988337365932
 30
0.0
 11
27.09999999999999
 21
18.42988337365932
 31
0.0
  0
SOLID
  5
1C74
330
1B43
100
AcDbEntity
  8
2
 62
     0
100
AcDbTrace
 10
2.099999999999995
 20
18.84655004032599
 30
0.0
 11
2.099999999999995
 21
18.01321670699265
 31
0.0
 12
-0.400000000000005
 22
18.42988337365932
 32
0.0
 13
-0.400000000000005
 23
18.42988337365932
 33
0.0
  0
SOLID
  5
1C75
330
1B43
100
AcDbEntity
  8
2
 62
     0
100
AcDbTrace
 10
27.09999999999999
 20
18.84655004032599
 30
0.0
 11
27.09999999999999
 21
18.01321670699265
 31
0.0
 12
29.59999999999999
 22
18.42988337365932
 32
0.0
 13
29.59999999999999
 23
18.42988337365932
 33
0.0
  0
MTEXT
  5
1C76
330
1B43
100
AcDbEntity
  8
2
 62
     0
100
AcDbMText
 10
14.35413544712267
 20
20.30488337365932
 30
0.0
 40
2.5
 41
0.0
 71
     5
 72
     1
  1
30
 73
     1
 44
1.0
1001
ACAD
1000
MTEXTBEGIN
1070
    73
1070
     1
1070
    44
1040
1.0
1070
    74
1070
     0
1000
MTEXTEND
  0
POINT
  5
1C77
330
1B43
100
AcDbEntity
  8
Defpoints
 62
     0
100
AcDbPoint
 10
-0.4000000000000057
 20
7.615665466455766
 30
0.0
  0
POINT
  5
1C78
330
1B43
100
AcDbEntity
  8
Defpoints
 62
     0
100
AcDbPoint
 10
29.59999999999999
 20
-0.5
 30
0.0
  0
POINT
  5
1C79
330
1B43
100
AcDbEntity
  8
Defpoints
 62
     0
100
AcDbPoint
 10
29.59999999999999
 20
18.42988337365932
 30
0.0
  0
ENDBLK
  5
1B4E
330
1B43
100
AcDbEntity
  8
0
100
AcDbBlockEnd
  0
BLOCK
  5
1B59
330
1B4F
100
AcDbEntity
  8
0
100
AcDbBlockBegin
  2
*D43
 70
     1
 10
0.0
 20
0.0
 30
0.0
  3
*D43
  1

  0
LINE
  5
1C7A
330
1B4F
100
AcDbEntity
  8
2
 62
     0
370
    -2
100
AcDbLine
 10
30.18611062540001
 20
-7.5
 30
0.0
 11
51.2910956206861
 21
-7.500000000000006
 31
0.0
  0
LINE
  5
1C7B
330
1B4F
100
AcDbEntity
  8
2
 62
     0
370
    -2
100
AcDbLine
 10
22.7094126930231
 20
7.5
 30
0.0
 11
51.2910956206861
 21
7.499999999999992
 31
0.0
  0
LINE
  5
1C7C
330
1B4F
100
AcDbEntity
  8
2
 62
     0
370
    -2
100
AcDbLine
 10
50.0410956206861
 20
-5.000000000000006
 30
0.0
 11
50.0410956206861
 21
4.999999999999992
 31
0.0
  0
SOLID
  5
1C7D
330
1B4F
100
AcDbEntity
  8
2
 62
     0
100
AcDbTrace
 10
49.62442895401943
 20
-5.000000000000005
 30
0.0
 11
50.45776228735276
 21
-5.000000000000006
 31
0.0
 12
50.0410956206861
 22
-7.500000000000006
 32
0.0
 13
50.0410956206861
 23
-7.500000000000006
 33
0.0
  0
SOLID
  5
1C7E
330
1B4F
100
AcDbEntity
  8
2
 62
     0
100
AcDbTrace
 10
49.62442895401943
 20
4.999999999999992
 30
0.0
 11
50.45776228735276
 21
4.999999999999992
 31
0.0
 12
50.0410956206861
 22
7.499999999999992
 32
0.0
 13
50.0410956206861
 23
7.499999999999992
 33
0.0
  0
MTEXT
  5
1C7F
330
1B4F
100
AcDbEntity
  8
2
 62
     0
100
AcDbMText
 10
48.1660956206861
 20
-0.2387766995732361
 30
0.0
 40
2.5
 41
0.0
 71
     5
 72
     1
  1
%%c15
 11
0.0000000000000001
 21
1.0
 31
0.0
 73
     1
 44
1.0
1001
ACAD
1000
MTEXTBEGIN
1070
    73
1070
     1
1070
    44
1040
1.0
1070
    74
1070
     0
1000
MTEXTEND
  0
POINT
  5
1C80
330
1B4F
100
AcDbEntity
  8
Defpoints
 62
     0
100
AcDbPoint
 10
29.56111062540001
 20
-7.5
 30
0.0
  0
POINT
  5
1C81
330
1B4F
100
AcDbEntity
  8
Defpoints
 62
     0
100
AcDbPoint
 10
22.0844126930231
 20
7.5
 30
0.0
  0
POINT
  5
1C82
330
1B4F
100
AcDbEntity
  8
Defpoints
 62
     0
100
AcDbPoint
 10
50.0410956206861
 20
7.499999999999992
 30
0.0
  0
ENDBLK
  5
1B5A
330
1B4F
100
AcDbEntity
  8
0
100
AcDbBlockEnd
  0
BLOCK
  5
1BBE
330
1BB3
100
AcDbEntity
  8
0
100
AcDbBlockBegin
  2
*D45
 70
     1
 10
0.0
 20
0.0
 30
0.0
  3
*D45
  1

  0
LINE
  5
1C83
330
1BB3
100
AcDbEntity
  8
0
 62
     0
370
    -2
100
AcDbLine
 10
31.011193293356
 20
2.249999999999999
 30
0.0
 11
44.92490619626326
 21
2.249999999999996
 31
0.0
  0
LINE
  5
1C84
330
1BB3
100
AcDbEntity
  8
0
 62
     0
370
    -2
100
AcDbLine
 10
31.011193293356
 20
-2.25
 30
0.0
 11
44.92490619626326
 21
-2.250000000000003
 31
0.0
  0
LINE
  5
1C85
330
1BB3
100
AcDbEntity
  8
0
 62
     0
370
    -2
100
AcDbLine
 10
43.67490619626326
 20
-4.750000000000004
 30
0.0
 11
43.67490619626326
 21
-7.250000000000004
 31
0.0
  0
LINE
  5
1C86
330
1BB3
100
AcDbEntity
  8
0
 62
     0
370
    -2
100
AcDbLine
 10
43.67490619626326
 20
4.749999999999995
 30
0.0
 11
43.67490619626326
 21
15.51743409140987
 31
0.0
  0
LINE
  5
1C87
330
1BB3
100
AcDbEntity
  8
0
 62
     0
370
    -2
100
AcDbLine
 10
43.67490619626326
 20
-2.250000000000003
 30
0.0
 11
43.67490619626326
 21
2.249999999999996
 31
0.0
  0
SOLID
  5
1C88
330
1BB3
100
AcDbEntity
  8
0
 62
     0
100
AcDbTrace
 10
43.2582395295966
 20
-4.750000000000004
 30
0.0
 11
44.09157286292993
 21
-4.750000000000004
 31
0.0
 12
43.67490619626326
 22
-2.250000000000003
 32
0.0
 13
43.67490619626326
 23
-2.250000000000003
 33
0.0
  0
SOLID
  5
1C89
330
1BB3
100
AcDbEntity
  8
0
 62
     0
100
AcDbTrace
 10
43.2582395295966
 20
4.749999999999995
 30
0.0
 11
44.09157286292993
 21
4.749999999999995
 31
0.0
 12
43.67490619626326
 22
2.249999999999996
 32
0.0
 13
43.67490619626326
 23
2.249999999999996
 33
0.0
  0
MTEXT
  5
1C8A
330
1BB3
100
AcDbEntity
  8
0
 62
     0
100
AcDbMText
 10
41.61240619626326
 20
12.40101273517257
 30
0.0
 40
2.5
 41
0.0
 71
     5
 72
     1
  1
%%c4,5
 11
0.0000000000000001
 21
1.0
 31
0.0
 73
     1
 44
1.0
1001
ACAD
1000
MTEXTBEGIN
1070
    73
1070
     1
1070
    44
1040
1.0
1070
    74
1070
     0
1000
MTEXTEND
  0
POINT
  5
1C8B
330
1BB3
100
AcDbEntity
  8
Defpoints
 62
     0
100
AcDbPoint
 10
30.386193293356
 20
2.25
 30
0.0
  0
POINT
  5
1C8C
330
1BB3
100
AcDbEntity
  8
Defpoints
 62
     0
100
AcDbPoint
 10
30.386193293356
 20
-2.25
 30
0.0
  0
POINT
  5
1C8D
330
1BB3
100
AcDbEntity
  8
Defpoints
 62
     0
100
AcDbPoint
 10
43.67490619626326
 20
-2.250000000000003
 30
0.0
  0
ENDBLK
  5
1BBF
330
1BB3
100
AcDbEntity
  8
0
100
AcDbBlockEnd
  0
BLOCK
  5
1C54
330
1C4A
100
AcDbEntity
  8
0
100
AcDbBlockBegin
  2
*D46
 70
     1
 10
0.0
 20
0.0
 30
0.0
  3
*D46
  1

  0
LINE
  5
1C8E
330
1C4A
100
AcDbEntity
  8
2
 62
     0
370
    -2
100
AcDbLine
 10
29.59999999999999
 20
8.125
 30
0.0
 11
29.59999999999999
 21
14.43006243974946
 31
0.0
  0
LINE
  5
1C8F
330
1C4A
100
AcDbEntity
  8
2
 62
     0
370
    -2
100
AcDbLine
 10
14.59999999999999
 20
8.125
 30
0.0
 11
14.59999999999999
 21
14.43006243974946
 31
0.0
  0
LINE
  5
1C90
330
1C4A
100
AcDbEntity
  8
2
 62
     0
370
    -2
100
AcDbLine
 10
27.09999999999999
 20
13.18006243974946
 30
0.0
 11
17.09999999999999
 21
13.18006243974946
 31
0.0
  0
SOLID
  5
1C91
330
1C4A
100
AcDbEntity
  8
2
 62
     0
100
AcDbTrace
 10
27.09999999999999
 20
13.59672910641613
 30
0.0
 11
27.09999999999999
 21
12.76339577308279
 31
0.0
 12
29.59999999999999
 22
13.18006243974946
 32
0.0
 13
29.59999999999999
 23
13.18006243974946
 33
0.0
  0
SOLID
  5
1C92
330
1C4A
100
AcDbEntity
  8
2
 62
     0
100
AcDbTrace
 10
17.09999999999999
 20
13.59672910641613
 30
0.0
 11
17.09999999999999
 21
12.76339577308279
 31
0.0
 12
14.59999999999999
 22
13.18006243974946
 32
0.0
 13
14.59999999999999
 23
13.18006243974946
 33
0.0
  0
MTEXT
  5
1C93
330
1C4A
100
AcDbEntity
  8
2
 62
     0
100
AcDbMText
 10
22.09999999999999
 20
15.05506243974946
 30
0.0
 40
2.5
 41
0.0
 71
     5
 72
     1
  1
15
 73
     1
 44
1.0
1001
ACAD
1000
MTEXTBEGIN
1070
    73
1070
     1
1070
    44
1040
1.0
1070
    74
1070
     0
1000
MTEXTEND
  0
POINT
  5
1C94
330
1C4A
100
AcDbEntity
  8
Defpoints
 62
     0
100
AcDbPoint
 10
29.59999999999999
 20
7.5
 30
0.0
  0
POINT
  5
1C95
330
1C4A
100
AcDbEntity
  8
Defpoints
 62
     0
100
AcDbPoint
 10
14.59999999999999
 20
7.5
 30
0.0
  0
POINT
  5
1C96
330
1C4A
100
AcDbEntity
  8
Defpoints
 62
     0
100
AcDbPoint
 10
14.59999999999999
 20
13.18006243974946
 30
0.0
  0
ENDBLK
  5
1C55
330
1C4A
100
AcDbEntity
  8
0
100
AcDbBlockEnd
  0
ENDSEC
  0
SECTION
  2
ENTITIES
  0
DIMENSION
  5
5B0
330
22
100
AcDbEntity
  8
SK2
100
AcDbDimension
  2
*D41
 10
-23.97429411165078
 20
-3.999999999999998
 30
0.0
 11
-23.97429411165078
 21
0.0142118473999631
 31
0.0
 70
   160
  1
M<>
 71
     5
 42
8.0
  3
ISO-25
100
AcDbAlignedDimension
 13
-17.69999999999999
 23
4.0
 33
0.0
 14
-17.69999999999999
 24
-4.0
 34
0.0
 50
270.0
100
AcDbRotatedDimension
  0
DIMENSION
  5
5B1
330
22
100
AcDbEntity
  8
2
100
AcDbDimension
  2
*D42
 10
29.59999999999999
 20
18.42988337365932
 30
0.0
 11
14.35413544712267
 21
18.42988337365932
 31
0.0
 70
   160
  1
<>
 71
     5
 42
30.0
  3
ISO-25
100
AcDbAlignedDimension
 13
-0.4000000000000057
 23
7.615665466455766
 33
0.0
 14
29.59999999999999
 24
-0.5
 34
0.0
100
AcDbRotatedDimension
  0
DIMENSION
  5
5B3
330
22
100
AcDbEntity
  8
2
100
AcDbDimension
  2
*D43
 10
50.0410956206861
 20
7.499999999999992
 30
0.0
 11
50.0410956206861
 21
-0.2387766995732363
 31
0.0
 70
   160
  1
%%c<>
 71
     5
 42
15.0
  3
ISO-25
100
AcDbAlignedDimension
 13
29.56111062540001
 23
-7.5
 33
0.0
 14
22.0844126930231
 24
7.5
 34
0.0
 50
90.0
100
AcDbRotatedDimension
  0
TEXT
  5
5B4
330
22
100
AcDbEntity
  8
6
100
AcDbText
 10
-10.32353686434599
 20
-21.46082739359759
 30
0.0
 40
3.5
  1
15C1D015030X5R01
 41
1.199999999999999
 72
     1
 11
12.35646313565397
 21
-21.46082739359759
 31
0.0
100
AcDbText
  0
LWPOLYLINE
  5
6A2
330
22
100
AcDbEntity
  8
CUT
100
AcDbPolyline
 90
      249
 70
     1
 43
0.0
 10
29.59999999999999
 20
-1.996557999999993
 10
29.59999999999999
 20
-7.10439500000001
 10
29.5998453121
 20
-7.11491992460003
 10
29.59940800000001
 20
-7.125437000000033
 10
29.5986901883
 20
-7.135902122700031
 10
29.59769
 20
-7.146343999999999
 10
29.5964077875
 20
-7.156748785400054
 10
29.594844
 20
-7.167115000000023
 10
29.59299589920002
 20
-7.177459154700045
 10
29.59087099999999
 20
-7.187749999999994
 10
29.58845271520002
 20
-7.198069258600014
 10
29.58576600000001
 20
-7.208322000000009
 10
29.58277983420001
 20
-7.218627552200018
 10
29.57952700000002
 20
-7.228852000000017
 10
29.5759828846
 20
-7.239054696799996
 10
29.57216700000001
 20
-7.24915900000002
 10
29.56807154550001
 20
-7.259169809800027
 10
29.56369800000002
 20
-7.269062000000019
 10
29.55902839000001
 20
-7.278863074700041
 10
29.55409600000002
 20
-7.288535000000024
 10
29.54883424959999
 20
-7.298228953500029
 10
29.54332300000002
 20
-7.307783000000029
 10
29.53752499149999
 20
-7.317246567100028
 10
29.53147300000001
 20
-7.326549999999997
 10
29.52519077459999
 20
-7.335645240000019
 10
29.51864600000002
 20
-7.344553000000018
 10
29.51189172190002
 20
-7.353184568300036
 10
29.50488400000001
 20
-7.361612000000036
 10
29.4975833224
 20
-7.369892589600055
 10
29.49005099999999
 20
-7.377963000000022
 10
29.48227199970001
 20
-7.385845606000032
 10
29.474277
 20
-7.393508999999994
 10
29.46610295010001
 20
-7.400919169400026
 10
29.45772400000001
 20
-7.408096999999997
 10
29.4492110486
 20
-7.41497870750004
 10
29.44049900000002
 20
-7.421605999999997
 10
29.4315198148
 20
-7.428015332000029
 10
29.42235700000001
 20
-7.434160000000019
 10
29.412996757
 20
-7.440068670600055
 10
29.403481
 20
-7.445723000000043
 10
29.39388663900002
 20
-7.451087956100025
 10
29.38415800000001
 20
-7.456206000000008
 10
29.37446637010001
 20
-7.460996973900023
 10
29.36465100000001
 20
-7.465528000000006
 10
29.35476008129999
 20
-7.469759832000022
 10
29.34475499999999
 20
-7.473715000000026
 10
29.33467093870002
 20
-7.477389035100031
 10
29.32449300000002
 20
-7.480794000000003
 10
29.31430566510002
 20
-7.483909581900036
 10
29.30404200000001
 20
-7.486763999999993
 10
29.29384100950003
 20
-7.489326215500057
 10
29.283578
 20
-7.491626999999994
 10
29.2733553395
 20
-7.493640069900038
 10
29.263083
 20
-7.495382000000006
 10
29.25280124069999
 20
-7.496843496600035
 10
29.24248400000002
 20
-7.49802900000003
 10
29.23214279870001
 20
-7.498937450300047
 10
29.221781
 20
-7.499569000000008
 10
29.21138038860002
 20
-7.499923908700054
 10
29.200974
 20
-7.5
 10
28.30660700000001
 20
-7.494654000000025
 10
27.23336500000002
 20
-7.488923999999997
 10
25.80237700000001
 20
-7.482448000000033
 10
24.90800899999999
 20
-7.479077000000017
 10
24.01364100000001
 20
-7.476228000000048
 10
24.0030881314
 20
-7.476043414700029
 10
23.99254400000001
 20
-7.475575000000048
 10
23.98204748580003
 20
-7.47482523900004
 10
23.971575
 20
-7.473793
 10
23.96113586740003
 20
-7.472478604500054
 10
23.95073600000001
 20
-7.470883000000014
 10
23.94035351509999
 20
-7.469002365500045
 10
23.930025
 20
-7.466845000000034
 10
23.91966446940001
 20
-7.464393094500053
 10
23.90937099999999
 20
-7.461673000000018
 10
23.8990207873
 20
-7.458652505500026
 10
23.88875200000001
 20
-7.455366000000026
 10
23.8785010869
 20
-7.451787323800033
 10
23.868349
 20
-7.447937000000024
 10
23.8582881241
 20
-7.443805773000065
 10
23.84834599999999
 20
-7.439397000000042
 10
23.83849152709999
 20
-7.434691926100015
 10
23.828766
 20
-7.429725000000019
 10
23.81901558939998
 20
-7.424427589500055
 10
23.809405
 20
-7.418880999999998
 10
23.7998826207
 20
-7.41304672800004
 10
23.79052000000001
 20
-7.406959000000028
 10
23.78136347349999
 20
-7.400640618700037
 10
23.77239400000002
 20
-7.394060000000024
 10
23.76370039990002
 20
-7.387269935500057
 10
23.75521
 20
-7.380227000000047
 10
23.7468643798
 20
-7.372891666900045
 10
23.73872800000001
 20
-7.365325000000041
 10
23.73077875300001
 20
-7.357511111100052
 10
23.72304800000001
 20
-7.349481000000025
 10
23.71557041770001
 20
-7.341272951200039
 10
23.70832400000001
 20
-7.332860000000039
 10
23.70137395270001
 20
-7.324314171900027
 10
23.69467700000001
 20
-7.315569000000039
 10
23.6881971814
 20
-7.306557648700049
 10
23.68198100000001
 20
-7.29736200000002
 10
23.676001372
 20
-7.287970132100042
 10
23.670275
 20
-7.278422000000034
 10
23.66483856159999
 20
-7.268797548600048
 10
23.659648
 20
-7.259038000000032
 10
23.65478645110002
 20
-7.249317431700035
 10
23.650184
 20
-7.239472000000034
 10
23.64588157680001
 20
-7.229553725400023
 10
23.64185499999999
 20
-7.219520000000045
 10
23.6381107464
 20
-7.209409653900024
 10
23.634635
 20
-7.199204000000008
 10
23.63144973680002
 20
-7.188991861800047
 10
23.628525
 20
-7.178702000000043
 10
23.62589408009998
 20
-7.168478251100054
 10
23.623524
 20
-7.158191000000044
 10
23.62144245290003
 20
-7.147946175800029
 10
23.61963199999999
 20
-7.137650000000007
 10
23.61810345040002
 20
-7.127348115700044
 10
23.616851
 20
-7.117008999999995
 10
23.61587602290001
 20
-7.106649660000016
 10
23.61517800000001
 20
-7.096268000000009
 10
23.61475715900002
 20
-7.085850293600003
 10
23.61461600000001
 20
-7.075424999999995
 10
23.61461600000001
 20
-1.890890000000013
 10
23.61476966970002
 20
-1.880434027600017
 10
23.615207
 20
-1.869986000000039
 10
23.6159252052
 20
-1.859594285100058
 10
23.61692600000001
 20
-1.849226000000044
 10
23.61820816830002
 20
-1.838900056400007
 10
23.61977200000001
 20
-1.828613000000018
 10
23.62161986070001
 20
-1.818352579900022
 10
23.62374500000001
 20
-1.808146000000022
 10
23.62616312669999
 20
-1.797916410500079
 10
23.62885
 20
-1.787754000000006
 10
23.63183543580001
 20
-1.777544497000008
 10
23.63508799999999
 20
-1.767417000000023
 10
23.63863161900003
 20
-1.757316115900039
 10
23.642448
 20
-1.747315000000014
 10
23.6465437818
 20
-1.737411963400006
 10
23.65091800000002
 20
-1.727629000000035
 10
23.65558754849999
 20
-1.71794012850006
 10
23.66052000000002
 20
-1.708382000000028
 10
23.66578100730001
 20
-1.69880802800003
 10
23.67129199999999
 20
-1.689376000000038
 10
23.67708990860001
 20
-1.680037773800052
 10
23.683142
 20
-1.670861999999999
 10
23.6894248909
 20
-1.661895498400042
 10
23.69597000000002
 20
-1.653119000000003
 10
23.70272470960001
 20
-1.644619171200076
 10
23.709732
 20
-1.636325999999996
 10
23.71703313900002
 20
-1.628181040200047
 10
23.72456500000001
 20
-1.620249000000001
 10
23.73234463910001
 20
-1.612506033800059
 10
23.74033900000001
 20
-1.604984999999999
 10
23.74851403029999
 20
-1.597716151500037
 10
23.756892
 20
-1.590682000000015
 10
23.7654061385
 20
-1.583941591100028
 10
23.77411700000002
 20
-1.577458000000035
 10
23.78309763150003
 20
-1.57119220030006
 10
23.792259
 20
-1.565193000000022
 10
23.80162081750001
 20
-1.559427712800072
 10
23.81113500000001
 20
-1.55391800000001
 10
23.82073085939999
 20
-1.548694438700067
 10
23.83045799999999
 20
-1.54371900000001
 10
23.84015135130002
 20
-1.539066275800053
 10
23.849965
 20
-1.534673999999995
 10
23.8598573214
 20
-1.530577221100031
 10
23.86986000000002
 20
-1.526757000000031
 10
23.87994641730001
 20
-1.523214322800072
 10
23.89012300000002
 20
-1.519940000000019
 10
23.90031215049999
 20
-1.51695067060001
 10
23.910574
 20
-1.51422100000002
 10
23.92077621560003
 20
-1.511778692600046
 10
23.93103700000001
 20
-1.509596000000044
 10
23.94126186950001
 20
-1.507696284500013
 10
23.95153300000001
 20
-1.506065000000035
 10
23.9618163566
 20
-1.504709591900052
 10
23.97213200000002
 20
-1.503626999999994
 10
23.98247460779999
 20
-1.502817827400065
 10
23.99283500000001
 20
-1.502282000000036
 10
24.00323636689999
 20
-1.502018587300028
 10
24.01364100000001
 20
-1.502028999999993
 10
24.55026200000001
 20
-1.510204000000044
 10
25.086883
 20
-1.519262000000026
 10
25.623503
 20
-1.529188000000033
 10
26.160124
 20
-1.539963999999997
 10
26.69674499999999
 20
-1.551573000000018
 10
27.23336500000002
 20
-1.563997000000028
 10
27.76998600000002
 20
-1.577215000000023
 10
28.30660700000001
 20
-1.591209000000048
 10
28.84322700000002
 20
-1.605958000000043
 10
29.200974
 20
-1.616198999999994
 10
29.2115300689
 20
-1.616646312400064
 10
29.222072
 20
-1.617352000000039
 10
29.2325697917
 20
-1.618312995300072
 10
29.243041
 20
-1.619529999999997
 10
29.25348008220002
 20
-1.621002537700007
 10
29.26388
 20
-1.622730000000046
 10
29.27426059700002
 20
-1.624716489600075
 10
29.28459000000001
 20
-1.626954000000012
 10
29.2949484351
 20
-1.629459249000035
 10
29.30524500000002
 20
-1.632208000000048
 10
29.31559155240001
 20
-1.635230066200051
 10
29.325864
 20
-1.638495000000034
 10
29.336109475
 20
-1.64202317330006
 10
29.34626600000001
 20
-1.645800000000008
 10
29.3563211513
 20
-1.649826300000029
 10
29.36627000000001
 20
-1.654108000000007
 10
29.3761177749
 20
-1.658652429400035
 10
29.38585000000001
 20
-1.663440000000036
 10
29.3955932266
 20
-1.668524442200009
 10
29.40521100000001
 20
-1.673842000000036
 10
29.41472535930001
 20
-1.67941258860003
 10
29.42409600000002
 20
-1.68522200000001
 10
29.43324301979999
 20
-1.691227828000023
 10
29.44222100000002
 20
-1.697483000000033
 10
29.45090603260002
 20
-1.703912455600061
 10
29.459406
 20
-1.710585000000037
 10
29.4677430468
 20
-1.717511064400071
 10
29.475888
 20
-1.724662000000023
 10
29.48382913629999
 20
-1.732022843800052
 10
29.491568
 20
-1.739596000000005
 10
29.4990379226
 20
-1.747315331500033
 10
29.506292
 20
-1.755238000000019
 10
29.51323470930001
 20
-1.763262611300035
 10
29.519939
 20
-1.771487000000036
 10
29.52641162329999
 20
-1.779938812100056
 10
29.532634
 20
-1.788577000000032
 10
29.53860887870002
 20
-1.797379157600062
 10
29.544341
 20
-1.806341000000031
 10
29.54977340200003
 20
-1.815357808399994
 10
29.554968
 20
-1.824514000000021
 10
29.55982593070002
 20
-1.833618248600032
 10
29.56443200000001
 20
-1.842851999999993
 10
29.56873149399999
 20
-1.852138711200041
 10
29.57276100000001
 20
-1.861546000000032
 10
29.5765025664
 20
-1.871011957900009
 10
29.57998000000001
 20
-1.880578000000014
 10
29.58316420850002
 20
-1.890140512600055
 10
29.58609100000001
 20
-1.899785000000008
 10
29.5887211864
 20
-1.90935930400002
 10
29.591092
 20
-1.919001000000037
 10
29.59317228340001
 20
-1.928596745800064
 10
29.59498300000002
 20
-1.938247000000046
 10
29.59651173379999
 20
-1.947897690400054
 10
29.59776500000001
 20
-1.957588000000043
 10
29.59873952750001
 20
-1.967294574600032
 10
29.599437
 20
-1.977025000000026
 10
29.59985768580001
 20
-1.986787502400034
  0
LWPOLYLINE
  5
E6C
330
22
100
AcDbEntity
  8
1
100
AcDbPolyline
 90
       12
 70
     0
 43
0.0
 10
29.04464372960001
 20
-6.560394997699972
 10
29.03191729639999
 20
-6.591690927800016
 10
29.01551790540001
 20
-6.621868414400012
 10
28.99576597629999
 20
-6.650183547200015
 10
28.97281437149999
 20
-6.675859529400042
 10
28.94709401170002
 20
-6.698700197499988
 10
28.91882687879999
 20
-6.718293779600003
 10
28.88879265200001
 20
-6.734510303799993
 10
28.85775336660001
 20
-6.747049567600015
 10
28.8259839356
 20
-6.756010490500045
 10
28.79407939910001
 20
-6.761391780900055
 10
28.76184141030001
 20
-6.763193869199994
  0
LINE
  5
E7A
330
22
100
AcDbEntity
  8
1
100
AcDbLine
 10
28.62797928950002
 20
-6.77674321500001
 30
0.0
 11
29.06111062540001
 21
-6.526191459800031
 31
0.0
  0
LWPOLYLINE
  5
E7B
330
22
100
AcDbEntity
  8
1
100
AcDbPolyline
 90
        7
 70
     0
 43
0.0
 10
28.08623025850002
 20
7.04716176940002
 10
28.09518541500001
 20
7.049515260600003
 10
28.104234564
 20
7.051448403799952
 10
28.11339495300001
 20
7.0529636439
 10
28.1226148396
 20
7.054053645999999
 10
28.13184248140002
 20
7.054711074700037
 10
28.14109512580001
 20
7.054938375099993
  0
LWPOLYLINE
  5
E84
330
22
100
AcDbEntity
  8
1
100
AcDbPolyline
 90
       11
 70
     0
 43
0.0
 10
24.7298996076
 20
6.451866150599983
 10
24.7145747834
 20
6.450636703200018
 10
24.6997143717
 20
6.447038019099977
 10
24.6850724416
 20
6.441004871599943
 10
24.67138678540002
 20
6.432732940500045
 10
24.65922591309999
 20
6.422238908000053
 10
24.6488517402
 20
6.409994539299987
 10
24.64071846350001
 20
6.396289951500023
 10
24.63481774920001
 20
6.381686772199998
 10
24.63131054530001
 20
6.366925626500005
 10
24.63014320260001
 20
6.351759639299984
  0
LWPOLYLINE
  5
E91
330
22
100
AcDbEntity
  8
1
100
AcDbPolyline
 90
       15
 70
     0
 43
0.0
 10
24.01364131860001
 20
7.474086420599974
 10
23.97008228330003
 20
7.471551478899982
 10
23.92707726130002
 20
7.464169477600023
 10
23.8843555167
 20
7.451922518499998
 10
23.84272925689999
 20
7.434864295800025
 10
23.80259062259998
 20
7.412899400500009
 10
23.76492907779999
 20
7.386457244400048
 10
23.73077782869998
 20
7.355743371699986
 10
23.7003977896
 20
7.321333976999994
 10
23.67433665210001
 20
7.283526382099978
 10
23.6527672901
 20
7.243362749899972
 10
23.63608899830001
 20
7.201861941099991
 10
23.62417020550001
 20
7.159391184400021
 10
23.6170126298
 20
7.116745685299974
 10
23.6146156984
 20
7.073660375199949
  0
LWPOLYLINE
  5
EA2
330
22
100
AcDbEntity
  8
1
100
AcDbPolyline
 90
       15
 70
     0
 43
0.0
 10
24.24257496709998
 20
7.102251636000005
 10
24.21512418150002
 20
7.10065412269995
 10
24.18802253360002
 20
7.096002005500054
 10
24.1610994063
 20
7.088284005100035
 10
24.13486665060001
 20
7.077533959599975
 10
24.1095713924
 20
7.063691742300022
 10
24.08583718930001
 20
7.047027967500014
 10
24.06431516500001
 20
7.027672168399988
 10
24.04516974700002
 20
7.005987461500012
 10
24.02874608900001
 20
6.982161218000044
 10
24.01515313569999
 20
6.956850206200044
 10
24.00464252160001
 20
6.930696509299991
 10
23.99713133080002
 20
6.903931553999996
 10
23.99262064610002
 20
6.877056476400014
 10
23.99111010639999
 20
6.849904231100026
  0
LWPOLYLINE
  5
EB3
330
22
100
AcDbEntity
  8
1
100
AcDbPolyline
 90
       13
 70
     0
 43
0.0
 10
11.89289321880002
 20
6.43720972129995
 10
11.9257856602
 20
6.438627600800032
 10
11.95837267340002
 20
6.442184802399992
 10
11.9907230464
 20
6.447898466100014
 10
12.02263041490002
 20
6.455717172399999
 10
12.05395421650002
 20
6.465615554499947
 10
12.0845658325
 20
6.477532594099955
 10
12.11432655080003
 20
6.491422257799968
 10
12.14312608970002
 20
6.507214223599987
 10
12.1708419389
 20
6.524849303000053
 10
12.19737207299999
 20
6.54424806220004
 10
12.22255577210001
 20
6.565298942300046
 10
12.24644660939998
 20
6.588039129499975
  0
LWPOLYLINE
  5
EC2
330
22
100
AcDbEntity
  8
1
100
AcDbPolyline
 90
        7
 70
     0
 43
0.0
 10
27.85321819480001
 20
6.988097180899956
 10
27.86247081290003
 20
6.98832447929999
 10
27.871698439
 20
6.988981905899947
 10
27.8809183207
 20
6.990071905100023
 10
27.89007871520002
 20
6.991587143999993
 10
27.8991278798
 20
6.993520289499997
 10
27.90808306220001
 20
6.995873786099991
  0
LWPOLYLINE
  5
ECB
330
22
100
AcDbEntity
  8
1
100
AcDbPolyline
 90
        7
 70
     0
 43
0.0
 10
28.2293941481
 20
6.456136902799983
 10
28.22014153000001
 20
6.455909604400005
 10
28.21091390390001
 20
6.455252177799991
 10
28.20169402229999
 20
6.454162178600029
 10
28.19253362780001
 20
6.452646939700002
 10
28.1834844631
 20
6.450713794199998
 10
28.17452928080001
 20
6.448360297600004
  0
LINE
  5
ED4
330
22
100
AcDbEntity
  8
1
100
AcDbLine
 10
10.39187539009998
 20
6.421679162399982
 30
0.0
 11
9.64326701889999
 21
6.413282498199976
 31
0.0
  0
LINE
  5
ED5
330
22
100
AcDbEntity
  8
1
100
AcDbLine
 10
11.1417822425
 20
6.429655484099953
 30
0.0
 11
10.39187539009998
 21
6.421679162399982
 31
0.0
  0
LINE
  5
ED6
330
22
100
AcDbEntity
  8
1
100
AcDbLine
 10
11.89289321880002
 20
6.43720972129995
 30
0.0
 11
11.1417822425
 21
6.429655484099953
 31
0.0
  0
LWPOLYLINE
  5
ED7
330
22
100
AcDbEntity
  8
1
100
AcDbPolyline
 90
        7
 70
     0
 43
0.0
 10
23.6146156984
 20
6.999393031400018
 10
21.82317224509998
 20
6.996647478999989
 10
20.0155733286
 20
6.991596782200019
 10
18.20960365419998
 20
6.984266254700003
 10
16.40591361009998
 20
6.974662721599941
 10
14.60515358450001
 20
6.962793007900017
 10
12.80710678119999
 20
6.948654838499976
  0
LINE
  5
EE0
330
22
100
AcDbEntity
  8
1
100
AcDbLine
 10
24.01364131849999
 20
7.474086420599974
 30
0.0
 11
29.2009743799
 21
7.480416995899986
 31
0.0
  0
LINE
  5
EE1
330
22
100
AcDbEntity
  8
1
100
AcDbLine
 10
29.2009743799
 20
7.400429180299965
 30
0.0
 11
24.01364131849999
 21
7.394098604899966
 31
0.0
  0
LINE
  5
EE2
330
22
100
AcDbEntity
  8
1
100
AcDbLine
 10
24.24257496709998
 20
7.102251636000005
 30
0.0
 11
28.98599202610001
 21
7.108040460100028
 31
0.0
  0
LINE
  5
EE3
330
22
100
AcDbEntity
  8
1
100
AcDbLine
 10
28.98599202610001
 20
7.055969479800012
 30
0.0
 11
28.14109512580001
 21
7.054938375099993
 31
0.0
  0
LINE
  5
EE4
330
22
100
AcDbEntity
  8
1
100
AcDbLine
 10
25.08747186740001
 20
7.051211760299963
 30
0.0
 11
24.24257496709998
 21
7.050180655600001
 31
0.0
  0
LINE
  5
EE5
330
22
100
AcDbEntity
  8
1
100
AcDbLine
 10
27.85321819680002
 20
6.988097180899956
 30
0.0
 11
25.37534879649999
 21
6.985073210999985
 31
0.0
  0
LINE
  5
EE6
330
22
100
AcDbEntity
  8
1
100
AcDbLine
 10
24.7298996076
 20
6.451866150599983
 30
0.0
 11
24.97127025750001
 21
6.452160717200001
 31
0.0
  0
LINE
  5
EE7
330
22
100
AcDbEntity
  8
1
100
AcDbLine
 10
28.22939414620001
 20
6.456136902799983
 30
0.0
 11
28.47076479610001
 21
6.456431469400001
 31
0.0
  0
LINE
  5
EE8
330
22
100
AcDbEntity
  8
1
100
AcDbLine
 10
25.25914718660002
 20
6.38602216800001
 30
0.0
 11
27.9415172171
 21
6.389295708600002
 31
0.0
  0
LINE
  5
EE9
330
22
100
AcDbEntity
  8
1
100
AcDbLine
 10
5.100607704100013
 20
6.5
 30
0.0
 11
0.0
 21
6.5
 31
0.0
  0
LWPOLYLINE
  5
EEA
330
22
100
AcDbEntity
  8
1
100
AcDbPolyline
 90
       12
 70
     0
 43
0.0
 10
5.093894882599983
 20
6.499995246999958
 10
5.336881624000028
 20
6.498439545599978
 10
5.733671544599985
 20
6.491129659000023
 10
6.142839105700005
 20
6.479534072600017
 10
6.562160944200002
 20
6.465544316500029
 10
6.989850721100026
 20
6.450837884899954
 10
7.42370837750002
 20
6.436965634899991
 10
7.862751710299988
 20
6.425132421099988
 10
8.305803713800003
 20
6.416328559299984
 10
8.751248737799983
 20
6.41120881620003
 10
9.196827798800029
 20
6.410174027600021
 10
9.643293891399991
 20
6.413282814899957
  0
LWPOLYLINE
  5
EF8
330
22
100
AcDbEntity
  8
1
100
AcDbPolyline
 90
        7
 70
     0
 43
0.0
 10
25.08747186549999
 20
7.051211760299963
 10
25.09672448360002
 20
7.051007045500057
 10
25.10595210970001
 20
7.05037214150002
 10
25.1151719913
 20
7.049304646099983
 10
25.12433238580002
 20
7.04781176580002
 10
25.13338155049999
 20
7.045900707300006
 10
25.14233673280001
 20
7.04356906830003
  0
LWPOLYLINE
  5
F01
330
22
100
AcDbEntity
  8
1
100
AcDbPolyline
 90
        7
 70
     0
 43
0.0
 10
25.25914718660002
 20
6.38602216800001
 10
25.24989457020001
 20
6.386226882599999
 10
25.24066694520002
 20
6.386861786599979
 10
25.23144706389999
 20
6.387929281999959
 10
25.222286669
 20
6.389422162399966
 10
25.21323750330001
 20
6.391333221100012
 10
25.20428231930001
 20
6.393664860400008
  0
LWPOLYLINE
  5
F0A
330
22
100
AcDbEntity
  8
1
100
AcDbPolyline
 90
       15
 70
     0
 43
0.0
 10
29.2009743799
 20
7.400429180299965
 10
29.2358216081
 20
7.398486281500026
 10
29.2702256257
 20
7.392664653099984
 10
29.30440302139999
 20
7.382950505400003
 10
29.33770402920001
 20
7.369385207800007
 10
29.36981493670001
 20
7.351891667199993
 10
29.3999441725
 20
7.330811481299974
 10
29.4272651718
 20
7.306307067799991
 10
29.45156920299999
 20
7.278838872899996
 10
29.47241811300001
 20
7.248643684599983
 10
29.48967360270001
 20
7.216554895699971
 10
29.50301623610002
 20
7.183386815099993
 10
29.51255127030001
 20
7.149433482699976
 10
29.51827733090002
 20
7.115331059499965
 10
29.52019487600001
 20
7.080867491699962
  0
LWPOLYLINE
  5
F1B
330
22
100
AcDbEntity
  8
1
100
AcDbPolyline
 90
       13
 70
     0
 43
0.0
 10
28.98599202610001
 20
7.055969479800012
 10
29.01144421059999
 20
7.054318798000053
 10
29.0364284106
 20
7.049362387699943
 10
29.0612086907
 20
7.041056532900029
 10
29.08499285670001
 20
7.029532381599949
 10
29.10725979760002
 20
7.014778916000011
 10
29.12746032780001
 20
6.997178916299958
 10
29.14491161290002
 20
6.976879168399989
 10
29.1594934883
 20
6.9545766361
 10
29.1708454601
 20
6.930848464899952
 10
29.17900568120001
 20
6.906200894999983
 10
29.18388188840001
 20
6.88141987589995
 10
29.18550483610002
 20
6.85624342440002
  0
LINE
  5
F2A
330
22
100
AcDbEntity
  8
1
100
AcDbLine
 10
26.76275878640002
 20
6.22217531589996
 30
0.0
 11
26.89923113150002
 21
6.206152881299999
 31
0.0
  0
LINE
  5
F2C
330
22
100
AcDbEntity
  8
1
100
AcDbLine
 10
26.89923113150002
 20
6.206152881299999
 30
0.0
 11
26.98729174260001
 21
6.188704038300045
 31
0.0
  0
LWPOLYLINE
  5
F2D
330
22
100
AcDbEntity
  8
1
100
AcDbPolyline
 90
       20
 70
     0
 43
0.0
 10
26.98729174173215
 20
6.188704038471996
 10
27.067375661
 20
6.170194240100045
 10
27.18981904719999
 20
6.132296035599949
 10
27.30915549490001
 20
6.085472551500004
 10
27.42471367900001
 20
6.029928592900034
 10
27.53587400239999
 20
5.966026787099963
 10
27.6420301474
 20
5.894153029199969
 10
27.7425852534
 20
5.814698529300017
 10
27.83694877790001
 20
5.728061737399968
 10
27.92456720000001
 20
5.634673145500016
 10
28.00502264720001
 20
5.53512220470003
 10
28.07794039500001
 20
5.430059518199982
 10
28.14294719809999
 20
5.320157176099996
 10
28.19973359549999
 20
5.205992531699962
 10
28.24796306070002
 20
5.088207926699965
 10
28.28750537370002
 20
4.967362106299958
 10
28.31830600870001
 20
4.844152296099991
 10
28.3402838115
 20
4.719268367699953
 10
28.35332729640001
 20
4.59334109529999
 10
28.3572926109
 20
4.479965372099968
  0
LWPOLYLINE
  5
F43
330
22
100
AcDbEntity
  8
1
100
AcDbPolyline
 90
        7
 70
     0
 43
0.0
 10
25.32048393100001
 20
6.992715903000032
 10
25.3294390858
 20
6.990384269800017
 10
25.33848823380001
 20
6.988473213900022
 10
25.3476486225
 20
6.986980332300049
 10
25.35686850940002
 20
6.985912833899988
 10
25.36609615219999
 20
6.985277927900028
 10
25.37534879840001
 20
6.985073210999985
  0
LWPOLYLINE
  5
F4C
330
22
100
AcDbEntity
  8
1
100
AcDbPolyline
 90
        7
 70
     0
 43
0.0
 10
25.02613512479999
 20
6.444518024800061
 10
25.01717996830001
 20
6.446849658399969
 10
25.00813081930002
 20
6.448760714499996
 10
24.99897043030001
 20
6.450253596200013
 10
24.98975054370002
 20
6.451321094499974
 10
24.9805229019
 20
6.451956000500047
 10
24.97127025750001
 20
6.452160717200001
  0
LINE
  5
F5C
330
22
100
AcDbEntity
  8
1
100
AcDbLine
 10
25.32048393100001
 20
6.992715903000032
 30
0.0
 11
25.14233673280001
 21
7.04356906839996
 31
0.0
  0
LINE
  5
F5D
330
22
100
AcDbEntity
  8
1
100
AcDbLine
 10
25.0261351229
 20
6.444518025299998
 30
0.0
 11
25.20428232120003
 21
6.393664859899956
 31
0.0
  0
LWPOLYLINE
  5
F8F
330
22
100
AcDbEntity
  8
1
100
AcDbPolyline
 90
       11
 70
     0
 43
0.0
 10
28.57052120110001
 20
6.356568441700005
 10
28.56931322130001
 20
6.371926873599988
 10
28.56574085060001
 20
6.386816944400038
 10
28.5597393109
 20
6.401485068900001
 10
28.55150293650002
 20
6.415192003000015
 10
28.54104767940001
 20
6.427367954700002
 10
28.52884390850002
 20
6.437750983000057
 10
28.51518052490002
 20
6.445886203899988
 10
28.50061788389999
 20
6.451782654199973
 10
28.48589472290001
 20
6.455279918799988
 10
28.47076479610001
 20
6.456431469400001
  0
LWPOLYLINE
  5
F9C
330
22
100
AcDbEntity
  8
1
100
AcDbPolyline
 90
       15
 70
     0
 43
0.0
 10
29.59999999999999
 20
7.080964885100001
 10
29.5975238858
 20
7.124620614899981
 10
29.59021110800001
 20
7.167715160500051
 10
29.57804413900002
 20
7.210519856100006
 10
29.5610755614
 20
7.252220699299982
 10
29.53920970670001
 20
7.292424535000009
 10
29.51287380120002
 20
7.330140155199956
 10
29.4822716615
 20
7.364332237499979
 10
29.4479778484
 20
7.394739971399985
 10
29.41028833799999
 20
7.42081477260001
 10
29.37024270219999
 20
7.442384640400007
 10
29.32885698840002
 20
7.459050605699985
 10
29.28649774700003
 20
7.470944988399935
 10
29.243958365
 20
7.478067034700018
 10
29.2009743799
 20
7.480416995899986
  0
LWPOLYLINE
  5
FAD
330
22
100
AcDbEntity
  8
1
100
AcDbPolyline
 90
       15
 70
     0
 43
0.0
 10
29.2374568868
 20
6.856306826200011
 10
29.23589644629999
 20
6.883818548399972
 10
29.2312879536
 20
6.910976613799959
 10
29.22362036290002
 20
6.937952016599979
 10
29.2129268114
 20
6.964231774599966
 10
29.19914700930002
 20
6.989568122499974
 10
29.1825501932
 20
7.013336403799996
 10
29.16326480800001
 20
7.034884161100023
 10
29.14165294030002
 20
7.054047032300047
 10
29.11790111319999
 20
7.070479301100021
 10
29.09266446250001
 20
7.084072573100002
 10
29.06658329820002
 20
7.094575419199998
 10
29.03988861950001
 20
7.102071226799978
 10
29.01308041660002
 20
7.106559521000008
 10
28.98599202610001
 20
7.108040460100028
  0
LWPOLYLINE
  5
FBE
330
22
100
AcDbEntity
  8
1
100
AcDbPolyline
 90
        9
 70
     0
 43
0.0
 10
29.153891383
 20
-2.376456069200003
 10
29.15203429740001
 20
-2.34370701749998
 10
29.146549714
 20
-2.311374490500043
 10
29.1374244873
 20
-2.279254940399994
 10
29.12469805410001
 20
-2.247959010300007
 10
29.10829866309999
 20
-2.217781523799999
 10
29.08854673389999
 20
-2.189466390999996
 10
29.065595129
 20
-2.163790408900013
 10
29.06111062540001
 20
-2.159807997300049
  0
LWPOLYLINE
  5
FC9
330
22
100
AcDbEntity
  8
1
100
AcDbPolyline
 90
       15
 70
     0
 43
0.0
 10
29.509566525
 20
-2.019917063700006
 10
29.5070484853
 20
-1.975111387900028
 10
29.49953457379999
 20
-1.930893196499994
 10
29.48716389500001
 20
-1.887792197300029
 10
29.47004741129999
 20
-1.846364033200018
 10
29.44838950090002
 20
-1.807125143700034
 10
29.42250419160001
 20
-1.770543038499965
 10
29.39269829190002
 20
-1.73708917809995
 10
29.35932730440001
 20
-1.707207071900029
 10
29.32283914420001
 20
-1.681257725699992
 10
29.28369804780002
 20
-1.659544485599951
 10
29.24236765480001
 20
-1.64238374780001
 10
29.19936184760002
 20
-1.62997876199995
 10
29.15523660030002
 20
-1.622439202199984
 10
29.11054090490001
 20
-1.619917063700029
  0
LWPOLYLINE
  5
FDA
330
22
100
AcDbEntity
  8
1
100
AcDbPolyline
 90
        7
 70
     0
 43
0.0
 10
29.11916682680001
 20
3.237253676900024
 10
29.11938234000002
 20
3.227980140500051
 10
29.12002702950002
 20
3.21873217709998
 10
29.12110331299999
 20
3.209492502600028
 10
29.1226039373
 20
3.2003129693
 10
29.12452164920001
 20
3.191245429499986
 10
29.1268588666
 20
3.182272598999986
  0
LWPOLYLINE
  5
FE3
330
22
100
AcDbEntity
  8
1
100
AcDbPolyline
 90
        7
 70
     0
 43
0.0
 10
28.57052120110001
 20
2.849062783700048
 10
28.5703056879
 20
2.858336319999978
 10
28.5696609984
 20
2.867584283399935
 10
28.5685847149
 20
2.876823958000045
 10
28.56708409059999
 20
2.886003491299959
 10
28.56516637870001
 20
2.89507103110003
 10
28.56282916129999
 20
2.904043861500042
  0
LINE
  5
FEC
330
22
100
AcDbEntity
  8
1
100
AcDbLine
 10
29.59999999999999
 20
-7.069824969199999
 30
0.0
 11
29.59999999999999
 21
-1.869824969199953
 31
0.0
  0
LINE
  5
FED
330
22
100
AcDbEntity
  8
1
100
AcDbLine
 10
29.59999999999999
 20
7.080964885199989
 30
0.0
 11
29.59999999999999
 21
1.881756870299966
 31
0.0
  0
LINE
  5
FEE
330
22
100
AcDbEntity
  8
1
100
AcDbLine
 10
29.52019487600001
 20
1.88165947690004
 30
0.0
 11
29.52019487600001
 21
7.080867491699962
 31
0.0
  0
LINE
  5
FEF
330
22
100
AcDbEntity
  8
1
100
AcDbLine
 10
29.509566525
 20
-6.919732874700002
 30
0.0
 11
29.509566525
 21
-2.019917063700006
 31
0.0
  0
LINE
  5
FF0
330
22
100
AcDbEntity
  8
1
100
AcDbLine
 10
29.25364774959999
 20
-2.376456107699993
 30
0.0
 11
29.25364774959999
 21
-6.563193830700015
 31
0.0
  0
LINE
  5
FF1
330
22
100
AcDbEntity
  8
1
100
AcDbLine
 10
29.2374568868
 20
6.856306826200011
 30
0.0
 11
29.2374568868
 21
2.102031035799996
 31
0.0
  0
LINE
  5
FF2
330
22
100
AcDbEntity
  8
1
100
AcDbLine
 10
29.18550483610002
 20
2.101967633900017
 30
0.0
 11
29.18550483610002
 21
2.948798690199964
 31
0.0
  0
LINE
  5
FF3
330
22
100
AcDbEntity
  8
1
100
AcDbLine
 10
29.18550483610002
 20
6.009412368099958
 30
0.0
 11
29.18550483610002
 21
6.85624342440002
 31
0.0
  0
LINE
  5
FF4
330
22
100
AcDbEntity
  8
1
100
AcDbLine
 10
29.153891383
 20
-2.376456069200003
 30
0.0
 11
29.153891383
 21
-6.563193869200006
 31
0.0
  0
LINE
  5
FF5
330
22
100
AcDbEntity
  8
1
100
AcDbLine
 10
29.11916682680001
 20
5.720795464800005
 30
0.0
 11
29.11916682680001
 21
3.237253676900024
 31
0.0
  0
LINE
  5
FF6
330
22
100
AcDbEntity
  8
1
100
AcDbLine
 10
29.06111062540001
 20
1.481160136500022
 30
0.0
 11
29.06111062540001
 21
-6.526191459800031
 31
0.0
  0
LINE
  5
FF7
330
22
100
AcDbEntity
  8
1
100
AcDbLine
 10
28.62797928950002
 20
-6.77674321500001
 30
0.0
 11
28.62797928950002
 21
1.090665920899937
 31
0.0
  0
LINE
  5
FF8
330
22
100
AcDbEntity
  8
1
100
AcDbLine
 10
28.57052120110001
 20
6.356568441700005
 30
0.0
 11
28.57052120110001
 21
6.114645241000005
 31
0.0
  0
LINE
  5
FF9
330
22
100
AcDbEntity
  8
1
100
AcDbLine
 10
28.57052120110001
 20
2.849062785599983
 30
0.0
 11
28.57052120110001
 21
2.607139584899982
 31
0.0
  0
LINE
  5
FFA
330
22
100
AcDbEntity
  8
1
100
AcDbLine
 10
28.5041831918
 20
5.826028339599986
 30
0.0
 11
28.5041831918
 21
3.137517770399995
 31
0.0
  0
LWPOLYLINE
  5
FFB
330
22
100
AcDbEntity
  8
1
100
AcDbPolyline
 90
        7
 70
     0
 43
0.0
 10
29.18550483610002
 20
6.009412370000006
 10
29.18528932290002
 20
6.000138307600025
 10
29.18464463340001
 20
5.990888770699996
 10
29.18356835
 20
5.981646469199972
 10
29.1820677257
 20
5.972463273199991
 10
29.1801500137
 20
5.963391052600002
 10
29.17781279639999
 20
5.954412517600019
  0
LWPOLYLINE
  5
1004
330
22
100
AcDbEntity
  8
1
100
AcDbPolyline
 90
        7
 70
     0
 43
0.0
 10
28.5041831918
 20
5.826028339599986
 10
28.50439870490001
 20
5.835302400199964
 10
28.50504339430001
 20
5.844551936100003
 10
28.5061196778
 20
5.853794237300007
 10
28.50762030210001
 20
5.862977433600008
 10
28.50953801430001
 20
5.872049655199987
 10
28.51187523210001
 20
5.881028191999973
  0
LWPOLYLINE
  5
100D
330
22
100
AcDbEntity
  8
1
100
AcDbPolyline
 90
       15
 70
     0
 43
0.0
 10
29.59999999999999
 20
-7.069824969199999
 10
29.5975238858
 20
-7.113490371200043
 10
29.59021110800001
 20
-7.156600407099972
 10
29.57804413900002
 20
-7.199426473799974
 10
29.5610755614
 20
-7.241154380699981
 10
29.53920970670001
 20
-7.281391029499957
 10
29.51287380120002
 20
-7.31914453989998
 10
29.4822716615
 20
-7.353379182799983
 10
29.4479778484
 20
-7.383833406900009
 10
29.41028833799999
 20
-7.409958183100002
 10
29.37024270219999
 20
-7.431580215300016
 10
29.32885698840002
 20
-7.448299233799957
 10
29.28649774700003
 20
-7.46024713099996
 10
29.243958365
 20
-7.467422184800057
 10
29.2009743799
 20
-7.469824969199976
  0
LWPOLYLINE
  5
101E
330
22
100
AcDbEntity
  8
1
100
AcDbPolyline
 90
       15
 70
     0
 43
0.0
 10
29.25364774959999
 20
-6.563193830700015
 10
29.25117163540003
 20
-6.606859232600015
 10
29.24385885760001
 20
-6.649969268599988
 10
29.23169188860001
 20
-6.69279533529999
 10
29.214723311
 20
-6.734523242199998
 10
29.19285745630001
 20
-6.774759890900043
 10
29.16652155080001
 20
-6.812513401399996
 10
29.13591941110002
 20
-6.846748044299999
 10
29.101625598
 20
-6.877202268400026
 10
29.0639360875
 20
-6.903327044499974
 10
29.0238904517
 20
-6.924949076799975
 10
28.98250473799999
 20
-6.941668095199986
 10
28.94014549659999
 20
-6.953615992399988
 10
28.89760611450001
 20
-6.960791046200029
 10
28.8546221295
 20
-6.963193830699992
  0
LWPOLYLINE
  5
102F
330
22
100
AcDbEntity
  8
1
100
AcDbPolyline
 90
       15
 70
     0
 43
0.0
 10
29.52019487600001
 20
1.88165947690004
 10
29.51821398460001
 20
1.846730058200023
 10
29.51236376240002
 20
1.812240142600046
 10
29.5026301872
 20
1.777972628499981
 10
29.4890553251
 20
1.744578820699985
 10
29.4715626414
 20
1.712373056299952
 10
29.45049391700002
 20
1.682149135899976
 10
29.42601220520001
 20
1.654735715599997
 10
29.39857715470001
 20
1.630342565500029
 10
29.36842554629999
 20
1.609409131000006
 10
29.3363890377
 20
1.592075042600015
 10
29.30328046670002
 20
1.57866145959997
 10
29.26939307360001
 20
1.569063241700007
 10
29.23536156790002
 20
1.56328254120001
 10
29.2009743799
 20
1.561318640599949
  0
LWPOLYLINE
  5
1040
330
22
100
AcDbEntity
  8
1
100
AcDbPolyline
 90
       13
 70
     0
 43
0.0
 10
29.18550483610002
 20
2.101967633900017
 10
29.18382693379999
 20
2.076455136200024
 10
29.178851423
 20
2.051407669899958
 10
29.1705343662
 20
2.02656051209999
 10
29.15900757620003
 20
2.002707831699979
 10
29.14426069530001
 20
1.980371919800006
 10
29.1266762976
 20
1.9601036862
 10
29.10640166549999
 20
1.942587708199994
 10
29.08413231719999
 20
1.92794527440003
 10
29.06044451880001
 20
1.916538406999961
 10
29.03584330780001
 20
1.908329482200031
 10
29.011112951
 20
1.903411931599976
 10
28.98599202610001
 20
1.901754611200033
  0
LINE
  5
1062
330
22
100
AcDbEntity
  8
1
100
AcDbLine
 10
29.05303315329999
 20
-6.530865373600022
 30
0.0
 11
29.04464372960001
 21
-6.560394997699972
 31
0.0
  0
LINE
  5
10E7
330
22
100
AcDbEntity
  8
SK1
100
AcDbLine
 10
-1.704456457499986
 20
-4.06362966949996
 30
0.0
 11
-2.400000000000005
 21
-4.25
 31
0.0
  0
LWPOLYLINE
  5
10E8
330
22
100
AcDbEntity
  8
1
100
AcDbPolyline
 90
        7
 70
     0
 43
0.0
 10
27.99638208440001
 20
6.397072314299975
 10
27.9874269279
 20
6.394718823099992
 10
27.97837777890001
 20
6.392785679899986
 10
27.9692173899
 20
6.391270439700008
 10
27.9599975033
 20
6.390180437699939
 10
27.95076986160001
 20
6.389523009000015
 10
27.9415172171
 20
6.389295708600002
  0
LWPOLYLINE
  5
10F1
330
22
100
AcDbEntity
  8
1
100
AcDbPolyline
 90
        7
 70
     0
 43
0.0
 10
25.20428231930001
 20
2.561826909899991
 10
25.21323747580002
 20
2.564180401100031
 10
25.22228662480001
 20
2.566113544199993
 10
25.2314470138
 20
2.567628784400028
 10
25.24066690040001
 20
2.568718786399983
 10
25.24989454210001
 20
2.569376215100021
 10
25.25914718660002
 20
2.569603515599965
  0
LINE
  5
110A
330
22
100
AcDbEntity
  8
3
100
AcDbLine
 10
5.085328670400002
 20
1.200180277699985
 30
0.0
 11
5.079661848699998
 21
1.199237333499979
 31
0.0
  0
LINE
  5
112A
330
22
100
AcDbEntity
  8
SK1
100
AcDbLine
 10
-2.400000000000005
 20
4.25
 30
0.0
 11
-6.299999999999982
 21
4.25
 31
0.0
  0
LINE
  5
112B
330
22
100
AcDbEntity
  8
SK1
100
AcDbLine
 10
-0.6999999999999887
 20
4.050000000000011
 30
0.0
 11
-1.600928839399983
 21
4.050000000000011
 31
0.0
  0
LINE
  5
112C
330
22
100
AcDbEntity
  8
SK1
100
AcDbLine
 10
-9.699999999999988
 20
4.0
 30
0.0
 11
-17.19999999999999
 21
4.0
 31
0.0
  0
LINE
  5
112D
330
22
100
AcDbEntity
  8
SK1
100
AcDbLine
 10
-17.79999999999998
 20
3.399999999999977
 30
0.0
 11
-9.099999999999994
 21
3.399999999999977
 31
0.0
  0
LINE
  5
112E
330
22
100
AcDbEntity
  8
SK1
100
AcDbLine
 10
-7.299999999999982
 20
3.125
 30
0.0
 11
-8.576471862599987
 21
3.125
 31
0.0
  0
LWPOLYLINE
  5
112F
330
22
100
AcDbEntity
  8
1
100
AcDbPolyline
 90
        7
 70
     0
 43
0.0
 10
27.9415172171
 20
2.572877056200013
 10
27.9507698335
 20
2.572672341500037
 10
27.9599974585
 20
2.5720374375
 10
27.9692173398
 20
2.570969942099964
 10
27.97837773469999
 20
2.5694770618
 10
27.98742690040001
 20
2.567566003000024
 10
27.99638208440001
 20
2.565234363700028
  0
LWPOLYLINE
  5
11C6
330
22
100
AcDbEntity
  8
1
100
AcDbPolyline
 90
        7
 70
     0
 43
0.0
 10
28.1745292789
 20
2.51438119940002
 10
28.18348443540001
 20
2.512049565799998
 10
28.19253358440003
 20
2.510138509599983
 10
28.20169397340001
 20
2.50864562800001
 10
28.21091386000001
 20
2.507578129699993
 10
28.22014150180002
 20
2.506943223700034
 10
28.22939414620001
 20
2.506738506900035
  0
LINE
  5
11E0
330
22
100
AcDbEntity
  8
1
100
AcDbLine
 10
28.17452928080001
 20
2.514381198799981
 30
0.0
 11
27.99638208250002
 21
2.56523436430001
 31
0.0
  0
LWPOLYLINE
  5
11E1
330
22
100
AcDbEntity
  8
1
100
AcDbPolyline
 90
        7
 70
     0
 43
0.0
 10
26.21484978000001
 20
2.76840922919996
 10
26.08458231820001
 20
2.804151589899959
 10
25.9556620491
 20
2.851664793499992
 10
25.83087038069999
 20
2.909173264499941
 10
25.71095744639999
 20
2.976334227699965
 10
25.5966814569
 20
3.0527263715
 10
25.48875951459999
 20
3.137868731599951
  0
LINE
  5
12E6
330
22
100
AcDbEntity
  8
1
100
AcDbLine
 10
29.17781279639999
 20
3.003779766200011
 30
0.0
 11
29.1268588666
 21
3.182272598999986
 31
0.0
  0
LINE
  5
12E7
330
22
100
AcDbEntity
  8
1
100
AcDbLine
 10
28.5118752315
 20
3.082536694400005
 30
0.0
 11
28.56282916129999
 21
2.904043861599973
 31
0.0
  0
LWPOLYLINE
  5
12E8
330
22
100
AcDbEntity
  8
1
100
AcDbPolyline
 90
        7
 70
     0
 43
0.0
 10
29.17781279580001
 20
3.003779768000015
 10
29.18015000790001
 20
2.994806963499968
 10
29.18206771750002
 20
2.985739439400049
 10
29.18356834310001
 20
2.976559911599963
 10
29.1846446294
 20
2.967320232100007
 10
29.18528932090001
 20
2.958072253000011
 10
29.18550483610002
 20
2.948798690199964
  0
LWPOLYLINE
  5
12F1
330
22
100
AcDbEntity
  8
1
100
AcDbPolyline
 90
        7
 70
     0
 43
0.0
 10
28.51187523210001
 20
3.082536692500013
 10
28.50953802000001
 20
3.091509496999947
 10
28.50762031049999
 20
3.100577021200024
 10
28.50611968480001
 20
3.109756548999996
 10
28.50504339850002
 20
3.118996228500009
 10
28.50439870700001
 20
3.128244207600005
 10
28.5041831918
 20
3.137517770399995
  0
LWPOLYLINE
  5
12FA
330
22
100
AcDbEntity
  8
1
100
AcDbPolyline
 90
       24
 70
     0
 43
0.0
 10
28.3572926109
 20
4.47996550519997
 10
28.3527523411
 20
4.358352367199984
 10
28.33772419510001
 20
4.222934771500035
 10
28.31234410270003
 20
4.088653909599997
 10
28.27671959030002
 20
3.956347928599996
 10
28.23092401630001
 20
3.826912574700031
 10
28.17504642440002
 20
3.701257315600003
 10
28.1093391654
 20
3.580052435899972
 10
28.03426537690001
 20
3.464171816999964
 10
27.9502690871
 20
3.354412432799961
 10
27.85784730060001
 20
3.251616001000002
 10
27.75753668600001
 20
3.156570757499991
 10
27.65004234980001
 20
3.069853599800012
 10
27.5361536474
 20
2.991960640699971
 10
27.41662729570001
 20
2.923341814800039
 10
27.2922674024
 20
2.864456619099939
 10
27.16375881290003
 20
2.815659363999998
 10
27.0318925357
 20
2.777138914200008
 10
26.8974610363
 20
2.749018005899984
 10
26.76125267950002
 20
2.731433208000055
 10
26.62407209080001
 20
2.724535444800039
 10
26.48669060770001
 20
2.728453467399958
 10
26.34999919190003
 20
2.743124922399999
 10
26.21484978000001
 20
2.76840922919996
  0
LWPOLYLINE
  5
1327
330
22
100
AcDbEntity
  8
1
100
AcDbPolyline
 90
        7
 70
     0
 43
0.0
 10
29.1268588666
 20
5.775795317300037
 10
29.12452165499999
 20
5.766816809899978
 10
29.12260394559999
 20
5.75774460599996
 10
29.12110332000001
 20
5.748561415799997
 10
29.12002703370001
 20
5.739319109099938
 10
29.11938234210001
 20
5.730069555400007
 10
29.11916682680001
 20
5.720795464800005
  0
LWPOLYLINE
  5
1330
330
22
100
AcDbEntity
  8
1
100
AcDbPolyline
 90
        7
 70
     0
 43
0.0
 10
28.56282916079999
 20
6.059645388600017
 10
28.56516637280001
 20
6.068623897699978
 10
28.56708408240002
 20
6.077696102600043
 10
28.56858470809999
 20
6.086879293099968
 10
28.56966099440001
 20
6.096121599499952
 10
28.5703056859
 20
6.105371152200007
 10
28.57052120110001
 20
6.114645241000005
  0
LINE
  5
1339
330
22
100
AcDbEntity
  8
1
100
AcDbLine
 10
29.1268588666
 20
5.775795317300037
 30
0.0
 11
29.17781279639999
 21
5.954412517600019
 31
0.0
  0
LINE
  5
133A
330
22
100
AcDbEntity
  8
1
100
AcDbLine
 10
28.56282916140001
 20
6.059645390500008
 30
0.0
 11
28.5118752315
 21
5.881028190100039
 31
0.0
  0
LWPOLYLINE
  5
133B
330
22
100
AcDbEntity
  8
1
100
AcDbPolyline
 90
        5
 70
     0
 43
0.0
 10
24.05619177750001
 20
-6.883548455999971
 10
24.0676211762
 20
-6.851340168499973
 10
24.07898792700001
 20
-6.815272007300052
 10
24.09029203010002
 20
-6.775343972300049
 10
24.1015334855
 20
-6.731556063499965
  0
LWPOLYLINE
  5
1355
330
22
100
AcDbEntity
  8
1
100
AcDbPolyline
 90
       11
 70
     0
 43
0.0
 10
24.1015334855
 20
-6.731556063499965
 10
24.10526148030001
 20
-6.724648518600019
 10
24.11242963469999
 20
-6.718102115699991
 10
24.12321134690001
 20
-6.711862765700004
 10
24.1370864221
 20
-6.706153337300008
 10
24.1537733539
 20
-6.701151355100023
 10
24.17272947500001
 20
-6.696961267200038
 10
24.19348158010001
 20
-6.693732503099965
 10
24.21553977690002
 20
-6.691504850100045
 10
24.2381754848
 20
-6.69036643359999
 10
24.26163156410002
 20
-6.690297390500006
  0
LWPOLYLINE
  5
1362
330
22
100
AcDbEntity
  8
1
100
AcDbPolyline
 90
        7
 70
     0
 43
0.0
 10
25.1423367347
 20
1.904773497399958
 10
25.13338157820002
 20
1.902420006200031
 10
25.1243324292
 20
1.900486863099956
 10
25.11517204020001
 20
1.898971622900035
 10
25.10595215360002
 20
1.897881620899966
 10
25.09672451180001
 20
1.897224192199985
 10
25.08747186740001
 20
1.896996891800029
  0
LWPOLYLINE
  5
136B
330
22
100
AcDbEntity
  8
1
100
AcDbPolyline
 90
       11
 70
     0
 43
0.0
 10
28.47076479610001
 20
2.507033073499997
 10
28.48608962030002
 20
2.508262520899961
 10
28.50095003200002
 20
2.511861205100046
 10
28.51559196209999
 20
2.517894352499979
 10
28.5292776183
 20
2.526166283700035
 10
28.5414384906
 20
2.536660316200027
 10
28.55181266350001
 20
2.548904684800049
 10
28.55994594020001
 20
2.562609272699944
 10
28.56584665450001
 20
2.577212451999969
 10
28.56935385840001
 20
2.591973597699961
 10
28.57052120110001
 20
2.607139584899982
  0
LINE
  5
1378
330
22
100
AcDbEntity
  8
3
100
AcDbLine
 10
29.0610490727
 20
2.794133670500002
 30
0.0
 11
5.085328670400002
 21
1.200180277699985
 31
0.0
  0
LINE
  5
1379
330
22
100
AcDbEntity
  8
4
100
AcDbLine
 10
-2.393392115599993
 20
-0.1990066383000339
 30
0.0
 11
37.95034353630001
 21
2.483124836499996
 31
0.0
  0
LINE
  5
137A
330
22
100
AcDbEntity
  8
3
100
AcDbLine
 10
29.06117217799999
 20
0.9901683721000154
 30
0.0
 11
5.97309785560003
 21
-0.544772550800019
 31
0.0
  0
LWPOLYLINE
  5
137B
330
22
100
AcDbEntity
  8
1
100
AcDbPolyline
 90
       15
 70
     0
 43
0.0
 10
28.98599202610001
 20
1.84968363089996
 10
29.0134428117
 20
1.851281144199958
 10
29.0405444596
 20
1.855933261399968
 10
29.06746758680001
 20
1.863651261699999
 10
29.09370034260002
 20
1.874401307300047
 10
29.11899560080002
 20
1.8882435246
 10
29.14272980390001
 20
1.904907299400008
 10
29.16425182809999
 20
1.92426309839999
 10
29.1833972462
 20
1.94594780540001
 10
29.19982090420001
 20
1.969774048899978
 10
29.2134138575
 20
1.995085060699977
 10
29.22392447160002
 20
2.021238757600031
 10
29.2314356624
 20
2.048003712900026
 10
29.2359463471
 20
2.074878790500008
 10
29.2374568868
 20
2.102031035799996
  0
LWPOLYLINE
  5
138C
330
22
100
AcDbEntity
  8
1
100
AcDbPolyline
 90
       15
 70
     0
 43
0.0
 10
29.2009743799
 20
1.481330824899998
 10
29.24453341520001
 20
1.483865766599933
 10
29.2875384372
 20
1.491247767900006
 10
29.33026018180001
 20
1.503494726999974
 10
29.3718864416
 20
1.520552949700004
 10
29.41202507590001
 20
1.542517845100007
 10
29.44968662069999
 20
1.568960001099981
 10
29.48383786970001
 20
1.599673873799986
 10
29.51421790879999
 20
1.634083268499978
 10
29.54027904629999
 20
1.671890863399937
 10
29.56184840840001
 20
1.7120544956
 10
29.5785267002
 20
1.753555304400038
 10
29.59044549290002
 20
1.796026061100008
 10
29.59760306860002
 20
1.838671560199941
 10
29.59999999999999
 20
1.881756870299966
  0
LWPOLYLINE
  5
139D
330
22
100
AcDbEntity
  8
1
100
AcDbPolyline
 90
        7
 70
     0
 43
0.0
 10
24.97127025559999
 20
2.502762321399984
 10
24.98052287370001
 20
2.502989619800018
 10
24.98975049980001
 20
2.503647046399976
 10
24.9989703814
 20
2.504737045599995
 10
25.00813077590001
 20
2.506252284400034
 10
25.01717994059999
 20
2.508185430000025
 10
25.0261351229
 20
2.510538926500032
  0
LWPOLYLINE
  5
13A6
330
22
100
AcDbEntity
  8
1
100
AcDbPolyline
 90
        7
 70
     0
 43
0.0
 10
25.37534879840001
 20
1.963838086000009
 10
25.36609618030002
 20
1.963610787600032
 10
25.35686855420002
 20
1.962953360899973
 10
25.34764867250002
 20
1.961863361699954
 10
25.338488278
 20
1.960348122900029
 10
25.32943911340002
 20
1.958414977399968
 10
25.32048393100001
 20
1.95606148080003
  0
LWPOLYLINE
  5
13AF
330
22
100
AcDbEntity
  8
3
100
AcDbPolyline
 90
        6
 70
     0
 43
0.0
 10
5.973489937900012
 20
-0.5447441291999553
 10
5.949419563399999
 20
-0.5451105736000273
 10
5.913571137000019
 20
-0.5404154293000261
 10
5.876608476900003
 20
-0.5283773905000544
 10
5.838722290800035
 20
-0.5074653474999878
 10
5.800000000000011
 20
-0.4763053962999493
  0
LINE
  5
13B7
330
22
100
AcDbEntity
  8
1
100
AcDbLine
 10
12.50262490099999
 20
1.088843484499989
 30
0.0
 11
12.22252607659999
 21
1.084037087399963
 31
0.0
  0
LINE
  5
13B8
330
22
100
AcDbEntity
  8
1
100
AcDbLine
 10
12.22252607659999
 20
1.084037087399963
 30
0.0
 11
12.14292898029998
 21
1.083030650599994
 31
0.0
  0
LINE
  5
13B9
330
22
100
AcDbEntity
  8
1
100
AcDbLine
 10
12.58573871779998
 20
1.089755173000014
 30
0.0
 11
12.50262490099999
 21
1.088843484499989
 31
0.0
  0
LINE
  5
13BA
330
22
100
AcDbEntity
  8
1
100
AcDbLine
 10
12.14292898029998
 20
1.083030650599994
 30
0.0
 11
12.05365136720002
 21
1.082316711900034
 31
0.0
  0
LINE
  5
13BB
330
22
100
AcDbEntity
  8
1
100
AcDbLine
 10
12.70939002139999
 20
1.090495944199972
 30
0.0
 11
12.58573871779998
 21
1.089755173000014
 31
0.0
  0
LINE
  5
13BC
330
22
100
AcDbEntity
  8
1
100
AcDbLine
 10
12.05365136720002
 20
1.082316711900034
 30
0.0
 11
11.958190871
 21
1.081923678300029
 31
0.0
  0
LINE
  5
13BD
330
22
100
AcDbEntity
  8
1
100
AcDbLine
 10
27.9415172171
 20
2.572877056200013
 30
0.0
 11
25.25914718660002
 21
2.569603515599965
 31
0.0
  0
LINE
  5
13BE
330
22
100
AcDbEntity
  8
1
100
AcDbLine
 10
28.47076479610001
 20
2.507033073499997
 30
0.0
 11
28.22939414620001
 21
2.506738506900035
 31
0.0
  0
LINE
  5
13BF
330
22
100
AcDbEntity
  8
1
100
AcDbLine
 10
24.97127025750001
 20
2.502762321399984
 30
0.0
 11
24.7298996076
 21
2.502467754800022
 31
0.0
  0
LINE
  5
13C0
330
22
100
AcDbEntity
  8
1
100
AcDbLine
 10
25.37534879640001
 20
1.963838086000009
 30
0.0
 11
27.8532181967
 21
1.966862055799992
 31
0.0
  0
LINE
  5
13C1
330
22
100
AcDbEntity
  8
1
100
AcDbLine
 10
24.24257496709998
 20
1.89596578710001
 30
0.0
 11
25.08747186740001
 21
1.896996891800029
 31
0.0
  0
LINE
  5
13C2
330
22
100
AcDbEntity
  8
1
100
AcDbLine
 10
28.14109512580001
 20
1.900723506599945
 30
0.0
 11
28.98599202610001
 21
1.901754611200033
 31
0.0
  0
LINE
  5
13C3
330
22
100
AcDbEntity
  8
1
100
AcDbLine
 10
28.98599202610001
 20
1.84968363089996
 30
0.0
 11
24.24257496709998
 21
1.843894806700006
 31
0.0
  0
LINE
  5
13C4
330
22
100
AcDbEntity
  8
1
100
AcDbLine
 10
24.01364131849999
 20
1.55498806519995
 30
0.0
 11
29.2009743799
 21
1.561318640599949
 31
0.0
  0
LINE
  5
13C5
330
22
100
AcDbEntity
  8
1
100
AcDbLine
 10
29.2009743799
 20
1.481330824899998
 30
0.0
 11
24.01364131849999
 21
1.475000249599986
 31
0.0
  0
LINE
  5
13C6
330
22
100
AcDbEntity
  8
1
100
AcDbLine
 10
29.06111062540001
 20
1.462308938799992
 30
0.0
 11
24.88104022540003
 21
1.457207617899996
 31
0.0
  0
LINE
  5
13C7
330
22
100
AcDbEntity
  8
3
100
AcDbLine
 10
5.800000000000011
 20
1.399999999999977
 30
0.0
 11
-0.4000000000000057
 21
1.400000000000034
 31
0.0
  0
LINE
  5
13C8
330
22
100
AcDbEntity
  8
1
100
AcDbLine
 10
28.62797928950002
 20
1.090665920899937
 30
0.0
 11
12.70939002139999
 21
1.090495944199972
 31
0.0
  0
LINE
  5
13C9
330
22
100
AcDbEntity
  8
1
100
AcDbLine
 10
11.958190871
 20
1.081923678300029
 30
0.0
 11
6.103283117900019
 21
1.081848099599994
 31
0.0
  0
LINE
  5
13CA
330
22
100
AcDbEntity
  8
1
100
AcDbLine
 10
11.59999999999999
 20
0.3079072769999698
 30
0.0
 11
4.599999999999994
 21
0.3079072769999698
 31
0.0
  0
LINE
  5
13CB
330
22
100
AcDbEntity
  8
1
100
AcDbLine
 10
29.061110622
 20
0.0
 30
0.0
 11
29.59999999999999
 21
0.0
 31
0.0
  0
LINE
  5
13CC
330
22
100
AcDbEntity
  8
4
100
AcDbLine
 10
30.386193293356
 20
0.0
 30
0.0
 11
-0.4000000000000057
 21
0.0
 31
0.0
  0
LINE
  5
13CD
330
22
100
AcDbEntity
  8
1
100
AcDbLine
 10
28.62797928950002
 20
1.090665920899937
 30
0.0
 11
29.06111062540001
 21
1.086257568900009
 31
0.0
  0
LWPOLYLINE
  5
13CE
330
22
100
AcDbEntity
  8
3
100
AcDbPolyline
 90
        6
 70
     0
 43
0.0
 10
5.973489937900012
 20
0.5447441291999553
 10
5.949419563399999
 20
0.5451105736000273
 10
5.913571137000019
 20
0.5404154293000261
 10
5.876608476900003
 20
0.5283773905999852
 10
5.838722290800035
 20
0.5074653474999878
 10
5.800000000000011
 20
0.4763053963999937
  0
LWPOLYLINE
  5
13D6
330
22
100
AcDbEntity
  8
1
100
AcDbPolyline
 90
        7
 70
     0
 43
0.0
 10
28.1410951277
 20
1.900723506599945
 10
28.13184250960001
 20
1.900928221299977
 10
28.12261488350001
 20
1.901563125300015
 10
28.11339500190002
 20
1.902630620800039
 10
28.1042346074
 20
1.904123501100002
 10
28.0951854427
 20
1.906034559600016
 10
28.08623026040002
 20
1.908366198500004
  0
LWPOLYLINE
  5
13DF
330
22
100
AcDbEntity
  8
1
100
AcDbPolyline
 90
        3
 70
     0
 43
0.0
 10
6.103283117900019
 20
1.081848099599994
 10
5.779955801500022
 20
1.092979411999976
 10
5.546920975700004
 20
1.112643024000021
  0
LWPOLYLINE
  5
13E4
330
22
100
AcDbEntity
  8
1
100
AcDbPolyline
 90
        4
 70
     0
 43
0.0
 10
24.21263692610001
 20
1.17650676300002
 10
24.1285037438
 20
1.181033338300039
 10
24.04977309040001
 20
1.191161830899943
 10
23.99518781730001
 20
1.202856104299996
  0
LWPOLYLINE
  5
13EA
330
22
100
AcDbEntity
  8
1
100
AcDbPolyline
 90
       15
 70
     0
 43
0.0
 10
24.01364131860001
 20
1.55498806519995
 10
23.9787940903
 20
1.556930964000002
 10
23.9443900727
 20
1.562752592399988
 10
23.91021267709999
 20
1.572466740100026
 10
23.87691166919998
 20
1.586032037800009
 10
23.8448007618
 20
1.603525578300036
 10
23.81467152589999
 20
1.624605764199998
 10
23.78735052669998
 20
1.649110177799968
 10
23.76304649540001
 20
1.676578372699964
 10
23.74219758540002
 20
1.706773560899989
 10
23.72494209580003
 20
1.738862349800058
 10
23.7115994623
 20
1.772030430400036
 10
23.70206442810002
 20
1.805983762799996
 10
23.69633836759999
 20
1.840086186000007
 10
23.69442082250001
 20
1.874549753799954
  0
LWPOLYLINE
  5
13FB
330
22
100
AcDbEntity
  8
1
100
AcDbPolyline
 90
       13
 70
     0
 43
0.0
 10
24.24257496709998
 20
1.89596578710001
 10
24.2171227826
 20
1.897616468899968
 10
24.1921385826
 20
1.902572879199965
 10
24.16735830250002
 20
1.910878733900005
 10
24.14357413650001
 20
1.922402885299959
 10
24.1213071956
 20
1.937156350800023
 10
24.10110666540001
 20
1.95475635059995
 10
24.0836553803
 20
1.975056098399988
 10
24.06907350490002
 20
1.997358630699977
 10
24.05772153310002
 20
2.021086801900025
 10
24.04956131200001
 20
2.045734371900039
 10
24.04468510480001
 20
2.070515390999958
 10
24.0430621571
 20
2.095691842399958
  0
LINE
  5
140A
330
22
100
AcDbEntity
  8
SK1
100
AcDbLine
 10
-1.704456457499986
 20
4.06362966949996
 30
0.0
 11
-1.600928839399983
 21
4.050000000000011
 31
0.0
  0
LWPOLYLINE
  5
140B
330
22
100
AcDbEntity
  8
1
100
AcDbPolyline
 90
        7
 70
     0
 43
0.0
 10
27.90808306220001
 20
1.95921936389999
 10
27.89912790740002
 20
1.961550997100005
 10
27.89007875940001
 20
1.963462053000057
 10
27.88091837070002
 20
1.964954934599973
 10
27.8716984838
 20
1.96602243289999
 10
27.86247084100001
 20
1.966657338999993
 10
27.85321819480001
 20
1.966862055799992
  0
LWPOLYLINE
  5
1414
330
22
100
AcDbEntity
  8
1
100
AcDbPolyline
 90
       15
 70
     0
 43
0.0
 10
23.99518781730001
 20
1.202856104299996
 10
23.9765081564
 20
1.207874957800015
 10
23.90841294540002
 20
1.229812363199982
 10
23.8454757966
 20
1.255742905799991
 10
23.786919877
 20
1.285725390799996
 10
23.7319966412
 20
1.319187996700009
 10
23.68062877150001
 20
1.3561797726
 10
23.6325273779
 20
1.396345827600043
 10
23.5875888779
 20
1.439890238600014
 10
23.54553147070001
 20
1.486813295599972
 10
23.50658906110002
 20
1.537133285399988
 10
23.47078204400003
 20
1.590844060500046
 10
23.43845627360003
 20
1.647714970500032
 10
23.41002752860001
 20
1.707453273099986
 10
23.38530808470003
 20
1.769813989999988
  0
LINE
  5
1425
330
22
100
AcDbEntity
  8
1
100
AcDbLine
 10
27.90808306220001
 20
1.95921936389999
 30
0.0
 11
28.08623026040002
 21
1.908366198500004
 31
0.0
  0
LINE
  5
1426
330
22
100
AcDbEntity
  8
1
100
AcDbLine
 10
24.08468244970001
 20
1.186670833199968
 30
0.0
 11
24.00444915169999
 21
1.219882945400001
 31
0.0
  0
LWPOLYLINE
  5
1427
330
22
100
AcDbEntity
  8
1
100
AcDbPolyline
 90
       11
 70
     0
 43
0.0
 10
29.06111062540001
 20
-2.034903479400043
 10
29.0656728255
 20
-2.037394844700031
 10
29.1033343702
 20
-2.063795059800042
 10
29.13748561930001
 20
-2.094471926900041
 10
29.16786565840002
 20
-2.128849481900033
 10
29.19392679590001
 20
-2.166631026299967
 10
29.21549615800001
 20
-2.20677444949996
 10
29.2321744498
 20
-2.248261223000042
 10
29.24409324250002
 20
-2.290723901299998
 10
29.25125081819999
 20
-2.333367160199941
 10
29.25364774959999
 20
-2.376456107699993
  0
LWPOLYLINE
  5
1434
330
22
100
AcDbEntity
  8
1
100
AcDbPolyline
 90
       16
 70
     0
 43
0.0
 10
24.00444915169999
 20
1.219882945400001
 10
23.91633023369999
 20
1.268588686699956
 10
23.83421806650003
 20
1.326883782499976
 10
23.75914609009999
 20
1.394034634299998
 10
23.69205784189998
 20
1.469197011099993
 10
23.63379679639999
 20
1.551425862100018
 10
23.58509569130001
 20
1.63968711169997
 10
23.54656697669998
 20
1.732870944599994
 10
23.51869528599999
 20
1.829805347899991
 10
23.50183115560003
 20
1.929271116299958
 10
23.4961866168
 20
2.03001749699996
 10
23.50183264520001
 20
2.130777563799995
 10
23.5186982461
 20
2.230284231900043
 10
23.54657137310002
 20
2.32728623989999
 10
23.58510147770002
 20
2.420563541999968
 10
23.6146156984
 20
2.474122444199963
  0
LINE
  5
1446
330
22
100
AcDbEntity
  8
1
100
AcDbLine
 10
25.48875951459999
 20
3.137868731599951
 30
0.0
 11
25.3878478899
 21
3.231240992499976
 31
0.0
  0
LWPOLYLINE
  5
1447
330
22
100
AcDbEntity
  8
1
100
AcDbPolyline
 90
       11
 70
     0
 43
0.0
 10
25.3878478899
 20
3.231240992499976
 10
25.29456582010002
 20
3.332269616699989
 10
25.20948627480001
 20
3.440334677300029
 10
25.13312918100002
 20
3.554779062500017
 10
25.06597529730001
 20
3.674884618499959
 10
25.00844591230001
 20
3.799891922399979
 10
24.96088395320001
 20
3.929049538000015
 10
24.9235773808
 20
4.061583137900015
 10
24.8967644473
 20
4.196657087799962
 10
24.88061215160002
 20
4.333424427199986
 10
24.8752173268
 20
4.471046341900034
  0
LINE
  5
146D
330
22
100
AcDbEntity
  8
1
100
AcDbLine
 10
24.68878917219999
 20
5.876362529700031
 30
0.0
 11
24.6378352424
 21
6.054855362599994
 31
0.0
  0
LINE
  5
146E
330
22
100
AcDbEntity
  8
1
100
AcDbLine
 10
24.0507541968
 20
5.948155500700011
 30
0.0
 11
24.10170812660002
 21
5.769662667799991
 31
0.0
  0
LWPOLYLINE
  5
146F
330
22
100
AcDbEntity
  8
1
100
AcDbPolyline
 90
        7
 70
     0
 43
0.0
 10
24.68878917160001
 20
5.876362531599966
 10
24.69112638370001
 20
5.867389727099975
 10
24.6930440932
 20
5.858322203000057
 10
24.69454471890001
 20
5.849142675199971
 10
24.69562100520003
 20
5.839902995700015
 10
24.69626569670001
 20
5.830655016599962
 10
24.69648121190002
 20
5.821381453799972
  0
LWPOLYLINE
  5
1478
330
22
100
AcDbEntity
  8
1
100
AcDbPolyline
 90
        7
 70
     0
 43
0.0
 10
24.0507541973
 20
5.948155498799962
 10
24.04841698530001
 20
5.957128303300009
 10
24.0464992757
 20
5.966195827499973
 10
24.04499865009999
 20
5.975375355300002
 10
24.04392236380002
 20
5.984615034800015
 10
24.04327767230001
 20
5.993863013900011
 10
24.0430621571
 20
6.003136576700001
  0
LWPOLYLINE
  5
1481
330
22
100
AcDbEntity
  8
1
100
AcDbPolyline
 90
       11
 70
     0
 43
0.0
 10
24.63014320260001
 20
2.602330782500018
 10
24.63135118240001
 20
2.586972350599978
 10
24.63492355310001
 20
2.572082279699998
 10
24.64092509280002
 20
2.557414155299966
 10
24.6491614672
 20
2.543707221200008
 10
24.65961672430001
 20
2.531531269499964
 10
24.67182049520002
 20
2.521148241200023
 10
24.6854838788
 20
2.513013020299979
 10
24.7000465198
 20
2.507116569999993
 10
24.71476968080001
 20
2.503619305400036
 10
24.7298996076
 20
2.502467754800022
  0
LWPOLYLINE
  5
148E
330
22
100
AcDbEntity
  8
1
100
AcDbPolyline
 90
       15
 70
     0
 43
0.0
 10
23.99111010639999
 20
2.095628440599966
 10
23.9926705469
 20
2.068116718499993
 10
23.99727903959999
 20
2.040958653000018
 10
24.0049466303
 20
2.013983250199942
 10
24.01564018180002
 20
1.987703492300056
 10
24.0294199839
 20
1.962367144400047
 10
24.04601680000002
 20
1.938598863000038
 10
24.06530218520001
 20
1.917051105799998
 10
24.08691405290003
 20
1.897888234599975
 10
24.11066588
 20
1.881455965700013
 10
24.13590253070001
 20
1.867862693700033
 10
24.161983695
 20
1.857359847699967
 10
24.18867837370001
 20
1.849864040100044
 10
24.2154865766
 20
1.845375745899957
 10
24.24257496709998
 20
1.843894806700006
  0
LWPOLYLINE
  5
149F
330
22
100
AcDbEntity
  8
1
100
AcDbPolyline
 90
       15
 70
     0
 43
0.0
 10
23.6146156984
 20
1.874452360400027
 10
23.6170918126
 20
1.830796630699978
 10
23.6244045905
 20
1.787702085100022
 10
23.63657155950003
 20
1.744897389400023
 10
23.65354013700002
 20
1.703196546200047
 10
23.67540599169999
 20
1.662992710599951
 10
23.70174189720001
 20
1.62527709029996
 10
23.73234403700002
 20
1.59108500800005
 10
23.76663784999999
 20
1.560677274099987
 10
23.8043273605
 20
1.534602472900019
 10
23.84437299630002
 20
1.513032605100022
 10
23.88575871009999
 20
1.496366639800044
 10
23.9281179514
 20
1.48447225709998
 10
23.97065733349998
 20
1.477350210800011
 10
24.01364131849999
 20
1.475000249599986
  0
LWPOLYLINE
  5
14B0
330
22
100
AcDbEntity
  8
1
100
AcDbPolyline
 90
        7
 70
     0
 43
0.0
 10
24.63014320260001
 20
6.109836440500032
 10
24.63035871580002
 20
6.100562904099945
 10
24.63100340530002
 20
6.091314940699987
 10
24.63207968879999
 20
6.082075266200035
 10
24.6335803131
 20
6.072895732900008
 10
24.63549802500001
 20
6.063828193000006
 10
24.6378352424
 20
6.054855362599994
  0
LWPOLYLINE
  5
14B9
330
22
100
AcDbEntity
  8
1
100
AcDbPolyline
 90
        7
 70
     0
 43
0.0
 10
24.10940016640001
 20
5.714681589899953
 10
24.1091846532
 20
5.723955126299983
 10
24.10853996370003
 20
5.733203089699998
 10
24.1074636802
 20
5.742442764200006
 10
24.10596305590002
 20
5.751622297600022
 10
24.1040453439
 20
5.760689837399979
 10
24.10170812660002
 20
5.769662667900036
  0
LINE
  5
14C2
330
22
100
AcDbEntity
  8
1
100
AcDbLine
 10
24.69648121190002
 20
3.132870884599981
 30
0.0
 11
24.69648121190002
 21
5.821381453799972
 31
0.0
  0
LINE
  5
14C3
330
22
100
AcDbEntity
  8
1
100
AcDbLine
 10
24.63014320260001
 20
2.602330782500018
 30
0.0
 11
24.63014320260001
 21
2.844253983099974
 31
0.0
  0
LINE
  5
14C4
330
22
100
AcDbEntity
  8
1
100
AcDbLine
 10
24.63014320260001
 20
6.109836438499996
 30
0.0
 11
24.63014320260001
 21
6.351759639299984
 31
0.0
  0
LINE
  5
14C5
330
22
100
AcDbEntity
  8
1
100
AcDbLine
 10
24.10940016640001
 20
5.714681591900045
 30
0.0
 11
24.10940016640001
 21
3.231139800199969
 31
0.0
  0
LINE
  5
14C6
330
22
100
AcDbEntity
  8
1
100
AcDbLine
 10
24.0430621571
 20
6.849967632900018
 30
0.0
 11
24.0430621571
 21
6.003136576700001
 31
0.0
  0
LINE
  5
14C7
330
22
100
AcDbEntity
  8
1
100
AcDbLine
 10
24.0430621571
 20
2.94252289879995
 30
0.0
 11
24.0430621571
 21
2.095691842399958
 31
0.0
  0
LINE
  5
14C8
330
22
100
AcDbEntity
  8
1
100
AcDbLine
 10
23.99111010639999
 20
2.095628440599966
 30
0.0
 11
23.99111010639999
 21
6.849904231100026
 31
0.0
  0
LINE
  5
14C9
330
22
100
AcDbEntity
  8
1
100
AcDbLine
 10
23.69442082250001
 20
7.073757768599989
 30
0.0
 11
23.69442082250001
 21
1.874549753799954
 31
0.0
  0
LINE
  5
14CA
330
22
100
AcDbEntity
  8
1
100
AcDbLine
 10
23.6146156984
 20
1.874452360400027
 30
0.0
 11
23.6146156984
 21
7.073660375199949
 31
0.0
  0
LINE
  5
14CB
330
22
100
AcDbEntity
  8
1
100
AcDbLine
 10
23.6146156984
 20
-7.0
 30
0.0
 11
23.6146156984
 21
-7.069824969199999
 31
0.0
  0
LWPOLYLINE
  5
14CC
330
22
100
AcDbEntity
  8
1
100
AcDbPolyline
 90
        7
 70
     0
 43
0.0
 10
24.69648121190002
 20
3.132870884599981
 10
24.69626569880001
 20
3.123596823900015
 10
24.69562100940001
 20
3.114347288000033
 10
24.69454472590002
 20
3.105104986900016
 10
24.69304410160001
 20
3.095921790500028
 10
24.69112638940001
 20
3.086849569000037
 10
24.68878917160001
 20
3.077871032199993
  0
LWPOLYLINE
  5
14D5
330
22
100
AcDbEntity
  8
1
100
AcDbPolyline
 90
        7
 70
     0
 43
0.0
 10
24.0430621571
 20
2.942522896800028
 10
24.0432776703
 20
2.951796959199953
 10
24.04392235980001
 20
2.961046496099982
 10
24.04499864320002
 20
2.970288797600005
 10
24.0464992675
 20
2.97947199370003
 10
24.04841697950002
 20
2.988544214199976
 10
24.0507541968
 20
2.997522749300003
  0
LWPOLYLINE
  5
14DE
330
22
100
AcDbEntity
  8
1
100
AcDbPolyline
 90
       22
 70
     0
 43
0.0
 10
24.8752173268
 20
4.471046363899972
 10
24.88061215100001
 20
4.608681417500008
 10
24.89676444260002
 20
4.74548815830002
 10
24.92357737000001
 20
4.880627537399959
 10
24.96088393490001
 20
5.01325218300002
 10
25.0084458842
 20
5.142525875300009
 10
25.06597525770002
 20
5.267673585899956
 10
25.1331291283
 20
5.387943041699998
 10
25.20948620799999
 20
5.502573791900033
 10
25.29456573830001
 20
5.610846509300017
 10
25.38784779260002
 20
5.71210281330002
 10
25.4887594018
 20
5.805721378399937
 10
25.59668132880001
 20
5.891127155800006
 10
25.71095730370001
 20
5.967798228000049
 10
25.83087022450002
 20
6.035251880299995
 10
25.95566188079999
 20
6.093064950599966
 10
26.08458213950001
 20
6.140892832100007
 10
26.21685809700003
 20
6.178445980700018
 10
26.35165574300001
 20
6.205484598000055
 10
26.48812808470001
 20
6.221840145199962
 10
26.62544343490001
 20
6.227414986399992
 10
26.76275878640002
 20
6.22217531589996
  0
LWPOLYLINE
  5
14F6
330
22
100
AcDbEntity
  8
1
100
AcDbPolyline
 90
       15
 70
     0
 43
0.0
 10
23.69442082250001
 20
7.073757768599989
 10
23.69640171380002
 20
7.108687187300006
 10
23.70225193610003
 20
7.143177102899983
 10
23.71198551130001
 20
7.177444616999991
 10
23.72556037330003
 20
7.210838424800044
 10
23.74305305709999
 20
7.243044189199963
 10
23.76412178150002
 20
7.273268109599996
 10
23.78860349330003
 20
7.300681529899975
 10
23.81603854369999
 20
7.32507468
 10
23.84619015210001
 20
7.346008114499966
 10
23.87822666069999
 20
7.363342202900014
 10
23.9113352318
 20
7.376755785899945
 10
23.94522262490003
 20
7.386354003799965
 10
23.97925413050001
 20
7.392134704400007
 10
24.01364131849999
 20
7.394098604899966
  0
LWPOLYLINE
  5
1507
330
22
100
AcDbEntity
  8
1
100
AcDbPolyline
 90
       13
 70
     0
 43
0.0
 10
24.0430621571
 20
6.849967632900018
 10
24.0447400594
 20
6.875480130800042
 10
24.04971557009998
 20
6.900527597200039
 10
24.0580326269
 20
6.925374754899962
 10
24.06955941690001
 20
6.949227435299974
 10
24.08430629790001
 20
6.971563347200003
 10
24.10189069570001
 20
6.991831580700022
 10
24.12216532780002
 20
7.009347558700028
 10
24.14443467620001
 20
7.023989992400004
 10
24.16812247460001
 20
7.035396859800016
 10
24.19272368570001
 20
7.043605784600003
 10
24.21745404239999
 20
7.048523335299989
 10
24.24257496709998
 20
7.050180655600001
  0
LWPOLYLINE
  5
1516
330
22
100
AcDbEntity
  8
1
100
AcDbPolyline
 90
        7
 70
     0
 43
0.0
 10
24.63783524290003
 20
2.899253835599949
 10
24.63549803090001
 20
2.890275326400001
 10
24.6335803213
 20
2.88120312159998
 10
24.6320796956
 20
2.872019931099998
 10
24.63100340930001
 20
2.862777624599971
 10
24.63035871780002
 20
2.85352807199996
 10
24.63014320260001
 20
2.844253983099974
  0
LWPOLYLINE
  5
151F
330
22
100
AcDbEntity
  8
1
100
AcDbPolyline
 90
        7
 70
     0
 43
0.0
 10
24.10170812660002
 20
3.176139949599985
 10
24.10404533819999
 20
3.185118456999987
 10
24.1059630476
 20
3.194190660800018
 10
24.10746367320002
 20
3.20337385099998
 10
24.10853995950001
 20
3.212616157799971
 10
24.10918465110001
 20
3.221865711500015
 10
24.10940016640001
 20
3.231139801999972
  0
LINE
  5
1528
330
22
100
AcDbEntity
  8
1
100
AcDbLine
 10
24.63783524230001
 20
2.899253833700015
 30
0.0
 11
24.68878917219999
 21
3.077871034099985
 31
0.0
  0
LINE
  5
1529
330
22
100
AcDbEntity
  8
1
100
AcDbLine
 10
24.10170812660002
 20
3.176139949599985
 30
0.0
 11
24.0507541968
 21
2.997522749300003
 31
0.0
  0
LWPOLYLINE
  5
1585
330
22
100
AcDbEntity
  8
1
100
AcDbPolyline
 90
       13
 70
     0
 43
0.0
 10
24.88104022540003
 20
1.457207617899996
 10
24.83972981670002
 20
1.417408907799995
 10
24.79605673890001
 20
1.380402222099974
 10
24.7501164743
 20
1.346113556599959
 10
24.70171213370003
 20
1.314561529599984
 10
24.65068954330002
 20
1.285583773300004
 10
24.5970106833
 20
1.259493429099961
 10
24.54067424670001
 20
1.236317052699973
 10
24.4814246668
 20
1.216443112099966
 10
24.4190005646
 20
1.19994019820001
 10
24.35342645420002
 20
1.187463846800028
 10
24.2846230552
 20
1.179848113099978
 10
24.21263692610001
 20
1.17650676300002
  0
LINE
  5
1594
330
22
100
AcDbEntity
  8
1
100
AcDbLine
 10
24.90469605780001
 20
1.476087684899994
 30
0.0
 11
24.88104022540003
 21
1.457207617899996
 31
0.0
  0
LINE
  5
1595
330
22
100
AcDbEntity
  8
1
100
AcDbLine
 10
25.14233673280001
 20
1.90477349690002
 30
0.0
 11
25.32048393100001
 21
1.95606148080003
 31
0.0
  0
LINE
  5
1596
330
22
100
AcDbEntity
  8
1
100
AcDbLine
 10
25.20428232120003
 20
2.561826910399986
 30
0.0
 11
25.0261351229
 21
2.510538926500032
 31
0.0
  0
LINE
  5
1597
330
22
100
AcDbEntity
  8
SK1
100
AcDbLine
 10
-1.704456457499986
 20
-4.06362966949996
 30
0.0
 11
-1.600928839399983
 21
-4.050000000000011
 31
0.0
  0
LINE
  5
1599
330
22
100
AcDbEntity
  8
3
100
AcDbLine
 10
5.800000000000011
 20
-1.399999999999977
 30
0.0
 11
-0.4000000000000057
 21
-1.399999999999977
 31
0.0
  0
LINE
  5
159A
330
22
100
AcDbEntity
  8
1
100
AcDbLine
 10
29.2009743799
 20
-1.469824969199976
 30
0.0
 11
29.06111062540001
 21
-1.469824969199976
 31
0.0
  0
LINE
  5
159B
330
22
100
AcDbEntity
  8
1
100
AcDbLine
 10
29.06111062540001
 20
-1.619917063700029
 30
0.0
 11
29.11054090490001
 21
-1.619917063700029
 31
0.0
  0
LINE
  5
159C
330
22
100
AcDbEntity
  8
SK1
100
AcDbLine
 10
-7.299999999999982
 20
-3.125
 30
0.0
 11
-8.576471862599987
 21
-3.125
 31
0.0
  0
LINE
  5
159D
330
22
100
AcDbEntity
  8
SK1
100
AcDbLine
 10
-17.79999999999998
 20
-3.399999999999977
 30
0.0
 11
-9.099999999999994
 21
-3.399999999999977
 31
0.0
  0
LWPOLYLINE
  5
159E
330
22
100
AcDbEntity
  8
3
100
AcDbPolyline
 90
        7
 70
     0
 43
0.0
 10
5.800000000000011
 20
-0.4763053962999493
 10
5.680630984299995
 20
-0.4738395251999919
 10
5.562614563800025
 20
-0.4704650298999696
 10
5.445942946300021
 20
-0.4662017684000262
 10
5.33063950799999
 20
-0.4609796642999982
 10
5.2167276248
 20
-0.454727648100004
 10
5.104199504799993
 20
-0.4474632886000336
  0
LWPOLYLINE
  5
15C5
330
22
100
AcDbEntity
  8
1
100
AcDbPolyline
 90
       15
 70
     0
 43
0.0
 10
29.2009743799
 20
-1.469824969199976
 10
29.24453341520001
 20
-1.472307129800014
 10
29.2875384372
 20
-1.479637764699987
 10
29.33026018180001
 20
-1.49183444419998
 10
29.3718864416
 20
-1.508844457300028
 10
29.41202507590001
 20
-1.530763706200048
 10
29.44968662069999
 20
-1.557163921299945
 10
29.48383786970001
 20
-1.587840788300013
 10
29.51421790879999
 20
-1.622218343400049
 10
29.54027904629999
 20
-1.659999887799983
 10
29.56184840840001
 20
-1.700143310999976
 10
29.5785267002
 20
-1.741630084400014
 10
29.59044549290002
 20
-1.78409276269997
 10
29.59760306860002
 20
-1.826736021600027
 10
29.59999999999999
 20
-1.869824969199953
  0
LWPOLYLINE
  5
15D6
330
22
100
AcDbEntity
  8
1
100
AcDbPolyline
 90
       16
 70
     0
 43
0.0
 10
5.546920975700004
 20
1.112643024000021
 10
5.468665699300004
 20
1.121604335199947
 10
5.169553905200018
 20
1.168351186999984
 10
4.882197137300011
 20
1.23114018480004
 10
4.606358673499983
 20
1.30827558010003
 10
4.341619927200014
 20
1.399106717400002
 10
4.087512611699992
 20
1.502506177600025
 10
3.84394910360001
 20
1.618061221699974
 10
3.610656095800038
 20
1.745000444499964
 10
3.387722352400032
 20
1.88307183720002
 10
3.174935866100014
 20
2.031853635400011
 10
2.972925643499991
 20
2.190799765999997
 10
2.782032807099994
 20
2.359367020999968
 10
2.602909001100016
 20
2.536783775500055
 10
2.436415245600016
 20
2.722133073799966
 10
2.282264534099994
 20
2.91493546519996
  0
LINE
  5
15E8
330
22
100
AcDbEntity
  8
SK1
100
AcDbLine
 10
-1.704456457499986
 20
4.06362966949996
 30
0.0
 11
-2.400000000000005
 21
4.25
 31
0.0
  0
LWPOLYLINE
  5
15FF
330
22
100
AcDbEntity
  8
1
100
AcDbPolyline
 90
       11
 70
     0
 43
0.0
 10
23.38530808470003
 20
1.769813989999988
 10
23.35573116290001
 20
1.872569137500022
 10
23.33855920169998
 20
1.976645795999957
 10
23.33380193069999
 20
2.08278071059999
 10
23.34143016120001
 20
2.188763646299946
 10
23.36159624270002
 20
2.293098628000052
 10
23.39376529099999
 20
2.394379621299947
 10
23.43773625810002
 20
2.491116171800001
 10
23.49265998570002
 20
2.582065563399964
 10
23.5575057778
 20
2.665270820199964
 10
23.6146156984
 20
2.723142616699988
  0
LINE
  5
160C
330
22
100
AcDbEntity
  8
1
100
AcDbLine
 10
27.99638208250002
 20
6.39707231370005
 30
0.0
 11
28.17452928080001
 21
6.448360297600004
 31
0.0
  0
LINE
  5
160D
330
22
100
AcDbEntity
  8
1
100
AcDbLine
 10
28.08623026040002
 20
7.047161769899958
 30
0.0
 11
27.90808306220001
 21
6.995873786099991
 31
0.0
  0
LWPOLYLINE
  5
160E
330
22
100
AcDbEntity
  8
1
100
AcDbPolyline
 90
       10
 70
     0
 43
0.0
 10
5.304408571199985
 20
-6.499989811900036
 10
5.783571568600024
 20
-6.495222722200026
 10
6.23676720840001
 20
-6.485171703700018
 10
6.703453275600026
 20
-6.472128758599978
 10
7.18196775740003
 20
-6.458322167200037
 10
7.668872307500009
 20
-6.445641296900021
 10
8.160998415299985
 20
-6.435728406000009
 10
8.65587456
 20
-6.429596956200043
 10
9.149532089399997
 20
-6.427895857799967
 10
9.643293887499993
 20
-6.430774311600032
  0
LINE
  5
161A
330
22
100
AcDbEntity
  8
SK1
100
AcDbLine
 10
-9.699999999999988
 20
-4.0
 30
0.0
 11
-17.19999999999999
 21
-4.0
 31
0.0
  0
LINE
  5
161B
330
22
100
AcDbEntity
  8
SK1
100
AcDbLine
 10
-0.6999999999999887
 20
-4.050000000000011
 30
0.0
 11
-1.600928839399983
 21
-4.050000000000011
 31
0.0
  0
LINE
  5
161C
330
22
100
AcDbEntity
  8
SK1
100
AcDbLine
 10
-2.400000000000005
 20
-4.25
 30
0.0
 11
-6.299999999999982
 21
-4.25
 31
0.0
  0
LINE
  5
161D
330
22
100
AcDbEntity
  8
1
100
AcDbLine
 10
34.60525936970001
 20
-5.969824969199976
 30
0.0
 11
29.59999999999999
 21
-5.969824969199976
 31
0.0
  0
LINE
  5
161E
330
22
100
AcDbEntity
  8
1
100
AcDbLine
 10
11.59999999999999
 20
-6.326057508499957
 30
0.0
 11
4.599999999999994
 21
-6.326057508499957
 31
0.0
  0
LINE
  5
1632
330
22
100
AcDbEntity
  8
3
100
AcDbLine
 10
5.104199504799993
 20
1.195476773000052
 30
0.0
 11
5.085328670400002
 21
1.200180277699985
 31
0.0
  0
LWPOLYLINE
  5
1653
330
22
100
AcDbEntity
  8
1
100
AcDbPolyline
 90
       11
 70
     0
 43
0.0
 10
24.40894985770001
 20
-6.693425632900016
 10
24.42440655570002
 20
-6.721868414400034
 10
24.4441584848
 20
-6.750183547200037
 10
24.4671100896
 20
-6.775859529400008
 10
24.4928304494
 20
-6.798700197500011
 10
24.52109758219999
 20
-6.818293779599969
 10
24.55113180910001
 20
-6.834510303799959
 10
24.58217109440003
 20
-6.847049567600038
 10
24.61394052540001
 20
-6.856010490500011
 10
24.64584506200001
 20
-6.861391780900021
 10
24.67808305080001
 20
-6.86319386919996
  0
LWPOLYLINE
  5
1660
330
22
100
AcDbEntity
  8
1
100
AcDbPolyline
 90
        5
 70
     0
 43
0.0
 10
23.643079371
 20
-6.999993644899973
 10
23.73919087580004
 20
-6.993728669000006
 10
23.84531119740004
 20
-6.972266456900001
 10
23.9509781646
 20
-6.935539719299981
 10
24.05619177750001
 20
-6.883548455999971
  0
LWPOLYLINE
  5
1667
330
22
100
AcDbEntity
  8
1
100
AcDbPolyline
 90
       15
 70
     0
 43
0.0
 10
28.85462216790001
 20
-6.86319386919996
 10
28.88729144440001
 20
-6.861332248799953
 10
28.9195452109
 20
-6.85583427260002
 10
28.95158651930001
 20
-6.846686763000036
 10
28.9828062142
 20
-6.833929253199983
 10
29.0129101899
 20
-6.817489816500028
 10
29.04115634850001
 20
-6.797689655199974
 10
29.06676978530001
 20
-6.7746820049
 10
29.08955481460001
 20
-6.748898838599984
 10
29.10910066780002
 20
-6.720562680299963
 10
29.12527768930002
 20
-6.690455112899996
 10
29.1377864081
 20
-6.659340032800002
 10
29.14672550270001
 20
-6.627493024100033
 10
29.15209368450002
 20
-6.595510579899951
 10
29.153891383
 20
-6.563193869200006
  0
LWPOLYLINE
  5
1678
330
22
100
AcDbEntity
  8
1
100
AcDbPolyline
 90
       15
 70
     0
 43
0.0
 10
29.11054090490001
 20
-7.319732874700036
 10
29.15523398499999
 20
-7.317212145999974
 10
29.19934791450001
 20
-7.309676426500004
 10
29.2423446013
 20
-7.297274858499974
 10
29.28367116890001
 20
-7.280117259400014
 10
29.32281467830001
 20
-7.258406258099967
 10
29.35930746750003
 20
-7.232457943899987
 10
29.39268074559999
 20
-7.202578349499958
 10
29.42248915090002
 20
-7.169126785299965
 10
29.44837548120001
 20
-7.132549328700008
 10
29.4700356335
 20
-7.093312849699998
 10
29.4871552708
 20
-7.051880828200012
 10
29.49952933649999
 20
-7.008770709100019
 10
29.50704702030001
 20
-6.964541230999998
 10
29.509566525
 20
-6.919732874700002
  0
LINE
  5
1689
330
22
100
AcDbEntity
  8
1
100
AcDbLine
 10
5.313127167700002
 20
-6.5
 30
0.0
 11
0.0
 21
-6.5
 31
0.0
  0
LINE
  5
168A
330
22
100
AcDbEntity
  8
1
100
AcDbLine
 10
24.7848151032
 20
-6.763193869199994
 30
0.0
 11
27.89092816990001
 21
-6.763193869199994
 31
0.0
  0
LINE
  5
168B
330
22
100
AcDbEntity
  8
1
100
AcDbLine
 10
28.65140890360001
 20
-6.763193869199994
 30
0.0
 11
28.76184141030001
 21
-6.763193869199994
 31
0.0
  0
LINE
  5
168C
330
22
100
AcDbEntity
  8
1
100
AcDbLine
 10
28.85462216790001
 20
-6.86319386919996
 30
0.0
 11
24.67808305080001
 21
-6.86319386919996
 31
0.0
  0
LINE
  5
168D
330
22
100
AcDbEntity
  8
1
100
AcDbLine
 10
28.8546221295
 20
-6.963193830699992
 30
0.0
 11
24.67808308920002
 21
-6.963193830699992
 31
0.0
  0
LINE
  5
168E
330
22
100
AcDbEntity
  8
1
100
AcDbLine
 10
23.6430371273
 20
-7.0
 30
0.0
 11
23.17349548080003
 21
-7.0
 31
0.0
  0
LINE
  5
168F
330
22
100
AcDbEntity
  8
1
100
AcDbLine
 10
24.22266079889999
 20
-7.319732874700036
 30
0.0
 11
29.11054090490001
 21
-7.319732874700036
 31
0.0
  0
LINE
  5
1690
330
22
100
AcDbEntity
  8
1
100
AcDbLine
 10
24.01364131849999
 20
-7.469824969199976
 30
0.0
 11
29.2009743799
 21
-7.469824969199976
 31
0.0
  0
LWPOLYLINE
  5
1691
330
22
100
AcDbEntity
  8
1
100
AcDbPolyline
 90
        7
 70
     0
 43
0.0
 10
23.1730863093
 20
-6.9999988733
 10
21.8231720798
 20
-6.999361358499982
 10
20.01557305360001
 20
-6.996516205599959
 10
18.20960331520001
 20
-6.991388885999981
 10
16.40591328249999
 20
-6.983985432400004
 10
14.60515337310002
 20
-6.974311877399998
 10
12.80710678119999
 20
-6.962366210100014
  0
LINE
  5
169A
330
22
100
AcDbEntity
  8
1
100
AcDbLine
 10
11.89289321880002
 20
-6.45195905349999
 30
0.0
 11
11.1417822425
 21
-6.445320454400018
 31
0.0
  0
LINE
  5
169B
330
22
100
AcDbEntity
  8
1
100
AcDbLine
 10
11.1417822425
 20
-6.445320454400018
 30
0.0
 11
10.39187539009998
 21
-6.438258236799981
 31
0.0
  0
LINE
  5
169C
330
22
100
AcDbEntity
  8
1
100
AcDbLine
 10
10.39187539009998
 20
-6.438258236799981
 30
0.0
 11
9.64326701889999
 21
-6.430774027699953
 31
0.0
  0
LWPOLYLINE
  5
169D
330
22
100
AcDbEntity
  8
1
100
AcDbPolyline
 90
        7
 70
     0
 43
0.0
 10
28.62797928950002
 20
-6.77674321500001
 10
27.8944778158
 20
-6.763261120399988
 10
27.1632544274
 20
-6.749407447600049
 10
26.43427850980001
 20
-6.735180920599987
 10
25.70764190700001
 20
-6.720585367399962
 10
24.98343646340001
 20
-6.70562461610001
 10
24.26163156410002
 20
-6.690297390500006
  0
LWPOLYLINE
  5
16A6
330
22
100
AcDbEntity
  8
1
100
AcDbPolyline
 90
       13
 70
     0
 43
0.0
 10
11.89289321880002
 20
-6.45195905349999
 10
11.92578560860002
 20
-6.453336997300027
 10
11.958372572
 20
-6.45685495539999
 10
11.99072289369999
 20
-6.462529985000003
 10
12.02263021979999
 20
-6.470310915100014
 10
12.05395399740001
 20
-6.480172549100018
 10
12.08456560830001
 20
-6.492054021900003
 10
12.11432634729999
 20
-6.505909469299979
 10
12.14312592240003
 20
-6.521668692099979
 10
12.17084181790002
 20
-6.539272645900041
 10
12.19737200040001
 20
-6.558642002699968
 10
12.22255573849998
 20
-6.579665377300045
 10
12.24644660939998
 20
-6.602379898099968
  0
LWPOLYLINE
  5
16B5
330
22
100
AcDbEntity
  8
1
100
AcDbPolyline
 90
       14
 70
     0
 43
0.0
 10
24.22266079889999
 20
-7.319732874700036
 10
24.17797056160001
 20
-7.317205492200002
 10
24.13385172810001
 20
-7.309673890800013
 10
24.09085310270001
 20
-7.297274042100013
 10
24.04952797750002
 20
-7.280117209400032
 10
24.01038821450001
 20
-7.258408706500006
 10
23.97389809220002
 20
-7.23246179190005
 10
23.94052136099998
 20
-7.202580169100031
 10
23.9107092635
 20
-7.169121683700041
 10
23.88481996410002
 20
-7.132537485900058
 10
23.86315918680001
 20
-7.093296080199991
 10
23.84604104290003
 20
-7.051868042300043
 10
23.83366891470001
 20
-7.008764585599976
 10
23.82805974849998
 20
-6.975755461200037
  0
LWPOLYLINE
  5
16C5
330
22
100
AcDbEntity
  8
1
100
AcDbPolyline
 90
        8
 70
     0
 43
0.0
 10
24.7848151032
 20
-6.763193869199994
 10
24.75214582660001
 20
-6.761332248799988
 10
24.71989205989999
 20
-6.755834272599997
 10
24.68785075150001
 20
-6.746686763000013
 10
24.65663105670001
 20
-6.733929253200017
 10
24.62652708100001
 20
-6.717489816500005
 10
24.59828092250001
 20
-6.697689655199951
 10
24.59800310290001
 20
-6.697440099599987
  0
LWPOLYLINE
  5
16CF
330
22
100
AcDbEntity
  8
1
100
AcDbPolyline
 90
       13
 70
     0
 43
0.0
 10
24.67808308920002
 20
-6.963193830699992
 10
24.634524054
 20
-6.96071167010001
 10
24.59151903190002
 20
-6.953381035199981
 10
24.54879728739999
 20
-6.941184355699988
 10
24.50717102760001
 20
-6.924174342599997
 10
24.46703239330001
 20
-6.902255093700034
 10
24.42937084850001
 20
-6.875854878600023
 10
24.39521959940001
 20
-6.845178011500024
 10
24.36483956030003
 20
-6.810800456500032
 10
24.33877842280001
 20
-6.773018912099985
 10
24.31720906070001
 20
-6.732875488899992
 10
24.30053076900001
 20
-6.691388715400023
 10
24.30045585110003
 20
-6.691121808000048
  0
LWPOLYLINE
  5
16DE
330
22
100
AcDbEntity
  8
1
100
AcDbPolyline
 90
       15
 70
     0
 43
0.0
 10
24.01364131860001
 20
-7.469824969199976
 10
23.97008228330003
 20
-7.467342808599994
 10
23.92707726130002
 20
-7.460012173700022
 10
23.8843555167
 20
-7.447815494199971
 10
23.84272925689999
 20
-7.43080548109998
 10
23.80259062259998
 20
-7.408886232200018
 10
23.76492907779999
 20
-7.382486017199994
 10
23.73077782869998
 20
-7.351809150099995
 10
23.7003977896
 20
-7.317431595100003
 10
23.67433665210001
 20
-7.279650050599968
 10
23.6527672901
 20
-7.23950662750002
 10
23.63608899830001
 20
-7.198019853999994
 10
23.62417020550001
 20
-7.155557175699982
 10
23.6170126298
 20
-7.112913916799982
 10
23.6146156984
 20
-7.069824969199999
  0
LINE
  5
16EF
330
22
100
AcDbEntity
  8
3
100
AcDbLine
 10
5.079661848699998
 20
1.199237333499979
 30
0.0
 11
5.068507136600004
 21
1.193924047300015
 31
0.0
  0
LINE
  5
16F0
330
22
100
AcDbEntity
  8
1
100
AcDbLine
 10
11.59999999999999
 20
-6.326057508499957
 30
0.0
 11
11.59999999999999
 21
0.3079072769999698
 31
0.0
  0
LINE
  5
1700
330
22
100
AcDbEntity
  8
1
100
AcDbLine
 10
12.4535533906
 20
6.798315948700007
 30
0.0
 11
12.24644660939998
 21
6.588039129499975
 31
0.0
  0
LWPOLYLINE
  5
1701
330
22
100
AcDbEntity
  8
1
100
AcDbPolyline
 90
       13
 70
     0
 43
0.0
 10
12.4535533906
 20
6.798315948700007
 10
12.47749849439998
 20
6.821077959700005
 10
12.50274268720003
 20
6.842139268899984
 10
12.52934469259997
 20
6.861539163799989
 10
12.55712834009998
 20
6.8791597819
 10
12.58598017029999
 20
6.894914215699998
 10
12.61577077320001
 20
6.908748886800026
 10
12.64637627310003
 20
6.920593219099941
 10
12.6776666078
 20
6.930411298099954
 10
12.70951321220002
 20
6.938150709599995
 10
12.74178771980001
 20
6.943790377300047
 10
12.77429750679999
 20
6.94728693519994
 10
12.80710678119999
 20
6.948654838499976
  0
LWPOLYLINE
  5
1710
330
22
100
AcDbEntity
  8
1
100
AcDbPolyline
 90
       13
 70
     0
 43
0.0
 10
12.4535533906
 20
-6.812435958600019
 10
12.47749848970002
 20
-6.835172206300001
 10
12.50274268000001
 20
-6.856205909400046
 10
12.5293446853
 20
-6.875576290199944
 10
12.5571283342
 20
-6.893165681799985
 10
12.58598016669998
 20
-6.908887301200024
 10
12.61577077200002
 20
-6.922687719400016
 10
12.64637627310003
 20
-6.93449650010001
 10
12.67766660840002
 20
-6.944277882600033
 10
12.70951321270002
 20
-6.951979601699974
 10
12.74178772009998
 20
-6.957580734899977
 10
12.774297507
 20
-6.961038144599967
 10
12.80710678119999
 20
-6.962366210100014
  0
LINE
  5
171F
330
22
100
AcDbEntity
  8
1
100
AcDbLine
 10
12.4535533906
 20
-6.812435958600019
 30
0.0
 11
12.24644660939998
 21
-6.602379898099968
 31
0.0
  0
LWPOLYLINE
  5
1720
330
22
100
AcDbEntity
  8
3
100
AcDbPolyline
 90
        6
 70
     0
 43
0.0
 10
6.492474335400004
 20
0.0
 10
6.485326583300036
 20
-0.0243571566999776
 10
6.477015699600002
 20
-0.0482074744000443
 10
6.467430072599995
 20
-0.0715750962000357
 10
6.456923670200012
 20
-0.0943494266000471
 10
6.445783840499984
 20
-0.1164195890000315
  0
LWPOLYLINE
  5
1728
330
22
100
AcDbEntity
  8
3
100
AcDbPolyline
 90
        4
 70
     0
 43
0.0
 10
6.445783840499984
 20
-0.1164195890000315
 10
6.434106778300019
 20
-0.13784067429998
 10
6.422113360600008
 20
-0.1585435208000376
 10
6.409713127000003
 20
-0.1787883801999897
  0
LINE
  5
172E
330
22
100
AcDbEntity
  8
3
100
AcDbLine
 10
6.641204866599991
 20
0.0
 30
0.0
 11
5.800000000000011
 21
-1.399999999999977
 31
0.0
  0
LWPOLYLINE
  5
172F
330
22
100
AcDbEntity
  8
3
100
AcDbPolyline
 90
       21
 70
     0
 43
0.0
 10
6.409713127000003
 20
-0.1787883801999897
 10
6.396941729700017
 20
-0.1986844555000289
 10
6.383615347500011
 20
-0.2185325566999836
 10
6.369602176500023
 20
-0.2385551841000506
 10
6.354740742400025
 20
-0.2589369153999996
 10
6.338844343499999
 20
-0.2798557147000338
 10
6.321813046599999
 20
-0.3013453464999998
 10
6.303458987799984
 20
-0.3234840475000169
 10
6.283819364199985
 20
-0.3460722030000056
 10
6.262843259700019
 20
-0.368959088199972
 10
6.240590001699985
 20
-0.3918764226999656
 10
6.217113887400017
 20
-0.4145173341000259
 10
6.192376695999996
 20
-0.4366639966999628
 10
6.166355410600033
 20
-0.4580024726999455
 10
6.139045250999998
 20
-0.4781835419999539
 10
6.110397498400004
 20
-0.4967927566999606
 10
6.080515094900022
 20
-0.5132768030999842
 10
6.049515001100019
 20
-0.527017468199972
 10
6.017337525000016
 20
-0.5374277248000113
 10
5.983985790800034
 20
-0.5437512486000174
 10
5.973489937900012
 20
-0.5447441291999553
  0
LWPOLYLINE
  5
1746
330
22
100
AcDbEntity
  8
3
100
AcDbPolyline
 90
        4
 70
     0
 43
0.0
 10
5.068507136600004
 20
1.193924047300015
 10
5.051963690000008
 20
1.176676188700014
 10
5.036563564999994
 20
1.148684989900004
 10
5.022495950900008
 20
1.110294320899981
  0
LWPOLYLINE
  5
174C
330
22
100
AcDbEntity
  8
1
100
AcDbPolyline
 90
       11
 70
     0
 43
0.0
 10
2.423734504000009
 20
6.013789771999995
 10
2.611823901800022
 20
6.117302218199995
 10
2.824016199199974
 20
6.208690860199965
 10
3.060422419199994
 20
6.288108681200014
 10
3.320709492900022
 20
6.354534531500007
 10
3.605113766399995
 20
6.40781344070001
 10
3.912038017700012
 20
6.448084623099987
 10
4.240673202200014
 20
6.47600138460001
 10
4.588891132500009
 20
6.492681630500044
 10
4.954817355299979
 20
6.499575736200029
 10
5.093894882599983
 20
6.499995246999958
  0
LWPOLYLINE
  5
1759
330
22
100
AcDbEntity
  8
1
100
AcDbPolyline
 90
       19
 70
     0
 43
0.0
 10
2.282264534099994
 20
2.91493546519996
 10
2.143194124199993
 20
3.11297156789999
 10
2.021392090999995
 20
3.311151177400006
 10
1.917015614900009
 20
3.509094365199985
 10
1.829593154399987
 20
3.706013097799996
 10
1.75872192540001
 20
3.900948497699971
 10
1.704352835600019
 20
4.093981796599962
 10
1.666148140499984
 20
4.28516089750002
 10
1.644571012900001
 20
4.473232226499987
 10
1.639930603100026
 20
4.657404750199987
 10
1.65235123459999
 20
4.836418965999996
 10
1.681852940600009
 20
5.008753373000047
 10
1.729057743100014
 20
5.174828216399987
 10
1.794282631699985
 20
5.334627234000038
 10
1.878462737500001
 20
5.487329276100012
 10
1.982166952699998
 20
5.632259464400021
 10
2.106810983600013
 20
5.768782707300033
 10
2.254200834500011
 20
5.896242126200036
 10
2.423734504000009
 20
6.013789771999995
  0
LINE
  5
176E
330
22
100
AcDbEntity
  8
3
100
AcDbLine
 10
6.641204866599991
 20
0.0
 30
0.0
 11
5.800000000000011
 21
1.399999999999977
 31
0.0
  0
LWPOLYLINE
  5
176F
330
22
100
AcDbEntity
  8
3
100
AcDbPolyline
 90
       29
 70
     0
 43
0.0
 10
6.492474335400004
 20
0.0
 10
6.485326583300036
 20
0.0243571566999776
 10
6.477015699600002
 20
0.0482074744000443
 10
6.467430072599995
 20
0.0715750962999664
 10
6.456923670200012
 20
0.0943494266999778
 10
6.445783840499984
 20
0.1164195890999622
 10
6.434106778300019
 20
0.1378406744000244
 10
6.422113360600008
 20
0.1585435208000376
 10
6.409713127000003
 20
0.1787883802999772
 10
6.396941729700017
 20
0.1986844555999596
 10
6.383615347500011
 20
0.218532556800028
 10
6.369602176500023
 20
0.2385551840999369
 10
6.354740742400025
 20
0.2589369153999996
 10
6.338844343499999
 20
0.2798557148000214
 10
6.321813046599999
 20
0.3013453464999998
 10
6.303458987799984
 20
0.3234840475000169
 10
6.283819364199985
 20
0.3460722030000056
 10
6.262843259700019
 20
0.368959088199972
 10
6.240590001699985
 20
0.3918764226999656
 10
6.217113887400017
 20
0.4145173340999691
 10
6.192376695999996
 20
0.4366639966999628
 10
6.166355410600033
 20
0.4580024727999899
 10
6.139045250999998
 20
0.4781835420999983
 10
6.110397498400004
 20
0.4967927566999606
 10
6.080515094900022
 20
0.5132768030999842
 10
6.049515001100019
 20
0.5270174683000164
 10
6.017337525000016
 20
0.5374277248000113
 10
5.983985790800034
 20
0.5437512486000174
 10
5.973489937900012
 20
0.5447441291999553
  0
LINE
  5
178E
330
22
100
AcDbEntity
  8
3
100
AcDbLine
 10
5.800000000000011
 20
1.399999999999977
 30
0.0
 11
5.800000000000011
 21
0.4763053963999937
 31
0.0
  0
LINE
  5
178F
330
22
100
AcDbEntity
  8
3
100
AcDbLine
 10
5.800000000000011
 20
-0.4763053962999493
 30
0.0
 11
5.800000000000011
 21
-1.399999999999977
 31
0.0
  0
LINE
  5
1790
330
22
100
AcDbEntity
  8
1
100
AcDbLine
 10
4.599999999999994
 20
-6.326057508499957
 30
0.0
 11
4.599999999999994
 21
0.3079072769999698
 31
0.0
  0
LWPOLYLINE
  5
1791
330
22
100
AcDbEntity
  8
3
100
AcDbPolyline
 90
        8
 70
     0
 43
0.0
 10
5.022495950900008
 20
1.110294320899981
 10
5.009933667599995
 20
1.061975808399949
 10
4.999031041699993
 20
1.004323042300029
 10
4.989922011400011
 20
0.938044282699991
 10
4.982718480500011
 20
0.8639537598999709
 10
4.977508943800017
 20
0.7829616708999652
 10
4.974357400099989
 20
0.6960629981999773
 10
4.973302566100016
 20
0.6043252860000053
  0
LINE
  5
179B
330
22
100
AcDbEntity
  8
SK1
100
AcDbLine
 10
-6.299999999999982
 20
4.25
 30
0.0
 11
-6.699999999999988
 21
4.019059892300049
 31
0.0
  0
LINE
  5
179C
330
22
100
AcDbEntity
  8
SK1
100
AcDbLine
 10
-6.299999999999982
 20
-4.25
 30
0.0
 11
-6.699999999999988
 21
-4.019059892300049
 31
0.0
  0
LWPOLYLINE
  5
179D
330
22
100
AcDbEntity
  8
3
100
AcDbPolyline
 90
       13
 70
     0
 43
0.0
 10
5.104199504799993
 20
-0.4474632886000336
 10
5.085990669500006
 20
-0.3881248042999914
 10
5.068507136600004
 20
-0.320306185100037
 10
5.051963690000008
 20
-0.2448405782000123
 10
5.036563564999994
 20
-0.1626550733000158
 10
5.022495950900008
 20
-0.0747593141000493
 10
5.009933667599995
 20
0.0177669062000518
 10
4.999031041699993
 20
0.1137869089000105
 10
4.989922011400011
 20
0.2121210948999987
 10
4.982718480500011
 20
0.3115614353000069
 10
4.977508943800017
 20
0.41088631209999
 10
4.974357400099989
 20
0.5088755259999971
 10
4.973302566100016
 20
0.6043252860000053
  0
LINE
  5
17AC
330
22
100
AcDbEntity
  8
SK1
100
AcDbLine
 10
-9.000735931299999
 20
-3.300735931299982
 30
0.0
 11
-9.699999999999988
 21
-4.0
 31
0.0
  0
LINE
  5
17AD
330
22
100
AcDbEntity
  8
1
100
AcDbLine
 10
0.0
 20
6.5
 30
0.0
 11
-0.4000000000000057
 21
6.100000000000022
 31
0.0
  0
LINE
  5
17AE
330
22
100
AcDbEntity
  8
SK1
100
AcDbLine
 10
-9.000735931299999
 20
3.300735931299982
 30
0.0
 11
-9.699999999999988
 21
4.0
 31
0.0
  0
LINE
  5
17AF
330
22
100
AcDbEntity
  8
1
100
AcDbLine
 10
0.0
 20
-6.5
 30
0.0
 11
-0.4000000000000057
 21
-6.100000000000022
 31
0.0
  0
LINE
  5
17B0
330
22
100
AcDbEntity
  8
1
100
AcDbLine
 10
0.0
 20
6.5
 30
0.0
 11
0.0
 21
-6.5
 31
0.0
  0
LINE
  5
17B1
330
22
100
AcDbEntity
  8
1
100
AcDbLine
 10
-0.4000000000000057
 20
6.100000000000022
 30
0.0
 11
-0.4000000000000057
 21
-6.100000000000022
 31
0.0
  0
LINE
  5
17B2
330
22
100
AcDbEntity
  8
SK1
100
AcDbLine
 10
-2.400000000000005
 20
4.25
 30
0.0
 11
-2.400000000000005
 21
-4.25
 31
0.0
  0
LINE
  5
17B3
330
22
100
AcDbEntity
  8
SK1
100
AcDbLine
 10
-6.299999999999982
 20
4.25
 30
0.0
 11
-6.299999999999982
 21
-4.25
 31
0.0
  0
LINE
  5
17B4
330
22
100
AcDbEntity
  8
SK1
100
AcDbLine
 10
-6.699999999999988
 20
4.019059892300049
 30
0.0
 11
-6.699999999999988
 21
-4.019059892300049
 31
0.0
  0
LINE
  5
17B5
330
22
100
AcDbEntity
  8
SK1
100
AcDbLine
 10
-17.19999999999999
 20
4.0
 30
0.0
 11
-18.19999999999999
 21
3.0
 31
0.0
  0
LINE
  5
17B6
330
22
100
AcDbEntity
  8
SK1
100
AcDbLine
 10
-17.19999999999999
 20
-4.0
 30
0.0
 11
-18.19999999999999
 21
-3.0
 31
0.0
  0
LINE
  5
17B7
330
22
100
AcDbEntity
  8
SK1
100
AcDbLine
 10
-9.099999999999994
 20
3.399999999999977
 30
0.0
 11
-9.099999999999994
 21
-3.399999999999977
 31
0.0
  0
LINE
  5
17B8
330
22
100
AcDbEntity
  8
SK1
100
AcDbLine
 10
-9.699999999999988
 20
4.0
 30
0.0
 11
-9.699999999999988
 21
-4.0
 31
0.0
  0
LINE
  5
17B9
330
22
100
AcDbEntity
  8
SK1
100
AcDbLine
 10
-17.19999999999999
 20
4.0
 30
0.0
 11
-17.19999999999999
 21
-4.0
 31
0.0
  0
LINE
  5
17BA
330
22
100
AcDbEntity
  8
SK1
100
AcDbLine
 10
-17.79999999999998
 20
3.399999999999977
 30
0.0
 11
-17.79999999999998
 21
-3.399999999999977
 31
0.0
  0
LINE
  5
17BB
330
22
100
AcDbEntity
  8
SK1
100
AcDbLine
 10
-18.19999999999999
 20
2.999761359099977
 30
0.0
 11
-18.19999999999999
 21
-2.999761359100034
 31
0.0
  0
ARC
  5
17CC
330
22
100
AcDbEntity
  8
SK3
100
AcDbCircle
 10
-16.69999999999999
 20
3.399999999999977
 30
0.0
 40
2.0
100
AcDbArc
 50
221.4096221093
 51
270.0
  0
ARC
  5
17CD
330
22
100
AcDbEntity
  8
SK3
100
AcDbCircle
 10
-16.69999999999999
 20
-3.399999999999977
 30
0.0
 40
2.0
100
AcDbArc
 50
90.0
 51
138.5903778906999
  0
ARC
  5
17CE
330
22
100
AcDbEntity
  8
SK1
100
AcDbCircle
 10
-0.6999999999999887
 20
4.449999999999988
 30
0.0
 40
0.4
100
AcDbArc
 50
270.0
 51
318.5903778907
  0
ARC
  5
17CF
330
22
100
AcDbEntity
  8
SK1
100
AcDbCircle
 10
-7.299999999999982
 20
3.725000000000022
 30
0.0
 40
0.6
100
AcDbArc
 50
270.0
 51
0.0
  0
ARC
  5
17D0
330
22
100
AcDbEntity
  8
SK1
100
AcDbCircle
 10
-8.576471862599987
 20
3.725000000000022
 30
0.0
 40
0.6
100
AcDbArc
 50
225.0
 51
270.0
  0
ARC
  5
17D1
330
22
100
AcDbEntity
  8
SK1
100
AcDbCircle
 10
-0.6999999999999887
 20
-4.449999999999988
 30
0.0
 40
0.4
100
AcDbArc
 50
41.40962210930005
 51
90.0
  0
ARC
  5
17D2
330
22
100
AcDbEntity
  8
SK1
100
AcDbCircle
 10
-7.299999999999982
 20
-3.725000000000022
 30
0.0
 40
0.6
100
AcDbArc
 50
0.0
 51
90.0
  0
ARC
  5
17D3
330
22
100
AcDbEntity
  8
SK1
100
AcDbCircle
 10
-8.576471862599987
 20
-3.725000000000022
 30
0.0
 40
0.6
100
AcDbArc
 50
90.0
 51
134.9999999999999
  0
TEXT
  5
1982
330
22
100
AcDbEntity
  8
6
100
AcDbText
 10
39.35359858806445
 20
24.62279679806261
 30
0.0
 40
3.0
  1
SHLT060204N-PH
100
AcDbText
  0
TEXT
  5
1AC9
330
22
100
AcDbEntity
  8
6
100
AcDbText
 10
58.52969867645473
 20
-4.343736388751722
 30
0.0
 40
3.5
  1
Z=2
 50
90.0
 41
1.199999999999999
100
AcDbText
  0
INSERT
  5
1ACA
330
22
100
AcDbEntity
  8
1
100
AcDbBlockReference
  2
nullp
 10
-271.9386450411702
 20
-389.8959796344513
 30
0.0
  0
INSERT
  5
1ACB
330
22
100
AcDbEntity
  8
0
100
AcDbBlockReference
  2
nullp1
 10
-413.4645295494705
 20
-440.0849634019313
 30
0.0
  0
LWPOLYLINE
  5
1BA2
330
22
100
AcDbEntity
  8
NOCUT
100
AcDbPolyline
 90
       10
 70
   129
 43
0.0
 10
12.24644660939322
 20
6.64644660940678
 42
-0.198912367379658
 10
11.89289321879994
 20
6.5
 10
-0.0000000000000284
 20
6.5
 10
-0.4000000000000057
 20
6.100000000000022
 10
-0.4000000000000057
 20
0.0
 10
29.06111062529996
 20
0.0
 10
29.06111062529996
 20
6.749933953400045
 10
28.62797928939997
 20
7.0
 10
12.80710678109997
 20
7.0
 42
0.1989123673796576
 10
12.45355339049996
 20
6.85355339060004
  0
LINE
  5
1BAC
330
22
100
AcDbEntity
  8
SK3
100
AcDbLine
 10
-0.4000000000000057
 20
1.400000000000034
 30
0.0
 11
-16.69999999999999
 21
1.399999999999977
 31
0.0
  0
LINE
  5
1BAD
330
22
100
AcDbEntity
  8
SK3
100
AcDbLine
 10
-0.4000000000000057
 20
-1.399999999999977
 30
0.0
 11
-16.69999999999999
 21
-1.399999999999977
 31
0.0
  0
LINE
  5
1BAE
330
22
100
AcDbEntity
  8
SK4
100
AcDbLine
 10
-0.4000000000000057
 20
0.0
 30
0.0
 11
-21.19999999999999
 21
0.0
 31
0.0
  0
DIMENSION
  5
1BB2
330
22
100
AcDbEntity
  8
0
100
AcDbDimension
  2
*D45
 10
43.67490619626326
 20
-2.250000000000003
 30
0.0
 11
43.67490619626326
 21
12.40101273517257
 31
0.0
 70
   160
  1
%%c<>
 71
     5
 42
4.5
  3
ISO-25
100
AcDbAlignedDimension
 13
30.386193293356
 23
2.25
 33
0.0
 14
30.386193293356
 24
-2.25
 34
0.0
 50
90.0
100
AcDbRotatedDimension
  0
DIMENSION
  5
1C49
330
22
100
AcDbEntity
  8
2
100
AcDbDimension
  2
*D46
 10
14.59999999999999
 20
13.18006243974946
 30
0.0
 11
22.09999999999999
 21
15.05506243974946
 31
0.0
 70
    32
 71
     5
 42
15.0
  3
ISO-25
100
AcDbAlignedDimension
 13
29.59999999999999
 23
7.5
 33
0.0
 14
14.59999999999999
 24
7.5
 34
0.0
100
AcDbRotatedDimension
  0
ENDSEC
  0
SECTION
  2
OBJECTS
  0
DICTIONARY
  5
C
330
0
100
AcDbDictionary
281
     1
  3
ACAD_COLOR
350
1B
  3
ACAD_GROUP
350
D
  3
ACAD_LAYOUT
350
19
  3
ACAD_MATERIAL
350
1A
  3
ACAD_MLINESTYLE
350
16
  3
ACAD_PLOTSETTINGS
350
18
  3
ACAD_PLOTSTYLENAME
350
E
  3
ACAD_TABLESTYLE
350
1C
  3
ACDBHEADERROUNDTRIPXREC
350
1C9A
  3
AcDbVariableDictionary
350
17D7
  0
DICTIONARY
  5
1B9F
330
22
100
AcDbDictionary
280
     1
281
     1
  3
ACAD_SORTENTS
360
1BA0
  0
DICTIONARY
  5
1B
102
{ACAD_REACTORS
330
C
102
}
330
C
100
AcDbDictionary
281
     1
  0
DICTIONARY
  5
D
102
{ACAD_REACTORS
330
C
102
}
330
C
100
AcDbDictionary
281
     1
  0
DICTIONARY
  5
19
102
{ACAD_REACTORS
330
C
102
}
330
C
100
AcDbDictionary
281
     1
  3
Layout1
350
21
  3
Model
350
25
  0
DICTIONARY
  5
1A
102
{ACAD_REACTORS
330
C
102
}
330
C
100
AcDbDictionary
281
     1
  0
DICTIONARY
  5
16
102
{ACAD_REACTORS
330
C
102
}
330
C
100
AcDbDictionary
281
     1
  3
Standard
350
17
  0
DICTIONARY
  5
18
102
{ACAD_REACTORS
330
C
102
}
330
C
100
AcDbDictionary
281
     1
  0
ACDBDICTIONARYWDFLT
  5
E
102
{ACAD_REACTORS
330
C
102
}
330
C
100
AcDbDictionary
281
     1
  3
Normal
350
F
100
AcDbDictionaryWithDefault
340
F
  0
DICTIONARY
  5
1C
102
{ACAD_REACTORS
330
C
102
}
330
C
100
AcDbDictionary
281
     1
  3
Standard
350
1D
  0
DICTIONARY
  5
1C9A
102
{ACAD_REACTORS
330
C
102
}
330
C
100
AcDbDictionary
281
     1
  0
DICTIONARY
  5
17D7
102
{ACAD_REACTORS
330
C
102
}
330
C
100
AcDbDictionary
281
     1
  3
CTABLESTYLE
350
17D8
  3
DIMASSOC
350
1C97
  3
PROJECTNAME
350
1C98
  0
SORTENTSTABLE
  5
1BA0
102
{ACAD_REACTORS
330
1B9F
102
}
330
1B9F
100
AcDbSortentsTable
330
22
331
17B0
  5
1989
331
FF1
  5
112B
331
17D2
  5
199E
331
133A
  5
13C5
331
16C5
  5
17B3
331
15D6
  5
16CF
331
146D
  5
155E
331
171F
  5
17BB
331
14CB
  5
161A
331
1678
  5
176E
331
10F1
  5
137A
331
13BA
  5
140B
331
15C5
  5
16C5
331
EE1
  5
FBE
331
13CB
  5
14C5
331
12FA
  5
13C1
331
178E
  5
17D3
331
1667
  5
1759
331
5B4
  5
5B4
331
17D0
  5
199C
331
1BAE
  5
14C7
331
13B8
  5
13FB
331
1632
  5
172E
331
14C9
  5
160D
331
F0A
  5
FF7
331
F2C
  5
FFA
331
179D
  5
1984
331
1690
  5
179D
331
136B
  5
13C9
331
172E
  5
17BE
331
13C9
  5
14B9
331
13AF
  5
13E4
331
F1B
  5
FF8
331
17AE
  5
1987
331
12E7
  5
13BE
331
137A
  5
13CC
331
1BAC
  5
149F
331
151F
  5
163A
331
14C7
  5
15FF
331
F2A
  5
FF9
331
179B
  5
1982
331
F4C
  5
100D
331
1585
  5
1667
331
168E
  5
179B
331
160E
  5
1700
331
13C7
  5
148E
331
F8F
  5
1040
331
140B
  5
1507
331
17AC
  5
1985
331
F5D
  5
102F
331
17CE
  5
199A
331
1447
  5
154A
331
5B0
  5
5B0
331
1378
  5
13CA
331
14C5
  5
15D6
331
13D6
  5
14CA
331
1327
  5
13C2
331
17BB
  5
1994
331
168C
  5
1790
331
159D
  5
16A6
331
1434
  5
152A
331
112F
  5
13B9
331
101E
  5
133B
331
1478
  5
1594
331
1040
  5
1355
331
1062
  5
1362
331
174C
  5
17CF
331
13C5
  5
1478
331
176E
  5
17D1
331
E6C
  5
F1B
331
17CC
  5
1998
331
169D
  5
17B0
331
100D
  5
1296
331
161D
  5
1720
331
160C
  5
16F0
331
102F
  5
1342
331
EEA
  5
FF4
331
14C3
  5
15BF
331
F9C
  5
104F
331
FBE
  5
1063
331
1507
  5
162D
331
17B9
  5
1992
331
168A
  5
178E
331
159B
  5
169C
331
FFA
  5
119A
331
E7B
  5
F2B
331
112D
  5
13B7
331
16F0
  5
17B7
331
1728
  5
17BD
331
11E1
  5
13BC
331
1ACA
  5
1C2F
331
13C3
  5
146E
331
FAD
  5
1062
331
14F6
  5
1628
331
169B
  5
17AE
331
161B
  5
1710
331
EE8
  5
FF2
331
1759
  5
17D0
331
17B7
  5
1990
331
10E7
  5
136B
331
1599
  5
168F
331
FF8
  5
118C
331
112B
  5
139D
331
15FF
  5
16EF
331
ED7
  5
F9C
331
13C1
  5
145F
331
1516
  5
1633
331
1427
  5
1529
331
FEF
  5
10F1
331
14B0
  5
1598
331
1414
  5
1516
331
17B5
  5
198E
331
1597
  5
168B
331
FF6
  5
117F
331
E91
  5
F2D
331
EB3
  5
F4C
331
ED5
  5
F5E
331
1528
  5
1653
331
13BF
  5
1447
331
1425
  5
151F
331
FED
  5
10E7
331
EA2
  5
F43
331
EE6
  5
FF0
331
1746
  5
17CE
331
1791
  5
1981
331
FDA
  5
10A1
331
17B3
  5
198C
331
1595
  5
1689
331
FF4
  5
1138
331
16A6
  5
17B1
331
1700
  5
17B8
331
13DF
  5
14CB
331
1330
  5
13C3
331
FC9
  5
107A
331
1481
  5
1595
331
EC2
  5
F55
331
EE4
  5
FEC
331
13CE
  5
14C9
331
13BD
  5
1434
331
17B1
  5
198A
331
FF2
  5
112C
331
17D3
  5
199F
331
133B
  5
13C6
331
1720
  5
17BC
331
14CC
  5
161B
331
16B5
  5
17B2
331
E84
  5
F2C
331
13BB
  5
1414
331
146E
  5
1572
331
15E8
  5
16DE
331
EE2
  5
FC9
331
13CC
  5
14C6
331
178F
  5
197E
331
FF0
  5
1102
331
17D1
  5
199D
331
1339
  5
13C4
331
148E
  5
1596
331
13B9
  5
140A
331
14CA
  5
160E
331
F2D
  5
FFB
331
1691
  5
17AC
331
12E8
  5
13BF
331
172F
  5
17BF
331
149F
  5
1597
331
EE0
  5
FAD
331
14B9
  5
1599
331
13CA
  5
14C2
331
17AF
  5
1988
331
5B3
  5
5B3
331
137B
  5
13CD
331
1BAD
  5
169A
331
139D
  5
13D6
331
13B7
  5
13EA
331
14C8
  5
160C
331
1653
  5
172F
331
13FB
  5
14DE
331
179C
  5
1983
331
168F
  5
179C
331
12E6
  5
13BD
331
138C
  5
13CE
331
13EA
  5
14D5
331
13C8
  5
14B0
331
17AD
  5
1986
331
17CF
  5
199B
331
5B1
  5
5B1
331
1379
  5
13CB
331
ECB
  5
F5C
331
14C6
  5
15E8
331
FE3
  5
10C8
331
168D
  5
1791
331
159E
  5
16B5
331
160D
  5
16F1
331
1BA2
  5
1997
331
6A2
  5
F0A
331
161E
  5
1728
331
13C6
  5
1481
331
176F
  5
17D2
331
140A
  5
14F6
331
F5C
  5
101E
331
17CD
  5
1999
331
1446
  5
153D
331
14C4
  5
15C5
331
17BA
  5
1993
331
168B
  5
178F
331
159C
  5
169D
331
FFB
  5
1232
331
1ACB
  5
1C30
331
16CF
  5
17B4
331
112E
  5
13B8
331
13C4
  5
146F
331
14D5
  5
161C
331
1660
  5
1746
331
169C
  5
17AF
331
1355
  5
13C7
331
161C
  5
171F
331
EE9
  5
FF3
331
14C2
  5
15A7
331
17B8
  5
1991
331
10E8
  5
1379
331
1689
  5
176F
331
159A
  5
169B
331
FF9
  5
1193
331
E7A
  5
F2A
331
110A
  5
137B
331
112C
  5
13AF
331
16EF
  5
17B6
331
11C6
  5
13BA
331
11E0
  5
13BB
331
1AC9
  5
1C2E
331
161A
  5
1701
331
13C2
  5
146D
331
13E4
  5
14CC
331
169A
  5
17AD
331
16DE
  5
17B5
331
12F1
  5
13C0
331
F01
  5
FF6
331
17B6
  5
198F
331
FF7
  5
1184
331
1362
  5
13C8
331
112A
  5
138C
331
13A6
  5
13DF
331
ED6
  5
F65
331
1529
  5
1660
331
13C0
  5
1454
331
1426
  5
1528
331
FEE
  5
10E8
331
EE7
  5
FF1
331
EF8
  5
FF5
331
F43
  5
1004
331
17B4
  5
198D
331
1596
  5
168A
331
FF5
  5
117A
331
1701
  5
17B9
331
ED4
  5
F5D
331
FEC
  5
10DF
331
EE5
  5
FEF
331
13BE
  5
1446
331
1790
  5
197F
331
17B2
  5
198B
331
1594
  5
1678
331
FF3
  5
112D
331
1BB2
  5
1C33
331
146F
  5
1585
331
1982
  5
19A4
331
1004
  5
1285
331
1710
  5
17BA
331
EE3
  5
FE3
331
14DE
  5
161F
331
13CD
  5
14C8
331
13BC
  5
1425
  0
LAYOUT
  5
21
102
{ACAD_XDICTIONARY
360
1C9B
102
}
102
{ACAD_REACTORS
330
19
102
}
330
19
100
AcDbPlotSettings
  1

  2
\\ingdom02\ITB3
  4

  6

 40
0.0
 41
0.0
 42
0.0
 43
0.0
 44
0.0
 45
0.0
 46
0.0
 47
0.0
 48
0.0
 49
0.0
140
0.0
141
0.0
142
1.0
143
1.0
 70
   688
 72
     0
 73
     0
 74
     5
  7

 75
    16
147
1.0
148
0.0
149
0.0
100
AcDbLayout
  1
Layout1
 70
     1
 71
     1
 10
0.0
 20
0.0
 11
12.0
 21
9.0
 12
0.0
 22
0.0
 32
0.0
 14
100.0
 24
100.0
 34
100.0
 15
-100.0
 25
-100.0
 35
-100.0
146
0.0
 13
0.0
 23
0.0
 33
0.0
 16
1.0
 26
0.0
 36
0.0
 17
0.0
 27
1.0
 37
0.0
 76
     0
330
1E
  0
LAYOUT
  5
25
102
{ACAD_XDICTIONARY
360
1C9D
102
}
102
{ACAD_REACTORS
330
19
102
}
330
19
100
AcDbPlotSettings
  1

  2
\\ingdom02\ITB3
  4

  6

 40
0.0
 41
0.0
 42
0.0
 43
0.0
 44
0.0
 45
0.0
 46
0.0
 47
0.0
 48
0.0
 49
0.0
140
0.0
141
0.0
142
1.0
143
1.0
 70
  1712
 72
     0
 73
     0
 74
     0
  7

 75
     0
147
1.0
148
0.0
149
0.0
100
AcDbLayout
  1
Model
 70
     1
 71
     0
 10
0.0
 20
0.0
 11
12.0
 21
9.0
 12
0.0
 22
0.0
 32
0.0
 14
0.0
 24
0.0
 34
0.0
 15
0.0
 25
0.0
 35
0.0
146
0.0
 13
0.0
 23
0.0
 33
0.0
 16
1.0
 26
0.0
 36
0.0
 17
0.0
 27
1.0
 37
0.0
 76
     0
330
22
  0
MLINESTYLE
  5
17
102
{ACAD_REACTORS
330
16
102
}
330
16
100
AcDbMlineStyle
  2
STANDARD
 70
     0
  3

 62
   256
 51
90.0
 52
90.0
 71
     2
 49
0.5
 62
   256
  6
BYLAYER
 49
-0.5
 62
   256
  6
BYLAYER
  0
ACDBPLACEHOLDER
  5
F
102
{ACAD_REACTORS
330
E
102
}
330
E
  0
TABLESTYLE
  5
1D
102
{ACAD_REACTORS
330
1C
102
}
330
1C
100
AcDbTableStyle
  3
Standard
 70
     0
 71
     0
 40
0.06
 41
0.06
280
     0
281
     0
  7
STANDARD
140
0.18
170
     2
 62
     0
 63
     7
283
     0
274
    -2
284
     1
 64
     0
275
    -2
285
     1
 65
     0
276
    -2
286
     1
 66
     0
277
    -2
287
     1
 67
     0
278
    -2
288
     1
 68
     0
279
    -2
289
     1
 69
     0
  7
STANDARD
140
0.25
170
     5
 62
     0
 63
     7
283
     0
274
    -2
284
     1
 64
     0
275
    -2
285
     1
 65
     0
276
    -2
286
     1
 66
     0
277
    -2
287
     1
 67
     0
278
    -2
288
     1
 68
     0
279
    -2
289
     1
 69
     0
  7
STANDARD
140
0.18
170
     5
 62
     0
 63
     7
283
     0
274
    -2
284
     1
 64
     0
275
    -2
285
     1
 65
     0
276
    -2
286
     1
 66
     0
277
    -2
287
     1
 67
     0
278
    -2
288
     1
 68
     0
279
    -2
289
     1
 69
     0
  0
DICTIONARYVAR
  5
17D8
102
{ACAD_REACTORS
330
17D7
102
}
330
17D7
100
DictionaryVariables
280
     0
  1
STANDARD
  0
DICTIONARYVAR
  5
1C97
102
{ACAD_REACTORS
330
17D7
102
}
330
17D7
100
DictionaryVariables
280
     0
  1
1
  0
DICTIONARYVAR
  5
1C98
102
{ACAD_REACTORS
330
17D7
102
}
330
17D7
100
DictionaryVariables
280
     0
  1

  0
DICTIONARY
  5
1C9B
330
21
100
AcDbDictionary
280
     1
281
     1
  3
ACAD_XREC_ROUNDTRIP
360
1C9C
  0
DICTIONARY
  5
1C9D
330
25
100
AcDbDictionary
280
     1
281
     1
  3
ACAD_XREC_ROUNDTRIP
360
1C9E
  0
XRECORD
  5
1C9C
102
{ACAD_REACTORS
330
1C9B
102
}
330
1C9B
100
AcDbXrecord
280
     1
102
SHADEPLOT
 70
     0
102
SHADEPLOTRESLEVEL
 70
     2
102
SHADEPLOTCUSTOMDPI
 70
   300
  0
XRECORD
  5
1C9E
102
{ACAD_REACTORS
330
1C9D
102
}
330
1C9D
100
AcDbXrecord
280
     1
102
SHADEPLOT
 70
     0
102
SHADEPLOTRESLEVEL
 70
     2
102
SHADEPLOTCUSTOMDPI
 70
   300
  0
ENDSEC
  0
EOF
