  0
SECTION
  2
HEADER
  9
$ACADVER
  1
AC1014
  9
$ACADMAINTVER
 70
     9
  9
$DWGCODEPAGE
  3
ANSI_1252
  9
$INSBASE
 10
0.0
 20
0.0
 30
0.0
  9
$EXTMIN
 10
-67.17497373199399
 20
-27.73544734540519
 30
-0.0015258207003583
  9
$EXTMAX
 10
79.34020080746496
 20
79.83583285408986
 30
0.0000000349246037
  9
$LIMMIN
 10
0.0
 20
0.0
  9
$LIMMAX
 10
210.0
 20
297.0
  9
$ORTHOMODE
 70
     0
  9
$REGENMODE
 70
     1
  9
$FILLMODE
 70
     1
  9
$QTEXTMODE
 70
     0
  9
$MIRRTEXT
 70
     1
  9
$DRAGMODE
 70
     2
  9
$LTSCALE
 40
1.0
  9
$OSMODE
 70
  2599
  9
$ATTMODE
 70
     1
  9
$TEXTSIZE
 40
2.5
  9
$TRACEWID
 40
1.0
  9
$TEXTSTYLE
  7
STANDARD
  9
$CLAYER
  8
0
  9
$CELTYPE
  6
BYLAYER
  9
$CECOLOR
 62
   256
  9
$CELTSCALE
 40
1.0
  9
$DELOBJ
 70
     1
  9
$DISPSILH
 70
     0
  9
$DIMSCALE
 40
1.0
  9
$DIMASZ
 40
2.5
  9
$DIMEXO
 40
0.0
  9
$DIMDLI
 40
10.0
  9
$DIMRND
 40
0.0
  9
$DIMDLE
 40
0.0
  9
$DIMEXE
 40
1.0
  9
$DIMTP
 40
0.1
  9
$DIMTM
 40
0.1
  9
$DIMTXT
 40
3.5
  9
$DIMCEN
 40
0.0
  9
$DIMTSZ
 40
0.0
  9
$DIMTOL
 70
     0
  9
$DIMLIM
 70
     0
  9
$DIMTIH
 70
     0
  9
$DIMTOH
 70
     0
  9
$DIMSE1
 70
     0
  9
$DIMSE2
 70
     0
  9
$DIMTAD
 70
     1
  9
$DIMZIN
 70
     8
  9
$DIMBLK
  1

  9
$DIMASO
 70
     1
  9
$DIMSHO
 70
     1
  9
$DIMPOST
  1

  9
$DIMAPOST
  1
"
  9
$DIMALT
 70
     0
  9
$DIMALTD
 70
     2
  9
$DIMALTF
 40
0.0393701
  9
$DIMLFAC
 40
1.0
  9
$DIMTOFL
 70
     1
  9
$DIMTVP
 40
0.0
  9
$DIMTIX
 70
     0
  9
$DIMSOXD
 70
     0
  9
$DIMSAH
 70
     0
  9
$DIMBLK1
  1

  9
$DIMBLK2
  1

  9
$DIMSTYLE
  2
AM_DIN
  9
$DIMCLRD
 70
   256
  9
$DIMCLRE
 70
   256
  9
$DIMCLRT
 70
     2
  9
$DIMTFAC
 40
0.71
  9
$DIMGAP
 40
1.5
  9
$DIMJUST
 70
     0
  9
$DIMSD1
 70
     0
  9
$DIMSD2
 70
     0
  9
$DIMTOLJ
 70
     1
  9
$DIMTZIN
 70
     8
  9
$DIMALTZ
 70
     8
  9
$DIMALTTZ
 70
     8
  9
$DIMFIT
 70
     5
  9
$DIMUPT
 70
     0
  9
$DIMUNIT
 70
     2
  9
$DIMDEC
 70
     2
  9
$DIMTDEC
 70
     2
  9
$DIMALTU
 70
     2
  9
$DIMALTTD
 70
     2
  9
$DIMTXSTY
  7
STANDARD
  9
$DIMAUNIT
 70
     0
  9
$LUNITS
 70
     2
  9
$LUPREC
 70
     2
  9
$SKETCHINC
 40
1.0
  9
$FILLETRAD
 40
0.8
  9
$AUNITS
 70
     0
  9
$AUPREC
 70
     0
  9
$MENU
  1
.
  9
$ELEVATION
 40
0.0
  9
$PELEVATION
 40
0.0
  9
$THICKNESS
 40
0.0
  9
$LIMCHECK
 70
     0
  9
$BLIPMODE
 70
     0
  9
$CHAMFERA
 40
2.5
  9
$CHAMFERB
 40
2.5
  9
$CHAMFERC
 40
0.0
  9
$CHAMFERD
 40
0.0
  9
$SKPOLY
 70
     0
  9
$TDCREATE
 40
2453447.430070810
  9
$TDUPDATE
 40
2453793.320769594
  9
$TDINDWG
 40
0.1954335185
  9
$TDUSRTIMER
 40
0.1954091782
  9
$USRTIMER
 70
     1
  9
$ANGBASE
 50
0.0
  9
$ANGDIR
 70
     0
  9
$PDMODE
 70
     0
  9
$PDSIZE
 40
0.0
  9
$PLINEWID
 40
0.0
  9
$COORDS
 70
     0
  9
$SPLFRAME
 70
     0
  9
$SPLINETYPE
 70
     6
  9
$SPLINESEGS
 70
     8
  9
$ATTDIA
 70
     1
  9
$ATTREQ
 70
     1
  9
$HANDLING
 70
 22529
  9
$HANDSEED
  5
9161
  9
$SURFTAB1
 70
     6
  9
$SURFTAB2
 70
     6
  9
$SURFTYPE
 70
     6
  9
$SURFU
 70
     6
  9
$SURFV
 70
     6
  9
$UCSNAME
  2

  9
$UCSORG
 10
0.0
 20
0.0
 30
0.0
  9
$UCSXDIR
 10
1.0
 20
0.0
 30
0.0
  9
$UCSYDIR
 10
0.0
 20
1.0
 30
0.0
  9
$PUCSNAME
  2

  9
$PUCSORG
 10
0.0
 20
0.0
 30
0.0
  9
$PUCSXDIR
 10
1.0
 20
0.0
 30
0.0
  9
$PUCSYDIR
 10
0.0
 20
1.0
 30
0.0
  9
$USERI1
 70
     0
  9
$USERI2
 70
     0
  9
$USERI3
 70
     0
  9
$USERI4
 70
     0
  9
$USERI5
 70
     0
  9
$USERR1
 40
0.0
  9
$USERR2
 40
0.0
  9
$USERR3
 40
0.0
  9
$USERR4
 40
0.0
  9
$USERR5
 40
0.0
  9
$WORLDVIEW
 70
     1
  9
$SHADEDGE
 70
     3
  9
$SHADEDIF
 70
    70
  9
$TILEMODE
 70
     1
  9
$MAXACTVP
 70
    64
  9
$PINSBASE
 10
0.0
 20
0.0
 30
0.0
  9
$PLIMCHECK
 70
     0
  9
$PEXTMIN
 10
1.000000000000000E+20
 20
1.000000000000000E+20
 30
1.000000000000000E+20
  9
$PEXTMAX
 10
-1.000000000000000E+20
 20
-1.000000000000000E+20
 30
-1.000000000000000E+20
  9
$PLIMMIN
 10
0.0
 20
0.0
  9
$PLIMMAX
 10
420.0
 20
297.0
  9
$UNITMODE
 70
     0
  9
$VISRETAIN
 70
     1
  9
$PLINEGEN
 70
     0
  9
$PSLTSCALE
 70
     1
  9
$TREEDEPTH
 70
  3020
  9
$PICKSTYLE
 70
     0
  9
$CMLSTYLE
  2
STANDARD
  9
$CMLJUST
 70
     0
  9
$CMLSCALE
 40
1.0
  9
$PROXYGRAPHICS
 70
     1
  9
$MEASUREMENT
 70
     1
  0
ENDSEC
  0
SECTION
  2
CLASSES
  0
CLASS
  1
ACDBDICTIONARYWDFLT
  2
AcDbDictionaryWithDefault
  3
AutoCAD 2000
 90
        0
280
     0
281
     0
  0
CLASS
  1
ACDBPLACEHOLDER
  2
AcDbPlaceHolder
  3
AutoCAD 2000
 90
        0
280
     0
281
     0
  0
CLASS
  1
LAYOUT
  2
AcDbLayout
  3
AutoCAD 2000
 90
        0
280
     0
281
     0
  0
CLASS
  1
AMGSETTINGSOBJ
  2
AmgSettingsObj
  3
"AcadM|Product Description: AutoCAD Mechanical 2000|Company: Autodesk"
 90
        0
280
     0
281
     0
  0
CLASS
  1
ACME_DOCUMENT
  2
AcMeDbDoc
  3
AcMeServices
 90
        0
280
     0
281
     0
  0
CLASS
  1
ACMESCOPE
  2
AcMeScope
  3
AcMeServices
 90
        0
280
     0
281
     0
  0
CLASS
  1
ACMECOMMANDHISTORY
  2
AcMeCommandHistory
  3
AcMeServices
 90
        0
280
     0
281
     0
  0
CLASS
  1
ACIMSYSVARMAN
  2
AcImSysVarManager
  3
AcMeServices
 90
        0
280
     0
281
     0
  0
CLASS
  1
ACIMREALSYSVAR
  2
AcImRealSysVar
  3
AcMeServices
 90
        0
280
     0
281
     0
  0
CLASS
  1
ACIMINTSYSVAR
  2
AcImIntSysVar
  3
AcMeServices
 90
        0
280
     0
281
     0
  0
CLASS
  1
ACMEDRAWINGMAN
  2
AcMeDrawingMan
  3
AcMeServices
 90
        0
280
     0
281
     0
  0
CLASS
  1
ACMEVIEW
  2
AcMeView
  3
AcMeServices
 90
        0
280
     0
281
     0
  0
CLASS
  1
ACDBENTITYCACHE
  2
AcMeEntityCache
  3
AcMeServices
 90
        0
280
     0
281
     0
  0
CLASS
  1
GSMANAGER
  2
AcMeGSManager
  3
AcMeServices
 90
        0
280
     0
281
     0
  0
CLASS
  1
AMDTINTERNALREACTOR
  2
AmdtInternalReactor
  3
AcMeServices
 90
        0
280
     0
281
     0
  0
CLASS
  1
ACMESTATEMGR
  2
AcMeStateMgr
  3
AcMeServices
 90
        0
280
     0
281
     0
  0
CLASS
  1
ACGREFMASTER
  2
AcGrefMaster
  3
AcAttribServices
 90
        0
280
     0
281
     0
  0
CLASS
  1
ACME_DATABASE
  2
AcMeDbDatabase
  3
AcMeServices
 90
        0
280
     0
281
     0
  0
CLASS
  1
ACRFINSADJUSTERMGR
  2
AcRfInsAdjusterMgr
  3
AcMeServices
 90
        0
280
     0
281
     0
  0
CLASS
  1
ACGREFACADMASTER
  2
AcGrefacadMaster
  3
AcGrefServices
 90
        0
280
     0
281
     0
  0
CLASS
  1
AMIMASTER
  2
AmiMaster
  3
AmiServices
 90
        0
280
     0
281
     0
  0
CLASS
  1
ACMDATADICTIONARY
  2
AcmDataDictionary
  3
"AcmSymBB|Product Description: AutoCAD Mechanical 2000|Company: Autodesk"
 90
        0
280
     0
281
     0
  0
CLASS
  1
ACMDATAENTRYBLOCK
  2
AcmDataEntryBlock
  3
"AcmSymBB|Product Description: AutoCAD Mechanical 2000|Company: Autodesk"
 90
        0
280
     0
281
     0
  0
CLASS
  1
ACIMSTRSYSVAR
  2
AcImStrSysVar
  3
AcMeServices
 90
        0
280
     0
281
     0
  0
CLASS
  1
ACMSTANDARDANSI
  2
AcmStandardANSI
  3
"Amdt_StdImp|Product Description: AutoCAD Mechanical 2000|Company: Autodesk"
 90
        0
280
     0
281
     0
  0
CLASS
  1
AMGOBJPROPCFG
  2
AmgObjPropCfg
  3
"AmgLay|Product Description: AutoCAD Mechanical 2000|Company: Autodesk"
 90
        1
280
     0
281
     0
  0
CLASS
  1
ACMSURFSTANDARDANSI
  2
AcmSurfTextStdANSI
  3
"Amdt_StdImp|Product Description: AutoCAD Mechanical 2000|Company: Autodesk"
 90
        0
280
     0
281
     0
  0
CLASS
  1
ACMFCFSTANDARDANSI
  2
AcmFCFStdANSI
  3
"Amdt_StdImp|Product Description: AutoCAD Mechanical 2000|Company: Autodesk"
 90
        0
280
     0
281
     0
  0
CLASS
  1
ACMWELDSTANDARDANSI
  2
AcmWeldingStdANSI
  3
"Amdt_StdImp|Product Description: AutoCAD Mechanical 2000|Company: Autodesk"
 90
        0
280
     0
281
     0
  0
CLASS
  1
ACMIDSTANDARDANSI
  2
AcmIdStdANSI
  3
"Amdt_StdImp|Product Description: AutoCAD Mechanical 2000|Company: Autodesk"
 90
        0
280
     0
281
     0
  0
CLASS
  1
ACMDATUMSTANDARDANSI
  2
AcmDatumStdANSI
  3
"Amdt_StdImp|Product Description: AutoCAD Mechanical 2000|Company: Autodesk"
 90
        0
280
     0
281
     0
  0
CLASS
  1
ACMBOMSTANDARDANSI
  2
AcmBOMStdANSI
  3
"Amdt_StdImp|Product Description: AutoCAD Mechanical 2000|Company: Autodesk"
 90
        0
280
     0
281
     0
  0
CLASS
  1
ACMDETAILSTANDARDANSI
  2
AmdtDetailSymStdANSI
  3
"Amdt_StdImp|Product Description: AutoCAD Mechanical 2000|Company: Autodesk"
 90
        0
280
     0
281
     0
  0
CLASS
  1
ACMSECTIONSTANDARDANSI
  2
AmdtSectionSymStdANSI
  3
"Amdt_StdImp|Product Description: AutoCAD Mechanical 2000|Company: Autodesk"
 90
        0
280
     0
281
     0
  0
CLASS
  1
ACMCENTERLINESTANDARDANSI
  2
AmdtCenterLineStdANSI
  3
"Amdt_StdImp|Product Description: AutoCAD Mechanical 2000|Company: Autodesk"
 90
        0
280
     0
281
     0
  0
CLASS
  1
ACMNOTESTANDARDANSI
  2
AmdtNoteStdANSI
  3
"Amdt_StdImp|Product Description: AutoCAD Mechanical 2000|Company: Autodesk"
 90
        0
280
     0
281
     0
  0
CLASS
  1
ACAMGLAYSTD
  2
AcAmgLayStd
  3
"AcAmgLayStd|Product Description: AutoCAD Mechanical 2000|Company: Autodesk"
 90
        0
280
     0
281
     0
  0
CLASS
  1
ACAMGDIMSTD
  2
AcAmgDimStd
  3
"AcAmgDimStd|Product Description: AutoCAD Mechanical 2000|Company: Autodesk"
 90
        0
280
     0
281
     0
  0
CLASS
  1
ACAMGHOLECHARTSTDANSI
  2
AcAmgHoleChartStdANSI
  3
ACMSYMBB_MODULE_NAME
 90
        0
280
     0
281
     0
  0
CLASS
  1
ACAMGTITLESTD
  2
AcAmgTitleStd
  3
"TITLEAPP"
 90
        0
280
     0
281
     0
  0
CLASS
  1
ACAMGFILTERDAT
  2
AcAmgFilterDat
  3
"AcadM|Product Description: AutoCAD Mechanical 2000|Company: Autodesk"
 90
        0
280
     0
281
     0
  0
CLASS
  1
LAYER_INDEX
  2
AcDbLayerIndex
  3
AutoCAD 2000
 90
        0
280
     0
281
     0
  0
CLASS
  1
IDBUFFER
  2
AcDbIdBuffer
  3
AutoCAD 2000
 90
        0
280
     0
281
     0
  0
CLASS
  1
DICTIONARYVAR
  2
AcDbDictionaryVar
  3
AutoCAD 2000
 90
        0
280
     0
281
     0
  0
CLASS
  1
ACMSTANDARDDIN
  2
AcmStandardDIN
  3
"Amdt_StdImp|Product Description: AutoCAD Mechanical 2000|Company: Autodesk"
 90
        0
280
     0
281
     0
  0
CLASS
  1
AMDTEDGESTANDARDDIN
  2
AmdtEdgeStdDIN
  3
"Amdt_StdImp|Product Description: AutoCAD Mechanical 2000|Company: Autodesk"
 90
        0
280
     0
281
     0
  0
CLASS
  1
ACMSURFSTANDARDDIN
  2
AcmSurfTextStdDIN
  3
"Amdt_StdImp|Product Description: AutoCAD Mechanical 2000|Company: Autodesk"
 90
        0
280
     0
281
     0
  0
CLASS
  1
ACMFCFSTANDARDDIN
  2
AcmFCFStdDIN
  3
"Amdt_StdImp|Product Description: AutoCAD Mechanical 2000|Company: Autodesk"
 90
        0
280
     0
281
     0
  0
CLASS
  1
ACMWELDSTANDARDDIN
  2
AcmWeldingStdDIN
  3
"Amdt_StdImp|Product Description: AutoCAD Mechanical 2000|Company: Autodesk"
 90
        0
280
     0
281
     0
  0
CLASS
  1
ACMIDSTANDARDDIN
  2
AcmIdStdDIN
  3
"Amdt_StdImp|Product Description: AutoCAD Mechanical 2000|Company: Autodesk"
 90
        0
280
     0
281
     0
  0
CLASS
  1
ACMDATUMSTANDARDDIN
  2
AcmDatumStdDIN
  3
"Amdt_StdImp|Product Description: AutoCAD Mechanical 2000|Company: Autodesk"
 90
        0
280
     0
281
     0
  0
CLASS
  1
ACMBOMSTANDARDDIN
  2
AcmBOMStdDIN
  3
"Amdt_StdImp|Product Description: AutoCAD Mechanical 2000|Company: Autodesk"
 90
        0
280
     0
281
     0
  0
CLASS
  1
ACMDETAILSTANDARDDIN
  2
AmdtDetailSymStdDIN
  3
"Amdt_StdImp|Product Description: AutoCAD Mechanical 2000|Company: Autodesk"
 90
        0
280
     0
281
     0
  0
CLASS
  1
ACMSECTIONSTANDARDDIN
  2
AmdtSectionSymStdDIN
  3
"Amdt_StdImp|Product Description: AutoCAD Mechanical 2000|Company: Autodesk"
 90
        0
280
     0
281
     0
  0
CLASS
  1
ACMCENTERLINESTANDARDDIN
  2
AmdtCenterLineStdDIN
  3
"Amdt_StdImp|Product Description: AutoCAD Mechanical 2000|Company: Autodesk"
 90
        0
280
     0
281
     0
  0
CLASS
  1
ACMNOTESTANDARDDIN
  2
AmdtNoteStdDIN
  3
"Amdt_StdImp|Product Description: AutoCAD Mechanical 2000|Company: Autodesk"
 90
        0
280
     0
281
     0
  0
CLASS
  1
ACAMGHOLECHARTSTDDIN
  2
AcAmgHoleChartStdDIN
  3
ACMSYMBB_MODULE_NAME
 90
        0
280
     0
281
     0
  0
CLASS
  1
AMDTFORMULAUPDATEDISPATCHER
  2
AmdtFormulaUpdateDispatcher
  3
AcMeServices
 90
        0
280
     0
281
     0
  0
CLASS
  1
ACMSURFSYM
  2
AcmSurfaceTexture
  3
"AcmSymBB|Product Description: AutoCAD Mechanical 2000|Company: Autodesk"
 90
     1023
280
     0
281
     1
  0
CLASS
  1
LONG_TRANSACTION
  2
AcDbLongTransaction
  3
AutoCAD 2000
 90
        0
280
     0
281
     0
  0
CLASS
  1
LWPOLYLINE
  2
AcDbPolyline
  3
AutoCAD 2000
 90
        0
280
     0
281
     1
  0
CLASS
  1
HATCH
  2
AcDbHatch
  3
AutoCAD 2000
 90
        0
280
     0
281
     1
  0
CLASS
  1
XRECORD
  2
AcDbXrecord
  3
AutoCAD 2000
 90
        0
280
     0
281
     0
  0
ENDSEC
  0
SECTION
  2
TABLES
  0
TABLE
  2
VPORT
  5
6A1E
330
0
100
AcDbSymbolTable
 70
    10
  0
VPORT
  5
913C
330
6A1E
100
AcDbSymbolTableRecord
100
AcDbViewportTableRecord
  2
*ACTIVE
 70
     0
 10
0.0
 20
0.0
 11
1.0
 21
1.0
 12
71.412513134003
 22
134.6322763272974
 13
0.0
 23
0.0
 14
2.5
 24
2.5
 15
10.0
 25
10.0
 16
0.0
 26
0.0
 36
1.0
 17
0.0
 27
0.0
 37
0.0
 40
328.3637763660242
 41
1.716417910447761
 42
50.0
 43
0.0
 44
0.0
 50
0.0
 51
0.0
 71
    16
 72
 10000
 73
     1
 74
     3
 75
     0
 76
     0
 77
     0
 78
     0
  0
ENDTAB
  0
TABLE
  2
LTYPE
  5
6A1B
330
0
100
AcDbSymbolTable
 70
    16
  0
LTYPE
  5
6A29
330
6A1B
100
AcDbSymbolTableRecord
100
AcDbLinetypeTableRecord
  2
BYBLOCK
 70
     0
  3

 72
    65
 73
     0
 40
0.0
  0
LTYPE
  5
6A2A
330
6A1B
100
AcDbSymbolTableRecord
100
AcDbLinetypeTableRecord
  2
BYLAYER
 70
     0
  3

 72
    65
 73
     0
 40
0.0
  0
LTYPE
  5
6A2B
330
6A1B
100
AcDbSymbolTableRecord
100
AcDbLinetypeTableRecord
  2
CONTINUOUS
 70
     0
  3
Solid line
 72
    65
 73
     0
 40
0.0
  0
LTYPE
  5
6A39
330
6A1B
100
AcDbSymbolTableRecord
100
AcDbLinetypeTableRecord
  2
AMCONSTR
 70
     0
  3
_______________________
 72
    65
 73
     2
 40
9999.0
 49
9999.0
 74
     0
 49
0.0
 74
     0
  0
LTYPE
  5
6A43
330
6A1B
100
AcDbSymbolTableRecord
100
AcDbLinetypeTableRecord
  2
CENTER
 70
     0
  3
__ . __
 72
    65
 73
     4
 40
7.0
 49
4.0
 74
     0
 49
-1.0
 74
     0
 49
1.0
 74
     0
 49
-1.0
 74
     0
  0
LTYPE
  5
6A45
330
6A1B
100
AcDbSymbolTableRecord
100
AcDbLinetypeTableRecord
  2
PHANTOM2
 70
     0
  3
Phantom (.5x) ___ _ _ ___ _ _ ___ _ _ ___ _ _
 72
    65
 73
     6
 40
1.25
 49
0.625
 74
     0
 49
-0.125
 74
     0
 49
0.125
 74
     0
 49
-0.125
 74
     0
 49
0.125
 74
     0
 49
-0.125
 74
     0
  0
LTYPE
  5
6A46
330
6A1B
100
AcDbSymbolTableRecord
100
AcDbLinetypeTableRecord
  2
ACANSTGB
 70
     0
  3
__ . . __ . .
 72
    65
 73
     6
 40
0.35433070866
 49
0.15748031496
 74
     0
 49
-0.03937007874
 74
     0
 49
0.03937007874
 74
     0
 49
-0.03937007874
 74
     0
 49
0.03937007874
 74
     0
 49
-0.03937007874
 74
     0
  0
LTYPE
  5
6A47
330
6A1B
100
AcDbSymbolTableRecord
100
AcDbLinetypeTableRecord
  2
ACANSTGL
 70
     0
  3
_ _ _ _ _
 72
    65
 73
     2
 40
0.11811023622
 49
0.07874015748
 74
     0
 49
-0.03937007874
 74
     0
  0
LTYPE
  5
6A48
330
6A1B
100
AcDbSymbolTableRecord
100
AcDbLinetypeTableRecord
  2
DASHED
 70
     0
  3
__ __ __ __ __ __ __ __ __ __ __ __ __ __ __ __
 72
    65
 73
     2
 40
19.05
 49
12.7
 74
     0
 49
-6.349999999999998
 74
     0
  0
LTYPE
  5
6D97
330
6A1B
100
AcDbSymbolTableRecord
100
AcDbLinetypeTableRecord
  2
ACDINWELD
 70
     0
  3
_ _ _ _ _
 72
    65
 73
     2
 40
2.0
 49
2.0
 74
     0
 49
-1.0
 74
     0
  0
LTYPE
  5
6D98
330
6A1B
100
AcDbSymbolTableRecord
100
AcDbLinetypeTableRecord
  2
ACDINTGB
 70
     0
  3
__ . . __ . .
 72
    65
 73
     6
 40
9.0
 49
4.0
 74
     0
 49
-1.0
 74
     0
 49
1.0
 74
     0
 49
-1.0
 74
     0
 49
1.0
 74
     0
 49
-1.0
 74
     0
  0
LTYPE
  5
6D99
330
6A1B
100
AcDbSymbolTableRecord
100
AcDbLinetypeTableRecord
  2
ACDINTGL
 70
     0
  3
_ _ _ _ _
 72
    65
 73
     2
 40
3.0
 49
2.0
 74
     0
 49
-1.0
 74
     0
  0
LTYPE
  5
7FA3
330
6A1B
100
AcDbSymbolTableRecord
100
AcDbLinetypeTableRecord
  2
AMZIGZAG
 70
     0
  3
/\/-/\/-/\/-/\/-/\/-/\/
 72
    65
 73
     2
 40
11.00009999999999
 49
0.0001
 74
     4
 75
   135
340
6A5B
 46
0.04
 50
0.0
 44
0.0
 45
0.0
 49
-11.0
 74
     0
  0
LTYPE
  5
7FA4
330
6A1B
100
AcDbSymbolTableRecord
100
AcDbLinetypeTableRecord
  2
AM_DIN_F_W050
 70
     0
  3
__ __ __ __ __ __ __ __ __ __ __ __ __ __ __
 72
    65
 73
     2
 40
6.25
 49
4.75
 74
     0
 49
-1.5
 74
     0
  0
LTYPE
  5
7FA5
330
6A1B
100
AcDbSymbolTableRecord
100
AcDbLinetypeTableRecord
  2
AM_DIN_G_W050
 70
     0
  3
____ . ____ . ____ . ____ . ____ . ____ . ____
 72
    65
 73
     4
 40
13.75
 49
9.75
 74
     0
 49
-1.5
 74
     0
 49
1.0
 74
     0
 49
-1.5
 74
     0
  0
LTYPE
  5
7FA6
330
6A1B
100
AcDbSymbolTableRecord
100
AcDbLinetypeTableRecord
  2
AM_DIN_K_W050
 70
     0
  3
_____ . . _____ . . _____ . . ____ .. ____
 72
    65
 73
     6
 40
16.25
 49
9.75
 74
     0
 49
-1.5
 74
     0
 49
1.0
 74
     0
 49
-1.5
 74
     0
 49
1.0
 74
     0
 49
-1.5
 74
     0
  0
LTYPE
  5
7FA7
330
6A1B
100
AcDbSymbolTableRecord
100
AcDbLinetypeTableRecord
  2
AM_DIN_G_W050X2
 70
     0
  3
__ . __ . __ . __ . __ . __
 72
    65
 73
     4
 40
6.875
 49
4.75
 74
     0
 49
-0.875
 74
     0
 49
0.375
 74
     0
 49
-0.875
 74
     0
  0
LTYPE
  5
7FA8
330
6A1B
100
AcDbSymbolTableRecord
100
AcDbLinetypeTableRecord
  2
AM_DIN_F_W050X2
 70
     0
  3
 _ _ _ _ _ _ _ _ _ _ _ _
 72
    65
 73
     2
 40
3.125
 49
2.25
 74
     0
 49
-0.875
 74
     0
  0
ENDTAB
  0
TABLE
  2
LAYER
  5
6A18
330
0
100
AcDbSymbolTable
 70
    12
  0
LAYER
  5
6A26
330
6A18
100
AcDbSymbolTableRecord
100
AcDbLayerTableRecord
  2
0
 70
     0
 62
     7
  6
CONTINUOUS
  0
LAYER
  5
6A4B
330
6A18
100
AcDbSymbolTableRecord
100
AcDbLayerTableRecord
  2
DEFPOINTS
 70
     0
 62
     7
  6
CONTINUOUS
  0
LAYER
  5
6A4C
330
6A18
100
AcDbSymbolTableRecord
100
AcDbLayerTableRecord
  2
1
 70
     0
 62
     4
  6
CONTINUOUS
  0
LAYER
  5
6A4D
330
6A18
100
AcDbSymbolTableRecord
100
AcDbLayerTableRecord
  2
2
 70
     0
 62
     7
  6
CONTINUOUS
  0
LAYER
  5
6A4F
330
6A18
100
AcDbSymbolTableRecord
100
AcDbLayerTableRecord
  2
4
 70
     0
 62
     2
  6
CENTER
  0
LAYER
  5
6A50
330
6A18
100
AcDbSymbolTableRecord
100
AcDbLayerTableRecord
  2
6
 70
     0
 62
     5
  6
CONTINUOUS
  0
LAYER
  5
6A53
330
6A18
100
AcDbSymbolTableRecord
100
AcDbLayerTableRecord
  2
SK1
 70
     0
 62
     4
  6
CONTINUOUS
  0
LAYER
  5
6A54
330
6A18
100
AcDbSymbolTableRecord
100
AcDbLayerTableRecord
  2
SK2
 70
     0
 62
     7
  6
CONTINUOUS
  0
LAYER
  5
6A55
330
6A18
100
AcDbSymbolTableRecord
100
AcDbLayerTableRecord
  2
SK3
 70
     0
 62
     1
  6
DASHED
  0
LAYER
  5
6A56
330
6A18
100
AcDbSymbolTableRecord
100
AcDbLayerTableRecord
  2
SK4
 70
     0
 62
     2
  6
CENTER
  0
LAYER
  5
6A57
330
6A18
100
AcDbSymbolTableRecord
100
AcDbLayerTableRecord
  2
CUT
 70
     0
 62
     1
  6
CONTINUOUS
  0
LAYER
  5
6A58
330
6A18
100
AcDbSymbolTableRecord
100
AcDbLayerTableRecord
  2
NOCUT
 70
     0
 62
     7
  6
CONTINUOUS
  0
ENDTAB
  0
TABLE
  2
STYLE
  5
6A19
330
0
100
AcDbSymbolTable
 70
     6
  0
STYLE
  5
6A27
330
6A19
100
AcDbSymbolTableRecord
100
AcDbTextStyleTableRecord
  2
STANDARD
 70
     0
 40
0.0
 41
1.0
 50
0.0
 71
     0
 42
2.5
  3
ISOCP.SHX
  4

  0
STYLE
  5
6A5B
330
6A19
100
AcDbSymbolTableRecord
100
AcDbTextStyleTableRecord
  2

 70
     1
 40
0.0
 41
1.0
 50
0.0
 71
     0
 42
2.5
  3
ltypeshp.shx
  4

  0
STYLE
  5
6A5E
330
6A19
100
AcDbSymbolTableRecord
100
AcDbTextStyleTableRecord
  2
ACANSTS
 70
     0
 40
1.0
 41
1.0
 50
0.0
 71
     0
 42
0.2
  3
romans.shx
  4

  0
STYLE
  5
6A5F
330
6A19
100
AcDbSymbolTableRecord
100
AcDbTextStyleTableRecord
  2
ACANSGDT
 70
     0
 40
0.0
 41
1.0
 50
0.0
 71
     0
 42
0.2
  3
amgdtans.shx
  4

  0
STYLE
  5
6D9A
330
6A19
100
AcDbSymbolTableRecord
100
AcDbTextStyleTableRecord
  2
ACDINTS
 70
     0
 40
1.0
 41
1.0
 50
0.0
 71
     0
 42
2.5
  3
isocp.shx
  4

  0
STYLE
  5
6D9B
330
6A19
100
AcDbSymbolTableRecord
100
AcDbTextStyleTableRecord
  2
ACDINGDT
 70
     0
 40
0.0
 41
1.0
 50
0.0
 71
     0
 42
2.5
  3
amgdt.shx
  4

  0
ENDTAB
  0
TABLE
  2
VIEW
  5
6A1C
330
0
100
AcDbSymbolTable
 70
     6
  0
VIEW
  5
6A60
330
6A1C
100
AcDbSymbolTableRecord
100
AcDbViewTableRecord
  2
AM_VIEW1
 70
     0
 40
148.5
 10
131.508173076923
 20
222.75
 41
263.016346153846
 11
0.0
 21
0.0
 31
1.0
 12
0.0
 22
0.0
 32
0.0
 42
50.0
 43
0.0
 44
0.0
 50
0.0
 71
    16
  0
VIEW
  5
6A61
330
6A1C
100
AcDbSymbolTableRecord
100
AcDbViewTableRecord
  2
AM_VIEW2
 70
     0
 40
148.5
 10
78.4918269230769
 20
222.75
 41
263.016346153846
 11
0.0
 21
0.0
 31
1.0
 12
0.0
 22
0.0
 32
0.0
 42
50.0
 43
0.0
 44
0.0
 50
0.0
 71
    16
  0
VIEW
  5
6A62
330
6A1C
100
AcDbSymbolTableRecord
100
AcDbViewTableRecord
  2
AM_VIEW3
 70
     0
 40
148.5
 10
131.508173076923
 20
74.25
 41
263.016346153846
 11
0.0
 21
0.0
 31
1.0
 12
0.0
 22
0.0
 32
0.0
 42
50.0
 43
0.0
 44
0.0
 50
0.0
 71
    16
  0
VIEW
  5
6A63
330
6A1C
100
AcDbSymbolTableRecord
100
AcDbViewTableRecord
  2
AM_VIEW4
 70
     0
 40
148.5
 10
78.4918269230769
 20
74.25
 41
263.016346153846
 11
0.0
 21
0.0
 31
1.0
 12
0.0
 22
0.0
 32
0.0
 42
50.0
 43
0.0
 44
0.0
 50
0.0
 71
    16
  0
VIEW
  5
6A64
330
6A1C
100
AcDbSymbolTableRecord
100
AcDbViewTableRecord
  2
AM_VIEW5
 70
     0
 40
148.5
 10
105.0
 20
148.5
 41
263.016346153846
 11
0.0
 21
0.0
 31
1.0
 12
0.0
 22
0.0
 32
0.0
 42
50.0
 43
0.0
 44
0.0
 50
0.0
 71
    16
  0
VIEW
  5
6A65
330
6A1C
100
AcDbSymbolTableRecord
100
AcDbViewTableRecord
  2
AM_VIEW6
 70
     0
 40
296.9970299999999
 10
105.0
 20
148.5
 41
526.0274319807693
 11
0.0
 21
0.0
 31
1.0
 12
0.0
 22
0.0
 32
0.0
 42
50.0
 43
0.0
 44
0.0
 50
0.0
 71
    16
  0
ENDTAB
  0
TABLE
  2
UCS
  5
6A1D
330
0
100
AcDbSymbolTable
 70
     0
  0
ENDTAB
  0
TABLE
  2
APPID
  5
6A1F
330
0
100
AcDbSymbolTable
 70
    42
  0
APPID
  5
6A28
330
6A1F
100
AcDbSymbolTableRecord
100
AcDbRegAppTableRecord
  2
ACAD
 70
     0
  0
APPID
  5
6A66
330
6A1F
100
AcDbSymbolTableRecord
100
AcDbRegAppTableRecord
  2
MCAD_NO_VIS
 70
     0
  0
APPID
  5
6A67
330
6A1F
100
AcDbSymbolTableRecord
100
AcDbRegAppTableRecord
  2
ACAD_TEMP_GRAPHIC
 70
     0
  0
APPID
  5
6A68
330
6A1F
100
AcDbSymbolTableRecord
100
AcDbRegAppTableRecord
  2
ACATTRIBSERVICES
 70
     0
  0
APPID
  5
6A69
330
6A1F
100
AcDbSymbolTableRecord
100
AcDbRegAppTableRecord
  2
GENIUS_GENDIMSH_14
 70
     0
  0
APPID
  5
6A6A
330
6A1F
100
AcDbSymbolTableRecord
100
AcDbRegAppTableRecord
  2
GENIUS_GENBLLY_14
 70
     0
  0
APPID
  5
6A6B
330
6A1F
100
AcDbSymbolTableRecord
100
AcDbRegAppTableRecord
  2
GENIUS_GENTRA_14
 70
     0
  0
APPID
  5
6A6C
330
6A1F
100
AcDbSymbolTableRecord
100
AcDbRegAppTableRecord
  2
GENIUS_GENODEF_13
 70
     0
  0
APPID
  5
6A6D
330
6A1F
100
AcDbSymbolTableRecord
100
AcDbRegAppTableRecord
  2
GENIUS_GENOLIS_13
 70
     0
  0
APPID
  5
6A6E
330
6A1F
100
AcDbSymbolTableRecord
100
AcDbRegAppTableRecord
  2
GENIUS_GENOENT_13
 70
     0
  0
APPID
  5
6A6F
330
6A1F
100
AcDbSymbolTableRecord
100
AcDbRegAppTableRecord
  2
GENIUS_GENOBJ-N-TIT_13
 70
     0
  0
APPID
  5
6A70
330
6A1F
100
AcDbSymbolTableRecord
100
AcDbRegAppTableRecord
  2
GENIUS_GENTITLE_13
 70
     0
  0
APPID
  5
6A71
330
6A1F
100
AcDbSymbolTableRecord
100
AcDbRegAppTableRecord
  2
GENIUS_GENOREF_13
 70
     0
  0
APPID
  5
6A72
330
6A1F
100
AcDbSymbolTableRecord
100
AcDbRegAppTableRecord
  2
GENIUS_GENSCREG_15
 70
     0
  0
APPID
  5
6A73
330
6A1F
100
AcDbSymbolTableRecord
100
AcDbRegAppTableRecord
  2
GENIUS_GENOBJ-N-SDF_13
 70
     0
  0
APPID
  5
6A74
330
6A1F
100
AcDbSymbolTableRecord
100
AcDbRegAppTableRecord
  2
ACADIGES
 70
     0
  0
APPID
  5
6A75
330
6A1F
100
AcDbSymbolTableRecord
100
AcDbRegAppTableRecord
  2
GENIUS_GENOBJ-N-HTC_13
 70
     0
  0
APPID
  5
6A76
330
6A1F
100
AcDbSymbolTableRecord
100
AcDbRegAppTableRecord
  2
GENIUS_GENHATCH_13
 70
     0
  0
APPID
  5
6DA2
330
6A1F
100
AcDbSymbolTableRecord
100
AcDbRegAppTableRecord
  2
GENIUS_GENOBJ-N-CRS_13
 70
     0
  0
APPID
  5
6DA3
330
6A1F
100
AcDbSymbolTableRecord
100
AcDbRegAppTableRecord
  2
GENIUS_GENOBJ-N-FIL_13
 70
     0
  0
APPID
  5
6DD2
330
6A1F
100
AcDbSymbolTableRecord
100
AcDbRegAppTableRecord
  2
GENIUS_GENFIL_13
 70
     0
  0
APPID
  5
6DD3
330
6A1F
100
AcDbSymbolTableRecord
100
AcDbRegAppTableRecord
  2
GENIUS_GENOBJ-N-CHA_13
 70
     0
  0
APPID
  5
874F
330
6A1F
100
AcDbSymbolTableRecord
100
AcDbRegAppTableRecord
  2
GENIUS12
 70
     0
  0
APPID
  5
8750
330
6A1F
100
AcDbSymbolTableRecord
100
AcDbRegAppTableRecord
  2
GENIUS_GENCFG_13
 70
     0
  0
APPID
  5
8751
330
6A1F
100
AcDbSymbolTableRecord
100
AcDbRegAppTableRecord
  2
GENIUS_GENCFG0_13
 70
     0
  0
APPID
  5
8752
330
6A1F
100
AcDbSymbolTableRecord
100
AcDbRegAppTableRecord
  2
GENIUS_GENCFG1_13
 70
     0
  0
APPID
  5
8753
330
6A1F
100
AcDbSymbolTableRecord
100
AcDbRegAppTableRecord
  2
GENIUS_GENCFG2_13
 70
     0
  0
APPID
  5
8754
330
6A1F
100
AcDbSymbolTableRecord
100
AcDbRegAppTableRecord
  2
GENIUS_GENCFG3_13
 70
     0
  0
APPID
  5
8755
330
6A1F
100
AcDbSymbolTableRecord
100
AcDbRegAppTableRecord
  2
GENIUS_GENCFG4_13
 70
     0
  0
APPID
  5
8756
330
6A1F
100
AcDbSymbolTableRecord
100
AcDbRegAppTableRecord
  2
GENIUS_GEVCFG0_13
 70
     0
  0
APPID
  5
8757
330
6A1F
100
AcDbSymbolTableRecord
100
AcDbRegAppTableRecord
  2
GENIUS_GEFCFG0_13
 70
     0
  0
APPID
  5
8758
330
6A1F
100
AcDbSymbolTableRecord
100
AcDbRegAppTableRecord
  2
GEV_VCCNULL_SWITCH_OFF
 70
     0
  0
APPID
  5
8759
330
6A1F
100
AcDbSymbolTableRecord
100
AcDbRegAppTableRecord
  2
GENIUS_GENDTOL_13
 70
     0
  0
APPID
  5
875A
330
6A1F
100
AcDbSymbolTableRecord
100
AcDbRegAppTableRecord
  2
GENIUS_GENOBJ-F-SUF_13
 70
     0
  0
APPID
  5
875B
330
6A1F
100
AcDbSymbolTableRecord
100
AcDbRegAppTableRecord
  2
GENIUS_GENDIM_13
 70
     0
  0
APPID
  5
875C
330
6A1F
100
AcDbSymbolTableRecord
100
AcDbRegAppTableRecord
  2
GENIUS_GE3DTOL_13
 70
     0
  0
APPID
  5
875D
330
6A1F
100
AcDbSymbolTableRecord
100
AcDbRegAppTableRecord
  2
AD_DRAW
 70
     0
  0
APPID
  5
875E
330
6A1F
100
AcDbSymbolTableRecord
100
AcDbRegAppTableRecord
  2
ASURF_PCURVE_APPNAME
 70
     0
  0
APPID
  5
875F
330
6A1F
100
AcDbSymbolTableRecord
100
AcDbRegAppTableRecord
  2
AMG_3D2D_5_0
 70
     0
  0
APPID
  5
8760
330
6A1F
100
AcDbSymbolTableRecord
100
AcDbRegAppTableRecord
  2
DESIGNERASSEMBLIES
 70
     0
  0
APPID
  5
8761
330
6A1F
100
AcDbSymbolTableRecord
100
AcDbRegAppTableRecord
  2
ACADM_DIM_EDIT
 70
     0
  0
APPID
  5
8762
330
6A1F
100
AcDbSymbolTableRecord
100
AcDbRegAppTableRecord
  2
AMDT_DM_ADJ
 70
     0
  0
ENDTAB
  0
TABLE
  2
DIMSTYLE
  5
6A20
330
0
100
AcDbSymbolTable
 70
    14
  0
DIMSTYLE
105
6A77
102
{ACAD_REACTORS
330
8EC8
330
8F09
330
8F55
330
8F7D
330
8FC0
330
9005
102
}
330
6A20
100
AcDbSymbolTableRecord
100
AcDbDimStyleTableRecord
  2
AM_DIN
 70
     0
  3

  4
"
  5

  6

  7

 40
1.0
 41
2.5
 42
0.0
 43
10.0
 44
1.0
 45
0.0
 46
0.0
 47
0.1
 48
0.1
140
3.5
141
0.0
142
0.0
143
0.0393701
144
1.0
145
0.0
146
0.71
147
1.5
 71
     0
 72
     0
 73
     0
 74
     0
 75
     0
 76
     0
 77
     1
 78
     8
170
     0
171
     2
172
     1
173
     0
174
     0
175
     0
176
   256
177
   256
178
     2
270
     2
271
     2
272
     2
273
     2
274
     2
340
6A27
275
     0
280
     0
281
     0
282
     0
283
     1
284
     8
285
     8
286
     8
287
     5
288
     0
  0
DIMSTYLE
105
6A7E
330
6A20
100
AcDbSymbolTableRecord
100
AcDbDimStyleTableRecord
  2
STANDARD
 70
     0
  3

  4

  5

  6

  7

 40
1.0
 41
0.18
 42
0.0625
 43
0.38
 44
0.18
 45
0.0
 46
0.0
 47
0.0
 48
0.0
140
0.18
141
0.09
142
0.0
143
25.4
144
1.0
145
0.0
146
1.0
147
0.09
 71
     0
 72
     0
 73
     1
 74
     1
 75
     0
 76
     0
 77
     0
 78
     0
170
     0
171
     2
172
     0
173
     0
174
     0
175
     0
176
     0
177
     0
178
     0
270
     2
271
     2
272
     2
273
     2
274
     2
340
6A27
275
     0
280
     0
281
     0
282
     0
283
     1
284
     8
285
     8
286
     8
287
     5
288
     0
  0
DIMSTYLE
105
6A7F
330
6A20
100
AcDbSymbolTableRecord
100
AcDbDimStyleTableRecord
  2
AM_ANSI
 70
     0
  3

  4
mm
  5

  6

  7

 40
1.0
 41
0.1
 42
0.05
 43
0.5
 44
0.1
 45
0.0
 46
0.0
 47
0.1
 48
0.1
140
0.12
141
0.0
142
0.0
143
25.4
144
1.0
145
0.0
146
0.71
147
0.06
 71
     0
 72
     0
 73
     1
 74
     1
 75
     0
 76
     0
 77
     0
 78
     7
170
     0
171
     2
172
     0
173
     0
174
     0
175
     0
176
   256
177
   256
178
     2
270
     2
271
     2
272
     2
273
     2
274
     2
340
6A27
275
     0
280
     0
281
     0
282
     0
283
     1
284
     8
285
     8
286
     8
287
     5
288
     0
  0
DIMSTYLE
105
6A80
330
6A20
100
AcDbSymbolTableRecord
100
AcDbDimStyleTableRecord
  2
AM_ANSI$3
 70
     0
  3

  4
mm
  5

  6

  7

 40
1.0
 41
0.1
 42
0.05
 43
0.5
 44
0.1
 45
0.0
 46
0.0
 47
0.1
 48
0.1
140
0.12
141
0.0
142
0.0
143
25.4
144
1.0
145
0.0
146
0.71
147
0.06
 71
     0
 72
     0
 73
     1
 74
     1
 75
     0
 76
     0
 77
     0
 78
     7
170
     0
171
     2
172
     0
173
     0
174
     0
175
     0
176
   256
177
   256
178
     2
270
     2
271
     2
272
     2
273
     2
274
     2
340
6A27
275
     0
280
     0
281
     0
282
     0
283
     1
284
     8
285
     8
286
     8
287
     5
288
     0
  0
DIMSTYLE
105
6A81
330
6A20
100
AcDbSymbolTableRecord
100
AcDbDimStyleTableRecord
  2
AM_ANSI$4
 70
     0
  3

  4
mm
  5

  6

  7

 40
1.0
 41
0.1
 42
0.05
 43
0.5
 44
0.1
 45
0.0
 46
0.0
 47
0.1
 48
0.1
140
0.12
141
0.0
142
0.0
143
25.4
144
1.0
145
0.0
146
0.71
147
0.06
 71
     0
 72
     0
 73
     1
 74
     1
 75
     0
 76
     0
 77
     0
 78
     7
170
     0
171
     2
172
     0
173
     0
174
     0
175
     0
176
   256
177
   256
178
     2
270
     2
271
     2
272
     2
273
     2
274
     2
340
6A27
275
     0
280
     0
281
     0
282
     0
283
     1
284
     8
285
     8
286
     8
287
     5
288
     0
  0
DIMSTYLE
105
6A82
330
6A20
100
AcDbSymbolTableRecord
100
AcDbDimStyleTableRecord
  2
AM_ANSI$7
 70
     0
  3

  4
mm
  5

  6

  7

 40
1.0
 41
0.1
 42
0.05
 43
0.5
 44
0.1
 45
0.0
 46
0.0
 47
0.1
 48
0.1
140
0.24
141
0.0
142
0.0
143
25.4
144
1.0
145
0.0
146
0.71
147
0.06
 71
     0
 72
     0
 73
     1
 74
     1
 75
     0
 76
     0
 77
     0
 78
     7
170
     0
171
     2
172
     0
173
     0
174
     0
175
     0
176
   256
177
   256
178
     2
270
     2
271
     2
272
     2
273
     2
274
     2
340
6A27
275
     0
280
     0
281
     0
282
     0
283
     1
284
     8
285
     8
286
     8
287
     5
288
     0
  0
DIMSTYLE
105
6A83
330
6A20
100
AcDbSymbolTableRecord
100
AcDbDimStyleTableRecord
  2
AM_ANSI$SF
 70
     0
  3

  4
mm
  5

  6

  7

 40
1.0
 41
0.1
 42
0.05
 43
0.5
 44
0.1
 45
0.0
 46
0.0
 47
0.1
 48
0.1
140
0.12
141
0.0
142
0.0
143
25.4
144
1.0
145
0.0
146
0.71
147
0.06
 71
     0
 72
     0
 73
     1
 74
     1
 75
     1
 76
     1
 77
     0
 78
     7
170
     0
171
     2
172
     0
173
     0
174
     0
175
     0
176
   256
177
   256
178
     2
270
     2
271
     2
272
     2
273
     2
274
     2
340
6A27
275
     0
280
     0
281
     0
282
     0
283
     1
284
     8
285
     8
286
     8
287
     5
288
     0
  0
DIMSTYLE
105
6A84
330
6A20
100
AcDbSymbolTableRecord
100
AcDbDimStyleTableRecord
  2
AM_ANSI$SH
 70
     0
  3

  4
mm
  5

  6

  7

 40
1.0
 41
0.1
 42
0.05
 43
0.5
 44
0.1
 45
0.0
 46
0.0
 47
0.1
 48
0.1
140
0.12
141
0.0
142
0.0
143
25.4
144
1.0
145
0.0
146
0.71
147
0.06
 71
     0
 72
     0
 73
     1
 74
     1
 75
     1
 76
     1
 77
     0
 78
     7
170
     0
171
     2
172
     0
173
     1
174
     0
175
     0
176
   256
177
   256
178
     2
270
     2
271
     2
272
     2
273
     2
274
     2
340
6A27
275
     0
280
     0
281
     0
282
     0
283
     1
284
     8
285
     8
286
     8
287
     5
288
     0
  0
DIMSTYLE
105
6D9C
330
6A20
100
AcDbSymbolTableRecord
100
AcDbDimStyleTableRecord
  2
AM_DIN$3
 70
     0
  3

  4
"
  5

  6

  7

 40
1.0
 41
3.5
 42
0.0
 43
10.0
 44
1.0
 45
0.0
 46
0.0
 47
0.1
 48
0.1
140
3.5
141
0.0
142
0.0
143
0.0393701
144
1.0
145
0.0
146
0.71
147
1.5
 71
     0
 72
     0
 73
     0
 74
     1
 75
     0
 76
     0
 77
     1
 78
     8
170
     0
171
     2
172
     0
173
     0
174
     0
175
     0
176
   256
177
   256
178
     2
270
     2
271
     2
272
     2
273
     2
274
     2
340
6A27
275
     0
280
     0
281
     0
282
     0
283
     0
284
     8
285
     0
286
     0
287
     0
288
     1
  0
DIMSTYLE
105
6D9D
330
6A20
100
AcDbSymbolTableRecord
100
AcDbDimStyleTableRecord
  2
AM_DIN$4
 70
     0
  3

  4
"
  5

  6

  7

 40
1.0
 41
3.5
 42
0.0
 43
10.0
 44
1.0
 45
0.0
 46
0.0
 47
0.1
 48
0.1
140
3.5
141
0.0
142
0.0
143
0.0393701
144
1.0
145
0.0
146
0.71
147
1.5
 71
     0
 72
     0
 73
     0
 74
     1
 75
     0
 76
     0
 77
     1
 78
     8
170
     0
171
     2
172
     0
173
     0
174
     0
175
     0
176
   256
177
   256
178
     2
270
     2
271
     2
272
     2
273
     2
274
     2
340
6A27
275
     0
280
     0
281
     0
282
     0
283
     0
284
     8
285
     0
286
     0
287
     0
288
     1
  0
DIMSTYLE
105
6D9E
330
6A20
100
AcDbSymbolTableRecord
100
AcDbDimStyleTableRecord
  2
AM_DIN$6
 70
     0
  3

  4
"
  5

  6

  7

 40
1.0
 41
3.5
 42
0.0
 43
0.0
 44
1.0
 45
0.0
 46
0.0
 47
0.1
 48
0.1
140
3.5
141
0.0
142
0.0
143
0.0393701
144
1.0
145
0.0
146
0.71
147
1.5
 71
     0
 72
     0
 73
     0
 74
     0
 75
     0
 76
     0
 77
     0
 78
     8
170
     0
171
     2
172
     1
173
     0
174
     0
175
     0
176
   256
177
   256
178
     2
270
     2
271
     2
272
     2
273
     2
274
     2
340
6A27
275
     0
280
     0
281
     0
282
     0
283
     0
284
     8
285
     0
286
     0
287
     3
288
     0
  0
DIMSTYLE
105
6D9F
330
6A20
100
AcDbSymbolTableRecord
100
AcDbDimStyleTableRecord
  2
AM_DIN$7
 70
     0
  3

  4
"
  5

  6

  7

 40
1.0
 41
3.5
 42
0.0
 43
10.0
 44
1.0
 45
0.0
 46
0.0
 47
0.1
 48
0.1
140
3.5
141
0.0
142
0.0
143
0.0393701
144
1.0
145
0.0
146
0.71
147
1.5
 71
     0
 72
     0
 73
     0
 74
     0
 75
     0
 76
     0
 77
     1
 78
     8
170
     0
171
     2
172
     1
173
     0
174
     0
175
     0
176
   256
177
   256
178
     2
270
     2
271
     2
272
     2
273
     2
274
     2
340
6A27
275
     0
280
     0
281
     0
282
     0
283
     0
284
     8
285
     0
286
     0
287
     3
288
     0
  0
DIMSTYLE
105
6DA0
330
6A20
100
AcDbSymbolTableRecord
100
AcDbDimStyleTableRecord
  2
AM_DIN$SF
 70
     0
  3

  4
"
  5

  6

  7

 40
1.0
 41
2.5
 42
1.0
 43
10.0
 44
1.0
 45
0.0
 46
0.0
 47
0.1
 48
0.1
140
3.5
141
0.0
142
0.0
143
0.0393701
144
1.0
145
0.0
146
0.71
147
1.5
 71
     0
 72
     0
 73
     0
 74
     0
 75
     1
 76
     1
 77
     1
 78
     8
170
     0
171
     2
172
     1
173
     0
174
     0
175
     0
176
   256
177
   256
178
     2
270
     2
271
     2
272
     3
273
     2
274
     4
340
6A27
275
     0
280
     0
281
     0
282
     0
283
     0
284
     8
285
     0
286
     0
287
     3
288
     0
  0
DIMSTYLE
105
6DA1
330
6A20
100
AcDbSymbolTableRecord
100
AcDbDimStyleTableRecord
  2
AM_DIN$SH
 70
     0
  3

  4
"
  5

  6
GENAXEH
  7

 40
1.0
 41
2.5
 42
1.0
 43
10.0
 44
1.0
 45
0.0
 46
0.0
 47
0.1
 48
0.1
140
3.5
141
0.0
142
0.0
143
0.0393701
144
2.0
145
0.0
146
0.71
147
1.5
 71
     0
 72
     0
 73
     0
 74
     0
 75
     1
 76
     1
 77
     1
 78
     8
170
     0
171
     2
172
     1
173
     1
174
     0
175
     0
176
   256
177
   256
178
     2
270
     2
271
     2
272
     3
273
     2
274
     4
340
6A27
275
     0
280
     0
281
     0
282
     0
283
     0
284
     8
285
     0
286
     0
287
     3
288
     0
  0
ENDTAB
  0
TABLE
  2
BLOCK_RECORD
  5
6A17
330
0
100
AcDbSymbolTable
 70
     7
  0
BLOCK_RECORD
  5
6A34
102
{ACAD_XDICTIONARY
360
6B62
102
}
330
6A17
100
AcDbSymbolTableRecord
100
AcDbBlockTableRecord
  2
*MODEL_SPACE
  0
BLOCK_RECORD
  5
6A30
102
{ACAD_XDICTIONARY
360
915E
102
}
330
6A17
100
AcDbSymbolTableRecord
100
AcDbBlockTableRecord
  2
*PAPER_SPACE
  0
BLOCK_RECORD
  5
6D93
330
6A17
100
AcDbSymbolTableRecord
100
AcDbBlockTableRecord
  2
GENAXEH
  0
BLOCK_RECORD
  5
8EC9
330
6A17
100
AcDbSymbolTableRecord
100
AcDbBlockTableRecord
  2
*D1
  0
BLOCK_RECORD
  5
8F0A
330
6A17
100
AcDbSymbolTableRecord
100
AcDbBlockTableRecord
  2
*D2
  0
BLOCK_RECORD
  5
8F56
330
6A17
100
AcDbSymbolTableRecord
100
AcDbBlockTableRecord
  2
*D3
  0
BLOCK_RECORD
  5
8F7E
330
6A17
100
AcDbSymbolTableRecord
100
AcDbBlockTableRecord
  2
*D4
  0
BLOCK_RECORD
  5
8FC1
330
6A17
100
AcDbSymbolTableRecord
100
AcDbBlockTableRecord
  2
*D5
  0
BLOCK_RECORD
  5
9006
330
6A17
100
AcDbSymbolTableRecord
100
AcDbBlockTableRecord
  2
*D6
  0
ENDTAB
  0
ENDSEC
  0
SECTION
  2
BLOCKS
  0
BLOCK
  5
6A35
330
6A34
100
AcDbEntity
  8
0
100
AcDbBlockBegin
  2
*MODEL_SPACE
 70
     0
 10
0.0
 20
0.0
 30
0.0
  3
*MODEL_SPACE
  1

  0
ENDBLK
  5
6A36
330
6A34
100
AcDbEntity
  8
0
100
AcDbBlockEnd
  0
BLOCK
  5
6A31
330
6A30
100
AcDbEntity
 67
     1
  8
0
100
AcDbBlockBegin
  2
*PAPER_SPACE
 70
     0
 10
0.0
 20
0.0
 30
0.0
  3
*PAPER_SPACE
  1

  0
ENDBLK
  5
6A32
330
6A30
100
AcDbEntity
 67
     1
  8
0
100
AcDbBlockEnd
  0
BLOCK
  5
6D95
330
6D93
100
AcDbEntity
  8
0
100
AcDbBlockBegin
  2
GENAXEH
 70
     0
 10
0.0
 20
0.0
 30
0.0
  3
GENAXEH
  1

  0
LINE
  5
6D94
330
6D93
100
AcDbEntity
  8
0
100
AcDbLine
 10
-1.0
 20
0.0
 30
0.0
 11
1.0
 21
0.0
 31
0.0
  0
ENDBLK
  5
6D96
330
6D93
100
AcDbEntity
  8
0
100
AcDbBlockEnd
  0
BLOCK
  5
8ED3
330
8EC9
100
AcDbEntity
  8
0
100
AcDbBlockBegin
  2
*D1
 70
     1
 10
0.0
 20
0.0
 30
0.0
  3
*D1
  1

  0
LINE
  5
908C
330
8EC9
100
AcDbEntity
  8
SK2
100
AcDbLine
 10
-46.99999999999985
 20
7.999999999999921
 30
0.0
 11
-63.33252677491532
 21
7.999999999999926
 31
0.0
  0
LINE
  5
908D
330
8EC9
100
AcDbEntity
  8
SK2
100
AcDbLine
 10
-46.99999999999985
 20
-8.000000000000106
 30
0.0
 11
-63.33252677491532
 21
-8.000000000000101
 31
0.0
  0
LINE
  5
908E
330
8EC9
100
AcDbEntity
  8
SK2
100
AcDbLine
 10
-62.33252677491532
 20
5.499999999999926
 30
0.0
 11
-62.33252677491532
 21
-5.500000000000101
 31
0.0
  0
SOLID
  5
908F
330
8EC9
100
AcDbEntity
  8
SK2
100
AcDbTrace
 10
-62.74919344158199
 20
5.499999999999926
 30
0.0
 11
-61.91586010824866
 21
5.499999999999925
 31
0.0
 12
-62.33252677491532
 22
7.999999999999926
 32
0.0
 13
-62.33252677491532
 23
7.999999999999926
 33
0.0
  0
SOLID
  5
9090
330
8EC9
100
AcDbEntity
  8
SK2
100
AcDbTrace
 10
-62.74919344158199
 20
-5.500000000000101
 30
0.0
 11
-61.91586010824866
 21
-5.500000000000102
 31
0.0
 12
-62.33252677491532
 22
-8.000000000000101
 32
0.0
 13
-62.33252677491532
 23
-8.000000000000101
 33
0.0
  0
MTEXT
  5
9091
330
8EC9
100
AcDbEntity
  8
SK2
 62
     2
100
AcDbMText
 10
-65.58252677491532
 20
-0.0000000000000975
 30
0.0
 40
3.5
 41
0.0
 71
     5
 72
     1
  1
\A1;%%c16
 11
0.0000000000000001
 21
1.0
 31
0.0
1001
ACAD
1000
MTEXTBEGIN
1070
    73
1070
     1
1070
    44
1040
1.0
1070
    74
1070
     0
1000
MTEXTEND
  0
POINT
  5
9092
330
8EC9
100
AcDbEntity
  8
DEFPOINTS
 62
     0
100
AcDbPoint
 10
-46.99999999999985
 20
7.999999999999921
 30
0.0
  0
POINT
  5
9093
330
8EC9
100
AcDbEntity
  8
DEFPOINTS
 62
     0
100
AcDbPoint
 10
-46.99999999999985
 20
-8.000000000000106
 30
0.0
  0
POINT
  5
9094
330
8EC9
100
AcDbEntity
  8
DEFPOINTS
 62
     0
100
AcDbPoint
 10
-62.33252677491532
 20
-8.000000000000101
 30
0.0
  0
ENDBLK
  5
8ED4
330
8EC9
100
AcDbEntity
  8
0
100
AcDbBlockEnd
  0
BLOCK
  5
8F14
330
8F0A
100
AcDbEntity
  8
0
100
AcDbBlockBegin
  2
*D2
 70
     1
 10
0.0
 20
0.0
 30
0.0
  3
*D2
  1

  0
LINE
  5
9095
330
8F0A
100
AcDbEntity
  8
SK2
100
AcDbLine
 10
27.00000000000015
 20
-6.500000000000208
 30
0.0
 11
27.00000000000015
 21
-27.72553826447108
 31
0.0
  0
LINE
  5
9096
330
8F0A
100
AcDbEntity
  8
SK2
100
AcDbLine
 10
-47.99999999999985
 20
-7.000000000000106
 30
0.0
 11
-47.99999999999985
 21
-27.72553826447108
 31
0.0
  0
LINE
  5
9097
330
8F0A
100
AcDbEntity
  8
SK2
100
AcDbLine
 10
24.50000000000015
 20
-26.72553826447108
 30
0.0
 11
-45.49999999999985
 21
-26.72553826447108
 31
0.0
  0
SOLID
  5
9098
330
8F0A
100
AcDbEntity
  8
SK2
100
AcDbTrace
 10
24.50000000000015
 20
-26.30887159780441
 30
0.0
 11
24.50000000000015
 21
-27.14220493113775
 31
0.0
 12
27.00000000000015
 22
-26.72553826447108
 32
0.0
 13
27.00000000000015
 23
-26.72553826447108
 33
0.0
  0
SOLID
  5
9099
330
8F0A
100
AcDbEntity
  8
SK2
100
AcDbTrace
 10
-45.49999999999985
 20
-26.30887159780441
 30
0.0
 11
-45.49999999999985
 21
-27.14220493113775
 31
0.0
 12
-47.99999999999985
 22
-26.72553826447108
 32
0.0
 13
-47.99999999999985
 23
-26.72553826447108
 33
0.0
  0
MTEXT
  5
909A
330
8F0A
100
AcDbEntity
  8
SK2
 62
     2
100
AcDbMText
 10
-10.49999999999985
 20
-23.47553826447108
 30
0.0
 40
3.5
 41
0.0
 71
     5
 72
     1
  1
\A1;75
1001
ACAD
1000
MTEXTBEGIN
1070
    73
1070
     1
1070
    44
1040
1.0
1070
    74
1070
     0
1000
MTEXTEND
  0
POINT
  5
909B
330
8F0A
100
AcDbEntity
  8
DEFPOINTS
 62
     0
100
AcDbPoint
 10
27.00000000000015
 20
-6.500000000000208
 30
0.0
  0
POINT
  5
909C
330
8F0A
100
AcDbEntity
  8
DEFPOINTS
 62
     0
100
AcDbPoint
 10
-47.99999999999985
 20
-7.000000000000106
 30
0.0
  0
POINT
  5
909D
330
8F0A
100
AcDbEntity
  8
DEFPOINTS
 62
     0
100
AcDbPoint
 10
-47.99999999999985
 20
-26.72553826447108
 30
0.0
  0
ENDBLK
  5
8F15
330
8F0A
100
AcDbEntity
  8
0
100
AcDbBlockEnd
  0
BLOCK
  5
8F60
330
8F56
100
AcDbEntity
  8
0
100
AcDbBlockBegin
  2
*D3
 70
     1
 10
0.0
 20
0.0
 30
0.0
  3
*D3
  1

  0
LINE
  5
90A5
330
8F56
100
AcDbEntity
  8
2
100
AcDbLine
 10
27.00000000000006
 20
6.499999999999789
 30
0.0
 11
27.00000000000006
 21
75.99999999999993
 31
0.0
  0
LINE
  5
90A6
330
8F56
100
AcDbEntity
  8
2
100
AcDbLine
 10
0.0000000000001208
 20
7.999999999999864
 30
0.0
 11
0.000000000000125
 21
75.99999999999991
 31
0.0
  0
LINE
  5
90A7
330
8F56
100
AcDbEntity
  8
2
100
AcDbLine
 10
24.50000000000006
 20
74.99999999999992
 30
0.0
 11
2.500000000000124
 21
74.99999999999992
 31
0.0
  0
SOLID
  5
90A8
330
8F56
100
AcDbEntity
  8
2
100
AcDbTrace
 10
24.50000000000006
 20
75.4166666666666
 30
0.0
 11
24.50000000000006
 21
74.58333333333325
 31
0.0
 12
27.00000000000006
 22
74.99999999999992
 32
0.0
 13
27.00000000000006
 23
74.99999999999992
 33
0.0
  0
SOLID
  5
90A9
330
8F56
100
AcDbEntity
  8
2
100
AcDbTrace
 10
2.500000000000124
 20
75.4166666666666
 30
0.0
 11
2.500000000000124
 21
74.58333333333325
 31
0.0
 12
0.0000000000001249
 22
74.99999999999992
 32
0.0
 13
0.0000000000001249
 23
74.99999999999992
 33
0.0
  0
MTEXT
  5
90AA
330
8F56
100
AcDbEntity
  8
2
 62
     2
100
AcDbMText
 10
13.50000000000009
 20
78.2503444881889
 30
0.0
 40
3.5
 41
0.0
 71
     5
 72
     1
  1
\A1;27
1001
ACAD
1000
MTEXTBEGIN
1070
    73
1070
     1
1070
    44
1040
1.0
1070
    74
1070
     0
1000
MTEXTEND
  0
POINT
  5
90AB
330
8F56
100
AcDbEntity
  8
DEFPOINTS
 62
     0
100
AcDbPoint
 10
27.00000000000006
 20
6.499999999999789
 30
0.0
  0
POINT
  5
90AC
330
8F56
100
AcDbEntity
  8
DEFPOINTS
 62
     0
100
AcDbPoint
 10
0.0000000000001208
 20
7.999999999999864
 30
0.0
  0
POINT
  5
90AD
330
8F56
100
AcDbEntity
  8
DEFPOINTS
 62
     0
100
AcDbPoint
 10
0.0000000000001249
 20
74.99999999999992
 30
0.0
  0
ENDBLK
  5
8F61
330
8F56
100
AcDbEntity
  8
0
100
AcDbBlockEnd
  0
BLOCK
  5
8F88
330
8F7E
100
AcDbEntity
  8
0
100
AcDbBlockBegin
  2
*D4
 70
     1
 10
0.0
 20
0.0
 30
0.0
  3
*D4
  1

  0
LINE
  5
90AE
330
8F7E
100
AcDbEntity
  8
2
100
AcDbLine
 10
27.00000000000006
 20
6.499999999999789
 30
0.0
 11
27.00000000000006
 21
60.99999999999986
 31
0.0
  0
LINE
  5
90AF
330
8F7E
100
AcDbEntity
  8
2
100
AcDbLine
 10
14.00000000000006
 20
6.046995298013587
 30
0.0
 11
14.00000000000006
 21
60.99999999999986
 31
0.0
  0
LINE
  5
90B0
330
8F7E
100
AcDbEntity
  8
2
100
AcDbLine
 10
24.50000000000006
 20
59.99999999999985
 30
0.0
 11
16.50000000000006
 21
59.99999999999985
 31
0.0
  0
SOLID
  5
90B1
330
8F7E
100
AcDbEntity
  8
2
100
AcDbTrace
 10
24.50000000000006
 20
60.41666666666652
 30
0.0
 11
24.50000000000006
 21
59.58333333333319
 31
0.0
 12
27.00000000000006
 22
59.99999999999985
 32
0.0
 13
27.00000000000006
 23
59.99999999999985
 33
0.0
  0
SOLID
  5
90B2
330
8F7E
100
AcDbEntity
  8
2
100
AcDbTrace
 10
16.50000000000006
 20
60.41666666666652
 30
0.0
 11
16.50000000000006
 21
59.58333333333319
 31
0.0
 12
14.00000000000006
 22
59.99999999999985
 32
0.0
 13
14.00000000000006
 23
59.99999999999985
 33
0.0
  0
MTEXT
  5
90B3
330
8F7E
100
AcDbEntity
  8
2
 62
     2
100
AcDbMText
 10
20.50000000000006
 20
63.24999999999985
 30
0.0
 40
3.5
 41
0.0
 71
     5
 72
     1
  1
\A1;13
1001
ACAD
1000
MTEXTBEGIN
1070
    73
1070
     1
1070
    44
1040
1.0
1070
    74
1070
     0
1000
MTEXTEND
  0
POINT
  5
90B4
330
8F7E
100
AcDbEntity
  8
DEFPOINTS
 62
     0
100
AcDbPoint
 10
27.00000000000006
 20
6.499999999999789
 30
0.0
  0
POINT
  5
90B5
330
8F7E
100
AcDbEntity
  8
DEFPOINTS
 62
     0
100
AcDbPoint
 10
14.00000000000006
 20
6.046995298013587
 30
0.0
  0
POINT
  5
90B6
330
8F7E
100
AcDbEntity
  8
DEFPOINTS
 62
     0
100
AcDbPoint
 10
14.00000000000006
 20
59.99999999999985
 30
0.0
  0
ENDBLK
  5
8F89
330
8F7E
100
AcDbEntity
  8
0
100
AcDbBlockEnd
  0
BLOCK
  5
8FCB
330
8FC1
100
AcDbEntity
  8
0
100
AcDbBlockBegin
  2
*D5
 70
     1
 10
0.0
 20
0.0
 30
0.0
  3
*D5
  1

  0
LINE
  5
9109
330
8FC1
100
AcDbEntity
  8
2
100
AcDbLine
 10
27.00000000000006
 20
6.499999999999789
 30
0.0
 11
73.97401520911626
 21
6.499999999999777
 31
0.0
  0
LINE
  5
910A
330
8FC1
100
AcDbEntity
  8
2
100
AcDbLine
 10
27.00000000000015
 20
-6.500000000000208
 30
0.0
 11
73.97401520911626
 21
-6.500000000000221
 31
0.0
  0
LINE
  5
910B
330
8FC1
100
AcDbEntity
  8
2
100
AcDbLine
 10
72.97401520911626
 20
3.999999999999777
 30
0.0
 11
72.97401520911626
 21
-4.000000000000221
 31
0.0
  0
SOLID
  5
910C
330
8FC1
100
AcDbEntity
  8
2
100
AcDbTrace
 10
72.55734854244959
 20
3.999999999999777
 30
0.0
 11
73.39068187578293
 21
3.999999999999776
 31
0.0
 12
72.97401520911626
 22
6.499999999999777
 32
0.0
 13
72.97401520911626
 23
6.499999999999777
 33
0.0
  0
SOLID
  5
910D
330
8FC1
100
AcDbEntity
  8
2
100
AcDbTrace
 10
72.55734854244959
 20
-4.000000000000221
 30
0.0
 11
73.39068187578293
 21
-4.000000000000221
 31
0.0
 12
72.97401520911626
 22
-6.500000000000221
 32
0.0
 13
72.97401520911626
 23
-6.500000000000221
 33
0.0
  0
MTEXT
  5
910E
330
8FC1
100
AcDbEntity
  8
2
 62
     2
100
AcDbMText
 10
69.72401520911626
 20
-0.0000000000002101
 30
0.0
 40
3.5
 41
0.0
 71
     5
 72
     1
  1
\A1;%%c13
 11
0.0000000000000001
 21
1.0
 31
0.0
1001
ACAD
1000
MTEXTBEGIN
1070
    73
1070
     1
1070
    44
1040
1.0
1070
    74
1070
     0
1000
MTEXTEND
  0
POINT
  5
910F
330
8FC1
100
AcDbEntity
  8
DEFPOINTS
 62
     0
100
AcDbPoint
 10
27.00000000000006
 20
6.499999999999789
 30
0.0
  0
POINT
  5
9110
330
8FC1
100
AcDbEntity
  8
DEFPOINTS
 62
     0
100
AcDbPoint
 10
27.00000000000015
 20
-6.500000000000208
 30
0.0
  0
POINT
  5
9111
330
8FC1
100
AcDbEntity
  8
DEFPOINTS
 62
     0
100
AcDbPoint
 10
72.97401520911626
 20
-6.500000000000221
 30
0.0
  0
ENDBLK
  5
8FCC
330
8FC1
100
AcDbEntity
  8
0
100
AcDbBlockEnd
  0
BLOCK
  5
9012
330
9006
100
AcDbEntity
  8
0
100
AcDbBlockBegin
  2
*D6
 70
     1
 10
0.0
 20
0.0
 30
0.0
  3
*D6
  1

  0
LINE
  5
9128
330
9006
100
AcDbEntity
  8
2
100
AcDbLine
 10
27.00000000000006
 20
2.249999999999789
 30
0.0
 11
57.81082313015327
 21
2.249999999999781
 31
0.0
  0
LINE
  5
9129
330
9006
100
AcDbEntity
  8
2
100
AcDbLine
 10
27.00000000000015
 20
-2.250000000000209
 30
0.0
 11
57.81082313015327
 21
-2.250000000000218
 31
0.0
  0
LINE
  5
912A
330
9006
100
AcDbEntity
  8
2
100
AcDbLine
 10
56.81082313015327
 20
4.749999999999781
 30
0.0
 11
56.81082313015327
 21
7.249999999999781
 31
0.0
  0
LINE
  5
912B
330
9006
100
AcDbEntity
  8
2
100
AcDbLine
 10
56.81082313015327
 20
-4.750000000000217
 30
0.0
 11
56.81082313015327
 21
-7.250000000000217
 31
0.0
  0
MTEXT
  5
912C
330
9006
100
AcDbEntity
  8
2
 62
     2
100
AcDbMText
 10
54.72368620108705
 20
11.93596142579451
 30
0.0
 40
3.5
 41
0.0
 71
     5
 72
     1
  1
\A1;%%c4.5
 11
0.0000000000000001
 21
1.0
 31
0.0
1001
ACAD
1000
MTEXTBEGIN
1070
    73
1070
     1
1070
    44
1040
1.0
1070
    74
1070
     0
1000
MTEXTEND
  0
LINE
  5
912D
330
9006
100
AcDbEntity
  8
2
100
AcDbLine
 10
56.81082313015327
 20
2.249999999999781
 30
0.0
 11
56.81082313015327
 21
-2.250000000000217
 31
0.0
  0
SOLID
  5
912E
330
9006
100
AcDbEntity
  8
2
100
AcDbTrace
 10
56.3941564634866
 20
4.749999999999781
 30
0.0
 11
57.22748979681993
 21
4.749999999999781
 31
0.0
 12
56.81082313015327
 22
2.249999999999781
 32
0.0
 13
56.81082313015327
 23
2.249999999999781
 33
0.0
  0
SOLID
  5
912F
330
9006
100
AcDbEntity
  8
2
100
AcDbTrace
 10
56.3941564634866
 20
-4.750000000000217
 30
0.0
 11
57.22748979681993
 21
-4.750000000000217
 31
0.0
 12
56.81082313015327
 22
-2.250000000000217
 32
0.0
 13
56.81082313015327
 23
-2.250000000000217
 33
0.0
  0
POINT
  5
9130
330
9006
100
AcDbEntity
  8
DEFPOINTS
 62
     0
100
AcDbPoint
 10
27.00000000000006
 20
2.249999999999789
 30
0.0
  0
POINT
  5
9131
330
9006
100
AcDbEntity
  8
DEFPOINTS
 62
     0
100
AcDbPoint
 10
27.00000000000015
 20
-2.250000000000209
 30
0.0
  0
POINT
  5
9132
330
9006
100
AcDbEntity
  8
DEFPOINTS
 62
     0
100
AcDbPoint
 10
56.81082313015327
 20
-2.250000000000217
 30
0.0
  0
ENDBLK
  5
9013
330
9006
100
AcDbEntity
  8
0
100
AcDbBlockEnd
  0
ENDSEC
  0
SECTION
  2
ENTITIES
  0
LINE
  5
752A
330
6A34
100
AcDbEntity
  8
SK4
100
AcDbLine
 10
0.0
 20
0.0
 30
0.0
 11
-50.35154457863246
 21
-0.000000000000196
 31
0.0
  0
TEXT
  5
7545
330
6A34
100
AcDbEntity
  8
6
100
AcDbText
 10
28.54025306244591
 20
-17.75337963273046
 30
0.0
 40
3.5
  1
15C1C013027W3R01
100
AcDbText
  0
LINE
  5
7554
330
6A34
100
AcDbEntity
  8
SK1
100
AcDbLine
 10
27.00000000000015
 20
-6.963769369849027
 30
0.0
 11
27.00000000000015
 21
-6.036230630151389
 31
0.0
  0
LINE
  5
7555
330
6A34
100
AcDbEntity
  8
SK1
100
AcDbLine
 10
26.53623063015133
 20
-6.500000000000208
 30
0.0
 11
27.46376936984896
 21
-6.500000000000208
 31
0.0
  0
CIRCLE
  5
7556
330
6A34
100
AcDbEntity
  8
SK1
100
AcDbCircle
 10
27.00000000000015
 20
-6.500000000000208
 30
0.0
 40
0.4637693698488208
  0
LINE
  5
755E
330
6A34
100
AcDbEntity
  8
NOCUT
100
AcDbLine
 10
26.56794950922641
 20
-0.0000000000002447
 30
0.0
 11
0.0
 21
-0.0000000000001705
 31
0.0
  0
LINE
  5
755F
330
6A34
100
AcDbEntity
  8
4
100
AcDbLine
 10
27.97494342658328
 20
-0.0000000000002177
 30
0.0
 11
0.0
 21
0.0
 31
0.0
  0
LINE
  5
7561
330
6A34
100
AcDbEntity
  8
SK1
100
AcDbLine
 10
-1.555716359597507
 20
-1.555716359597749
 30
0.0
 11
1.555716359597749
 21
1.555716359597508
 31
0.0
  0
LINE
  5
7563
330
6A34
100
AcDbEntity
  8
SK1
100
AcDbLine
 10
-1.555716359597507
 20
1.555716359597508
 30
0.0
 11
1.555716359597749
 21
-1.555716359597749
 31
0.0
  0
LINE
  5
7588
330
6A34
100
AcDbEntity
  8
SK1
100
AcDbLine
 10
27.00000000000006
 20
6.963769369848608
 30
0.0
 11
27.00000000000006
 21
6.03623063015097
 31
0.0
  0
LINE
  5
7589
330
6A34
100
AcDbEntity
  8
SK1
100
AcDbLine
 10
26.53623063015124
 20
6.499999999999789
 30
0.0
 11
27.46376936984888
 21
6.499999999999789
 31
0.0
  0
CIRCLE
  5
758A
330
6A34
100
AcDbEntity
  8
SK1
100
AcDbCircle
 10
27.00000000000006
 20
6.499999999999789
 30
0.0
 40
0.4637693698488208
  0
TEXT
  5
7F0E
330
6A34
100
AcDbEntity
  8
6
100
AcDbText
 10
28.2031091754234
 20
9.845001375713913
 30
0.0
 40
2.5
  1
SCLT050204N
100
AcDbText
  0
LINE
  5
8027
330
6A34
100
AcDbEntity
  8
4
100
AcDbLine
 10
6.78309571695854
 20
-0.0000000000000528
 30
0.0
 11
19.15762765072282
 21
2.576750655518818
 31
0.0
  0
LINE
  5
8147
330
6A34
100
AcDbEntity
  8
1
100
AcDbLine
 10
9.218949475370106
 20
-6.046995298013868
 30
0.0
 11
26.56794950922636
 21
-6.046995298013639
 31
0.0
  0
LINE
  5
814F
330
6A34
100
AcDbEntity
  8
1
100
AcDbLine
 10
26.56794950922636
 20
-6.046995298013639
 30
0.0
 11
26.56794950922643
 21
1.50022212496892
 31
0.0
  0
LINE
  5
8486
330
6A34
100
AcDbEntity
  8
1
100
AcDbLine
 10
5.811660343586066
 20
8.00000000000015
 30
0.0
 11
5.811660343586388
 21
-8.000000000000106
 31
0.0
  0
LINE
  5
8696
330
6A34
100
AcDbEntity
  8
SK3
 48
0.3
100
AcDbLine
 10
26.56794950922641
 20
-0.3654666171565703
 30
0.0
 11
13.04255290443095
 21
-0.3654666171558754
 31
0.0
  0
TEXT
  5
8AA7
330
6A34
100
AcDbEntity
  8
6
100
AcDbText
 10
79.51402560722908
 20
-4.795200445259307
 30
0.0
 40
3.5
  1
Z=2
 50
89.99999999999998
100
AcDbText
  0
CIRCLE
  5
8B83
330
6A34
100
AcDbEntity
  8
SK1
100
AcDbCircle
 10
0.0000000000001206
 20
-0.0000000000001206
 30
0.0
 40
2.200115174948665
  0
LINE
  5
8D5F
330
6A34
100
AcDbEntity
  8
1
100
AcDbLine
 10
0.0000000000001208
 20
-8.000000000000106
 30
0.0
 11
0.0000000000001208
 21
7.999999999999864
 31
0.0
  0
LINE
  5
8D60
330
6A34
100
AcDbEntity
  8
SK1
100
AcDbLine
 10
0.0000000000001208
 20
7.999999999999864
 30
0.0
 11
-46.99999999999985
 21
7.999999999999921
 31
0.0
  0
LINE
  5
8D61
330
6A34
100
AcDbEntity
  8
SK1
100
AcDbLine
 10
-46.99999999999985
 20
7.999999999999921
 30
0.0
 11
-47.99999999999985
 21
6.999999999999921
 31
0.0
  0
LINE
  5
8D62
330
6A34
100
AcDbEntity
  8
SK1
100
AcDbLine
 10
-47.99999999999985
 20
6.999999999999921
 30
0.0
 11
-47.99999999999985
 21
-7.000000000000106
 31
0.0
  0
LINE
  5
8D63
330
6A34
100
AcDbEntity
  8
SK1
100
AcDbLine
 10
-47.99999999999985
 20
-7.000000000000106
 30
0.0
 11
-46.99999999999985
 21
-8.000000000000106
 31
0.0
  0
LINE
  5
8D64
330
6A34
100
AcDbEntity
  8
SK1
100
AcDbLine
 10
-46.99999999999985
 20
-8.000000000000106
 30
0.0
 11
0.0000000000001208
 21
-8.000000000000106
 31
0.0
  0
LINE
  5
8D65
330
6A34
100
AcDbEntity
  8
SK1
100
AcDbLine
 10
-46.99999999999985
 20
-8.000000000000106
 30
0.0
 11
-46.99999999999985
 21
7.999999999999921
 31
0.0
  0
LINE
  5
8D66
330
6A34
100
AcDbEntity
  8
SK1
100
AcDbLine
 10
-18.99999999999766
 20
-5.055000000000113
 30
0.0
 11
-18.99999999999766
 21
5.054999999999928
 31
0.0
  0
LINE
  5
8D67
330
6A34
100
AcDbEntity
  8
SK1
100
AcDbLine
 10
-18.99999999999766
 20
5.054999999999928
 30
0.0
 11
-28.99999999999766
 21
5.0549999999999
 31
0.0
  0
LINE
  5
8D68
330
6A34
100
AcDbEntity
  8
SK1
100
AcDbLine
 10
-28.99999999999766
 20
5.0549999999999
 30
0.0
 11
-28.99999999999766
 21
-5.055000000000113
 31
0.0
  0
LINE
  5
8D69
330
6A34
100
AcDbEntity
  8
SK1
100
AcDbLine
 10
-28.99999999999766
 20
-5.055000000000113
 30
0.0
 11
-18.99999999999766
 21
-5.055000000000141
 31
0.0
  0
ARC
  5
8D6A
330
6A34
100
AcDbEntity
  8
SK1
100
AcDbCircle
 10
-25.19806249999748
 20
-0.0000000000001634
 30
0.0
 40
7.998062499999901
100
AcDbArc
 50
320.8000911893275
 51
39.19990881067284
  0
ARC
  5
8D6B
330
6A34
100
AcDbEntity
  8
SK1
100
AcDbCircle
 10
-22.80193749999761
 20
-0.0000000000001066
 30
0.0
 40
7.998062500000033
100
AcDbArc
 50
140.8000911893283
 51
219.1999088106713
  0
LINE
  5
8DAB
330
6A34
100
AcDbEntity
  8
1
100
AcDbLine
 10
22.34803275975394
 20
1.50022212496892
 30
0.0
 11
26.6521893652153
 21
1.50022212496892
 31
0.0
  0
LINE
  5
8DAC
330
6A34
100
AcDbEntity
  8
CUT
100
AcDbLine
 10
22.34803275975394
 20
1.50022212496892
 30
0.0
 11
26.6521893652153
 21
1.50022212496892
 31
0.0
  0
LINE
  5
8DAD
330
6A34
100
AcDbEntity
  8
1
100
AcDbLine
 10
22.34803275975394
 20
6.499999999999789
 30
0.0
 11
26.6521893652153
 21
6.499999999999789
 31
0.0
  0
LINE
  5
8DAE
330
6A34
100
AcDbEntity
  8
CUT
100
AcDbLine
 10
22.34803275975394
 20
6.499999999999789
 30
0.0
 11
26.6521893652153
 21
6.499999999999789
 31
0.0
  0
CIRCLE
  5
8DAF
330
6A34
100
AcDbEntity
  8
1
100
AcDbCircle
 10
24.50011106248462
 20
4.000111062484353
 30
0.0
 40
1.412980703813071
  0
ARC
  5
8DB0
330
6A34
100
AcDbEntity
  8
1
100
AcDbCircle
 10
22.34803275975394
 20
1.848032759753674
 30
0.0
 40
0.347810634784756
100
AcDbArc
 50
180.0
 51
270.0
1001
GENIUS_GENOBJ-N-FIL_13
1002
{
1000
OWNER
1000
GEN
1002
}
1001
GENIUS_GENODEF_13
1002
{
1000
HIER
1070
     0
1002
}
1002
{
1000
MANEDIT
1070
     0
1002
}
1002
{
1000
NOSEL
1070
     0
1002
}
1002
{
1000
BEHIND
1070
     0
1002
}
1002
{
1000
OTHER
1070
     0
1002
}
1002
{
1000
REACTOR
1002
}
  0
ARC
  5
8DB1
330
6A34
100
AcDbEntity
  8
CUT
100
AcDbCircle
 10
22.34803275975394
 20
1.848032759753674
 30
0.0
 40
0.347810634784756
100
AcDbArc
 50
180.0
 51
270.0
1001
GENIUS_GENOBJ-N-FIL_13
1002
{
1000
OWNER
1000
GEN
1002
}
1001
GENIUS_GENODEF_13
1002
{
1000
HIER
1070
     0
1002
}
1002
{
1000
MANEDIT
1070
     0
1002
}
1002
{
1000
NOSEL
1070
     0
1002
}
1002
{
1000
BEHIND
1070
     0
1002
}
1002
{
1000
OTHER
1070
     0
1002
}
1002
{
1000
REACTOR
1002
}
  0
ARC
  5
8DB2
330
6A34
100
AcDbEntity
  8
1
100
AcDbCircle
 10
22.34803275975394
 20
6.152189365215028
 30
0.0
 40
0.347810634784756
100
AcDbArc
 50
90.0
 51
179.9999999999994
1001
GENIUS_GENOBJ-N-FIL_13
1002
{
1000
OWNER
1000
GEN
1002
}
1001
GENIUS_GENODEF_13
1002
{
1000
HIER
1070
     0
1002
}
1002
{
1000
MANEDIT
1070
     0
1002
}
1002
{
1000
NOSEL
1070
     0
1002
}
1002
{
1000
BEHIND
1070
     0
1002
}
1002
{
1000
OTHER
1070
     0
1002
}
1002
{
1000
REACTOR
1002
}
  0
ARC
  5
8DB3
330
6A34
100
AcDbEntity
  8
CUT
100
AcDbCircle
 10
22.34803275975394
 20
6.152189365215028
 30
0.0
 40
0.347810634784756
100
AcDbArc
 50
90.0
 51
179.9999999999994
1001
GENIUS_GENOBJ-N-FIL_13
1002
{
1000
OWNER
1000
GEN
1002
}
1001
GENIUS_GENODEF_13
1002
{
1000
HIER
1070
     0
1002
}
1002
{
1000
MANEDIT
1070
     0
1002
}
1002
{
1000
NOSEL
1070
     0
1002
}
1002
{
1000
BEHIND
1070
     0
1002
}
1002
{
1000
OTHER
1070
     0
1002
}
1002
{
1000
REACTOR
1002
}
  0
LINE
  5
8DB4
330
6A34
100
AcDbEntity
  8
1
100
AcDbLine
 10
22.00022212496919
 20
6.152189365215034
 30
0.0
 11
22.00022212496919
 21
1.848032759753674
 31
0.0
  0
LINE
  5
8DB5
330
6A34
100
AcDbEntity
  8
CUT
100
AcDbLine
 10
22.00022212496919
 20
6.152189365215034
 30
0.0
 11
22.00022212496919
 21
1.848032759753674
 31
0.0
  0
ARC
  5
8DB8
330
6A34
100
AcDbEntity
  8
1
100
AcDbCircle
 10
26.65218936521532
 20
1.848032759753669
 30
0.0
 40
0.347810634784756
100
AcDbArc
 50
269.9999999999979
 51
0.0000000000010178
1001
GENIUS_GENOBJ-N-FIL_13
1002
{
1000
OWNER
1000
GEN
1002
}
1001
GENIUS_GENODEF_13
1002
{
1000
HIER
1070
     0
1002
}
1002
{
1000
MANEDIT
1070
     0
1002
}
1002
{
1000
NOSEL
1070
     0
1002
}
1002
{
1000
BEHIND
1070
     0
1002
}
1002
{
1000
OTHER
1070
     0
1002
}
1002
{
1000
REACTOR
1002
}
  0
ARC
  5
8DB9
330
6A34
100
AcDbEntity
  8
CUT
100
AcDbCircle
 10
26.65218936521532
 20
1.848032759753669
 30
0.0
 40
0.347810634784756
100
AcDbArc
 50
269.9999999999979
 51
0.0000000000010178
1001
GENIUS_GENOBJ-N-FIL_13
1002
{
1000
OWNER
1000
GEN
1002
}
1001
GENIUS_GENODEF_13
1002
{
1000
HIER
1070
     0
1002
}
1002
{
1000
MANEDIT
1070
     0
1002
}
1002
{
1000
NOSEL
1070
     0
1002
}
1002
{
1000
BEHIND
1070
     0
1002
}
1002
{
1000
OTHER
1070
     0
1002
}
1002
{
1000
REACTOR
1002
}
  0
ARC
  5
8DBA
330
6A34
100
AcDbEntity
  8
1
100
AcDbCircle
 10
26.6521893652153
 20
6.152189365215034
 30
0.0
 40
0.347810634784756
100
AcDbArc
 50
0.0
 51
90.0
1001
GENIUS_GENODEF_13
1002
{
1000
HIER
1070
     0
1002
}
1002
{
1000
MANEDIT
1070
     0
1002
}
1002
{
1000
NOSEL
1070
     0
1002
}
1002
{
1000
BEHIND
1070
     0
1002
}
1002
{
1000
OTHER
1070
     0
1002
}
1002
{
1000
REACTOR
1002
}
1001
GENIUS_GENOBJ-N-FIL_13
1002
{
1000
OWNER
1000
GEN
1002
}
  0
ARC
  5
8DBB
330
6A34
100
AcDbEntity
  8
CUT
100
AcDbCircle
 10
26.6521893652153
 20
6.152189365215034
 30
0.0
 40
0.347810634784756
100
AcDbArc
 50
0.0
 51
90.0
1001
GENIUS_GENODEF_13
1002
{
1000
HIER
1070
     0
1002
}
1002
{
1000
MANEDIT
1070
     0
1002
}
1002
{
1000
NOSEL
1070
     0
1002
}
1002
{
1000
BEHIND
1070
     0
1002
}
1002
{
1000
OTHER
1070
     0
1002
}
1002
{
1000
REACTOR
1002
}
1001
GENIUS_GENOBJ-N-FIL_13
1002
{
1000
OWNER
1000
GEN
1002
}
  0
LINE
  5
8DBC
330
6A34
100
AcDbEntity
  8
1
100
AcDbLine
 10
27.00000000000006
 20
1.848032759753674
 30
0.0
 11
27.00000000000006
 21
6.152189365215034
 31
0.0
  0
LINE
  5
8DBD
330
6A34
100
AcDbEntity
  8
CUT
100
AcDbLine
 10
27.00000000000006
 20
1.848032759753674
 30
0.0
 11
27.00000000000006
 21
6.152189365215034
 31
0.0
  0
LINE
  5
8DBF
330
6A34
100
AcDbEntity
  8
SK3
 48
0.3
100
AcDbLine
 10
22.3480163828554
 20
-1.500204523629673
 30
0.0
 11
26.5679495092264
 21
-1.500204523629673
 31
0.0
  0
LINE
  5
8DC0
330
6A34
100
AcDbEntity
  8
1
 48
0.3
100
AcDbLine
 10
22.3480163828554
 20
-6.500000000000208
 30
0.0
 11
26.65218814077438
 21
-6.500000000000208
 31
0.0
  0
CIRCLE
  5
8DC1
330
6A34
100
AcDbEntity
  8
SK3
100
AcDbCircle
 10
24.50010226181488
 20
-4.000102261814613
 30
0.0
 40
1.412985678104716
  0
LINE
  5
8DC2
330
6A34
100
AcDbEntity
  8
SK3
 48
0.3
100
AcDbLine
 10
22.00020452362962
 20
-1.848016382855449
 30
0.0
 11
22.00020452362962
 21
-6.046995298013699
 31
0.0
  0
LINE
  5
8DC3
330
6A34
100
AcDbEntity
  8
1
 48
0.3
100
AcDbLine
 10
22.00020452362962
 20
-6.046995298013699
 30
0.0
 11
22.00020452362962
 21
-6.152188140774434
 31
0.0
  0
ARC
  5
8DC4
330
6A34
100
AcDbEntity
  8
1
100
AcDbCircle
 10
22.3480163828554
 20
-6.152188140774434
 30
0.0
 40
0.3478118592257763
100
AcDbArc
 50
180.0
 51
270.0
1001
GENIUS_GENOBJ-N-FIL_13
1002
{
1000
OWNER
1000
GEN
1002
}
1001
GENIUS_GENODEF_13
1002
{
1000
HIER
1070
     0
1002
}
1002
{
1000
MANEDIT
1070
     0
1002
}
1002
{
1000
NOSEL
1070
     0
1002
}
1002
{
1000
BEHIND
1070
     0
1002
}
1002
{
1000
OTHER
1070
     0
1002
}
1002
{
1000
REACTOR
1002
}
  0
ARC
  5
8DC5
330
6A34
100
AcDbEntity
  8
SK3
100
AcDbCircle
 10
22.3480163828554
 20
-1.848016382855452
 30
0.0
 40
0.3478118592257763
100
AcDbArc
 50
90.0
 51
179.9999999999994
1001
GENIUS_GENOBJ-N-FIL_13
1002
{
1000
OWNER
1000
GEN
1002
}
1001
GENIUS_GENODEF_13
1002
{
1000
HIER
1070
     0
1002
}
1002
{
1000
MANEDIT
1070
     0
1002
}
1002
{
1000
NOSEL
1070
     0
1002
}
1002
{
1000
BEHIND
1070
     0
1002
}
1002
{
1000
OTHER
1070
     0
1002
}
1002
{
1000
REACTOR
1002
}
  0
LINE
  5
8DC6
330
6A34
100
AcDbEntity
  8
1
 48
0.3
100
AcDbLine
 10
27.00000000000015
 20
-6.152188140774434
 30
0.0
 11
27.00000000000015
 21
-1.848016382855449
 31
0.0
  0
ARC
  5
8DC7
330
6A34
100
AcDbEntity
  8
1
100
AcDbCircle
 10
26.65218814077439
 20
-6.15218814077444
 30
0.0
 40
0.3478118592257763
100
AcDbArc
 50
269.9999999999979
 51
0.0000000000010178
1001
GENIUS_GENOBJ-N-FIL_13
1002
{
1000
OWNER
1000
GEN
1002
}
1001
GENIUS_GENODEF_13
1002
{
1000
HIER
1070
     0
1002
}
1002
{
1000
MANEDIT
1070
     0
1002
}
1002
{
1000
NOSEL
1070
     0
1002
}
1002
{
1000
BEHIND
1070
     0
1002
}
1002
{
1000
OTHER
1070
     0
1002
}
1002
{
1000
REACTOR
1002
}
  0
ARC
  5
8DCB
330
6A34
100
AcDbEntity
  8
1
100
AcDbCircle
 10
26.65218814077438
 20
-1.848016382855449
 30
0.0
 40
0.3478118592257763
100
AcDbArc
 50
0.0
 51
90.0
1001
GENIUS_GENODEF_13
1002
{
1000
HIER
1070
     0
1002
}
1002
{
1000
MANEDIT
1070
     0
1002
}
1002
{
1000
NOSEL
1070
     0
1002
}
1002
{
1000
BEHIND
1070
     0
1002
}
1002
{
1000
OTHER
1070
     0
1002
}
1002
{
1000
REACTOR
1002
}
1001
GENIUS_GENOBJ-N-FIL_13
1002
{
1000
OWNER
1000
GEN
1002
}
  0
LINE
  5
8DCC
330
6A34
100
AcDbEntity
  8
1
 48
0.3
100
AcDbLine
 10
26.56794950922641
 20
-1.500204523629673
 30
0.0
 11
26.65218814077438
 21
-1.500204523629673
 31
0.0
  0
LINE
  5
8E3D
330
6A34
100
AcDbEntity
  8
1
100
AcDbLine
 10
0.0000000000001208
 20
-8.000000000000106
 30
0.0
 11
5.811660343586388
 21
-8.000000000000106
 31
0.0
  0
LINE
  5
8E46
330
6A34
100
AcDbEntity
  8
1
100
AcDbLine
 10
0.0000000000000585
 20
8.000000000000106
 30
0.0
 11
5.811660343586326
 21
8.00000000000015
 31
0.0
  0
LINE
  5
8E51
330
6A34
100
AcDbEntity
  8
1
100
AcDbLine
 10
5.811660343586388
 20
-8.000000000000106
 30
0.0
 11
9.218949475370108
 21
-6.046995298013868
 31
0.0
  0
LINE
  5
8E85
330
6A34
100
AcDbEntity
  8
1
100
AcDbLine
 10
9.218949475370202
 20
6.046995298013724
 30
0.0
 11
22.00022212496919
 21
6.046995298013357
 31
0.0
  0
LINE
  5
8E86
330
6A34
100
AcDbEntity
  8
1
100
AcDbLine
 10
5.811660343586512
 20
8.000000000000015
 30
0.0
 11
9.218949475370202
 21
6.046995298013724
 31
0.0
  0
ARC
  5
8E8A
330
6A34
100
AcDbEntity
  8
SK3
 48
0.3
100
AcDbCircle
 10
13.10883826331582
 20
-5.043394099702763
 30
0.0
 40
4.678397084554704
100
AcDbArc
 50
89.18818383376081
 51
196.6789716826396
  0
ARC
  5
8E93
330
6A34
100
AcDbEntity
  8
1
 48
0.3
100
AcDbCircle
 10
13.1088382633159
 20
5.043394099702559
 30
0.0
 40
4.678397084554704
100
AcDbArc
 50
163.3210283173594
 51
270.8118161662382
  0
LINE
  5
8E94
330
6A34
100
AcDbEntity
  8
1
 48
0.3
100
AcDbLine
 10
26.56794950922642
 20
0.3654666171561566
 30
0.0
 11
13.04255290443096
 21
0.3654666171556724
 31
0.0
  0
LINE
  5
8EA1
330
6A34
100
AcDbEntity
  8
4
100
AcDbLine
 10
6.78309571695854
 20
-0.0000000000000527
 30
0.0
 11
19.15762765072278
 21
-2.576750655519116
 31
0.0
  0
LINE
  5
8EA5
330
6A34
100
AcDbEntity
  8
NOCUT
100
AcDbLine
 10
26.56794950922641
 20
-0.0000000000002447
 30
0.0
 11
26.56794950922636
 21
-6.046995298013639
 31
0.0
  0
LINE
  5
8EA6
330
6A34
100
AcDbEntity
  8
NOCUT
100
AcDbLine
 10
26.56794950922636
 20
-6.046995298013639
 30
0.0
 11
9.218949475370108
 21
-6.046995298013868
 31
0.0
  0
LINE
  5
8EA7
330
6A34
100
AcDbEntity
  8
NOCUT
100
AcDbLine
 10
9.218949475370108
 20
-6.046995298013868
 30
0.0
 11
5.811660343586388
 21
-8.000000000000104
 31
0.0
  0
LINE
  5
8EA8
330
6A34
100
AcDbEntity
  8
NOCUT
100
AcDbLine
 10
5.811660343586388
 20
-8.000000000000104
 30
0.0
 11
0.0000000000001208
 21
-8.000000000000106
 31
0.0
  0
LINE
  5
8EB0
330
6A34
100
AcDbEntity
  8
NOCUT
100
AcDbLine
 10
0.0
 20
-0.0000000000001705
 30
0.0
 11
0.0000000000001208
 21
-8.000000000000106
 31
0.0
  0
DIMENSION
  5
8EC8
330
6A34
100
AcDbEntity
  8
SK2
100
AcDbDimension
  2
*D1
 10
-62.33252677491532
 20
-8.000000000000101
 30
0.0
 11
-65.58252677491532
 21
-0.0000000000000975
 31
0.0
 70
    32
  1
%%c<>
  3
AM_DIN
100
AcDbAlignedDimension
 13
-46.99999999999985
 23
7.999999999999921
 33
0.0
 14
-46.99999999999985
 24
-8.000000000000106
 34
0.0
 50
89.99999999999991
100
AcDbRotatedDimension
  0
DIMENSION
  5
8F09
330
6A34
100
AcDbEntity
  8
SK2
100
AcDbDimension
  2
*D2
 10
-47.99999999999985
 20
-26.72553826447108
 30
0.0
 11
-10.49999999999985
 21
-23.47553826447108
 31
0.0
 70
    32
  3
AM_DIN
100
AcDbAlignedDimension
 13
27.00000000000015
 23
-6.500000000000208
 33
0.0
 14
-47.99999999999985
 24
-7.000000000000106
 34
0.0
 50
0.0000000000001132
100
AcDbRotatedDimension
  0
DIMENSION
  5
8F55
330
6A34
100
AcDbEntity
  8
2
100
AcDbDimension
  2
*D3
 10
0.0000000000001249
 20
74.99999999999992
 30
0.0
 11
13.50000000000009
 21
78.2503444881889
 31
0.0
 70
    32
  3
AM_DIN
100
AcDbAlignedDimension
 13
27.00000000000006
 23
6.499999999999789
 33
0.0
 14
0.0000000000001208
 24
7.999999999999864
 34
0.0
 50
0.0000000000000114
100
AcDbRotatedDimension
  0
DIMENSION
  5
8F7D
330
6A34
100
AcDbEntity
  8
2
100
AcDbDimension
  2
*D4
 10
14.00000000000006
 20
59.99999999999985
 30
0.0
 11
20.50000000000006
 21
63.24999999999985
 31
0.0
 70
    32
  3
AM_DIN
100
AcDbAlignedDimension
 13
27.00000000000006
 23
6.499999999999789
 33
0.0
 14
14.00000000000006
 24
6.046995298013587
 34
0.0
 50
0.0000000000000114
100
AcDbRotatedDimension
  0
DIMENSION
  5
8FC0
330
6A34
100
AcDbEntity
  8
2
100
AcDbDimension
  2
*D5
 10
72.97401520911626
 20
-6.500000000000221
 30
0.0
 11
69.72401520911626
 21
-0.0000000000002101
 31
0.0
 70
    32
  1
%%c<>
  3
AM_DIN
100
AcDbAlignedDimension
 13
27.00000000000006
 23
6.499999999999789
 33
0.0
 14
27.00000000000015
 24
-6.500000000000208
 34
0.0
 50
90.00000000000003
100
AcDbRotatedDimension
  0
DIMENSION
  5
9005
330
6A34
100
AcDbEntity
  8
2
100
AcDbDimension
  2
*D6
 10
56.81082313015327
 20
-2.250000000000217
 30
0.0
 11
54.72368620108705
 21
11.93596142579451
 31
0.0
 70
   160
  1
%%c<>
  3
AM_DIN
100
AcDbAlignedDimension
 13
27.00000000000006
 23
2.249999999999789
 33
0.0
 14
27.00000000000015
 24
-2.250000000000209
 34
0.0
 50
89.99999999999952
100
AcDbRotatedDimension
  0
LINE
  5
9133
330
6A34
100
AcDbEntity
  8
1
100
AcDbLine
 10
9.218949475370108
 20
-6.046995298013868
 30
0.0
 11
9.218949475370175
 21
2.444131800860042
 31
0.0
  0
ENDSEC
  0
SECTION
  2
OBJECTS
  0
DICTIONARY
  5
6A22
330
0
100
AcDbDictionary
  3
ACAD_GROUP
350
6A23
  3
ACAD_LAYOUT
350
6A2F
  3
ACAD_MLINESTYLE
350
6A2C
  3
ACAD_PLOTSETTINGS
350
6A2E
  3
ACAD_PLOTSTYLENAME
350
6A24
  3
ACDBHEADERROUNDTRIPXREC
350
913D
  3
ACDBVARIABLEDICTIONARY
350
6B78
  3
ACMDICTIONARY
350
6B39
  3
AMG
350
6B22
  3
AMGSNAPSETTINGS
350
6B59
  3
DWGPROPS
350
90DD
  0
DICTIONARY
  5
6B62
330
6A34
100
AcDbDictionary
280
     1
  3
ACAD_INDEX
360
6B63
  3
ACAD_LAYOUTSELFREF
360
9160
  0
DICTIONARY
  5
915E
330
6A30
100
AcDbDictionary
280
     1
  3
ACAD_LAYOUTSELFREF
360
915F
  0
DICTIONARY
  5
6A23
102
{ACAD_REACTORS
330
6A22
102
}
330
6A22
100
AcDbDictionary
  0
DICTIONARY
  5
6A2F
102
{ACAD_REACTORS
330
6A22
102
}
330
6A22
100
AcDbDictionary
  0
DICTIONARY
  5
6A2C
102
{ACAD_REACTORS
330
6A22
102
}
330
6A22
100
AcDbDictionary
  3
STANDARD
350
6A2D
  0
DICTIONARY
  5
6A2E
102
{ACAD_REACTORS
330
6A22
102
}
330
6A22
100
AcDbDictionary
  0
ACDBDICTIONARYWDFLT
  5
6A24
102
{ACAD_REACTORS
330
6A22
102
}
330
6A22
100
AcDbDictionary
281
     1
  3
Normal
350
6A25
100
AcDbDictionaryWithDefault
340
6A25
  0
DICTIONARY
  5
913D
102
{ACAD_REACTORS
330
6A22
102
}
330
6A22
100
AcDbDictionary
  3
CEPSNTYPE
350
9147
  3
DIMSTYLEDATA
350
914B
  3
FINGERPRINTGUID
350
9148
  3
HYPERLINKBASE
350
9140
  3
INSUNITS
350
9146
  3
LAYOUTDICT
350
9142
  3
LWETCUNION
350
9145
  3
PLOTSETDICT
350
9143
  3
PLOTSTYLNAMDICT
350
9144
  3
PSVPSCALE
350
914A
  3
PUCSBASE
350
914E
  3
PUCSORGBACK
350
9154
  3
PUCSORGBOTTOM
350
9150
  3
PUCSORGFRONT
350
9153
  3
PUCSORGLEFT
350
9151
  3
PUCSORGRIGHT
350
9152
  3
PUCSORGTOP
350
914F
  3
PUCSORTHOREF
350
914C
  3
PUCSORTHOVIEW
350
914D
  3
STYLESHEET
350
9141
  3
TSTACKALIGN
350
913E
  3
TSTACKSIZE
350
913F
  3
UCSBASE
350
9157
  3
UCSORGBACK
350
915D
  3
UCSORGBOTTOM
350
9159
  3
UCSORGFRONT
350
915C
  3
UCSORGLEFT
350
915A
  3
UCSORGRIGHT
350
915B
  3
UCSORGTOP
350
9158
  3
UCSORTHOREF
350
9155
  3
UCSORTHOVIEW
350
9156
  3
VERSIONGUID
350
9149
  0
DICTIONARY
  5
6B78
102
{ACAD_REACTORS
330
6A22
102
}
330
6A22
100
AcDbDictionary
  3
DIMASSOC
350
6B7A
  3
INDEXCTL
350
6B79
  0
DICTIONARY
  5
6B39
102
{ACAD_REACTORS
330
6A22
102
}
330
6A22
100
AcDbDictionary
  3
ACMSTDDICTIONARY
350
6B3F
  0
DICTIONARY
  5
6B22
102
{ACAD_REACTORS
330
6A22
102
}
330
6A22
100
AcDbDictionary
  3
ACMGSETTINGS
350
6B23
  0
DICTIONARY
  5
6B59
102
{ACAD_REACTORS
330
6A22
102
}
330
6A22
100
AcDbDictionary
  0
XRECORD
  5
90DD
102
{ACAD_REACTORS
330
6A22
102
}
330
6A22
100
AcDbXrecord
  1
DWGPROPS COOKIE
  2

  3

  4

  6

  7

  8

  9

300
AmdtFileType=84
301
=
302
=
303
=
304
=
305
=
306
=
307
=
308
=
309
=
 40
0.1934151041666666
 41
2453447.43007081
 42
2453792.779197037
  1

 90
        1
  0
DICTIONARY
  5
6B63
102
{ACAD_REACTORS
330
6B62
102
}
330
6B62
100
AcDbDictionary
  3
*A1
350
6B64
  0
XRECORD
  5
9160
102
{ACAD_REACTORS
330
6B62
102
}
330
6B62
100
AcDbXrecord
340
6A34
  0
XRECORD
  5
915F
102
{ACAD_REACTORS
330
915E
102
}
330
915E
100
AcDbXrecord
340
6A30
  0
MLINESTYLE
  5
6A2D
102
{ACAD_REACTORS
330
6A2C
102
}
330
6A2C
100
AcDbMlineStyle
  2
STANDARD
 70
     0
  3

 62
   256
 51
90.0
 52
90.0
 71
     2
 49
0.5
 62
   256
  6
BYLAYER
 49
-0.5
 62
   256
  6
BYLAYER
  0
ACDBPLACEHOLDER
  5
6A25
102
{ACAD_REACTORS
330
6A24
102
}
330
6A24
100
AcDbPlaceHolder
280
     0
  0
XRECORD
  5
9147
102
{ACAD_REACTORS
330
913D
102
}
330
913D
100
AcDbXrecord
 90
        0
  0
XRECORD
  5
914B
102
{ACAD_REACTORS
330
913D
102
}
330
913D
100
AcDbXrecord
1000
DSTYLE
1002
{
1070
   279
 70
     2
1002
}
  0
XRECORD
  5
9148
102
{ACAD_REACTORS
330
913D
102
}
330
913D
100
AcDbXrecord
  1
{5E8163B8-4D8F-4110-B677-A6458ADDE735}
  0
XRECORD
  5
9140
102
{ACAD_REACTORS
330
913D
102
}
330
913D
100
AcDbXrecord
  1

  0
XRECORD
  5
9146
102
{ACAD_REACTORS
330
913D
102
}
330
913D
100
AcDbXrecord
 90
        4
  0
XRECORD
  5
9142
102
{ACAD_REACTORS
330
913D
102
}
330
913D
100
AcDbXrecord
340
6A2F
  0
XRECORD
  5
9145
102
{ACAD_REACTORS
330
913D
102
}
330
913D
100
AcDbXrecord
 90
    10781
  0
XRECORD
  5
9143
102
{ACAD_REACTORS
330
913D
102
}
330
913D
100
AcDbXrecord
340
6A2E
  0
XRECORD
  5
9144
102
{ACAD_REACTORS
330
913D
102
}
330
913D
100
AcDbXrecord
340
6A24
  0
XRECORD
  5
914A
102
{ACAD_REACTORS
330
913D
102
}
330
913D
100
AcDbXrecord
 40
0.0
  0
XRECORD
  5
914E
102
{ACAD_REACTORS
330
913D
102
}
330
913D
100
AcDbXrecord
340
0
  0
XRECORD
  5
9154
102
{ACAD_REACTORS
330
913D
102
}
330
913D
100
AcDbXrecord
 10
0.0
 20
0.0
 30
0.0
  0
XRECORD
  5
9150
102
{ACAD_REACTORS
330
913D
102
}
330
913D
100
AcDbXrecord
 10
0.0
 20
0.0
 30
0.0
  0
XRECORD
  5
9153
102
{ACAD_REACTORS
330
913D
102
}
330
913D
100
AcDbXrecord
 10
0.0
 20
0.0
 30
0.0
  0
XRECORD
  5
9151
102
{ACAD_REACTORS
330
913D
102
}
330
913D
100
AcDbXrecord
 10
0.0
 20
0.0
 30
0.0
  0
XRECORD
  5
9152
102
{ACAD_REACTORS
330
913D
102
}
330
913D
100
AcDbXrecord
 10
0.0
 20
0.0
 30
0.0
  0
XRECORD
  5
914F
102
{ACAD_REACTORS
330
913D
102
}
330
913D
100
AcDbXrecord
 10
0.0
 20
0.0
 30
0.0
  0
XRECORD
  5
914C
102
{ACAD_REACTORS
330
913D
102
}
330
913D
100
AcDbXrecord
340
0
  0
XRECORD
  5
914D
102
{ACAD_REACTORS
330
913D
102
}
330
913D
100
AcDbXrecord
 70
     0
  0
XRECORD
  5
9141
102
{ACAD_REACTORS
330
913D
102
}
330
913D
100
AcDbXrecord
  1

  0
XRECORD
  5
913E
102
{ACAD_REACTORS
330
913D
102
}
330
913D
100
AcDbXrecord
 90
        1
  0
XRECORD
  5
913F
102
{ACAD_REACTORS
330
913D
102
}
330
913D
100
AcDbXrecord
 90
       70
  0
XRECORD
  5
9157
102
{ACAD_REACTORS
330
913D
102
}
330
913D
100
AcDbXrecord
340
0
  0
XRECORD
  5
915D
102
{ACAD_REACTORS
330
913D
102
}
330
913D
100
AcDbXrecord
 10
0.0
 20
0.0
 30
0.0
  0
XRECORD
  5
9159
102
{ACAD_REACTORS
330
913D
102
}
330
913D
100
AcDbXrecord
 10
0.0
 20
0.0
 30
0.0
  0
XRECORD
  5
915C
102
{ACAD_REACTORS
330
913D
102
}
330
913D
100
AcDbXrecord
 10
0.0
 20
0.0
 30
0.0
  0
XRECORD
  5
915A
102
{ACAD_REACTORS
330
913D
102
}
330
913D
100
AcDbXrecord
 10
0.0
 20
0.0
 30
0.0
  0
XRECORD
  5
915B
102
{ACAD_REACTORS
330
913D
102
}
330
913D
100
AcDbXrecord
 10
0.0
 20
0.0
 30
0.0
  0
XRECORD
  5
9158
102
{ACAD_REACTORS
330
913D
102
}
330
913D
100
AcDbXrecord
 10
0.0
 20
0.0
 30
0.0
  0
XRECORD
  5
9155
102
{ACAD_REACTORS
330
913D
102
}
330
913D
100
AcDbXrecord
340
0
  0
XRECORD
  5
9156
102
{ACAD_REACTORS
330
913D
102
}
330
913D
100
AcDbXrecord
 70
     0
  0
XRECORD
  5
9149
102
{ACAD_REACTORS
330
913D
102
}
330
913D
100
AcDbXrecord
  1
{EC13D008-CEC6-4A05-B226-45F3D103DD58}
  0
DICTIONARYVAR
  5
6B7A
102
{ACAD_REACTORS
330
6B78
102
}
330
6B78
100
DictionaryVariables
280
     0
  1
1
  0
DICTIONARYVAR
  5
6B79
102
{ACAD_REACTORS
330
6B78
102
}
330
6B78
100
DictionaryVariables
280
     0
  1
1
  0
DICTIONARY
  5
6B3F
102
{ACAD_REACTORS
330
6B39
102
}
330
6B39
100
AcDbDictionary
  0
DICTIONARY
  5
6B23
102
{ACAD_REACTORS
330
6B22
102
}
330
6B22
100
AcDbDictionary
  3
DWGSETTINGS
350
6B24
  0
LAYER_INDEX
  5
6B64
102
{ACAD_REACTORS
330
6B63
102
}
330
6B63
100
AcDbIndex
 40
2453793.320769594
100
AcDbLayerIndex
  8
0
360
6B65
 90
        0
  8
DEFPOINTS
360
6B66
 90
        0
  8
1
360
6B67
 90
       28
  8
2
360
6B68
 90
        4
  8
4
360
6B69
 90
        3
  8
6
360
6B6A
 90
        3
  8
SK1
360
6B6B
 90
       21
  8
SK2
360
6B6C
 90
        2
  8
SK3
360
6B6D
 90
        6
  8
SK4
360
6B6E
 90
        1
  8
CUT
360
6B6F
 90
        8
  8
NOCUT
360
6B70
 90
        6
  0
XRECORD
  5
6B24
102
{ACAD_REACTORS
330
6B23
102
}
330
6B23
100
AcDbXrecord
  1
VERSION
140
15.0
  1
PRODUCT
  2
AutoCAD Mechanical 2000
  0
IDBUFFER
  5
6B65
330
0
100
AcDbIdBuffer
  0
IDBUFFER
  5
6B66
330
0
100
AcDbIdBuffer
  0
IDBUFFER
  5
6B67
330
0
100
AcDbIdBuffer
330
9133
330
8147
330
814F
330
8486
330
8D5F
330
8DAB
330
8DAD
330
8DAF
330
8DB0
330
8DB2
330
8DB4
330
8DB8
330
8DBA
330
8DBC
330
8DC0
330
8DC3
330
8DC4
330
8DC6
330
8DC7
330
8DCB
330
8DCC
330
8E3D
330
8E46
330
8E51
330
8E85
330
8E86
330
8E93
330
8E94
  0
IDBUFFER
  5
6B68
330
0
100
AcDbIdBuffer
330
8F55
330
8F7D
330
8FC0
330
9005
  0
IDBUFFER
  5
6B69
330
0
100
AcDbIdBuffer
330
755F
330
8027
330
8EA1
  0
IDBUFFER
  5
6B6A
330
0
100
AcDbIdBuffer
330
7545
330
7F0E
330
8AA7
  0
IDBUFFER
  5
6B6B
330
0
100
AcDbIdBuffer
330
7554
330
7555
330
7556
330
7561
330
7563
330
7588
330
7589
330
758A
330
8B83
330
8D60
330
8D61
330
8D62
330
8D63
330
8D64
330
8D65
330
8D66
330
8D67
330
8D68
330
8D69
330
8D6A
330
8D6B
  0
IDBUFFER
  5
6B6C
330
0
100
AcDbIdBuffer
330
8EC8
330
8F09
  0
IDBUFFER
  5
6B6D
330
0
100
AcDbIdBuffer
330
8696
330
8DBF
330
8DC1
330
8DC2
330
8DC5
330
8E8A
  0
IDBUFFER
  5
6B6E
330
0
100
AcDbIdBuffer
330
752A
  0
IDBUFFER
  5
6B6F
330
0
100
AcDbIdBuffer
330
8DAC
330
8DAE
330
8DB1
330
8DB3
330
8DB5
330
8DB9
330
8DBB
330
8DBD
  0
IDBUFFER
  5
6B70
330
0
100
AcDbIdBuffer
330
755E
330
8EA5
330
8EA6
330
8EA7
330
8EA8
330
8EB0
  0
ENDSEC
  0
EOF
