  0
SECTION
  2
HEADER
  9
$ACADVER
  1
AC1015
  9
$ACADMAINTVER
 70
    20
  9
$DWGCODEPAGE
  3
ANSI_1252
  9
$INSBASE
 10
0.0
 20
0.0
 30
0.0
  9
$EXTMIN
 10
-74.25365257674343
 20
-70.49763691700127
 30
-0.0000000069310432
  9
$EXTMAX
 10
145.1225464896936
 20
21.12076317024707
 30
0.0000000002889953
  9
$LIMMIN
 10
0.0
 20
0.0
  9
$LIMMAX
 10
594.0
 20
420.0
  9
$ORTHOMODE
 70
     0
  9
$REGENMODE
 70
     1
  9
$FILLMODE
 70
     1
  9
$QTEXTMODE
 70
     0
  9
$MIRRTEXT
 70
     1
  9
$LTSCALE
 40
10.0
  9
$ATTMODE
 70
     1
  9
$TEXTSIZE
 40
0.2
  9
$TRACEWID
 40
0.05
  9
$TEXTSTYLE
  7
STANDARD
  9
$CLAYER
  8
0
  9
$CELTYPE
  6
BYLAYER
  9
$CECOLOR
 62
   256
  9
$CELTSCALE
 40
1.0
  9
$DISPSILH
 70
     0
  9
$DIMSCALE
 40
1.0
  9
$DIMASZ
 40
2.5
  9
$DIMEXO
 40
3.712499999999999
  9
$DIMDLI
 40
22.572
  9
$DIMRND
 40
0.0
  9
$DIMDLE
 40
0.0
  9
$DIMEXE
 40
10.692
  9
$DIMTP
 40
0.01
  9
$DIMTM
 40
0.01
  9
$DIMTXT
 40
3.5
  9
$DIMCEN
 40
5.346
  9
$DIMTSZ
 40
0.0
  9
$DIMTOL
 70
     1
  9
$DIMLIM
 70
     0
  9
$DIMTIH
 70
     1
  9
$DIMTOH
 70
     1
  9
$DIMSE1
 70
     0
  9
$DIMSE2
 70
     0
  9
$DIMTAD
 70
     0
  9
$DIMZIN
 70
     0
  9
$DIMBLK
  1
_FILLED
  9
$DIMASO
 70
     1
  9
$DIMSHO
 70
     1
  9
$DIMPOST
  1

  9
$DIMAPOST
  1

  9
$DIMALT
 70
     0
  9
$DIMALTD
 70
     2
  9
$DIMALTF
 40
25.4
  9
$DIMLFAC
 40
1.0
  9
$DIMTOFL
 70
     0
  9
$DIMTVP
 40
0.0
  9
$DIMTIX
 70
     0
  9
$DIMSOXD
 70
     0
  9
$DIMSAH
 70
     0
  9
$DIMBLK1
  1

  9
$DIMBLK2
  1

  9
$DIMSTYLE
  2
STANDARD
  9
$DIMCLRD
 70
     0
  9
$DIMCLRE
 70
     0
  9
$DIMCLRT
 70
     0
  9
$DIMTFAC
 40
1.0
  9
$DIMGAP
 40
0.09
  9
$DIMJUST
 70
     0
  9
$DIMSD1
 70
     0
  9
$DIMSD2
 70
     0
  9
$DIMTOLJ
 70
     1
  9
$DIMTZIN
 70
     0
  9
$DIMALTZ
 70
     0
  9
$DIMALTTZ
 70
     0
  9
$DIMUPT
 70
     0
  9
$DIMDEC
 70
     4
  9
$DIMTDEC
 70
     4
  9
$DIMALTU
 70
     2
  9
$DIMALTTD
 70
     2
  9
$DIMTXSTY
  7
STANDARD
  9
$DIMAUNIT
 70
     0
  9
$DIMADEC
 70
     0
  9
$DIMALTRND
 40
0.0
  9
$DIMAZIN
 70
     0
  9
$DIMDSEP
 70
    46
  9
$DIMATFIT
 70
     3
  9
$DIMFRAC
 70
     0
  9
$DIMLDRBLK
  1
_FILLED
  9
$DIMLUNIT
 70
     2
  9
$DIMLWD
 70
    -2
  9
$DIMLWE
 70
    -2
  9
$DIMTMOVE
 70
     0
  9
$LUNITS
 70
     2
  9
$LUPREC
 70
     4
  9
$SKETCHINC
 40
0.1
  9
$FILLETRAD
 40
0.0
  9
$AUNITS
 70
     0
  9
$AUPREC
 70
     0
  9
$MENU
  1

  9
$ELEVATION
 40
0.0
  9
$PELEVATION
 40
0.0
  9
$THICKNESS
 40
0.0
  9
$LIMCHECK
 70
     0
  9
$CHAMFERA
 40
0.0
  9
$CHAMFERB
 40
0.0
  9
$CHAMFERC
 40
0.0
  9
$CHAMFERD
 40
0.0
  9
$SKPOLY
 70
     0
  9
$TDCREATE
 40
2453413.576438160
  9
$TDUCREATE
 40
2453413.493104826
  9
$TDUPDATE
 40
2453909.289674618
  9
$TDUUPDATE
 40
2453909.206341285
  9
$TDINDWG
 40
0.0210671644
  9
$TDUSRTIMER
 40
0.0184846181
  9
$USRTIMER
 70
     1
  9
$ANGBASE
 50
0.0
  9
$ANGDIR
 70
     0
  9
$PDMODE
 70
     0
  9
$PDSIZE
 40
0.3125
  9
$PLINEWID
 40
0.0
  9
$SPLFRAME
 70
     0
  9
$SPLINETYPE
 70
     6
  9
$SPLINESEGS
 70
     8
  9
$HANDSEED
  5
3319
  9
$SURFTAB1
 70
     6
  9
$SURFTAB2
 70
     6
  9
$SURFTYPE
 70
     6
  9
$SURFU
 70
     6
  9
$SURFV
 70
     6
  9
$UCSBASE
  2

  9
$UCSNAME
  2

  9
$UCSORG
 10
0.0
 20
0.0
 30
0.0
  9
$UCSXDIR
 10
1.0
 20
0.0
 30
0.0
  9
$UCSYDIR
 10
0.0
 20
1.0
 30
0.0
  9
$UCSORTHOREF
  2

  9
$UCSORTHOVIEW
 70
     0
  9
$UCSORGTOP
 10
0.0
 20
0.0
 30
0.0
  9
$UCSORGBOTTOM
 10
0.0
 20
0.0
 30
0.0
  9
$UCSORGLEFT
 10
0.0
 20
0.0
 30
0.0
  9
$UCSORGRIGHT
 10
0.0
 20
0.0
 30
0.0
  9
$UCSORGFRONT
 10
0.0
 20
0.0
 30
0.0
  9
$UCSORGBACK
 10
0.0
 20
0.0
 30
0.0
  9
$PUCSBASE
  2

  9
$PUCSNAME
  2

  9
$PUCSORG
 10
0.0
 20
0.0
 30
0.0
  9
$PUCSXDIR
 10
1.0
 20
0.0
 30
0.0
  9
$PUCSYDIR
 10
0.0
 20
1.0
 30
0.0
  9
$PUCSORTHOREF
  2

  9
$PUCSORTHOVIEW
 70
     0
  9
$PUCSORGTOP
 10
0.0
 20
0.0
 30
0.0
  9
$PUCSORGBOTTOM
 10
0.0
 20
0.0
 30
0.0
  9
$PUCSORGLEFT
 10
0.0
 20
0.0
 30
0.0
  9
$PUCSORGRIGHT
 10
0.0
 20
0.0
 30
0.0
  9
$PUCSORGFRONT
 10
0.0
 20
0.0
 30
0.0
  9
$PUCSORGBACK
 10
0.0
 20
0.0
 30
0.0
  9
$USERI1
 70
     0
  9
$USERI2
 70
     0
  9
$USERI3
 70
     0
  9
$USERI4
 70
     0
  9
$USERI5
 70
     0
  9
$USERR1
 40
0.0
  9
$USERR2
 40
0.0
  9
$USERR3
 40
0.0
  9
$USERR4
 40
0.0
  9
$USERR5
 40
0.0
  9
$WORLDVIEW
 70
     1
  9
$SHADEDGE
 70
     3
  9
$SHADEDIF
 70
    70
  9
$TILEMODE
 70
     1
  9
$MAXACTVP
 70
    64
  9
$PINSBASE
 10
0.0
 20
0.0
 30
0.0
  9
$PLIMCHECK
 70
     0
  9
$PEXTMIN
 10
100.0
 20
100.0
 30
100.0
  9
$PEXTMAX
 10
-100.0
 20
-100.0
 30
-100.0
  9
$PLIMMIN
 10
0.0
 20
0.0
  9
$PLIMMAX
 10
12.0
 20
9.0
  9
$UNITMODE
 70
     0
  9
$VISRETAIN
 70
     1
  9
$PLINEGEN
 70
     1
  9
$PSLTSCALE
 70
     1
  9
$TREEDEPTH
 70
  3020
  9
$CMLSTYLE
  2
STANDARD
  9
$CMLJUST
 70
     0
  9
$CMLSCALE
 40
1.0
  9
$PROXYGRAPHICS
 70
     1
  9
$MEASUREMENT
 70
     0
  9
$CELWEIGHT
370
    -1
  9
$ENDCAPS
280
     0
  9
$JOINSTYLE
280
     0
  9
$LWDISPLAY
290
     0
  9
$INSUNITS
 70
     0
  9
$HYPERLINKBASE
  1

  9
$STYLESHEET
  1

  9
$XEDIT
290
     1
  9
$CEPSNTYPE
380
     0
  9
$PSTYLEMODE
290
     1
  9
$FINGERPRINTGUID
  2
{01271AA5-B7E5-4366-B549-1F8432B307CB}
  9
$VERSIONGUID
  2
{A00F65B0-6C98-4698-824C-DE3A32DDC1E8}
  9
$EXTNAMES
290
     1
  9
$PSVPSCALE
 40
0.0
  9
$OLESTARTUP
290
     0
  0
ENDSEC
  0
SECTION
  2
CLASSES
  0
CLASS
  1
ACDBDICTIONARYWDFLT
  2
AcDbDictionaryWithDefault
  3
ObjectDBX Classes
 90
        0
280
     0
281
     0
  0
CLASS
  1
ACDBPLACEHOLDER
  2
AcDbPlaceHolder
  3
ObjectDBX Classes
 90
        0
280
     0
281
     0
  0
CLASS
  1
LAYOUT
  2
AcDbLayout
  3
ObjectDBX Classes
 90
        0
280
     0
281
     0
  0
CLASS
  1
TABLESTYLE
  2
AcDbTableStyle
  3
ObjectDBX Classes
 90
     2047
280
     0
281
     0
  0
CLASS
  1
DICTIONARYVAR
  2
AcDbDictionaryVar
  3
ObjectDBX Classes
 90
        0
280
     0
281
     0
  0
ENDSEC
  0
SECTION
  2
TABLES
  0
TABLE
  2
VPORT
  5
8
330
0
100
AcDbSymbolTable
 70
     2
  0
VPORT
  5
3313
330
8
100
AcDbSymbolTableRecord
100
AcDbViewportTableRecord
  2
*Active
 70
     0
 10
0.0
 20
0.0
 11
1.0
 21
1.0
 12
35.4344469564751
 22
-24.6884368733771
 13
0.0
 23
0.0
 14
1.0
 24
1.0
 15
0.0
 25
0.0
 16
0.0
 26
0.0
 36
1.0
 17
0.0
 27
0.0
 37
0.0
 40
143.8697588862688
 41
1.532401524777636
 42
50.0
 43
0.0
 44
0.0
 50
0.0
 51
0.0
 71
     0
 72
   100
 73
     1
 74
     1
 75
     0
 76
     0
 77
     0
 78
     0
281
     0
 65
     1
110
0.0
120
0.0
130
0.0
111
1.0
121
0.0
131
0.0
112
0.0
122
1.0
132
0.0
 79
     0
146
0.0
  0
ENDTAB
  0
TABLE
  2
LTYPE
  5
5
330
0
100
AcDbSymbolTable
 70
     2
  0
LTYPE
  5
13
330
5
100
AcDbSymbolTableRecord
100
AcDbLinetypeTableRecord
  2
BYBLOCK
 70
     0
  3

 72
    65
 73
     0
 40
0.0
  0
LTYPE
  5
14
330
5
100
AcDbSymbolTableRecord
100
AcDbLinetypeTableRecord
  2
BYLAYER
 70
     0
  3

 72
    65
 73
     0
 40
0.0
  0
LTYPE
  5
15
330
5
100
AcDbSymbolTableRecord
100
AcDbLinetypeTableRecord
  2
CONTINUOUS
 70
     0
  3
Solid line
 72
    65
 73
     0
 40
0.0
  0
LTYPE
  5
2E
330
5
100
AcDbSymbolTableRecord
100
AcDbLinetypeTableRecord
  2
CENTER
 70
     0
  3
____ _ ____ _ ____ _ ____ _ ____ _ ____ _ ____
 72
    65
 73
     4
 40
0.6
 49
0.375
 74
     0
 49
-0.075
 74
     0
 49
0.075
 74
     0
 49
-0.075
 74
     0
  0
ENDTAB
  0
TABLE
  2
LAYER
  5
2
330
0
100
AcDbSymbolTable
 70
    11
  0
LAYER
  5
10
330
2
100
AcDbSymbolTableRecord
100
AcDbLayerTableRecord
  2
1
 70
     0
 62
     4
  6
CONTINUOUS
370
    -3
390
2BBF
  0
LAYER
  5
31
330
2
100
AcDbSymbolTableRecord
100
AcDbLayerTableRecord
  2
2
 70
     0
 62
     7
  6
CONTINUOUS
370
    -3
390
2BBF
  0
LAYER
  5
33
330
2
100
AcDbSymbolTableRecord
100
AcDbLayerTableRecord
  2
4
 70
     0
 62
     2
  6
CENTER
370
    -3
390
2BBF
  0
LAYER
  5
36
330
2
100
AcDbSymbolTableRecord
100
AcDbLayerTableRecord
  2
0
 70
     0
 62
     7
  6
CONTINUOUS
370
    -3
390
2BBF
  0
LAYER
  5
37
330
2
100
AcDbSymbolTableRecord
100
AcDbLayerTableRecord
  2
DEFPOINTS
 70
     0
 62
     7
  6
CONTINUOUS
290
     0
370
    -3
390
2BBF
  0
LAYER
  5
5E1
330
2
100
AcDbSymbolTableRecord
100
AcDbLayerTableRecord
  2
SK1
 70
     0
 62
     4
  6
CONTINUOUS
370
    -3
390
2BBF
  0
LAYER
  5
5E2
330
2
100
AcDbSymbolTableRecord
100
AcDbLayerTableRecord
  2
SK4
 70
     0
 62
     2
  6
CENTER
370
    -3
390
2BBF
  0
LAYER
  5
5E4
330
2
100
AcDbSymbolTableRecord
100
AcDbLayerTableRecord
  2
SK2
 70
     0
 62
     7
  6
CONTINUOUS
370
    -3
390
2BBF
  0
LAYER
  5
2C56
330
2
100
AcDbSymbolTableRecord
100
AcDbLayerTableRecord
  2
6
 70
     0
 62
     5
  6
CONTINUOUS
370
    -3
390
2BBF
  0
LAYER
  5
2C57
330
2
100
AcDbSymbolTableRecord
100
AcDbLayerTableRecord
  2
CUT
 70
     0
 62
     1
  6
CONTINUOUS
370
    -3
390
2BBF
  0
LAYER
  5
2C58
330
2
100
AcDbSymbolTableRecord
100
AcDbLayerTableRecord
  2
NOCUT
 70
     0
 62
     7
  6
CONTINUOUS
370
    -3
390
2BBF
  0
ENDTAB
  0
TABLE
  2
STYLE
  5
3
330
0
100
AcDbSymbolTable
 70
     1
  0
STYLE
  5
11
330
3
100
AcDbSymbolTableRecord
100
AcDbTextStyleTableRecord
  2
STANDARD
 70
     0
 40
0.0
 41
0.8
 50
0.0
 71
     0
 42
0.2
  3
isocp.shx
  4

  0
ENDTAB
  0
TABLE
  2
VIEW
  5
6
330
0
100
AcDbSymbolTable
 70
     0
  0
ENDTAB
  0
TABLE
  2
UCS
  5
7
330
0
100
AcDbSymbolTable
 70
     0
  0
ENDTAB
  0
TABLE
  2
APPID
  5
9
330
0
100
AcDbSymbolTable
 70
     1
  0
APPID
  5
12
330
9
100
AcDbSymbolTableRecord
100
AcDbRegAppTableRecord
  2
ACAD
 70
     0
  0
ENDTAB
  0
TABLE
  2
DIMSTYLE
  5
A
330
0
100
AcDbSymbolTable
 70
     2
100
AcDbDimStyleTable
 71
     0
  0
DIMSTYLE
105
30
330
A
100
AcDbSymbolTableRecord
100
AcDbDimStyleTableRecord
  2
STANDARD
 70
     0
340
11
  0
DIMSTYLE
105
5E5
102
{ACAD_REACTORS
330
8B
330
5A4
330
89
330
8C
330
8A
102
}
330
A
100
AcDbSymbolTableRecord
100
AcDbDimStyleTableRecord
  2
ISO-25
 70
     0
 41
2.5
 42
0.625
 43
3.75
 44
1.25
 73
     0
 74
     0
 77
     1
 78
     8
140
2.5
141
2.5
143
0.03937007874016
147
0.625
171
     3
172
     1
271
     2
272
     2
274
     3
283
     0
284
     8
340
11
  0
ENDTAB
  0
TABLE
  2
BLOCK_RECORD
  5
1
330
0
100
AcDbSymbolTable
 70
     6
  0
BLOCK_RECORD
  5
1E
102
{ACAD_XDICTIONARY
360
21C8
102
}
330
1
100
AcDbSymbolTableRecord
100
AcDbBlockTableRecord
  2
*MODEL_SPACE
340
2BC0
  0
BLOCK_RECORD
  5
1A
102
{ACAD_XDICTIONARY
360
21C6
102
}
330
1
100
AcDbSymbolTableRecord
100
AcDbBlockTableRecord
  2
*PAPER_SPACE
340
2BC1
  0
BLOCK_RECORD
  5
23
330
1
100
AcDbSymbolTableRecord
100
AcDbBlockTableRecord
  2
_FILLED
340
0
  0
BLOCK_RECORD
  5
6D3
330
1
100
AcDbSymbolTableRecord
100
AcDbBlockTableRecord
  2
*D1
340
0
  0
BLOCK_RECORD
  5
6DF
330
1
100
AcDbSymbolTableRecord
100
AcDbBlockTableRecord
  2
*D2
340
0
  0
BLOCK_RECORD
  5
6EB
330
1
100
AcDbSymbolTableRecord
100
AcDbBlockTableRecord
  2
*D3
340
0
  0
BLOCK_RECORD
  5
6F7
330
1
100
AcDbSymbolTableRecord
100
AcDbBlockTableRecord
  2
*D4
340
0
  0
BLOCK_RECORD
  5
703
330
1
100
AcDbSymbolTableRecord
100
AcDbBlockTableRecord
  2
*D5
340
0
  0
ENDTAB
  0
ENDSEC
  0
SECTION
  2
BLOCKS
  0
BLOCK
  5
3A
330
1E
100
AcDbEntity
  8
0
100
AcDbBlockBegin
  2
*MODEL_SPACE
 70
     0
 10
0.0
 20
0.0
 30
0.0
  3
*MODEL_SPACE
  1

  0
ENDBLK
  5
3B
330
1E
100
AcDbEntity
  8
0
100
AcDbBlockEnd
  0
BLOCK
  5
38
330
1A
100
AcDbEntity
 67
     1
  8
0
100
AcDbBlockBegin
  2
*PAPER_SPACE
 70
     0
 10
0.0
 20
0.0
 30
0.0
  3
*PAPER_SPACE
  1

  0
ENDBLK
  5
39
330
1A
100
AcDbEntity
 67
     1
  8
0
100
AcDbBlockEnd
  0
BLOCK
  5
3E
330
23
100
AcDbEntity
  8
0
100
AcDbBlockBegin
  2
_FILLED
 70
     0
 10
0.0
 20
0.0
 30
0.0
  3
_FILLED
  1

  0
SOLID
  5
3F
330
23
100
AcDbEntity
  8
0
  6
ByBlock
 62
     0
100
AcDbTrace
 10
0.0
 20
0.0
 30
0.0
 11
-1.0
 21
0.132
 31
0.0
 12
-1.0
 22
-0.132
 32
0.0
 13
-1.0
 23
-0.132
 33
0.0
  0
ENDBLK
  5
40
330
23
100
AcDbEntity
  8
0
100
AcDbBlockEnd
  0
BLOCK
  5
6DD
330
6D3
100
AcDbEntity
  8
0
100
AcDbBlockBegin
  2
*D1
 70
     1
 10
0.0
 20
0.0
 30
0.0
  3
*D1
  1

  0
LINE
  5
2C13
330
6D3
100
AcDbEntity
  8
SK2
 62
     0
370
    -2
100
AcDbLine
 10
-55.425
 20
-12.49999999999999
 30
0.0
 11
-72.34757235360894
 21
-12.49999999999998
 31
0.0
  0
LINE
  5
2C14
330
6D3
100
AcDbEntity
  8
SK2
 62
     0
370
    -2
100
AcDbLine
 10
-58.65947406312534
 20
12.5
 30
0.0
 11
-72.34757235360894
 21
12.5
 31
0.0
  0
LINE
  5
2C15
330
6D3
100
AcDbEntity
  8
SK2
 62
     0
370
    -2
100
AcDbLine
 10
-71.09757235360894
 20
-9.999999999999987
 30
0.0
 11
-71.09757235360894
 21
10.0
 31
0.0
  0
SOLID
  5
2C16
330
6D3
100
AcDbEntity
  8
SK2
 62
     0
100
AcDbTrace
 10
-71.51423902027561
 20
-9.999999999999987
 30
0.0
 11
-70.68090568694227
 21
-9.999999999999987
 31
0.0
 12
-71.09757235360894
 22
-12.49999999999998
 32
0.0
 13
-71.09757235360894
 23
-12.49999999999998
 33
0.0
  0
SOLID
  5
2C17
330
6D3
100
AcDbEntity
  8
SK2
 62
     0
100
AcDbTrace
 10
-71.51423902027561
 20
10.0
 30
0.0
 11
-70.68090568694227
 21
10.0
 31
0.0
 12
-71.09757235360894
 22
12.5
 32
0.0
 13
-71.09757235360894
 23
12.5
 33
0.0
  0
MTEXT
  5
2C18
330
6D3
100
AcDbEntity
  8
SK2
 62
     0
100
AcDbMText
 10
-72.97257235360894
 20
-0.2155707119946923
 30
0.0
 40
2.5
 41
0.0
 71
     5
 72
     1
  1
%%c25
 11
0.0000000000000001
 21
1.0
 31
0.0
 73
     1
 44
1.0
1001
ACAD
1000
MTEXTBEGIN
1070
    73
1070
     1
1070
    44
1040
1.0
1070
    74
1070
     0
1000
MTEXTEND
  0
POINT
  5
2C19
330
6D3
100
AcDbEntity
  8
DEFPOINTS
 62
     0
100
AcDbPoint
 10
-54.8
 20
-12.49999999999999
 30
0.0
  0
POINT
  5
2C1A
330
6D3
100
AcDbEntity
  8
DEFPOINTS
 62
     0
100
AcDbPoint
 10
-58.03447406312534
 20
12.5
 30
0.0
  0
POINT
  5
2C1B
330
6D3
100
AcDbEntity
  8
DEFPOINTS
 62
     0
100
AcDbPoint
 10
-71.09757235360894
 20
12.5
 30
0.0
  0
ENDBLK
  5
6DE
330
6D3
100
AcDbEntity
  8
0
100
AcDbBlockEnd
  0
BLOCK
  5
6E9
330
6DF
100
AcDbEntity
  8
0
100
AcDbBlockBegin
  2
*D2
 70
     1
 10
0.0
 20
0.0
 30
0.0
  3
*D2
  1

  0
LINE
  5
2BF8
330
6DF
100
AcDbEntity
  8
SK2
 62
     0
370
    -2
100
AcDbLine
 10
-24.0
 20
-0.6249999999999975
 30
0.0
 11
-24.0
 21
-38.00467580747762
 31
0.0
  0
LINE
  5
2BF9
330
6DF
100
AcDbEntity
  8
SK2
 62
     0
370
    -2
100
AcDbLine
 10
121.0
 20
-0.6250000000000148
 30
0.0
 11
121.0
 21
-38.00467580747762
 31
0.0
  0
LINE
  5
2BFA
330
6DF
100
AcDbEntity
  8
SK2
 62
     0
370
    -2
100
AcDbLine
 10
-21.49999999999999
 20
-36.75467580747762
 30
0.0
 11
118.5
 21
-36.75467580747762
 31
0.0
  0
SOLID
  5
2BFB
330
6DF
100
AcDbEntity
  8
SK2
 62
     0
100
AcDbTrace
 10
-21.49999999999999
 20
-36.33800914081096
 30
0.0
 11
-21.49999999999999
 21
-37.17134247414428
 31
0.0
 12
-24.0
 22
-36.75467580747762
 32
0.0
 13
-24.0
 23
-36.75467580747762
 33
0.0
  0
SOLID
  5
2BFC
330
6DF
100
AcDbEntity
  8
SK2
 62
     0
100
AcDbTrace
 10
118.5
 20
-36.33800914081096
 30
0.0
 11
118.5
 21
-37.17134247414428
 31
0.0
 12
121.0
 22
-36.75467580747762
 32
0.0
 13
121.0
 23
-36.75467580747762
 33
0.0
  0
MTEXT
  5
2BFD
330
6DF
100
AcDbEntity
  8
SK2
 62
     0
100
AcDbMText
 10
48.49999999999999
 20
-34.87967580747763
 30
0.0
 40
2.5
 41
0.0
 71
     5
 72
     1
  1
145
 73
     1
 44
1.0
1001
ACAD
1000
MTEXTBEGIN
1070
    73
1070
     1
1070
    44
1040
1.0
1070
    74
1070
     0
1000
MTEXTEND
  0
POINT
  5
2BFE
330
6DF
100
AcDbEntity
  8
DEFPOINTS
 62
     0
100
AcDbPoint
 10
-24.0
 20
0.0000000000000029
 30
0.0
  0
POINT
  5
2BFF
330
6DF
100
AcDbEntity
  8
DEFPOINTS
 62
     0
100
AcDbPoint
 10
121.0
 20
-0.0000000000000148
 30
0.0
  0
POINT
  5
2C00
330
6DF
100
AcDbEntity
  8
DEFPOINTS
 62
     0
100
AcDbPoint
 10
121.0
 20
-36.75467580747762
 30
0.0
  0
ENDBLK
  5
6EA
330
6DF
100
AcDbEntity
  8
0
100
AcDbBlockEnd
  0
BLOCK
  5
6F5
330
6EB
100
AcDbEntity
  8
0
100
AcDbBlockBegin
  2
*D3
 70
     1
 10
0.0
 20
0.0
 30
0.0
  3
*D3
  1

  0
LINE
  5
2BEF
330
6EB
100
AcDbEntity
  8
SK2
 62
     0
370
    -2
100
AcDbLine
 10
121.0
 20
1.773127830551841
 30
0.0
 11
121.0
 21
-47.97803976340378
 31
0.0
  0
LINE
  5
2BF0
330
6EB
100
AcDbEntity
  8
SK2
 62
     0
370
    -2
100
AcDbLine
 10
-56.0
 20
-13.12499999999999
 30
0.0
 11
-56.0
 21
-47.97803976340378
 31
0.0
  0
LINE
  5
2BF1
330
6EB
100
AcDbEntity
  8
SK2
 62
     0
370
    -2
100
AcDbLine
 10
118.5
 20
-46.72803976340378
 30
0.0
 11
-53.5
 21
-46.72803976340378
 31
0.0
  0
SOLID
  5
2BF2
330
6EB
100
AcDbEntity
  8
SK2
 62
     0
100
AcDbTrace
 10
118.5
 20
-46.31137309673712
 30
0.0
 11
118.5
 21
-47.14470643007046
 31
0.0
 12
121.0
 22
-46.72803976340378
 32
0.0
 13
121.0
 23
-46.72803976340378
 33
0.0
  0
SOLID
  5
2BF3
330
6EB
100
AcDbEntity
  8
SK2
 62
     0
100
AcDbTrace
 10
-53.5
 20
-46.31137309673712
 30
0.0
 11
-53.5
 21
-47.14470643007046
 31
0.0
 12
-56.0
 22
-46.72803976340378
 32
0.0
 13
-56.0
 23
-46.72803976340378
 33
0.0
  0
MTEXT
  5
2BF4
330
6EB
100
AcDbEntity
  8
SK2
 62
     0
100
AcDbMText
 10
31.87736528759999
 20
-44.85303976340378
 30
0.0
 40
2.5
 41
0.0
 71
     5
 72
     1
  1
177
 73
     1
 44
1.0
1001
ACAD
1000
MTEXTBEGIN
1070
    73
1070
     1
1070
    44
1040
1.0
1070
    74
1070
     0
1000
MTEXTEND
  0
POINT
  5
2BF5
330
6EB
100
AcDbEntity
  8
DEFPOINTS
 62
     0
100
AcDbPoint
 10
121.0
 20
2.398127830551839
 30
0.0
  0
POINT
  5
2BF6
330
6EB
100
AcDbEntity
  8
DEFPOINTS
 62
     0
100
AcDbPoint
 10
-56.0
 20
-12.49999999999999
 30
0.0
  0
POINT
  5
2BF7
330
6EB
100
AcDbEntity
  8
DEFPOINTS
 62
     0
100
AcDbPoint
 10
-56.0
 20
-46.72803976340378
 30
0.0
  0
ENDBLK
  5
6F6
330
6EB
100
AcDbEntity
  8
0
100
AcDbBlockEnd
  0
BLOCK
  5
701
330
6F7
100
AcDbEntity
  8
0
100
AcDbBlockBegin
  2
*D4
 70
     1
 10
0.0
 20
0.0
 30
0.0
  3
*D4
  1

  0
LINE
  5
2C01
330
6F7
100
AcDbEntity
  8
2
 62
     0
370
    -2
100
AcDbLine
 10
121.0
 20
4.645604882341261
 30
0.0
 11
121.0
 21
-28.0169969359183
 31
0.0
  0
LINE
  5
2C02
330
6F7
100
AcDbEntity
  8
2
 62
     0
370
    -2
100
AcDbLine
 10
61.0
 20
7.874999999999992
 30
0.0
 11
61.0
 21
-28.0169969359183
 31
0.0
  0
LINE
  5
2C03
330
6F7
100
AcDbEntity
  8
2
 62
     0
370
    -2
100
AcDbLine
 10
118.5
 20
-26.7669969359183
 30
0.0
 11
63.5
 21
-26.7669969359183
 31
0.0
  0
SOLID
  5
2C04
330
6F7
100
AcDbEntity
  8
2
 62
     0
100
AcDbTrace
 10
118.5
 20
-26.35033026925164
 30
0.0
 11
118.5
 21
-27.18366360258498
 31
0.0
 12
121.0
 22
-26.7669969359183
 32
0.0
 13
121.0
 23
-26.7669969359183
 33
0.0
  0
SOLID
  5
2C05
330
6F7
100
AcDbEntity
  8
2
 62
     0
100
AcDbTrace
 10
63.5
 20
-26.35033026925164
 30
0.0
 11
63.5
 21
-27.18366360258498
 31
0.0
 12
61.0
 22
-26.7669969359183
 32
0.0
 13
61.0
 23
-26.7669969359183
 33
0.0
  0
MTEXT
  5
2C06
330
6F7
100
AcDbEntity
  8
2
 62
     0
100
AcDbMText
 10
91.3065749649
 20
-24.8919969359183
 30
0.0
 40
2.5
 41
0.0
 71
     5
 72
     1
  1
60
 73
     1
 44
1.0
1001
ACAD
1000
MTEXTBEGIN
1070
    73
1070
     1
1070
    44
1040
1.0
1070
    74
1070
     0
1000
MTEXTEND
  0
POINT
  5
2C07
330
6F7
100
AcDbEntity
  8
DEFPOINTS
 62
     0
100
AcDbPoint
 10
121.0
 20
5.270604882341261
 30
0.0
  0
POINT
  5
2C08
330
6F7
100
AcDbEntity
  8
DEFPOINTS
 62
     0
100
AcDbPoint
 10
61.0
 20
8.499999999999991
 30
0.0
  0
POINT
  5
2C09
330
6F7
100
AcDbEntity
  8
DEFPOINTS
 62
     0
100
AcDbPoint
 10
61.0
 20
-26.7669969359183
 30
0.0
  0
ENDBLK
  5
702
330
6F7
100
AcDbEntity
  8
0
100
AcDbBlockEnd
  0
BLOCK
  5
70D
330
703
100
AcDbEntity
  8
0
100
AcDbBlockBegin
  2
*D5
 70
     1
 10
0.0
 20
0.0
 30
0.0
  3
*D5
  1

  0
LINE
  5
2C0A
330
703
100
AcDbEntity
  8
2
 62
     0
370
    -2
100
AcDbLine
 10
118.63503950026
 20
9.999999999999984
 30
0.0
 11
137.6627993596997
 21
9.99999999999998
 31
0.0
  0
LINE
  5
2C0B
330
703
100
AcDbEntity
  8
2
 62
     0
370
    -2
100
AcDbLine
 10
118.9773301407714
 20
-10.0
 30
0.0
 11
137.6627993596997
 21
-10.0
 31
0.0
  0
LINE
  5
2C0C
330
703
100
AcDbEntity
  8
2
 62
     0
370
    -2
100
AcDbLine
 10
136.4127993596995
 20
7.499999999999981
 30
0.0
 11
136.4127993596995
 21
-7.500000000000017
 31
0.0
  0
SOLID
  5
2C0D
330
703
100
AcDbEntity
  8
2
 62
     0
100
AcDbTrace
 10
135.996132693033
 20
7.499999999999981
 30
0.0
 11
136.8294660263664
 21
7.499999999999981
 31
0.0
 12
136.4127993596995
 22
9.99999999999998
 32
0.0
 13
136.4127993596995
 23
9.99999999999998
 33
0.0
  0
SOLID
  5
2C0E
330
703
100
AcDbEntity
  8
2
 62
     0
100
AcDbTrace
 10
135.996132693033
 20
-7.500000000000017
 30
0.0
 11
136.8294660263664
 21
-7.500000000000017
 31
0.0
 12
136.4127993596995
 22
-10.0
 32
0.0
 13
136.4127993596995
 23
-10.0
 33
0.0
  0
MTEXT
  5
2C0F
330
703
100
AcDbEntity
  8
2
 62
     0
100
AcDbMText
 10
134.5377993596997
 20
0.6087639274999908
 30
0.0
 40
2.5
 41
0.0
 71
     5
 72
     1
  1
%%c20
 11
0.0000000000000001
 21
1.0
 31
0.0
 73
     1
 44
1.0
1001
ACAD
1000
MTEXTBEGIN
1070
    73
1070
     1
1070
    44
1040
1.0
1070
    74
1070
     0
1000
MTEXTEND
  0
POINT
  5
2C10
330
703
100
AcDbEntity
  8
DEFPOINTS
 62
     0
100
AcDbPoint
 10
118.01003950026
 20
9.999999999999984
 30
0.0
  0
POINT
  5
2C11
330
703
100
AcDbEntity
  8
DEFPOINTS
 62
     0
100
AcDbPoint
 10
118.3523301407715
 20
-10.0
 30
0.0
  0
POINT
  5
2C12
330
703
100
AcDbEntity
  8
DEFPOINTS
 62
     0
100
AcDbPoint
 10
136.4127993596995
 20
-10.0
 30
0.0
  0
ENDBLK
  5
70E
330
703
100
AcDbEntity
  8
0
100
AcDbBlockEnd
  0
ENDSEC
  0
SECTION
  2
ENTITIES
  0
DIMENSION
  5
89
330
1E
100
AcDbEntity
  8
SK2
100
AcDbDimension
  2
*D3
 10
-56.0
 20
-46.72803976340378
 30
0.0
 11
31.87736528759999
 21
-46.72803976340378
 31
0.0
 70
   160
 71
     5
 42
177.0
  3
ISO-25
100
AcDbAlignedDimension
 13
121.0
 23
2.398127830551839
 33
0.0
 14
-56.0
 24
-12.49999999999999
 34
0.0
 50
180.0
100
AcDbRotatedDimension
  0
DIMENSION
  5
8A
330
1E
100
AcDbEntity
  8
2
100
AcDbDimension
  2
*D5
 10
136.4127993596995
 20
-10.0
 30
0.0
 11
136.4127993596995
 21
0.6087639274999904
 31
0.0
 70
   160
  1
%%c<>
 71
     5
 42
20.0
  3
ISO-25
100
AcDbAlignedDimension
 13
118.01003950026
 23
9.999999999999984
 33
0.0
 14
118.3523301407715
 24
-10.0
 34
0.0
 50
270.0
100
AcDbRotatedDimension
  0
DIMENSION
  5
8B
330
1E
100
AcDbEntity
  8
SK2
100
AcDbDimension
  2
*D1
 10
-71.09757235360894
 20
12.5
 30
0.0
 11
-71.09757235360894
 21
-0.2155707119946926
 31
0.0
 70
   160
  1
%%c<>
 71
     5
 42
25.0
  3
ISO-25
100
AcDbAlignedDimension
 13
-54.8
 23
-12.49999999999999
 33
0.0
 14
-58.03447406312534
 24
12.5
 34
0.0
 50
89.99999999999998
100
AcDbRotatedDimension
  0
DIMENSION
  5
8C
330
1E
100
AcDbEntity
  8
2
100
AcDbDimension
  2
*D4
 10
61.0
 20
-26.7669969359183
 30
0.0
 11
91.3065749649
 21
-26.7669969359183
 31
0.0
 70
   160
 71
     5
 42
60.0
  3
ISO-25
100
AcDbAlignedDimension
 13
121.0
 23
5.270604882341261
 33
0.0
 14
61.0
 24
8.499999999999991
 34
0.0
 50
180.0
100
AcDbRotatedDimension
  0
LINE
  5
8D
330
1E
100
AcDbEntity
  8
1
100
AcDbLine
 10
120.0
 20
-4.540475997299994
 30
0.0
 11
120.0
 21
-3.103420435599973
 31
0.0
  0
LINE
  5
8F
330
1E
100
AcDbEntity
  8
1
100
AcDbLine
 10
113.03394201
 20
-7.806626818400005
 30
0.0
 11
113.03394201
 21
1.500356450700004
 31
0.0
  0
LINE
  5
91
330
1E
100
AcDbEntity
  8
1
100
AcDbLine
 10
61.1766659609
 20
-8.500000000000008
 30
0.0
 11
61.1766659609
 21
8.499999999999991
 31
0.0
  0
LINE
  5
92
330
1E
100
AcDbEntity
  8
1
100
AcDbLine
 10
60.8237746009
 20
-8.512468778199977
 30
0.0
 11
60.8237746009
 21
8.512468778300013
 31
0.0
  0
LINE
  5
93
330
1E
100
AcDbEntity
  8
SK1
100
AcDbLine
 10
0.0000000000000015
 20
12.5
 30
0.0
 11
-54.8
 21
12.5
 31
0.0
  0
LINE
  5
94
330
1E
100
AcDbEntity
  8
1
100
AcDbLine
 10
7.823334039099988
 20
12.24999999999999
 30
0.0
 11
0.1999999999999904
 21
12.25
 31
0.0
  0
LINE
  5
95
330
1E
100
AcDbEntity
  8
1
100
AcDbLine
 10
8.176225399199982
 20
12.23753122179998
 30
0.0
 11
7.823334039099988
 21
12.24999999999999
 31
0.0
  0
LINE
  5
96
330
1E
100
AcDbEntity
  8
1
100
AcDbLine
 10
111.7700547591
 20
8.499999999999985
 30
0.0
 11
61.1766659609
 21
8.499999999999991
 31
0.0
  0
LINE
  5
97
330
1E
100
AcDbEntity
  8
1
100
AcDbLine
 10
112.45640739
 20
8.499917391500003
 30
0.0
 11
112.0353881822998
 21
8.499917391500003
 31
0.0
  0
LINE
  5
98
330
1E
100
AcDbEntity
  8
1
100
AcDbLine
 10
111.7700547591
 20
8.496682050100035
 30
0.0
 11
102.0030737970999
 21
8.496682050100037
 31
0.0
  0
LINE
  5
99
330
1E
100
AcDbEntity
  8
SK1
100
AcDbLine
 10
-18.0
 20
6.782329983100026
 30
0.0
 11
-30.0
 21
6.78232998310003
 31
0.0
  0
LINE
  5
9A
330
1E
100
AcDbEntity
  8
SK1
100
AcDbLine
 10
-39.0
 20
6.782329983100031
 30
0.0
 11
-54.8
 21
6.782329983100034
 31
0.0
  0
LINE
  5
9B
330
1E
100
AcDbEntity
  8
1
100
AcDbLine
 10
60.8237746009
 20
8.512468778300013
 30
0.0
 11
61.1766659609
 21
8.499999999999991
 31
0.0
  0
LINE
  5
9C
330
1E
100
AcDbEntity
  8
1
100
AcDbLine
 10
60.8237746009
 20
8.512468778300013
 30
0.0
 11
8.176225399199982
 21
12.23753122179998
 31
0.0
  0
LINE
  5
9E
330
1E
100
AcDbEntity
  8
1
100
AcDbLine
 10
115.015724
 20
1.500356450700004
 30
0.0
 11
111.015724
 21
1.500356450700004
 31
0.0
  0
LINE
  5
9F
330
1E
100
AcDbEntity
  8
4
100
AcDbLine
 10
123.763492901349
 20
-0.000000000000017
 30
0.0
 11
0.0671099741691705
 21
0.0
 31
0.0
  0
LINE
  5
A0
330
1E
100
AcDbEntity
  8
1
100
AcDbLine
 10
60.8237746009
 20
-8.512468778199977
 30
0.0
 11
8.176225399199978
 21
-12.23753122169999
 31
0.0
  0
LINE
  5
A1
330
1E
100
AcDbEntity
  8
1
100
AcDbLine
 10
60.8237746009
 20
-8.512468778199977
 30
0.0
 11
61.1766659609
 21
-8.500000000000008
 31
0.0
  0
LINE
  5
A2
330
1E
100
AcDbEntity
  8
1
100
AcDbLine
 10
8.176225399199978
 20
-12.23753122169999
 30
0.0
 11
7.823334039099986
 21
-12.25
 31
0.0
  0
LINE
  5
A3
330
1E
100
AcDbEntity
  8
SK1
100
AcDbLine
 10
-18.0
 20
-6.782329983099963
 30
0.0
 11
-30.0
 21
-6.782329983099962
 31
0.0
  0
LINE
  5
A4
330
1E
100
AcDbEntity
  8
SK1
100
AcDbLine
 10
-39.0
 20
-6.782329983099962
 30
0.0
 11
-54.8
 21
-6.782329983099961
 31
0.0
  0
LINE
  5
A5
330
1E
100
AcDbEntity
  8
1
100
AcDbLine
 10
113.03394201
 20
-7.806626818400005
 30
0.0
 11
112.7576806265997
 21
-7.806626818400005
 31
0.0
  0
LINE
  5
A6
330
1E
100
AcDbEntity
  8
1
100
AcDbLine
 10
112.5869971922998
 20
-8.500000000000012
 30
0.0
 11
61.1766659609
 21
-8.500000000000008
 31
0.0
  0
LINE
  5
A7
330
1E
100
AcDbEntity
  8
1
100
AcDbLine
 10
7.823334039099986
 20
-12.25
 30
0.0
 11
0.1999999999999875
 21
-12.25
 31
0.0
  0
LINE
  5
A8
330
1E
100
AcDbEntity
  8
SK1
100
AcDbLine
 10
-0.0000000000000015
 20
-12.5
 30
0.0
 11
-54.8
 21
-12.49999999999999
 31
0.0
  0
LINE
  5
A9
330
1E
100
AcDbEntity
  8
1
100
AcDbLine
 10
8.176225399199982
 20
12.23753122179998
 30
0.0
 11
8.176225399199978
 21
-12.23753122169999
 31
0.0
  0
LINE
  5
AA
330
1E
100
AcDbEntity
  8
1
100
AcDbLine
 10
7.823334039099988
 20
12.24999999999999
 30
0.0
 11
7.823334039099986
 21
-12.25
 31
0.0
  0
LINE
  5
AB
330
1E
100
AcDbEntity
  8
1
100
AcDbLine
 10
0.1999999999999904
 20
12.25
 30
0.0
 11
0.1999999999999875
 21
-12.25
 31
0.0
  0
LINE
  5
AC
330
1E
100
AcDbEntity
  8
1
100
AcDbLine
 10
0.0000000000000015
 20
12.5
 30
0.0
 11
-0.0000000000000015
 21
-12.5
 31
0.0
  0
LINE
  5
AD
330
1E
100
AcDbEntity
  8
SK1
100
AcDbLine
 10
-18.0
 20
6.782329983100026
 30
0.0
 11
-18.0
 21
-6.782329983099963
 31
0.0
  0
LINE
  5
AE
330
1E
100
AcDbEntity
  8
SK1
100
AcDbLine
 10
-30.0
 20
6.78232998310003
 30
0.0
 11
-30.0
 21
-6.782329983099962
 31
0.0
  0
LINE
  5
AF
330
1E
100
AcDbEntity
  8
SK1
100
AcDbLine
 10
-39.0
 20
6.782329983100031
 30
0.0
 11
-39.0
 21
-6.782329983099962
 31
0.0
  0
LINE
  5
B0
330
1E
100
AcDbEntity
  8
SK1
100
AcDbLine
 10
-54.8
 20
12.5
 30
0.0
 11
-56.0
 21
11.3
 31
0.0
  0
LINE
  5
B1
330
1E
100
AcDbEntity
  8
SK1
100
AcDbLine
 10
-54.8
 20
-12.49999999999999
 30
0.0
 11
-56.0
 21
-11.29999999999999
 31
0.0
  0
LINE
  5
B2
330
1E
100
AcDbEntity
  8
SK1
100
AcDbLine
 10
-54.8
 20
6.782329983200017
 30
0.0
 11
-54.8
 21
12.5
 31
0.0
  0
LINE
  5
B3
330
1E
100
AcDbEntity
  8
SK1
100
AcDbLine
 10
-54.8
 20
-6.782329983099961
 30
0.0
 11
-54.8
 21
-12.49999999999999
 31
0.0
  0
LINE
  5
B4
330
1E
100
AcDbEntity
  8
SK1
100
AcDbLine
 10
-56.0
 20
11.2999969875
 30
0.0
 11
-56.0
 21
-11.29999698749999
 31
0.0
  0
ARC
  5
B6
330
1E
100
AcDbEntity
  8
1
100
AcDbCircle
 10
116.0157239999999
 20
5.000356450700004
 30
0.0
 40
4.991597085
100
AcDbArc
 50
294.3774491243997
 51
224.5220075037999
  0
CIRCLE
  5
B9
330
1E
100
AcDbEntity
  8
1
100
AcDbCircle
 10
116.0157239999999
 20
5.000356450700004
 30
0.0
 40
3.0699873031
  0
ARC
  5
BA
330
1E
100
AcDbEntity
  8
1
100
AcDbCircle
 10
116.0157239999999
 20
-5.000356450700011
 30
0.0
 40
4.991597085
100
AcDbArc
 50
224.5163043040999
 51
43.81960858150001
  0
ARC
  5
BC
330
1E
100
AcDbEntity
  8
1
100
AcDbCircle
 10
111.015724
 20
11.50035645069998
 30
0.0
 40
10.0
100
AcDbArc
 50
197.6523644442998
 51
270.0
  0
CIRCLE
  5
BD
330
1E
100
AcDbEntity
  8
1
100
AcDbCircle
 10
115.8743026437999
 20
-4.858935094399994
 30
0.0
 40
2.25
  0
ARC
  5
BE
330
1E
100
AcDbEntity
  8
1
100
AcDbCircle
 10
115.015724
 20
-3.499643549299991
 30
0.0
 40
5.0
100
AcDbArc
 50
4.545147958799891
 51
90.0
  0
ARC
  5
BF
330
1E
100
AcDbEntity
  8
1
100
AcDbCircle
 10
116.0157239999999
 20
-5.000356450700011
 30
0.0
 40
4.5
100
AcDbArc
 50
219.9479444775999
 51
227.5818836798999
  0
ARC
  5
C0
330
1E
100
AcDbEntity
  8
1
100
AcDbCircle
 10
115.015724
 20
3.499643549299984
 30
0.0
 40
5.0
100
AcDbArc
 50
315.5712936385
 51
336.9588566022998
  0
ARC
  5
C1
330
1E
100
AcDbEntity
  8
1
100
AcDbCircle
 10
0.1999999999999874
 20
-12.45
 30
0.0
 40
0.2
100
AcDbArc
 50
90.0
 51
180.0
  0
ARC
  5
C2
330
1E
100
AcDbEntity
  8
1
100
AcDbCircle
 10
116.0157239999999
 20
5.000356450700004
 30
0.0
 40
5.5
100
AcDbArc
 50
140.5284077758999
 51
213.0557311508999
  0
ARC
  5
C3
330
1E
100
AcDbEntity
  8
1
100
AcDbCircle
 10
116.0157239999999
 20
5.000356450700004
 30
0.0
 40
5.5
100
AcDbArc
 50
213.0579769923
 51
219.3849043311999
  0
ARC
  5
C4
330
1E
100
AcDbEntity
  8
1
100
AcDbCircle
 10
0.1999999999999905
 20
12.45
 30
0.0
 40
0.2
100
AcDbArc
 50
180.0
 51
270.0
  0
LWPOLYLINE
  5
234
330
1E
100
AcDbEntity
  8
1
100
AcDbPolyline
 90
      162
 70
     0
 43
0.0
 10
113.3035836454999
 20
-7.920329839199992
 10
113.352272438781
 20
-7.967794195452753
 10
113.4017646100448
 20
-8.014433705914232
 10
113.452045670276
 20
-8.060229764661173
 10
113.503101130457
 20
-8.105163765770312
 10
113.5549165263399
 20
-8.149217180571184
 10
113.607478019008
 20
-8.192373430809201
 10
113.660772427459
 20
-8.234617990262695
 10
113.714786601979
 20
-8.275936430302621
 10
113.7695073928549
 20
-8.316314322299994
 10
113.816963085832
 20
-8.350164441992884
 10
113.8649183091499
 20
-8.383304064421981
 10
113.9133631199219
 20
-8.415724306315043
 10
113.9622875752569
 20
-8.447416284399782
 10
114.0116817322659
 20
-8.47837111540395
 10
114.0615355655487
 20
-8.508580015451263
 10
114.111838501434
 20
-8.538034861142834
 10
114.162579742677
 20
-8.566727798403034
 10
114.213748491375
 20
-8.594650973948892
 10
114.2653339496279
 20
-8.621796534497441
 10
114.317325266807
 20
-8.648156681132393
 10
114.369711045428
 20
-8.673724178811141
 10
114.4224795642309
 20
-8.698492126339184
 10
114.4756190977259
 20
-8.722453626883352
 10
114.529117920426
 20
-8.745601783610513
 10
114.5829642801059
 20
-8.767929738928474
 10
114.637146019837
 20
-8.789431229250482
 10
114.691650668748
 20
-8.810100451782584
 10
114.746465747751
 20
-8.82993161578948
 10
114.801578777759
 20
-8.848918930535882
 10
114.8569772650938
 20
-8.867056632943985
 10
114.912648410432
 20
-8.884339539417963
 10
114.968579124526
 20
-8.900763016021382
 10
115.024756306691
 20
-8.916322450505564
 10
115.0811668562409
 20
-8.931013230621834
 10
115.1283444606329
 20
-8.942588670024674
 10
115.1756673342249
 20
-8.953555295793631
 10
115.2231276290119
 20
-8.963911128314903
 10
115.270717484762
 20
-8.973654219604663
 10
115.3184290412429
 20
-8.982782621679101
 10
115.3662544382229
 20
-8.99129438655439
 10
115.414185814553
 20
-8.999187569954431
 10
115.4622152433649
 20
-9.006460493470331
 10
115.510334689227
 20
-9.013111917896052
 10
115.5585361065359
 20
-9.019140645162702
 10
115.60681144969
 20
-9.024545477201394
 10
115.6551526730879
 20
-9.029325215943202
 10
115.703551730786
 20
-9.033478665967397
 10
115.752000543984
 20
-9.03700488577896
 10
115.8004909742428
 20
-9.039903394799202
 10
115.8490148768209
 20
-9.042173761166839
 10
115.897564106976
 20
-9.043815553020591
 10
115.946130519967
 20
-9.04482833849914
 10
115.9947059710399
 20
-9.045211687623414
 10
116.0432823138229
 20
-9.044965411239484
 10
116.091851398759
 20
-9.0440897951162
 10
116.1404050759199
 20
-9.04258518060716
 10
116.1889351953738
 20
-9.040451909065922
 10
116.237433607193
 20
-9.03769032184606
 10
116.2858921615908
 20
-9.034300761570532
 10
116.334302734575
 20
-9.030283795124862
 10
116.382657257339
 20
-9.025640469341734
 10
116.4309476681979
 20
-9.020371892943693
 10
116.479165905464
 20
-9.014479174653262
 10
116.52730390745
 20
-9.007963423193016
 10
116.5753536126409
 20
-9.000825748032951
 10
116.623307006703
 20
-8.993067462475872
 10
116.6711561862509
 20
-8.984690359203284
 10
116.7188932638419
 20
-8.975696299752224
 10
116.766510352028
 20
-8.966087145659711
 10
116.813999563364
 20
-8.955864758462782
 10
116.8613530105109
 20
-8.945030999984764
 10
116.90856287133
 20
-8.93358790657246
 10
116.965014406912
 20
-8.919055409088674
 10
117.021235005316
 20
-8.903653547084223
 10
117.0772115043869
 20
-8.887386788307431
 10
117.1329307419689
 20
-8.870259600506646
 10
117.1883796268659
 20
-8.852276592872531
 10
117.2435454599819
 20
-8.833443156183301
 10
117.2984156769149
 20
-8.813764949699502
 10
117.3529777133829
 20
-8.793247632925
 10
117.407219005103
 20
-8.771896865363713
 10
117.4611270564799
 20
-8.749718407076731
 10
117.5146898517609
 20
-8.726718720626681
 10
117.56789557985
 20
-8.702904568197544
 10
117.620732430412
 20
-8.678282713089062
 10
117.6731885931139
 20
-8.652859918600983
 10
117.725252311678
 20
-8.626643011092602
 10
117.776912349756
 20
-8.599639423461683
 10
117.8281577612279
 20
-8.571856927172571
 10
117.878977603131
 20
-8.543303297374393
 10
117.9293609325009
 20
-8.513986309216251
 10
117.97929684021
 20
-8.483913768165491
 10
118.0287749474818
 20
-8.453093954939713
 10
118.077785296502
 20
-8.421535527476715
 10
118.1263179410396
 20
-8.389247154097983
 10
118.174362934869
 20
-8.356237503124942
 10
118.2219103453169
 20
-8.322515252395053
 10
118.2767408474209
 20
-8.282284023286573
 10
118.3308670967089
 20
-8.241110076788642
 10
118.3842750367358
 20
-8.199008397743021
 10
118.4369506110579
 20
-8.155993970991431
 10
118.4888799852489
 20
-8.112081899327334
 10
118.5400505587649
 20
-8.067287941068514
 10
118.5904501572339
 20
-8.021628080943504
 10
118.6400666066879
 20
-7.975118303895982
 10
118.6888877508499
 20
-7.927774601485642
 10
118.736902233241
 20
-7.879613264351734
 10
118.7840998062219
 20
-7.830650997778716
 10
118.830470303734
 20
-7.78090453755644
 10
118.8760035597129
 20
-7.730390619474714
 10
118.9206895922049
 20
-7.679126024551253
 10
118.964519742073
 20
-7.627127858772801
 10
119.007485928585
 20
-7.574413370219491
 10
119.0495800734419
 20
-7.520999807568854
 10
119.0907941003799
 20
-7.466904419708222
 10
119.131120516037
 20
-7.412144515677874
 10
119.170553211537
 20
-7.356737547390152
 10
119.209086279078
 20
-7.300700987507032
 10
119.246713810855
 20
-7.244052308690463
 10
119.2834299395379
 20
-7.186808983089082
 10
119.31922982145
 20
-7.128988469868042
 10
119.3541096909499
 20
-7.070608214519292
 10
119.3880658337509
 20
-7.011685661883442
 10
119.4210945355669
 20
-6.952238256801072
 10
119.4531922052439
 20
-6.892283425853321
 10
119.4843565560199
 20
-6.831838402190181
 10
119.514586086047
 20
-6.770920302565401
 10
119.543879304231
 20
-6.709546242137474
 10
119.5722347194819
 20
-6.647733336064839
 10
119.5996510328209
 20
-6.585498647262331
 10
119.6261283407769
 20
-6.522858859146802
 10
119.651667355956
 20
-6.459830487597562
 10
119.676268793675
 20
-6.396430047756902
 10
119.6999333692509
 20
-6.332674054767112
 10
119.7226619834308
 20
-6.268578947422253
 10
119.7444569137729
 20
-6.204160597634142
 10
119.765321057427
 20
-6.139434622206992
 10
119.7852573145198
 20
-6.074416636719454
 10
119.8042685851778
 20
-6.009122256750161
 10
119.8223578786478
 20
-5.943567035169043
 10
119.839529432447
 20
-5.877765818992942
 10
119.855788257815
 20
-5.811733010600135
 10
119.871139378075
 20
-5.745483005426563
 10
119.8855878165469
 20
-5.679030198908202
 10
119.8991386234849
 20
-5.612388969138423
 10
119.9117977404339
 20
-5.545573120249551
 10
119.923572183994
 20
-5.478595764078153
 10
119.9344690348538
 20
-5.411469971190181
 10
119.9444953737009
 20
-5.344208812151642
 10
119.9536582813439
 20
-5.276825357391761
 10
119.961965243048
 20
-5.209332215980275
 10
119.969425051372
 20
-5.141740505773433
 10
119.976046762516
 20
-5.074061043898595
 10
119.9818394326779
 20
-5.006304647483083
 10
119.9868121180569
 20
-4.938482133654254
 10
119.990973955569
 20
-4.870604317751393
 10
119.994335141739
 20
-4.802681991642214
 10
119.997210145881
 20
-4.725015796373574
 10
119.9990700507649
 20
-4.647321623206915
 10
119.999931213594
 20
-4.569615556105674
 10
119.999999999992
 20
-4.540485997300073
  0
LWPOLYLINE
  5
2D8
330
1E
100
AcDbEntity
  8
1
100
AcDbPolyline
 90
      124
 70
     0
 43
0.0
 10
112.5658974362
 20
-7.889767580899992
 10
112.565122108325
 20
-7.888820664528732
 10
112.5645168300289
 20
-7.888049063671132
 10
112.5639263387059
 20
-7.887264892893282
 10
112.563351989304
 20
-7.88646809196978
 10
112.5627951367669
 20
-7.885658600675273
 10
112.5622571360439
 20
-7.884836358784344
 10
112.5618668220889
 20
-7.884211273557922
 10
112.561488446055
 20
-7.883578956836652
 10
112.5611225795589
 20
-7.882939383212963
 10
112.56076979422
 20
-7.882292527279242
 10
112.5604306616559
 20
-7.881638363627931
 10
112.5601057534848
 20
-7.880976866851431
 10
112.5597956413249
 20
-7.880308011542152
 10
112.5595008967939
 20
-7.879631772292531
 10
112.5592220915089
 20
-7.878948123826272
 10
112.5589597956939
 20
-7.878257172839361
 10
112.558714575569
 20
-7.877559406057763
 10
112.558486996633
 20
-7.876855378199342
 10
112.558277624387
 20
-7.876145643981972
 10
112.558087024331
 20
-7.875430758123522
 10
112.557915761968
 20
-7.874711275341862
 10
112.5577644027959
 20
-7.873987750354862
 10
112.557633512318
 20
-7.873260737880392
 10
112.5575236560329
 20
-7.872530792636322
 10
112.557435399442
 20
-7.871798469340511
 10
112.5573888408049
 20
-7.871309206604882
 10
112.5573523009218
 20
-7.870819297859494
 10
112.5573259473479
 20
-7.870328907465201
 10
112.5573099476389
 20
-7.869838199782862
 10
112.5573044693509
 20
-7.869347339173311
 10
112.557309680039
 20
-7.868856489997414
 10
112.557325717675
 20
-7.86836581866398
 10
112.557352517257
 20
-7.867875505632571
 10
112.557389928598
 20
-7.867385737259461
 10
112.557437801221
 20
-7.866896699921142
 10
112.5574959846479
 20
-7.866408579994102
 10
112.557564328401
 20
-7.865921563854862
 10
112.5576426820019
 20
-7.865435837879902
 10
112.557730894975
 20
-7.864951588445732
 10
112.557881371583
 20
-7.864228390507045
 10
112.558053185339
 20
-7.863509563152911
 10
112.558245828379
 20
-7.862795735404044
 10
112.5584587928408
 20
-7.862087536281112
 10
112.558691570862
 20
-7.861385594804791
 10
112.558943654581
 20
-7.860690539995774
 10
112.559214536134
 20
-7.860003000874744
 10
112.5595037076599
 20
-7.859323606462376
 10
112.5598106573469
 20
-7.858652963432245
 10
112.56013480958
 20
-7.857991317283432
 10
112.5604755370849
 20
-7.857338621107044
 10
112.560832211103
 20
-7.856694819592973
 10
112.561204202876
 20
-7.856059857431112
 10
112.561590883647
 20
-7.855433679311372
 10
112.5619916246559
 20
-7.854816229923633
 10
112.562405797146
 20
-7.854207453957803
 10
112.5628327723579
 20
-7.853607296103771
 10
112.5632719215349
 20
-7.853015701051442
 10
112.563722615917
 20
-7.852432613490702
 10
112.564340414228
 20
-7.851668301687822
 10
112.564976129168
 20
-7.850918884879932
 10
112.565628270347
 20
-7.850184231961611
 10
112.566295386835
 20
-7.849464202044651
 10
112.5669765309549
 20
-7.848758529473652
 10
112.567671102194
 20
-7.848066862524291
 10
112.5683785069249
 20
-7.847388847765213
 10
112.569098151519
 20
-7.846724131765062
 10
112.570014015215
 20
-7.845911399714022
 10
112.570946916724
 20
-7.845118204441662
 10
112.571895696618
 20
-7.844343855652371
 10
112.572859195466
 20
-7.843587663050521
 10
112.5738362538409
 20
-7.842848936340472
 10
112.5748257123109
 20
-7.84212698522661
 10
112.575826411448
 20
-7.841421119413312
 10
112.5770406704108
 20
-7.840594421746442
 10
112.5782687229158
 20
-7.839789180674152
 10
112.5795098411829
 20
-7.839004682355581
 10
112.580763297437
 20
-7.838240212949874
 10
112.582028363899
 20
-7.837495058616161
 10
112.5833043127909
 20
-7.836768505513592
 10
112.5848057030839
 20
-7.835943417778014
 10
112.5863197593039
 20
-7.835141543215253
 10
112.5878453257669
 20
-7.834361748272472
 10
112.5893812467899
 20
-7.833602899396812
 10
112.5911479212948
 20
-7.832759941616792
 10
112.592925889884
 20
-7.831941916937112
 10
112.5947145266938
 20
-7.831147951537982
 10
112.59651320598
 20
-7.830377171688042
 10
112.5985479449519
 20
-7.829536670435664
 10
112.600593711023
 20
-7.828723163534424
 10
112.6026496132429
 20
-7.827935406941012
 10
112.604944753472
 20
-7.82708880971304
 10
112.6072500855068
 20
-7.826270760783562
 10
112.6097964763719
 20
-7.825402084702091
 10
112.6123531606119
 20
-7.824564825211982
 10
112.6149194859989
 20
-7.823757815664012
 10
112.617729342974
 20
-7.822910570667175
 10
112.62054905073
 20
-7.822096422564553
 10
112.6236138683639
 20
-7.821250021018712
 10
112.6269250240879
 20
-7.820377754553704
 10
112.630245861308
 20
-7.819543864761392
 10
112.633813583432
 20
-7.818690948658919
 10
112.63739061373
 20
-7.817878407314043
 10
112.6412155733709
 20
-7.817054425055442
 10
112.6452893504259
 20
-7.816225178853192
 10
112.649372168512
 20
-7.815441322313554
 10
112.65370385952
 20
-7.814658283352744
 10
112.6582846826799
 20
-7.813881335241172
 10
112.6631151146858
 20
-7.813116293953153
 10
112.668195612837
 20
-7.812369054597801
 10
112.673526444325
 20
-7.811645250318012
 10
112.679107654962
 20
-7.810950170625182
 10
112.684939037066
 20
-7.810288677225332
 10
112.691020298296
 20
-7.809665560160111
 10
112.697107786228
 20
-7.809107289913512
 10
112.703444564234
 20
-7.808592993221334
 10
112.710030411174
 20
-7.808127718091892
 10
112.717109089841
 20
-7.807702775816532
 10
112.724436107832
 20
-7.807341097714332
 10
112.7320108482549
 20
-7.807047705195702
 10
112.7398326302179
 20
-7.806827823130393
 10
112.74790058629
 20
-7.806686415398822
 10
112.756213646289
 20
-7.806628141866021
 10
112.757670626599
 20
-7.806626818461362
  0
LWPOLYLINE
  5
356
330
1E
100
AcDbEntity
  8
1
100
AcDbPolyline
 90
       83
 70
     0
 43
0.0
 10
112.5874693795
 20
-8.500000578799994
 10
112.597426537383
 20
-8.499947720558973
 10
112.606931286726
 20
-8.499794335246054
 10
112.6159822066689
 20
-8.499551885710221
 10
112.6250306169239
 20
-8.499212679416134
 10
112.633623102
 20
-8.498798358743664
 10
112.6422110419539
 20
-8.498291973961034
 10
112.650793325954
 20
-8.497691215284133
 10
112.6589176868339
 20
-8.497032928197121
 10
112.6670350299719
 20
-8.496285902899701
 10
112.6746940190459
 20
-8.495497034247915
 10
112.6823444297949
 20
-8.494624934040034
 10
112.689984725482
 20
-8.493667214924068
 10
112.6971649756189
 20
-8.492685481666299
 10
112.704333623135
 20
-8.49162380084004
 10
112.711042553257
 20
-8.49055409640054
 10
112.7177391039579
 20
-8.48941073611787
 10
112.7244222195249
 20
-8.488192079947403
 10
112.7310908442449
 20
-8.486896487844513
 10
112.7373008886999
 20
-8.485616408437744
 10
112.7434965320409
 20
-8.484266547207282
 10
112.7496769159339
 20
-8.482845570736103
 10
112.755841140923
 20
-8.481352132230622
 10
112.7615493696749
 20
-8.479899164656153
 10
112.767241043191
 20
-8.478381111030531
 10
112.7729147497488
 20
-8.476796668089974
 10
112.778569077627
 20
-8.475144532570704
 10
112.783770036318
 20
-8.473558275145661
 10
112.788952169755
 20
-8.471912203311433
 10
112.79411436758
 20
-8.470205292015744
 10
112.799255519438
 20
-8.468436516206335
 10
112.804374514971
 20
-8.466604850830924
 10
112.809470243822
 20
-8.464709270837271
 10
112.814119941145
 20
-8.462914633159742
 10
112.818748299727
 20
-8.461064638568933
 10
112.8233544643099
 20
-8.459158497513584
 10
112.8279375742639
 20
-8.457195423169352
 10
112.832496539185
 20
-8.455174745343111
 10
112.8370299574799
 20
-8.453095951798811
 10
112.8415364054289
 20
-8.450958541531543
 10
112.8460144593109
 20
-8.448762013536423
 10
112.850462695407
 20
-8.446505866808562
 10
112.8548796899959
 20
-8.444189600343051
 10
112.858866831204
 20
-8.442031311954073
 10
112.862825906694
 20
-8.439822547365494
 10
112.8667558468058
 20
-8.437562930164901
 10
112.870655581878
 20
-8.435252083939923
 10
112.874524042246
 20
-8.432889632278154
 10
112.878360158251
 20
-8.430475198767211
 10
112.882162860229
 20
-8.428008406994692
 10
112.885931078518
 20
-8.425488880548211
 10
112.889663743458
 20
-8.422916243024994
 10
112.893359782955
 20
-8.420290250737123
 10
112.8970181163839
 20
-8.417611126038064
 10
112.900637661248
 20
-8.414879193523692
 10
112.904217335048
 20
-8.412094777789851
 10
112.9077560552889
 20
-8.409258203432411
 10
112.911252739471
 20
-8.406369795047231
 10
112.9147063050989
 20
-8.403429877230163
 10
112.918115669673
 20
-8.400438774577065
 10
112.9214797506969
 20
-8.397396811683803
 10
112.9247974656729
 20
-8.394304313146234
 10
112.9283921073999
 20
-8.390844583490894
 10
112.9319278955839
 20
-8.387324530504011
 10
112.9350899648229
 20
-8.384072499188834
 10
112.9382011215259
 20
-8.380771295531951
 10
112.9412602832659
 20
-8.377421244234621
 10
112.9442665023089
 20
-8.374022864992433
 10
112.9472192447289
 20
-8.370577276580572
 10
112.9501180558049
 20
-8.367085712444572
 10
112.9529624808168
 20
-8.363549406029942
 10
112.955752065046
 20
-8.359969590782213
 10
112.9584863537719
 20
-8.356347500146902
 10
112.9611648922739
 20
-8.352684367569523
 10
112.963787225833
 20
-8.348981426495601
 10
112.966098894983
 20
-8.345615762707254
 10
112.9683643383159
 20
-8.342219752309363
 10
112.9705832243389
 20
-8.338794294483705
 10
112.972755221563
 20
-8.335340288412073
 10
112.974879998497
 20
-8.331858633276253
 10
112.9769572236499
 20
-8.328350228258022
 10
112.97898656553
 20
-8.324815972539173
 10
112.980307850312
 20
-8.322454632914494
  0
LWPOLYLINE
  5
3AB
330
1E
100
AcDbEntity
  8
1
100
AcDbPolyline
 90
       15
 70
     0
 43
0.0
 10
111.7647697178999
 20
1.510458502200024
 10
111.776361044482
 20
1.508899995739094
 10
111.787692296713
 20
1.507494790301165
 10
111.7987612239149
 20
1.506236962926753
 10
111.809704359018
 20
1.505106832547054
 10
111.820381494233
 20
1.504114595312735
 10
111.8309297226129
 20
1.503243128578325
 10
111.841208805426
 20
1.502499547038655
 10
111.851356116366
 20
1.501869693480404
 10
111.8612310201499
 20
1.501358379430604
 10
111.870831930243
 20
1.500959502425564
 10
111.880296666207
 20
1.500663150650813
 10
111.889484869594
 20
1.500469397745814
 10
111.8985347091119
 20
1.500370895924806
 10
111.9035369609999
 20
1.500356450757715
  0
LWPOLYLINE
  5
3BC
330
1E
100
AcDbEntity
  8
1
100
AcDbPolyline
 90
       65
 70
     0
 43
0.0
 10
113.3035836454999
 20
-7.920329839199992
 10
113.299074247971
 20
-7.915926389124272
 10
113.294497356067
 20
-7.911591284336632
 10
113.2900766317219
 20
-7.907527488588794
 10
113.2855965657949
 20
-7.903528266950062
 10
113.281058074288
 20
-7.899594879380511
 10
113.276693224971
 20
-7.895920287583375
 10
113.2722772586189
 20
-7.892307328405871
 10
113.267810959797
 20
-7.888757076806812
 10
113.2635339973409
 20
-7.885452402095554
 10
113.259213191229
 20
-7.882205611686312
 10
113.2548491814119
 20
-7.879017438264292
 10
113.2504426078399
 20
-7.875888614514672
 10
113.245994110464
 20
-7.872819873122651
 10
113.2417548337069
 20
-7.869977445877952
 10
113.2374792718799
 20
-7.867189881379294
 10
113.233167964428
 20
-7.864457796807923
 10
113.228821496352
 20
-7.861781802826901
 10
113.2244405438119
 20
-7.859162497056282
 10
113.2200257938259
 20
-7.856600475562522
 10
113.215840476506
 20
-7.854242023932142
 10
113.2116264023059
 20
-7.851935340415432
 10
113.207384143996
 20
-7.849680921956882
 10
113.2031142743479
 20
-7.847479265500982
 10
113.1988173661329
 20
-7.845330867992222
 10
113.1944939930839
 20
-7.843236225353832
 10
113.190144761443
 20
-7.841195798932782
 10
113.185770317089
 20
-7.839210007918862
 10
113.18164695375
 20
-7.837398319395702
 10
113.177502534751
 20
-7.835635359750794
 10
113.173337594262
 20
-7.833921472279682
 10
113.169152666451
 20
-7.832257000277901
 10
113.1649482854889
 20
-7.830642287041013
 10
113.1607249855439
 20
-7.829077675864552
 10
113.156483300827
 20
-7.827563510004612
 10
113.1522237848409
 20
-7.826100113482972
 10
113.147947041404
 20
-7.824687760173633
 10
113.143653682426
 20
-7.823326715880901
 10
113.139344319819
 20
-7.822017246409112
 10
113.135308349035
 20
-7.820841841337006
 10
113.1312594678618
 20
-7.819711811318332
 10
113.1271981738059
 20
-7.818627372461842
 10
113.1231249643749
 20
-7.817588740876272
 10
113.119040337074
 20
-7.816596132670402
 10
113.11494478946
 20
-7.815649763174601
 10
113.1108388211899
 20
-7.814749814961942
 10
113.106722934738
 20
-7.81389642654841
 10
113.1025976327819
 20
-7.813089733349222
 10
113.098463417997
 20
-7.812329870779632
 10
113.0943207930579
 20
-7.811616974254862
 10
113.090170260642
 20
-7.810951179190134
 10
113.086012323423
 20
-7.810332621000702
 10
113.0818474840789
 20
-7.809761435101782
 10
113.0776762452829
 20
-7.80923775690862
 10
113.073499111485
 20
-7.808761720744246
 10
113.0693166490398
 20
-7.808333422773782
 10
113.0651295009089
 20
-7.807952911948111
 10
113.060938314801
 20
-7.807620234288792
 10
113.0567437384287
 20
-7.807335435817414
 10
113.0525464195039
 20
-7.807098562555544
 10
113.048347005739
 20
-7.806909660524753
 10
113.0441461448429
 20
-7.806768775746633
 10
113.039944484529
 20
-7.806675954242744
 10
113.0357426725089
 20
-7.806631242034672
 10
113.0339520100019
 20
-7.806626818536464
  0
LWPOLYLINE
  5
3FF
330
1E
100
AcDbEntity
  8
SK1
100
AcDbPolyline
 90
       52
 70
     0
 43
0.0
 10
-18.0
 20
-6.782329983099963
 10
-17.9152671520134
 20
-6.649317625985037
 10
-17.83221429037999
 20
-6.515238881070287
 10
-17.75085707197209
 20
-6.380119123551146
 10
-17.6712111504481
 20
-6.243983725302449
 10
-17.59329105867489
 20
-6.106856900262937
 10
-17.52053355211868
 20
-5.975057889735785
 10
-17.4493691476958
 20
-5.842393199924762
 10
-17.37980771960969
 20
-5.708881040375417
 10
-17.3118590994688
 20
-5.574540189524346
 10
-17.2455330436364
 20
-5.439390430768667
 10
-17.1808393007902
 20
-5.303451650148118
 10
-17.1177876050723
 20
-5.166743734795068
 10
-17.0563872031527
 20
-5.029286608484786
 10
-16.99945376574708
 20
-4.897696784155228
 10
-16.9440333965652
 20
-4.765462766833568
 10
-16.8901335240628
 20
-4.632601817513198
 10
-16.8377612137054
 20
-4.499131393674556
 10
-16.7869231861442
 20
-4.365069139446616
 10
-16.7376261483872
 20
-4.230432706343115
 10
-16.68987677700529
 20
-4.095239755622706
 10
-16.643681310666
 20
-3.959508088743106
 10
-16.59904565968539
 20
-3.823255612286967
 10
-16.5559757264237
 20
-3.686500235384166
 10
-16.5144773554565
 20
-3.549259885435346
 10
-16.47455590663328
 20
-3.411552643105745
 10
-16.43621649773638
 20
-3.273396665599377
 10
-16.3994642447612
 20
-3.134810110685226
 10
-16.36602426609448
 20
-3.002770624676386
 10
-16.3340250457244
 20
-2.870374660378805
 10
-16.30347029221919
 20
-2.737637954273544
 10
-16.2743637141413
 20
-2.604576242843138
 10
-16.24670890128469
 20
-2.471205291207504
 10
-16.2205089931514
 20
-2.337540973061154
 10
-16.1957670225454
 20
-2.203599187825646
 10
-16.17248602211069
 20
-2.069395834932806
 10
-16.150668870217
 20
-1.934946823738274
 10
-16.1303180031739
 20
-1.800268092033596
 10
-16.1114357786115
 20
-1.665375582671418
 10
-16.0940245526106
 20
-1.530285239309956
 10
-16.0780864733046
 20
-1.395013113745686
 10
-16.06362327343489
 20
-1.259575473790248
 10
-16.0506366363675
 20
-1.123988612931644
 10
-16.0391282387187
 20
-0.9882688152087427
 10
-16.0290994814485
 20
-0.8524319787627558
 10
-16.0205513995638
 20
-0.716493489428958
 10
-16.01348500280669
 20
-0.5804686976738413
 10
-16.0079012811955
 20
-0.4443730645032212
 10
-16.00380087752669
 20
-0.3082239968854992
 10
-16.001184137872
 20
-0.172040564746827
 10
-16.0000513987571
 20
-0.0358418915131113
 10
-16.000000000004
 20
-0.0000100000000216
  0
LWPOLYLINE
  5
435
330
1E
100
AcDbEntity
  8
SK1
100
AcDbPolyline
 90
       52
 70
     0
 43
0.0
 10
-16.0
 20
0.000000000000002
 10
-16.0007421567173
 20
0.136199505400564
 10
-16.0029684025219
 20
0.2723888018782368
 10
-16.0066784008929
 20
0.4085487660185371
 10
-16.01187181468938
 20
0.544660277881658
 10
-16.01854812640739
 20
0.6807052284019861
 10
-16.0267063889371
 20
0.8166679163081788
 10
-16.036345592578
 20
0.9525329911277378
 10
-16.0474647230059
 20
1.08828509591493
 10
-16.0600625110145
 20
1.223908516906917
 10
-16.07413730478199
 20
1.359387004704957
 10
-16.0896874209867
 20
1.49470426581281
 10
-16.1067111624767
 20
1.62984401392672
 10
-16.12520651012189
 20
1.764790130192789
 10
-16.145171120638
 20
1.899526664338227
 10
-16.16660263647569
 20
2.034037673509009
 10
-16.1894986726328
 20
2.168307216616609
 10
-16.2138564711902
 20
2.302319376554951
 10
-16.239673005365
 20
2.436058253508661
 10
-16.26694524243299
 20
2.56950794804448
 10
-16.2956701077233
 20
2.70265257084184
 10
-16.3258441217828
 20
2.835476330166891
 10
-16.35746357862609
 20
2.967963488899151
 10
-16.3905247697821
 20
3.100098310517501
 10
-16.4268794356251
 20
3.238789672118191
 10
-16.464822534955
 20
3.377054996116431
 10
-16.50434895319628
 20
3.51487612440558
 10
-16.54545357445719
 20
3.652234899206268
 10
-16.5881311559028
 20
3.789113202873821
 10
-16.63237593055999
 20
3.925493083476672
 10
-16.6781819961984
 20
4.061356631846456
 10
-16.7255434502156
 20
4.19668593893409
 10
-16.77445419251617
 20
4.331463158915052
 10
-16.8249076013224
 20
4.465670612974419
 10
-16.87689696971348
 20
4.599290649554587
 10
-16.93041558925498
 20
4.73230561791725
 10
-16.98545652801528
 20
4.864697988306049
 10
-17.04201239639139
 20
4.99645047870761
 10
-17.10301835426109
 20
5.134083046219362
 10
-17.1656776867918
 20
5.270971155628719
 10
-17.2299813469479
 20
5.407094868117837
 10
-17.2959196411275
 20
5.542434293476111
 10
-17.3634828207345
 20
5.6769695456272
 10
-17.4326611348865
 20
5.810680769026911
 10
-17.5034447741021
 20
5.943548890654757
 10
-17.57582386675309
 20
6.075555667400291
 10
-17.649788538214
 20
6.206682896172647
 10
-17.7289650820787
 20
6.343090942871651
 10
-17.8098571357668
 20
6.478490210240361
 10
-17.89244910244669
 20
6.612855385062092
 10
-17.97672532525099
 20
6.746161092095601
 10
-17.9999945741394
 20
6.78232158309783
  0
LWPOLYLINE
  5
46B
330
1E
100
AcDbEntity
  8
SK1
100
AcDbPolyline
 90
       52
 70
     0
 43
0.0
 10
-30.0
 20
-6.782329983099962
 10
-30.08473284798649
 20
-6.649317625985682
 10
-30.1677857096201
 20
-6.515238881071672
 10
-30.24914292802761
 20
-6.380119123553122
 10
-30.3287888495504
 20
-6.243983725304595
 10
-30.40670894132139
 20
-6.106856900264872
 10
-30.4794664478761
 20
-5.97505788973774
 10
-30.55063085229949
 20
-5.842393199927592
 10
-30.62019228038959
 20
-5.708881040380612
 10
-30.6881409005372
 20
-5.574540189532994
 10
-30.7544669563736
 20
-5.439390430779655
 10
-30.81916069921529
 20
-5.303451650157914
 10
-30.8822123949149
 20
-5.166743734797865
 10
-30.9436127968046
 20
-5.029286608475733
 10
-31.000546234182
 20
-4.897696784134784
 10
-31.05596660334709
 20
-4.76546276680613
 10
-31.1098664758542
 20
-4.632601817487355
 10
-31.1622387862359
 20
-4.499131393658243
 10
-31.21307681382759
 20
-4.365069139442511
 10
-31.26237385160679
 20
-4.230432706348526
 10
-31.31012322298969
 20
-4.095239755629831
 10
-31.35631868930889
 20
-3.959508088744226
 10
-31.4009543402585
 20
-3.823255612278185
 10
-31.44402427348889
 20
-3.686500235365544
 10
-31.4855226444342
 20
-3.549259885410553
 10
-31.5254440932484
 20
-3.411552643079243
 10
-31.5637835021496
 20
-3.273396665575043
 10
-31.60053575514279
 20
-3.134810110666323
 10
-31.6339757338381
 20
-3.002770624664903
 10
-31.66597495423999
 20
-2.870374660375213
 10
-31.6965297077705
 20
-2.737637954276352
 10
-31.7256362858575
 20
-2.604576242848884
 10
-31.7532910987005
 20
-2.471205291211505
 10
-31.7794910068055
 20
-2.337540973060294
 10
-31.8042329773793
 20
-2.203599187819063
 10
-31.827513977789
 20
-2.069395834921893
 10
-31.849331129672
 20
-1.934946823725925
 10
-31.86968199671539
 20
-1.800268092021955
 10
-31.88856422128409
 20
-1.665375582661545
 10
-31.905975447292
 20
-1.530285239301826
 10
-31.921913526602
 20
-1.395013113738575
 10
-31.9363767264723
 20
-1.259575473783596
 10
-31.9493633635367
 20
-1.123988612925163
 10
-31.96087176117879
 20
-0.9882688152024231
 10
-31.97090051844099
 20
-0.8524319787567451
 10
-31.9794486003221
 20
-0.7164934894234662
 10
-31.9865149970858
 20
-0.5804686976691251
 10
-31.9920987187192
 20
-0.4443730644995782
 10
-31.99619912242138
 20
-0.3082239968831191
 10
-31.9988158621085
 20
-0.1720405647456611
 10
-31.99994860124188
 20
-0.0358418915128729
 10
-31.999999999996
 20
-0.0000100000000197
  0
LWPOLYLINE
  5
4A1
330
1E
100
AcDbEntity
  8
SK1
100
AcDbPolyline
 90
       52
 70
     0
 43
0.0
 10
-32.0
 20
0.0000000000000039
 10
-31.999257843283
 20
0.1361995054004479
 10
-31.9970315974788
 20
0.272388801878026
 10
-31.99332159910779
 20
0.4085487660181681
 10
-31.98812818531028
 20
0.5446602778809832
 10
-31.98145187359048
 20
0.6807052284008642
 10
-31.9732936110596
 20
0.8166679163066959
 10
-31.9636544074195
 20
0.9525329911262351
 10
-31.95253527699631
 20
1.088285095914004
 10
-31.9399374889948
 20
1.223908516906942
 10
-31.92586269523129
 20
1.35938700470545
 10
-31.9103125790215
 20
1.494704265812323
 10
-31.8932888375115
 20
1.629844013922929
 10
-31.8747934898346
 20
1.764790130183903
 10
-31.8548288792867
 20
1.899526664324373
 10
-31.8333973634291
 20
2.034037673492314
 10
-31.810501327275
 20
2.168307216601024
 10
-31.78614352874149
 20
2.302319376543954
 10
-31.7603269945993
 20
2.436058253503609
 10
-31.7330547575607
 20
2.569507948044563
 10
-31.7043298922856
 20
2.702652570844293
 10
-31.6741558782277
 20
2.835476330169211
 10
-31.6425364213792
 20
2.967963488900302
 10
-31.6094752302182
 20
3.100098310517901
 10
-31.5731205643765
 20
3.238789672119593
 10
-31.53517746505199
 20
3.377054996119551
 10
-31.4956510468127
 20
3.514876124408953
 10
-31.45454642554299
 20
3.652234899206163
 10
-31.4118688440736
 20
3.789113202865324
 10
-31.367624069386
 20
3.925493083457713
 10
-31.3218180037218
 20
4.061356631818973
 10
-31.2744565496952
 20
4.196685938903911
 10
-31.22554580740759
 20
4.331463158890071
 10
-31.1750923986283
 20
4.465670612959453
 10
-31.12310303026729
 20
4.599290649550551
 10
-31.0695844107479
 20
4.732305617921211
 10
-31.01454347199601
 20
4.864697988312919
 10
-30.9579876036185
 20
4.996450478713782
 10
-30.89698164574219
 20
5.134083046222976
 10
-30.8343223132058
 20
5.270971155630038
 10
-30.7700186530479
 20
5.407094868118288
 10
-30.704080358869
 20
5.542434293476662
 10
-30.6365171792639
 20
5.676969545628272
 10
-30.56733886511339
 20
5.810680769028352
 10
-30.49655522589818
 20
5.943548890656181
 10
-30.4241761332471
 20
6.075555667401462
 10
-30.3502114617857
 20
6.206682896173486
 10
-30.2710349179208
 20
6.343090942872202
 10
-30.19014286423269
 20
6.478490210240744
 10
-30.107550897553
 20
6.612855385062351
 10
-30.0232746747489
 20
6.746161092095762
 10
-30.0000054258606
 20
6.78232158309783
  0
LWPOLYLINE
  5
4D7
330
1E
100
AcDbEntity
  8
SK1
100
AcDbPolyline
 90
       52
 70
     0
 43
0.0
 10
-39.0
 20
-6.782329983099962
 10
-38.9152671520134
 20
-6.649317625985022
 10
-38.83221429038
 20
-6.515238881070285
 10
-38.75085707197209
 20
-6.380119123551142
 10
-38.6712111504481
 20
-6.243983725302445
 10
-38.5932910586749
 20
-6.106856900262934
 10
-38.5205335521187
 20
-5.975057889735785
 10
-38.44936914769579
 20
-5.842393199924752
 10
-38.3798077196097
 20
-5.708881040375406
 10
-38.3118590994688
 20
-5.57454018952434
 10
-38.24553304363639
 20
-5.439390430768662
 10
-38.18083930079018
 20
-5.303451650148113
 10
-38.1177876050723
 20
-5.166743734795065
 10
-38.0563872031527
 20
-5.029286608484783
 10
-37.99945376574711
 20
-4.897696784155222
 10
-37.94403339656521
 20
-4.765462766833563
 10
-37.89013352406279
 20
-4.632601817513195
 10
-37.83776121370539
 20
-4.49913139367455
 10
-37.78692318614421
 20
-4.365069139446613
 10
-37.73762614838718
 20
-4.230432706343115
 10
-37.68987677700529
 20
-4.0952397556227
 10
-37.643681310666
 20
-3.959508088743113
 10
-37.5990456596854
 20
-3.823255612286962
 10
-37.55597572642371
 20
-3.686500235384163
 10
-37.51447735545649
 20
-3.549259885435345
 10
-37.4745559066333
 20
-3.411552643105741
 10
-37.43621649773638
 20
-3.273396665599372
 10
-37.39946424476118
 20
-3.134810110685223
 10
-37.3660242660944
 20
-3.002770624676383
 10
-37.3340250457244
 20
-2.870374660378803
 10
-37.3034702922192
 20
-2.737637954273542
 10
-37.27436371414128
 20
-2.604576242843134
 10
-37.24670890128471
 20
-2.471205291207502
 10
-37.22050899315139
 20
-2.337540973061154
 10
-37.19576702254538
 20
-2.203599187825643
 10
-37.1724860221107
 20
-2.069395834932805
 10
-37.150668870217
 20
-1.934946823738274
 10
-37.1303180031739
 20
-1.800268092033594
 10
-37.1114357786115
 20
-1.665375582671414
 10
-37.09402455261059
 20
-1.530285239309954
 10
-37.0780864733046
 20
-1.395013113745684
 10
-37.0636232734349
 20
-1.259575473790245
 10
-37.05063663636749
 20
-1.123988612931644
 10
-37.03912823871871
 20
-0.9882688152087403
 10
-37.02909948144849
 20
-0.8524319787627533
 10
-37.0205513995638
 20
-0.7164934894289564
 10
-37.0134850028067
 20
-0.5804686976738385
 10
-37.0079012811955
 20
-0.4443730645032184
 10
-37.0038008775267
 20
-0.3082239968854965
 10
-37.001184137872
 20
-0.1720405647468245
 10
-37.0000513987571
 20
-0.0358418915131087
 10
-37.000000000004
 20
-0.0000100000000191
  0
LWPOLYLINE
  5
50D
330
1E
100
AcDbEntity
  8
SK1
100
AcDbPolyline
 90
       52
 70
     0
 43
0.0
 10
-37.0
 20
0.0000000000000045
 10
-37.0007421567173
 20
0.1361995054005665
 10
-37.00296840252189
 20
0.2723888018782394
 10
-37.0066784008929
 20
0.4085487660185398
 10
-37.0118718146894
 20
0.5446602778816596
 10
-37.01854812640739
 20
0.6807052284019878
 10
-37.0267063889371
 20
0.8166679163081827
 10
-37.036345592578
 20
0.9525329911277403
 10
-37.0474647230059
 20
1.08828509591493
 10
-37.0600625110145
 20
1.223908516906922
 10
-37.07413730478199
 20
1.35938700470496
 10
-37.08968742098671
 20
1.494704265812814
 10
-37.1067111624767
 20
1.629844013926724
 10
-37.12520651012189
 20
1.764790130192793
 10
-37.145171120638
 20
1.899526664338233
 10
-37.1666026364757
 20
2.034037673509013
 10
-37.1894986726328
 20
2.168307216616613
 10
-37.21385647119018
 20
2.302319376554954
 10
-37.239673005365
 20
2.436058253508663
 10
-37.26694524243299
 20
2.569507948044484
 10
-37.29567010772329
 20
2.702652570841844
 10
-37.3258441217828
 20
2.835476330166891
 10
-37.3574635786261
 20
2.967963488899153
 10
-37.3905247697821
 20
3.100098310517501
 10
-37.4268794356251
 20
3.238789672118194
 10
-37.464822534955
 20
3.377054996116433
 10
-37.5043489531963
 20
3.514876124405583
 10
-37.54545357445717
 20
3.652234899206271
 10
-37.58813115590279
 20
3.789113202873823
 10
-37.63237593056
 20
3.925493083476673
 10
-37.67818199619838
 20
4.061356631846462
 10
-37.72554345021561
 20
4.196685938934091
 10
-37.7744541925162
 20
4.331463158915052
 10
-37.8249076013224
 20
4.46567061297442
 10
-37.8768969697135
 20
4.599290649554593
 10
-37.930415589255
 20
4.732305617917251
 10
-37.9854565280153
 20
4.86469798830605
 10
-38.04201239639139
 20
4.996450478707613
 10
-38.1030183542611
 20
5.134083046219371
 10
-38.16567768679179
 20
5.270971155628721
 10
-38.2299813469479
 20
5.407094868117853
 10
-38.29591964112749
 20
5.542434293476116
 10
-38.3634828207345
 20
5.676969545627206
 10
-38.4326611348865
 20
5.810680769026912
 10
-38.5034447741021
 20
5.943548890654763
 10
-38.57582386675309
 20
6.075555667400293
 10
-38.649788538214
 20
6.206682896172652
 10
-38.7289650820787
 20
6.343090942871652
 10
-38.80985713576679
 20
6.478490210240362
 10
-38.8924491024467
 20
6.612855385062092
 10
-38.97672532525101
 20
6.74616109209561
 10
-38.9999945741394
 20
6.78232158309783
  0
LWPOLYLINE
  5
543
330
1E
100
AcDbEntity
  8
SK1
100
AcDbPolyline
 90
       14
 70
     0
 43
0.0
 10
-54.8
 20
-6.782329983099961
 10
-54.9382147660597
 20
-6.524089762676791
 10
-55.06550474663921
 20
-6.279560136905652
 10
-55.18352128957079
 20
-6.04640933531691
 10
-55.2938139972535
 20
-5.822242597378813
 10
-55.3966081165061
 20
-5.607204325489298
 10
-55.49214014377589
 20
-5.401440708019603
 10
-55.58182031239489
 20
-5.202473974044113
 10
-55.665817720868
 20
-5.010409473285752
 10
-55.74430795043021
 20
-4.825352309077252
 10
-55.81855214540309
 20
-4.644743733425768
 10
-55.887605357477
 20
-4.471325543667512
 10
-55.95267986833739
 20
-4.302519610357093
 10
-55.9999965334696
 20
-4.176131983434252
  0
LWPOLYLINE
  5
553
330
1E
100
AcDbEntity
  8
SK1
100
AcDbPolyline
 90
       14
 70
     0
 43
0.0
 10
-56.0
 20
4.176122603600027
 10
-55.93837994291078
 20
4.340093476934366
 10
-55.8728941366656
 20
4.508741360312074
 10
-55.80234823466999
 20
4.684655421799367
 10
-55.72766203995209
 20
4.865081000272816
 10
-55.64759147994291
 20
5.052586315419426
 10
-55.56195450100609
 20
5.247067153812205
 10
-55.47057691203749
 20
5.448417946806395
 10
-55.373291995179
 20
5.656532874680232
 10
-55.26868544607939
 20
5.873886219634112
 10
-55.1565223881224
 20
6.100332358615217
 10
-55.03526341094651
 20
6.338278050175205
 10
-54.90461492437781
 20
6.587532322898756
 10
-54.80000476907878
 20
6.782321193567183
  0
LWPOLYLINE
  5
563
330
1E
100
AcDbEntity
  8
1
100
AcDbPolyline
 90
       37
 70
     0
 43
0.0
 10
101.4865847577
 20
8.467947292999996
 10
101.486458922329
 20
8.468954995668678
 10
101.4866661734288
 20
8.469970189528718
 10
101.4871343344809
 20
8.470964152711713
 10
101.487791228968
 20
8.471908163349246
 10
101.4885646803729
 20
8.472773499572896
 10
101.489391899039
 20
8.473536894685222
 10
101.4902553026219
 20
8.474201354210688
 10
101.491150900858
 20
8.474777782706837
 10
101.4920747061569
 20
8.475277086286187
 10
101.493022730931
 20
8.475710171061276
 10
101.4939909875899
 20
8.476087943144646
 10
101.494975488546
 20
8.476421308648827
 10
101.4959722462089
 20
8.476721173686348
 10
101.4974816411789
 20
8.477132014988816
 10
101.5040551574869
 20
8.478816393264677
 10
101.5076054310259
 20
8.479678070891136
 10
101.5106568723229
 20
8.480376937567848
 10
101.51320680869
 20
8.480924222222013
 10
101.5157640938769
 20
8.481434020846956
 10
101.5183287876959
 20
8.481905316355003
 10
101.5209001009089
 20
8.482341527817467
 10
101.523993245812
 20
8.482823784087647
 10
101.5276105383958
 20
8.483337545476867
 10
101.5317531701619
 20
8.483872458737177
 10
101.538496015222
 20
8.484659852771155
 10
101.5488767657589
 20
8.485761650977126
 10
101.5592639942809
 20
8.486750735816068
 10
101.5701796520458
 20
8.487673016499035
 10
101.5826671415929
 20
8.488592477275897
 10
101.5988111131009
 20
8.489607653007338
 10
101.6227805997599
 20
8.490864319069835
 10
101.653536651532
 20
8.492158324879465
 10
101.6962994973009
 20
8.493515903443714
 10
101.763590703185
 20
8.494966112218008
 10
101.8794134637329
 20
8.496279035195577
 10
102.0030595578
 20
8.496682050097545
  0
LWPOLYLINE
  5
58A
330
1E
100
AcDbEntity
  8
1
100
AcDbPolyline
 90
       22
 70
     0
 43
0.0
 10
111.7700547591
 20
8.496682050100035
 10
111.770444879698
 20
8.497011642760016
 10
111.770922989609
 20
8.497205403939455
 10
111.771463244409
 20
8.497300351224611
 10
111.7720397996739
 20
8.497333502201794
 10
111.772916795839
 20
8.497347446446946
 10
111.7734863338019
 20
8.497366595996995
 10
111.774043178441
 20
8.497395352352294
 10
111.7748578363718
 20
8.497453698297514
 10
111.775652139636
 20
8.497526456089293
 10
111.776431011421
 20
8.497609303648495
 10
111.7777082104999
 20
8.497758065638745
 10
111.779234410403
 20
8.497929555091831
 10
111.7802635932749
 20
8.498026014919583
 10
111.7813038750378
 20
8.498107133521136
 10
111.78261751205
 20
8.498189787302834
 10
111.784209429613
 20
8.498266267708252
 10
111.7863499294059
 20
8.498340004616606
 10
111.794913237963
 20
8.498561957753866
 10
111.8121237987679
 20
8.499008636721756
 10
111.850889995178
 20
8.49947720886691
 10
112.0353781823
 20
8.499917391499414
  0
LINE
  5
5A2
330
1E
100
AcDbEntity
  8
SK4
100
AcDbLine
 10
0.0
 20
0.0
 30
0.0
 11
-61.19755221730411
 21
0.0000000000000075
 31
0.0
  0
LINE
  5
5A3
330
1E
100
AcDbEntity
  8
SK4
100
AcDbLine
 10
-24.0
 20
-3.435444191599993
 30
0.0
 11
-24.0
 21
11.4446200843
 31
0.0
  0
DIMENSION
  5
5A4
330
1E
100
AcDbEntity
  8
SK2
100
AcDbDimension
  2
*D2
 10
121.0
 20
-36.75467580747762
 30
0.0
 11
48.49999999999999
 21
-36.75467580747762
 31
0.0
 70
   160
 71
     5
 42
145.0
  3
ISO-25
100
AcDbAlignedDimension
 13
-24.0
 23
0.0000000000000029
 33
0.0
 14
121.0
 24
-0.0000000000000148
 34
0.0
 50
180.0
100
AcDbRotatedDimension
  0
TEXT
  5
637
330
1E
100
AcDbEntity
  8
6
100
AcDbText
 10
37.00830954433423
 20
-70.47086615072612
 30
0.0
 40
5.0
  1
15B1G020120W5R00
 41
1.199999999999999
100
AcDbText
  0
LINE
  5
2857
330
1E
100
AcDbEntity
  8
SK4
100
AcDbLine
 10
116.0157239999999
 20
-0.5861679960619455
 30
0.0
 11
116.0157239999999
 21
10.64756580808088
 31
0.0
  0
LINE
  5
2858
330
1E
100
AcDbEntity
  8
SK4
100
AcDbLine
 10
109.795607205741
 20
5.000356450700004
 30
0.0
 11
121.9053483211839
 21
5.0003564507
 31
0.0
  0
TEXT
  5
2D9B
330
1E
100
AcDbEntity
  8
6
100
AcDbText
 10
119.1923043365116
 20
18.73810167212127
 30
0.0
 40
2.5
  1
RHKW1003M0TN
100
AcDbText
  0
TEXT
  5
2D9C
330
1E
100
AcDbEntity
  8
6
100
AcDbText
 10
145.2734555388469
 20
-4.925133167956573
 30
0.0
 40
3.5
  1
Z=2
 50
90.0
100
AcDbText
  0
LINE
  5
2FD8
330
1E
100
AcDbEntity
  8
NOCUT
100
AcDbLine
 10
0.0
 20
12.5
 30
0.0
 11
0.0
 21
0.0
 31
0.0
  0
LINE
  5
2FDE
330
1E
100
AcDbEntity
  8
NOCUT
100
AcDbLine
 10
120.0
 20
0.0
 30
0.0
 11
0.0
 21
0.0
 31
0.0
  0
LINE
  5
2FE2
330
1E
100
AcDbEntity
  8
NOCUT
100
AcDbLine
 10
113.1933115598998
 20
8.5
 30
0.0
 11
61.17666596089997
 21
8.5
 31
0.0
  0
LINE
  5
2FE5
330
1E
100
AcDbEntity
  8
NOCUT
100
AcDbLine
 10
7.823334039100017
 20
12.25
 30
0.0
 11
0.2000000000000455
 21
12.25
 31
0.0
  0
LINE
  5
2FE8
330
1E
100
AcDbEntity
  8
NOCUT
100
AcDbLine
 10
60.82377460089992
 20
8.512468778200002
 30
0.0
 11
61.17666596089997
 21
8.5
 31
0.0
  0
LINE
  5
2FE9
330
1E
100
AcDbEntity
  8
NOCUT
100
AcDbLine
 10
8.176225399100076
 20
12.23753122179999
 30
0.0
 11
7.823334039100017
 21
12.25
 31
0.0
  0
LINE
  5
2FEA
330
1E
100
AcDbEntity
  8
NOCUT
100
AcDbLine
 10
60.82377460089992
 20
8.512468778200002
 30
0.0
 11
8.176225399100076
 21
12.23753122179999
 31
0.0
  0
LINE
  5
2FEC
330
1E
100
AcDbEntity
  8
NOCUT
100
AcDbLine
 10
120.0
 20
5.650000000000003
 30
0.0
 11
120.0
 21
0.0
 31
0.0
  0
ARC
  5
2FFA
330
1E
100
AcDbEntity
  8
NOCUT
100
AcDbCircle
 10
116.0
 20
5.650000000000003
 30
0.0
 40
4.0
100
AcDbArc
 50
0.0
 51
134.5613120436002
  0
ARC
  5
2FFC
330
1E
100
AcDbEntity
  8
NOCUT
100
AcDbCircle
 10
0.2000000000000455
 20
12.44999999999998
 30
0.0
 40
0.2
100
AcDbArc
 50
180.0
 51
270.0
  0
SPLINE
  5
301B
330
1E
100
AcDbEntity
  8
CUT
100
AcDbSpline
210
0.0
220
0.0
230
1.0
 70
     8
 71
     3
 72
    36
 73
    32
 74
    30
 42
0.0000000001
 43
0.0000000001
 44
0.0000000001
 12
-0.9999657370739441
 22
0.0082779634067752
 32
0.0
 13
0.9999999735951984
 23
-0.0002298033996267
 33
0.0
 40
0.0
 40
0.0
 40
0.0
 40
0.0
 40
0.5396896869294434
 40
1.073331327768129
 40
1.597940705002266
 40
2.117717130501641
 40
2.639005008059709
 40
3.164180589199974
 40
3.692981226458464
 40
4.224568159993391
 40
4.758205951357481
 40
5.293354380746066
 40
5.829631597439986
 40
6.366768874173802
 40
6.904570398130319
 40
7.442897443161509
 40
7.98164044316152
 40
8.520722009458335
 40
9.060078046986395
 40
9.599660119868715
 40
10.13942898107692
 40
10.6793517020399
 40
11.21940286055355
 40
11.75956002039971
 40
12.29980395855542
 40
12.84011964047203
 40
13.38049123911966
 40
13.92090588650157
 40
14.46135285487589
 40
15.00182039788102
 40
15.54229876020277
 40
15.54229876020277
 40
15.54229876020277
 40
15.54229876020277
 10
116.0157239999999
 20
0.401173
 30
0.0
 10
115.8358336014727
 20
0.4026621771598053
 30
0.0
 10
115.4780636264713
 20
0.4002109600224931
 30
0.0
 10
114.9453646255979
 20
0.4123361451285845
 30
0.0
 10
114.4212064899538
 20
0.470269304755345
 30
0.0
 10
113.9148041231926
 20
0.6054286085277708
 30
0.0
 10
113.4354622785552
 20
0.816995292633023
 30
0.0
 10
112.9875414946959
 20
1.093858164410775
 30
0.0
 10
112.5752625759798
 20
1.426620171240083
 30
0.0
 10
112.2032047036202
 20
1.807621387667367
 30
0.0
 10
111.8757227511301
 20
2.23016583002354
 30
0.0
 10
111.5966912205788
 20
2.687954638798798
 30
0.0
 10
111.3694111362121
 20
3.174787253705904
 30
0.0
 10
111.1965672053471
 20
3.684421247919544
 30
0.0
 10
111.0801987517419
 20
4.210528701952068
 30
0.0
 10
111.0216794595254
 20
4.74669918860251
 30
0.0
 10
111.0216996236799
 20
5.28647771108582
 30
0.0
 10
111.0802629114296
 20
5.823413231332422
 30
0.0
 10
111.1966851617812
 20
6.351121760039779
 30
0.0
 10
111.3696035777856
 20
6.863348719844319
 30
0.0
 10
111.5969899193198
 20
7.354038498604466
 30
0.0
 10
111.876181553901
 20
7.817397867022084
 30
0.0
 10
112.2039042437066
 20
8.247964284245806
 30
0.0
 10
112.5763157062457
 20
8.64066666793013
 30
0.0
 10
112.9890527117868
 20
8.990879470686605
 30
0.0
 10
113.437272389544
 20
9.294485966669995
 30
0.0
 10
113.9157241526239
 20
9.547912082407494
 30
0.0
 10
114.4187907541131
 20
9.748178603930803
 30
0.0
 10
114.940598320258
 20
9.892936730496149
 30
0.0
 10
115.4749448407022
 20
9.98045226008222
 30
0.0
 10
115.8355645506497
 20
10.00004140125503
 30
0.0
 10
116.0157239999999
 20
10.0
 30
0.0
 11
116.0157239999999
 21
0.401173
 31
0.0
 11
115.4760369999999
 21
0.4028759999999921
 31
0.0
 11
114.9426779999999
 21
0.4202420000000018
 31
0.0
 11
114.4218989999999
 21
0.4835209999999961
 31
0.0
 11
113.919807
 21
0.6179500000000076
 31
0.0
 11
113.442287
 21
0.8270330000000001
 31
0.0
 11
112.994938
 21
1.102147999999999
 31
0.0
 11
112.583005
 21
1.433721999999988
 31
0.0
 11
112.2113179999999
 21
1.813765999999985
 31
0.0
 11
111.884234
 21
2.235411999999996
 31
0.0
 11
111.6055879999999
 21
2.692293000000006
 31
0.0
 11
111.3786469999999
 21
3.178184999999984
 31
0.0
 11
111.2060709999999
 21
3.686844000000006
 31
0.0
 11
111.089884
 21
4.211944999999984
 31
0.0
 11
111.0314479999999
 21
4.747090999999983
 31
0.0
 11
111.0314479999999
 21
5.285833999999994
 31
0.0
 11
111.089884
 21
5.821739000000007
 31
0.0
 11
111.2060709999999
 21
6.348432000000002
 31
0.0
 11
111.3786469999999
 21
6.859671999999986
 31
0.0
 11
111.6055879999999
 21
7.349414999999991
 31
0.0
 11
111.884234
 21
7.811879000000002
 31
0.0
 11
112.2113179999999
 21
8.241613
 31
0.0
 11
112.583005
 21
8.633555000000001
 31
0.0
 11
112.994938
 21
8.983090000000004
 31
0.0
 11
113.442287
 21
9.286107999999984
 31
0.0
 11
113.919807
 21
9.539042999999992
 31
0.0
 11
114.4218989999999
 21
9.738922000000002
 31
0.0
 11
114.9426779999999
 21
9.883394000000008
 31
0.0
 11
115.4760369999999
 21
9.970763000000003
 31
0.0
 11
116.0157239999999
 21
10.0
 31
0.0
  0
SPLINE
  5
301C
330
1E
100
AcDbEntity
  8
CUT
100
AcDbSpline
210
0.0
220
0.0
230
1.0
 70
     8
 71
     3
 72
    36
 73
    32
 74
    30
 42
0.0000000001
 43
0.0000000001
 44
0.0000000001
 12
0.9999657370739441
 22
0.0082779634067752
 32
0.0
 13
-0.9999999735951984
 23
-0.0002298033996267
 33
0.0
 40
0.0
 40
0.0
 40
0.0
 40
0.0
 40
0.5396896869294434
 40
1.073331327768129
 40
1.597940705002266
 40
2.11771713050182
 40
2.639005008059901
 40
3.164180589200153
 40
3.692981226458566
 40
4.224568159993503
 40
4.758205951357592
 40
5.293354380746118
 40
5.829631597440044
 40
6.366768874173891
 40
6.904570398130409
 40
7.442897443161586
 40
7.981640443161597
 40
8.520722009458401
 40
9.060078046986461
 40
9.599660119868813
 40
10.13942898107702
 40
10.67935170203995
 40
11.2194028605536
 40
11.75956002039976
 40
12.2998039585554
 40
12.84011964047199
 40
13.38049123911964
 40
13.92090588650172
 40
14.46135285487604
 40
15.00182039788117
 40
15.54229876020292
 40
15.54229876020292
 40
15.54229876020292
 40
15.54229876020292
 10
116.0157239999999
 20
0.401173
 30
0.0
 10
116.1956143985271
 20
0.4026621771598053
 30
0.0
 10
116.5533843735284
 20
0.4002109600224946
 30
0.0
 10
117.0860833744019
 20
0.4123361451285791
 30
0.0
 10
117.6102415100461
 20
0.4702693047553711
 30
0.0
 10
118.1166438768073
 20
0.6054286085277351
 30
0.0
 10
118.5959857214448
 20
0.8169952926330235
 30
0.0
 10
119.043906505304
 20
1.093858164410748
 30
0.0
 10
119.4561854240201
 20
1.426620171240121
 30
0.0
 10
119.8282432963796
 20
1.807621387667363
 30
0.0
 10
120.1557252488697
 20
2.230165830023507
 30
0.0
 10
120.4347567794209
 20
2.687954638798835
 30
0.0
 10
120.6620368637876
 20
3.174787253705917
 30
0.0
 10
120.8348807946527
 20
3.684421247919526
 30
0.0
 10
120.951249248258
 20
4.21052870195206
 30
0.0
 10
121.0097685404743
 20
4.746699188602518
 30
0.0
 10
121.0097483763199
 20
5.286477711085812
 30
0.0
 10
120.9511850885703
 20
5.823413231332428
 30
0.0
 10
120.8347628382187
 20
6.3511217600398
 30
0.0
 10
120.6618444222141
 20
6.863348719844307
 30
0.0
 10
120.43445808068
 20
7.354038498604429
 30
0.0
 10
120.1552664460989
 20
7.817397867022116
 30
0.0
 10
119.8275437562933
 20
8.247964284245808
 30
0.0
 10
119.4551322937541
 20
8.640666667930087
 30
0.0
 10
119.0423952882131
 20
8.990879470686637
 30
0.0
 10
118.5941756104559
 20
9.294485966669993
 30
0.0
 10
118.115723847376
 20
9.547912082407535
 30
0.0
 10
117.6126572458867
 20
9.748178603930766
 30
0.0
 10
117.0908496797418
 20
9.892936730496154
 30
0.0
 10
116.5565031592975
 20
9.980452260082218
 30
0.0
 10
116.1958834493501
 20
10.00004140125503
 30
0.0
 10
116.0157239999999
 20
10.0
 30
0.0
 11
116.0157239999999
 21
0.401173
 31
0.0
 11
116.5554109999999
 21
0.4028759999999921
 31
0.0
 11
117.0887699999999
 21
0.4202420000000018
 31
0.0
 11
117.6095489999999
 21
0.4835209999999961
 31
0.0
 11
118.111641
 21
0.6179500000000076
 31
0.0
 11
118.589161
 21
0.8270330000000001
 31
0.0
 11
119.03651
 21
1.102147999999999
 31
0.0
 11
119.4484429999999
 21
1.433721999999988
 31
0.0
 11
119.82013
 21
1.813765999999985
 31
0.0
 11
120.1472139999999
 21
2.235411999999996
 31
0.0
 11
120.4258599999999
 21
2.692293000000006
 31
0.0
 11
120.6528009999999
 21
3.178184999999984
 31
0.0
 11
120.825377
 21
3.686844000000006
 31
0.0
 11
120.9415639999999
 21
4.211944999999984
 31
0.0
 11
120.9999999999999
 21
4.747090999999983
 31
0.0
 11
120.9999999999999
 21
5.285833999999994
 31
0.0
 11
120.9415639999999
 21
5.821739000000007
 31
0.0
 11
120.825377
 21
6.348432000000002
 31
0.0
 11
120.6528009999999
 21
6.859671999999986
 31
0.0
 11
120.4258599999999
 21
7.349414999999991
 31
0.0
 11
120.1472139999999
 21
7.811879000000002
 31
0.0
 11
119.82013
 21
8.241613
 31
0.0
 11
119.4484429999999
 21
8.633555000000001
 31
0.0
 11
119.03651
 21
8.983090000000004
 31
0.0
 11
118.589161
 21
9.286107999999984
 31
0.0
 11
118.111641
 21
9.539042999999992
 31
0.0
 11
117.6095489999999
 21
9.738922000000002
 31
0.0
 11
117.0887699999999
 21
9.883394000000008
 31
0.0
 11
116.5554109999999
 21
9.970763000000003
 31
0.0
 11
116.0157239999999
 21
10.0
 31
0.0
  0
LWPOLYLINE
  5
3186
330
1E
100
AcDbEntity
  8
1
100
AcDbPolyline
 90
        3
 70
     1
 43
0.0
 10
0.0000000000001279
 20
0.0
 10
-2.950972054112455
 20
0.0
 42
0.4142135623730966
 10
0.0000000000001279
 20
-2.950972054112583
  0
HATCH
  5
3187
330
1E
100
AcDbEntity
  8
1
100
AcDbHatch
 10
0.0
 20
0.0
 30
0.0
210
0.0
220
0.0
230
1.0
  2
SOLID
 70
     1
 71
     0
 91
        2
 92
        7
 72
     1
 73
     1
 93
        3
 10
0.0000000000001279
 20
0.0
 42
0.0
 10
2.950972054112709
 20
0.0
 42
0.4142135623730966
 10
0.0000000000001279
 20
2.950972054112611
 42
0.0
 97
        0
 92
        7
 72
     1
 73
     1
 93
        3
 10
0.0000000000001279
 20
-2.950972054112496
 42
0.0
 10
0.0000000000001279
 20
0.0
 42
0.0
 10
-2.950972054112455
 20
0.0
 42
0.4142135623730953
 97
        0
 75
     0
 76
     1
 47
0.1190009775223266
 98
        2
 10
0.7445530588120306
 20
0.9212244733764975
 10
-1.279464601852807
 20
-1.696796923046291
  0
CIRCLE
  5
3188
330
1E
100
AcDbEntity
  8
1
100
AcDbCircle
 10
0.0000000000001279
 20
0.0
 30
0.0
 40
2.950972054112601
  0
LINE
  5
3189
330
1E
100
AcDbEntity
  8
1
100
AcDbLine
 10
0.0000000000001279
 20
2.950972054112611
 30
0.0
 11
0.0000000000001279
 21
-2.950972054112583
 31
0.0
  0
LINE
  5
318A
330
1E
100
AcDbEntity
  8
1
100
AcDbLine
 10
-2.950972054112709
 20
0.0
 30
0.0
 11
2.950972054112709
 21
0.0
 31
0.0
  0
LWPOLYLINE
  5
318B
330
1E
100
AcDbEntity
  8
1
100
AcDbPolyline
 90
        3
 70
     1
 43
0.0
 10
0.0000000000001279
 20
2.950972054112611
 10
0.0000000000001279
 20
0.0
 10
2.950972054112709
 20
0.0
 42
0.4142135623730966
  0
ENDSEC
  0
SECTION
  2
OBJECTS
  0
DICTIONARY
  5
C
330
0
100
AcDbDictionary
281
     1
  3
ACAD_COLOR
350
330B
  3
ACAD_GROUP
350
D
  3
ACAD_LAYOUT
350
19
  3
ACAD_MATERIAL
350
330A
  3
ACAD_MLINESTYLE
350
16
  3
ACAD_PLOTSETTINGS
350
18
  3
ACAD_PLOTSTYLENAME
350
2BBE
  3
ACAD_TABLESTYLE
350
330C
  3
ACDBHEADERROUNDTRIPXREC
350
3314
  3
AcDbVariableDictionary
350
330F
1001
ACAD
1000
TREAT_AS_HARD
1070
     0
1000
TREAT_AS_HARD
1070
     0
  0
DICTIONARY
  5
21C8
330
1E
100
AcDbDictionary
280
     1
281
     1
  3
ACAD_LAYOUTSELFREF
360
285B
1001
ACAD
1000
TREAT_AS_HARD
1070
     0
  0
DICTIONARY
  5
21C6
330
1A
100
AcDbDictionary
280
     1
281
     1
  3
ACAD_LAYOUTSELFREF
360
285A
1001
ACAD
1000
TREAT_AS_HARD
1070
     0
  0
DICTIONARY
  5
330B
102
{ACAD_REACTORS
330
C
102
}
330
C
100
AcDbDictionary
281
     1
  0
DICTIONARY
  5
D
102
{ACAD_REACTORS
330
C
102
}
330
C
100
AcDbDictionary
281
     1
1001
ACAD
1000
TREAT_AS_HARD
1070
     0
1000
TREAT_AS_HARD
1070
     0
  0
DICTIONARY
  5
19
102
{ACAD_REACTORS
330
C
102
}
330
C
100
AcDbDictionary
281
     1
  3
Layout1
350
2BC1
  3
Model
350
2BC0
1001
ACAD
1000
TREAT_AS_HARD
1070
     0
1000
TREAT_AS_HARD
1070
     0
  0
DICTIONARY
  5
330A
102
{ACAD_REACTORS
330
C
102
}
330
C
100
AcDbDictionary
281
     1
  0
DICTIONARY
  5
16
102
{ACAD_REACTORS
330
C
102
}
330
C
100
AcDbDictionary
281
     1
  3
STANDARD
350
17
1001
ACAD
1000
TREAT_AS_HARD
1070
     0
1000
TREAT_AS_HARD
1070
     0
  0
DICTIONARY
  5
18
102
{ACAD_REACTORS
330
C
102
}
330
C
100
AcDbDictionary
281
     1
1001
ACAD
1000
TREAT_AS_HARD
1070
     0
1000
TREAT_AS_HARD
1070
     0
  0
ACDBDICTIONARYWDFLT
  5
2BBE
102
{ACAD_REACTORS
330
C
102
}
330
C
100
AcDbDictionary
281
     1
  3
Normal
350
2BBF
100
AcDbDictionaryWithDefault
340
2BBF
  0
DICTIONARY
  5
330C
102
{ACAD_REACTORS
330
C
102
}
330
C
100
AcDbDictionary
281
     1
  3
Standard
350
330D
  0
DICTIONARY
  5
3314
102
{ACAD_REACTORS
330
C
102
}
330
C
100
AcDbDictionary
281
     1
  0
DICTIONARY
  5
330F
102
{ACAD_REACTORS
330
C
102
}
330
C
100
AcDbDictionary
281
     1
  3
CTABLESTYLE
350
3310
  3
DIMASSOC
350
3311
  3
PROJECTNAME
350
3312
  0
XRECORD
  5
285B
102
{ACAD_REACTORS
330
21C8
102
}
330
21C8
100
AcDbXrecord
280
     1
340
1E
  0
XRECORD
  5
285A
102
{ACAD_REACTORS
330
21C6
102
}
330
21C6
100
AcDbXrecord
280
     1
340
1A
  0
LAYOUT
  5
2BC1
102
{ACAD_XDICTIONARY
360
3317
102
}
102
{ACAD_REACTORS
330
19
102
}
330
19
100
AcDbPlotSettings
  1

  2
\\ingdom02\ITB2
  4

  6

 40
0.0
 41
0.0
 42
0.0
 43
0.0
 44
0.0
 45
0.0
 46
0.0
 47
0.0
 48
0.0
 49
0.0
140
0.0
141
0.0
142
1.0
143
1.0
 70
   688
 72
     0
 73
     0
 74
     5
  7

 75
    16
147
1.0
148
0.0
149
0.0
100
AcDbLayout
  1
Layout1
 70
     1
 71
     1
 10
0.0
 20
0.0
 11
12.0
 21
9.0
 12
0.0
 22
0.0
 32
0.0
 14
100.0
 24
100.0
 34
100.0
 15
-100.0
 25
-100.0
 35
-100.0
146
0.0
 13
0.0
 23
0.0
 33
0.0
 16
1.0
 26
0.0
 36
0.0
 17
0.0
 27
1.0
 37
0.0
 76
     0
330
1A
  0
LAYOUT
  5
2BC0
102
{ACAD_XDICTIONARY
360
3315
102
}
102
{ACAD_REACTORS
330
19
102
}
330
19
100
AcDbPlotSettings
  1

  2
\\ingdom02\ITB2
  4

  6

 40
0.0
 41
0.0
 42
0.0
 43
0.0
 44
0.0
 45
0.0
 46
0.0
 47
0.0
 48
0.0
 49
0.0
140
0.0
141
0.0
142
1.0
143
1.0
 70
  1712
 72
     0
 73
     0
 74
     0
  7

 75
     0
147
1.0
148
0.0
149
0.0
100
AcDbLayout
  1
Model
 70
     1
 71
     0
 10
0.0
 20
0.0
 11
12.0
 21
9.0
 12
0.0
 22
0.0
 32
0.0
 14
0.0
 24
0.0
 34
0.0
 15
0.0
 25
0.0
 35
0.0
146
0.0
 13
0.0
 23
0.0
 33
0.0
 16
1.0
 26
0.0
 36
0.0
 17
0.0
 27
1.0
 37
0.0
 76
     0
330
1E
  0
MLINESTYLE
  5
17
102
{ACAD_REACTORS
330
16
102
}
330
16
100
AcDbMlineStyle
  2
STANDARD
 70
     0
  3

 62
   256
 51
90.0
 52
90.0
 71
     2
 49
0.5
 62
   256
  6
BYLAYER
 49
-0.5
 62
   256
  6
BYLAYER
  0
ACDBPLACEHOLDER
  5
2BBF
102
{ACAD_REACTORS
330
2BBE
102
}
330
2BBE
  0
TABLESTYLE
  5
330D
102
{ACAD_REACTORS
330
330C
102
}
330
330C
100
AcDbTableStyle
  3
Standard
 70
     0
 71
     0
 40
0.06
 41
0.06
280
     0
281
     0
  7
STANDARD
140
0.18
170
     2
 62
     0
 63
     7
283
     0
274
    -2
284
     1
 64
     0
275
    -2
285
     1
 65
     0
276
    -2
286
     1
 66
     0
277
    -2
287
     1
 67
     0
278
    -2
288
     1
 68
     0
279
    -2
289
     1
 69
     0
  7
STANDARD
140
0.25
170
     5
 62
     0
 63
     7
283
     0
274
    -2
284
     1
 64
     0
275
    -2
285
     1
 65
     0
276
    -2
286
     1
 66
     0
277
    -2
287
     1
 67
     0
278
    -2
288
     1
 68
     0
279
    -2
289
     1
 69
     0
  7
STANDARD
140
0.18
170
     5
 62
     0
 63
     7
283
     0
274
    -2
284
     1
 64
     0
275
    -2
285
     1
 65
     0
276
    -2
286
     1
 66
     0
277
    -2
287
     1
 67
     0
278
    -2
288
     1
 68
     0
279
    -2
289
     1
 69
     0
  0
DICTIONARYVAR
  5
3310
102
{ACAD_REACTORS
330
330F
102
}
330
330F
100
DictionaryVariables
280
     0
  1
STANDARD
  0
DICTIONARYVAR
  5
3311
102
{ACAD_REACTORS
330
330F
102
}
330
330F
100
DictionaryVariables
280
     0
  1
1
  0
DICTIONARYVAR
  5
3312
102
{ACAD_REACTORS
330
330F
102
}
330
330F
100
DictionaryVariables
280
     0
  1

  0
DICTIONARY
  5
3317
330
2BC1
100
AcDbDictionary
280
     1
281
     1
  3
ACAD_XREC_ROUNDTRIP
360
3318
  0
DICTIONARY
  5
3315
330
2BC0
100
AcDbDictionary
280
     1
281
     1
  3
ACAD_XREC_ROUNDTRIP
360
3316
  0
XRECORD
  5
3318
102
{ACAD_REACTORS
330
3317
102
}
330
3317
100
AcDbXrecord
280
     1
102
SHADEPLOT
 70
     0
102
SHADEPLOTRESLEVEL
 70
     2
102
SHADEPLOTCUSTOMDPI
 70
   300
  0
XRECORD
  5
3316
102
{ACAD_REACTORS
330
3315
102
}
330
3315
100
AcDbXrecord
280
     1
102
SHADEPLOT
 70
     0
102
SHADEPLOTRESLEVEL
 70
     2
102
SHADEPLOTCUSTOMDPI
 70
   300
  0
ENDSEC
  0
EOF
