  0
SECTION
  2
HEADER
  9
$ACADVER
  1
AC1015
  9
$ACADMAINTVER
 70
    20
  9
$DWGCODEPAGE
  3
ANSI_1252
  9
$INSBASE
 10
0.0
 20
0.0
 30
0.0
  9
$EXTMIN
 10
-74.09792135832777
 20
-69.53013018463309
 30
-0.0015258207003583
  9
$EXTMAX
 10
124.1254616440615
 20
20.50309009721127
 30
0.0000000349246037
  9
$LIMMIN
 10
0.0
 20
0.0
  9
$LIMMAX
 10
594.0
 20
420.0
  9
$ORTHOMODE
 70
     0
  9
$REGENMODE
 70
     1
  9
$FILLMODE
 70
     1
  9
$QTEXTMODE
 70
     0
  9
$MIRRTEXT
 70
     1
  9
$LTSCALE
 40
10.0
  9
$ATTMODE
 70
     1
  9
$TEXTSIZE
 40
0.2
  9
$TRACEWID
 40
0.05
  9
$TEXTSTYLE
  7
STANDARD
  9
$CLAYER
  8
0
  9
$CELTYPE
  6
BYLAYER
  9
$CECOLOR
 62
   256
  9
$CELTSCALE
 40
1.0
  9
$DISPSILH
 70
     0
  9
$DIMSCALE
 40
1.0
  9
$DIMASZ
 40
2.5
  9
$DIMEXO
 40
3.712499999999999
  9
$DIMDLI
 40
22.572
  9
$DIMRND
 40
0.0
  9
$DIMDLE
 40
0.0
  9
$DIMEXE
 40
10.692
  9
$DIMTP
 40
0.01
  9
$DIMTM
 40
0.01
  9
$DIMTXT
 40
3.5
  9
$DIMCEN
 40
5.346
  9
$DIMTSZ
 40
0.0
  9
$DIMTOL
 70
     1
  9
$DIMLIM
 70
     0
  9
$DIMTIH
 70
     1
  9
$DIMTOH
 70
     1
  9
$DIMSE1
 70
     0
  9
$DIMSE2
 70
     0
  9
$DIMTAD
 70
     0
  9
$DIMZIN
 70
     0
  9
$DIMBLK
  1
_FILLED
  9
$DIMASO
 70
     1
  9
$DIMSHO
 70
     1
  9
$DIMPOST
  1

  9
$DIMAPOST
  1

  9
$DIMALT
 70
     0
  9
$DIMALTD
 70
     2
  9
$DIMALTF
 40
25.4
  9
$DIMLFAC
 40
1.0
  9
$DIMTOFL
 70
     0
  9
$DIMTVP
 40
0.0
  9
$DIMTIX
 70
     0
  9
$DIMSOXD
 70
     0
  9
$DIMSAH
 70
     0
  9
$DIMBLK1
  1

  9
$DIMBLK2
  1

  9
$DIMSTYLE
  2
STANDARD
  9
$DIMCLRD
 70
     0
  9
$DIMCLRE
 70
     0
  9
$DIMCLRT
 70
     0
  9
$DIMTFAC
 40
1.0
  9
$DIMGAP
 40
0.09
  9
$DIMJUST
 70
     0
  9
$DIMSD1
 70
     0
  9
$DIMSD2
 70
     0
  9
$DIMTOLJ
 70
     1
  9
$DIMTZIN
 70
     0
  9
$DIMALTZ
 70
     0
  9
$DIMALTTZ
 70
     0
  9
$DIMUPT
 70
     0
  9
$DIMDEC
 70
     4
  9
$DIMTDEC
 70
     4
  9
$DIMALTU
 70
     2
  9
$DIMALTTD
 70
     2
  9
$DIMTXSTY
  7
STANDARD
  9
$DIMAUNIT
 70
     0
  9
$DIMADEC
 70
     0
  9
$DIMALTRND
 40
0.0
  9
$DIMAZIN
 70
     0
  9
$DIMDSEP
 70
    46
  9
$DIMATFIT
 70
     3
  9
$DIMFRAC
 70
     0
  9
$DIMLDRBLK
  1
_FILLED
  9
$DIMLUNIT
 70
     2
  9
$DIMLWD
 70
    -2
  9
$DIMLWE
 70
    -2
  9
$DIMTMOVE
 70
     0
  9
$LUNITS
 70
     2
  9
$LUPREC
 70
     4
  9
$SKETCHINC
 40
0.1
  9
$FILLETRAD
 40
0.0
  9
$AUNITS
 70
     0
  9
$AUPREC
 70
     0
  9
$MENU
  1

  9
$ELEVATION
 40
0.0
  9
$PELEVATION
 40
0.0
  9
$THICKNESS
 40
0.0
  9
$LIMCHECK
 70
     0
  9
$CHAMFERA
 40
0.0
  9
$CHAMFERB
 40
0.0
  9
$CHAMFERC
 40
0.0
  9
$CHAMFERD
 40
0.0
  9
$SKPOLY
 70
     0
  9
$TDCREATE
 40
2453413.564942477
  9
$TDUCREATE
 40
2453413.481609143
  9
$TDUPDATE
 40
2453909.290179826
  9
$TDUUPDATE
 40
2453909.206846493
  9
$TDINDWG
 40
0.0325651968
  9
$TDUSRTIMER
 40
0.0238661574
  9
$USRTIMER
 70
     1
  9
$ANGBASE
 50
0.0
  9
$ANGDIR
 70
     0
  9
$PDMODE
 70
     0
  9
$PDSIZE
 40
0.3125
  9
$PLINEWID
 40
0.0
  9
$SPLFRAME
 70
     0
  9
$SPLINETYPE
 70
     6
  9
$SPLINESEGS
 70
     8
  9
$HANDSEED
  5
25B0
  9
$SURFTAB1
 70
     6
  9
$SURFTAB2
 70
     6
  9
$SURFTYPE
 70
     6
  9
$SURFU
 70
     6
  9
$SURFV
 70
     6
  9
$UCSBASE
  2

  9
$UCSNAME
  2

  9
$UCSORG
 10
0.0
 20
0.0
 30
0.0
  9
$UCSXDIR
 10
1.0
 20
0.0
 30
0.0
  9
$UCSYDIR
 10
0.0
 20
1.0
 30
0.0
  9
$UCSORTHOREF
  2

  9
$UCSORTHOVIEW
 70
     0
  9
$UCSORGTOP
 10
0.0
 20
0.0
 30
0.0
  9
$UCSORGBOTTOM
 10
0.0
 20
0.0
 30
0.0
  9
$UCSORGLEFT
 10
0.0
 20
0.0
 30
0.0
  9
$UCSORGRIGHT
 10
0.0
 20
0.0
 30
0.0
  9
$UCSORGFRONT
 10
0.0
 20
0.0
 30
0.0
  9
$UCSORGBACK
 10
0.0
 20
0.0
 30
0.0
  9
$PUCSBASE
  2

  9
$PUCSNAME
  2

  9
$PUCSORG
 10
0.0
 20
0.0
 30
0.0
  9
$PUCSXDIR
 10
1.0
 20
0.0
 30
0.0
  9
$PUCSYDIR
 10
0.0
 20
1.0
 30
0.0
  9
$PUCSORTHOREF
  2

  9
$PUCSORTHOVIEW
 70
     0
  9
$PUCSORGTOP
 10
0.0
 20
0.0
 30
0.0
  9
$PUCSORGBOTTOM
 10
0.0
 20
0.0
 30
0.0
  9
$PUCSORGLEFT
 10
0.0
 20
0.0
 30
0.0
  9
$PUCSORGRIGHT
 10
0.0
 20
0.0
 30
0.0
  9
$PUCSORGFRONT
 10
0.0
 20
0.0
 30
0.0
  9
$PUCSORGBACK
 10
0.0
 20
0.0
 30
0.0
  9
$USERI1
 70
     0
  9
$USERI2
 70
     0
  9
$USERI3
 70
     0
  9
$USERI4
 70
     0
  9
$USERI5
 70
     0
  9
$USERR1
 40
0.0
  9
$USERR2
 40
0.0
  9
$USERR3
 40
0.0
  9
$USERR4
 40
0.0
  9
$USERR5
 40
0.0
  9
$WORLDVIEW
 70
     1
  9
$SHADEDGE
 70
     3
  9
$SHADEDIF
 70
    70
  9
$TILEMODE
 70
     1
  9
$MAXACTVP
 70
    64
  9
$PINSBASE
 10
0.0
 20
0.0
 30
0.0
  9
$PLIMCHECK
 70
     0
  9
$PEXTMIN
 10
100.0
 20
100.0
 30
100.0
  9
$PEXTMAX
 10
-100.0
 20
-100.0
 30
-100.0
  9
$PLIMMIN
 10
0.0
 20
0.0
  9
$PLIMMAX
 10
12.0
 20
9.0
  9
$UNITMODE
 70
     0
  9
$VISRETAIN
 70
     1
  9
$PLINEGEN
 70
     1
  9
$PSLTSCALE
 70
     1
  9
$TREEDEPTH
 70
  3020
  9
$CMLSTYLE
  2
STANDARD
  9
$CMLJUST
 70
     0
  9
$CMLSCALE
 40
1.0
  9
$PROXYGRAPHICS
 70
     1
  9
$MEASUREMENT
 70
     0
  9
$CELWEIGHT
370
    -1
  9
$ENDCAPS
280
     0
  9
$JOINSTYLE
280
     0
  9
$LWDISPLAY
290
     0
  9
$INSUNITS
 70
     0
  9
$HYPERLINKBASE
  1

  9
$STYLESHEET
  1

  9
$XEDIT
290
     1
  9
$CEPSNTYPE
380
     0
  9
$PSTYLEMODE
290
     1
  9
$FINGERPRINTGUID
  2
{C5BF7DCD-3752-4446-9741-9CCB3E7CBC7A}
  9
$VERSIONGUID
  2
{08B4BD2C-E996-42C3-82D6-D8B218281D46}
  9
$EXTNAMES
290
     1
  9
$PSVPSCALE
 40
0.0
  9
$OLESTARTUP
290
     0
  0
ENDSEC
  0
SECTION
  2
CLASSES
  0
CLASS
  1
ACDBDICTIONARYWDFLT
  2
AcDbDictionaryWithDefault
  3
ObjectDBX Classes
 90
        0
280
     0
281
     0
  0
CLASS
  1
ACDBPLACEHOLDER
  2
AcDbPlaceHolder
  3
ObjectDBX Classes
 90
        0
280
     0
281
     0
  0
CLASS
  1
LAYOUT
  2
AcDbLayout
  3
ObjectDBX Classes
 90
        0
280
     0
281
     0
  0
CLASS
  1
TABLESTYLE
  2
AcDbTableStyle
  3
ObjectDBX Classes
 90
     2047
280
     0
281
     0
  0
CLASS
  1
DICTIONARYVAR
  2
AcDbDictionaryVar
  3
ObjectDBX Classes
 90
        0
280
     0
281
     0
  0
ENDSEC
  0
SECTION
  2
TABLES
  0
TABLE
  2
VPORT
  5
8
330
0
100
AcDbSymbolTable
 70
     2
  0
VPORT
  5
25AA
330
8
100
AcDbSymbolTableRecord
100
AcDbViewportTableRecord
  2
*Active
 70
     0
 10
0.0
 20
0.0
 11
1.0
 21
1.0
 12
25.01377014286688
 22
-24.51352004371091
 13
0.0
 23
0.0
 14
1.0
 24
1.0
 15
0.0
 25
0.0
 16
0.0
 26
0.0
 36
1.0
 17
0.0
 27
0.0
 37
0.0
 40
129.997467544497
 41
1.532401524777636
 42
50.0
 43
0.0
 44
0.0
 50
0.0
 51
0.0
 71
     0
 72
   100
 73
     1
 74
     1
 75
     0
 76
     0
 77
     0
 78
     0
281
     0
 65
     1
110
0.0
120
0.0
130
0.0
111
1.0
121
0.0
131
0.0
112
0.0
122
1.0
132
0.0
 79
     0
146
0.0
  0
ENDTAB
  0
TABLE
  2
LTYPE
  5
5
330
0
100
AcDbSymbolTable
 70
     2
  0
LTYPE
  5
13
330
5
100
AcDbSymbolTableRecord
100
AcDbLinetypeTableRecord
  2
BYBLOCK
 70
     0
  3

 72
    65
 73
     0
 40
0.0
  0
LTYPE
  5
14
330
5
100
AcDbSymbolTableRecord
100
AcDbLinetypeTableRecord
  2
BYLAYER
 70
     0
  3

 72
    65
 73
     0
 40
0.0
  0
LTYPE
  5
15
330
5
100
AcDbSymbolTableRecord
100
AcDbLinetypeTableRecord
  2
CONTINUOUS
 70
     0
  3
Solid line
 72
    65
 73
     0
 40
0.0
  0
LTYPE
  5
2E
330
5
100
AcDbSymbolTableRecord
100
AcDbLinetypeTableRecord
  2
CENTER
 70
     0
  3
____ _ ____ _ ____ _ ____ _ ____ _ ____ _ ____
 72
    65
 73
     4
 40
0.6
 49
0.375
 74
     0
 49
-0.075
 74
     0
 49
0.075
 74
     0
 49
-0.075
 74
     0
  0
ENDTAB
  0
TABLE
  2
LAYER
  5
2
330
0
100
AcDbSymbolTable
 70
    11
  0
LAYER
  5
10
330
2
100
AcDbSymbolTableRecord
100
AcDbLayerTableRecord
  2
1
 70
     0
 62
     4
  6
CONTINUOUS
370
    -3
390
1E86
  0
LAYER
  5
31
330
2
100
AcDbSymbolTableRecord
100
AcDbLayerTableRecord
  2
2
 70
     0
 62
     7
  6
CONTINUOUS
370
    -3
390
1E86
  0
LAYER
  5
33
330
2
100
AcDbSymbolTableRecord
100
AcDbLayerTableRecord
  2
4
 70
     0
 62
     2
  6
CENTER
370
    -3
390
1E86
  0
LAYER
  5
36
330
2
100
AcDbSymbolTableRecord
100
AcDbLayerTableRecord
  2
0
 70
     0
 62
     7
  6
CONTINUOUS
370
    -3
390
1E86
  0
LAYER
  5
37
330
2
100
AcDbSymbolTableRecord
100
AcDbLayerTableRecord
  2
DEFPOINTS
 70
     0
 62
     7
  6
CONTINUOUS
290
     0
370
    -3
390
1E86
  0
LAYER
  5
5DF
330
2
100
AcDbSymbolTableRecord
100
AcDbLayerTableRecord
  2
SK1
 70
     0
 62
     4
  6
CONTINUOUS
370
    -3
390
1E86
  0
LAYER
  5
5E0
330
2
100
AcDbSymbolTableRecord
100
AcDbLayerTableRecord
  2
SK4
 70
     0
 62
     2
  6
CENTER
370
    -3
390
1E86
  0
LAYER
  5
5E2
330
2
100
AcDbSymbolTableRecord
100
AcDbLayerTableRecord
  2
SK2
 70
     0
 62
     7
  6
CONTINUOUS
370
    -3
390
1E86
  0
LAYER
  5
1EF0
330
2
100
AcDbSymbolTableRecord
100
AcDbLayerTableRecord
  2
6
 70
     0
 62
     5
  6
CONTINUOUS
370
    -3
390
1E86
  0
LAYER
  5
1EF1
330
2
100
AcDbSymbolTableRecord
100
AcDbLayerTableRecord
  2
CUT
 70
     0
 62
     1
  6
CONTINUOUS
370
    -3
390
1E86
  0
LAYER
  5
1EF2
330
2
100
AcDbSymbolTableRecord
100
AcDbLayerTableRecord
  2
NOCUT
 70
     0
 62
     7
  6
CONTINUOUS
370
    -3
390
1E86
  0
ENDTAB
  0
TABLE
  2
STYLE
  5
3
330
0
100
AcDbSymbolTable
 70
     1
  0
STYLE
  5
11
330
3
100
AcDbSymbolTableRecord
100
AcDbTextStyleTableRecord
  2
STANDARD
 70
     0
 40
0.0
 41
0.8
 50
0.0
 71
     0
 42
0.2
  3
isocp.shx
  4

  0
ENDTAB
  0
TABLE
  2
VIEW
  5
6
330
0
100
AcDbSymbolTable
 70
     0
  0
ENDTAB
  0
TABLE
  2
UCS
  5
7
330
0
100
AcDbSymbolTable
 70
     0
  0
ENDTAB
  0
TABLE
  2
APPID
  5
9
330
0
100
AcDbSymbolTable
 70
     1
  0
APPID
  5
12
330
9
100
AcDbSymbolTableRecord
100
AcDbRegAppTableRecord
  2
ACAD
 70
     0
  0
ENDTAB
  0
TABLE
  2
DIMSTYLE
  5
A
330
0
100
AcDbSymbolTable
 70
     2
100
AcDbDimStyleTable
 71
     0
  0
DIMSTYLE
105
30
330
A
100
AcDbSymbolTableRecord
100
AcDbDimStyleTableRecord
  2
STANDARD
 70
     0
340
11
  0
DIMSTYLE
105
5E3
102
{ACAD_REACTORS
330
8B
330
5A0
330
8C
330
89
330
8A
102
}
330
A
100
AcDbSymbolTableRecord
100
AcDbDimStyleTableRecord
  2
ISO-25
 70
     0
 41
2.5
 42
0.625
 43
3.75
 44
1.25
 73
     0
 74
     0
 77
     1
 78
     8
140
2.5
141
2.5
143
0.03937007874016
147
0.625
171
     3
172
     1
271
     2
272
     2
274
     3
283
     0
284
     8
340
11
  0
ENDTAB
  0
TABLE
  2
BLOCK_RECORD
  5
1
330
0
100
AcDbSymbolTable
 70
     6
  0
BLOCK_RECORD
  5
1E
102
{ACAD_XDICTIONARY
360
148F
102
}
330
1
100
AcDbSymbolTableRecord
100
AcDbBlockTableRecord
  2
*MODEL_SPACE
340
1E87
  0
BLOCK_RECORD
  5
1A
102
{ACAD_XDICTIONARY
360
148D
102
}
330
1
100
AcDbSymbolTableRecord
100
AcDbBlockTableRecord
  2
*PAPER_SPACE
340
1E88
  0
BLOCK_RECORD
  5
23
330
1
100
AcDbSymbolTableRecord
100
AcDbBlockTableRecord
  2
_FILLED
340
0
  0
BLOCK_RECORD
  5
6D1
330
1
100
AcDbSymbolTableRecord
100
AcDbBlockTableRecord
  2
*D1
340
0
  0
BLOCK_RECORD
  5
6DD
330
1
100
AcDbSymbolTableRecord
100
AcDbBlockTableRecord
  2
*D2
340
0
  0
BLOCK_RECORD
  5
6E9
330
1
100
AcDbSymbolTableRecord
100
AcDbBlockTableRecord
  2
*D3
340
0
  0
BLOCK_RECORD
  5
6F5
330
1
100
AcDbSymbolTableRecord
100
AcDbBlockTableRecord
  2
*D4
340
0
  0
BLOCK_RECORD
  5
701
330
1
100
AcDbSymbolTableRecord
100
AcDbBlockTableRecord
  2
*D5
340
0
  0
ENDTAB
  0
ENDSEC
  0
SECTION
  2
BLOCKS
  0
BLOCK
  5
3A
330
1E
100
AcDbEntity
  8
0
100
AcDbBlockBegin
  2
*MODEL_SPACE
 70
     0
 10
0.0
 20
0.0
 30
0.0
  3
*MODEL_SPACE
  1

  0
ENDBLK
  5
3B
330
1E
100
AcDbEntity
  8
0
100
AcDbBlockEnd
  0
BLOCK
  5
38
330
1A
100
AcDbEntity
 67
     1
  8
0
100
AcDbBlockBegin
  2
*PAPER_SPACE
 70
     0
 10
0.0
 20
0.0
 30
0.0
  3
*PAPER_SPACE
  1

  0
ENDBLK
  5
39
330
1A
100
AcDbEntity
 67
     1
  8
0
100
AcDbBlockEnd
  0
BLOCK
  5
3E
330
23
100
AcDbEntity
  8
0
100
AcDbBlockBegin
  2
_FILLED
 70
     0
 10
0.0
 20
0.0
 30
0.0
  3
_FILLED
  1

  0
SOLID
  5
3F
330
23
100
AcDbEntity
  8
0
  6
ByBlock
 62
     0
100
AcDbTrace
 10
0.0
 20
0.0
 30
0.0
 11
-1.0
 21
0.132
 31
0.0
 12
-1.0
 22
-0.132
 32
0.0
 13
-1.0
 23
-0.132
 33
0.0
  0
ENDBLK
  5
40
330
23
100
AcDbEntity
  8
0
100
AcDbBlockEnd
  0
BLOCK
  5
6DB
330
6D1
100
AcDbEntity
  8
0
100
AcDbBlockBegin
  2
*D1
 70
     1
 10
0.0
 20
0.0
 30
0.0
  3
*D1
  1

  0
LINE
  5
1EAD
330
6D1
100
AcDbEntity
  8
SK2
 62
     0
370
    -2
100
AcDbLine
 10
-55.425
 20
-12.49999999999999
 30
0.0
 11
-72.20253480543123
 21
-12.49999999999998
 31
0.0
  0
LINE
  5
1EAE
330
6D1
100
AcDbEntity
  8
SK2
 62
     0
370
    -2
100
AcDbLine
 10
-58.40874912438288
 20
12.5
 30
0.0
 11
-72.20253480543123
 21
12.5
 31
0.0
  0
LINE
  5
1EAF
330
6D1
100
AcDbEntity
  8
SK2
 62
     0
370
    -2
100
AcDbLine
 10
-70.95253480543123
 20
-9.999999999999987
 30
0.0
 11
-70.95253480543123
 21
10.0
 31
0.0
  0
SOLID
  5
1EB0
330
6D1
100
AcDbEntity
  8
SK2
 62
     0
100
AcDbTrace
 10
-71.3692014720979
 20
-9.999999999999987
 30
0.0
 11
-70.53586813876456
 21
-9.999999999999987
 31
0.0
 12
-70.95253480543123
 22
-12.49999999999998
 32
0.0
 13
-70.95253480543123
 23
-12.49999999999998
 33
0.0
  0
SOLID
  5
1EB1
330
6D1
100
AcDbEntity
  8
SK2
 62
     0
100
AcDbTrace
 10
-71.3692014720979
 20
10.0
 30
0.0
 11
-70.53586813876456
 21
10.0
 31
0.0
 12
-70.95253480543123
 22
12.5
 32
0.0
 13
-70.95253480543123
 23
12.5
 33
0.0
  0
MTEXT
  5
1EB2
330
6D1
100
AcDbEntity
  8
SK2
 62
     0
100
AcDbMText
 10
-72.82753480543123
 20
-0.3406182995999729
 30
0.0
 40
2.5
 41
0.0
 71
     5
 72
     1
  1
%%c25
 11
0.0000000000000001
 21
1.0
 31
0.0
 73
     1
 44
1.0
1001
ACAD
1000
MTEXTBEGIN
1070
    73
1070
     1
1070
    44
1040
1.0
1070
    74
1070
     0
1000
MTEXTEND
  0
POINT
  5
1EB3
330
6D1
100
AcDbEntity
  8
DEFPOINTS
 62
     0
100
AcDbPoint
 10
-54.8
 20
-12.49999999999999
 30
0.0
  0
POINT
  5
1EB4
330
6D1
100
AcDbEntity
  8
DEFPOINTS
 62
     0
100
AcDbPoint
 10
-57.78374912438288
 20
12.5
 30
0.0
  0
POINT
  5
1EB5
330
6D1
100
AcDbEntity
  8
DEFPOINTS
 62
     0
100
AcDbPoint
 10
-70.95253480543123
 20
12.5
 30
0.0
  0
ENDBLK
  5
6DC
330
6D1
100
AcDbEntity
  8
0
100
AcDbBlockEnd
  0
BLOCK
  5
6E7
330
6DD
100
AcDbEntity
  8
0
100
AcDbBlockBegin
  2
*D2
 70
     1
 10
0.0
 20
0.0
 30
0.0
  3
*D2
  1

  0
LINE
  5
1E89
330
6DD
100
AcDbEntity
  8
SK2
 62
     0
370
    -2
100
AcDbLine
 10
-24.0
 20
-0.6249999999999975
 30
0.0
 11
-24.0
 21
-39.21145059530497
 31
0.0
  0
LINE
  5
1E8A
330
6DD
100
AcDbEntity
  8
SK2
 62
     0
370
    -2
100
AcDbLine
 10
101.0
 20
-0.6250000000000126
 30
0.0
 11
101.0
 21
-39.21145059530497
 31
0.0
  0
LINE
  5
1E8B
330
6DD
100
AcDbEntity
  8
SK2
 62
     0
370
    -2
100
AcDbLine
 10
-21.49999999999999
 20
-37.96145059530497
 30
0.0
 11
98.50000000000001
 21
-37.96145059530497
 31
0.0
  0
SOLID
  5
1E8C
330
6DD
100
AcDbEntity
  8
SK2
 62
     0
100
AcDbTrace
 10
-21.49999999999999
 20
-37.54478392863831
 30
0.0
 11
-21.49999999999999
 21
-38.37811726197164
 31
0.0
 12
-24.0
 22
-37.96145059530497
 32
0.0
 13
-24.0
 23
-37.96145059530497
 33
0.0
  0
SOLID
  5
1E8D
330
6DD
100
AcDbEntity
  8
SK2
 62
     0
100
AcDbTrace
 10
98.50000000000001
 20
-37.54478392863831
 30
0.0
 11
98.50000000000001
 21
-38.37811726197164
 31
0.0
 12
101.0
 22
-37.96145059530497
 32
0.0
 13
101.0
 23
-37.96145059530497
 33
0.0
  0
MTEXT
  5
1E8E
330
6DD
100
AcDbEntity
  8
SK2
 62
     0
100
AcDbMText
 10
38.5
 20
-36.08645059530497
 30
0.0
 40
2.5
 41
0.0
 71
     5
 72
     1
  1
125
 73
     1
 44
1.0
1001
ACAD
1000
MTEXTBEGIN
1070
    73
1070
     1
1070
    44
1040
1.0
1070
    74
1070
     0
1000
MTEXTEND
  0
POINT
  5
1E8F
330
6DD
100
AcDbEntity
  8
DEFPOINTS
 62
     0
100
AcDbPoint
 10
-24.0
 20
0.0000000000000029
 30
0.0
  0
POINT
  5
1E90
330
6DD
100
AcDbEntity
  8
DEFPOINTS
 62
     0
100
AcDbPoint
 10
101.0
 20
-0.0000000000000124
 30
0.0
  0
POINT
  5
1E91
330
6DD
100
AcDbEntity
  8
DEFPOINTS
 62
     0
100
AcDbPoint
 10
101.0
 20
-37.96145059530497
 30
0.0
  0
ENDBLK
  5
6E8
330
6DD
100
AcDbEntity
  8
0
100
AcDbBlockEnd
  0
BLOCK
  5
6F3
330
6E9
100
AcDbEntity
  8
0
100
AcDbBlockBegin
  2
*D3
 70
     1
 10
0.0
 20
0.0
 30
0.0
  3
*D3
  1

  0
LINE
  5
1E9B
330
6E9
100
AcDbEntity
  8
2
 62
     0
370
    -2
100
AcDbLine
 10
101.0
 20
-1.250000000000011
 30
0.0
 11
101.0
 21
-29.2544421552
 31
0.0
  0
LINE
  5
1E9C
330
6E9
100
AcDbEntity
  8
2
 62
     0
370
    -2
100
AcDbLine
 10
41.0
 20
7.874999999999992
 30
0.0
 11
41.0
 21
-29.25444215520001
 31
0.0
  0
LINE
  5
1E9D
330
6E9
100
AcDbEntity
  8
2
 62
     0
370
    -2
100
AcDbLine
 10
98.50000000000001
 20
-28.0044421552
 30
0.0
 11
43.5
 21
-28.0044421552
 31
0.0
  0
SOLID
  5
1E9E
330
6E9
100
AcDbEntity
  8
2
 62
     0
100
AcDbTrace
 10
98.50000000000001
 20
-27.58777548853334
 30
0.0
 11
98.50000000000001
 21
-28.42110882186667
 31
0.0
 12
101.0
 22
-28.0044421552
 32
0.0
 13
101.0
 23
-28.0044421552
 33
0.0
  0
SOLID
  5
1E9F
330
6E9
100
AcDbEntity
  8
2
 62
     0
100
AcDbTrace
 10
43.5
 20
-27.58777548853334
 30
0.0
 11
43.5
 21
-28.42110882186667
 31
0.0
 12
41.0
 22
-28.0044421552
 32
0.0
 13
41.0
 23
-28.0044421552
 33
0.0
  0
MTEXT
  5
1EA0
330
6E9
100
AcDbEntity
  8
2
 62
     0
100
AcDbMText
 10
70.5275918273
 20
-26.1294421552
 30
0.0
 40
2.5
 41
0.0
 71
     5
 72
     1
  1
60
 73
     1
 44
1.0
1001
ACAD
1000
MTEXTBEGIN
1070
    73
1070
     1
1070
    44
1040
1.0
1070
    74
1070
     0
1000
MTEXTEND
  0
POINT
  5
1EA1
330
6E9
100
AcDbEntity
  8
DEFPOINTS
 62
     0
100
AcDbPoint
 10
101.0
 20
-0.6250000000000126
 30
0.0
  0
POINT
  5
1EA2
330
6E9
100
AcDbEntity
  8
DEFPOINTS
 62
     0
100
AcDbPoint
 10
41.0
 20
8.499999999999994
 30
0.0
  0
POINT
  5
1EA3
330
6E9
100
AcDbEntity
  8
DEFPOINTS
 62
     0
100
AcDbPoint
 10
41.0
 20
-28.0044421552
 30
0.0
  0
ENDBLK
  5
6F4
330
6E9
100
AcDbEntity
  8
0
100
AcDbBlockEnd
  0
BLOCK
  5
6FF
330
6F5
100
AcDbEntity
  8
0
100
AcDbBlockBegin
  2
*D4
 70
     1
 10
0.0
 20
0.0
 30
0.0
  3
*D4
  1

  0
LINE
  5
1E92
330
6F5
100
AcDbEntity
  8
SK2
 62
     0
370
    -2
100
AcDbLine
 10
101.0
 20
6.263748731599982
 30
0.0
 11
101.0
 21
-49.21806388234279
 31
0.0
  0
LINE
  5
1E93
330
6F5
100
AcDbEntity
  8
SK2
 62
     0
370
    -2
100
AcDbLine
 10
-56.0
 20
-15.1234080292172
 30
0.0
 11
-56.0
 21
-49.21806388234279
 31
0.0
  0
LINE
  5
1E94
330
6F5
100
AcDbEntity
  8
SK2
 62
     0
370
    -2
100
AcDbLine
 10
98.50000000000001
 20
-47.96806388234279
 30
0.0
 11
-53.5
 21
-47.96806388234279
 31
0.0
  0
SOLID
  5
1E95
330
6F5
100
AcDbEntity
  8
SK2
 62
     0
100
AcDbTrace
 10
98.50000000000001
 20
-47.55139721567609
 30
0.0
 11
98.50000000000001
 21
-48.38473054900945
 31
0.0
 12
101.0
 22
-47.96806388234279
 32
0.0
 13
101.0
 23
-47.96806388234279
 33
0.0
  0
SOLID
  5
1E96
330
6F5
100
AcDbEntity
  8
SK2
 62
     0
100
AcDbTrace
 10
-53.5
 20
-47.55139721567609
 30
0.0
 11
-53.5
 21
-48.38473054900945
 31
0.0
 12
-56.0
 22
-47.96806388234279
 32
0.0
 13
-56.0
 23
-47.96806388234279
 33
0.0
  0
MTEXT
  5
1E97
330
6F5
100
AcDbEntity
  8
SK2
 62
     0
100
AcDbMText
 10
24.4773555199631
 20
-46.09306388234279
 30
0.0
 40
2.5
 41
0.0
 71
     5
 72
     1
  1
157
 73
     1
 44
1.0
1001
ACAD
1000
MTEXTBEGIN
1070
    73
1070
     1
1070
    44
1040
1.0
1070
    74
1070
     0
1000
MTEXTEND
  0
POINT
  5
1E98
330
6F5
100
AcDbEntity
  8
DEFPOINTS
 62
     0
100
AcDbPoint
 10
101.0
 20
6.888748731599982
 30
0.0
  0
POINT
  5
1E99
330
6F5
100
AcDbEntity
  8
DEFPOINTS
 62
     0
100
AcDbPoint
 10
-56.0
 20
-14.4984080292172
 30
0.0
  0
POINT
  5
1E9A
330
6F5
100
AcDbEntity
  8
DEFPOINTS
 62
     0
100
AcDbPoint
 10
-56.0
 20
-47.96806388234279
 30
0.0
  0
ENDBLK
  5
700
330
6F5
100
AcDbEntity
  8
0
100
AcDbBlockEnd
  0
BLOCK
  5
70B
330
701
100
AcDbEntity
  8
0
100
AcDbBlockBegin
  2
*D5
 70
     1
 10
0.0
 20
0.0
 30
0.0
  3
*D5
  1

  0
LINE
  5
1EA4
330
701
100
AcDbEntity
  8
2
 62
     0
370
    -2
100
AcDbLine
 10
101.625
 20
9.999999999999987
 30
0.0
 11
117.2556160293626
 21
9.999999999999982
 31
0.0
  0
LINE
  5
1EA5
330
701
100
AcDbEntity
  8
2
 62
     0
370
    -2
100
AcDbLine
 10
101.625
 20
-10.0
 30
0.0
 11
117.2556160293626
 21
-10.0
 31
0.0
  0
LINE
  5
1EA6
330
701
100
AcDbEntity
  8
2
 62
     0
370
    -2
100
AcDbLine
 10
116.0056160293627
 20
7.499999999999982
 30
0.0
 11
116.0056160293627
 21
-7.500000000000016
 31
0.0
  0
SOLID
  5
1EA7
330
701
100
AcDbEntity
  8
2
 62
     0
100
AcDbTrace
 10
115.5889493626959
 20
7.499999999999982
 30
0.0
 11
116.4222826960293
 21
7.499999999999982
 31
0.0
 12
116.0056160293627
 22
9.999999999999982
 32
0.0
 13
116.0056160293627
 23
9.999999999999982
 33
0.0
  0
SOLID
  5
1EA8
330
701
100
AcDbEntity
  8
2
 62
     0
100
AcDbTrace
 10
115.5889493626959
 20
-7.500000000000016
 30
0.0
 11
116.4222826960293
 21
-7.500000000000016
 31
0.0
 12
116.0056160293627
 22
-10.0
 32
0.0
 13
116.0056160293627
 23
-10.0
 33
0.0
  0
MTEXT
  5
1EA9
330
701
100
AcDbEntity
  8
2
 62
     0
100
AcDbMText
 10
114.1306160293626
 20
0.0308390633410769
 30
0.0
 40
2.5
 41
0.0
 71
     5
 72
     1
  1
%%c20
 11
0.0000000000000001
 21
1.0
 31
0.0
 73
     1
 44
1.0
1001
ACAD
1000
MTEXTBEGIN
1070
    73
1070
     1
1070
    44
1040
1.0
1070
    74
1070
     0
1000
MTEXTEND
  0
POINT
  5
1EAA
330
701
100
AcDbEntity
  8
DEFPOINTS
 62
     0
100
AcDbPoint
 10
101.0
 20
9.999999999999987
 30
0.0
  0
POINT
  5
1EAB
330
701
100
AcDbEntity
  8
DEFPOINTS
 62
     0
100
AcDbPoint
 10
101.0
 20
-10.0
 30
0.0
  0
POINT
  5
1EAC
330
701
100
AcDbEntity
  8
DEFPOINTS
 62
     0
100
AcDbPoint
 10
116.0056160293627
 20
-10.0
 30
0.0
  0
ENDBLK
  5
70C
330
701
100
AcDbEntity
  8
0
100
AcDbBlockEnd
  0
ENDSEC
  0
SECTION
  2
ENTITIES
  0
DIMENSION
  5
89
330
1E
100
AcDbEntity
  8
SK2
100
AcDbDimension
  2
*D4
 10
-56.0
 20
-47.96806388234279
 30
0.0
 11
24.4773555199631
 21
-47.96806388234279
 31
0.0
 70
   160
 71
     5
 42
157.0
  3
ISO-25
100
AcDbAlignedDimension
 13
101.0
 23
6.888748731599982
 33
0.0
 14
-56.0
 24
-14.4984080292172
 34
0.0
 50
180.0
100
AcDbRotatedDimension
  0
DIMENSION
  5
8A
330
1E
100
AcDbEntity
  8
2
100
AcDbDimension
  2
*D5
 10
116.0056160293627
 20
-10.0
 30
0.0
 11
116.0056160293627
 21
0.0308390633410767
 31
0.0
 70
   160
  1
%%c<>
 71
     5
 42
20.0
  3
ISO-25
100
AcDbAlignedDimension
 13
101.0
 23
9.999999999999987
 33
0.0
 14
101.0
 24
-10.0
 34
0.0
 50
270.0
100
AcDbRotatedDimension
  0
DIMENSION
  5
8B
330
1E
100
AcDbEntity
  8
SK2
100
AcDbDimension
  2
*D1
 10
-70.95253480543123
 20
12.5
 30
0.0
 11
-70.95253480543123
 21
-0.3406182995999731
 31
0.0
 70
   160
  1
%%c<>
 71
     5
 42
25.0
  3
ISO-25
100
AcDbAlignedDimension
 13
-54.8
 23
-12.49999999999999
 33
0.0
 14
-57.78374912438288
 24
12.5
 34
0.0
 50
89.99999999999998
100
AcDbRotatedDimension
  0
DIMENSION
  5
8C
330
1E
100
AcDbEntity
  8
2
100
AcDbDimension
  2
*D3
 10
41.0
 20
-28.0044421552
 30
0.0
 11
70.5275918273
 21
-28.0044421552
 31
0.0
 70
   160
 71
     5
 42
60.0
  3
ISO-25
100
AcDbAlignedDimension
 13
101.0
 23
-0.6250000000000126
 33
0.0
 14
41.0
 24
8.499999999999994
 34
0.0
 50
180.0
100
AcDbRotatedDimension
  0
LINE
  5
8D
330
1E
100
AcDbEntity
  8
1
100
AcDbLine
 10
100.0
 20
-3.103420435600021
 30
0.0
 11
100.0
 21
-4.540476104500021
 31
0.0
  0
LINE
  5
8F
330
1E
100
AcDbEntity
  8
1
100
AcDbLine
 10
93.03394201000001
 20
-7.806626818400002
 30
0.0
 11
93.03394201000001
 21
1.500356450699988
 31
0.0
  0
LINE
  5
91
330
1E
100
AcDbEntity
  8
1
100
AcDbLine
 10
41.28317965099999
 20
-8.500000000000005
 30
0.0
 11
41.28317965099999
 21
8.499999999999994
 31
0.0
  0
LINE
  5
92
330
1E
100
AcDbEntity
  8
1
100
AcDbLine
 10
40.71863121079998
 20
-8.531973725999991
 30
0.0
 11
40.71863121079998
 21
8.531973726100002
 31
0.0
  0
LINE
  5
93
330
1E
100
AcDbEntity
  8
SK1
100
AcDbLine
 10
0.0000000000000015
 20
12.5
 30
0.0
 11
-54.8
 21
12.5
 31
0.0
  0
LINE
  5
94
330
1E
100
AcDbEntity
  8
1
100
AcDbLine
 10
7.716820349099997
 20
12.24999999999999
 30
0.0
 11
0.1999999999999904
 21
12.25
 31
0.0
  0
LINE
  5
95
330
1E
100
AcDbEntity
  8
1
100
AcDbLine
 10
40.71863121079998
 20
8.531973726100002
 30
0.0
 11
8.281368789299991
 21
12.218026274
 31
0.0
  0
LINE
  5
96
330
1E
100
AcDbEntity
  8
1
100
AcDbLine
 10
91.77005475909998
 20
8.499999999999987
 30
0.0
 11
41.28317965099999
 21
8.499999999999994
 31
0.0
  0
LINE
  5
97
330
1E
100
AcDbEntity
  8
1
100
AcDbLine
 10
92.45640739
 20
8.499917391500007
 30
0.0
 11
92.03538818229999
 21
8.499917391500007
 31
0.0
  0
LINE
  5
98
330
1E
100
AcDbEntity
  8
1
100
AcDbLine
 10
91.77005475909998
 20
8.496682050099975
 30
0.0
 11
82.00307380259998
 21
8.496682050099975
 31
0.0
  0
LINE
  5
99
330
1E
100
AcDbEntity
  8
SK1
100
AcDbLine
 10
-18.0
 20
6.782329983100026
 30
0.0
 11
-30.0
 21
6.78232998310003
 31
0.0
  0
LINE
  5
9A
330
1E
100
AcDbEntity
  8
SK1
100
AcDbLine
 10
-39.0
 20
6.782329983100031
 30
0.0
 11
-54.8
 21
6.782329983100034
 31
0.0
  0
LINE
  5
9C
330
1E
100
AcDbEntity
  8
1
100
AcDbLine
 10
95.015724
 20
1.500356450699988
 30
0.0
 11
91.015724
 21
1.500356450699988
 31
0.0
  0
LINE
  5
9D
330
1E
100
AcDbEntity
  8
4
100
AcDbLine
 10
103.7115841604309
 20
-0.000000000000015
 30
0.0
 11
0.0483259094121706
 21
0.0
 31
0.0
  0
LINE
  5
9E
330
1E
100
AcDbEntity
  8
1
100
AcDbLine
 10
40.71863121079998
 20
-8.531973725999991
 30
0.0
 11
8.281368789299987
 21
-12.2180262739
 31
0.0
  0
LINE
  5
9F
330
1E
100
AcDbEntity
  8
SK1
100
AcDbLine
 10
-18.0
 20
-6.782329983099995
 30
0.0
 11
-30.0
 21
-6.782329983099995
 31
0.0
  0
LINE
  5
A0
330
1E
100
AcDbEntity
  8
SK1
100
AcDbLine
 10
-39.0
 20
-6.782329983099995
 30
0.0
 11
-54.8
 21
-6.782329983099992
 31
0.0
  0
LINE
  5
A1
330
1E
100
AcDbEntity
  8
1
100
AcDbLine
 10
93.03394201000001
 20
-7.806626818400002
 30
0.0
 11
92.75768062659999
 21
-7.806626818400002
 31
0.0
  0
LINE
  5
A2
330
1E
100
AcDbEntity
  8
1
100
AcDbLine
 10
92.58699599499999
 20
-8.500000000000008
 30
0.0
 11
41.28317965099999
 21
-8.500000000000005
 31
0.0
  0
LINE
  5
A3
330
1E
100
AcDbEntity
  8
1
100
AcDbLine
 10
8.281368789299991
 20
12.218026274
 30
0.0
 11
8.281368789299987
 21
-12.2180262739
 31
0.0
  0
LINE
  5
A4
330
1E
100
AcDbEntity
  8
1
100
AcDbLine
 10
7.716820349099997
 20
12.24999999999999
 30
0.0
 11
7.716820349099992
 21
-12.25
 31
0.0
  0
LINE
  5
A5
330
1E
100
AcDbEntity
  8
1
100
AcDbLine
 10
7.716820349099992
 20
-12.25
 30
0.0
 11
0.1999999999999875
 21
-12.25
 31
0.0
  0
LINE
  5
A6
330
1E
100
AcDbEntity
  8
SK1
100
AcDbLine
 10
-0.0000000000000015
 20
-12.5
 30
0.0
 11
-54.8
 21
-12.49999999999999
 31
0.0
  0
LINE
  5
A7
330
1E
100
AcDbEntity
  8
1
100
AcDbLine
 10
0.1999999999999904
 20
12.25
 30
0.0
 11
0.1999999999999875
 21
-12.25
 31
0.0
  0
LINE
  5
A8
330
1E
100
AcDbEntity
  8
1
100
AcDbLine
 10
0.0000000000000015
 20
12.5
 30
0.0
 11
-0.0000000000000015
 21
-12.5
 31
0.0
  0
LINE
  5
A9
330
1E
100
AcDbEntity
  8
SK1
100
AcDbLine
 10
-18.0
 20
6.782329983100026
 30
0.0
 11
-18.0
 21
-6.782329983099995
 31
0.0
  0
LINE
  5
AA
330
1E
100
AcDbEntity
  8
SK1
100
AcDbLine
 10
-30.0
 20
6.78232998310003
 30
0.0
 11
-30.0
 21
-6.782329983099995
 31
0.0
  0
LINE
  5
AB
330
1E
100
AcDbEntity
  8
SK1
100
AcDbLine
 10
-39.0
 20
6.782329983100031
 30
0.0
 11
-39.0
 21
-6.782329983099995
 31
0.0
  0
LINE
  5
AC
330
1E
100
AcDbEntity
  8
SK1
100
AcDbLine
 10
-54.8
 20
12.5
 30
0.0
 11
-56.0
 21
11.3
 31
0.0
  0
LINE
  5
AD
330
1E
100
AcDbEntity
  8
SK1
100
AcDbLine
 10
-54.8
 20
-12.49999999999999
 30
0.0
 11
-56.0
 21
-11.29999999999999
 31
0.0
  0
LINE
  5
AE
330
1E
100
AcDbEntity
  8
SK1
100
AcDbLine
 10
-54.8
 20
6.782329983100034
 30
0.0
 11
-54.8
 21
12.5
 31
0.0
  0
LINE
  5
AF
330
1E
100
AcDbEntity
  8
SK1
100
AcDbLine
 10
-54.8
 20
-6.782329983099992
 30
0.0
 11
-54.8
 21
-12.49999999999999
 31
0.0
  0
LINE
  5
B0
330
1E
100
AcDbEntity
  8
SK1
100
AcDbLine
 10
-56.0
 20
11.29999981269999
 30
0.0
 11
-56.0
 21
-11.29999981269998
 31
0.0
  0
ARC
  5
B2
330
1E
100
AcDbEntity
  8
1
100
AcDbCircle
 10
96.01572400000002
 20
5.000356450699987
 30
0.0
 40
4.991597085
100
AcDbArc
 50
294.3817925702997
 51
224.5220075037999
  0
CIRCLE
  5
B5
330
1E
100
AcDbEntity
  8
1
100
AcDbCircle
 10
96.01572400000002
 20
5.000356450699987
 30
0.0
 40
3.0699873031
  0
ARC
  5
B6
330
1E
100
AcDbEntity
  8
1
100
AcDbCircle
 10
96.01572400000002
 20
-5.000356450700011
 30
0.0
 40
4.991597085
100
AcDbArc
 50
224.5163043040999
 51
43.81728506380002
  0
ARC
  5
B8
330
1E
100
AcDbEntity
  8
1
100
AcDbCircle
 10
91.015724
 20
11.50035645069998
 30
0.0
 40
10.0
100
AcDbArc
 50
197.6523644442998
 51
270.0
  0
CIRCLE
  5
B9
330
1E
100
AcDbEntity
  8
1
100
AcDbCircle
 10
95.8743026438
 20
-4.85893509439999
 30
0.0
 40
2.25
  0
ARC
  5
BA
330
1E
100
AcDbEntity
  8
1
100
AcDbCircle
 10
95.015724
 20
-3.499643549300008
 30
0.0
 40
5.0
100
AcDbArc
 50
4.545147958799891
 51
90.0
  0
ARC
  5
BB
330
1E
100
AcDbEntity
  8
1
100
AcDbCircle
 10
96.01572400000002
 20
-5.000356450700011
 30
0.0
 40
4.5
100
AcDbArc
 50
219.9479444775999
 51
227.5818836798999
  0
ARC
  5
BC
330
1E
100
AcDbEntity
  8
1
100
AcDbCircle
 10
7.716820349099997
 20
7.249999999999999
 30
0.0
 40
5.0
100
AcDbArc
 50
83.51692630709996
 51
90.0
  0
ARC
  5
BD
330
1E
100
AcDbEntity
  8
1
100
AcDbCircle
 10
7.716820349099996
 20
-7.25
 30
0.0
 40
5.0
100
AcDbArc
 50
270.0
 51
276.4830736928999
  0
ARC
  5
BE
330
1E
100
AcDbEntity
  8
1
100
AcDbCircle
 10
41.28317965099999
 20
13.49999999999999
 30
0.0
 40
5.0
100
AcDbArc
 50
263.5169263072999
 51
270.0
  0
ARC
  5
BF
330
1E
100
AcDbEntity
  8
1
100
AcDbCircle
 10
41.28317965099999
 20
-13.5
 30
0.0
 40
5.0
100
AcDbArc
 50
90.0
 51
96.4830736927
  0
ARC
  5
C0
330
1E
100
AcDbEntity
  8
1
100
AcDbCircle
 10
95.015724
 20
3.499643549299986
 30
0.0
 40
5.0
100
AcDbArc
 50
315.5679124268998
 51
336.9787690694999
  0
ARC
  5
C1
330
1E
100
AcDbEntity
  8
1
100
AcDbCircle
 10
0.1999999999999874
 20
-12.45
 30
0.0
 40
0.2
100
AcDbArc
 50
90.0
 51
180.0
  0
ARC
  5
C2
330
1E
100
AcDbEntity
  8
1
100
AcDbCircle
 10
96.01572400000002
 20
5.000356450699987
 30
0.0
 40
5.5
100
AcDbArc
 50
140.5284077758999
 51
219.3849043311999
  0
ARC
  5
C3
330
1E
100
AcDbEntity
  8
1
100
AcDbCircle
 10
0.1999999999999905
 20
12.45
 30
0.0
 40
0.2
100
AcDbArc
 50
180.0
 51
270.0
  0
LWPOLYLINE
  5
232
330
1E
100
AcDbEntity
  8
1
100
AcDbPolyline
 90
      162
 70
     0
 43
0.0
 10
93.30358364549999
 20
-7.920329839200017
 10
93.3522729876744
 20
-7.96779476505959
 10
93.4017654073517
 20
-8.01443456924415
 10
93.45204644665599
 20
-8.06023063357717
 10
93.50310164771171
 20
-8.10516433988216
 10
93.55491660822307
 20
-8.149217234980151
 10
93.60747769297979
 20
-8.192373142889579
 10
93.6607718259053
 20
-8.23461754749448
 10
93.71478594360509
 20
-8.275935970327108
 10
93.76950697271627
 20
-8.31631393396513
 10
93.81696283654839
 20
-8.350164178102536
 10
93.86491807173531
 20
-8.383303945122406
 10
93.91336281873327
 20
-8.41572428865377
 10
93.9622872179992
 20
-8.44741626232563
 10
94.01168140557958
 20
-8.478370925008979
 10
94.06153521801078
 20
-8.508579691604978
 10
94.11183800630906
 20
-8.53803455415565
 10
94.16257907713561
 20
-8.566727557428199
 10
94.21374773715148
 20
-8.594650746189881
 10
94.26533328711469
 20
-8.621796171100811
 10
94.31732468618369
 20
-8.64815622382884
 10
94.3697103711519
 20
-8.67372381750158
 10
94.4224787346995
 20
-8.69849190928341
 10
94.4756181695067
 20
-8.722453456338763
 10
94.52911706069901
 20
-8.745601426478922
 10
94.58296348605299
 20
-8.767929220655222
 10
94.6371451160056
 20
-8.789430813875272
 10
94.69164959294147
 20
-8.810100220679549
 10
94.74646455924549
 20
-8.829931455608567
 10
94.80157764643641
 20
-8.848918552720492
 10
94.8569761970519
 20
-8.867056065145639
 10
94.91264724112069
 20
-8.884339107346892
 10
94.9685777930915
 20
-8.900762821773081
 10
95.0247548674125
 20
-8.916322350873041
 10
95.08116546319259
 20
-8.931012873957081
 10
95.12834311992278
 20
-8.942588102416232
 10
95.17566593804479
 20
-8.953554808543131
 10
95.22312611510999
 20
-8.963910872513222
 10
95.2707158486697
 20
-8.973654174501929
 10
95.31842733627518
 20
-8.982782594684712
 10
95.3662527568313
 20
-8.991294079472861
 10
95.41418415996901
 20
-8.99918703447417
 10
95.46221354055857
 20
-9.006460059813553
 10
95.5103328932736
 20
-9.013111756315838
 10
95.55853421278738
 20
-9.019140724805851
 10
95.60680949377321
 20
-9.024545566108411
 10
95.65515071289087
 20
-9.029324993542132
 10
95.703549768042
 20
-9.033478212261199
 10
95.75199853560958
 20
-9.037004561799259
 10
95.80048889197652
 20
-9.039903381693232
 10
95.84901271352547
 20
-9.042174011479991
 10
95.89756187662649
 20
-9.043815790963707
 10
95.94612824911008
 20
-9.044828238293202
 10
95.99470367548269
 20
-9.045211358756372
 10
96.04327999630449
 20
-9.044965240053359
 10
96.09184905213579
 20
-9.044089969884318
 10
96.14040268353679
 20
-9.042585635949413
 10
96.1889327312946
 20
-9.040452328901533
 10
96.2374310556683
 20
-9.037690392990132
 10
96.28588955106742
 20
-9.034300617224692
 10
96.33430011535759
 20
-9.030283835625072
 10
96.38265464640459
 20
-9.025640882211153
 10
96.43094504207381
 20
-9.020372591002793
 10
96.47916320222059
 20
-9.014479806893367
 10
96.52730108658559
 20
-9.007963702081839
 10
96.5753507238873
 20
-9.000825825761593
 10
96.62330414666278
 20
-8.993067747999551
 10
96.67115338744959
 20
-8.984691038862671
 10
96.7188904787848
 20
-8.975697268417892
 10
96.7665074610494
 20
-8.966088031376491
 10
96.8139964959316
 20
-8.955865303603152
 10
96.86134984056351
 20
-8.945031360850091
 10
96.90855975465419
 20
-8.933588486967082
 10
96.96501142491941
 20
-8.919056464876488
 10
97.02123203406621
 20
-8.903654817426501
 10
97.07720832409581
 20
-8.88738775651459
 10
97.13292737942268
 20
-8.87026026929484
 10
97.1883763467054
 20
-8.852277483846661
 10
97.243542372602
 20
-8.833444528249462
 10
97.29841260464301
 20
-8.813766532051403
 10
97.3529743768406
 20
-8.79324893881288
 10
97.40721544004571
 20
-8.771897894000581
 10
97.46112360163053
 20
-8.749719638256042
 10
97.51468666896721
 20
-8.726720412220801
 10
97.5678924520694
 20
-8.702906459963031
 10
97.6207290210533
 20
-8.678284362973231
 10
97.6731849219842
 20
-8.652861320174272
 10
97.72524875174349
 20
-8.62664459641104
 10
97.7769091072124
 20
-8.599641456528402
 10
97.8281545901418
 20
-8.571859170437431
 10
97.87897412570401
 20
-8.54330534453317
 10
97.92935715922013
 20
-8.513988126367541
 10
97.9792931830325
 20
-8.483915712413061
 10
98.02877168948379
 20
-8.453096299142272
 10
98.07778217708211
 20
-8.421538087946968
 10
98.1263145189343
 20
-8.389249579090838
 10
98.1743591714682
 20
-8.356239738238182
 10
98.2219066416062
 20
-8.322517571339982
 10
98.27673764203259
 20
-8.282286757201518
 10
98.3308639744501
 20
-8.241112978143421
 10
98.3842714967831
 20
-8.19901112962898
 10
98.43694684151801
 20
-8.155996600760651
 10
98.4888766673326
 20
-8.112084797333219
 10
98.5400476355303
 20
-8.067291126360691
 10
98.59044694271441
 20
-8.021631243464602
 10
98.64006296954693
 20
-7.975121354174272
 10
98.6888842553213
 20
-7.927777737691669
 10
98.736899339331
 20
-7.879616673218747
 10
98.7840969370751
 20
-7.830654498588661
 10
98.83046701359413
 20
-7.780907967410409
 10
98.876000073989
 20
-7.730394012994258
 10
98.920686625508
 20
-7.679129569364962
 10
98.9645171925367
 20
-7.627131573952579
 10
99.0074831085066
 20
-7.574417124952061
 10
99.04957684884841
 20
-7.521003547484037
 10
99.09079097521079
 20
-7.466908183801439
 10
99.1311180492425
 20
-7.412148376157182
 10
99.17055085965181
 20
-7.35674148278353
 10
99.20908356572521
 20
-7.300704958367159
 10
99.2467108384465
 20
-7.244056293605451
 10
99.28342734967898
 20
-7.186812979257692
 10
99.31922778017193
 20
-7.128992505678378
 10
99.35410754272341
 20
-7.070612329878839
 10
99.38806331689979
 20
-7.011689851171827
 10
99.4210919082861
 20
-6.952242463130258
 10
99.45319012246713
 20
-6.892287559327049
 10
99.48435485591552
 20
-6.83184251734007
 10
99.51458420341213
 20
-6.770924503860922
 10
99.54387710594048
 20
-6.709550536660731
 10
99.5722325222683
 20
-6.647737630380922
 10
99.59964941116293
 20
-6.58550279966291
 10
99.62612697062541
 20
-6.522862988044928
 10
99.65166579072301
 20
-6.459834725325702
 10
99.6762669637035
 20
-6.396434392049467
 10
99.6999315824908
 20
-6.332678368559707
 10
99.72266074000849
 20
-6.268583035199857
 10
99.74445588706087
 20
-6.204164616841367
 10
99.76531988078432
 20
-6.139438727411269
 10
99.78525592371099
 20
-6.07442083078832
 10
99.804267218373
 20
-6.009126390851292
 10
99.82235696730931
 20
-5.943570871474932
 10
99.83952874292789
 20
-5.877769517042677
 10
99.8557874818106
 20
-5.811736762397339
 10
99.87113843497059
 20
-5.745486855788673
 10
99.88558685342129
 20
-5.679034045466412
 10
99.89913798817587
 20
-5.61239257968032
 10
99.91179735729843
 20
-5.545576531170518
 10
99.9235717939427
 20
-5.478599108379551
 10
99.9344685353914
 20
-5.411473254150731
 10
99.944494819036
 20
-5.344211911255539
 10
99.9536578822682
 20
-5.276828022465451
 10
99.9619650883822
 20
-5.209334384541702
 10
99.9694249561109
 20
-5.141742454273749
 10
99.9760466253695
 20
-5.07406296806044
 10
99.9818392420445
 20
-5.00630665537575
 10
99.98681195202273
 20
-4.938484245693659
 10
99.9909739317394
 20
-4.870606468696791
 10
99.9943351971703
 20
-4.80268405980144
 10
99.99721021278922
 20
-4.72501757782004
 10
99.99907008595579
 20
-4.647322865895549
 10
99.99993121685241
 20
-4.569615958803511
 10
99.9999999999917
 20
-4.540485997300101
  0
LWPOLYLINE
  5
2D6
330
1E
100
AcDbEntity
  8
1
100
AcDbPolyline
 90
      124
 70
     0
 43
0.0
 10
92.56589743620001
 20
-7.889767580900016
 10
92.5651221086319
 20
-7.888820662628227
 10
92.5645168331097
 20
-7.888049060593496
 10
92.5639263462132
 20
-7.887264888988331
 10
92.56335200233968
 20
-7.886468087628587
 10
92.56279515588621
 20
-7.885658596330131
 10
92.56225716124992
 20
-7.884836354908789
 10
92.5618668515324
 20
-7.884211270370117
 10
92.5614884791968
 20
-7.883578954643557
 10
92.5611226156295
 20
-7.882939382338927
 10
92.5607698322168
 20
-7.882292528066026
 10
92.56043070034499
 20
-7.881638366434687
 10
92.56010579140042
 20
-7.880976872054699
 10
92.55979567676941
 20
-7.880308019535881
 10
92.55950092783811
 20
-7.879631783488048
 10
92.55922211599159
 20
-7.878948138685159
 10
92.5589598114046
 20
-7.878257194646269
 10
92.5587145808539
 20
-7.87755943930438
 10
92.55848699052393
 20
-7.876855426529159
 10
92.55827760659931
 20
-7.876145710190248
 10
92.5580869952647
 20
-7.875430844157317
 10
92.5579157227046
 20
-7.874711382300027
 10
92.55776435510368
 20
-7.873987878488026
 10
92.5576334586465
 20
-7.873260886590977
 10
92.55752359951747
 20
-7.872530960478536
 10
92.55743534390139
 20
-7.871798654020366
 10
92.55738878837298
 20
-7.871309400816512
 10
92.55735225380181
 20
-7.870819499955041
 10
92.55732590794632
 20
-7.870329115545471
 10
92.55730991856479
 20
-7.869838411697346
 10
92.55730445341567
 20
-7.869347552520197
 10
92.55730968025758
 20
-7.868856702123551
 10
92.5573257338088
 20
-7.86836602697457
 10
92.557352543238
 20
-7.867875708208075
 10
92.55738995879349
 20
-7.867385932590467
 10
92.55743783056049
 20
-7.86689688689974
 10
92.55749600862449
 20
-7.866408757913927
 10
92.5575643430707
 20
-7.865921732411059
 10
92.55764268398449
 20
-7.86543599716913
 10
92.55773088145121
 20
-7.864951738966167
 10
92.55788133074959
 20
-7.864228529686719
 10
92.55805311402211
 20
-7.863509694371307
 10
92.55824572530659
 20
-7.862795863395747
 10
92.5584586586412
 20
-7.862087667135861
 10
92.5586914080638
 20
-7.861385735967451
 10
92.55894346761239
 20
-7.860690700266331
 10
92.55921433132499
 20
-7.86000319040832
 10
92.5595034932397
 20
-7.859323836769227
 10
92.55981044245121
 20
-7.858653242444721
 10
92.56013459984449
 20
-7.857991634092027
 10
92.5604753365914
 20
-7.857338964012859
 10
92.5608320227367
 20
-7.856695178287838
 10
92.56120402832507
 20
-7.85606022299766
 10
92.56159072340141
 20
-7.855434044222969
 10
92.56199147801041
 20
-7.854816588044437
 10
92.56240566219672
 20
-7.854207800542727
 10
92.5628326460051
 20
-7.853607627798496
 10
92.56327179948041
 20
-7.853016015892406
 10
92.56372249266719
 20
-7.852432910905127
 10
92.5643402787672
 20
-7.851668577379649
 10
92.56497596676231
 20
-7.850919143599967
 10
92.56562806342508
 20
-7.850184481757318
 10
92.56629512424693
 20
-7.849464451759661
 10
92.5669762290026
 20
-7.848758781329427
 10
92.56767077675371
 20
-7.84806711768846
 10
92.568378171093
 20
-7.847389106916227
 10
92.56909781561331
 20
-7.846724395092177
 10
92.57001368949131
 20
-7.845911667782199
 10
92.57094660753258
 20
-7.845118475826877
 10
92.5718954048793
 20
-7.844344127975168
 10
92.57285891667342
 20
-7.84358793297603
 10
92.57383597805679
 20
-7.842849199578411
 10
92.5748254241717
 20
-7.842127236531259
 10
92.57582609019021
 20
-7.841421352594839
 10
92.57704030809499
 20
-7.840594635792697
 10
92.5782683399235
 20
-7.839789386064567
 10
92.57950945357391
 20
-7.83900488704489
 10
92.5807629169442
 20
-7.838240422368048
 10
92.58202799793258
 20
-7.837495275668477
 10
92.5833039644371
 20
-7.836768730580597
 10
92.5848053734078
 20
-7.835943649308209
 10
92.5863194397526
 20
-7.835141774280987
 10
92.5878450009208
 20
-7.834361967936949
 10
92.58938089436169
 20
-7.833603092714067
 10
92.5911475300197
 20
-7.832760102394672
 10
92.592925479724
 20
-7.831942062702911
 10
92.59471411318028
 20
-7.831148095523968
 10
92.59651280009899
 20
-7.830377322746501
 10
92.59854755512769
 20
-7.829536834578276
 10
92.60059333893579
 20
-7.828723340185061
 10
92.60264925409918
 20
-7.827935589287191
 10
92.6049443952175
 20
-7.827088982812491
 10
92.60724970584059
 20
-7.826270900519558
 10
92.60979607480628
 20
-7.825402192013449
 10
92.61235275451523
 20
-7.824564921663896
 10
92.6149190876244
 20
-7.823757916118919
 10
92.61772896099122
 20
-7.822910684563297
 10
92.62054868699912
 20
-7.822096550910431
 10
92.623613518805
 20
-7.821250156063759
 10
92.6269246738377
 20
-7.820377874024931
 10
92.63024549188179
 20
-7.819543943674471
 10
92.6338132071821
 20
-7.81869100659853
 10
92.63739024457493
 20
-7.817878465837999
 10
92.64121522072812
 20
-7.817054497064988
 10
92.6452890178953
 20
-7.81622526687552
 10
92.6493718506394
 20
-7.815441414278511
 10
92.65370354203659
 20
-7.814658350686718
 10
92.6582843597734
 20
-7.813881366425527
 10
92.6631148005063
 20
-7.813116314597539
 10
92.66819531780368
 20
-7.812369082532999
 10
92.67352617333441
 20
-7.811645291985891
 10
92.6791074054627
 20
-7.810950217185006
 10
92.68493879749071
 20
-7.810288701485209
 10
92.69102006973939
 20
-7.809665563600931
 10
92.6971075767887
 20
-7.809107290139047
 10
92.70344437991907
 20
-7.808592999950629
 10
92.71003025489902
 20
-7.808127732426507
 10
92.71710896147052
 20
-7.807702787622548
 10
92.72443600457329
 20
-7.807341096057569
 10
92.73201077126072
 20
-7.807047698054597
 10
92.73983257961113
 20
-7.806827816608397
 10
92.7479005607735
 20
-7.806686412489987
 10
92.75621364289319
 20
-7.806628141778527
 10
92.75767062659928
 20
-7.806626818461348
  0
LWPOLYLINE
  5
354
330
1E
100
AcDbEntity
  8
1
100
AcDbPolyline
 90
       83
 70
     0
 43
0.0
 10
92.58745421409999
 20
-8.500000578499996
 10
92.59741175038307
 20
-8.49994788437989
 10
92.6069168635635
 20
-8.499794653306308
 10
92.61596813353198
 20
-8.499552347409091
 10
92.62501689829433
 20
-8.499213280578548
 10
92.63360972525049
 20
-8.498799087634751
 10
92.642198012957
 20
-8.498292825084361
 10
92.65078065147212
 20
-8.497692182301211
 10
92.65890535525413
 20
-8.497033998398308
 10
92.6670230489179
 20
-8.496287069124431
 10
92.67468238353099
 20
-8.495498290960615
 10
92.68233316088092
 20
-8.49462628860822
 10
92.68997383906869
 20
-8.493668670828197
 10
92.6971544590329
 20
-8.492687032570728
 10
92.70432348144241
 20
-8.491625443003979
 10
92.71103276374001
 20
-8.490555817780661
 10
92.7177296636224
 20
-8.489412527792341
 10
92.72441312177418
 20
-8.488193930268257
 10
92.73108207888013
 20
-8.48689838243766
 10
92.7372924211804
 20
-8.485618328978139
 10
92.74348834741429
 20
-8.48426847658226
 10
92.7496689963192
 20
-8.48284748961657
 10
92.7558334810457
 20
-8.481354024253411
 10
92.7615419970421
 20
-8.479901034619301
 10
92.76723399833812
 20
-8.478382963135016
 10
92.77290806322858
 20
-8.476798505952308
 10
92.77856277000879
 20
-8.4751463592229
 10
92.78376408807687
 20
-8.473560093635731
 10
92.78894658205741
 20
-8.47191401526515
 10
92.79410913374091
 20
-8.470207098599169
 10
92.799250624918
 20
-8.468438318125826
 10
92.80436993737907
 20
-8.466606648333138
 10
92.8094659529149
 20
-8.464711063709151
 10
92.8141158797583
 20
-8.462916421207347
 10
92.81874442980042
 20
-8.461066420872871
 10
92.82335074173539
 20
-8.45916027280036
 10
92.82793395364359
 20
-8.457197187406141
 10
92.83249304753113
 20
-8.455176456928468
 10
92.83702664345879
 20
-8.45309756335547
 10
92.84153331031379
 20
-8.45096001550298
 10
92.84601161698351
 20
-8.448763322186858
 10
92.85046013235492
 20
-8.446506992222946
 10
92.85487742531527
 20
-8.44419053442712
 10
92.85926206475201
 20
-8.441813457615197
 10
92.86321856065901
 20
-8.439599462098856
 10
92.86714581222858
 20
-8.43733459325089
 10
92.8710427442447
 20
-8.435018482037371
 10
92.87490828149108
 20
-8.432650759424371
 10
92.87874134875151
 20
-8.430231056377968
 10
92.8825408708098
 20
-8.427759003864251
 10
92.88630577244971
 20
-8.425234232849291
 10
92.89003497845492
 20
-8.422656374299171
 10
92.89372741338949
 20
-8.420025144457405
 10
92.89738200061648
 20
-8.417340725114218
 10
92.9009976630915
 20
-8.41460345613634
 10
92.90457332376979
 20
-8.411813677519798
 10
92.9081079056066
 20
-8.408971729260619
 10
92.91160033155701
 20
-8.406077951354815
 10
92.9150495245763
 20
-8.403132683798419
 10
92.91845440761973
 20
-8.400136266587447
 10
92.92181390364239
 20
-8.397089039717927
 10
92.9251269355996
 20
-8.393991343185881
 10
92.92871631930401
 20
-8.390525990325659
 10
92.93224674471828
 20
-8.38700043310367
 10
92.93540385392509
 20
-8.383743518424799
 10
92.93850997547821
 20
-8.38043756206669
 10
92.94156403233293
 20
-8.377082904025368
 10
92.9445650520822
 20
-8.373680032566863
 10
92.94751248352559
 20
-8.370230032800931
 10
92.9504058814328
 20
-8.36673413999515
 10
92.9532448005732
 20
-8.363193589417129
 10
92.95602879571672
 20
-8.359609616334468
 10
92.95875742163271
 20
-8.355983456014769
 10
92.96143023309079
 20
-8.352316343725631
 10
92.96404678486068
 20
-8.348609514734651
 10
92.96635321143721
 20
-8.345240431811348
 10
92.9686133824566
 20
-8.341841079436388
 10
92.970826973346
 20
-8.33841235811985
 10
92.97299365953241
 20
-8.334955168371811
 10
92.9751131164428
 20
-8.331470410702348
 10
92.97718501950441
 20
-8.327958985621537
 10
92.979209044144
 20
-8.324421793639459
 10
92.9803078503124
 20
-8.322454632914469
  0
LWPOLYLINE
  5
3A9
330
1E
100
AcDbEntity
  8
1
100
AcDbPolyline
 90
       15
 70
     0
 43
0.0
 10
91.7647697179
 20
1.510458502199995
 10
91.77636104374078
 20
1.508899996064877
 10
91.7876922942256
 20
1.507494791342625
 10
91.7987612192951
 20
1.506236964720006
 10
91.809704352394
 20
1.505106834826078
 10
91.82038148623719
 20
1.504114597530848
 10
91.8309297142882
 20
1.503243129944038
 10
91.841208798084
 20
1.502499546742465
 10
91.85135611049499
 20
1.501869692159107
 10
91.86123101582859
 20
1.501358377850376
 10
91.8708319273947
 20
1.500959501067828
 10
91.88029666463931
 20
1.500663149759376
 10
91.88948486897768
 20
1.500469397346686
 10
91.89853470903022
 20
1.500370895864936
 10
91.9035369609997
 20
1.500356450757698
  0
LWPOLYLINE
  5
3BA
330
1E
100
AcDbEntity
  8
1
100
AcDbPolyline
 90
       65
 70
     0
 43
0.0
 10
93.30358364549999
 20
-7.920329839200017
 10
93.29907424807592
 20
-7.915926389194699
 10
93.29449735643178
 20
-7.911591284583861
 10
93.29007663241752
 20
-7.907527489065867
 10
93.28559656684047
 20
-7.903528267681018
 10
93.2810580756441
 20
-7.899594880354007
 10
93.27669322653047
 20
-7.8959202887446
 10
93.27227726024167
 20
-7.892307329682381
 10
93.26781096129229
 20
-7.88875707808541
 10
93.2635339985347
 20
-7.885452403218252
 10
93.2592131919908
 20
-7.882205612528277
 10
93.25484918165919
 20
-7.87901743873919
 10
93.2504426075387
 20
-7.87588861457467
 10
93.24599410962798
 20
-7.872819872758381
 10
93.2417548324226
 20
-7.869977445139087
 10
93.23747927024291
 20
-7.867189880324261
 10
93.23316796257278
 20
-7.86445779552767
 10
93.22882149439459
 20
-7.861781801434307
 10
93.2244405418387
 20
-7.85916249564987
 10
93.2200257919071
 20
-7.856600474220059
 10
93.21584047468787
 20
-7.854242022702277
 10
93.21162640062219
 20
-7.851935339331327
 10
93.20738414246781
 20
-7.849680921034381
 10
93.20311427298291
 20
-7.847479264738598
 10
93.1988173649251
 20
-7.845330867371157
 10
93.19449399201142
 20
-7.843236224840128
 10
93.19014476046481
 20
-7.841195798499671
 10
93.18577031616959
 20
-7.839210007544617
 10
93.1816469528603
 20
-7.837398319058867
 10
93.17750253387229
 20
-7.835635359435971
 10
93.1733375933817
 20
-7.833921471973249
 10
93.16915266556447
 20
-7.832256999968048
 10
93.16494828459651
 20
-7.830642286717671
 10
93.16072498465379
 20
-7.82907767551946
 10
93.1564832999517
 20
-7.827563509631461
 10
93.15222378398607
 20
-7.82610011308675
 10
93.14794704055259
 20
-7.824687759762867
 10
93.14365368154707
 20
-7.823326715460872
 10
93.13934431886506
 20
-7.82201724598176
 10
93.13530834795379
 20
-7.820841840901707
 10
93.131259466585
 20
-7.819711810871257
 10
93.12719817225259
 20
-7.818627371996488
 10
93.1231249624505
 20
-7.8175887403835
 10
93.1190403346725
 20
-7.816596132138355
 10
93.11494478646258
 20
-7.815649762592547
 10
93.1108388174875
 20
-7.814749814351771
 10
93.10672293027341
 20
-7.813896425933197
 10
93.1025976275486
 20
-7.813089732743398
 10
93.0984634120408
 20
-7.81232987018892
 10
93.09432078647819
 20
-7.811616973676327
 10
93.0901702535888
 20
-7.810951178612177
 10
93.0860123161006
 20
-7.810332620403027
 10
93.0818474767417
 20
-7.809761434455449
 10
93.07767623823997
 20
-7.809237756175981
 10
93.07349910507239
 20
-7.80876171989253
 10
93.06931664341767
 20
-7.808333421873561
 10
93.0651294961533
 20
-7.807952911078237
 10
93.06093831094877
 20
-7.80762023350961
 10
93.0567437354739
 20
-7.80733543517069
 10
93.0525464173983
 20
-7.807098562064508
 10
93.0483470043918
 20
-7.806909660194111
 10
93.0441461441239
 20
-7.806768775562497
 10
93.03994448426449
 20
-7.806675954172717
 10
93.0357426724832
 20
-7.806631242027801
 10
93.0339520100022
 20
-7.80662681853646
  0
LWPOLYLINE
  5
3FD
330
1E
100
AcDbEntity
  8
SK1
100
AcDbPolyline
 90
       52
 70
     0
 43
0.0
 10
-18.0
 20
-6.782329983099995
 10
-17.91526715192409
 20
-6.649317625773092
 10
-17.8322142898904
 20
-6.515238880070866
 10
-17.7508570707565
 20
-6.380119121243745
 10
-17.67121114817587
 20
-6.243983721232092
 10
-17.5932910554664
 20
-6.106856894517305
 10
-17.52053354831079
 20
-5.975057882746755
 10
-17.4493691435102
 20
-5.842393192056055
 10
-17.3798077152044
 20
-5.708881031984147
 10
-17.31185909495549
 20
-5.574540180599708
 10
-17.24553303904219
 20
-5.439390421204096
 10
-17.180839296045
 20
-5.303451639887286
 10
-17.1177876000542
 20
-5.166743723828438
 10
-17.0563871980072
 20
-5.029286596824006
 10
-16.9994537605803
 20
-4.897696771882813
 10
-16.94403339136568
 20
-4.765462754040425
 10
-16.8901335187678
 20
-4.632601804302188
 10
-16.83776120845059
 20
-4.499131380030016
 10
-16.7869231809949
 20
-4.365069125384317
 10
-16.73762614329049
 20
-4.230432691936576
 10
-16.6898767718831
 20
-4.095239740972456
 10
-16.64368130568528
 20
-3.959508073878435
 10
-16.5990456549175
 20
-3.823255597266225
 10
-16.5559757218054
 20
-3.686500220306986
 10
-16.51447735093729
 20
-3.549259870394466
 10
-16.4745559023694
 20
-3.411552628112416
 10
-16.4362164937525
 20
-3.273396650683626
 10
-16.3994642409363
 20
-3.134810095900435
 10
-16.3660242623904
 20
-3.002770610037146
 10
-16.3340250422542
 20
-2.870374645880236
 10
-16.3034702889965
 20
-2.737637939950356
 10
-16.27436371107989
 20
-2.604576228769654
 10
-16.2467088984188
 20
-2.471205277440585
 10
-16.2205089906037
 20
-2.337540959632286
 10
-16.1957670203133
 20
-2.203599174788698
 10
-16.17248602006909
 20
-2.069395822363885
 10
-16.15066886835839
 20
-1.934946811716314
 10
-16.1303180015567
 20
-1.800268080632186
 10
-16.1114357772123
 20
-1.665375571966275
 10
-16.09402455133349
 20
-1.530285229374285
 10
-16.07808647218909
 20
-1.395013104545157
 10
-16.06362327253648
 20
-1.259575465251297
 10
-16.0506366356676
 20
-1.123988604989258
 10
-16.03912823814209
 20
-0.988268807830958
 10
-16.02909948102219
 20
-0.8524319721636718
 10
-16.0205513993018
 20
-0.7164934838953672
 10
-16.0134850026689
 20
-0.5804686935064292
 10
-16.007901281108
 20
-0.4443730619079371
 10
-16.0038008774782
 20
-0.308223995550265
 10
-16.0011841378549
 20
-0.172040564270698
 10
-16.00005139875629
 20
-0.0358418914721059
 10
-16.000000000004
 20
-0.0000100000000216
  0
LWPOLYLINE
  5
433
330
1E
100
AcDbEntity
  8
SK1
100
AcDbPolyline
 90
       52
 70
     0
 43
0.0
 10
-16.0
 20
0.000000000000002
 10
-16.00074215670677
 20
0.136199505392285
 10
-16.0029684024885
 20
0.2723888018524239
 10
-16.00667840083708
 20
0.4085487659650559
 10
-16.0118718146244
 20
0.5446602777897373
 10
-16.0185481263509
 20
0.6807052282706551
 10
-16.0267063888968
 20
0.8166679161428449
 10
-16.0363455925504
 20
0.9525329909350778
 10
-16.04746472297589
 20
1.088285095702391
 10
-16.0600625109623
 20
1.2239085166761
 10
-16.0741373047019
 20
1.359387004453949
 10
-16.08968742088968
 20
1.49470426553775
 10
-16.10671116238889
 20
1.629844013622438
 10
-16.1252065100638
 20
1.76479012985767
 10
-16.1451711206147
 20
1.899526663973438
 10
-16.1666026364774
 20
2.03403767311804
 10
-16.18949867263399
 20
2.168307216205188
 10
-16.21385647116109
 20
2.30231937612854
 10
-16.23967300529189
 20
2.436058253069858
 10
-16.2669452423194
 20
2.56950794759293
 10
-16.2956701075852
 20
2.70265257037527
 10
-16.32584412163058
 20
2.835476329684538
 10
-16.3574635784669
 20
2.967963488400701
 10
-16.3905247696201
 20
3.100098310002938
 10
-16.4268794354574
 20
3.238789671588131
 10
-16.46482253477358
 20
3.377054995573571
 10
-16.5043489530031
 20
3.51487612385029
 10
-16.5454535742644
 20
3.652234898636478
 10
-16.58813115572099
 20
3.789113202288648
 10
-16.6323759303874
 20
3.92549308287945
 10
-16.67818199602789
 20
4.061356631242492
 10
-16.72554345003418
 20
4.196685938330691
 10
-16.7744541922997
 20
4.331463158322906
 10
-16.8249076010572
 20
4.465670612399327
 10
-16.8768969694068
 20
4.599290648994007
 10
-16.9304155889344
 20
4.732305617360581
 10
-16.98545652770739
 20
4.864697987745309
 10
-17.0420123961095
 20
4.996450478142492
 10
-17.1030183540099
 20
5.134083045655668
 10
-17.16567768656159
 20
5.270971155079211
 10
-17.22998134671049
 20
5.407094867596367
 10
-17.29591964086528
 20
5.542434292986071
 10
-17.3634828204476
 20
5.676969545160241
 10
-17.43266113459189
 20
5.810680768566918
 10
-17.5034447738239
 20
5.94354889020883
 10
-17.5758238665143
 20
6.075555666990701
 10
-17.6497885380372
 20
6.206682895833051
 10
-17.72896508198119
 20
6.343090942644098
 10
-17.80985713572489
 20
6.478490210119717
 10
-17.8924491024358
 20
6.612855385022218
 10
-17.97672532525089
 20
6.746161092094411
 10
-17.9999945741394
 20
6.78232158309783
  0
LWPOLYLINE
  5
469
330
1E
100
AcDbEntity
  8
SK1
100
AcDbPolyline
 90
       52
 70
     0
 43
0.0
 10
-30.0
 20
-6.782329983099995
 10
-30.08473284807859
 20
-6.649317625775204
 10
-30.16778571011689
 20
-6.515238880076053
 10
-30.2491429292508
 20
-6.380119121249512
 10
-30.32878885182019
 20
-6.24398372123248
 10
-30.4067089445054
 20
-6.106856894505317
 10
-30.47946645163428
 20
-5.975057882720976
 10
-30.55063085641489
 20
-5.842393192019753
 10
-30.62019228471689
 20
-5.708881031945674
 10
-30.6881409049812
 20
-5.574540180569012
 10
-30.7544669609203
 20
-5.439390421186606
 10
-30.8191607039433
 20
-5.303451639883286
 10
-30.88221239995
 20
-5.166743723833164
 10
-30.9436128020001
 20
-5.029286596831141
 10
-31.0005462394234
 20
-4.897696771888845
 10
-31.0559666086336
 20
-4.765462754044595
 10
-31.1098664812315
 20
-4.632601804306195
 10
-31.1622387915529
 20
-4.499131380035755
 10
-31.2130768190116
 20
-4.365069125391695
 10
-31.2623738567121
 20
-4.230432691943473
 10
-31.31012322810359
 20
-4.095239740974896
 10
-31.35631869427569
 20
-3.959508073873024
 10
-31.40095434501549
 20
-3.823255597252103
 10
-31.44402427810519
 20
-3.686500220285813
 10
-31.4855226489629
 20
-3.549259870370122
 10
-31.52544409753069
 20
-3.411552628088303
 10
-31.5637835061514
 20
-3.273396650661314
 10
-31.60053575896919
 20
-3.134810095879663
 10
-31.6339757375104
 20
-3.002770610016343
 10
-31.6659749576405
 20
-2.870374645858793
 10
-31.69652971089719
 20
-2.737637939929034
 10
-31.7256362888245
 20
-2.604576228750595
 10
-31.7532911015115
 20
-2.471205277426685
 10
-31.77949100935899
 20
-2.337540959624884
 10
-31.80423297967648
 20
-2.203599174787024
 10
-31.8275139799307
 20
-2.069395822365036
 10
-31.8493311316279
 20
-1.934946811716205
 10
-31.8696819984007
 20
-1.800268080628134
 10
-31.88856422271139
 20
-1.665375571957556
 10
-31.9059754485624
 20
-1.530285229362025
 10
-31.9219135276921
 20
-1.395013104531626
 10
-31.9363767273428
 20
-1.259575465238312
 10
-31.94936336422181
 20
-1.123988604978024
 10
-31.9608717617681
 20
-0.9882688078220368
 10
-31.9709005189164
 20
-0.8524319721571639
 10
-31.97944860066639
 20
-0.716493483891104
 10
-31.98651499732379
 20
-0.580468693503994
 10
-31.9920987188977
 20
-0.4443730619066772
 10
-31.9961991225294
 20
-0.3082239955495801
 10
-31.998815862149
 20
-0.1720405642702861
 10
-31.999948601244
 20
-0.0358418914719708
 10
-31.999999999996
 20
-0.0000100000000197
  0
LWPOLYLINE
  5
49F
330
1E
100
AcDbEntity
  8
SK1
100
AcDbPolyline
 90
       52
 70
     0
 43
0.0
 10
-32.0
 20
0.0000000000000039
 10
-31.9992578432763
 20
0.1361995053912359
 10
-31.9970315974583
 20
0.27238880184979
 10
-31.99332159907509
 20
0.408548765961216
 10
-31.98812818527628
 20
0.544660277785988
 10
-31.9814518735712
 20
0.6807052282685842
 10
-31.9732936110626
 20
0.8166679161428469
 10
-31.9636544074413
 20
0.9525329909361357
 10
-31.9525352770223
 20
1.088285095702103
 10
-31.9399374890114
 20
1.223908516672004
 10
-31.9258626952347
 20
1.359387004445461
 10
-31.9103125790174
 20
1.494704265526354
 10
-31.8932888375156
 20
1.629844013611613
 10
-31.87479348986629
 20
1.764790129850653
 10
-31.8548288793516
 20
1.899526663971109
 10
-31.8333973635174
 20
2.034037673118803
 10
-31.8105013273648
 20
2.168307216205129
 10
-31.786143528817
 20
2.302319376123882
 10
-31.760326994653
 20
2.436058253058701
 10
-31.7330547575923
 20
2.56950794757531
 10
-31.70432989230489
 20
2.702652570353013
 10
-31.6741558782521
 20
2.835476329660091
 10
-31.64253642142031
 20
2.967963488376462
 10
-31.60947523028109
 20
3.100098309981261
 10
-31.57312056446599
 20
3.238789671571531
 10
-31.5351774651762
 20
3.377054995563642
 10
-31.4956510469731
 20
3.514876123847473
 10
-31.45454642573429
 20
3.652234898640033
 10
-31.4118688442925
 20
3.789113202296713
 10
-31.3676240696316
 20
3.925493082889142
 10
-31.3218180039857
 20
4.061356631249961
 10
-31.2744565499619
 20
4.196685938331131
 10
-31.2255458076682
 20
4.331463158311871
 10
-31.17509239888101
 20
4.465670612376113
 10
-31.12310303051039
 20
4.599290648962311
 10
-31.06958441098079
 20
4.732305617328418
 10
-31.0145434722277
 20
4.864697987721891
 10
-30.9579876038554
 20
4.996450478131652
 10
-30.89698164598181
 20
5.134083045655452
 10
-30.8343223134365
 20
5.270971155080063
 10
-30.7700186532695
 20
5.407094867587101
 10
-30.70408035908569
 20
5.542434292962052
 10
-30.63651717947859
 20
5.676969545124161
 10
-30.5673388653286
 20
5.810680768528521
 10
-30.4965552261124
 20
5.943548890178872
 10
-30.4241761334487
 20
6.075555666974561
 10
-30.3502114619526
 20
6.20668289583044
 10
-30.2710349180249
 20
6.343090942649471
 10
-30.19014286428379
 20
6.478490210125861
 10
-30.10755089756861
 20
6.612855385025471
 10
-30.0232746747492
 20
6.746161092094807
 10
-30.0000054258606
 20
6.78232158309783
  0
LWPOLYLINE
  5
4D5
330
1E
100
AcDbEntity
  8
SK1
100
AcDbPolyline
 90
       52
 70
     0
 43
0.0
 10
-39.0
 20
-6.782329983099995
 10
-38.9152671519241
 20
-6.649317625773092
 10
-38.8322142898905
 20
-6.515238880070862
 10
-38.7508570707565
 20
-6.380119121243742
 10
-38.6712111481759
 20
-6.243983721232092
 10
-38.5932910554664
 20
-6.106856894517302
 10
-38.52053354831078
 20
-5.975057882746752
 10
-38.4493691435102
 20
-5.842393192056054
 10
-38.3798077152044
 20
-5.708881031984142
 10
-38.3118590949555
 20
-5.574540180599703
 10
-38.2455330390422
 20
-5.439390421204091
 10
-38.180839296045
 20
-5.303451639887283
 10
-38.1177876000542
 20
-5.166743723828433
 10
-38.0563871980072
 20
-5.029286596824
 10
-37.99945376058028
 20
-4.897696771882811
 10
-37.94403339136571
 20
-4.765462754040423
 10
-37.89013351876779
 20
-4.632601804302183
 10
-37.8377612084506
 20
-4.499131380030013
 10
-37.78692318099489
 20
-4.365069125384311
 10
-37.73762614329049
 20
-4.230432691936573
 10
-37.68987677188309
 20
-4.095239740972453
 10
-37.64368130568529
 20
-3.959508073878423
 10
-37.5990456549175
 20
-3.823255597266223
 10
-37.55597572180539
 20
-3.686500220306982
 10
-37.5144773509373
 20
-3.549259870394464
 10
-37.47455590236929
 20
-3.411552628112413
 10
-37.4362164937525
 20
-3.273396650683622
 10
-37.39946424093619
 20
-3.134810095900433
 10
-37.3660242623904
 20
-3.002770610037133
 10
-37.33402504225419
 20
-2.870374645880231
 10
-37.3034702889965
 20
-2.737637939950354
 10
-37.2743637110799
 20
-2.604576228769653
 10
-37.24670889841878
 20
-2.471205277440583
 10
-37.2205089906037
 20
-2.337540959632283
 10
-37.19576702031329
 20
-2.203599174788696
 10
-37.1724860200691
 20
-2.069395822363884
 10
-37.1506688683584
 20
-1.934946811716313
 10
-37.13031800155671
 20
-1.800268080632173
 10
-37.11143577721229
 20
-1.665375571966274
 10
-37.0940245513335
 20
-1.530285229374284
 10
-37.0780864721891
 20
-1.395013104545153
 10
-37.0636232725365
 20
-1.259575465251292
 10
-37.0506366356676
 20
-1.123988604989254
 10
-37.0391282381421
 20
-0.9882688078309534
 10
-37.02909948102221
 20
-0.8524319721636683
 10
-37.02055139930179
 20
-0.7164934838953636
 10
-37.0134850026689
 20
-0.5804686935064255
 10
-37.00790128110799
 20
-0.4443730619079336
 10
-37.00380087747821
 20
-0.3082239955502614
 10
-37.0011841378549
 20
-0.1720405642706955
 10
-37.0000513987563
 20
-0.0358418914721024
 10
-37.000000000004
 20
-0.0000100000000191
  0
LWPOLYLINE
  5
50B
330
1E
100
AcDbEntity
  8
SK1
100
AcDbPolyline
 90
       52
 70
     0
 43
0.0
 10
-37.0
 20
0.0000000000000045
 10
-37.00074215670679
 20
0.1361995053922875
 10
-37.00296840248849
 20
0.2723888018524265
 10
-37.0066784008371
 20
0.4085487659650588
 10
-37.0118718146244
 20
0.5446602777897401
 10
-37.0185481263509
 20
0.6807052282706576
 10
-37.0267063888968
 20
0.8166679161428474
 10
-37.03634559255039
 20
0.9525329909350803
 10
-37.04746472297589
 20
1.088285095702392
 10
-37.06006251096229
 20
1.223908516676103
 10
-37.07413730470189
 20
1.35938700445395
 10
-37.0896874208897
 20
1.494704265537754
 10
-37.1067111623889
 20
1.629844013622441
 10
-37.12520651006379
 20
1.764790129857674
 10
-37.14517112061471
 20
1.899526663973442
 10
-37.1666026364774
 20
2.034037673118043
 10
-37.189498672634
 20
2.168307216205193
 10
-37.2138564711611
 20
2.302319376128544
 10
-37.2396730052919
 20
2.436058253069862
 10
-37.26694524231938
 20
2.569507947592934
 10
-37.29567010758521
 20
2.702652570375273
 10
-37.3258441216306
 20
2.835476329684541
 10
-37.35746357846689
 20
2.967963488400703
 10
-37.39052476962011
 20
3.100098310002942
 10
-37.42687943545739
 20
3.238789671588133
 10
-37.4648225347736
 20
3.377054995573573
 10
-37.50434895300311
 20
3.514876123850293
 10
-37.5454535742644
 20
3.652234898636473
 10
-37.588131155721
 20
3.789113202288652
 10
-37.6323759303874
 20
3.92549308287945
 10
-37.6781819960279
 20
4.061356631242493
 10
-37.7255434500343
 20
4.196685938330682
 10
-37.77445419229971
 20
4.331463158322911
 10
-37.82490760105718
 20
4.465670612399331
 10
-37.8768969694068
 20
4.599290648994001
 10
-37.9304155889344
 20
4.732305617360584
 10
-37.98545652770739
 20
4.864697987745313
 10
-38.0420123961095
 20
4.996450478142492
 10
-38.1030183540099
 20
5.134083045655669
 10
-38.1656776865617
 20
5.270971155079211
 10
-38.2299813467105
 20
5.407094867596372
 10
-38.2959196408653
 20
5.542434292986074
 10
-38.3634828204476
 20
5.676969545160244
 10
-38.43266113459188
 20
5.810680768566923
 10
-38.5034447738239
 20
5.943548890208834
 10
-38.57582386651428
 20
6.075555666990692
 10
-38.64978853803718
 20
6.206682895833051
 10
-38.7289650819812
 20
6.343090942644115
 10
-38.80985713572489
 20
6.478490210119712
 10
-38.89244910243579
 20
6.612855385022222
 10
-38.97672532525088
 20
6.746161092094415
 10
-38.9999945741394
 20
6.78232158309783
  0
LWPOLYLINE
  5
541
330
1E
100
AcDbEntity
  8
SK1
100
AcDbPolyline
 90
       14
 70
     0
 43
0.0
 10
-54.8
 20
-6.782329983099992
 10
-54.93821476605528
 20
-6.52408976268525
 10
-55.06550474663079
 20
-6.279560136922111
 10
-55.1835212895585
 20
-6.046409335340942
 10
-55.29381399723789
 20
-5.822242597410252
 10
-55.39660811648829
 20
-5.607204325528221
 10
-55.49214014375628
 20
-5.401440708065773
 10
-55.58182031237199
 20
-5.202473974096601
 10
-55.66581772083939
 20
-5.010409473343361
 10
-55.7443079503984
 20
-4.82535230914063
 10
-55.81855214537601
 20
-4.644743733497761
 10
-55.8876053574626
 20
-4.471325543750971
 10
-55.9526798683348
 20
-4.302519610451413
 10
-55.9999965334696
 20
-4.176131983534268
  0
LWPOLYLINE
  5
551
330
1E
100
AcDbEntity
  8
SK1
100
AcDbPolyline
 90
       14
 70
     0
 43
0.0
 10
-56.0
 20
4.176122603600027
 10
-55.9383799429103
 20
4.340093476934065
 10
-55.8728941366646
 20
4.508741360311445
 10
-55.80234823467019
 20
4.684655421799222
 10
-55.7276620399559
 20
4.865081000274225
 10
-55.6475914799475
 20
5.052586315421157
 10
-55.56195450100161
 20
5.247067153809615
 10
-55.4705769120139
 20
5.448417946794803
 10
-55.3732919951409
 20
5.656532874661927
 10
-55.2686854460477
 20
5.873886219619135
 10
-55.156522388112
 20
6.100332358610525
 10
-55.0352634109503
 20
6.338278050177334
 10
-54.90461492438029
 20
6.587532322900097
 10
-54.80000476907878
 20
6.782321193567183
  0
LWPOLYLINE
  5
561
330
1E
100
AcDbEntity
  8
1
100
AcDbPolyline
 90
       37
 70
     0
 43
0.0
 10
81.4865847577
 20
8.467947292999967
 10
81.48645892360141
 20
8.468954993776069
 10
81.48666617665901
 20
8.469970184191017
 10
81.48713433759459
 20
8.470964145645289
 10
81.48779122713021
 20
8.471908159539387
 10
81.48856466598779
 20
8.472773507273826
 10
81.48939186670521
 20
8.47353692683083
 10
81.49025525284889
 20
8.474201423495005
 10
81.49115083522529
 20
8.474777896645877
 10
81.4920746272976
 20
8.475277247206497
 10
81.49302264252909
 20
8.475710376099925
 10
81.49399089438302
 20
8.476088184249226
 10
81.4949753963225
 20
8.47642157257747
 10
81.49597216181097
 20
8.476721442007677
 10
81.49748158364879
 20
8.477132243988428
 10
81.5040552253191
 20
8.478816301138669
 10
81.5076055154511
 20
8.47967789292597
 10
81.5106569509815
 20
8.480376737111585
 10
81.5132068727812
 20
8.480924039617686
 10
81.51576413878089
 20
8.481433885574077
 10
81.51832881577179
 20
8.481905229770784
 10
81.5209001154513
 20
8.482341485227816
 10
81.52399324829408
 20
8.482823786694536
 10
81.52761053230532
 20
8.483337588165706
 10
81.5317531611187
 20
8.483872527213396
 10
81.53849601567221
 20
8.484659907661777
 10
81.5488767819736
 20
8.485761655992119
 10
81.5592640125269
 20
8.486750724697138
 10
81.57017966576907
 20
8.487673008632777
 10
81.5826671518605
 20
8.488592475993117
 10
81.59881112304788
 20
8.489607655256456
 10
81.62278061054479
 20
8.490864319553597
 10
81.65353666090721
 20
8.492158325077516
 10
81.69629950555941
 20
8.493515903649486
 10
81.76359070957758
 20
8.494966112318667
 10
81.87941346703061
 20
8.496279035236566
 10
82.00305955780001
 20
8.496682050097495
  0
LWPOLYLINE
  5
588
330
1E
100
AcDbEntity
  8
1
100
AcDbPolyline
 90
       22
 70
     0
 43
0.0
 10
91.77005475909998
 20
8.496682050099975
 10
91.7704449549757
 20
8.497011546722015
 10
91.77092323452788
 20
8.497205093198839
 10
91.77146366916321
 20
8.497299817375637
 10
91.7720403302882
 20
8.49733284709764
 10
91.7729171976857
 20
8.497346992414067
 10
91.77348658566989
 20
8.497366346711357
 10
91.77404328664239
 20
8.497395286015887
 10
91.7748577465751
 20
8.497453863819027
 10
91.77565188061391
 20
8.497526800065577
 10
91.77643062068851
 20
8.497609770061778
 10
91.77770770736779
 20
8.497758604528476
 10
91.77923399870428
 20
8.497929949193117
 10
91.7802633291471
 20
8.498026235839978
 10
91.78130375317707
 20
8.498107191876918
 10
91.78261755389748
 20
8.498189663824726
 10
91.78420963590507
 20
8.498265968277808
 10
91.78635027638659
 20
8.498339565713108
 10
91.79464748118268
 20
8.498554344279396
 10
91.81212378506449
 20
8.499008616132075
 10
91.85088994184507
 20
8.499477241881846
 10
92.0353781823
 20
8.499917391499419
  0
DIMENSION
  5
5A0
330
1E
100
AcDbEntity
  8
SK2
100
AcDbDimension
  2
*D2
 10
101.0
 20
-37.96145059530497
 30
0.0
 11
38.5
 21
-37.96145059530497
 31
0.0
 70
   160
 71
     5
 42
125.0
  3
ISO-25
100
AcDbAlignedDimension
 13
-24.0
 23
0.0000000000000029
 33
0.0
 14
101.0
 24
-0.0000000000000124
 34
0.0
 50
180.0
100
AcDbRotatedDimension
  0
LINE
  5
5A1
330
1E
100
AcDbEntity
  8
SK4
100
AcDbLine
 10
-24.0
 20
-3.435444191599993
 30
0.0
 11
-24.0
 21
11.0777711634
 31
0.0
  0
LINE
  5
5A2
330
1E
100
AcDbEntity
  8
SK4
100
AcDbLine
 10
0.0
 20
0.0
 30
0.0
 11
-58.07364065652723
 21
0.0000000000000064
 31
0.0
  0
TEXT
  5
635
330
1E
100
AcDbEntity
  8
6
100
AcDbText
 10
21.43194869562126
 20
-69.52013656640651
 30
0.0
 40
5.0
  1
15B1G020100W5R00
 41
1.199999999999999
100
AcDbText
  0
LINE
  5
1B1E
330
1E
100
AcDbEntity
  8
SK4
100
AcDbLine
 10
96.01572400000002
 20
-0.2994477667562141
 30
0.0
 11
96.01572400000002
 21
10.52768272263947
 31
0.0
  0
LINE
  5
1B1F
330
1E
100
AcDbEntity
  8
SK4
100
AcDbLine
 10
90.18895741084884
 20
5.000356450699987
 30
0.0
 11
101.9558184011454
 21
5.000356450699987
 31
0.0
  0
TEXT
  5
2035
330
1E
100
AcDbEntity
  8
6
100
AcDbText
 10
94.3226337980252
 20
18.09587852059438
 30
0.0
 40
2.5
  1
RHKW1003M0TN
100
AcDbText
  0
TEXT
  5
2036
330
1E
100
AcDbEntity
  8
6
100
AcDbText
 10
124.298600778432
 20
-4.623141651966534
 30
0.0
 40
3.5
  1
Z=2
 50
90.0
100
AcDbText
  0
LINE
  5
2271
330
1E
100
AcDbEntity
  8
NOCUT
100
AcDbLine
 10
0.0
 20
12.5
 30
0.0
 11
0.0
 21
0.0
 31
0.0
  0
LINE
  5
2275
330
1E
100
AcDbEntity
  8
NOCUT
100
AcDbLine
 10
100.0
 20
0.0
 30
0.0
 11
0.0
 21
0.0
 31
0.0
  0
LINE
  5
2278
330
1E
100
AcDbEntity
  8
NOCUT
100
AcDbLine
 10
93.19331155990004
 20
8.5
 30
0.0
 11
41.28317965099995
 21
8.5
 31
0.0
  0
LINE
  5
227B
330
1E
100
AcDbEntity
  8
NOCUT
100
AcDbLine
 10
40.71863121070009
 20
8.531973726100005
 30
0.0
 11
8.281368789300129
 21
12.21802627389998
 31
0.0
  0
LINE
  5
227C
330
1E
100
AcDbEntity
  8
NOCUT
100
AcDbLine
 10
7.716820349000045
 20
12.25
 30
0.0
 11
0.2000000000000455
 21
12.25
 31
0.0
  0
LINE
  5
2280
330
1E
100
AcDbEntity
  8
NOCUT
100
AcDbLine
 10
100.0
 20
5.650000000000003
 30
0.0
 11
100.0
 21
0.0
 31
0.0
  0
ARC
  5
228E
330
1E
100
AcDbEntity
  8
NOCUT
100
AcDbCircle
 10
7.716820349000045
 20
7.25
 30
0.0
 40
5.0
100
AcDbArc
 50
83.51692630709967
 51
90.0
  0
ARC
  5
2290
330
1E
100
AcDbEntity
  8
NOCUT
100
AcDbCircle
 10
41.28317965099995
 20
13.5
 30
0.0
 40
5.0
100
AcDbArc
 50
263.5169263070995
 51
270.0
  0
ARC
  5
2292
330
1E
100
AcDbEntity
  8
NOCUT
100
AcDbCircle
 10
96.0
 20
5.650000000000003
 30
0.0
 40
4.0
100
AcDbArc
 50
0.0
 51
134.5613120436006
  0
ARC
  5
2294
330
1E
100
AcDbEntity
  8
NOCUT
100
AcDbCircle
 10
0.2000000000000455
 20
12.44999999999998
 30
0.0
 40
0.2
100
AcDbArc
 50
180.0
 51
270.0
  0
SPLINE
  5
22B3
330
1E
100
AcDbEntity
  8
CUT
100
AcDbSpline
210
0.0
220
0.0
230
1.0
 70
     8
 71
     3
 72
    36
 73
    32
 74
    30
 42
0.0000000001
 43
0.0000000001
 44
0.0000000001
 12
-0.9999657370739441
 22
0.0082779634067752
 32
0.0
 13
0.9999999735951984
 23
-0.0002298033996267
 33
0.0
 40
0.0
 40
0.0
 40
0.0
 40
0.0
 40
0.5396896869294578
 40
1.073331327768101
 40
1.597940705002252
 40
2.11771713050171
 40
2.639005008059765
 40
3.164180589200054
 40
3.692981226458522
 40
4.22456815999343
 40
4.758205951357544
 40
5.293354380746094
 40
5.829631597440028
 40
6.36676887417382
 40
6.904570398130361
 40
7.442897443161566
 40
7.981640443161548
 40
8.520722009458349
 40
9.060078046986433
 40
9.59966011986876
 40
10.13942898107695
 40
10.6793517020399
 40
11.21940286055357
 40
11.75956002039971
 40
12.2998039585554
 40
12.84011964047204
 40
13.38049123911965
 40
13.92090588650163
 40
14.46135285487597
 40
15.00182039788106
 40
15.54229876020282
 40
15.54229876020282
 40
15.54229876020282
 40
15.54229876020282
 10
96.01572399999998
 20
0.4011730000000071
 30
0.0
 10
95.83583360147278
 20
0.4026621771598125
 30
0.0
 10
95.47806362647142
 20
0.4002109600225001
 30
0.0
 10
94.94536462559793
 20
0.4123361451285914
 30
0.0
 10
94.42120648995389
 20
0.4702693047553636
 30
0.0
 10
93.91480412319262
 20
0.6054286085277554
 30
0.0
 10
93.43546227855515
 20
0.816995292633045
 30
0.0
 10
92.98754149469596
 20
1.093858164410764
 30
0.0
 10
92.57526257597978
 20
1.426620171240089
 30
0.0
 10
92.20320470362034
 20
1.807621387667401
 30
0.0
 10
91.87572275113016
 20
2.23016583002351
 30
0.0
 10
91.59669122057891
 20
2.687954638798828
 30
0.0
 10
91.36941113621222
 20
3.174787253705932
 30
0.0
 10
91.19656720534726
 20
3.68442124791957
 30
0.0
 10
91.0801987517418
 20
4.210528701952062
 30
0.0
 10
91.02167945952555
 20
4.746699188602537
 30
0.0
 10
91.02169962368003
 20
5.286477711085824
 30
0.0
 10
91.08026291142953
 20
5.823413231332452
 30
0.0
 10
91.19668516178137
 20
6.351121760039774
 30
0.0
 10
91.3696035777858
 20
6.863348719844325
 30
0.0
 10
91.59698991931987
 20
7.354038498604454
 30
0.0
 10
91.87618155390101
 20
7.817397867022129
 30
0.0
 10
92.20390424370661
 20
8.247964284245787
 30
0.0
 10
92.57631570624573
 20
8.640666667930137
 30
0.0
 10
92.98905271178686
 20
8.990879470686623
 30
0.0
 10
93.43727238954409
 20
9.294485966670029
 30
0.0
 10
93.91572415262386
 20
9.547912082407513
 30
0.0
 10
94.41879075411327
 20
9.748178603930801
 30
0.0
 10
94.94059832025804
 20
9.892936730496144
 30
0.0
 10
95.47494484070233
 20
9.980452260082239
 30
0.0
 10
95.83556455064979
 20
10.00004140125503
 30
0.0
 10
96.01572399999998
 20
10.0
 30
0.0
 11
96.01572399999998
 21
0.4011730000000071
 31
0.0
 11
95.47603699999996
 21
0.4028759999999993
 31
0.0
 11
94.94267800000001
 21
0.4202420000000089
 31
0.0
 11
94.421899
 21
0.4835210000000032
 31
0.0
 11
93.91980700000001
 21
0.6179500000000147
 31
0.0
 11
93.44228700000002
 21
0.8270330000000072
 31
0.0
 11
92.99493799999998
 21
1.102148000000005
 31
0.0
 11
92.58300500000002
 21
1.433721999999995
 31
0.0
 11
92.21131799999994
 21
1.813765999999993
 31
0.0
 11
91.88423400000001
 21
2.235412000000001
 31
0.0
 11
91.60558799999996
 21
2.692293000000013
 31
0.0
 11
91.37864699999999
 21
3.17818500000002
 31
0.0
 11
91.20607099999999
 21
3.686844000000013
 31
0.0
 11
91.08988399999999
 21
4.211944999999992
 31
0.0
 11
91.031448
 21
4.747091000000018
 31
0.0
 11
91.031448
 21
5.285834000000001
 31
0.0
 11
91.08988399999999
 21
5.821739000000013
 31
0.0
 11
91.20607099999999
 21
6.348432000000008
 31
0.0
 11
91.37864699999999
 21
6.859671999999996
 31
0.0
 11
91.60558799999996
 21
7.349414999999998
 31
0.0
 11
91.88423400000001
 21
7.811879000000011
 31
0.0
 11
92.21131799999994
 21
8.241613000000008
 31
0.0
 11
92.58300500000002
 21
8.633555000000008
 31
0.0
 11
92.99493799999998
 21
8.983090000000011
 31
0.0
 11
93.44228700000002
 21
9.286108000000018
 31
0.0
 11
93.91980700000001
 21
9.539042999999999
 31
0.0
 11
94.421899
 21
9.738922000000007
 31
0.0
 11
94.94267800000001
 21
9.883394000000015
 31
0.0
 11
95.47603699999996
 21
9.970763000000012
 31
0.0
 11
96.01572399999998
 21
10.0
 31
0.0
  0
SPLINE
  5
22B4
330
1E
100
AcDbEntity
  8
CUT
100
AcDbSpline
210
0.0
220
0.0
230
1.0
 70
     8
 71
     3
 72
    36
 73
    32
 74
    30
 42
0.0000000001
 43
0.0000000001
 44
0.0000000001
 12
0.9999657370739441
 22
0.0082779634067752
 32
0.0
 13
-0.9999999735951984
 23
-0.0002298033996267
 33
0.0
 40
0.0
 40
0.0
 40
0.0
 40
0.0
 40
0.5396896869294578
 40
1.073331327768143
 40
1.597940705002252
 40
2.117717130501779
 40
2.639005008059834
 40
3.164180589200049
 40
3.692981226458573
 40
4.224568159993451
 40
4.758205951357592
 40
5.293354380746118
 40
5.829631597440064
 40
6.366768874173857
 40
6.904570398130397
 40
7.442897443161601
 40
7.981640443161584
 40
8.520722009458385
 40
9.060078046986468
 40
9.599660119868795
 40
10.139428981077
 40
10.67935170203992
 40
11.21940286055362
 40
11.75956002039973
 40
12.29980395855548
 40
12.84011964047205
 40
13.38049123911966
 40
13.92090588650171
 40
14.461352854876
 40
15.00182039788113
 40
15.5422987602029
 40
15.5422987602029
 40
15.5422987602029
 40
15.5422987602029
 10
96.01572399999998
 20
0.4011730000000071
 30
0.0
 10
96.19561439852718
 20
0.4026621771598125
 30
0.0
 10
96.55338437352853
 20
0.4002109600225018
 30
0.0
 10
97.08608337440203
 20
0.4123361451285852
 30
0.0
 10
97.61024151004608
 20
0.4702693047553774
 30
0.0
 10
98.11664387680741
 20
0.6054286085277454
 30
0.0
 10
98.59598572144484
 20
0.8169952926330179
 30
0.0
 10
99.04390650530396
 20
1.093858164410817
 30
0.0
 10
99.45618542402023
 20
1.426620171240044
 30
0.0
 10
99.82824329637963
 20
1.807621387667436
 30
0.0
 10
100.1557252488698
 20
2.230165830023477
 30
0.0
 10
100.434756779421
 20
2.687954638798852
 30
0.0
 10
100.6620368637878
 20
3.174787253705924
 30
0.0
 10
100.8348807946527
 20
3.684421247919571
 30
0.0
 10
100.9512492482582
 20
4.210528701952062
 30
0.0
 10
101.0097685404744
 20
4.746699188602539
 30
0.0
 10
101.0097483763199
 20
5.286477711085824
 30
0.0
 10
100.9511850885705
 20
5.823413231332452
 30
0.0
 10
100.8347628382186
 20
6.351121760039771
 30
0.0
 10
100.6618444222142
 20
6.863348719844337
 30
0.0
 10
100.4344580806801
 20
7.354038498604431
 30
0.0
 10
100.155266446099
 20
7.817397867022162
 30
0.0
 10
99.82754375629339
 20
8.24796428424575
 30
0.0
 10
99.45513229375427
 20
8.640666667930183
 30
0.0
 10
99.04239528821308
 20
8.990879470686572
 30
0.0
 10
98.59417561045596
 20
9.294485966670052
 30
0.0
 10
98.1157238473761
 20
9.547912082407529
 30
0.0
 10
97.61265724588676
 20
9.748178603930774
 30
0.0
 10
97.0908496797419
 20
9.892936730496158
 30
0.0
 10
96.55650315929763
 20
9.980452260082236
 30
0.0
 10
96.19588344935017
 20
10.00004140125503
 30
0.0
 10
96.01572399999998
 20
10.0
 30
0.0
 11
96.01572399999998
 21
0.4011730000000071
 31
0.0
 11
96.555411
 21
0.4028759999999993
 31
0.0
 11
97.08877000000001
 21
0.4202420000000089
 31
0.0
 11
97.60954899999996
 21
0.4835210000000032
 31
0.0
 11
98.11164100000002
 21
0.6179500000000147
 31
0.0
 11
98.58916100000001
 21
0.8270330000000072
 31
0.0
 11
99.03650999999996
 21
1.102148000000005
 31
0.0
 11
99.44844299999999
 21
1.433721999999995
 31
0.0
 11
99.82013000000002
 21
1.813765999999993
 31
0.0
 11
100.147214
 21
2.235412000000001
 31
0.0
 11
100.42586
 21
2.692293000000013
 31
0.0
 11
100.652801
 21
3.17818500000002
 31
0.0
 11
100.825377
 21
3.686844000000013
 31
0.0
 11
100.941564
 21
4.211944999999992
 31
0.0
 11
101.0
 21
4.747091000000018
 31
0.0
 11
101.0
 21
5.285834000000001
 31
0.0
 11
100.941564
 21
5.821739000000013
 31
0.0
 11
100.825377
 21
6.348432000000008
 31
0.0
 11
100.652801
 21
6.859671999999996
 31
0.0
 11
100.42586
 21
7.349414999999998
 31
0.0
 11
100.147214
 21
7.811879000000011
 31
0.0
 11
99.82013000000002
 21
8.241613000000008
 31
0.0
 11
99.44844299999999
 21
8.633555000000008
 31
0.0
 11
99.03650999999996
 21
8.983090000000011
 31
0.0
 11
98.58916100000001
 21
9.286108000000018
 31
0.0
 11
98.11164100000002
 21
9.539042999999999
 31
0.0
 11
97.60954899999996
 21
9.738922000000007
 31
0.0
 11
97.08877000000001
 21
9.883394000000015
 31
0.0
 11
96.555411
 21
9.970763000000012
 31
0.0
 11
96.01572399999998
 21
10.0
 31
0.0
  0
LWPOLYLINE
  5
241C
330
1E
100
AcDbEntity
  8
1
100
AcDbPolyline
 90
        3
 70
     1
 43
0.0
 10
-0.0000000000000142
 20
-0.0000000000000142
 10
-2.950972054112596
 20
-0.0000000000000142
 42
0.4142135623730966
 10
-0.0000000000000142
 20
-2.950972054112596
  0
HATCH
  5
241D
330
1E
100
AcDbEntity
  8
1
100
AcDbHatch
 10
0.0
 20
0.0
 30
0.0
210
0.0
220
0.0
230
1.0
  2
SOLID
 70
     1
 71
     0
 91
        2
 92
        7
 72
     1
 73
     1
 93
        3
 10
-0.0000000000000142
 20
-0.0000000000000142
 42
0.0
 10
2.950972054112568
 20
-0.0000000000000142
 42
0.4142135623730966
 10
-0.0000000000000142
 20
2.950972054112596
 42
0.0
 97
        0
 92
        7
 72
     1
 73
     1
 93
        3
 10
-0.0000000000000142
 20
-2.950972054112511
 42
0.0
 10
-0.0000000000000142
 20
-0.0000000000000142
 42
0.0
 10
-2.950972054112596
 20
-0.0000000000000142
 42
0.4142135623730953
 97
        0
 75
     0
 76
     1
 47
0.1190009775223266
 98
        2
 10
0.7445530588118885
 20
0.9212244733764832
 10
-1.27946460185295
 20
-1.696796923046305
  0
CIRCLE
  5
241E
330
1E
100
AcDbEntity
  8
1
100
AcDbCircle
 10
-0.0000000000000142
 20
-0.0000000000000142
 30
0.0
 40
2.950972054112601
  0
LINE
  5
241F
330
1E
100
AcDbEntity
  8
1
100
AcDbLine
 10
-0.0000000000000142
 20
2.950972054112596
 30
0.0
 11
-0.0000000000000142
 21
-2.950972054112596
 31
0.0
  0
LINE
  5
2420
330
1E
100
AcDbEntity
  8
1
100
AcDbLine
 10
-2.950972054112853
 20
-0.0000000000000142
 30
0.0
 11
2.950972054112568
 21
-0.0000000000000142
 31
0.0
  0
LWPOLYLINE
  5
2421
330
1E
100
AcDbEntity
  8
1
100
AcDbPolyline
 90
        3
 70
     1
 43
0.0
 10
-0.0000000000000142
 20
2.950972054112596
 10
-0.0000000000000142
 20
-0.0000000000000142
 10
2.950972054112568
 20
-0.0000000000000142
 42
0.4142135623730966
  0
ENDSEC
  0
SECTION
  2
OBJECTS
  0
DICTIONARY
  5
C
330
0
100
AcDbDictionary
281
     1
  3
ACAD_COLOR
350
25A2
  3
ACAD_GROUP
350
D
  3
ACAD_LAYOUT
350
19
  3
ACAD_MATERIAL
350
25A1
  3
ACAD_MLINESTYLE
350
16
  3
ACAD_PLOTSETTINGS
350
18
  3
ACAD_PLOTSTYLENAME
350
1E85
  3
ACAD_TABLESTYLE
350
25A3
  3
ACDBHEADERROUNDTRIPXREC
350
25AB
  3
AcDbVariableDictionary
350
25A6
1001
ACAD
1000
TREAT_AS_HARD
1070
     0
1000
TREAT_AS_HARD
1070
     0
  0
DICTIONARY
  5
148F
330
1E
100
AcDbDictionary
281
     1
  3
ACAD_LAYOUTSELFREF
350
1B22
1001
ACAD
1000
TREAT_AS_HARD
1070
     0
  0
DICTIONARY
  5
148D
330
1A
100
AcDbDictionary
281
     1
  3
ACAD_LAYOUTSELFREF
350
1B21
1001
ACAD
1000
TREAT_AS_HARD
1070
     0
  0
DICTIONARY
  5
25A2
102
{ACAD_REACTORS
330
C
102
}
330
C
100
AcDbDictionary
281
     1
  0
DICTIONARY
  5
D
102
{ACAD_REACTORS
330
C
102
}
330
C
100
AcDbDictionary
281
     1
1001
ACAD
1000
TREAT_AS_HARD
1070
     0
1000
TREAT_AS_HARD
1070
     0
  0
DICTIONARY
  5
19
102
{ACAD_REACTORS
330
C
102
}
330
C
100
AcDbDictionary
281
     1
  3
Layout1
350
1E88
  3
Model
350
1E87
1001
ACAD
1000
TREAT_AS_HARD
1070
     0
1000
TREAT_AS_HARD
1070
     0
  0
DICTIONARY
  5
25A1
102
{ACAD_REACTORS
330
C
102
}
330
C
100
AcDbDictionary
281
     1
  0
DICTIONARY
  5
16
102
{ACAD_REACTORS
330
C
102
}
330
C
100
AcDbDictionary
281
     1
  3
STANDARD
350
17
1001
ACAD
1000
TREAT_AS_HARD
1070
     0
1000
TREAT_AS_HARD
1070
     0
  0
DICTIONARY
  5
18
102
{ACAD_REACTORS
330
C
102
}
330
C
100
AcDbDictionary
281
     1
1001
ACAD
1000
TREAT_AS_HARD
1070
     0
1000
TREAT_AS_HARD
1070
     0
  0
ACDBDICTIONARYWDFLT
  5
1E85
102
{ACAD_REACTORS
330
C
102
}
330
C
100
AcDbDictionary
281
     1
  3
Normal
350
1E86
100
AcDbDictionaryWithDefault
340
1E86
  0
DICTIONARY
  5
25A3
102
{ACAD_REACTORS
330
C
102
}
330
C
100
AcDbDictionary
281
     1
  3
Standard
350
25A4
  0
DICTIONARY
  5
25AB
102
{ACAD_REACTORS
330
C
102
}
330
C
100
AcDbDictionary
281
     1
  0
DICTIONARY
  5
25A6
102
{ACAD_REACTORS
330
C
102
}
330
C
100
AcDbDictionary
281
     1
  3
CTABLESTYLE
350
25A7
  3
DIMASSOC
350
25A8
  3
PROJECTNAME
350
25A9
  0
XRECORD
  5
1B22
102
{ACAD_REACTORS
330
148F
102
}
330
148F
100
AcDbXrecord
280
     1
340
1E
  0
XRECORD
  5
1B21
102
{ACAD_REACTORS
330
148D
102
}
330
148D
100
AcDbXrecord
280
     1
340
1A
  0
LAYOUT
  5
1E88
102
{ACAD_XDICTIONARY
360
25AE
102
}
102
{ACAD_REACTORS
330
19
102
}
330
19
100
AcDbPlotSettings
  1

  2
\\ingdom02\ITB2
  4

  6

 40
0.0
 41
0.0
 42
0.0
 43
0.0
 44
0.0
 45
0.0
 46
0.0
 47
0.0
 48
0.0
 49
0.0
140
0.0
141
0.0
142
1.0
143
1.0
 70
   688
 72
     0
 73
     0
 74
     5
  7

 75
    16
147
1.0
148
0.0
149
0.0
100
AcDbLayout
  1
Layout1
 70
     1
 71
     1
 10
0.0
 20
0.0
 11
12.0
 21
9.0
 12
0.0
 22
0.0
 32
0.0
 14
100.0
 24
100.0
 34
100.0
 15
-100.0
 25
-100.0
 35
-100.0
146
0.0
 13
0.0
 23
0.0
 33
0.0
 16
1.0
 26
0.0
 36
0.0
 17
0.0
 27
1.0
 37
0.0
 76
     0
330
1A
  0
LAYOUT
  5
1E87
102
{ACAD_XDICTIONARY
360
25AC
102
}
102
{ACAD_REACTORS
330
19
102
}
330
19
100
AcDbPlotSettings
  1

  2
\\ingdom02\ITB2
  4

  6

 40
0.0
 41
0.0
 42
0.0
 43
0.0
 44
0.0
 45
0.0
 46
0.0
 47
0.0
 48
0.0
 49
0.0
140
0.0
141
0.0
142
1.0
143
1.0
 70
  1712
 72
     0
 73
     0
 74
     0
  7

 75
     0
147
1.0
148
0.0
149
0.0
100
AcDbLayout
  1
Model
 70
     1
 71
     0
 10
0.0
 20
0.0
 11
12.0
 21
9.0
 12
0.0
 22
0.0
 32
0.0
 14
0.0
 24
0.0
 34
0.0
 15
0.0
 25
0.0
 35
0.0
146
0.0
 13
0.0
 23
0.0
 33
0.0
 16
1.0
 26
0.0
 36
0.0
 17
0.0
 27
1.0
 37
0.0
 76
     0
330
1E
  0
MLINESTYLE
  5
17
102
{ACAD_REACTORS
330
16
102
}
330
16
100
AcDbMlineStyle
  2
STANDARD
 70
     0
  3

 62
   256
 51
90.0
 52
90.0
 71
     2
 49
0.5
 62
   256
  6
BYLAYER
 49
-0.5
 62
   256
  6
BYLAYER
  0
ACDBPLACEHOLDER
  5
1E86
102
{ACAD_REACTORS
330
1E85
102
}
330
1E85
  0
TABLESTYLE
  5
25A4
102
{ACAD_REACTORS
330
25A3
102
}
330
25A3
100
AcDbTableStyle
  3
Standard
 70
     0
 71
     0
 40
0.06
 41
0.06
280
     0
281
     0
  7
STANDARD
140
0.18
170
     2
 62
     0
 63
     7
283
     0
274
    -2
284
     1
 64
     0
275
    -2
285
     1
 65
     0
276
    -2
286
     1
 66
     0
277
    -2
287
     1
 67
     0
278
    -2
288
     1
 68
     0
279
    -2
289
     1
 69
     0
  7
STANDARD
140
0.25
170
     5
 62
     0
 63
     7
283
     0
274
    -2
284
     1
 64
     0
275
    -2
285
     1
 65
     0
276
    -2
286
     1
 66
     0
277
    -2
287
     1
 67
     0
278
    -2
288
     1
 68
     0
279
    -2
289
     1
 69
     0
  7
STANDARD
140
0.18
170
     5
 62
     0
 63
     7
283
     0
274
    -2
284
     1
 64
     0
275
    -2
285
     1
 65
     0
276
    -2
286
     1
 66
     0
277
    -2
287
     1
 67
     0
278
    -2
288
     1
 68
     0
279
    -2
289
     1
 69
     0
  0
DICTIONARYVAR
  5
25A7
102
{ACAD_REACTORS
330
25A6
102
}
330
25A6
100
DictionaryVariables
280
     0
  1
STANDARD
  0
DICTIONARYVAR
  5
25A8
102
{ACAD_REACTORS
330
25A6
102
}
330
25A6
100
DictionaryVariables
280
     0
  1
1
  0
DICTIONARYVAR
  5
25A9
102
{ACAD_REACTORS
330
25A6
102
}
330
25A6
100
DictionaryVariables
280
     0
  1

  0
DICTIONARY
  5
25AE
330
1E88
100
AcDbDictionary
280
     1
281
     1
  3
ACAD_XREC_ROUNDTRIP
360
25AF
  0
DICTIONARY
  5
25AC
330
1E87
100
AcDbDictionary
280
     1
281
     1
  3
ACAD_XREC_ROUNDTRIP
360
25AD
  0
XRECORD
  5
25AF
102
{ACAD_REACTORS
330
25AE
102
}
330
25AE
100
AcDbXrecord
280
     1
102
SHADEPLOT
 70
     0
102
SHADEPLOTRESLEVEL
 70
     2
102
SHADEPLOTCUSTOMDPI
 70
   300
  0
XRECORD
  5
25AD
102
{ACAD_REACTORS
330
25AC
102
}
330
25AC
100
AcDbXrecord
280
     1
102
SHADEPLOT
 70
     0
102
SHADEPLOTRESLEVEL
 70
     2
102
SHADEPLOTCUSTOMDPI
 70
   300
  0
ENDSEC
  0
EOF
