  0
SECTION
  2
HEADER
  9
$ACADVER
  1
AC1015
  9
$ACADMAINTVER
 70
    20
  9
$DWGCODEPAGE
  3
ANSI_1252
  9
$INSBASE
 10
0.0
 20
0.0
 30
0.0
  9
$EXTMIN
 10
-74.12380690472264
 20
-71.65172453592674
 30
-0.0015258207003583
  9
$EXTMAX
 10
103.6673857184537
 20
22.34431826040463
 30
0.0000000349246037
  9
$LIMMIN
 10
0.0
 20
0.0
  9
$LIMMAX
 10
594.0
 20
420.0
  9
$ORTHOMODE
 70
     0
  9
$REGENMODE
 70
     1
  9
$FILLMODE
 70
     1
  9
$QTEXTMODE
 70
     0
  9
$MIRRTEXT
 70
     1
  9
$LTSCALE
 40
10.0
  9
$ATTMODE
 70
     1
  9
$TEXTSIZE
 40
0.2
  9
$TRACEWID
 40
0.05
  9
$TEXTSTYLE
  7
STANDARD
  9
$CLAYER
  8
0
  9
$CELTYPE
  6
BYLAYER
  9
$CECOLOR
 62
   256
  9
$CELTSCALE
 40
1.0
  9
$DISPSILH
 70
     0
  9
$DIMSCALE
 40
1.0
  9
$DIMASZ
 40
2.5
  9
$DIMEXO
 40
3.712499999999999
  9
$DIMDLI
 40
22.572
  9
$DIMRND
 40
0.0
  9
$DIMDLE
 40
0.0
  9
$DIMEXE
 40
10.692
  9
$DIMTP
 40
0.01
  9
$DIMTM
 40
0.01
  9
$DIMTXT
 40
3.5
  9
$DIMCEN
 40
5.346
  9
$DIMTSZ
 40
0.0
  9
$DIMTOL
 70
     1
  9
$DIMLIM
 70
     0
  9
$DIMTIH
 70
     1
  9
$DIMTOH
 70
     1
  9
$DIMSE1
 70
     0
  9
$DIMSE2
 70
     0
  9
$DIMTAD
 70
     0
  9
$DIMZIN
 70
     0
  9
$DIMBLK
  1
_FILLED
  9
$DIMASO
 70
     1
  9
$DIMSHO
 70
     1
  9
$DIMPOST
  1

  9
$DIMAPOST
  1

  9
$DIMALT
 70
     0
  9
$DIMALTD
 70
     2
  9
$DIMALTF
 40
25.4
  9
$DIMLFAC
 40
1.0
  9
$DIMTOFL
 70
     0
  9
$DIMTVP
 40
0.0
  9
$DIMTIX
 70
     0
  9
$DIMSOXD
 70
     0
  9
$DIMSAH
 70
     0
  9
$DIMBLK1
  1

  9
$DIMBLK2
  1

  9
$DIMSTYLE
  2
STANDARD
  9
$DIMCLRD
 70
     0
  9
$DIMCLRE
 70
     0
  9
$DIMCLRT
 70
     0
  9
$DIMTFAC
 40
1.0
  9
$DIMGAP
 40
0.09
  9
$DIMJUST
 70
     0
  9
$DIMSD1
 70
     0
  9
$DIMSD2
 70
     0
  9
$DIMTOLJ
 70
     1
  9
$DIMTZIN
 70
     0
  9
$DIMALTZ
 70
     0
  9
$DIMALTTZ
 70
     0
  9
$DIMUPT
 70
     0
  9
$DIMDEC
 70
     4
  9
$DIMTDEC
 70
     4
  9
$DIMALTU
 70
     2
  9
$DIMALTTD
 70
     2
  9
$DIMTXSTY
  7
STANDARD
  9
$DIMAUNIT
 70
     0
  9
$DIMADEC
 70
     0
  9
$DIMALTRND
 40
0.0
  9
$DIMAZIN
 70
     0
  9
$DIMDSEP
 70
    46
  9
$DIMATFIT
 70
     3
  9
$DIMFRAC
 70
     0
  9
$DIMLDRBLK
  1
_FILLED
  9
$DIMLUNIT
 70
     2
  9
$DIMLWD
 70
    -2
  9
$DIMLWE
 70
    -2
  9
$DIMTMOVE
 70
     0
  9
$LUNITS
 70
     2
  9
$LUPREC
 70
     4
  9
$SKETCHINC
 40
0.1
  9
$FILLETRAD
 40
0.0
  9
$AUNITS
 70
     0
  9
$AUPREC
 70
     0
  9
$MENU
  1

  9
$ELEVATION
 40
0.0
  9
$PELEVATION
 40
0.0
  9
$THICKNESS
 40
0.0
  9
$LIMCHECK
 70
     0
  9
$CHAMFERA
 40
0.0
  9
$CHAMFERB
 40
0.0
  9
$CHAMFERC
 40
0.0
  9
$CHAMFERD
 40
0.0
  9
$SKPOLY
 70
     0
  9
$TDCREATE
 40
2453413.539108692
  9
$TDUCREATE
 40
2453413.455775359
  9
$TDUPDATE
 40
2453909.290696609
  9
$TDUUPDATE
 40
2453909.207363276
  9
$TDINDWG
 40
0.0434923380
  9
$TDUSRTIMER
 40
0.0317346412
  9
$USRTIMER
 70
     1
  9
$ANGBASE
 50
0.0
  9
$ANGDIR
 70
     0
  9
$PDMODE
 70
     0
  9
$PDSIZE
 40
0.3125
  9
$PLINEWID
 40
0.0
  9
$SPLFRAME
 70
     0
  9
$SPLINETYPE
 70
     6
  9
$SPLINESEGS
 70
     8
  9
$HANDSEED
  5
3459
  9
$SURFTAB1
 70
     6
  9
$SURFTAB2
 70
     6
  9
$SURFTYPE
 70
     6
  9
$SURFU
 70
     6
  9
$SURFV
 70
     6
  9
$UCSBASE
  2

  9
$UCSNAME
  2

  9
$UCSORG
 10
0.0
 20
0.0
 30
0.0
  9
$UCSXDIR
 10
1.0
 20
0.0
 30
0.0
  9
$UCSYDIR
 10
0.0
 20
1.0
 30
0.0
  9
$UCSORTHOREF
  2

  9
$UCSORTHOVIEW
 70
     0
  9
$UCSORGTOP
 10
0.0
 20
0.0
 30
0.0
  9
$UCSORGBOTTOM
 10
0.0
 20
0.0
 30
0.0
  9
$UCSORGLEFT
 10
0.0
 20
0.0
 30
0.0
  9
$UCSORGRIGHT
 10
0.0
 20
0.0
 30
0.0
  9
$UCSORGFRONT
 10
0.0
 20
0.0
 30
0.0
  9
$UCSORGBACK
 10
0.0
 20
0.0
 30
0.0
  9
$PUCSBASE
  2

  9
$PUCSNAME
  2

  9
$PUCSORG
 10
0.0
 20
0.0
 30
0.0
  9
$PUCSXDIR
 10
1.0
 20
0.0
 30
0.0
  9
$PUCSYDIR
 10
0.0
 20
1.0
 30
0.0
  9
$PUCSORTHOREF
  2

  9
$PUCSORTHOVIEW
 70
     0
  9
$PUCSORGTOP
 10
0.0
 20
0.0
 30
0.0
  9
$PUCSORGBOTTOM
 10
0.0
 20
0.0
 30
0.0
  9
$PUCSORGLEFT
 10
0.0
 20
0.0
 30
0.0
  9
$PUCSORGRIGHT
 10
0.0
 20
0.0
 30
0.0
  9
$PUCSORGFRONT
 10
0.0
 20
0.0
 30
0.0
  9
$PUCSORGBACK
 10
0.0
 20
0.0
 30
0.0
  9
$USERI1
 70
     0
  9
$USERI2
 70
     0
  9
$USERI3
 70
     0
  9
$USERI4
 70
     0
  9
$USERI5
 70
     0
  9
$USERR1
 40
0.0
  9
$USERR2
 40
0.0
  9
$USERR3
 40
0.0
  9
$USERR4
 40
0.0
  9
$USERR5
 40
0.0
  9
$WORLDVIEW
 70
     1
  9
$SHADEDGE
 70
     3
  9
$SHADEDIF
 70
    70
  9
$TILEMODE
 70
     1
  9
$MAXACTVP
 70
    64
  9
$PINSBASE
 10
0.0
 20
0.0
 30
0.0
  9
$PLIMCHECK
 70
     0
  9
$PEXTMIN
 10
100.0
 20
100.0
 30
100.0
  9
$PEXTMAX
 10
-100.0
 20
-100.0
 30
-100.0
  9
$PLIMMIN
 10
0.0
 20
0.0
  9
$PLIMMAX
 10
12.0
 20
9.0
  9
$UNITMODE
 70
     0
  9
$VISRETAIN
 70
     1
  9
$PLINEGEN
 70
     1
  9
$PSLTSCALE
 70
     1
  9
$TREEDEPTH
 70
  3020
  9
$CMLSTYLE
  2
STANDARD
  9
$CMLJUST
 70
     0
  9
$CMLSCALE
 40
1.0
  9
$PROXYGRAPHICS
 70
     1
  9
$MEASUREMENT
 70
     0
  9
$CELWEIGHT
370
    -1
  9
$ENDCAPS
280
     0
  9
$JOINSTYLE
280
     0
  9
$LWDISPLAY
290
     0
  9
$INSUNITS
 70
     0
  9
$HYPERLINKBASE
  1

  9
$STYLESHEET
  1

  9
$XEDIT
290
     1
  9
$CEPSNTYPE
380
     0
  9
$PSTYLEMODE
290
     1
  9
$FINGERPRINTGUID
  2
{81CC08C6-432D-49D3-A458-7BC29226745B}
  9
$VERSIONGUID
  2
{07572AEB-0B92-4279-8A0F-918E511594E9}
  9
$EXTNAMES
290
     1
  9
$PSVPSCALE
 40
0.0
  9
$OLESTARTUP
290
     0
  0
ENDSEC
  0
SECTION
  2
CLASSES
  0
CLASS
  1
ACDBDICTIONARYWDFLT
  2
AcDbDictionaryWithDefault
  3
ObjectDBX Classes
 90
        0
280
     0
281
     0
  0
CLASS
  1
ACDBPLACEHOLDER
  2
AcDbPlaceHolder
  3
ObjectDBX Classes
 90
        0
280
     0
281
     0
  0
CLASS
  1
LAYOUT
  2
AcDbLayout
  3
ObjectDBX Classes
 90
        0
280
     0
281
     0
  0
CLASS
  1
TABLESTYLE
  2
AcDbTableStyle
  3
ObjectDBX Classes
 90
     2047
280
     0
281
     0
  0
CLASS
  1
DICTIONARYVAR
  2
AcDbDictionaryVar
  3
ObjectDBX Classes
 90
        0
280
     0
281
     0
  0
ENDSEC
  0
SECTION
  2
TABLES
  0
TABLE
  2
VPORT
  5
8
330
0
100
AcDbSymbolTable
 70
     2
  0
VPORT
  5
3453
330
8
100
AcDbSymbolTableRecord
100
AcDbViewportTableRecord
  2
*Active
 70
     0
 10
0.0
 20
0.0
 11
1.0
 21
1.0
 12
14.77178940686554
 22
-24.65370313776106
 13
0.0
 23
0.0
 14
1.0
 24
1.0
 15
0.0
 25
0.0
 16
0.0
 26
0.0
 36
1.0
 17
0.0
 27
0.0
 37
0.0
 40
116.5977718806777
 41
1.532401524777636
 42
50.0
 43
0.0
 44
0.0
 50
0.0
 51
0.0
 71
     0
 72
   100
 73
     1
 74
     1
 75
     0
 76
     0
 77
     0
 78
     0
281
     0
 65
     1
110
0.0
120
0.0
130
0.0
111
1.0
121
0.0
131
0.0
112
0.0
122
1.0
132
0.0
 79
     0
146
0.0
  0
ENDTAB
  0
TABLE
  2
LTYPE
  5
5
330
0
100
AcDbSymbolTable
 70
     2
  0
LTYPE
  5
13
330
5
100
AcDbSymbolTableRecord
100
AcDbLinetypeTableRecord
  2
BYBLOCK
 70
     0
  3

 72
    65
 73
     0
 40
0.0
  0
LTYPE
  5
14
330
5
100
AcDbSymbolTableRecord
100
AcDbLinetypeTableRecord
  2
BYLAYER
 70
     0
  3

 72
    65
 73
     0
 40
0.0
  0
LTYPE
  5
15
330
5
100
AcDbSymbolTableRecord
100
AcDbLinetypeTableRecord
  2
CONTINUOUS
 70
     0
  3
Solid line
 72
    65
 73
     0
 40
0.0
  0
LTYPE
  5
3A
330
5
100
AcDbSymbolTableRecord
100
AcDbLinetypeTableRecord
  2
CENTER
 70
     0
  3
____ _ ____ _ ____ _ ____ _ ____ _ ____ _ ____
 72
    65
 73
     4
 40
0.6
 49
0.375
 74
     0
 49
-0.075
 74
     0
 49
0.075
 74
     0
 49
-0.075
 74
     0
  0
ENDTAB
  0
TABLE
  2
LAYER
  5
2
330
0
100
AcDbSymbolTable
 70
    11
  0
LAYER
  5
10
330
2
100
AcDbSymbolTableRecord
100
AcDbLayerTableRecord
  2
1
 70
     0
 62
     4
  6
CONTINUOUS
370
    -3
390
2D2E
  0
LAYER
  5
41
330
2
100
AcDbSymbolTableRecord
100
AcDbLayerTableRecord
  2
2
 70
     0
 62
     7
  6
CONTINUOUS
370
    -3
390
2D2E
  0
LAYER
  5
43
330
2
100
AcDbSymbolTableRecord
100
AcDbLayerTableRecord
  2
4
 70
     0
 62
     2
  6
CENTER
370
    -3
390
2D2E
  0
LAYER
  5
46
330
2
100
AcDbSymbolTableRecord
100
AcDbLayerTableRecord
  2
0
 70
     0
 62
     7
  6
CONTINUOUS
370
    -3
390
2D2E
  0
LAYER
  5
47
330
2
100
AcDbSymbolTableRecord
100
AcDbLayerTableRecord
  2
DEFPOINTS
 70
     0
 62
     7
  6
CONTINUOUS
290
     0
370
    -3
390
2D2E
  0
LAYER
  5
A97
330
2
100
AcDbSymbolTableRecord
100
AcDbLayerTableRecord
  2
SK1
 70
     0
 62
     4
  6
CONTINUOUS
370
    -3
390
2D2E
  0
LAYER
  5
A98
330
2
100
AcDbSymbolTableRecord
100
AcDbLayerTableRecord
  2
SK4
 70
     0
 62
     2
  6
CENTER
370
    -3
390
2D2E
  0
LAYER
  5
A9A
330
2
100
AcDbSymbolTableRecord
100
AcDbLayerTableRecord
  2
SK2
 70
     0
 62
     7
  6
CONTINUOUS
370
    -3
390
2D2E
  0
LAYER
  5
2D98
330
2
100
AcDbSymbolTableRecord
100
AcDbLayerTableRecord
  2
6
 70
     0
 62
     5
  6
CONTINUOUS
370
    -3
390
2D2E
  0
LAYER
  5
2D99
330
2
100
AcDbSymbolTableRecord
100
AcDbLayerTableRecord
  2
CUT
 70
     0
 62
     1
  6
CONTINUOUS
370
    -3
390
2D2E
  0
LAYER
  5
2D9A
330
2
100
AcDbSymbolTableRecord
100
AcDbLayerTableRecord
  2
NOCUT
 70
     0
 62
     7
  6
CONTINUOUS
370
    -3
390
2D2E
  0
ENDTAB
  0
TABLE
  2
STYLE
  5
3
330
0
100
AcDbSymbolTable
 70
     1
  0
STYLE
  5
11
330
3
100
AcDbSymbolTableRecord
100
AcDbTextStyleTableRecord
  2
STANDARD
 70
     0
 40
0.0
 41
0.8
 50
0.0
 71
     0
 42
0.2
  3
isocp.shx
  4

  0
ENDTAB
  0
TABLE
  2
VIEW
  5
6
330
0
100
AcDbSymbolTable
 70
     0
  0
ENDTAB
  0
TABLE
  2
UCS
  5
7
330
0
100
AcDbSymbolTable
 70
     0
  0
ENDTAB
  0
TABLE
  2
APPID
  5
9
330
0
100
AcDbSymbolTable
 70
     1
  0
APPID
  5
12
330
9
100
AcDbSymbolTableRecord
100
AcDbRegAppTableRecord
  2
ACAD
 70
     0
  0
ENDTAB
  0
TABLE
  2
DIMSTYLE
  5
A
330
0
100
AcDbSymbolTable
 70
     2
100
AcDbDimStyleTable
 71
     0
  0
DIMSTYLE
105
40
330
A
100
AcDbSymbolTableRecord
100
AcDbDimStyleTableRecord
  2
STANDARD
 70
     0
340
11
  0
DIMSTYLE
105
A9B
102
{ACAD_REACTORS
330
544
330
A59
330
545
330
542
330
543
102
}
330
A
100
AcDbSymbolTableRecord
100
AcDbDimStyleTableRecord
  2
ISO-25
 70
     0
 41
2.5
 42
0.625
 43
3.75
 44
1.25
 73
     0
 74
     0
 77
     1
 78
     8
140
2.5
141
2.5
143
0.03937007874016
147
0.625
171
     3
172
     1
271
     2
272
     2
274
     3
283
     0
284
     8
340
11
  0
ENDTAB
  0
TABLE
  2
BLOCK_RECORD
  5
1
330
0
100
AcDbSymbolTable
 70
     6
  0
BLOCK_RECORD
  5
1E
102
{ACAD_XDICTIONARY
360
1FC3
102
}
330
1
100
AcDbSymbolTableRecord
100
AcDbBlockTableRecord
  2
*MODEL_SPACE
340
2D2F
  0
BLOCK_RECORD
  5
1A
102
{ACAD_XDICTIONARY
360
1FC1
102
}
330
1
100
AcDbSymbolTableRecord
100
AcDbBlockTableRecord
  2
*PAPER_SPACE
340
2D30
  0
BLOCK_RECORD
  5
23
330
1
100
AcDbSymbolTableRecord
100
AcDbBlockTableRecord
  2
_FILLED
340
0
  0
BLOCK_RECORD
  5
B89
330
1
100
AcDbSymbolTableRecord
100
AcDbBlockTableRecord
  2
*D1
340
0
  0
BLOCK_RECORD
  5
B95
330
1
100
AcDbSymbolTableRecord
100
AcDbBlockTableRecord
  2
*D2
340
0
  0
BLOCK_RECORD
  5
BA1
330
1
100
AcDbSymbolTableRecord
100
AcDbBlockTableRecord
  2
*D3
340
0
  0
BLOCK_RECORD
  5
BAD
330
1
100
AcDbSymbolTableRecord
100
AcDbBlockTableRecord
  2
*D4
340
0
  0
BLOCK_RECORD
  5
BB9
330
1
100
AcDbSymbolTableRecord
100
AcDbBlockTableRecord
  2
*D5
340
0
  0
ENDTAB
  0
ENDSEC
  0
SECTION
  2
BLOCKS
  0
BLOCK
  5
4A
330
1E
100
AcDbEntity
  8
0
100
AcDbBlockBegin
  2
*MODEL_SPACE
 70
     0
 10
0.0
 20
0.0
 30
0.0
  3
*MODEL_SPACE
  1

  0
ENDBLK
  5
4B
330
1E
100
AcDbEntity
  8
0
100
AcDbBlockEnd
  0
BLOCK
  5
48
330
1A
100
AcDbEntity
 67
     1
  8
0
100
AcDbBlockBegin
  2
*PAPER_SPACE
 70
     0
 10
0.0
 20
0.0
 30
0.0
  3
*PAPER_SPACE
  1

  0
ENDBLK
  5
49
330
1A
100
AcDbEntity
 67
     1
  8
0
100
AcDbBlockEnd
  0
BLOCK
  5
4E
330
23
100
AcDbEntity
  8
0
100
AcDbBlockBegin
  2
_FILLED
 70
     0
 10
0.0
 20
0.0
 30
0.0
  3
_FILLED
  1

  0
SOLID
  5
4F
330
23
100
AcDbEntity
  8
0
  6
ByBlock
 62
     0
100
AcDbTrace
 10
0.0
 20
0.0
 30
0.0
 11
-1.0
 21
0.132
 31
0.0
 12
-1.0
 22
-0.132
 32
0.0
 13
-1.0
 23
-0.132
 33
0.0
  0
ENDBLK
  5
50
330
23
100
AcDbEntity
  8
0
100
AcDbBlockEnd
  0
BLOCK
  5
B93
330
B89
100
AcDbEntity
  8
0
100
AcDbBlockBegin
  2
*D1
 70
     1
 10
0.0
 20
0.0
 30
0.0
  3
*D1
  1

  0
LINE
  5
2D55
330
B89
100
AcDbEntity
  8
SK2
 62
     0
370
    -2
100
AcDbLine
 10
-55.925
 20
-12.49999999999999
 30
0.0
 11
-72.22841956194656
 21
-12.49999999999998
 31
0.0
  0
LINE
  5
2D56
330
B89
100
AcDbEntity
  8
SK2
 62
     0
370
    -2
100
AcDbLine
 10
-57.19596482125028
 20
12.5
 30
0.0
 11
-72.22841956194656
 21
12.5
 31
0.0
  0
LINE
  5
2D57
330
B89
100
AcDbEntity
  8
SK2
 62
     0
370
    -2
100
AcDbLine
 10
-70.97841956194656
 20
-9.999999999999987
 30
0.0
 11
-70.97841956194656
 21
10.0
 31
0.0
  0
SOLID
  5
2D58
330
B89
100
AcDbEntity
  8
SK2
 62
     0
100
AcDbTrace
 10
-71.39508622861324
 20
-9.999999999999987
 30
0.0
 11
-70.56175289527989
 21
-9.999999999999987
 31
0.0
 12
-70.97841956194656
 22
-12.49999999999998
 32
0.0
 13
-70.97841956194656
 23
-12.49999999999998
 33
0.0
  0
SOLID
  5
2D59
330
B89
100
AcDbEntity
  8
SK2
 62
     0
100
AcDbTrace
 10
-71.39508622861324
 20
10.0
 30
0.0
 11
-70.56175289527989
 21
10.0
 31
0.0
 12
-70.97841956194656
 22
12.5
 32
0.0
 13
-70.97841956194656
 23
12.5
 33
0.0
  0
MTEXT
  5
2D5A
330
B89
100
AcDbEntity
  8
SK2
 62
     0
100
AcDbMText
 10
-72.85341956194656
 20
-1.249431960299989
 30
0.0
 40
2.5
 41
0.0
 71
     5
 72
     1
  1
%%c25
 11
0.0000000000000001
 21
1.0
 31
0.0
 73
     1
 44
1.0
1001
ACAD
1000
MTEXTBEGIN
1070
    73
1070
     1
1070
    44
1040
1.0
1070
    74
1070
     0
1000
MTEXTEND
  0
POINT
  5
2D5B
330
B89
100
AcDbEntity
  8
DEFPOINTS
 62
     0
100
AcDbPoint
 10
-55.3
 20
-12.49999999999999
 30
0.0
  0
POINT
  5
2D5C
330
B89
100
AcDbEntity
  8
DEFPOINTS
 62
     0
100
AcDbPoint
 10
-56.57096482125028
 20
12.5
 30
0.0
  0
POINT
  5
2D5D
330
B89
100
AcDbEntity
  8
DEFPOINTS
 62
     0
100
AcDbPoint
 10
-70.97841956194656
 20
12.5
 30
0.0
  0
ENDBLK
  5
B94
330
B89
100
AcDbEntity
  8
0
100
AcDbBlockEnd
  0
BLOCK
  5
B9F
330
B95
100
AcDbEntity
  8
0
100
AcDbBlockBegin
  2
*D2
 70
     1
 10
0.0
 20
0.0
 30
0.0
  3
*D2
  1

  0
LINE
  5
2D3A
330
B95
100
AcDbEntity
  8
SK2
 62
     0
370
    -2
100
AcDbLine
 10
-24.0
 20
-0.6249999999999975
 30
0.0
 11
-24.0
 21
-40.57811679464561
 31
0.0
  0
LINE
  5
2D3B
330
B95
100
AcDbEntity
  8
SK2
 62
     0
370
    -2
100
AcDbLine
 10
81.0
 20
-0.6250000000000099
 30
0.0
 11
81.0
 21
-40.57811679464561
 31
0.0
  0
LINE
  5
2D3C
330
B95
100
AcDbEntity
  8
SK2
 62
     0
370
    -2
100
AcDbLine
 10
-21.49999999999999
 20
-39.32811679464561
 30
0.0
 11
78.5
 21
-39.32811679464561
 31
0.0
  0
SOLID
  5
2D3D
330
B95
100
AcDbEntity
  8
SK2
 62
     0
100
AcDbTrace
 10
-21.49999999999999
 20
-38.91145012797894
 30
0.0
 11
-21.49999999999999
 21
-39.74478346131228
 31
0.0
 12
-24.0
 22
-39.32811679464561
 32
0.0
 13
-24.0
 23
-39.32811679464561
 33
0.0
  0
SOLID
  5
2D3E
330
B95
100
AcDbEntity
  8
SK2
 62
     0
100
AcDbTrace
 10
78.5
 20
-38.91145012797894
 30
0.0
 11
78.5
 21
-39.74478346131228
 31
0.0
 12
81.0
 22
-39.32811679464561
 32
0.0
 13
81.0
 23
-39.32811679464561
 33
0.0
  0
MTEXT
  5
2D3F
330
B95
100
AcDbEntity
  8
SK2
 62
     0
100
AcDbMText
 10
28.49999999999999
 20
-37.45311679464561
 30
0.0
 40
2.5
 41
0.0
 71
     5
 72
     1
  1
105
 73
     1
 44
1.0
1001
ACAD
1000
MTEXTBEGIN
1070
    73
1070
     1
1070
    44
1040
1.0
1070
    74
1070
     0
1000
MTEXTEND
  0
POINT
  5
2D40
330
B95
100
AcDbEntity
  8
DEFPOINTS
 62
     0
100
AcDbPoint
 10
-24.0
 20
0.0000000000000029
 30
0.0
  0
POINT
  5
2D41
330
B95
100
AcDbEntity
  8
DEFPOINTS
 62
     0
100
AcDbPoint
 10
81.0
 20
-0.0000000000000099
 30
0.0
  0
POINT
  5
2D42
330
B95
100
AcDbEntity
  8
DEFPOINTS
 62
     0
100
AcDbPoint
 10
81.0
 20
-39.32811679464561
 30
0.0
  0
ENDBLK
  5
BA0
330
B95
100
AcDbEntity
  8
0
100
AcDbBlockEnd
  0
BLOCK
  5
BAB
330
BA1
100
AcDbEntity
  8
0
100
AcDbBlockBegin
  2
*D3
 70
     1
 10
0.0
 20
0.0
 30
0.0
  3
*D3
  1

  0
LINE
  5
2D43
330
BA1
100
AcDbEntity
  8
2
 62
     0
370
    -2
100
AcDbLine
 10
81.0
 20
3.366433362910346
 30
0.0
 11
81.0
 21
-28.68030916453903
 31
0.0
  0
LINE
  5
2D44
330
BA1
100
AcDbEntity
  8
2
 62
     0
370
    -2
100
AcDbLine
 10
21.0
 20
7.374999999999997
 30
0.0
 11
20.99999999999999
 21
-28.68030916453903
 31
0.0
  0
LINE
  5
2D45
330
BA1
100
AcDbEntity
  8
2
 62
     0
370
    -2
100
AcDbLine
 10
78.5
 20
-27.43030916453903
 30
0.0
 11
23.49999999999999
 21
-27.43030916453903
 31
0.0
  0
SOLID
  5
2D46
330
BA1
100
AcDbEntity
  8
2
 62
     0
100
AcDbTrace
 10
78.5
 20
-27.01364249787237
 30
0.0
 11
78.5
 21
-27.8469758312057
 31
0.0
 12
81.0
 22
-27.43030916453903
 32
0.0
 13
81.0
 23
-27.43030916453903
 33
0.0
  0
SOLID
  5
2D47
330
BA1
100
AcDbEntity
  8
2
 62
     0
100
AcDbTrace
 10
23.49999999999999
 20
-27.01364249787237
 30
0.0
 11
23.49999999999999
 21
-27.8469758312057
 31
0.0
 12
20.99999999999999
 22
-27.43030916453903
 32
0.0
 13
20.99999999999999
 23
-27.43030916453903
 33
0.0
  0
MTEXT
  5
2D48
330
BA1
100
AcDbEntity
  8
2
 62
     0
100
AcDbMText
 10
49.530493411
 20
-25.55530916453903
 30
0.0
 40
2.5
 41
0.0
 71
     5
 72
     1
  1
60
 73
     1
 44
1.0
1001
ACAD
1000
MTEXTBEGIN
1070
    73
1070
     1
1070
    44
1040
1.0
1070
    74
1070
     0
1000
MTEXTEND
  0
POINT
  5
2D49
330
BA1
100
AcDbEntity
  8
DEFPOINTS
 62
     0
100
AcDbPoint
 10
81.0
 20
3.991433362910346
 30
0.0
  0
POINT
  5
2D4A
330
BA1
100
AcDbEntity
  8
DEFPOINTS
 62
     0
100
AcDbPoint
 10
21.0
 20
7.999999999999997
 30
0.0
  0
POINT
  5
2D4B
330
BA1
100
AcDbEntity
  8
DEFPOINTS
 62
     0
100
AcDbPoint
 10
20.99999999999999
 20
-27.43030916453903
 30
0.0
  0
ENDBLK
  5
BAC
330
BA1
100
AcDbEntity
  8
0
100
AcDbBlockEnd
  0
BLOCK
  5
BB7
330
BAD
100
AcDbEntity
  8
0
100
AcDbBlockBegin
  2
*D4
 70
     1
 10
0.0
 20
0.0
 30
0.0
  3
*D4
  1

  0
LINE
  5
2D31
330
BAD
100
AcDbEntity
  8
SK2
 62
     0
370
    -2
100
AcDbLine
 10
81.0
 20
1.203927610344055
 30
0.0
 11
81.0
 21
-50.59776084284215
 31
0.0
  0
LINE
  5
2D32
330
BAD
100
AcDbEntity
  8
SK2
 62
     0
370
    -2
100
AcDbLine
 10
-56.0
 20
-13.12499999999999
 30
0.0
 11
-56.0
 21
-50.59776084284215
 31
0.0
  0
LINE
  5
2D33
330
BAD
100
AcDbEntity
  8
SK2
 62
     0
370
    -2
100
AcDbLine
 10
78.5
 20
-49.34776084284215
 30
0.0
 11
-53.5
 21
-49.34776084284215
 31
0.0
  0
SOLID
  5
2D34
330
BAD
100
AcDbEntity
  8
SK2
 62
     0
100
AcDbTrace
 10
78.5
 20
-48.93109417617548
 30
0.0
 11
78.5
 21
-49.76442750950881
 31
0.0
 12
81.0
 22
-49.34776084284215
 32
0.0
 13
81.0
 23
-49.34776084284215
 33
0.0
  0
SOLID
  5
2D35
330
BAD
100
AcDbEntity
  8
SK2
 62
     0
100
AcDbTrace
 10
-53.5
 20
-48.93109417617548
 30
0.0
 11
-53.5
 21
-49.76442750950881
 31
0.0
 12
-56.0
 22
-49.34776084284215
 32
0.0
 13
-56.0
 23
-49.34776084284215
 33
0.0
  0
MTEXT
  5
2D36
330
BAD
100
AcDbEntity
  8
SK2
 62
     0
100
AcDbMText
 10
22.87285669879244
 20
-47.47276084284215
 30
0.0
 40
2.5
 41
0.0
 71
     5
 72
     1
  1
137
 73
     1
 44
1.0
1001
ACAD
1000
MTEXTBEGIN
1070
    73
1070
     1
1070
    44
1040
1.0
1070
    74
1070
     0
1000
MTEXTEND
  0
POINT
  5
2D37
330
BAD
100
AcDbEntity
  8
DEFPOINTS
 62
     0
100
AcDbPoint
 10
81.0
 20
1.828927610344056
 30
0.0
  0
POINT
  5
2D38
330
BAD
100
AcDbEntity
  8
DEFPOINTS
 62
     0
100
AcDbPoint
 10
-56.0
 20
-12.49999999999999
 30
0.0
  0
POINT
  5
2D39
330
BAD
100
AcDbEntity
  8
DEFPOINTS
 62
     0
100
AcDbPoint
 10
-56.0
 20
-49.34776084284215
 30
0.0
  0
ENDBLK
  5
BB8
330
BAD
100
AcDbEntity
  8
0
100
AcDbBlockEnd
  0
BLOCK
  5
BC3
330
BB9
100
AcDbEntity
  8
0
100
AcDbBlockBegin
  2
*D5
 70
     1
 10
0.0
 20
0.0
 30
0.0
  3
*D5
  1

  0
LINE
  5
2D4C
330
BB9
100
AcDbEntity
  8
2
 62
     0
370
    -2
100
AcDbLine
 10
82.125
 20
9.999999999999987
 30
0.0
 11
97.32349700954285
 21
9.999999999999984
 31
0.0
  0
LINE
  5
2D4D
330
BB9
100
AcDbEntity
  8
2
 62
     0
370
    -2
100
AcDbLine
 10
82.125
 20
-10.0
 30
0.0
 11
97.32349700954285
 21
-10.0
 31
0.0
  0
LINE
  5
2D4E
330
BB9
100
AcDbEntity
  8
2
 62
     0
370
    -2
100
AcDbLine
 10
96.07349700954285
 20
7.499999999999982
 30
0.0
 11
96.07349700954285
 21
-7.500000000000013
 31
0.0
  0
SOLID
  5
2D4F
330
BB9
100
AcDbEntity
  8
2
 62
     0
100
AcDbTrace
 10
95.65683034287621
 20
7.499999999999982
 30
0.0
 11
96.49016367620951
 21
7.499999999999982
 31
0.0
 12
96.07349700954285
 22
9.999999999999984
 32
0.0
 13
96.07349700954285
 23
9.999999999999984
 33
0.0
  0
SOLID
  5
2D50
330
BB9
100
AcDbEntity
  8
2
 62
     0
100
AcDbTrace
 10
95.65683034287621
 20
-7.500000000000013
 30
0.0
 11
96.49016367620951
 21
-7.500000000000013
 31
0.0
 12
96.07349700954285
 22
-10.0
 32
0.0
 13
96.07349700954285
 23
-10.0
 33
0.0
  0
MTEXT
  5
2D51
330
BB9
100
AcDbEntity
  8
2
 62
     0
100
AcDbMText
 10
94.19849700954285
 20
0.5048995090000285
 30
0.0
 40
2.5
 41
0.0
 71
     5
 72
     1
  1
%%c20
 11
0.0000000000000001
 21
1.0
 31
0.0
 73
     1
 44
1.0
1001
ACAD
1000
MTEXTBEGIN
1070
    73
1070
     1
1070
    44
1040
1.0
1070
    74
1070
     0
1000
MTEXTEND
  0
POINT
  5
2D52
330
BB9
100
AcDbEntity
  8
DEFPOINTS
 62
     0
100
AcDbPoint
 10
81.5
 20
9.999999999999987
 30
0.0
  0
POINT
  5
2D53
330
BB9
100
AcDbEntity
  8
DEFPOINTS
 62
     0
100
AcDbPoint
 10
81.5
 20
-10.0
 30
0.0
  0
POINT
  5
2D54
330
BB9
100
AcDbEntity
  8
DEFPOINTS
 62
     0
100
AcDbPoint
 10
96.07349700954285
 20
-10.0
 30
0.0
  0
ENDBLK
  5
BC4
330
BB9
100
AcDbEntity
  8
0
100
AcDbBlockEnd
  0
ENDSEC
  0
SECTION
  2
ENTITIES
  0
DIMENSION
  5
542
330
1E
100
AcDbEntity
  8
SK2
100
AcDbDimension
  2
*D4
 10
-56.0
 20
-49.34776084284215
 30
0.0
 11
22.87285669879244
 21
-49.34776084284215
 31
0.0
 70
   160
 71
     5
 42
137.0
  3
ISO-25
100
AcDbAlignedDimension
 13
81.0
 23
1.828927610344056
 33
0.0
 14
-56.0
 24
-12.49999999999999
 34
0.0
 50
180.0
100
AcDbRotatedDimension
  0
DIMENSION
  5
543
330
1E
100
AcDbEntity
  8
2
100
AcDbDimension
  2
*D5
 10
96.07349700954285
 20
-10.0
 30
0.0
 11
96.07349700954285
 21
0.5048995090000285
 31
0.0
 70
   160
  1
%%c<>
 71
     5
 42
20.0
  3
ISO-25
100
AcDbAlignedDimension
 13
81.5
 23
9.999999999999987
 33
0.0
 14
81.5
 24
-10.0
 34
0.0
 50
270.0
100
AcDbRotatedDimension
  0
DIMENSION
  5
544
330
1E
100
AcDbEntity
  8
SK2
100
AcDbDimension
  2
*D1
 10
-70.97841956194656
 20
12.5
 30
0.0
 11
-70.97841956194656
 21
-1.249431960299989
 31
0.0
 70
   160
  1
%%c<>
 71
     5
 42
25.0
  3
ISO-25
100
AcDbAlignedDimension
 13
-55.3
 23
-12.49999999999999
 33
0.0
 14
-56.57096482125028
 24
12.5
 34
0.0
 50
89.99999999999998
100
AcDbRotatedDimension
  0
DIMENSION
  5
545
330
1E
100
AcDbEntity
  8
2
100
AcDbDimension
  2
*D3
 10
20.99999999999999
 20
-27.43030916453903
 30
0.0
 11
49.530493411
 21
-27.43030916453903
 31
0.0
 70
   160
 71
     5
 42
60.0
  3
ISO-25
100
AcDbAlignedDimension
 13
81.0
 23
3.991433362910346
 33
0.0
 14
21.0
 24
7.999999999999997
 34
0.0
 50
180.0
100
AcDbRotatedDimension
  0
LINE
  5
546
330
1E
100
AcDbEntity
  8
1
100
AcDbLine
 10
80.0
 20
-3.103420435600018
 30
0.0
 11
80.0
 21
-4.540476105999976
 31
0.0
  0
LINE
  5
548
330
1E
100
AcDbEntity
  8
1
100
AcDbLine
 10
73.03394201
 20
-7.806626818499987
 30
0.0
 11
73.03394201
 21
1.50035645069999
 31
0.0
  0
LINE
  5
54A
330
1E
100
AcDbEntity
  8
1
100
AcDbLine
 10
21.70674550369998
 20
-8.500000000000001
 30
0.0
 11
21.70674550369998
 21
8.499999999999998
 31
0.0
  0
LINE
  5
54B
330
1E
100
AcDbEntity
  8
1
100
AcDbLine
 10
20.3209422472
 20
-8.695882044099962
 30
0.0
 11
8.679057752899977
 21
-12.05411795589999
 31
0.0
  0
LINE
  5
54C
330
1E
100
AcDbEntity
  8
SK1
100
AcDbLine
 10
0.0000000000000015
 20
12.5
 30
0.0
 11
-54.8
 21
12.5
 31
0.0
  0
LINE
  5
54D
330
1E
100
AcDbEntity
  8
1
100
AcDbLine
 10
7.293254496399977
 20
12.24999999999999
 30
0.0
 11
0.1999999999999904
 21
12.25
 31
0.0
  0
LINE
  5
54E
330
1E
100
AcDbEntity
  8
1
100
AcDbLine
 10
20.3209422472
 20
8.695882044100017
 30
0.0
 11
8.679057752899982
 21
12.05411795589999
 31
0.0
  0
LINE
  5
54F
330
1E
100
AcDbEntity
  8
1
100
AcDbLine
 10
20.3209422472
 20
-8.695882044099962
 30
0.0
 11
20.3209422472
 21
8.695882044100017
 31
0.0
  0
LINE
  5
550
330
1E
100
AcDbEntity
  8
1
100
AcDbLine
 10
71.77005475909999
 20
8.499999999999991
 30
0.0
 11
21.70674550369998
 21
8.499999999999998
 31
0.0
  0
LINE
  5
551
330
1E
100
AcDbEntity
  8
1
100
AcDbLine
 10
72.45640738999998
 20
8.499917391399991
 30
0.0
 11
72.0353881823
 21
8.499917391399991
 31
0.0
  0
LINE
  5
553
330
1E
100
AcDbEntity
  8
SK1
100
AcDbLine
 10
-18.0
 20
6.782329983100026
 30
0.0
 11
-30.0
 21
6.78232998310003
 31
0.0
  0
LINE
  5
554
330
1E
100
AcDbEntity
  8
SK1
100
AcDbLine
 10
-39.0
 20
6.782329983100031
 30
0.0
 11
-54.8
 21
6.782329983100034
 31
0.0
  0
LINE
  5
556
330
1E
100
AcDbEntity
  8
1
100
AcDbLine
 10
75.015724
 20
1.50035645069999
 30
0.0
 11
71.01572400000002
 21
1.50035645069999
 31
0.0
  0
LINE
  5
557
330
1E
100
AcDbEntity
  8
4
100
AcDbLine
 10
82.48442244541022
 20
-0.0000000000000116
 30
0.0
 11
0.116400812260054
 21
0.0
 31
0.0
  0
LINE
  5
558
330
1E
100
AcDbEntity
  8
1
100
AcDbLine
 10
8.679057752899982
 20
12.05411795589999
 30
0.0
 11
8.679057752899977
 21
-12.05411795589999
 31
0.0
  0
LINE
  5
559
330
1E
100
AcDbEntity
  8
1
100
AcDbLine
 10
7.293254496399977
 20
12.24999999999999
 30
0.0
 11
7.293254496399972
 21
-12.25
 31
0.0
  0
LINE
  5
55A
330
1E
100
AcDbEntity
  8
SK1
100
AcDbLine
 10
-18.0
 20
-6.782329983199985
 30
0.0
 11
-30.0
 21
-6.782329983199982
 31
0.0
  0
LINE
  5
55B
330
1E
100
AcDbEntity
  8
SK1
100
AcDbLine
 10
-39.0
 20
-6.782329983199982
 30
0.0
 11
-54.8
 21
-6.782329983199979
 31
0.0
  0
LINE
  5
55C
330
1E
100
AcDbEntity
  8
1
100
AcDbLine
 10
73.03394201
 20
-7.806626818499987
 30
0.0
 11
72.75768062659999
 21
-7.806626818499987
 31
0.0
  0
LINE
  5
55D
330
1E
100
AcDbEntity
  8
1
100
AcDbLine
 10
72.586994546
 20
-8.500000000000008
 30
0.0
 11
21.70674550369998
 21
-8.500000000000001
 31
0.0
  0
LINE
  5
55E
330
1E
100
AcDbEntity
  8
1
100
AcDbLine
 10
0.1999999999999904
 20
12.25
 30
0.0
 11
0.1999999999999875
 21
-12.25
 31
0.0
  0
LINE
  5
55F
330
1E
100
AcDbEntity
  8
1
100
AcDbLine
 10
0.0000000000000015
 20
12.5
 30
0.0
 11
-0.0000000000000015
 21
-12.5
 31
0.0
  0
LINE
  5
560
330
1E
100
AcDbEntity
  8
1
100
AcDbLine
 10
7.293254496399972
 20
-12.25
 30
0.0
 11
0.1999999999999875
 21
-12.25
 31
0.0
  0
LINE
  5
561
330
1E
100
AcDbEntity
  8
SK1
100
AcDbLine
 10
-0.0000000000000015
 20
-12.5
 30
0.0
 11
-54.8
 21
-12.49999999999999
 31
0.0
  0
LINE
  5
562
330
1E
100
AcDbEntity
  8
SK1
100
AcDbLine
 10
-18.0
 20
6.782329983100026
 30
0.0
 11
-18.0
 21
-6.782329983199985
 31
0.0
  0
LINE
  5
563
330
1E
100
AcDbEntity
  8
SK1
100
AcDbLine
 10
-30.0
 20
6.78232998310003
 30
0.0
 11
-30.0
 21
-6.782329983199982
 31
0.0
  0
LINE
  5
564
330
1E
100
AcDbEntity
  8
SK1
100
AcDbLine
 10
-39.0
 20
6.782329983100031
 30
0.0
 11
-39.0
 21
-6.782329983199982
 31
0.0
  0
LINE
  5
565
330
1E
100
AcDbEntity
  8
SK1
100
AcDbLine
 10
-54.8
 20
12.5
 30
0.0
 11
-56.0
 21
11.3
 31
0.0
  0
LINE
  5
566
330
1E
100
AcDbEntity
  8
SK1
100
AcDbLine
 10
-54.8
 20
-12.49999999999999
 30
0.0
 11
-56.0
 21
-11.29999999999999
 31
0.0
  0
LINE
  5
567
330
1E
100
AcDbEntity
  8
SK1
100
AcDbLine
 10
-54.8
 20
6.782329983100034
 30
0.0
 11
-54.8
 21
12.5
 31
0.0
  0
LINE
  5
568
330
1E
100
AcDbEntity
  8
SK1
100
AcDbLine
 10
-54.8
 20
-6.782329983199979
 30
0.0
 11
-54.8
 21
-12.49999999999999
 31
0.0
  0
LINE
  5
569
330
1E
100
AcDbEntity
  8
SK1
100
AcDbLine
 10
-56.0
 20
11.299998085
 30
0.0
 11
-56.0
 21
-11.29999808509998
 31
0.0
  0
ARC
  5
56B
330
1E
100
AcDbEntity
  8
1
100
AcDbCircle
 10
76.01572400000002
 20
5.000356450699991
 30
0.0
 40
4.991597085
100
AcDbArc
 50
294.3811245276999
 51
224.5220075037999
  0
CIRCLE
  5
56E
330
1E
100
AcDbEntity
  8
1
100
AcDbCircle
 10
76.01572400000002
 20
5.000356450699991
 30
0.0
 40
3.0699873031
  0
ARC
  5
56F
330
1E
100
AcDbEntity
  8
1
100
AcDbCircle
 10
76.01572400000002
 20
-5.000356450700008
 30
0.0
 40
4.991597085
100
AcDbArc
 50
224.5163043040999
 51
43.82190190029997
  0
ARC
  5
571
330
1E
100
AcDbEntity
  8
1
100
AcDbCircle
 10
71.01572400000002
 20
11.50035645069998
 30
0.0
 40
10.0
100
AcDbArc
 50
197.6523644442998
 51
270.0
  0
CIRCLE
  5
572
330
1E
100
AcDbEntity
  8
1
100
AcDbCircle
 10
75.8743026438
 20
-4.858935094500005
 30
0.0
 40
2.25
  0
ARC
  5
573
330
1E
100
AcDbEntity
  8
1
100
AcDbCircle
 10
75.015724
 20
-3.499643549300006
 30
0.0
 40
5.0
100
AcDbArc
 50
4.545147958799891
 51
90.0
  0
ARC
  5
574
330
1E
100
AcDbEntity
  8
1
100
AcDbCircle
 10
76.01572400000002
 20
-5.000356450700008
 30
0.0
 40
4.5
100
AcDbArc
 50
219.9479444775999
 51
227.5818836798999
  0
ARC
  5
575
330
1E
100
AcDbEntity
  8
1
100
AcDbCircle
 10
7.293254496399977
 20
7.249999999999999
 30
0.0
 40
5.0
100
AcDbArc
 50
73.90918365109995
 51
90.0
  0
ARC
  5
576
330
1E
100
AcDbEntity
  8
1
100
AcDbCircle
 10
7.293254496399976
 20
-7.25
 30
0.0
 40
5.0
100
AcDbArc
 50
270.0
 51
286.0908163488998
  0
ARC
  5
577
330
1E
100
AcDbEntity
  8
1
100
AcDbCircle
 10
21.70674550369998
 20
13.49999999999999
 30
0.0
 40
5.0
100
AcDbArc
 50
253.9091836513999
 51
270.0
  0
ARC
  5
578
330
1E
100
AcDbEntity
  8
1
100
AcDbCircle
 10
21.70674550369998
 20
-13.5
 30
0.0
 40
5.0
100
AcDbArc
 50
90.0
 51
106.0908163486
  0
ARC
  5
579
330
1E
100
AcDbEntity
  8
1
100
AcDbCircle
 10
75.015724
 20
3.499643549299987
 30
0.0
 40
5.0
100
AcDbArc
 50
315.5685464972999
 51
336.9780506733
  0
ARC
  5
57A
330
1E
100
AcDbEntity
  8
1
100
AcDbCircle
 10
0.1999999999999874
 20
-12.45
 30
0.0
 40
0.2
100
AcDbArc
 50
90.0
 51
180.0
  0
ARC
  5
57B
330
1E
100
AcDbEntity
  8
1
100
AcDbCircle
 10
76.01572400000002
 20
5.000356450699991
 30
0.0
 40
5.5
100
AcDbArc
 50
140.5284077758999
 51
219.3849043311999
  0
ARC
  5
57C
330
1E
100
AcDbEntity
  8
1
100
AcDbCircle
 10
0.1999999999999905
 20
12.45
 30
0.0
 40
0.2
100
AcDbArc
 50
180.0
 51
270.0
  0
LWPOLYLINE
  5
6EA
330
1E
100
AcDbEntity
  8
1
100
AcDbPolyline
 90
      162
 70
     0
 43
0.0
 10
73.3035836455
 20
-7.920329839199959
 10
73.35227348342709
 20
-7.967795279520696
 10
73.40176611791959
 20
-8.014435338478707
 10
73.45204712041979
 20
-8.060231386439486
 10
73.5031020623697
 20
-8.105164793768516
 10
73.55491661791791
 20
-8.149217222290596
 10
73.6074773478504
 20
-8.192372849925757
 10
73.6607712664066
 20
-8.234617141401356
 10
73.71478539148291
 20
-8.275935571822197
 10
73.76950667175529
 20
-8.316313622415659
 10
73.81696263296309
 20
-8.350163991972657
 10
73.864917846264
 20
-8.383303879968869
 10
73.91336253106259
 20
-8.415724281519668
 10
73.9622869067638
 20
-8.447416191740447
 10
74.0116811306875
 20
-8.478370678643937
 10
74.0615348557162
 20
-8.508579402536009
 10
74.11183748947998
 20
-8.538034311688946
 10
74.1625784379768
 20
-8.566727356291586
 10
74.21374710720448
 20
-8.594650486532776
 10
74.2653327786646
 20
-8.621795773191129
 10
74.317324137037
 20
-8.648155865139589
 10
74.3697096883707
 20
-8.673723584276476
 10
74.4224779386822
 20
-8.698491752531857
 10
74.4756173936464
 20
-8.722453192299028
 10
74.5291163761242
 20
-8.745600974043107
 10
74.58296272537102
 20
-8.767928824462806
 10
74.63714420159121
 20
-8.789430577526218
 10
74.69164856498918
 20
-8.810100067201407
 10
74.74646357073639
 20
-8.829931136052609
 10
74.80157672727891
 20
-8.848918048050887
 10
74.8569751894168
 20
-8.867055671194606
 10
74.91264608466059
 20
-8.884338920092988
 10
74.9685765405207
 20
-8.900762709355216
 10
75.02475366551941
 20
-8.916321996415987
 10
75.0811642922985
 20
-8.931012360933488
 10
75.12834186774718
 20
-8.942587720379536
 10
75.17566456512771
 20
-8.953554638281858
 10
75.223124640967
 20
-8.963910835055576
 10
75.2707143512885
 20
-8.973654032716265
 10
75.31842588478401
 20
-8.982782167088307
 10
75.36625129581668
 20
-8.991293600555477
 10
75.41418262280679
 20
-8.999186746126806
 10
75.4622119041748
 20
-9.006460016811358
 10
75.51033117834091
 20
-9.01311182561815
 10
75.5585324796657
 20
-9.019140606915286
 10
75.60680777230898
 20
-9.024545164397428
 10
75.65514896110631
 20
-9.029324613864035
 10
75.70354794902802
 20
-9.033478080927556
 10
75.75199663904441
 20
-9.037004691200419
 10
75.8004869341258
 20
-9.039903570295036
 10
75.84901072981491
 20
-9.04217393153327
 10
75.8975598813947
 20
-9.043815463641204
 10
75.9461262305713
 20
-9.044828015664633
 10
75.9947016190404
 20
-9.045211436772435
 10
76.04327788849779
 20
-9.044965576133499
 10
76.091846880698
 20
-9.044090284470726
 10
76.14040044575739
 20
-9.042585633674407
 10
76.188930450754
 20
-9.040452144260321
 10
76.2374287648191
 20
-9.037690391055877
 10
76.285887257084
 20
-9.034300948888507
 10
76.33429779668031
 20
-9.030284392585636
 10
76.38265225591709
 20
-9.025641319242547
 10
76.43094256060419
 20
-9.020372700837686
 10
76.4791606810083
 20
-9.014479820864183
 10
76.5272985887459
 20
-9.007963972272966
 10
76.5753482554335
 20
-9.000826448014956
 10
76.6233016526875
 20
-8.993068541041077
 10
76.6711507744865
 20
-8.984691629371695
 10
76.71888773612661
 20
-8.975697552544126
 10
76.76650469385191
 20
-8.966088305868636
 10
76.8139938039379
 20
-8.955865884776116
 10
76.86134722266022
 20
-8.945032284697427
 10
76.90855710673918
 20
-8.933589502198179
 10
76.9650085816164
 20
-8.919057167614926
 10
77.02122905671568
 20
-8.903655307573174
 10
77.07720543542369
 20
-8.887388537402854
 10
77.13292462112679
 20
-8.870261472433867
 10
77.18837352496059
 20
-8.852278743005397
 10
77.2435393086497
 20
-8.833445464821167
 10
77.298409432838
 20
-8.813767332559615
 10
77.35297137567879
 20
-8.793250074813199
 10
77.40721261532518
 20
-8.771899420174355
 10
77.46112066459478
 20
-8.749721147576877
 10
77.51468344396362
 20
-8.726721627980785
 10
77.5678891391569
 20
-8.702907617556396
 10
77.62072594042229
 20
-8.678285879042169
 10
77.67318203800769
 20
-8.652863175176536
 10
77.7252457128869
 20
-8.626646375288276
 10
77.776905775144
 20
-8.599642970337427
 10
77.82815122614191
 20
-8.571860676009629
 10
77.87897106750482
 20
-8.543307208297617
 10
77.92935430088459
 20
-8.513990283219607
 10
77.97929010965788
 20
-8.483917783824436
 10
78.0287682912772
 20
-8.453098157583246
 10
78.077778772773
 20
-8.421539971067611
 10
78.12631148117579
 20
-8.389251790849119
 10
78.1743563449924
 20
-8.356242184571076
 10
78.2219035839075
 20
-8.322519931272548
 10
78.2767342309052
 20
-8.282288931433317
 10
78.3308607323322
 20
-8.241115296438676
 10
78.38426870738
 20
-8.199013801957518
 10
78.4369439487817
 20
-8.155999322571839
 10
78.4888733673705
 20
-8.112087370143687
 10
78.54004431728819
 20
-8.067293709206149
 10
78.590444153789
 20
-8.021634104926539
 10
78.6400603031504
 20
-7.975124351620626
 10
78.68888120712391
 20
-7.927780660361378
 10
78.73689606569398
 20
-7.879619553405946
 10
78.7840940970409
 20
-7.830657560478869
 10
78.83046453183339
 20
-7.78091121495153
 10
78.8759973229407
 20
-7.730397261080168
 10
78.92068352730721
 20
-7.679132765514697
 10
78.9645142950816
 20
-7.627134822120963
 10
79.0074807764129
 20
-7.574420524764875
 10
79.04957446781439
 20
-7.521007021132755
 10
79.0907882103442
 20
-7.466911667835287
 10
79.131115171269
 20
-7.412151872171637
 10
79.17054851785548
 20
-7.356745041440967
 10
79.20908150111729
 20
-7.300708586414486
 10
79.2467085053687
 20
-7.244059964848477
 10
79.2834247298617
 20
-7.186816668285459
 10
79.31922539174379
 20
-7.128996189009876
 10
79.3541057099014
 20
-7.070616019169754
 10
79.38806145280129
 20
-7.011693607794606
 10
79.4210897188163
 20
-6.952246299573397
 10
79.45318780352
 20
-6.892291423723237
 10
79.4843530024865
 20
-6.831846309461237
 10
79.514582699291
 20
-6.770928268345267
 10
79.54387543764521
 20
-6.709554379128928
 10
79.5722305804497
 20
-6.647741556179357
 10
79.5996475078182
 20
-6.585506710409577
 10
79.6261255998641
 20
-6.52286675273261
 10
79.6516645805155
 20
-6.459838483235786
 10
79.67626555174509
 20
-6.396438257805447
 10
79.69992996073479
 20
-6.332682321052621
 10
79.72265925466641
 20
-6.268586917588327
 10
79.74445488661506
 20
-6.204168289341589
 10
79.7653189637313
 20
-6.13944238056132
 10
79.7852548329263
 20
-6.074424571261928
 10
79.8042659793784
 20
-6.00913017853021
 10
79.82235588826601
 20
-5.943574519452937
 10
79.83952806851991
 20
-5.877772896588369
 10
79.85578687063038
 20
-5.811740097737548
 10
79.8711376931996
 20
-5.745490269602766
 10
79.885586000517
 20
-5.679037518707247
 10
79.89913725687209
 20
-5.612395951574217
 10
79.91179695827859
 20
-5.545579653491486
 10
79.9235714754339
 20
-5.478602124256537
 10
79.9344681427878
 20
-5.411476218556074
 10
79.9444943443808
 20
-5.344214757882137
 10
79.95365746425321
 20
-5.27683056372675
 10
79.9619649087932
 20
-5.209336431254127
 10
79.9694248708148
 20
-5.141744229142188
 10
79.97604651949
 20
-5.0740646758237
 10
79.98183908488321
 20
-5.006308417994326
 10
79.98681179705871
 20
-4.938486102349726
 10
79.990973894384
 20
-4.870608375885318
 10
79.99433524028259
 20
-4.802685908163478
 10
79.9972102718635
 20
-4.7250191812892
 10
79.99907011839439
 20
-4.647323990685068
 10
79.99993122020082
 20
-4.569616324921417
 10
79.9999999999917
 20
-4.540485997300089
  0
LWPOLYLINE
  5
78E
330
1E
100
AcDbEntity
  8
1
100
AcDbPolyline
 90
      123
 70
     0
 43
0.0
 10
72.56589743620001
 20
-7.889767581000007
 10
72.5651221089815
 20
-7.888820660877115
 10
72.5645168363642
 20
-7.888049057817163
 10
72.56392635409008
 20
-7.887264885611037
 10
72.5633520159877
 20
-7.886468084092316
 10
72.56279517588559
 20
-7.885658593094587
 10
72.5622571876124
 20
-7.884836352451449
 10
72.5618668823326
 20
-7.884211268820418
 10
72.5614885138815
 20
-7.883578954287528
 10
72.56112265340552
 20
-7.882939383470077
 10
72.56076987205109
 20
-7.882292530985357
 10
72.56043074096459
 20
-7.881638371450659
 10
72.56010583129259
 20
-7.880976879483275
 10
72.5597957141813
 20
-7.880308029700509
 10
72.55950096077729
 20
-7.879631796719633
 10
72.55922214222541
 20
-7.878948155362285
 10
72.55895982865609
 20
-7.878257218153025
 10
72.558714587425
 20
-7.877559474272377
 10
72.5584869854176
 20
-7.876855476717418
 10
72.55827758951951
 20
-7.876145778485177
 10
72.558086966616
 20
-7.875430932572727
 10
72.5579156835927
 20
-7.874711491977119
 10
72.55776430733511
 20
-7.873988009695406
 10
72.55763340472859
 20
-7.873261038724646
 10
72.55752354265879
 20
-7.872531132061888
 10
72.55743528801111
 20
-7.871798842704197
 10
72.5573887356461
 20
-7.871309599164613
 10
72.55735220649509
 20
-7.870819706276967
 10
72.557325868524
 20
-7.870329327892204
 10
72.557309889699
 20
-7.869838627861326
 10
72.55730443798601
 20
-7.869347770035306
 10
72.5573096813513
 20
-7.868856918265128
 10
72.5573257509156
 20
-7.868366239111654
 10
72.5573525701197
 20
-7.867875914410245
 10
72.5573899897048
 20
-7.867386131343176
 10
72.557437860335
 20
-7.866897077098387
 10
72.5574960326741
 20
-7.866408938863838
 10
72.55756435738621
 20
-7.865921903827468
 10
72.5576426851352
 20
-7.865436159177225
 10
72.55777860578048
 20
-7.864710371149508
 10
72.55793619324361
 20
-7.863988539422817
 10
72.55811494351552
 20
-7.863271295756477
 10
72.5583143525872
 20
-7.862559271909817
 10
72.55853391644952
 20
-7.861853099642178
 10
72.55877313109341
 20
-7.861153410712888
 10
72.55903149250959
 20
-7.860460836881268
 10
72.55930849668921
 20
-7.859776009906664
 10
72.55960363962301
 20
-7.859099561548409
 10
72.55991639642458
 20
-7.858432011234197
 10
72.560246157431
 20
-7.857773422245467
 10
72.56059229146321
 20
-7.857123742096365
 10
72.5609541673423
 20
-7.856482918301009
 10
72.5613311538893
 20
-7.855850898373518
 10
72.5617226199254
 20
-7.855227629828018
 10
72.56212793427159
 20
-7.854613060178627
 10
72.56254646574899
 20
-7.854007136939467
 10
72.56297758317882
 20
-7.853409807624677
 10
72.56342065538182
 20
-7.852821019748357
 10
72.56387505117929
 20
-7.852240720824637
 10
72.56449743579629
 20
-7.851480103247392
 10
72.56513733302409
 20
-7.850734359422244
 10
72.56579324673499
 20
-7.850003364938217
 10
72.56646382416818
 20
-7.849286958616596
 10
72.5671483102909
 20
-7.848584825986079
 10
72.56784610582158
 20
-7.847896612631577
 10
72.56855661147909
 20
-7.847221964137932
 10
72.56946170419929
 20
-7.846397189177067
 10
72.57038454964479
 20
-7.845592363320426
 10
72.57132397734451
 20
-7.844806794350867
 10
72.57227881682741
 20
-7.844039790051245
 10
72.57324789762229
 20
-7.843290658204428
 10
72.5742300492584
 20
-7.842558706593258
 10
72.57522410126459
 20
-7.841843243000607
 10
72.57622890088629
 20
-7.841143581783237
 10
72.5774477710586
 20
-7.840324084987777
 10
72.5786802304293
 20
-7.839525826254329
 10
72.57992554242751
 20
-7.838748086617624
 10
72.58118297048209
 20
-7.837990147112397
 10
72.5824517780223
 20
-7.837251288773376
 10
72.58373122847711
 20
-7.836530792635326
 10
72.58523638947291
 20
-7.835712462414265
 10
72.5867538644556
 20
-7.834917004907147
 10
72.5882824837779
 20
-7.834143278423757
 10
72.58982108182209
 20
-7.833390144253875
 10
72.59159057201468
 20
-7.832553446596877
 10
72.5933712378683
 20
-7.831741496705647
 10
72.59516244440439
 20
-7.830953411960067
 10
72.5969635566442
 20
-7.830188309740058
 10
72.59900085770261
 20
-7.829353942077177
 10
72.6010489879219
 20
-7.828546287907816
 10
72.6031070432017
 20
-7.827764090532665
 10
72.60540431215559
 20
-7.826923310576257
 10
72.60771148849911
 20
-7.826110695360076
 10
72.610259763415
 20
-7.825247762909753
 10
72.61281824613179
 20
-7.824416075696097
 10
72.61562018153781
 20
-7.823543028777954
 10
72.61843261626331
 20
-7.822704229437579
 10
72.62149027100889
 20
-7.821832400445897
 10
72.62455814454781
 20
-7.820997018375153
 10
72.62787218195
 20
-7.820135901761925
 10
72.63119554815559
 20
-7.819312525608027
 10
72.63476581775548
 20
-7.818470502675577
 10
72.63858416610698
 20
-7.817616386670096
 10
72.6424120434159
 20
-7.816805839481576
 10
72.64648862571769
 20
-7.815990208383125
 10
72.65081449009059
 20
-7.815175251375928
 10
72.6553899196705
 20
-7.814366337168435
 10
72.6599737305225
 20
-7.813607562605088
 10
72.664807062253
 20
-7.812860992201727
 10
72.6698903223572
 20
-7.812132395332079
 10
72.6752237225907
 20
-7.811427266810357
 10
72.68080724734431
 20
-7.810750744496829
 10
72.686640640278
 20
-7.810107566190507
 10
72.6927237495078
 20
-7.809502809648897
 10
72.69905656757069
 20
-7.808941964793667
 10
72.7056389358126
 20
-7.808430271740067
 10
72.7124705145222
 20
-7.807972639092606
 10
72.719550763608
 20
-7.807573585499858
 10
72.72687904105048
 20
-7.807237644657829
 10
72.73445477274059
 20
-7.806970051476848
 10
72.74227724547571
 20
-7.806775948077565
 10
72.75034555759109
 20
-7.806660209867534
 10
72.75767062659929
 20
-7.806626818561338
  0
LWPOLYLINE
  5
80B
330
1E
100
AcDbEntity
  8
1
100
AcDbPolyline
 90
       83
 70
     0
 43
0.0
 10
72.5874371205
 20
-8.500000577999976
 10
72.5973950796978
 20
-8.499948069280687
 10
72.6069005998918
 20
-8.499795012612597
 10
72.6159522617023
 20
-8.499552869205338
 10
72.62500142354132
 20
-8.499213960134547
 10
72.63359463357869
 20
-8.498799911599178
 10
72.64218331104181
 20
-8.498293787097589
 10
72.65076634693952
 20
-8.497693274985065
 10
72.6588914350852
 20
-8.497035207146476
 10
72.66700952161818
 20
-8.496288385534837
 10
72.6746692436431
 20
-8.495499708578838
 10
72.6823204334762
 20
-8.494627816737427
 10
72.6899615431751
 20
-8.493670314244537
 10
72.69714258108699
 20
-8.492688784654577
 10
72.70431202761969
 20
-8.491627299920196
 10
72.71102170853652
 20
-8.490557766016387
 10
72.7177190036483
 20
-8.489414557317317
 10
72.72440284937309
 20
-8.488196027829879
 10
72.7310721821288
 20
-8.486900531560946
 10
72.7372828605145
 20
-8.485620508518888
 10
72.74347910526199
 20
-8.484270666762036
 10
72.74966005163979
 20
-8.482849668037017
 10
72.75582482194629
 20
-8.481356170013507
 10
72.76153365433289
 20
-8.479903151939378
 10
72.76722602149511
 20
-8.478385056994909
 10
72.7729004899992
 20
-8.476800580748808
 10
72.7785556264118
 20
-8.475148418769745
 10
72.78375735401408
 20
-8.473562141986745
 10
72.78894026048011
 20
-8.471916054714537
 10
72.79410321837548
 20
-8.470209130982576
 10
72.79924510026591
 20
-8.468440344820306
 10
72.804364778717
 20
-8.466608670257187
 10
72.80946112629441
 20
-8.464713081322647
 10
72.81411131980791
 20
-8.462918434881887
 10
72.818740093137
 20
-8.461068430256338
 10
72.82334657787038
 20
-8.459162277187427
 10
72.82792990559659
 20
-8.457199185416596
 10
72.83248912479098
 20
-8.455178409908258
 10
72.83702290426839
 20
-8.453099412205979
 10
72.8415298044967
 20
-8.450961712806407
 10
72.8460083859357
 20
-8.448764832210699
 10
72.850457209045
 20
-8.446508290919979
 10
72.8548748342845
 20
-8.444191609435389
 10
72.8592598221138
 20
-8.441814308258047
 10
72.86321664163271
 20
-8.439600118018827
 10
72.8671442168347
 20
-8.437335072325339
 10
72.8710414661719
 20
-8.435018810922986
 10
72.87490730809629
 20
-8.432650973557189
 10
72.8787406610602
 20
-8.430231199973349
 10
72.8825404435155
 20
-8.427759129916866
 10
72.8863055739144
 20
-8.425234403133156
 10
72.89003497070891
 20
-8.422656659367628
 10
72.89372755277191
 20
-8.420025565641877
 10
72.89738224501061
 20
-8.417341180114107
 10
72.900997976847
 20
-8.414603853577737
 10
72.90457367781179
 20
-8.411813943880767
 10
72.9081082774356
 20
-8.408971808871237
 10
72.9116007052493
 20
-8.406077806397147
 10
72.91504989078361
 20
-8.403132294306526
 10
72.9184547635692
 20
-8.400135630447376
 10
72.9218142531368
 20
-8.397088172667729
 10
72.92545599643941
 20
-8.393677729223536
 10
72.92904010598579
 20
-8.390206734427357
 10
72.9325651569815
 20
-8.386675664574887
 10
72.9357173007146
 20
-8.383413870615227
 10
72.9388183877427
 20
-8.380103179329559
 10
72.9418673475964
 20
-8.376743948565886
 10
72.94486318131309
 20
-8.373336634995686
 10
72.94780530508941
 20
-8.369882269047776
 10
72.9506932845739
 20
-8.366382087696598
 10
72.9535266856132
 20
-8.362837328190073
 10
72.9563050740539
 20
-8.359249227776146
 10
72.95902801574261
 20
-8.355619023702757
 10
72.96169507652598
 20
-8.351947953217838
 10
72.96430582225048
 20
-8.348237253569326
 10
72.9666069851995
 20
-8.344864763536209
 10
72.96886186478871
 20
-8.341462078005159
 10
72.97107014452041
 20
-8.338030098929918
 10
72.9732315078967
 20
-8.334569728264249
 10
72.97534563841971
 20
-8.331081867961867
 10
72.9774122195917
 20
-8.327567419976547
 10
72.9794309349148
 20
-8.324027286262019
 10
72.9803078503126
 20
-8.322454632914396
  0
LWPOLYLINE
  5
871
330
1E
100
AcDbEntity
  8
1
100
AcDbPolyline
 90
       65
 70
     0
 43
0.0
 10
73.3035836455
 20
-7.920329839199959
 10
73.2990742481455
 20
-7.915926389237717
 10
73.29449735666959
 20
-7.911591284730817
 10
73.29007663286041
 20
-7.907527489343057
 10
73.2855965674875
 20
-7.903528268094627
 10
73.28105807645059
 20
-7.899594880886295
 10
73.276693227407
 20
-7.895920289351427
 10
73.27227726107039
 20
-7.892307330305647
 10
73.26781096191891
 20
-7.888757078642097
 10
73.26353399883
 20
-7.885452403612284
 10
73.2592131918595
 20
-7.882205612684468
 10
73.25484918104868
 20
-7.879017438608587
 10
73.25044260643858
 20
-7.875888614134549
 10
73.24599410807032
 20
-7.872819872012317
 10
73.2417548305004
 20
-7.86997744413099
 10
73.2374792680584
 20
-7.867189879102807
 10
73.2331679602614
 20
-7.864457794163906
 10
73.22882149206191
 20
-7.861781800016517
 10
73.2244405395579
 20
-7.859162494255397
 10
73.22002578973641
 20
-7.856600472909377
 10
73.2158404726611
 20
-7.854242021510628
 10
73.21162639876559
 20
-7.851935338283298
 10
73.2073841407956
 20
-7.849680920140485
 10
73.2031142714968
 20
-7.847479263995325
 10
73.19881736361479
 20
-7.845330866760907
 10
73.19449399085229
 20
-7.843236224333455
 10
73.190144759414
 20
-7.841195798076298
 10
73.1857703151885
 20
-7.839210007188297
 10
73.18164695191741
 20
-7.837398318751295
 10
73.17750253294859
 20
-7.835635359164147
 10
73.1733375924655
 20
-7.833921471724797
 10
73.16915266465109
 20
-7.8322569997312
 10
73.16494828368859
 20
-7.830642286481298
 10
73.1607249837612
 20
-7.829077675273039
 10
73.1564832990913
 20
-7.827563509365266
 10
73.15222378316609
 20
-7.826100112801047
 10
73.14794703976318
 20
-7.824687759461838
 10
73.1436536807632
 20
-7.823326715146427
 10
73.13934431804709
 20
-7.822017245653556
 10
73.13530834705509
 20
-7.820841840558339
 10
73.13125946554599
 20
-7.819711810508587
 10
73.12719817100159
 20
-7.818627371608543
 10
73.12312496090379
 20
-7.817588739962457
 10
73.1190403327342
 20
-7.816596131674558
 10
73.11494478402529
 20
-7.815649762077535
 10
73.1108388144535
 20
-7.814749813803918
 10
73.10672292658769
 20
-7.813896425372138
 10
73.10259762320161
 20
-7.813089732181928
 10
73.09846340706847
 20
-7.812329869633018
 10
73.09432078096198
 20
-7.811616973125159
 10
73.09017024765539
 20
-7.810951178058076
 10
73.08601230992239
 20
-7.810332619831527
 10
73.0818474705364
 20
-7.809761433845245
 10
73.0776762322709
 20
-7.809237755498965
 10
73.07349909962841
 20
-7.808761719125135
 10
73.0693166386378
 20
-7.808333421079777
 10
73.06512949210598
 20
-7.807952910328125
 10
73.0609383076668
 20
-7.807620232856247
 10
73.05674373295381
 20
-7.807335434650258
 10
73.0525464156008
 20
-7.807098561696218
 10
73.0483470032412
 20
-7.806909659980217
 10
73.044146143509
 20
-7.806768775488348
 10
73.0399444840375
 20
-7.806675954206687
 10
73.03574267246069
 20
-7.806631242121325
 10
73.0339520100022
 20
-7.806626818636447
  0
LWPOLYLINE
  5
8B4
330
1E
100
AcDbEntity
  8
SK1
100
AcDbPolyline
 90
       52
 70
     0
 43
0.0
 10
-18.0
 20
-6.782329983199985
 10
-17.9152671519155
 20
-6.649317625848462
 10
-17.8322142898545
 20
-6.515238880077236
 10
-17.750857070675
 20
-6.380119121150655
 10
-17.6712111480317
 20
-6.243983721023718
 10
-17.5932910552735
 20
-6.106856894219937
 10
-17.52053354809459
 20
-5.975057882400146
 10
-17.4493691432858
 20
-5.842393191687045
 10
-17.3798077149798
 20
-5.708881031610527
 10
-17.3118590947338
 20
-5.574540180215436
 10
-17.2455330388218
 20
-5.439390420800869
 10
-17.1808392958199
 20
-5.303451639462916
 10
-17.1177875998152
 20
-5.166743723386637
 10
-17.0563871977587
 20
-5.029286596370296
 10
-16.9994537603278
 20
-4.897696771422205
 10
-16.9440333911118
 20
-4.765462753576658
 10
-16.890133518515
 20
-4.632601803837297
 10
-16.8377612082095
 20
-4.499131379560456
 10
-16.7869231807714
 20
-4.365069124908326
 10
-16.73762614308429
 20
-4.230432691455276
 10
-16.6898767716905
 20
-4.095239740488755
 10
-16.6436813055093
 20
-3.959508073393455
 10
-16.59904565475519
 20
-3.823255596782886
 10
-16.5559757216467
 20
-3.686500219830423
 10
-16.5144773507707
 20
-3.549259869930224
 10
-16.4745559021963
 20
-3.411552627662024
 10
-16.4362164935798
 20
-3.273396650246955
 10
-16.3994642407758
 20
-3.134810095475856
 10
-16.36602426226049
 20
-3.002770609620305
 10
-16.334025042168
 20
-2.870374645468528
 10
-16.30347028894999
 20
-2.737637939545028
 10
-16.27436371105217
 20
-2.604576228375828
 10
-16.24670889838339
 20
-2.471205277064647
 10
-16.220508990546
 20
-2.337540959277895
 10
-16.1957670202301
 20
-2.203599174457226
 10
-16.17248601996778
 20
-2.069395822054405
 10
-16.1506688682588
 20
-1.934946811426137
 10
-16.13031800147529
 20
-1.800268080359628
 10
-16.1114357771565
 20
-1.665375571711388
 10
-16.0940245513012
 20
-1.530285229138725
 10
-16.0780864721763
 20
-1.395013104329067
 10
-16.06362327253877
 20
-1.259575465053718
 10
-16.0506366356784
 20
-1.123988604809166
 10
-16.0391282381531
 20
-0.98826880766781
 10
-16.02909948102859
 20
-0.8524319720218878
 10
-16.0205513993019
 20
-0.7164934837801639
 10
-16.01348500266319
 20
-0.580468693422484
 10
-16.00790128109968
 20
-0.4443730618572915
 10
-16.0038008774718
 20
-0.3082239955248661
 10
-16.00118413785208
 20
-0.172040564261676
 10
-16.0000513987561
 20
-0.0358418914711009
 10
-16.000000000004
 20
-0.0000100000000216
  0
LWPOLYLINE
  5
8EA
330
1E
100
AcDbEntity
  8
SK1
100
AcDbPolyline
 90
       52
 70
     0
 43
0.0
 10
-16.0
 20
0.000000000000002
 10
-16.0007421567178
 20
0.136199505383185
 10
-16.0029684025228
 20
0.272388801824387
 10
-16.0066784008921
 20
0.4085487659086123
 10
-16.011871814683
 20
0.544660277696024
 10
-16.0185481263876
 20
0.6807052281409322
 10
-16.0267063888975
 20
0.8166679159831739
 10
-16.0363455925164
 20
0.9525329907510059
 10
-16.0474647229233
 20
1.088285095498479
 10
-16.0600625109095
 20
1.223908516451031
 10
-16.0741373046598
 20
1.35938700420512
 10
-16.0896874208616
 20
1.494704265263031
 10
-16.10671116237019
 20
1.629844013320726
 10
-16.1252065100422
 20
1.764790129531179
 10
-16.1451711205818
 20
1.899526663624589
 10
-16.16660263643019
 20
2.03403767274886
 10
-16.1894986725725
 20
2.168307215817451
 10
-16.2138564710817
 20
2.30231937572381
 10
-16.2396730051947
 20
2.436058252648868
 10
-16.2669452422085
 20
2.56950794715548
 10
-16.2956701074655
 20
2.702652569921081
 10
-16.32584412150059
 20
2.835476329214767
 10
-16.3574635783272
 20
2.967963487915982
 10
-16.3905247694735
 20
3.100098309503211
 10
-16.4268794353043
 20
3.23878967107308
 10
-16.4648225346074
 20
3.377054995045908
 10
-16.50434895282089
 20
3.514876123312451
 10
-16.54545357406719
 20
3.652234898090508
 10
-16.5881311555064
 20
3.789113201738381
 10
-16.6323759301533
 20
3.92549308232799
 10
-16.6781819957833
 20
4.061356630688687
 10
-16.7255434497988
 20
4.196685937769141
 10
-16.7744541920878
 20
4.331463157749507
 10
-16.8249076008707
 20
4.465670611814322
 10
-16.8768969692401
 20
4.599290648400541
 10
-16.93041558877429
 20
4.732305616764931
 10
-16.9854565275293
 20
4.864697987160091
 10
-17.0420123959006
 20
4.99645047757715
 10
-17.1030183537753
 20
5.134083045114048
 10
-17.1656776863281
 20
5.270971154556788
 10
-17.2299813464967
 20
5.407094867085709
 10
-17.29591964067569
 20
5.542434292481268
 10
-17.36348282027577
 20
5.676969544656969
 10
-17.43266113442128
 20
5.810680768065911
 10
-17.50344477364009
 20
5.943548889735107
 10
-17.5758238663217
 20
6.075555666574722
 10
-17.64978853785978
 20
6.206682895506547
 10
-17.72896508185748
 20
6.343090942437742
 10
-17.8098571356582
 20
6.478490210015709
 10
-17.8924491024138
 20
6.612855384989487
 10
-17.9767253252505
 20
6.746161092093697
 10
-17.9999945741394
 20
6.78232158309783
  0
LWPOLYLINE
  5
920
330
1E
100
AcDbEntity
  8
SK1
100
AcDbPolyline
 90
       52
 70
     0
 43
0.0
 10
-30.0
 20
-6.782329983199982
 10
-30.08473284808669
 20
-6.649317625850254
 10
-30.1677857101513
 20
-6.515238880081622
 10
-30.2491429293307
 20
-6.380119121155614
 10
-30.32878885196499
 20
-6.243983721024424
 10
-30.40670894470331
 20
-6.106856894210486
 10
-30.47946645185859
 20
-5.975057882378415
 10
-30.55063085664549
 20
-5.842393191653882
 10
-30.62019228493749
 20
-5.708881031570101
 10
-30.6881409051798
 20
-5.574540180173213
 10
-30.75446696109358
 20
-5.439390420760124
 10
-30.819160704098
 20
-5.303451639424341
 10
-30.88221240010061
 20
-5.166743723348425
 10
-30.94361280215069
 20
-5.029286596330402
 10
-31.0005462395773
 20
-4.897696771381164
 10
-31.05596660879689
 20
-4.765462753537264
 10
-31.1098664814107
 20
-4.632601803804575
 10
-31.16223879174389
 20
-4.499131379538523
 10
-31.2130768192099
 20
-4.365069124897515
 10
-31.2623738569148
 20
-4.230432691451986
 10
-31.31012322830599
 20
-4.095239740485756
 10
-31.3563186944658
 20
-3.959508073383953
 10
-31.4009543451894
 20
-3.823255596763663
 10
-31.4440242782684
 20
-3.686500219801872
 10
-31.48552264912499
 20
-3.549259869896013
 10
-31.52544409769229
 20
-3.411552627626396
 10
-31.5637835063128
 20
-3.273396650213324
 10
-31.60053575913098
 20
-3.134810095446812
 10
-31.63397573766749
 20
-3.002770609597243
 10
-31.6659749577855
 20
-2.870374645452123
 10
-31.69652971102919
 20
-2.737637939535024
 10
-31.72563628894911
 20
-2.604576228371036
 10
-31.753291101633
 20
-2.471205277063122
 10
-31.779491009476
 20
-2.337540959277634
 10
-31.8042329797864
 20
-2.203599174456293
 10
-31.8275139800299
 20
-2.069395822050954
 10
-31.84933113170798
 20
-1.934946811418694
 10
-31.869681998458
 20
-1.800268080347914
 10
-31.8885642227519
 20
-1.665375571696495
 10
-31.9059754486019
 20
-1.530285229123075
 10
-31.921913527745
 20
-1.395013104315556
 10
-31.93637672741389
 20
-1.259575465044034
 10
-31.9493633643068
 20
-1.123988604803543
 10
-31.9608717618537
 20
-0.9882688076650879
 10
-31.97090051898459
 20
-0.8524319720203578
 10
-31.97944860070789
 20
-0.7164934837787282
 10
-31.9865149973396
 20
-0.5804686934207363
 10
-31.9920987188983
 20
-0.4443730618554893
 10
-31.99619912252559
 20
-0.308223995523458
 10
-31.9988158621465
 20
-0.1720405642608911
 10
-31.9999486012438
 20
-0.0358418914709357
 10
-31.999999999996
 20
-0.0000100000000197
  0
LWPOLYLINE
  5
956
330
1E
100
AcDbEntity
  8
SK1
100
AcDbPolyline
 90
       52
 70
     0
 43
0.0
 10
-32.0
 20
0.0000000000000039
 10
-31.9992578432849
 20
0.1361995053828549
 10
-31.9970315974842
 20
0.2723888018238089
 10
-31.993321599115
 20
0.4085487659075622
 10
-31.9881281853144
 20
0.5446602776939761
 10
-31.98145187358779
 20
0.6807052281371993
 10
-31.973293611049
 20
0.8166679159772737
 10
-31.9636544074007
 20
0.9525329907427078
 10
-31.9525352769706
 20
1.088285095487814
 10
-31.9399374889714
 20
1.223908516438414
 10
-31.9258626952198
 20
1.359387004191572
 10
-31.9103125790291
 20
1.494704265250212
 10
-31.8932888375451
 20
1.629844013310831
 10
-31.87479348990621
 20
1.764790129525803
 10
-31.8548288793977
 20
1.899526663623501
 10
-31.833397363568
 20
2.034037672749962
 10
-31.8105013274223
 20
2.168307215816922
 10
-31.78614352888978
 20
2.30231937571826
 10
-31.7603269947449
 20
2.436058252636858
 10
-31.7330547577018
 20
2.569507947137584
 10
-31.70432989242849
 20
2.702652569899663
 10
-31.67415587839037
 20
2.835476329192283
 10
-31.6425364215688
 20
2.967963487893923
 10
-31.60947523043029
 20
3.100098309482193
 10
-31.57312056460531
 20
3.238789671052872
 10
-31.53517746530429
 20
3.37705499502583
 10
-31.4956510470897
 20
3.514876123291711
 10
-31.4545464258396
 20
3.652234898068194
 10
-31.4118688443953
 20
3.789113201713721
 10
-31.36762406974479
 20
3.925493082301421
 10
-31.3218180041166
 20
4.061356630662142
 10
-31.2744565501118
 20
4.196685937746053
 10
-31.2255458078439
 20
4.33146315773382
 10
-31.17509239908709
 20
4.465670611808003
 10
-31.1231030307426
 20
4.599290648403123
 10
-31.06958441122559
 20
4.73230561677354
 10
-31.01454347247719
 20
4.864697987170652
 10
-30.9579876041048
 20
4.996450477586771
 10
-30.8969816462253
 20
5.134083045121236
 10
-30.8343223136682
 20
5.270971154561761
 10
-30.7700186534983
 20
5.407094867089612
 10
-30.70408035932009
 20
5.542434292484873
 10
-30.63651717972149
 20
5.676969544660601
 10
-30.5673388655773
 20
5.810680768069452
 10
-30.4965552263591
 20
5.943548889738271
 10
-30.42417613367748
 20
6.075555666577312
 10
-30.3502114621393
 20
6.206682895508502
 10
-30.2710349181415
 20
6.343090942439092
 10
-30.19014286434098
 20
6.478490210016547
 10
-30.10755089758589
 20
6.612855384989869
 10
-30.0232746747495
 20
6.746161092093632
 10
-30.0000054258606
 20
6.78232158309783
  0
LWPOLYLINE
  5
98C
330
1E
100
AcDbEntity
  8
SK1
100
AcDbPolyline
 90
       52
 70
     0
 43
0.0
 10
-39.0
 20
-6.782329983199982
 10
-38.9152671519155
 20
-6.649317625848462
 10
-38.8322142898545
 20
-6.515238880077232
 10
-38.750857070675
 20
-6.38011912115065
 10
-38.6712111480317
 20
-6.243983721023713
 10
-38.59329105527349
 20
-6.106856894219935
 10
-38.52053354809459
 20
-5.975057882400142
 10
-38.4493691432858
 20
-5.842393191687042
 10
-38.3798077149798
 20
-5.708881031610525
 10
-38.31185909473379
 20
-5.574540180215433
 10
-38.24553303882179
 20
-5.439390420800863
 10
-38.1808392958199
 20
-5.303451639462913
 10
-38.1177875998152
 20
-5.16674372338663
 10
-38.0563871977587
 20
-5.02928659637029
 10
-37.99945376032779
 20
-4.897696771422205
 10
-37.9440333911119
 20
-4.765462753576655
 10
-37.890133518515
 20
-4.632601803837295
 10
-37.8377612082095
 20
-4.499131379560453
 10
-37.78692318077139
 20
-4.365069124908321
 10
-37.73762614308429
 20
-4.230432691455273
 10
-37.6898767716905
 20
-4.095239740488754
 10
-37.64368130550929
 20
-3.959508073393453
 10
-37.5990456547552
 20
-3.823255596782884
 10
-37.55597572164671
 20
-3.686500219830423
 10
-37.5144773507707
 20
-3.549259869930223
 10
-37.4745559021963
 20
-3.411552627662022
 10
-37.4362164935799
 20
-3.273396650246953
 10
-37.39946424077579
 20
-3.134810095475851
 10
-37.3660242622605
 20
-3.002770609620305
 10
-37.334025042168
 20
-2.870374645468523
 10
-37.30347028895
 20
-2.737637939545022
 10
-37.2743637110522
 20
-2.604576228375825
 10
-37.24670889838339
 20
-2.471205277064643
 10
-37.22050899054599
 20
-2.337540959277891
 10
-37.1957670202301
 20
-2.203599174457225
 10
-37.1724860199678
 20
-2.069395822054404
 10
-37.1506688682588
 20
-1.934946811426134
 10
-37.1303180014754
 20
-1.800268080359624
 10
-37.1114357771565
 20
-1.665375571711384
 10
-37.09402455130121
 20
-1.530285229138724
 10
-37.07808647217631
 20
-1.395013104329065
 10
-37.06362327253879
 20
-1.259575465053715
 10
-37.0506366356784
 20
-1.123988604809164
 10
-37.0391282381531
 20
-0.9882688076678062
 10
-37.0290994810286
 20
-0.8524319720218846
 10
-37.0205513993019
 20
-0.7164934837801617
 10
-37.0134850026632
 20
-0.5804686934224815
 10
-37.0079012810997
 20
-0.4443730618572886
 10
-37.00380087747179
 20
-0.3082239955248634
 10
-37.0011841378521
 20
-0.1720405642616735
 10
-37.00005139875611
 20
-0.0358418914710983
 10
-37.000000000004
 20
-0.0000100000000191
  0
LWPOLYLINE
  5
9C2
330
1E
100
AcDbEntity
  8
SK1
100
AcDbPolyline
 90
       52
 70
     0
 43
0.0
 10
-37.0
 20
0.0000000000000045
 10
-37.00074215671778
 20
0.1361995053831875
 10
-37.0029684025228
 20
0.2723888018243896
 10
-37.0066784008921
 20
0.4085487659086147
 10
-37.01187181468299
 20
0.5446602776960267
 10
-37.0185481263876
 20
0.6807052281409347
 10
-37.0267063888975
 20
0.8166679159831764
 10
-37.03634559251639
 20
0.9525329907510084
 10
-37.0474647229232
 20
1.08828509549848
 10
-37.06006251090951
 20
1.223908516451031
 10
-37.07413730465971
 20
1.359387004205123
 10
-37.0896874208616
 20
1.494704265263033
 10
-37.1067111623702
 20
1.629844013320731
 10
-37.12520651004219
 20
1.764790129531183
 10
-37.1451711205818
 20
1.899526663624593
 10
-37.16660263643017
 20
2.034037672748862
 10
-37.18949867257249
 20
2.168307215817454
 10
-37.21385647108168
 20
2.302319375723814
 10
-37.23967300519471
 20
2.436058252648872
 10
-37.2669452422085
 20
2.569507947155484
 10
-37.29567010746549
 20
2.702652569921082
 10
-37.3258441215006
 20
2.835476329214771
 10
-37.35746357832721
 20
2.967963487915983
 10
-37.3905247694735
 20
3.100098309503213
 10
-37.4268794353043
 20
3.238789671073082
 10
-37.46482253460739
 20
3.377054995045912
 10
-37.5043489528209
 20
3.514876123312453
 10
-37.5454535740672
 20
3.652234898090513
 10
-37.58813115550639
 20
3.789113201738383
 10
-37.6323759301533
 20
3.925493082327991
 10
-37.67818199578329
 20
4.061356630688691
 10
-37.7255434497988
 20
4.196685937769141
 10
-37.77445419208778
 20
4.331463157749509
 10
-37.8249076008707
 20
4.465670611814323
 10
-37.8768969692401
 20
4.599290648400542
 10
-37.93041558877428
 20
4.732305616764933
 10
-37.98545652752927
 20
4.864697987160091
 10
-38.0420123959006
 20
4.996450477577153
 10
-38.10301835377529
 20
5.134083045114063
 10
-38.1656776863281
 20
5.270971154556789
 10
-38.2299813464967
 20
5.407094867085723
 10
-38.29591964067567
 20
5.542434292481273
 10
-38.3634828202758
 20
5.676969544656972
 10
-38.43266113442128
 20
5.810680768065911
 10
-38.50344477364009
 20
5.943548889735112
 10
-38.57582386632179
 20
6.075555666574722
 10
-38.64978853785979
 20
6.206682895506552
 10
-38.7289650818575
 20
6.343090942437742
 10
-38.8098571356582
 20
6.478490210015714
 10
-38.8924491024138
 20
6.612855384989491
 10
-38.97672532525049
 20
6.746161092093702
 10
-38.9999945741394
 20
6.78232158309783
  0
LWPOLYLINE
  5
9F8
330
1E
100
AcDbEntity
  8
SK1
100
AcDbPolyline
 90
       14
 70
     0
 43
0.0
 10
-54.8
 20
-6.782329983199979
 10
-54.938214766042
 20
-6.524089762767729
 10
-55.0655047466002
 20
-6.279560136985452
 10
-55.18352128953829
 20
-6.046409335399767
 10
-55.29381399724339
 20
-5.822242597472941
 10
-55.3966081165104
 20
-5.607204325590751
 10
-55.4921401437806
 20
-5.401440708121391
 10
-55.5818203123955
 20
-5.202473974143901
 10
-55.6658177208668
 20
-5.010409473384733
 10
-55.7443079504295
 20
-4.825352309176588
 10
-55.8185521454033
 20
-4.644743733525652
 10
-55.88760535747729
 20
-4.47132554376755
 10
-55.9526798683375
 20
-4.302519610457123
 10
-55.9999965334696
 20
-4.176131983534268
  0
LWPOLYLINE
  5
A08
330
1E
100
AcDbEntity
  8
SK1
100
AcDbPolyline
 90
       14
 70
     0
 43
0.0
 10
-56.0
 20
4.176122603500004
 10
-55.93837994290689
 20
4.340093476838664
 10
-55.8728941366574
 20
4.508741360220762
 10
-55.80234823466409
 20
4.684655421715617
 10
-55.72766203995939
 20
4.865081000201485
 10
-55.64759147996412
 20
5.052586315361097
 10
-55.5619545010265
 20
5.247067153760465
 10
-55.47057691203771
 20
5.448417946752907
 10
-55.3732919951589
 20
5.656532874625556
 10
-55.268685446061
 20
5.873886219589167
 10
-55.15652238812251
 20
6.100332358588197
 10
-55.035263410958
 20
6.338278050163065
 10
-54.90461492438379
 20
6.587532322893824
 10
-54.80000476907878
 20
6.782321193567183
  0
LWPOLYLINE
  5
A40
330
1E
100
AcDbEntity
  8
1
100
AcDbPolyline
 90
       22
 70
     0
 43
0.0
 10
71.77005475909999
 20
8.496682050099977
 10
71.7704450321565
 20
8.497011448291768
 10
71.7709234855197
 20
8.49720477487803
 10
71.7714641041195
 20
8.497299270949261
 10
71.7720408728855
 20
8.497332177595941
 10
71.7729176069398
 20
8.497346530692027
 10
71.77348684154259
 20
8.497366094194468
 10
71.7740433956608
 20
8.497395220306101
 10
71.7748576533335
 20
8.497454034630017
 10
71.7756516146685
 20
8.497527152646947
 10
71.77643022051721
 20
8.497610247050291
 10
71.77770719322549
 20
8.497759154291648
 10
71.77923357934671
 20
8.497930349713158
 10
71.78026305988891
 20
8.498026460303057
 10
71.78130362819679
 20
8.49810725159395
 10
71.78261759444911
 20
8.498189539877621
 10
71.78420984214709
 20
8.498265667361371
 10
71.7863506235238
 20
8.498339125677071
 10
71.79464745534339
 20
8.498554368599807
 10
71.8121237718724
 20
8.49900859416758
 10
71.85115528021061
 20
8.499479521948101
 10
72.0353781823
 20
8.499917391399401
  0
LINE
  5
A58
330
1E
100
AcDbEntity
  8
SK4
100
AcDbLine
 10
-24.0
 20
-3.435444191699953
 30
0.0
 11
-24.0
 21
11.29029027869999
 31
0.0
  0
DIMENSION
  5
A59
330
1E
100
AcDbEntity
  8
SK2
100
AcDbDimension
  2
*D2
 10
81.0
 20
-39.32811679464561
 30
0.0
 11
28.49999999999999
 21
-39.32811679464561
 31
0.0
 70
   160
 71
     5
 42
105.0
  3
ISO-25
100
AcDbAlignedDimension
 13
-24.0
 23
0.0000000000000029
 33
0.0
 14
81.0
 24
-0.0000000000000099
 34
0.0
 50
180.0
100
AcDbRotatedDimension
  0
LINE
  5
A5A
330
1E
100
AcDbEntity
  8
SK4
100
AcDbLine
 10
0.0
 20
0.0
 30
0.0
 11
-59.0
 21
0.0000000000000072
 31
0.0
  0
TEXT
  5
AED
330
1E
100
AcDbEntity
  8
6
100
AcDbText
 10
16.60323219372742
 20
-71.61020609854017
 30
0.0
 40
5.0
  1
15B1G020080W5R00
100
AcDbText
  0
LINE
  5
2652
330
1E
100
AcDbEntity
  8
SK4
100
AcDbLine
 10
76.01572400000002
 20
-0.3755560630828633
 30
0.0
 11
76.01572400000002
 21
10.63861406307851
 31
0.0
  0
LINE
  5
2653
330
1E
100
AcDbEntity
  8
SK4
100
AcDbLine
 10
69.69435649884707
 20
5.000356450699991
 30
0.0
 11
81.70345031282236
 21
5.00035645069999
 31
0.0
  0
TEXT
  5
2EDD
330
1E
100
AcDbEntity
  8
6
100
AcDbText
 10
60.48074633186889
 20
19.96402598424549
 30
0.0
 40
2.5
  1
RHKW1003M0TN
100
AcDbText
  0
TEXT
  5
2EDE
330
1E
100
AcDbEntity
  8
6
100
AcDbText
 10
103.8019215255274
 20
-3.667533039549766
 30
0.0
 40
3.5
  1
Z=2
 50
90.0
100
AcDbText
  0
LINE
  5
311A
330
1E
100
AcDbEntity
  8
NOCUT
100
AcDbLine
 10
0.0
 20
12.5
 30
0.0
 11
0.0
 21
0.0
 31
0.0
  0
LINE
  5
311D
330
1E
100
AcDbEntity
  8
NOCUT
100
AcDbLine
 10
80.00000000000005
 20
0.0
 30
0.0
 11
0.0
 21
0.0
 31
0.0
  0
LINE
  5
3121
330
1E
100
AcDbEntity
  8
NOCUT
100
AcDbLine
 10
73.19331155989998
 20
8.5
 30
0.0
 11
21.70674550360002
 21
8.5
 31
0.0
  0
LINE
  5
3125
330
1E
100
AcDbEntity
  8
NOCUT
100
AcDbLine
 10
7.293254496399981
 20
12.25
 30
0.0
 11
0.1999999999999886
 21
12.25
 31
0.0
  0
LINE
  5
3128
330
1E
100
AcDbEntity
  8
NOCUT
100
AcDbLine
 10
20.32094224709998
 20
8.695882044099986
 30
0.0
 11
8.679057752900007
 21
12.05411795590001
 31
0.0
  0
LINE
  5
312A
330
1E
100
AcDbEntity
  8
NOCUT
100
AcDbLine
 10
80.00000000000005
 20
5.650000000000003
 30
0.0
 11
80.00000000000005
 21
0.0
 31
0.0
  0
ARC
  5
3138
330
1E
100
AcDbEntity
  8
NOCUT
100
AcDbCircle
 10
7.293254496399981
 20
7.25
 30
0.0
 40
5.0
100
AcDbArc
 50
73.90918365110029
 51
90.0
  0
ARC
  5
313A
330
1E
100
AcDbEntity
  8
NOCUT
100
AcDbCircle
 10
21.70674550360002
 20
13.5
 30
0.0
 40
5.0
100
AcDbArc
 50
253.9091836511001
 51
270.0
  0
ARC
  5
313C
330
1E
100
AcDbEntity
  8
NOCUT
100
AcDbCircle
 10
76.00000000000004
 20
5.650000000000003
 30
0.0
 40
4.0
100
AcDbArc
 50
0.0
 51
134.5613120436002
  0
ARC
  5
313E
330
1E
100
AcDbEntity
  8
NOCUT
100
AcDbCircle
 10
0.1999999999999886
 20
12.44999999999998
 30
0.0
 40
0.2
100
AcDbArc
 50
180.0
 51
270.0
  0
SPLINE
  5
315D
330
1E
100
AcDbEntity
  8
CUT
100
AcDbSpline
210
0.0
220
0.0
230
1.0
 70
     8
 71
     3
 72
    36
 73
    32
 74
    30
 42
0.0000000001
 43
0.0000000001
 44
0.0000000001
 12
-0.9999657370739441
 22
0.0082779634067752
 32
0.0
 13
0.9999999735951984
 23
-0.0002298033996267
 33
0.0
 40
0.0
 40
0.0
 40
0.0
 40
0.0
 40
0.5396896869294008
 40
1.0733313277681
 40
1.597940705002181
 40
2.117717130501735
 40
2.639005008059764
 40
3.164180589199992
 40
3.692981226458516
 40
4.224568159993373
 40
4.75820595135755
 40
5.293354380746054
 40
5.829631597440011
 40
6.36676887417381
 40
6.904570398130348
 40
7.442897443161549
 40
7.981640443161531
 40
8.52072200945833
 40
9.060078046986411
 40
9.59966011986874
 40
10.13942898107696
 40
10.67935170203986
 40
11.21940286055359
 40
11.75956002039968
 40
12.29980395855543
 40
12.84011964047201
 40
13.3804912391196
 40
13.92090588650167
 40
14.46135285487594
 40
15.00182039788108
 40
15.54229876020279
 40
15.54229876020279
 40
15.54229876020279
 40
15.54229876020279
 10
76.01572399999998
 20
0.401173
 30
0.0
 10
75.83583360147279
 20
0.4026621771598052
 30
0.0
 10
75.47806362647145
 20
0.400210960022496
 30
0.0
 10
74.94536462559799
 20
0.4123361451285746
 30
0.0
 10
74.42120648995391
 20
0.4702693047553789
 30
0.0
 10
73.91480412319261
 20
0.6054286085277252
 30
0.0
 10
73.43546227855518
 20
0.8169952926330228
 30
0.0
 10
72.98754149469603
 20
1.093858164410808
 30
0.0
 10
72.57526257597979
 20
1.426620171240024
 30
0.0
 10
72.20320470362039
 20
1.807621387667459
 30
0.0
 10
71.87572275113011
 20
2.230165830023437
 30
0.0
 10
71.59669122057902
 20
2.687954638798868
 30
0.0
 10
71.36941113621219
 20
3.174787253705907
 30
0.0
 10
71.19656720534726
 20
3.684421247919563
 30
0.0
 10
71.08019875174176
 20
4.210528701952051
 30
0.0
 10
71.02167945952558
 20
4.746699188602535
 30
0.0
 10
71.02169962368009
 20
5.286477711085812
 30
0.0
 10
71.08026291142952
 20
5.82341323133245
 30
0.0
 10
71.19668516178133
 20
6.351121760039766
 30
0.0
 10
71.36960357778576
 20
6.863348719844333
 30
0.0
 10
71.59698991931996
 20
7.354038498604402
 30
0.0
 10
71.87618155390095
 20
7.817397867022184
 30
0.0
 10
72.2039042437067
 20
8.247964284245712
 30
0.0
 10
72.57631570624572
 20
8.64066666793019
 30
0.0
 10
72.98905271178694
 20
8.990879470686568
 30
0.0
 10
73.43727238954405
 20
9.294485966670031
 30
0.0
 10
73.91572415262388
 20
9.54791208240754
 30
0.0
 10
74.41879075411325
 20
9.748178603930755
 30
0.0
 10
74.9405983202581
 20
9.892936730496163
 30
0.0
 10
75.47494484070239
 20
9.980452260082214
 30
0.0
 10
75.83556455064982
 20
10.00004140125503
 30
0.0
 10
76.01572399999998
 20
10.0
 30
0.0
 11
76.01572399999998
 21
0.401173
 31
0.0
 11
75.47603700000002
 21
0.4028759999999921
 31
0.0
 11
74.942678
 21
0.4202420000000018
 31
0.0
 11
74.42189900000006
 21
0.4835209999999961
 31
0.0
 11
73.91980699999997
 21
0.6179500000000076
 31
0.0
 11
73.44228700000002
 21
0.8270330000000001
 31
0.0
 11
72.99493800000004
 21
1.102147999999999
 31
0.0
 11
72.58300500000001
 21
1.433721999999988
 31
0.0
 11
72.21131800000001
 21
1.813765999999985
 31
0.0
 11
71.88423399999997
 21
2.235411999999996
 31
0.0
 11
71.60558800000003
 21
2.692293000000006
 31
0.0
 11
71.378647
 21
3.178185000000012
 31
0.0
 11
71.20607099999998
 21
3.686844000000006
 31
0.0
 11
71.08988399999998
 21
4.211944999999984
 31
0.0
 11
71.03144800000002
 21
4.747091000000011
 31
0.0
 11
71.03144800000002
 21
5.285833999999994
 31
0.0
 11
71.08988399999998
 21
5.821739000000007
 31
0.0
 11
71.20607099999998
 21
6.348432000000002
 31
0.0
 11
71.378647
 21
6.859671999999986
 31
0.0
 11
71.60558800000003
 21
7.349414999999991
 31
0.0
 11
71.88423399999997
 21
7.811879000000002
 31
0.0
 11
72.21131800000001
 21
8.241613
 31
0.0
 11
72.58300500000001
 21
8.633555000000001
 31
0.0
 11
72.99493800000004
 21
8.983090000000004
 31
0.0
 11
73.44228700000002
 21
9.286108000000011
 31
0.0
 11
73.91980699999997
 21
9.539042999999992
 31
0.0
 11
74.42189900000006
 21
9.738922000000002
 31
0.0
 11
74.942678
 21
9.883394000000008
 31
0.0
 11
75.47603700000002
 21
9.970763000000003
 31
0.0
 11
76.01572399999998
 21
10.0
 31
0.0
  0
SPLINE
  5
315E
330
1E
100
AcDbEntity
  8
CUT
100
AcDbSpline
210
0.0
220
0.0
230
1.0
 70
     8
 71
     3
 72
    36
 73
    32
 74
    30
 42
0.0000000001
 43
0.0000000001
 44
0.0000000001
 12
0.9999657370739441
 22
0.0082779634067752
 32
0.0
 13
-0.9999999735951984
 23
-0.0002298033996267
 33
0.0
 40
0.0
 40
0.0
 40
0.0
 40
0.0
 40
0.5396896869295146
 40
1.073331327768171
 40
1.597940705002309
 40
2.11771713050178
 40
2.639005008059809
 40
3.164180589200098
 40
3.692981226458566
 40
4.224568159993453
 40
4.758205951357604
 40
5.293354380746123
 40
5.829631597440068
 40
6.366768874173867
 40
6.904570398130405
 40
7.442897443161609
 40
7.981640443161592
 40
8.520722009458394
 40
9.060078046986475
 40
9.599660119868804
 40
10.13942898107701
 40
10.67935170203992
 40
11.21940286055363
 40
11.75956002039975
 40
12.29980395855545
 40
12.84011964047209
 40
13.38049123911967
 40
13.92090588650167
 40
14.46135285487599
 40
15.00182039788109
 40
15.54229876020291
 40
15.54229876020291
 40
15.54229876020291
 40
15.54229876020291
 10
76.01572399999998
 20
0.401173
 30
0.0
 10
76.1956143985272
 20
0.4026621771598056
 30
0.0
 10
76.55338437352857
 20
0.4002109600224929
 30
0.0
 10
77.08608337440208
 20
0.4123361451285822
 30
0.0
 10
77.61024151004612
 20
0.4702693047553611
 30
0.0
 10
78.11664387680739
 20
0.605428608527739
 30
0.0
 10
78.59598572144483
 20
0.8169952926330456
 30
0.0
 10
79.04390650530404
 20
1.093858164410759
 30
0.0
 10
79.45618542402019
 20
1.42662017124007
 30
0.0
 10
79.82824329637968
 20
1.807621387667424
 30
0.0
 10
80.15572524886989
 20
2.230165830023465
 30
0.0
 10
80.43475677942099
 20
2.687954638798847
 30
0.0
 10
80.66203686378782
 20
3.174787253705919
 30
0.0
 10
80.83488079465269
 20
3.68442124791956
 30
0.0
 10
80.95124924825823
 20
4.210528701952053
 30
0.0
 10
81.00976854047445
 20
4.746699188602532
 30
0.0
 10
81.00974837631992
 20
5.286477711085817
 30
0.0
 10
80.95118508857046
 20
5.823413231332445
 30
0.0
 10
80.83476283821864
 20
6.351121760039767
 30
0.0
 10
80.66184442221421
 20
6.863348719844323
 30
0.0
 10
80.43445808068009
 20
7.35403849860442
 30
0.0
 10
80.15526644609899
 20
7.817397867022158
 30
0.0
 10
79.82754375629339
 20
8.24796428424575
 30
0.0
 10
79.45513229375425
 20
8.640666667930142
 30
0.0
 10
79.04239528821313
 20
8.990879470686616
 30
0.0
 10
78.59417561045595
 20
9.294485966670009
 30
0.0
 10
78.1157238473761
 20
9.547912082407519
 30
0.0
 10
77.61265724588681
 20
9.748178603930785
 30
0.0
 10
77.09084967974195
 20
9.892936730496145
 30
0.0
 10
76.55650315929765
 20
9.980452260082227
 30
0.0
 10
76.19588344935017
 20
10.00004140125503
 30
0.0
 10
76.01572399999998
 20
10.0
 30
0.0
 11
76.01572399999998
 21
0.401173
 31
0.0
 11
76.55541100000005
 21
0.4028759999999921
 31
0.0
 11
77.08877000000002
 21
0.4202420000000018
 31
0.0
 11
77.60954900000001
 21
0.4835209999999961
 31
0.0
 11
78.11164100000002
 21
0.6179500000000076
 31
0.0
 11
78.58916099999998
 21
0.8270330000000001
 31
0.0
 11
79.03651000000002
 21
1.102147999999999
 31
0.0
 11
79.44844299999998
 21
1.433721999999988
 31
0.0
 11
79.82013000000002
 21
1.813765999999985
 31
0.0
 11
80.14721400000002
 21
2.235411999999996
 31
0.0
 11
80.42586
 21
2.692293000000006
 31
0.0
 11
80.652801
 21
3.178185000000012
 31
0.0
 11
80.82537700000001
 21
3.686844000000006
 31
0.0
 11
80.94156400000001
 21
4.211944999999984
 31
0.0
 11
81.0
 21
4.747091000000011
 31
0.0
 11
81.0
 21
5.285833999999994
 31
0.0
 11
80.94156400000001
 21
5.821739000000007
 31
0.0
 11
80.82537700000001
 21
6.348432000000002
 31
0.0
 11
80.652801
 21
6.859671999999986
 31
0.0
 11
80.42586
 21
7.349414999999991
 31
0.0
 11
80.14721400000002
 21
7.811879000000002
 31
0.0
 11
79.82013000000002
 21
8.241613
 31
0.0
 11
79.44844299999998
 21
8.633555000000001
 31
0.0
 11
79.03651000000002
 21
8.983090000000004
 31
0.0
 11
78.58916099999998
 21
9.286108000000011
 31
0.0
 11
78.11164100000002
 21
9.539042999999992
 31
0.0
 11
77.60954900000001
 21
9.738922000000002
 31
0.0
 11
77.08877000000002
 21
9.883394000000008
 31
0.0
 11
76.55541100000005
 21
9.970763000000003
 31
0.0
 11
76.01572399999998
 21
10.0
 31
0.0
  0
LWPOLYLINE
  5
32C6
330
1E
100
AcDbEntity
  8
1
100
AcDbPolyline
 90
        3
 70
     1
 43
0.0
 10
0.0000000000001279
 20
0.0
 10
-2.950972054112455
 20
0.0
 42
0.4142135623730966
 10
0.0000000000001279
 20
-2.950972054112583
  0
HATCH
  5
32C7
330
1E
100
AcDbEntity
  8
1
100
AcDbHatch
 10
0.0
 20
0.0
 30
0.0
210
0.0
220
0.0
230
1.0
  2
SOLID
 70
     1
 71
     0
 91
        2
 92
        7
 72
     1
 73
     1
 93
        3
 10
0.0000000000001279
 20
0.0
 42
0.0
 10
2.950972054112709
 20
0.0
 42
0.4142135623730966
 10
0.0000000000001279
 20
2.950972054112611
 42
0.0
 97
        0
 92
        7
 72
     1
 73
     1
 93
        3
 10
0.0000000000001279
 20
-2.950972054112496
 42
0.0
 10
0.0000000000001279
 20
0.0
 42
0.0
 10
-2.950972054112455
 20
0.0
 42
0.4142135623730953
 97
        0
 75
     0
 76
     1
 47
0.1190009775223266
 98
        2
 10
0.7445530588120306
 20
0.9212244733764975
 10
-1.279464601852807
 20
-1.696796923046291
  0
CIRCLE
  5
32C8
330
1E
100
AcDbEntity
  8
1
100
AcDbCircle
 10
0.0000000000001279
 20
0.0
 30
0.0
 40
2.950972054112601
  0
LINE
  5
32C9
330
1E
100
AcDbEntity
  8
1
100
AcDbLine
 10
0.0000000000001279
 20
2.950972054112611
 30
0.0
 11
0.0000000000001279
 21
-2.950972054112583
 31
0.0
  0
LINE
  5
32CA
330
1E
100
AcDbEntity
  8
1
100
AcDbLine
 10
-2.950972054112709
 20
0.0
 30
0.0
 11
2.950972054112709
 21
0.0
 31
0.0
  0
LWPOLYLINE
  5
32CB
330
1E
100
AcDbEntity
  8
1
100
AcDbPolyline
 90
        3
 70
     1
 43
0.0
 10
0.0000000000001279
 20
2.950972054112611
 10
0.0000000000001279
 20
0.0
 10
2.950972054112709
 20
0.0
 42
0.4142135623730966
  0
ENDSEC
  0
SECTION
  2
OBJECTS
  0
DICTIONARY
  5
C
330
0
100
AcDbDictionary
281
     1
  3
ACAD_COLOR
350
344B
  3
ACAD_GROUP
350
D
  3
ACAD_LAYOUT
350
19
  3
ACAD_MATERIAL
350
344A
  3
ACAD_MLINESTYLE
350
16
  3
ACAD_PLOTSETTINGS
350
18
  3
ACAD_PLOTSTYLENAME
350
2D2D
  3
ACAD_TABLESTYLE
350
344C
  3
ACDBHEADERROUNDTRIPXREC
350
3454
  3
AcDbVariableDictionary
350
344F
1001
ACAD
1000
TREAT_AS_HARD
1070
     0
1000
TREAT_AS_HARD
1070
     0
  0
DICTIONARY
  5
1FC3
330
1E
100
AcDbDictionary
281
     1
  3
ACAD_LAYOUTSELFREF
350
29CA
1001
ACAD
1000
TREAT_AS_HARD
1070
     0
  0
DICTIONARY
  5
1FC1
330
1A
100
AcDbDictionary
281
     1
  3
ACAD_LAYOUTSELFREF
350
29C9
1001
ACAD
1000
TREAT_AS_HARD
1070
     0
  0
DICTIONARY
  5
344B
102
{ACAD_REACTORS
330
C
102
}
330
C
100
AcDbDictionary
281
     1
  0
DICTIONARY
  5
D
102
{ACAD_REACTORS
330
C
102
}
330
C
100
AcDbDictionary
281
     1
1001
ACAD
1000
TREAT_AS_HARD
1070
     0
1000
TREAT_AS_HARD
1070
     0
  0
DICTIONARY
  5
19
102
{ACAD_REACTORS
330
C
102
}
330
C
100
AcDbDictionary
281
     1
  3
Layout1
350
2D30
  3
Model
350
2D2F
1001
ACAD
1000
TREAT_AS_HARD
1070
     0
1000
TREAT_AS_HARD
1070
     0
  0
DICTIONARY
  5
344A
102
{ACAD_REACTORS
330
C
102
}
330
C
100
AcDbDictionary
281
     1
  0
DICTIONARY
  5
16
102
{ACAD_REACTORS
330
C
102
}
330
C
100
AcDbDictionary
281
     1
  3
STANDARD
350
17
1001
ACAD
1000
TREAT_AS_HARD
1070
     0
1000
TREAT_AS_HARD
1070
     0
  0
DICTIONARY
  5
18
102
{ACAD_REACTORS
330
C
102
}
330
C
100
AcDbDictionary
281
     1
1001
ACAD
1000
TREAT_AS_HARD
1070
     0
1000
TREAT_AS_HARD
1070
     0
  0
ACDBDICTIONARYWDFLT
  5
2D2D
102
{ACAD_REACTORS
330
C
102
}
330
C
100
AcDbDictionary
281
     1
  3
Normal
350
2D2E
100
AcDbDictionaryWithDefault
340
2D2E
  0
DICTIONARY
  5
344C
102
{ACAD_REACTORS
330
C
102
}
330
C
100
AcDbDictionary
281
     1
  3
Standard
350
344D
  0
DICTIONARY
  5
3454
102
{ACAD_REACTORS
330
C
102
}
330
C
100
AcDbDictionary
281
     1
  0
DICTIONARY
  5
344F
102
{ACAD_REACTORS
330
C
102
}
330
C
100
AcDbDictionary
281
     1
  3
CTABLESTYLE
350
3450
  3
DIMASSOC
350
3451
  3
PROJECTNAME
350
3452
  0
XRECORD
  5
29CA
102
{ACAD_REACTORS
330
1FC3
102
}
330
1FC3
100
AcDbXrecord
280
     1
340
1E
  0
XRECORD
  5
29C9
102
{ACAD_REACTORS
330
1FC1
102
}
330
1FC1
100
AcDbXrecord
280
     1
340
1A
  0
LAYOUT
  5
2D30
102
{ACAD_XDICTIONARY
360
3457
102
}
102
{ACAD_REACTORS
330
19
102
}
330
19
100
AcDbPlotSettings
  1

  2
\\ingdom02\ITB2
  4

  6

 40
0.0
 41
0.0
 42
0.0
 43
0.0
 44
0.0
 45
0.0
 46
0.0
 47
0.0
 48
0.0
 49
0.0
140
0.0
141
0.0
142
1.0
143
1.0
 70
   688
 72
     0
 73
     0
 74
     5
  7

 75
    16
147
1.0
148
0.0
149
0.0
100
AcDbLayout
  1
Layout1
 70
     1
 71
     1
 10
0.0
 20
0.0
 11
12.0
 21
9.0
 12
0.0
 22
0.0
 32
0.0
 14
100.0
 24
100.0
 34
100.0
 15
-100.0
 25
-100.0
 35
-100.0
146
0.0
 13
0.0
 23
0.0
 33
0.0
 16
1.0
 26
0.0
 36
0.0
 17
0.0
 27
1.0
 37
0.0
 76
     0
330
1A
  0
LAYOUT
  5
2D2F
102
{ACAD_XDICTIONARY
360
3455
102
}
102
{ACAD_REACTORS
330
19
102
}
330
19
100
AcDbPlotSettings
  1

  2
\\ingdom02\ITB2
  4

  6

 40
0.0
 41
0.0
 42
0.0
 43
0.0
 44
0.0
 45
0.0
 46
0.0
 47
0.0
 48
0.0
 49
0.0
140
0.0
141
0.0
142
1.0
143
1.0
 70
  1712
 72
     0
 73
     0
 74
     0
  7

 75
     0
147
1.0
148
0.0
149
0.0
100
AcDbLayout
  1
Model
 70
     1
 71
     0
 10
0.0
 20
0.0
 11
12.0
 21
9.0
 12
0.0
 22
0.0
 32
0.0
 14
0.0
 24
0.0
 34
0.0
 15
0.0
 25
0.0
 35
0.0
146
0.0
 13
0.0
 23
0.0
 33
0.0
 16
1.0
 26
0.0
 36
0.0
 17
0.0
 27
1.0
 37
0.0
 76
     0
330
1E
  0
MLINESTYLE
  5
17
102
{ACAD_REACTORS
330
16
102
}
330
16
100
AcDbMlineStyle
  2
STANDARD
 70
     0
  3

 62
   256
 51
90.0
 52
90.0
 71
     2
 49
0.5
 62
   256
  6
BYLAYER
 49
-0.5
 62
   256
  6
BYLAYER
  0
ACDBPLACEHOLDER
  5
2D2E
102
{ACAD_REACTORS
330
2D2D
102
}
330
2D2D
  0
TABLESTYLE
  5
344D
102
{ACAD_REACTORS
330
344C
102
}
330
344C
100
AcDbTableStyle
  3
Standard
 70
     0
 71
     0
 40
0.06
 41
0.06
280
     0
281
     0
  7
STANDARD
140
0.18
170
     2
 62
     0
 63
     7
283
     0
274
    -2
284
     1
 64
     0
275
    -2
285
     1
 65
     0
276
    -2
286
     1
 66
     0
277
    -2
287
     1
 67
     0
278
    -2
288
     1
 68
     0
279
    -2
289
     1
 69
     0
  7
STANDARD
140
0.25
170
     5
 62
     0
 63
     7
283
     0
274
    -2
284
     1
 64
     0
275
    -2
285
     1
 65
     0
276
    -2
286
     1
 66
     0
277
    -2
287
     1
 67
     0
278
    -2
288
     1
 68
     0
279
    -2
289
     1
 69
     0
  7
STANDARD
140
0.18
170
     5
 62
     0
 63
     7
283
     0
274
    -2
284
     1
 64
     0
275
    -2
285
     1
 65
     0
276
    -2
286
     1
 66
     0
277
    -2
287
     1
 67
     0
278
    -2
288
     1
 68
     0
279
    -2
289
     1
 69
     0
  0
DICTIONARYVAR
  5
3450
102
{ACAD_REACTORS
330
344F
102
}
330
344F
100
DictionaryVariables
280
     0
  1
STANDARD
  0
DICTIONARYVAR
  5
3451
102
{ACAD_REACTORS
330
344F
102
}
330
344F
100
DictionaryVariables
280
     0
  1
1
  0
DICTIONARYVAR
  5
3452
102
{ACAD_REACTORS
330
344F
102
}
330
344F
100
DictionaryVariables
280
     0
  1

  0
DICTIONARY
  5
3457
330
2D30
100
AcDbDictionary
280
     1
281
     1
  3
ACAD_XREC_ROUNDTRIP
360
3458
  0
DICTIONARY
  5
3455
330
2D2F
100
AcDbDictionary
280
     1
281
     1
  3
ACAD_XREC_ROUNDTRIP
360
3456
  0
XRECORD
  5
3458
102
{ACAD_REACTORS
330
3457
102
}
330
3457
100
AcDbXrecord
280
     1
102
SHADEPLOT
 70
     0
102
SHADEPLOTRESLEVEL
 70
     2
102
SHADEPLOTCUSTOMDPI
 70
   300
  0
XRECORD
  5
3456
102
{ACAD_REACTORS
330
3455
102
}
330
3455
100
AcDbXrecord
280
     1
102
SHADEPLOT
 70
     0
102
SHADEPLOTRESLEVEL
 70
     2
102
SHADEPLOTCUSTOMDPI
 70
   300
  0
ENDSEC
  0
EOF
