  0
SECTION
  2
HEADER
  9
$ACADVER
  1
AC1015
  9
$ACADMAINTVER
 70
    20
  9
$DWGCODEPAGE
  3
ANSI_1252
  9
$INSBASE
 10
0.0
 20
0.0
 30
0.0
  9
$EXTMIN
 10
-60.17227059169909
 20
-66.41947915596097
 30
-0.0015258207003583
  9
$EXTMAX
 10
80.54960001971563
 20
19.58796437164039
 30
0.0000000349246037
  9
$LIMMIN
 10
0.0
 20
0.0
  9
$LIMMAX
 10
594.0
 20
420.0
  9
$ORTHOMODE
 70
     0
  9
$REGENMODE
 70
     1
  9
$FILLMODE
 70
     1
  9
$QTEXTMODE
 70
     0
  9
$MIRRTEXT
 70
     1
  9
$LTSCALE
 40
10.0
  9
$ATTMODE
 70
     1
  9
$TEXTSIZE
 40
0.2
  9
$TRACEWID
 40
0.05
  9
$TEXTSTYLE
  7
STANDARD
  9
$CLAYER
  8
0
  9
$CELTYPE
  6
BYLAYER
  9
$CECOLOR
 62
   256
  9
$CELTSCALE
 40
1.0
  9
$DISPSILH
 70
     0
  9
$DIMSCALE
 40
1.0
  9
$DIMASZ
 40
2.5
  9
$DIMEXO
 40
3.712499999999999
  9
$DIMDLI
 40
22.572
  9
$DIMRND
 40
0.0
  9
$DIMDLE
 40
0.0
  9
$DIMEXE
 40
10.692
  9
$DIMTP
 40
0.01
  9
$DIMTM
 40
0.01
  9
$DIMTXT
 40
3.5
  9
$DIMCEN
 40
5.346
  9
$DIMTSZ
 40
0.0
  9
$DIMTOL
 70
     1
  9
$DIMLIM
 70
     0
  9
$DIMTIH
 70
     1
  9
$DIMTOH
 70
     1
  9
$DIMSE1
 70
     0
  9
$DIMSE2
 70
     0
  9
$DIMTAD
 70
     0
  9
$DIMZIN
 70
     0
  9
$DIMBLK
  1
_FILLED
  9
$DIMASO
 70
     1
  9
$DIMSHO
 70
     1
  9
$DIMPOST
  1

  9
$DIMAPOST
  1

  9
$DIMALT
 70
     0
  9
$DIMALTD
 70
     2
  9
$DIMALTF
 40
25.4
  9
$DIMLFAC
 40
1.0
  9
$DIMTOFL
 70
     0
  9
$DIMTVP
 40
0.0
  9
$DIMTIX
 70
     0
  9
$DIMSOXD
 70
     0
  9
$DIMSAH
 70
     0
  9
$DIMBLK1
  1

  9
$DIMBLK2
  1

  9
$DIMSTYLE
  2
STANDARD
  9
$DIMCLRD
 70
     0
  9
$DIMCLRE
 70
     0
  9
$DIMCLRT
 70
     0
  9
$DIMTFAC
 40
1.0
  9
$DIMGAP
 40
0.09
  9
$DIMJUST
 70
     0
  9
$DIMSD1
 70
     0
  9
$DIMSD2
 70
     0
  9
$DIMTOLJ
 70
     1
  9
$DIMTZIN
 70
     0
  9
$DIMALTZ
 70
     0
  9
$DIMALTTZ
 70
     0
  9
$DIMUPT
 70
     0
  9
$DIMDEC
 70
     4
  9
$DIMTDEC
 70
     4
  9
$DIMALTU
 70
     2
  9
$DIMALTTD
 70
     2
  9
$DIMTXSTY
  7
STANDARD
  9
$DIMAUNIT
 70
     0
  9
$DIMADEC
 70
     0
  9
$DIMALTRND
 40
0.0
  9
$DIMAZIN
 70
     0
  9
$DIMDSEP
 70
    46
  9
$DIMATFIT
 70
     3
  9
$DIMFRAC
 70
     0
  9
$DIMLDRBLK
  1
_FILLED
  9
$DIMLUNIT
 70
     2
  9
$DIMLWD
 70
    -2
  9
$DIMLWE
 70
    -2
  9
$DIMTMOVE
 70
     0
  9
$LUNITS
 70
     2
  9
$LUPREC
 70
     4
  9
$SKETCHINC
 40
0.1
  9
$FILLETRAD
 40
0.0
  9
$AUNITS
 70
     0
  9
$AUPREC
 70
     0
  9
$MENU
  1

  9
$ELEVATION
 40
0.0
  9
$PELEVATION
 40
0.0
  9
$THICKNESS
 40
0.0
  9
$LIMCHECK
 70
     0
  9
$CHAMFERA
 40
0.0
  9
$CHAMFERB
 40
0.0
  9
$CHAMFERC
 40
0.0
  9
$CHAMFERD
 40
0.0
  9
$SKPOLY
 70
     0
  9
$TDCREATE
 40
2453413.529268032
  9
$TDUCREATE
 40
2453413.445934699
  9
$TDUPDATE
 40
2453909.291400139
  9
$TDUUPDATE
 40
2453909.208066806
  9
$TDINDWG
 40
0.0357230671
  9
$TDUSRTIMER
 40
0.0290481713
  9
$USRTIMER
 70
     1
  9
$ANGBASE
 50
0.0
  9
$ANGDIR
 70
     0
  9
$PDMODE
 70
     0
  9
$PDSIZE
 40
0.3125
  9
$PLINEWID
 40
0.0
  9
$SPLFRAME
 70
     0
  9
$SPLINETYPE
 70
     6
  9
$SPLINESEGS
 70
     8
  9
$HANDSEED
  5
3296
  9
$SURFTAB1
 70
     6
  9
$SURFTAB2
 70
     6
  9
$SURFTYPE
 70
     6
  9
$SURFU
 70
     6
  9
$SURFV
 70
     6
  9
$UCSBASE
  2

  9
$UCSNAME
  2

  9
$UCSORG
 10
0.0
 20
0.0
 30
0.0
  9
$UCSXDIR
 10
1.0
 20
0.0
 30
0.0
  9
$UCSYDIR
 10
0.0
 20
1.0
 30
0.0
  9
$UCSORTHOREF
  2

  9
$UCSORTHOVIEW
 70
     0
  9
$UCSORGTOP
 10
0.0
 20
0.0
 30
0.0
  9
$UCSORGBOTTOM
 10
0.0
 20
0.0
 30
0.0
  9
$UCSORGLEFT
 10
0.0
 20
0.0
 30
0.0
  9
$UCSORGRIGHT
 10
0.0
 20
0.0
 30
0.0
  9
$UCSORGFRONT
 10
0.0
 20
0.0
 30
0.0
  9
$UCSORGBACK
 10
0.0
 20
0.0
 30
0.0
  9
$PUCSBASE
  2

  9
$PUCSNAME
  2

  9
$PUCSORG
 10
0.0
 20
0.0
 30
0.0
  9
$PUCSXDIR
 10
1.0
 20
0.0
 30
0.0
  9
$PUCSYDIR
 10
0.0
 20
1.0
 30
0.0
  9
$PUCSORTHOREF
  2

  9
$PUCSORTHOVIEW
 70
     0
  9
$PUCSORGTOP
 10
0.0
 20
0.0
 30
0.0
  9
$PUCSORGBOTTOM
 10
0.0
 20
0.0
 30
0.0
  9
$PUCSORGLEFT
 10
0.0
 20
0.0
 30
0.0
  9
$PUCSORGRIGHT
 10
0.0
 20
0.0
 30
0.0
  9
$PUCSORGFRONT
 10
0.0
 20
0.0
 30
0.0
  9
$PUCSORGBACK
 10
0.0
 20
0.0
 30
0.0
  9
$USERI1
 70
     0
  9
$USERI2
 70
     0
  9
$USERI3
 70
     0
  9
$USERI4
 70
     0
  9
$USERI5
 70
     0
  9
$USERR1
 40
0.0
  9
$USERR2
 40
0.0
  9
$USERR3
 40
0.0
  9
$USERR4
 40
0.0
  9
$USERR5
 40
0.0
  9
$WORLDVIEW
 70
     1
  9
$SHADEDGE
 70
     3
  9
$SHADEDIF
 70
    70
  9
$TILEMODE
 70
     1
  9
$MAXACTVP
 70
    64
  9
$PINSBASE
 10
0.0
 20
0.0
 30
0.0
  9
$PLIMCHECK
 70
     0
  9
$PEXTMIN
 10
100.0
 20
100.0
 30
100.0
  9
$PEXTMAX
 10
-100.0
 20
-100.0
 30
-100.0
  9
$PLIMMIN
 10
0.0
 20
0.0
  9
$PLIMMAX
 10
12.0
 20
9.0
  9
$UNITMODE
 70
     0
  9
$VISRETAIN
 70
     1
  9
$PLINEGEN
 70
     1
  9
$PSLTSCALE
 70
     1
  9
$TREEDEPTH
 70
  3020
  9
$CMLSTYLE
  2
STANDARD
  9
$CMLJUST
 70
     0
  9
$CMLSCALE
 40
1.0
  9
$PROXYGRAPHICS
 70
     1
  9
$MEASUREMENT
 70
     0
  9
$CELWEIGHT
370
    -1
  9
$ENDCAPS
280
     0
  9
$JOINSTYLE
280
     0
  9
$LWDISPLAY
290
     0
  9
$INSUNITS
 70
     0
  9
$HYPERLINKBASE
  1

  9
$STYLESHEET
  1

  9
$XEDIT
290
     1
  9
$CEPSNTYPE
380
     0
  9
$PSTYLEMODE
290
     1
  9
$FINGERPRINTGUID
  2
{6DA03314-FA77-4E27-B935-F66CE652CD07}
  9
$VERSIONGUID
  2
{C0192ADA-642F-48D9-B5A2-FD0A77E5BD32}
  9
$EXTNAMES
290
     1
  9
$PSVPSCALE
 40
0.0
  9
$OLESTARTUP
290
     0
  0
ENDSEC
  0
SECTION
  2
CLASSES
  0
CLASS
  1
ACDBDICTIONARYWDFLT
  2
AcDbDictionaryWithDefault
  3
ObjectDBX Classes
 90
        0
280
     0
281
     0
  0
CLASS
  1
ACDBPLACEHOLDER
  2
AcDbPlaceHolder
  3
ObjectDBX Classes
 90
        0
280
     0
281
     0
  0
CLASS
  1
LAYOUT
  2
AcDbLayout
  3
ObjectDBX Classes
 90
        0
280
     0
281
     0
  0
CLASS
  1
TABLESTYLE
  2
AcDbTableStyle
  3
ObjectDBX Classes
 90
     2047
280
     0
281
     0
  0
CLASS
  1
DICTIONARYVAR
  2
AcDbDictionaryVar
  3
ObjectDBX Classes
 90
        0
280
     0
281
     0
  0
ENDSEC
  0
SECTION
  2
TABLES
  0
TABLE
  2
VPORT
  5
8
330
0
100
AcDbSymbolTable
 70
     2
  0
VPORT
  5
3290
330
8
100
AcDbSymbolTableRecord
100
AcDbViewportTableRecord
  2
*Active
 70
     0
 10
0.0
 20
0.0
 11
1.0
 21
1.0
 12
10.18866471400827
 22
-23.41575739216029
 13
0.0
 23
0.0
 14
1.0
 24
1.0
 15
0.0
 25
0.0
 16
0.0
 26
0.0
 36
1.0
 17
0.0
 27
0.0
 37
0.0
 40
92.28722933957694
 41
1.532401524777636
 42
50.0
 43
0.0
 44
0.0
 50
0.0
 51
0.0
 71
     0
 72
   100
 73
     1
 74
     1
 75
     0
 76
     0
 77
     0
 78
     0
281
     0
 65
     1
110
0.0
120
0.0
130
0.0
111
1.0
121
0.0
131
0.0
112
0.0
122
1.0
132
0.0
 79
     0
146
0.0
  0
ENDTAB
  0
TABLE
  2
LTYPE
  5
5
330
0
100
AcDbSymbolTable
 70
     2
  0
LTYPE
  5
13
330
5
100
AcDbSymbolTableRecord
100
AcDbLinetypeTableRecord
  2
BYBLOCK
 70
     0
  3

 72
    65
 73
     0
 40
0.0
  0
LTYPE
  5
14
330
5
100
AcDbSymbolTableRecord
100
AcDbLinetypeTableRecord
  2
BYLAYER
 70
     0
  3

 72
    65
 73
     0
 40
0.0
  0
LTYPE
  5
15
330
5
100
AcDbSymbolTableRecord
100
AcDbLinetypeTableRecord
  2
CONTINUOUS
 70
     0
  3
Solid line
 72
    65
 73
     0
 40
0.0
  0
LTYPE
  5
41
330
5
100
AcDbSymbolTableRecord
100
AcDbLinetypeTableRecord
  2
CENTER
 70
     0
  3
____ _ ____ _ ____ _ ____ _ ____ _ ____ _ ____
 72
    65
 73
     4
 40
0.6
 49
0.375
 74
     0
 49
-0.075
 74
     0
 49
0.075
 74
     0
 49
-0.075
 74
     0
  0
ENDTAB
  0
TABLE
  2
LAYER
  5
2
330
0
100
AcDbSymbolTable
 70
    11
  0
LAYER
  5
10
330
2
100
AcDbSymbolTableRecord
100
AcDbLayerTableRecord
  2
1
 70
     0
 62
     4
  6
CONTINUOUS
370
    -3
390
2B6F
  0
LAYER
  5
48
330
2
100
AcDbSymbolTableRecord
100
AcDbLayerTableRecord
  2
2
 70
     0
 62
     7
  6
CONTINUOUS
370
    -3
390
2B6F
  0
LAYER
  5
4A
330
2
100
AcDbSymbolTableRecord
100
AcDbLayerTableRecord
  2
4
 70
     0
 62
     2
  6
CENTER
370
    -3
390
2B6F
  0
LAYER
  5
4D
330
2
100
AcDbSymbolTableRecord
100
AcDbLayerTableRecord
  2
0
 70
     0
 62
     7
  6
CONTINUOUS
370
    -3
390
2B6F
  0
LAYER
  5
4E
330
2
100
AcDbSymbolTableRecord
100
AcDbLayerTableRecord
  2
DEFPOINTS
 70
     0
 62
     7
  6
CONTINUOUS
290
     0
370
    -3
390
2B6F
  0
LAYER
  5
EA7
330
2
100
AcDbSymbolTableRecord
100
AcDbLayerTableRecord
  2
SK1
 70
     0
 62
     4
  6
CONTINUOUS
370
    -3
390
2B6F
  0
LAYER
  5
EA8
330
2
100
AcDbSymbolTableRecord
100
AcDbLayerTableRecord
  2
SK4
 70
     0
 62
     2
  6
CENTER
370
    -3
390
2B6F
  0
LAYER
  5
EAA
330
2
100
AcDbSymbolTableRecord
100
AcDbLayerTableRecord
  2
SK2
 70
     0
 62
     7
  6
CONTINUOUS
370
    -3
390
2B6F
  0
LAYER
  5
2BD9
330
2
100
AcDbSymbolTableRecord
100
AcDbLayerTableRecord
  2
6
 70
     0
 62
     5
  6
CONTINUOUS
370
    -3
390
2B6F
  0
LAYER
  5
2BDA
330
2
100
AcDbSymbolTableRecord
100
AcDbLayerTableRecord
  2
CUT
 70
     0
 62
     1
  6
CONTINUOUS
370
    -3
390
2B6F
  0
LAYER
  5
2BDB
330
2
100
AcDbSymbolTableRecord
100
AcDbLayerTableRecord
  2
NOCUT
 70
     0
 62
     7
  6
CONTINUOUS
370
    -3
390
2B6F
  0
ENDTAB
  0
TABLE
  2
STYLE
  5
3
330
0
100
AcDbSymbolTable
 70
     1
  0
STYLE
  5
11
330
3
100
AcDbSymbolTableRecord
100
AcDbTextStyleTableRecord
  2
STANDARD
 70
     0
 40
0.0
 41
0.8
 50
0.0
 71
     0
 42
0.2
  3
isocp.shx
  4

  0
ENDTAB
  0
TABLE
  2
VIEW
  5
6
330
0
100
AcDbSymbolTable
 70
     0
  0
ENDTAB
  0
TABLE
  2
UCS
  5
7
330
0
100
AcDbSymbolTable
 70
     0
  0
ENDTAB
  0
TABLE
  2
APPID
  5
9
330
0
100
AcDbSymbolTable
 70
     1
  0
APPID
  5
12
330
9
100
AcDbSymbolTableRecord
100
AcDbRegAppTableRecord
  2
ACAD
 70
     0
  0
ENDTAB
  0
TABLE
  2
DIMSTYLE
  5
A
330
0
100
AcDbSymbolTable
 70
     2
100
AcDbDimStyleTable
 71
     0
  0
DIMSTYLE
105
47
330
A
100
AcDbSymbolTableRecord
100
AcDbDimStyleTableRecord
  2
STANDARD
 70
     0
340
11
  0
DIMSTYLE
105
EAB
102
{ACAD_REACTORS
330
591
330
A1C
330
58F
330
A17
330
590
102
}
330
A
100
AcDbSymbolTableRecord
100
AcDbDimStyleTableRecord
  2
ISO-25
 70
     0
 41
2.5
 42
0.625
 43
3.75
 44
1.25
 73
     0
 74
     0
 77
     1
 78
     8
140
2.5
141
2.5
143
0.03937007874016
147
0.625
171
     3
172
     1
271
     2
272
     2
274
     3
283
     0
284
     8
340
11
  0
ENDTAB
  0
TABLE
  2
BLOCK_RECORD
  5
1
330
0
100
AcDbSymbolTable
 70
     6
  0
BLOCK_RECORD
  5
1E
102
{ACAD_XDICTIONARY
360
2278
102
}
330
1
100
AcDbSymbolTableRecord
100
AcDbBlockTableRecord
  2
*MODEL_SPACE
340
2B70
  0
BLOCK_RECORD
  5
1A
102
{ACAD_XDICTIONARY
360
2276
102
}
330
1
100
AcDbSymbolTableRecord
100
AcDbBlockTableRecord
  2
*PAPER_SPACE
340
2B71
  0
BLOCK_RECORD
  5
23
330
1
100
AcDbSymbolTableRecord
100
AcDbBlockTableRecord
  2
_FILLED
340
0
  0
BLOCK_RECORD
  5
F99
330
1
100
AcDbSymbolTableRecord
100
AcDbBlockTableRecord
  2
*D1
340
0
  0
BLOCK_RECORD
  5
FAF
330
1
100
AcDbSymbolTableRecord
100
AcDbBlockTableRecord
  2
*D2
340
0
  0
BLOCK_RECORD
  5
FBB
330
1
100
AcDbSymbolTableRecord
100
AcDbBlockTableRecord
  2
*D3
340
0
  0
BLOCK_RECORD
  5
FC7
330
1
100
AcDbSymbolTableRecord
100
AcDbBlockTableRecord
  2
*D4
340
0
  0
BLOCK_RECORD
  5
FD3
330
1
100
AcDbSymbolTableRecord
100
AcDbBlockTableRecord
  2
*D5
340
0
  0
ENDTAB
  0
ENDSEC
  0
SECTION
  2
BLOCKS
  0
BLOCK
  5
51
330
1E
100
AcDbEntity
  8
0
100
AcDbBlockBegin
  2
*MODEL_SPACE
 70
     0
 10
0.0
 20
0.0
 30
0.0
  3
*MODEL_SPACE
  1

  0
ENDBLK
  5
52
330
1E
100
AcDbEntity
  8
0
100
AcDbBlockEnd
  0
BLOCK
  5
4F
330
1A
100
AcDbEntity
 67
     1
  8
0
100
AcDbBlockBegin
  2
*PAPER_SPACE
 70
     0
 10
0.0
 20
0.0
 30
0.0
  3
*PAPER_SPACE
  1

  0
ENDBLK
  5
50
330
1A
100
AcDbEntity
 67
     1
  8
0
100
AcDbBlockEnd
  0
BLOCK
  5
55
330
23
100
AcDbEntity
  8
0
100
AcDbBlockBegin
  2
_FILLED
 70
     0
 10
0.0
 20
0.0
 30
0.0
  3
_FILLED
  1

  0
SOLID
  5
56
330
23
100
AcDbEntity
  8
0
  6
ByBlock
 62
     0
100
AcDbTrace
 10
0.0
 20
0.0
 30
0.0
 11
-1.0
 21
0.132
 31
0.0
 12
-1.0
 22
-0.132
 32
0.0
 13
-1.0
 23
-0.132
 33
0.0
  0
ENDBLK
  5
57
330
23
100
AcDbEntity
  8
0
100
AcDbBlockEnd
  0
BLOCK
  5
FA4
330
F99
100
AcDbEntity
  8
0
100
AcDbBlockBegin
  2
*D1
 70
     1
 10
0.0
 20
0.0
 30
0.0
  3
*D1
  1

  0
LINE
  5
3283
330
F99
100
AcDbEntity
  8
SK2
 62
     0
370
    -2
100
AcDbLine
 10
-49.42499999999999
 20
-9.999999999999994
 30
0.0
 11
-58.25349163531086
 21
-9.999999999999992
 31
0.0
  0
LINE
  5
3284
330
F99
100
AcDbEntity
  8
SK2
 62
     0
370
    -2
100
AcDbLine
 10
-51.70367757030454
 20
10.0
 30
0.0
 11
-58.25349163531086
 21
10.0
 31
0.0
  0
LINE
  5
3285
330
F99
100
AcDbEntity
  8
SK2
 62
     0
370
    -2
100
AcDbLine
 10
-57.00349163531086
 20
-7.499999999999992
 30
0.0
 11
-57.00349163531086
 21
7.500000000000001
 31
0.0
  0
SOLID
  5
3286
330
F99
100
AcDbEntity
  8
SK2
 62
     0
100
AcDbTrace
 10
-57.42015830197753
 20
-7.499999999999992
 30
0.0
 11
-56.5868249686442
 21
-7.499999999999992
 31
0.0
 12
-57.00349163531086
 22
-9.999999999999992
 32
0.0
 13
-57.00349163531086
 23
-9.999999999999992
 33
0.0
  0
SOLID
  5
3287
330
F99
100
AcDbEntity
  8
SK2
 62
     0
100
AcDbTrace
 10
-57.42015830197753
 20
7.500000000000001
 30
0.0
 11
-56.5868249686442
 21
7.500000000000001
 31
0.0
 12
-57.00349163531086
 22
10.0
 32
0.0
 13
-57.00349163531086
 23
10.0
 33
0.0
  0
MTEXT
  5
3288
330
F99
100
AcDbEntity
  8
SK2
 62
     0
100
AcDbMText
 10
-58.87873769830299
 20
-0.0523633669197918
 30
0.0
 40
2.5
 41
0.0
 71
     5
 72
     1
  1
%%c20
 11
0.0000000000000001
 21
1.0
 31
0.0
 73
     1
 44
1.0
1001
ACAD
1000
MTEXTBEGIN
1070
    73
1070
     1
1070
    44
1040
1.0
1070
    74
1070
     0
1000
MTEXTEND
  0
POINT
  5
3289
330
F99
100
AcDbEntity
  8
DEFPOINTS
 62
     0
100
AcDbPoint
 10
-48.79999999999999
 20
-9.999999999999994
 30
0.0
  0
POINT
  5
328A
330
F99
100
AcDbEntity
  8
DEFPOINTS
 62
     0
100
AcDbPoint
 10
-51.07867757030454
 20
10.0
 30
0.0
  0
POINT
  5
328B
330
F99
100
AcDbEntity
  8
DEFPOINTS
 62
     0
100
AcDbPoint
 10
-57.00349163531086
 20
10.0
 30
0.0
  0
ENDBLK
  5
FA5
330
F99
100
AcDbEntity
  8
0
100
AcDbBlockEnd
  0
BLOCK
  5
FB9
330
FAF
100
AcDbEntity
  8
0
100
AcDbBlockBegin
  2
*D2
 70
     1
 10
0.0
 20
0.0
 30
0.0
  3
*D2
  1

  0
LINE
  5
2B7B
330
FAF
100
AcDbEntity
  8
SK2
 62
     0
370
    -2
100
AcDbLine
 10
-25.0
 20
-0.6249999999999969
 30
0.0
 11
-25.0
 21
-38.5958175893994
 31
0.0
  0
LINE
  5
2B7C
330
FAF
100
AcDbEntity
  8
SK2
 62
     0
370
    -2
100
AcDbLine
 10
60.0
 20
-0.6250000000000064
 30
0.0
 11
60.0
 21
-38.5958175893994
 31
0.0
  0
LINE
  5
2B7D
330
FAF
100
AcDbEntity
  8
SK2
 62
     0
370
    -2
100
AcDbLine
 10
-22.5
 20
-37.34581758939941
 30
0.0
 11
57.5
 21
-37.34581758939941
 31
0.0
  0
SOLID
  5
2B7E
330
FAF
100
AcDbEntity
  8
SK2
 62
     0
100
AcDbTrace
 10
-22.5
 20
-36.92915092273274
 30
0.0
 11
-22.5
 21
-37.76248425606607
 31
0.0
 12
-25.0
 22
-37.34581758939941
 32
0.0
 13
-25.0
 23
-37.34581758939941
 33
0.0
  0
SOLID
  5
2B7F
330
FAF
100
AcDbEntity
  8
SK2
 62
     0
100
AcDbTrace
 10
57.5
 20
-36.92915092273274
 30
0.0
 11
57.5
 21
-37.76248425606607
 31
0.0
 12
60.0
 22
-37.34581758939941
 32
0.0
 13
60.0
 23
-37.34581758939941
 33
0.0
  0
MTEXT
  5
2B80
330
FAF
100
AcDbEntity
  8
SK2
 62
     0
100
AcDbMText
 10
17.49999999999999
 20
-35.47081758939941
 30
0.0
 40
2.5
 41
0.0
 71
     5
 72
     1
  1
85
 73
     1
 44
1.0
1001
ACAD
1000
MTEXTBEGIN
1070
    73
1070
     1
1070
    44
1040
1.0
1070
    74
1070
     0
1000
MTEXTEND
  0
POINT
  5
2B81
330
FAF
100
AcDbEntity
  8
DEFPOINTS
 62
     0
100
AcDbPoint
 10
-25.0
 20
0.0000000000000031
 30
0.0
  0
POINT
  5
2B82
330
FAF
100
AcDbEntity
  8
DEFPOINTS
 62
     0
100
AcDbPoint
 10
60.0
 20
-0.0000000000000064
 30
0.0
  0
POINT
  5
2B83
330
FAF
100
AcDbEntity
  8
DEFPOINTS
 62
     0
100
AcDbPoint
 10
60.0
 20
-37.34581758939941
 30
0.0
  0
ENDBLK
  5
FBA
330
FAF
100
AcDbEntity
  8
0
100
AcDbBlockEnd
  0
BLOCK
  5
FC5
330
FBB
100
AcDbEntity
  8
0
100
AcDbBlockBegin
  2
*D3
 70
     1
 10
0.0
 20
0.0
 30
0.0
  3
*D3
  1

  0
LINE
  5
2B72
330
FBB
100
AcDbEntity
  8
SK2
 62
     0
370
    -2
100
AcDbLine
 10
60.0
 20
6.263748731699982
 30
0.0
 11
60.0
 21
-48.73878155716965
 31
0.0
  0
LINE
  5
2B73
330
FBB
100
AcDbEntity
  8
SK2
 62
     0
370
    -2
100
AcDbLine
 10
-50.0
 20
-10.62499999999999
 30
0.0
 11
-50.0
 21
-48.73878155716965
 31
0.0
  0
LINE
  5
2B74
330
FBB
100
AcDbEntity
  8
SK2
 62
     0
370
    -2
100
AcDbLine
 10
57.5
 20
-47.48878155716965
 30
0.0
 11
-47.5
 21
-47.48878155716965
 31
0.0
  0
SOLID
  5
2B75
330
FBB
100
AcDbEntity
  8
SK2
 62
     0
100
AcDbTrace
 10
57.5
 20
-47.07211489050298
 30
0.0
 11
57.5
 21
-47.90544822383631
 31
0.0
 12
60.0
 22
-47.48878155716965
 32
0.0
 13
60.0
 23
-47.48878155716965
 33
0.0
  0
SOLID
  5
2B76
330
FBB
100
AcDbEntity
  8
SK2
 62
     0
100
AcDbTrace
 10
-47.5
 20
-47.07211489050298
 30
0.0
 11
-47.5
 21
-47.90544822383631
 31
0.0
 12
-50.0
 22
-47.48878155716965
 32
0.0
 13
-50.0
 23
-47.48878155716965
 33
0.0
  0
MTEXT
  5
2B77
330
FBB
100
AcDbEntity
  8
SK2
 62
     0
100
AcDbMText
 10
6.195585817199995
 20
-45.61378155716965
 30
0.0
 40
2.5
 41
0.0
 71
     5
 72
     1
  1
110
 73
     1
 44
1.0
1001
ACAD
1000
MTEXTBEGIN
1070
    73
1070
     1
1070
    44
1040
1.0
1070
    74
1070
     0
1000
MTEXTEND
  0
POINT
  5
2B78
330
FBB
100
AcDbEntity
  8
DEFPOINTS
 62
     0
100
AcDbPoint
 10
60.0
 20
6.888748731699982
 30
0.0
  0
POINT
  5
2B79
330
FBB
100
AcDbEntity
  8
DEFPOINTS
 62
     0
100
AcDbPoint
 10
-50.0
 20
-9.999999999999994
 30
0.0
  0
POINT
  5
2B7A
330
FBB
100
AcDbEntity
  8
DEFPOINTS
 62
     0
100
AcDbPoint
 10
-50.0
 20
-47.48878155716965
 30
0.0
  0
ENDBLK
  5
FC6
330
FBB
100
AcDbEntity
  8
0
100
AcDbBlockEnd
  0
BLOCK
  5
FD1
330
FC7
100
AcDbEntity
  8
0
100
AcDbBlockBegin
  2
*D4
 70
     1
 10
0.0
 20
0.0
 30
0.0
  3
*D4
  1

  0
LINE
  5
2B84
330
FC7
100
AcDbEntity
  8
2
 62
     0
370
    -2
100
AcDbLine
 10
0.0000000000000045
 20
9.088939355581327
 30
0.0
 11
0.0000000000000022
 21
-28.02323678016909
 31
0.0
  0
LINE
  5
2B85
330
FC7
100
AcDbEntity
  8
2
 62
     0
370
    -2
100
AcDbLine
 10
60.0
 20
-0.6250000000000073
 30
0.0
 11
60.0
 21
-28.02323678016909
 31
0.0
  0
LINE
  5
2B86
330
FC7
100
AcDbEntity
  8
2
 62
     0
370
    -2
100
AcDbLine
 10
2.500000000000002
 20
-26.7732367801691
 30
0.0
 11
57.5
 21
-26.7732367801691
 31
0.0
  0
SOLID
  5
2B87
330
FC7
100
AcDbEntity
  8
2
 62
     0
100
AcDbTrace
 10
2.500000000000002
 20
-26.35657011350243
 30
0.0
 11
2.500000000000002
 21
-27.18990344683577
 31
0.0
 12
0.0000000000000023
 22
-26.7732367801691
 32
0.0
 13
0.0000000000000023
 23
-26.7732367801691
 33
0.0
  0
SOLID
  5
2B88
330
FC7
100
AcDbEntity
  8
2
 62
     0
100
AcDbTrace
 10
57.5
 20
-26.35657011350243
 30
0.0
 11
57.5
 21
-27.18990344683577
 31
0.0
 12
60.0
 22
-26.7732367801691
 32
0.0
 13
60.0
 23
-26.7732367801691
 33
0.0
  0
MTEXT
  5
2B89
330
FC7
100
AcDbEntity
  8
2
 62
     0
100
AcDbMText
 10
30.0
 20
-24.8982367801691
 30
0.0
 40
2.5
 41
0.0
 71
     5
 72
     1
  1
60
 73
     1
 44
1.0
1001
ACAD
1000
MTEXTBEGIN
1070
    73
1070
     1
1070
    44
1040
1.0
1070
    74
1070
     0
1000
MTEXTEND
  0
POINT
  5
2B8A
330
FC7
100
AcDbEntity
  8
DEFPOINTS
 62
     0
100
AcDbPoint
 10
0.0000000000000045
 20
9.713939355581327
 30
0.0
  0
POINT
  5
2B8B
330
FC7
100
AcDbEntity
  8
DEFPOINTS
 62
     0
100
AcDbPoint
 10
60.0
 20
-0.0000000000000073
 30
0.0
  0
POINT
  5
2B8C
330
FC7
100
AcDbEntity
  8
DEFPOINTS
 62
     0
100
AcDbPoint
 10
60.0
 20
-26.7732367801691
 30
0.0
  0
ENDBLK
  5
FD2
330
FC7
100
AcDbEntity
  8
0
100
AcDbBlockEnd
  0
BLOCK
  5
FDD
330
FD3
100
AcDbEntity
  8
0
100
AcDbBlockBegin
  2
*D5
 70
     1
 10
0.0
 20
0.0
 30
0.0
  3
*D5
  1

  0
LINE
  5
2B8D
330
FD3
100
AcDbEntity
  8
2
 62
     0
370
    -2
100
AcDbLine
 10
60.625
 20
9.999999999999991
 30
0.0
 11
76.16664023406656
 21
9.999999999999987
 31
0.0
  0
LINE
  5
2B8E
330
FD3
100
AcDbEntity
  8
2
 62
     0
370
    -2
100
AcDbLine
 10
60.625
 20
-10.0
 30
0.0
 11
76.16664023406656
 21
-10.0
 31
0.0
  0
LINE
  5
2B8F
330
FD3
100
AcDbEntity
  8
2
 62
     0
370
    -2
100
AcDbLine
 10
74.91664023406656
 20
7.499999999999986
 30
0.0
 11
74.91664023406656
 21
-7.500000000000011
 31
0.0
  0
SOLID
  5
2B90
330
FD3
100
AcDbEntity
  8
2
 62
     0
100
AcDbTrace
 10
74.49997356739989
 20
7.499999999999986
 30
0.0
 11
75.33330690073324
 21
7.499999999999986
 31
0.0
 12
74.91664023406656
 22
9.999999999999987
 32
0.0
 13
74.91664023406656
 23
9.999999999999987
 33
0.0
  0
SOLID
  5
2B91
330
FD3
100
AcDbEntity
  8
2
 62
     0
100
AcDbTrace
 10
74.49997356739989
 20
-7.500000000000011
 30
0.0
 11
75.33330690073324
 21
-7.500000000000011
 31
0.0
 12
74.91664023406656
 22
-10.0
 32
0.0
 13
74.91664023406656
 23
-10.0
 33
0.0
  0
MTEXT
  5
2B92
330
FD3
100
AcDbEntity
  8
2
 62
     0
100
AcDbMText
 10
73.04164023406656
 20
0.4095101387999791
 30
0.0
 40
2.5
 41
0.0
 71
     5
 72
     1
  1
%%c20
 11
0.0000000000000001
 21
1.0
 31
0.0
 73
     1
 44
1.0
1001
ACAD
1000
MTEXTBEGIN
1070
    73
1070
     1
1070
    44
1040
1.0
1070
    74
1070
     0
1000
MTEXTEND
  0
POINT
  5
2B93
330
FD3
100
AcDbEntity
  8
DEFPOINTS
 62
     0
100
AcDbPoint
 10
60.0
 20
9.999999999999991
 30
0.0
  0
POINT
  5
2B94
330
FD3
100
AcDbEntity
  8
DEFPOINTS
 62
     0
100
AcDbPoint
 10
60.0
 20
-10.0
 30
0.0
  0
POINT
  5
2B95
330
FD3
100
AcDbEntity
  8
DEFPOINTS
 62
     0
100
AcDbPoint
 10
74.91664023406656
 20
-10.0
 30
0.0
  0
ENDBLK
  5
FDE
330
FD3
100
AcDbEntity
  8
0
100
AcDbBlockEnd
  0
ENDSEC
  0
SECTION
  2
ENTITIES
  0
DIMENSION
  5
58F
330
1E
100
AcDbEntity
  8
SK2
100
AcDbDimension
  2
*D3
 10
-50.0
 20
-47.48878155716965
 30
0.0
 11
6.195585817199995
 21
-47.48878155716965
 31
0.0
 70
   160
 71
     5
 42
110.0
  3
ISO-25
100
AcDbAlignedDimension
 13
60.0
 23
6.888748731699982
 33
0.0
 14
-50.0
 24
-9.999999999999994
 34
0.0
 50
180.0
100
AcDbRotatedDimension
  0
DIMENSION
  5
590
330
1E
100
AcDbEntity
  8
2
100
AcDbDimension
  2
*D5
 10
74.91664023406656
 20
-10.0
 30
0.0
 11
74.91664023406656
 21
0.4095101387999788
 31
0.0
 70
   160
  1
%%c<>
 71
     5
 42
20.0
  3
ISO-25
100
AcDbAlignedDimension
 13
60.0
 23
9.999999999999991
 33
0.0
 14
60.0
 24
-10.0
 34
0.0
 50
270.0
100
AcDbRotatedDimension
  0
DIMENSION
  5
591
330
1E
100
AcDbEntity
  8
SK2
100
AcDbDimension
  2
*D1
 10
-57.00349163531086
 20
10.0
 30
0.0
 11
-57.00349163531086
 21
-0.0523633669197921
 31
0.0
 70
   160
  1
%%c<>
 71
     5
 42
19.99999999999999
  3
ISO-25
100
AcDbAlignedDimension
 13
-48.79999999999999
 23
-9.999999999999994
 33
0.0
 14
-51.07867757030454
 24
10.0
 34
0.0
 50
89.99999999999998
100
AcDbRotatedDimension
  0
LINE
  5
592
330
1E
100
AcDbEntity
  8
1
100
AcDbLine
 10
59.0
 20
-4.540475997299987
 30
0.0
 11
59.0
 21
-3.103420435600015
 31
0.0
  0
LINE
  5
594
330
1E
100
AcDbEntity
  8
1
100
AcDbLine
 10
52.03394201
 20
-7.806626818399997
 30
0.0
 11
52.03394201
 21
1.500356450699993
 31
0.0
  0
LINE
  5
596
330
1E
100
AcDbEntity
  8
SK1
100
AcDbLine
 10
-0.7002075382000033
 20
10.0
 30
0.0
 11
-48.79999999999999
 21
10.0
 31
0.0
  0
LINE
  5
597
330
1E
100
AcDbEntity
  8
1
100
AcDbLine
 10
50.7700547592
 20
8.499999999999991
 30
0.0
 11
1.24616288960001
 21
8.5
 31
0.0
  0
LINE
  5
598
330
1E
100
AcDbEntity
  8
1
100
AcDbLine
 10
51.45640739
 20
8.49991739149998
 30
0.0
 11
51.03538818229999
 21
8.49991739149998
 31
0.0
  0
LINE
  5
599
330
1E
100
AcDbEntity
  8
1
100
AcDbLine
 10
50.7700547592
 20
8.496682050099979
 30
0.0
 11
41.0030724519
 21
8.49668205009998
 31
0.0
  0
LINE
  5
59A
330
1E
100
AcDbEntity
  8
SK1
100
AcDbLine
 10
-19.5
 20
5.723635208499992
 30
0.0
 11
-30.5
 21
5.723635208499992
 31
0.0
  0
LINE
  5
59C
330
1E
100
AcDbEntity
  8
1
100
AcDbLine
 10
54.015724
 20
1.500356450699993
 30
0.0
 11
50.015724
 21
1.500356450699993
 31
0.0
  0
LINE
  5
59D
330
1E
100
AcDbEntity
  8
4
100
AcDbLine
 10
61.77876707864196
 20
-0.0000000000000093
 30
0.0
 11
0.0473788642318311
 21
0.0
 31
0.0
  0
LINE
  5
59E
330
1E
100
AcDbEntity
  8
1
100
AcDbLine
 10
1.246162889600008
 20
-8.5
 30
0.0
 11
1.24616288960001
 21
8.5
 31
0.0
  0
LINE
  5
59F
330
1E
100
AcDbEntity
  8
1
100
AcDbLine
 10
0.3064702688999989
 20
-9.157979856599981
 30
0.0
 11
0.2394850825999969
 21
-9.3420201433
 31
0.0
  0
LINE
  5
5A0
330
1E
100
AcDbEntity
  8
1
100
AcDbLine
 10
0.3064702689000011
 20
9.157979856699999
 30
0.0
 11
0.2394850825999991
 21
9.342020143400015
 31
0.0
  0
LINE
  5
5A3
330
1E
100
AcDbEntity
  8
SK1
100
AcDbLine
 10
-0.7002075382000033
 20
10.0
 30
0.0
 11
-0.7002075382000055
 21
-10.0
 31
0.0
  0
LINE
  5
5A4
330
1E
100
AcDbEntity
  8
SK1
100
AcDbLine
 10
-19.5
 20
-5.723635208500002
 30
0.0
 11
-30.5
 21
-5.723635208500002
 31
0.0
  0
LINE
  5
5A5
330
1E
100
AcDbEntity
  8
1
100
AcDbLine
 10
52.03394201
 20
-7.806626818399997
 30
0.0
 11
51.7576806266
 21
-7.806626818399997
 31
0.0
  0
LINE
  5
5A6
330
1E
100
AcDbEntity
  8
1
100
AcDbLine
 10
51.586805183
 20
-8.500000000000008
 30
0.0
 11
1.246162889600008
 21
-8.5
 31
0.0
  0
LINE
  5
5A7
330
1E
100
AcDbEntity
  8
SK1
100
AcDbLine
 10
-0.7002075382000055
 20
-10.0
 30
0.0
 11
-48.79999999999999
 21
-9.999999999999994
 31
0.0
  0
LINE
  5
5A8
330
1E
100
AcDbEntity
  8
SK1
100
AcDbLine
 10
-19.5
 20
5.723635208499992
 30
0.0
 11
-19.5
 21
-5.723635208500002
 31
0.0
  0
LINE
  5
5A9
330
1E
100
AcDbEntity
  8
SK1
100
AcDbLine
 10
-30.5
 20
5.723635208499992
 30
0.0
 11
-30.5
 21
-5.723635208500002
 31
0.0
  0
LINE
  5
5AA
330
1E
100
AcDbEntity
  8
SK1
100
AcDbLine
 10
-48.79999999999999
 20
10.0
 30
0.0
 11
-50.0
 21
8.800000000000011
 31
0.0
  0
LINE
  5
5AB
330
1E
100
AcDbEntity
  8
SK1
100
AcDbLine
 10
-48.79999999999999
 20
-9.999999999999994
 30
0.0
 11
-50.0
 21
-8.799999999999975
 31
0.0
  0
LINE
  5
5AC
330
1E
100
AcDbEntity
  8
SK1
100
AcDbLine
 10
-48.79999999999999
 20
10.0
 30
0.0
 11
-48.79999999999999
 21
-9.999999999999994
 31
0.0
  0
LINE
  5
5AD
330
1E
100
AcDbEntity
  8
SK1
100
AcDbLine
 10
-50.0
 20
8.799999365200022
 30
0.0
 11
-50.0
 21
-8.799999365100001
 31
0.0
  0
ARC
  5
5AF
330
1E
100
AcDbEntity
  8
1
100
AcDbCircle
 10
55.015724
 20
5.000356450699992
 30
0.0
 40
4.991597085
100
AcDbArc
 50
294.3816654871
 51
224.5220075037999
  0
CIRCLE
  5
5B2
330
1E
100
AcDbEntity
  8
1
100
AcDbCircle
 10
55.015724
 20
5.000356450699992
 30
0.0
 40
3.0699873031
  0
ARC
  5
5B3
330
1E
100
AcDbEntity
  8
1
100
AcDbCircle
 10
55.015724
 20
-5.000356450700007
 30
0.0
 40
4.991597085
100
AcDbArc
 50
224.5163043040999
 51
43.82077974130003
  0
ARC
  5
5B5
330
1E
100
AcDbEntity
  8
1
100
AcDbCircle
 10
50.015724
 20
11.50035645069998
 30
0.0
 40
10.0
100
AcDbArc
 50
197.6523644442998
 51
270.0
  0
CIRCLE
  5
5B6
330
1E
100
AcDbEntity
  8
1
100
AcDbCircle
 10
54.8743026438
 20
-4.858935094400012
 30
0.0
 40
2.25
  0
ARC
  5
5B7
330
1E
100
AcDbEntity
  8
1
100
AcDbCircle
 10
54.015724
 20
-3.499643549300003
 30
0.0
 40
5.0
100
AcDbArc
 50
4.545147958799891
 51
90.0
  0
ARC
  5
5B8
330
1E
100
AcDbEntity
  8
1
100
AcDbCircle
 10
55.015724
 20
-5.000356450700007
 30
0.0
 40
4.5
100
AcDbArc
 50
219.9479444775999
 51
227.5818836798999
  0
ARC
  5
5B9
330
1E
100
AcDbEntity
  8
1
100
AcDbCircle
 10
-0.7002075382000033
 20
9.0
 30
0.0
 40
1.0
100
AcDbArc
 50
19.9999999999
 51
45.55634280811402
  0
ARC
  5
5BA
330
1E
100
AcDbEntity
  8
1
100
AcDbCircle
 10
54.015724
 20
3.499643549299991
 30
0.0
 40
5.0
100
AcDbArc
 50
315.5711444925998
 51
336.9806445573999
  0
ARC
  5
5BB
330
1E
100
AcDbEntity
  8
SK1
100
AcDbCircle
 10
-0.7002075382000054
 20
-9.0
 30
0.0
 40
1.0
100
AcDbArc
 50
270.0
 51
314.4436571918858
  0
ARC
  5
5BC
330
1E
100
AcDbEntity
  8
1
100
AcDbCircle
 10
1.24616288960001
 20
9.5
 30
0.0
 40
1.0
100
AcDbArc
 50
200.0000000002
 51
270.0
  0
ARC
  5
5BD
330
1E
100
AcDbEntity
  8
1
100
AcDbCircle
 10
1.246162889600008
 20
-9.5
 30
0.0
 40
1.0
100
AcDbArc
 50
90.0
 51
159.9999999997999
  0
ARC
  5
5BE
330
1E
100
AcDbEntity
  8
1
100
AcDbCircle
 10
55.015724
 20
5.000356450699992
 30
0.0
 40
5.5
100
AcDbArc
 50
140.5284077758999
 51
219.3849043311999
  0
LWPOLYLINE
  5
72C
330
1E
100
AcDbEntity
  8
1
100
AcDbPolyline
 90
      162
 70
     0
 43
0.0
 10
52.30358364549999
 20
-7.920329839099996
 10
52.3522743287486
 20
-7.967796160262012
 10
52.4017672754593
 20
-8.014436605426011
 10
52.4520481139645
 20
-8.060232524064533
 10
52.50310247259619
 20
-8.105165265650102
 10
52.5549162398192
 20
-8.149216859763676
 10
52.60747633366321
 20
-8.192372027751883
 10
52.660769926837
 20
-8.234616156811226
 10
52.71478419201489
 20
-8.275934634140096
 10
52.76950583504478
 20
-8.316312873350284
 10
52.81696180987569
 20
-8.350163452654076
 10
52.8649168899291
 20
-8.383303481942725
 10
52.9133614452321
 20
-8.415723846805786
 10
52.96228581304689
 20
-8.447415470676336
 10
53.011679901422
 20
-8.478369772732126
 10
53.0615333166748
 20
-8.508578520652294
 10
53.1118356588514
 20
-8.538033489359566
 10
53.1625765279103
 20
-8.566726453855796
 10
53.21374533816438
 20
-8.594649357479237
 10
53.26533092625011
 20
-8.621794667382026
 10
53.3173220167653
 20
-8.648154952308956
 10
53.3697073343073
 20
-8.673722781004824
 10
53.4224755819655
 20
-8.698490749649776
 10
53.47561508630299
 20
-8.722451934710827
 10
53.52911385323221
 20
-8.745599821668422
 10
53.58295987842289
 20
-8.767927909068337
 10
53.6371411575197
 20
-8.789429695495218
 10
53.69164555897178
 20
-8.810098876902085
 10
53.7464605282124
 20
-8.829929805633197
 10
53.8015734228471
 20
-8.848916970313956
 10
53.8569716004816
 20
-8.867054859569817
 10
53.9126424013663
 20
-8.884337996638857
 10
53.96857288627909
 20
-8.900761462128247
 10
54.02474989026799
 20
-8.916320786831452
 10
54.0811602419282
 20
-8.931011514411087
 10
54.12833761748711
 20
-8.942587060675126
 10
54.1756602381446
 20
-8.953553829257137
 10
54.22312029157859
 20
-8.963909753793107
 10
54.27070991833121
 20
-8.973652895083686
 10
54.31842125893539
 20
-8.982781313953445
 10
54.3662464539242
 20
-8.991293071226966
 10
54.41417763778179
 20
-8.999186251028506
 10
54.46220685296871
 20
-9.006459291951237
 10
54.51032607032178
 20
-9.013110908475168
 10
54.55852725879021
 20
-9.019139822353466
 10
54.6068023873227
 20
-9.024544755339366
 10
54.6551434245788
 20
-9.029324431182846
 10
54.7035423076395
 20
-9.033477791365076
 10
54.75199091403609
 20
-9.037004187960764
 10
54.8004811147004
 20
-9.039903018550372
 10
54.84900478056371
 20
-9.042173680714347
 10
54.89755378255779
 20
-9.043815572033127
 10
54.94611998784121
 20
-9.044828182229872
 10
54.9946952450768
 20
-9.045211452740716
 10
55.0432713972686
 20
-9.044965463201252
 10
55.0918402874192
 20
-9.044090293282263
 10
55.1403937585315
 20
-9.042586022654523
 10
55.18892365522161
 20
-9.040452756182542
 10
55.23742184575429
 20
-9.037690967926792
 10
55.2858802163476
 20
-9.034301412229712
 10
55.3342906536666
 20
-9.030284850420443
 10
55.38264504437671
 20
-9.025642043828137
 10
55.430935275552
 20
-9.020373756118855
 10
55.4791532732819
 20
-9.014480974044987
 10
55.52729103437839
 20
-9.007965088744267
 10
55.575340563116
 20
-9.000827534023532
 10
55.6232938637689
 20
-8.993069743689666
 10
55.67114294061171
 20
-8.984693151549523
 10
55.71887982331301
 20
-8.975699282382107
 10
55.766496663245
 20
-8.966090096953022
 10
55.81398564819568
 20
-8.955867686483497
 10
55.8613389659596
 20
-8.945034142218542
 10
55.90854880433159
 20
-8.933591555403202
 10
55.96500023931678
 20
-8.919059511855477
 10
56.0212206116621
 20
-8.903657800343177
 10
56.0771968642625
 20
-8.887391120176149
 10
56.1329159429338
 20
-8.870264177833155
 10
56.18836479414428
 20
-8.852281681035716
 10
56.24353051657129
 20
-8.833448627493011
 10
56.2984005555959
 20
-8.813770675452994
 10
56.35296240463199
 20
-8.793253574675256
 10
56.40720355709341
 20
-8.771903074919416
 10
56.46111154565859
 20
-8.749724983334637
 10
56.5146742985911
 20
-8.726725685259861
 10
56.56787997315777
 20
-8.702911900746935
 10
56.62071672941999
 20
-8.678290353932547
 10
56.6731727285008
 20
-8.652867770216419
 10
56.72523634735838
 20
-8.626651131878205
 10
56.7768964400975
 20
-8.599647989080057
 10
56.8281419247054
 20
-8.571865968015137
 10
56.8789617191695
 20
-8.543312694876604
 10
56.929344785154
 20
-8.513995837203667
 10
56.9792805798364
 20
-8.483923531606972
 10
57.02875887436789
 20
-8.453104211916237
 10
57.07776944488188
 20
-8.421546316677426
 10
57.1263020677564
 20
-8.389258284623045
 10
57.1743467360283
 20
-8.356248719691226
 10
57.221894057085
 20
-8.322526694270967
 10
57.27672495357549
 20
-8.282296073916141
 10
57.33085152465779
 20
-8.241122714005076
 10
57.3842592089581
 20
-8.199021262156467
 10
57.436934495478
 20
-8.156007001085887
 10
57.48886424917929
 20
-8.112095440829037
 10
57.5400353355009
 20
-8.067302091709825
 10
57.5904348357424
 20
-8.021642562657717
 10
57.6400509632381
 20
-7.975132979716477
 10
57.6888723011447
 20
-7.927789637864988
 10
57.7368874328265
 20
-7.879628832177074
 10
57.78408516307109
 20
-7.830666932382307
 10
57.8304554762267
 20
-7.780920705914804
 10
57.8759887478623
 20
-7.730407052113925
 10
57.920675353803
 20
-7.679142870405406
 10
57.9645058645301
 20
-7.627145100586052
 10
58.0074720617619
 20
-7.574430933659195
 10
58.04956619234729
 20
-7.521017657094775
 10
58.0907805040969
 20
-7.466922558562155
 10
58.1311073825891
 20
-7.412162939905128
 10
58.1705403860251
 20
-7.356756223614418
 10
58.2090736653427
 20
-7.300719893165275
 10
58.2467013760579
 20
-7.244071432504034
 10
58.28341774345759
 20
-7.186828324270178
 10
58.3192180423655
 20
-7.129008031444548
 10
58.3540983583964
 20
-7.070628001821277
 10
58.38805479818728
 20
-7.011705682800744
 10
58.421083485822
 20
-6.952258519648187
 10
58.45318132583599
 20
-6.892303862117262
 10
58.48434630004089
 20
-6.831858928124844
 10
58.51457646899969
 20
-6.770940925950152
 10
58.5438698934297
 20
-6.709567063834657
 10
58.5722250424526
 20
-6.647754449868327
 10
58.5996416803899
 20
-6.585519874524336
 10
58.6261198277223
 20
-6.522880065458905
 10
58.6516595049306
 20
-6.459851750328215
 10
58.67626084232661
 20
-6.396451616907865
 10
58.6999251102036
 20
-6.332695939036737
 10
58.72265425418039
 20
-6.268600745337185
 10
58.74445022871359
 20
-6.204182061222617
 10
58.7653149915279
 20
-6.139455910537787
 10
58.7852510608981
 20
-6.074438048075407
 10
58.80426214630229
 20
-6.009143656876137
 10
58.8223521095665
 20
-5.943587846856912
 10
58.8395248125165
 20
-5.877785727934692
 10
58.8557841855886
 20
-5.811752366769668
 10
58.8711351741802
 20
-5.745502190117516
 10
58.88558349909239
 20
-5.679049135863704
 10
58.89913490073379
 20
-5.612407129531765
 10
58.91179511951321
 20
-5.545590096645262
 10
58.92357007705629
 20
-5.478611837914915
 10
58.9344668785215
 20
-5.411485338896967
 10
58.9444931041687
 20
-5.344223257922997
 10
58.9536563355387
 20
-5.276838252442315
 10
58.9619641541722
 20
-5.209342979904254
 10
58.9694244133049
 20
-5.141749773571635
 10
58.976046147028
 20
-5.074069557709765
 10
58.98183871016621
 20
-5.006312873884445
 10
58.98681145755048
 20
-4.938490263653987
 10
58.99097374406071
 20
-4.870612268579495
 10
58.99433525842201
 20
-4.802689449355097
 10
58.99721034518488
 20
-4.725022114716964
 10
58.9990701650031
 20
-4.647325993750506
 10
58.9999312256195
 20
-4.569616967740405
 10
58.99999999999189
 20
-4.540485997300057
  0
LWPOLYLINE
  5
7D0
330
1E
100
AcDbEntity
  8
1
100
AcDbPolyline
 90
      123
 70
     0
 43
0.0
 10
51.56589743619999
 20
-7.889767580899982
 10
51.56512218792499
 20
-7.888820584204186
 10
51.5645172590753
 20
-7.888049055075312
 10
51.56392730218559
 20
-7.887265055243716
 10
51.5633536084845
 20
-7.886468504489193
 10
51.5627974692004
 20
-7.885659322591571
 10
51.5622601755618
 20
-7.884837429330666
 10
51.56187034954229
 20
-7.884212619295362
 10
51.5614923952515
 20
-7.883580580151482
 10
51.5611268574263
 20
-7.882941278056113
 10
51.56077428080378
 20
-7.882294679166378
 10
51.560435210121
 20
-7.881640749639365
 10
51.5601101901149
 20
-7.880979455632213
 10
51.55979976552259
 20
-7.880310763302014
 10
51.55950448147478
 20
-7.879634641074482
 10
51.5592249131577
 20
-7.878951230494344
 10
51.5589616864683
 20
-7.878260965204335
 10
51.5587154321868
 20
-7.877564306972476
 10
51.5584867810931
 20
-7.876861717566792
 10
51.5582763639672
 20
-7.876153658755292
 10
51.55808481158899
 20
-7.875440592305996
 10
51.55791275473859
 20
-7.874722979986915
 10
51.5577608241959
 20
-7.874001283566066
 10
51.55762965074099
 20
-7.873275964811472
 10
51.5575198651538
 20
-7.872547485491135
 10
51.5574588684074
 20
-7.872060304774642
 10
51.55740784462439
 20
-7.871572061412664
 10
51.5573669807026
 20
-7.871082892225324
 10
51.55733646353979
 20
-7.870592934032795
 10
51.5573164747315
 20
-7.870102325177755
 10
51.5573070650048
 20
-7.869611241582012
 10
51.5573081490625
 20
-7.869119898226882
 10
51.55731963527389
 20
-7.868628511912362
 10
51.55734143200828
 20
-7.868137299438489
 10
51.557373447635
 20
-7.867646477605296
 10
51.5574155905233
 20
-7.867156263212785
 10
51.5574677690424
 20
-7.866666873060996
 10
51.5575298915616
 20
-7.866178523949945
 10
51.55760186645022
 20
-7.865691432679656
 10
51.5577281015335
 20
-7.864963628475716
 10
51.557875989025
 20
-7.864239873913642
 10
51.55804521967109
 20
-7.863520900693502
 10
51.5582354842181
 20
-7.862807440515382
 10
51.55844647341218
 20
-7.862100225079375
 10
51.5586778779998
 20
-7.861399986085545
 10
51.5589293483906
 20
-7.860707389728462
 10
51.5592002769928
 20
-7.860022683213806
 10
51.55948995459739
 20
-7.859345948723643
 10
51.55979767175029
 20
-7.858677268041786
 10
51.5601227189971
 20
-7.858016722951973
 10
51.5604643868839
 20
-7.857364395238006
 10
51.5608219659564
 20
-7.856720366683644
 10
51.5611947467603
 20
-7.856084719072673
 10
51.5615820198417
 20
-7.855457534188861
 10
51.5619830757461
 20
-7.854838893816002
 10
51.5623972050195
 20
-7.854228879737854
 10
51.5628236982078
 20
-7.853627573738192
 10
51.5632618458566
 20
-7.853035057600802
 10
51.563862978324
 20
-7.852258828541306
 10
51.5644824068172
 20
-7.851498214659464
 10
51.5651192702086
 20
-7.850752856643634
 10
51.5657727150352
 20
-7.850022390015076
 10
51.5664418878339
 20
-7.849306450295054
 10
51.5671259351417
 20
-7.848604673004832
 10
51.5678240034955
 20
-7.847916693665665
 10
51.5685352394323
 20
-7.847242147798803
 10
51.5694415010693
 20
-7.846417301025095
 10
51.57036533659891
 20
-7.845612162681304
 10
51.5713050791008
 20
-7.844826020894892
 10
51.5722591687055
 20
-7.844058182908572
 10
51.57322669656061
 20
-7.843308072212952
 10
51.5742069985614
 20
-7.842575156001572
 10
51.57519941104411
 20
-7.841858901546681
 10
51.57620327034449
 20
-7.841158776120516
 10
51.5772179127987
 20
-7.840474246995311
 10
51.5784487830678
 20
-7.83967264908165
 10
51.5796930785908
 20
-7.838891822159848
 10
51.58094965255628
 20
-7.838130845676302
 10
51.58221735815279
 20
-7.837388799077464
 10
51.58349509642359
 20
-7.836664788849052
 10
51.5849975918072
 20
-7.835842045662862
 10
51.5865121220678
 20
-7.835042132400775
 10
51.5880379825766
 20
-7.83426421809369
 10
51.58957446870449
 20
-7.833507471772562
 10
51.5913425599158
 20
-7.832667472850793
 10
51.5931225573475
 20
-7.831852796166351
 10
51.594913409192
 20
-7.831062201322272
 10
51.59693978234421
 20
-7.830200023041043
 10
51.59897724038779
 20
-7.829365150399242
 10
51.60102504585189
 20
-7.828556521225656
 10
51.6030825822828
 20
-7.827773185422262
 10
51.60537939695661
 20
-7.826931321787835
 10
51.6076866185013
 20
-7.826118208286335
 10
51.61023557289471
 20
-7.825255434362236
 10
51.612794970894
 20
-7.824424136440406
 10
51.6155976426473
 20
-7.823551141866926
 10
51.6184103372911
 20
-7.822711780426735
 10
51.6214679640556
 20
-7.821838963751304
 10
51.6245357579195
 20
-7.821002569271842
 10
51.6278499698415
 20
-7.820140769305955
 10
51.6311740067702
 20
-7.819317430541165
 10
51.6347452192449
 20
-7.818475735282093
 10
51.6385643234033
 20
-7.817621525856286
 10
51.6423926659417
 20
-7.816810404321322
 10
51.64646960335559
 20
-7.815993949890932
 10
51.650795897457
 20
-7.815178249615512
 10
51.6551310031993
 20
-7.814410414460223
 10
51.65971538448879
 20
-7.813649249465637
 10
51.6645492206354
 20
-7.812899964527703
 10
51.66963288115868
 20
-7.812168272857755
 10
51.67496667946529
 20
-7.811459891343597
 10
51.68055073514871
 20
-7.810780251902916
 10
51.68638494485739
 20
-7.810134423722196
 10
51.69246898615
 20
-7.809527108686036
 10
51.6988026754052
 20
-7.808963427949238
 10
51.70538589943789
 20
-7.808448754680654
 10
51.712218381459
 20
-7.807988175803152
 10
51.71929965882399
 20
-7.807586426748735
 10
51.72662909092278
 20
-7.807247946452876
 10
51.73420605382628
 20
-7.806977719552996
 10
51.7420298539276
 20
-7.806780936058956
 10
51.75009961326249
 20
-7.806662532547814
 10
51.75767062659939
 20
-7.806626818461414
  0
LWPOLYLINE
  5
84D
330
1E
100
AcDbEntity
  8
1
100
AcDbPolyline
 90
       83
 70
     0
 43
0.0
 10
51.58772457939999
 20
-8.500001150000006
 10
51.5976715988127
 20
-8.499946698821867
 10
51.60716764705789
 20
-8.499792194996846
 10
51.6162109664836
 20
-8.499548849095587
 10
51.62525225629311
 20
-8.499208725879432
 10
51.63383825190599
 20
-8.498793349064287
 10
51.642419807752
 20
-8.498285568790276
 10
51.6505444558842
 20
-8.497717042475525
 10
51.6586628985999
 20
-8.497061273277827
 10
51.66677405556111
 20
-8.496316164372926
 10
51.674426929232
 20
-8.495528528135125
 10
51.68207143045529
 20
-8.494657566359947
 10
51.6897066491312
 20
-8.493701512638347
 10
51.6968834409489
 20
-8.492722382986977
 10
51.70405014731521
 20
-8.491664603602336
 10
51.71120508769678
 20
-8.490525969156076
 10
51.71790059280828
 20
-8.489383048852216
 10
51.7245827587802
 20
-8.488165200866005
 10
51.7312501349952
 20
-8.486870555682942
 10
51.7374583961201
 20
-8.485591282806206
 10
51.7436513306692
 20
-8.484241962498565
 10
51.7498277592371
 20
-8.482821074775486
 10
51.75598650241809
 20
-8.481327099652407
 10
51.76168846882699
 20
-8.479873065381893
 10
51.76737322486689
 20
-8.478353484290002
 10
51.77303982623977
 20
-8.476767139392027
 10
51.77868732864769
 20
-8.475112813703255
 10
51.7838826394055
 20
-8.473524353389276
 10
51.78906012916399
 20
-8.471875974465675
 10
51.79421905520722
 20
-8.470166719741037
 10
51.7993585659186
 20
-8.468395640586845
 10
51.8044772304006
 20
-8.466561833924044
 10
51.8095734258982
 20
-8.464664411759487
 10
51.81464552953229
 20
-8.462702486109773
 10
51.8192724077783
 20
-8.460846631344086
 10
51.8238764284676
 20
-8.458935145607197
 10
51.8284563415704
 20
-8.456967344925757
 10
51.8330108970564
 20
-8.454942545326462
 10
51.8375388448958
 20
-8.452860062835977
 10
51.84203893505848
 20
-8.450719213480985
 10
51.8465099175145
 20
-8.448519313288146
 10
51.8509505422338
 20
-8.446259678284141
 10
51.8553595591863
 20
-8.443939624495643
 10
51.8593392763224
 20
-8.441777479619391
 10
51.86329089908859
 20
-8.439564322716906
 10
51.86721348831859
 20
-8.437299639908887
 10
51.8711061048465
 20
-8.434982917316066
 10
51.8749678093556
 20
-8.432613641565072
 10
51.8787976098952
 20
-8.430191476155695
 10
51.88259438476872
 20
-8.427716520587523
 10
51.88635699264239
 20
-8.425188940349267
 10
51.89008429218279
 20
-8.422608900929617
 10
51.89377514205629
 20
-8.419976567817256
 10
51.8974284009291
 20
-8.417292106500896
 10
51.90104292746778
 20
-8.414555682469227
 10
51.9046175803386
 20
-8.411767461210935
 10
51.9081512182079
 20
-8.408927608214737
 10
51.911642699742
 20
-8.406036288969296
 10
51.91509088360749
 20
-8.403093668963327
 10
51.91849462847059
 20
-8.400099913685526
 10
51.92185279299771
 20
-8.397055188624577
 10
51.9251642358551
 20
-8.393959659269174
 10
51.9284278157094
 20
-8.390813491108023
 10
51.9316423912267
 20
-8.387616849629811
 10
51.9348068210735
 20
-8.384369900323244
 10
51.9379200012357
 20
-8.381072870584917
 10
51.9409812012979
 20
-8.377726607560145
 10
51.9439899060482
 20
-8.374332315387245
 10
51.94694560286118
 20
-8.370891202495107
 10
51.94984777911169
 20
-8.367404477312657
 10
51.9526959221741
 20
-8.363873348268777
 10
51.95548951942328
 20
-8.360299023792395
 10
51.9582280582337
 20
-8.356682712312407
 10
51.9609110259801
 20
-8.353025622257726
 10
51.963537910037
 20
-8.349328962057255
 10
51.96585373044889
 20
-8.345969134168676
 10
51.9681233341419
 20
-8.342579114234087
 10
51.9703463474121
 20
-8.339159783198173
 10
51.9725223965556
 20
-8.335712022005607
 10
51.97465110786851
 20
-8.332236711601057
 10
51.976732107647
 20
-8.328734732929197
 10
51.97876502218718
 20
-8.325206966934697
 10
51.980307850311
 20
-8.322454632914771
  0
LWPOLYLINE
  5
8A2
330
1E
100
AcDbEntity
  8
1
100
AcDbPolyline
 90
       15
 70
     0
 43
0.0
 10
50.7647697179
 20
1.510458502199973
 10
50.77636104200621
 20
1.508899996833581
 10
50.7876922884151
 20
1.507494793790271
 10
50.7987612085115
 20
1.506236968929853
 10
50.8097043369411
 20
1.505106840174911
 10
50.82038146759529
 20
1.504114602739263
 10
50.83092969489329
 20
1.503243133160273
 10
50.8412087809923
 20
1.502499546080903
 10
50.851356096834
 20
1.501869689109911
 10
50.86123100578079
 20
1.501358374193821
 10
50.8708319207769
 20
1.500959497923013
 10
50.88029666100061
 20
1.500663147693549
 10
50.88948486755029
 20
1.500469396421489
 10
50.89853470884399
 20
1.50037089572618
 10
50.9035369609997
 20
1.500356450757703
  0
LWPOLYLINE
  5
8B3
330
1E
100
AcDbEntity
  8
1
100
AcDbPolyline
 90
       65
 70
     0
 43
0.0
 10
52.30358364549999
 20
-7.920329839099996
 10
52.29907424816619
 20
-7.915926389151536
 10
52.29449735672488
 20
-7.911591284665773
 10
52.2900766329334
 20
-7.907527489286263
 10
52.2855965675361
 20
-7.903528268016484
 10
52.28105807640559
 20
-7.899594880739565
 10
52.2766932271848
 20
-7.895920289079634
 10
52.2722772605614
 20
-7.892307329835023
 10
52.2678109609933
 20
-7.888757077889982
 10
52.2635339974079
 20
-7.885452402547955
 10
52.2592131898865
 20
-7.882205611287152
 10
52.2548491785147
 20
-7.879017436877352
 10
52.2504426033781
 20
-7.875888612088326
 10
52.245994104562
 20
-7.872819869689836
 10
52.24175482668162
 20
-7.869977441601052
 10
52.2374792640763
 20
-7.867189876434394
 10
52.23316795629699
 20
-7.864457791443122
 10
52.2288214882275
 20
-7.861781797347145
 10
52.2244405359171
 20
-7.859162491727506
 10
52.2200257863388
 20
-7.856600470590995
 10
52.21584046952471
 20
-7.854242019431781
 10
52.2116263959097
 20
-7.851935336466282
 10
52.20738413822751
 20
-7.849680918589182
 10
52.2031142692121
 20
-7.847479262695222
 10
52.1988173615971
 20
-7.845330865679092
 10
52.1944939890708
 20
-7.843236223421974
 10
52.1901447578121
 20
-7.841195797303383
 10
52.1857703137156
 20
-7.839210006528847
 10
52.18164695052939
 20
-7.837398318176802
 10
52.1775025316211
 20
-7.835635358655188
 10
52.1733375911835
 20
-7.833921471263213
 10
52.16915266340939
 20
-7.832256999300116
 10
52.1649482824918
 20
-7.830642286065104
 10
52.1607249826235
 20
-7.829077674857412
 10
52.1564832980363
 20
-7.827563508937363
 10
52.1522237822082
 20
-7.826100112360784
 10
52.1479470388941
 20
-7.824687759014393
 10
52.1436536799572
 20
-7.823326714694582
 10
52.1393443172604
 20
-7.822017245197706
 10
52.1353083462311
 20
-7.820841840096986
 10
52.13125946461659
 20
-7.819711810038044
 10
52.1271981698843
 20
-7.818627371123165
 10
52.12312495950128
 20
-7.817588739454643
 10
52.11904033093489
 20
-7.816596131134775
 10
52.11494478170338
 20
-7.815649761497193
 10
52.1108388114937
 20
-7.814749813199665
 10
52.106722922922
 20
-7.813896424761214
 10
52.1025976188118
 20
-7.813089731574516
 10
52.0984634019869
 20
-7.812329869032212
 10
52.0943207752709
 20
-7.811616972526993
 10
52.0901702414874
 20
-7.810951177451503
 10
52.0860123034603
 20
-7.810332619198415
 10
52.081847464013
 20
-7.809761433160375
 10
52.0776762259693
 20
-7.809237754730053
 10
52.0734990938614
 20
-7.808761718244793
 10
52.0693166335598
 20
-7.808333420153562
 10
52.06512948779639
 20
-7.807952909428934
 10
52.0609383041653
 20
-7.807620232039884
 10
52.0567437302608
 20
-7.807335433955373
 10
52.05254641367718
 20
-7.807098561144374
 10
52.04834700200867
 20
-7.806909659575874
 10
52.0441461428496
 20
-7.806768775218821
 10
52.0399444837942
 20
-7.806675954042215
 10
52.03574267243659
 20
-7.806631242015005
 10
52.0339520100022
 20
-7.806626818536456
  0
LWPOLYLINE
  5
8F6
330
1E
100
AcDbEntity
  8
SK1
100
AcDbPolyline
 90
       54
 70
     0
 43
0.0
 10
-30.5
 20
-5.723635208500002
 10
-30.57599155696089
 20
-5.613195157135745
 10
-30.6471459244857
 20
-5.506827432481492
 10
-30.716935386379
 20
-5.399555097428244
 10
-30.785346134457
 20
-5.291398836474061
 10
-30.8523656083257
 20
-5.182378132444406
 10
-30.917983475283
 20
-5.072510322807195
 10
-30.9791643577522
 20
-4.967102414822825
 10
-31.0390560531497
 20
-4.86095649916669
 10
-31.0976498611194
 20
-4.754088081690801
 10
-31.1549371049718
 20
-4.646513318894994
 10
-31.2109091089459
 20
-4.538248392812795
 10
-31.2655572562811
 20
-4.429309491972413
 10
-31.31887348929989
 20
-4.319712866445175
 10
-31.3708500587183
 20
-4.209474800249982
 10
-31.421479218482
 20
-4.098611577761225
 10
-31.4683219255307
 20
-3.992727355666596
 10
-31.5139355552626
 20
-3.886307938111562
 10
-31.5583140583735
 20
-3.779367636533852
 10
-31.60145138591639
 20
-3.671920762500456
 10
-31.6433416517831
 20
-3.563981686465643
 10
-31.6839793898308
 20
-3.455564930755746
 10
-31.72335920070461
 20
-3.346685041849616
 10
-31.76147569003231
 20
-3.237356567996225
 10
-31.7983237101908
 20
-3.127594145107843
 10
-31.83389846869349
 20
-3.017412535266966
 10
-31.8681952006185
 20
-2.906826510349075
 10
-31.90120916770419
 20
-2.795850850176806
 10
-31.93293598623061
 20
-2.684500440257725
 10
-31.9633715243516
 20
-2.572790241180304
 10
-31.9910103267161
 20
-2.466641202743355
 10
-32.0174830477465
 20
-2.360195417343173
 10
-32.04278659760179
 20
-2.253465709935106
 10
-32.0669180088572
 20
-2.146464935600624
 10
-32.0898743142165
 20
-2.039205949452584
 10
-32.11165265134219
 20
-1.931701631437334
 10
-32.132250517036
 20
-1.823964946474034
 10
-32.1516654848504
 20
-1.716008877641194
 10
-32.1698951297636
 20
-1.607846408101345
 10
-32.1869371973523
 20
-1.499490531068414
 10
-32.2027897634876
 20
-1.390954259216913
 10
-32.21745094184561
 20
-1.282250607448725
 10
-32.2309188560967
 20
-1.173392595918214
 10
-32.24319188188619
 20
-1.064393377207496
 10
-32.2542686597691
 20
-0.9552662431238967
 10
-32.26414784288309
 20
-0.8460244920878007
 10
-32.27282811982998
 20
-0.7366813717578801
 10
-32.2803085053713
 20
-0.6272496629450412
 10
-32.2865881899189
 20
-0.5177418950427342
 10
-32.291666365583
 20
-0.40817059501349
 10
-32.29554231473549
 20
-0.2985488056422101
 10
-32.298215678825
 20
-0.1888916217555879
 10
-32.29968618858009
 20
-0.0792146483941517
 10
-32.29999999999499
 20
-0.0000100000000251
  0
LWPOLYLINE
  5
92E
330
1E
100
AcDbEntity
  8
SK1
100
AcDbPolyline
 90
       54
 70
     0
 43
0.0
 10
-32.29999999999999
 20
0.000000000000004
 10
-32.2993983858367
 20
0.1096815608328079
 10
-32.2975937228616
 20
0.219354602589609
 10
-32.29458628034729
 20
0.3290035202200589
 10
-32.2903763294519
 20
0.4386127194490452
 10
-32.28496432025659
 20
0.5481676284891229
 10
-32.2783510265822
 20
0.6576555256200991
 10
-32.2705372563313
 20
0.7670638838867192
 10
-32.2615238318753
 20
0.8763801556229449
 10
-32.25131184841279
 20
0.985591402647136
 10
-32.2399026443059
 20
1.094684338720673
 10
-32.22729756642868
 20
1.203645665421163
 10
-32.2134980071501
 20
1.312462108236434
 10
-32.19850569848709
 20
1.421120571159543
 10
-32.1823225260338
 20
1.529608038897543
 10
-32.1649503761398
 20
1.637911496553704
 10
-32.1463912325186
 20
1.746017934967484
 10
-32.12664743857539
 20
1.853914366169693
 10
-32.105721420758
 20
1.961587807083581
 10
-32.08361560654739
 20
2.069025274876854
 10
-32.0603325851958
 20
2.176213824991124
 10
-32.0358752821596
 20
2.283140592411588
 10
-32.0102466647849
 20
2.389792722034173
 10
-31.98344970561139
 20
2.496157360033044
 10
-31.95548759666611
 20
2.602221706600162
 10
-31.92471184783939
 20
2.713838674895482
 10
-31.8926459045433
 20
2.825091916614391
 10
-31.85929392020231
 20
2.935966477605142
 10
-31.8246604035411
 20
3.046447509623301
 10
-31.78875011422039
 20
3.156520239223211
 10
-31.7515678171766
 20
3.266169894531753
 10
-31.7131183549152
 20
3.375381731234613
 10
-31.67340698709189
 20
3.484141153222851
 10
-31.63243911298019
 20
3.592433613991071
 10
-31.5902201321148
 20
3.700244567127731
 10
-31.546755593221
 20
3.807559520172712
 10
-31.5020514703202
 20
3.914364134464771
 10
-31.45611381271969
 20
4.020644098568191
 10
-31.40894867152329
 20
4.12638510210828
 10
-31.3579819331694
 20
4.237093562099872
 10
-31.30566972166319
 20
4.347172794697319
 10
-31.2520197830733
 20
4.456606515531771
 10
-31.19703988591089
 20
4.565378442704838
 10
-31.1407382586351
 20
4.673472344949351
 10
-31.0831235604238
 20
4.780872038411771
 10
-31.0242044670439
 20
4.887561341064681
 10
-30.9639896575376
 20
4.993524160952381
 10
-30.89937912339289
 20
5.103986567175532
 10
-30.8333597665458
 20
5.213614093064231
 10
-30.7659416890911
 20
5.32238962321825
 10
-30.6971356222015
 20
5.430295436417491
 10
-30.62695477685549
 20
5.537311423317902
 10
-30.5554129749888
 20
5.643416886206082
 10
-30.5000057236311
 20
5.72362700849709
  0
LWPOLYLINE
  5
966
330
1E
100
AcDbEntity
  8
1
100
AcDbPolyline
 90
       38
 70
     0
 43
0.0
 10
40.48658475769999
 20
8.467947293099994
 10
40.48645878507858
 20
8.468961485219205
 10
40.48666371979
 20
8.469990242529112
 10
40.48712441818179
 20
8.470996332049685
 10
40.48776573660118
 20
8.471942520800855
 10
40.4885131155695
 20
8.472792009958155
 10
40.4893190434952
 20
8.473528102582744
 10
40.4901738834736
 20
8.474162250057155
 10
40.4910708253687
 20
8.474708004607162
 10
40.4920030590441
 20
8.475178918458603
 10
40.4929637743637
 20
8.475588543837242
 10
40.49394616119117
 20
8.475950432968893
 10
40.49494340939039
 20
8.476278138079353
 10
40.4964522661806
 20
8.476735213347364
 10
40.49997523814107
 20
8.477757412383315
 10
40.50299602545679
 20
8.478588910197384
 10
40.50551772869139
 20
8.479244599967874
 10
40.5080463288405
 20
8.479861822473335
 10
40.5100760109787
 20
8.480324989485334
 10
40.51211305077369
 20
8.480758972495355
 10
40.51466932274069
 20
8.481262322424562
 10
40.51723524354549
 20
8.481726560214251
 10
40.52032492146889
 20
8.482238610171362
 10
40.5239407676821
 20
8.482784133611263
 10
40.5286009801301
 20
8.483423221677352
 10
40.5358577678547
 20
8.484332383571553
 10
40.543635633782
 20
8.485222077099022
 10
40.55193747626559
 20
8.486081522869895
 10
40.561287021175
 20
8.486946345361481
 10
40.5722085704457
 20
8.487835145087093
 10
40.58626507183229
 20
8.488825563409225
 10
40.605539062679
 20
8.489983918166954
 10
40.6300336265298
 20
8.491200990519875
 10
40.662882990469
 20
8.492492852707284
 10
40.7113918230086
 20
8.493903083737963
 10
40.7880855727403
 20
8.495345585917965
 10
40.92375314767929
 20
8.496520669031692
 10
41.0030595578
 20
8.496682050097492
  0
LWPOLYLINE
  5
98E
330
1E
100
AcDbEntity
  8
SK1
100
AcDbPolyline
 90
       54
 70
     0
 43
0.0
 10
-19.5
 20
-5.723635208500002
 10
-19.4240084430284
 20
-5.613195157141728
 10
-19.3528540754812
 20
-5.506827432501363
 10
-19.2830646135629
 20
-5.399555097463624
 10
-19.2146538654668
 20
-5.291398836520387
 10
-19.14763439159148
 20
-5.182378132493985
 10
-19.0820165246354
 20
-5.072510322854936
 10
-19.0208356421702
 20
-4.967102414866936
 10
-18.96094394677539
 20
-4.860956499207997
 10
-18.9023501388058
 20
-4.754088081731044
 10
-18.84506289495178
 20
-4.646513318935286
 10
-18.78909089097539
 20
-4.538248392853526
 10
-18.7344427436381
 20
-4.429309492013294
 10
-18.68112651061808
 20
-4.319712866485756
 10
-18.629149941199
 20
-4.209474800289875
 10
-18.57852078143539
 20
-4.098611577800165
 10
-18.53167807438738
 20
-3.992727355704495
 10
-18.4860644446558
 20
-3.886307938148576
 10
-18.44168594154389
 20
-3.779367636570466
 10
-18.3985486139975
 20
-3.671920762537467
 10
-18.3566583481252
 20
-3.563981686503745
 10
-18.3160206100735
 20
-3.455564930794406
 10
-18.27664079920128
 20
-3.346685041886896
 10
-18.23852430988528
 20
-3.237356568028757
 10
-18.2016762897488
 20
-3.127594145132265
 10
-18.166101531273
 20
-3.017412535281786
 10
-18.13180479937407
 20
-2.906826510354866
 10
-18.0987908323081
 20
-2.795850850176095
 10
-18.06706401379138
 20
-2.684500440253867
 10
-18.0366284756676
 20
-2.572790241176686
 10
-18.00898967328659
 20
-2.466641202743065
 10
-17.98251695222609
 20
-2.360195417348964
 10
-17.9572134023361
 20
-2.253465709947835
 10
-17.9330819910538
 20
-2.146464935618725
 10
-17.91012568568789
 20
-2.039205949472044
 10
-17.8883473485826
 20
-1.931701631452814
 10
-17.86774948292289
 20
-1.823964946482563
 10
-17.8483345151391
 20
-1.716008877642984
 10
-17.8301048702359
 20
-1.607846408099734
 10
-17.8130628026293
 20
-1.499490531068165
 10
-17.7972102364608
 20
-1.390954259220803
 10
-17.78254905806869
 20
-1.282250607457185
 10
-17.76908114379719
 20
-1.173392595929344
 10
-17.75680811800389
 20
-1.064393377218724
 10
-17.7457313401261
 20
-0.9552662431337047
 10
-17.7358521570173
 20
-0.8460244920957338
 10
-17.7271718800681
 20
-0.7366813717645
 10
-17.7196914945204
 20
-0.6272496629509821
 10
-17.7134118099706
 20
-0.517741895048205
 10
-17.70833363431719
 20
-0.4081705950182669
 10
-17.7044576851932
 20
-0.2985488056457748
 10
-17.7017843211393
 20
-0.1888916217576688
 10
-17.7003138114123
 20
-0.0792146483948591
 10
-17.70000000000498
 20
-0.0000100000000269
  0
LWPOLYLINE
  5
9C6
330
1E
100
AcDbEntity
  8
SK1
100
AcDbPolyline
 90
       54
 70
     0
 43
0.0
 10
-17.7
 20
0.0000000000000022
 10
-17.70060161414988
 20
0.1096815608337321
 10
-17.7024062770938
 20
0.2193546025918152
 10
-17.705413719573
 20
0.3290035202236472
 10
-17.70962367044289
 20
0.4386127194538635
 10
-17.7150356796295
 20
0.5481676284948655
 10
-17.7216489733067
 20
0.6576555256264932
 10
-17.7294627435657
 20
0.7670638838935432
 10
-17.7384761680287
 20
0.876380155630035
 10
-17.7486881514944
 20
0.9855914026545031
 10
-17.76009735560069
 20
1.094684338728612
 10
-17.7727024334738
 20
1.20364566543024
 10
-17.78650199274519
 20
1.312462108247379
 10
-17.80149430140198
 20
1.42112057117234
 10
-17.8176774738559
 20
1.529608038911001
 10
-17.83504962376269
 20
1.637911496565428
 10
-17.8536087674116
 20
1.746017934974589
 10
-17.873352561388
 20
1.85391436617112
 10
-17.8942785792322
 20
1.961587807080679
 10
-17.9163843934516
 20
2.069025274873331
 10
-17.9396674147886
 20
2.176213824991759
 10
-17.9641247177958
 20
2.283140592419411
 10
-17.98975333513769
 20
2.389792722050108
 10
-18.01655029428507
 20
2.496157360055978
 10
-18.0445124032173
 20
2.60222170662747
 10
-18.07528815204419
 20
2.713838674923877
 10
-18.1073540953547
 20
2.825091916639537
 10
-18.14070607972339
 20
2.935966477622241
 10
-18.1753395964186
 20
3.046447509629868
 10
-18.21124988576769
 20
3.156520239221151
 10
-18.2484321828223
 20
3.266169894527327
 10
-18.28688164506869
 20
3.3753817312372
 10
-18.3265930128615
 20
3.484141153237838
 10
-18.3675608869438
 20
3.592433614017541
 10
-18.40977986779749
 20
3.700244567158438
 10
-18.4532444067063
 20
3.807559520197028
 10
-18.4979485296372
 20
3.914364134477061
 10
-18.543886187267
 20
4.020644098569268
 10
-18.59105132847639
 20
4.126385102105397
 10
-18.64201806681889
 20
4.23709356210368
 10
-18.6943302782981
 20
4.347172794714548
 10
-18.7479802168578
 20
4.456606515563811
 10
-18.8029601139988
 20
4.565378442747941
 10
-18.8592617412665
 20
4.673472344997462
 10
-18.91687643948128
 20
4.780872038459277
 10
-18.97579553287378
 20
4.887561341106521
 10
-19.0360103423994
 20
4.993524160984152
 10
-19.10062087656759
 20
5.103986567194221
 10
-19.16664023343689
 20
5.213614093070408
 10
-19.2340583109073
 20
5.32238962321566
 10
-19.30286437780297
 20
5.430295436412071
 10
-19.37304522314839
 20
5.537311423313791
 10
-19.4445870250121
 20
5.643416886204673
 10
-19.49999427636889
 20
5.72362700849709
  0
LWPOLYLINE
  5
9FE
330
1E
100
AcDbEntity
  8
1
100
AcDbPolyline
 90
       22
 70
     0
 43
0.0
 10
50.7700547592
 20
8.496682050099979
 10
50.77044557878821
 20
8.497010752092258
 10
50.770925259724
 20
8.497202527827711
 10
50.77146716974771
 20
8.497295426043503
 10
50.77204467659929
 20
8.49732749547681
 10
50.7729204358422
 20
8.497343359968573
 10
50.7734886041411
 20
8.497364376581961
 10
50.77404414286331
 20
8.49739479255454
 10
50.7748570105947
 20
8.49745522734406
 10
50.77564979347521
 20
8.497529577345941
 10
50.77642749052278
 20
8.497613502552713
 10
50.77795762319101
 20
8.497792718551002
 10
50.77923075711741
 20
8.49793302025718
 10
50.780261219753
 20
8.498027974783481
 10
50.78130271401771
 20
8.498107707862091
 10
50.7826177222626
 20
8.498188843635622
 10
50.7842109892316
 20
8.498263893071742
 10
50.78635260461799
 20
8.498336550280612
 10
50.79438128343721
 20
8.498547080467142
 10
50.8115931165745
 20
8.498998292594322
 10
50.84956240450839
 20
8.49946626298516
 10
51.03537818229999
 20
8.499917391499391
  0
LINE
  5
A16
330
1E
100
AcDbEntity
  8
SK4
100
AcDbLine
 10
-25.0
 20
-3.435444191599993
 30
0.0
 11
-25.0
 21
4.353945221123501
 31
0.0
  0
DIMENSION
  5
A17
330
1E
100
AcDbEntity
  8
2
100
AcDbDimension
  2
*D4
 10
60.0
 20
-26.7732367801691
 30
0.0
 11
30.0
 21
-26.7732367801691
 31
0.0
 70
   160
 71
     5
 42
60.0
  3
ISO-25
100
AcDbAlignedDimension
 13
0.0000000000000045
 23
9.713939355581327
 33
0.0
 14
60.0
 24
-0.0000000000000073
 34
0.0
 50
180.0
100
AcDbRotatedDimension
  0
LINE
  5
A18
330
1E
100
AcDbEntity
  8
2
100
AcDbLine
 10
60.0
 20
3.816497463641658
 30
0.0
 11
60.0
 21
-35.81003201699999
 31
0.0
  0
ARC
  5
A19
330
1E
100
AcDbEntity
  8
1
100
AcDbCircle
 10
-0.7002075382000054
 20
-9.0
 30
0.0
 40
1.0
100
AcDbArc
 50
314.4436571918858
 51
340.0000000000998
  0
ARC
  5
A1A
330
1E
100
AcDbEntity
  8
SK1
100
AcDbCircle
 10
-0.7002075382000033
 20
9.0
 30
0.0
 40
1.0
100
AcDbArc
 50
45.55634280811402
 51
90.0
  0
LINE
  5
A1B
330
1E
100
AcDbEntity
  8
SK4
100
AcDbLine
 10
0.0
 20
0.0
 30
0.0
 11
-53.0
 21
0.0000000000000065
 31
0.0
  0
DIMENSION
  5
A1C
330
1E
100
AcDbEntity
  8
SK2
100
AcDbDimension
  2
*D2
 10
60.0
 20
-37.34581758939941
 30
0.0
 11
17.49999999999999
 21
-37.34581758939941
 31
0.0
 70
   160
 71
     5
 42
85.0
  3
ISO-25
100
AcDbAlignedDimension
 13
-25.0
 23
0.0000000000000031
 33
0.0
 14
60.0
 24
-0.0000000000000064
 34
0.0
 50
180.0
100
AcDbRotatedDimension
  0
TEXT
  5
EFD
330
1E
100
AcDbEntity
  8
6
100
AcDbText
 10
-18.83401790317731
 20
-66.38558737904475
 30
0.0
 40
5.0
  1
15B1G020060W4R00
 41
1.199999999999999
100
AcDbText
  0
LINE
  5
2887
330
1E
100
AcDbEntity
  8
SK4
100
AcDbLine
 10
55.015724
 20
-0.290685308053845
 30
0.0
 11
55.015724
 21
10.51739397175244
 31
0.0
  0
LINE
  5
2888
330
1E
100
AcDbEntity
  8
SK4
100
AcDbLine
 10
49.22447507078429
 20
5.000356450699993
 30
0.0
 11
60.91177304742
 21
5.000356450699992
 31
0.0
  0
TEXT
  5
2D1E
330
1E
100
AcDbEntity
  8
6
100
AcDbText
 10
35.96279470118168
 20
17.20601282024637
 30
0.0
 40
2.5
  1
RHKW1003M0TN
100
AcDbText
  0
TEXT
  5
2D1F
330
1E
100
AcDbEntity
  8
6
100
AcDbText
 10
80.6827921216726
 20
-2.810577665285563
 30
0.0
 40
3.5
  1
Z=2
 50
90.0
100
AcDbText
  0
LINE
  5
2F20
330
1E
100
AcDbEntity
  8
NOCUT
100
AcDbLine
 10
-0.0000000000000568
 20
9.713939355581416
 30
0.0
 11
0.0
 21
0.0
 31
0.0
  0
LINE
  5
2F54
330
1E
100
AcDbEntity
  8
NOCUT
100
AcDbLine
 10
59.00000000000005
 20
0.0
 30
0.0
 11
0.0
 21
0.0
 31
0.0
  0
LINE
  5
2F59
330
1E
100
AcDbEntity
  8
NOCUT
100
AcDbLine
 10
0.3064702688000125
 20
9.157979856699995
 30
0.0
 11
0.2394850826000265
 21
9.342020143399992
 31
0.0
  0
LINE
  5
2F5B
330
1E
100
AcDbEntity
  8
NOCUT
100
AcDbLine
 10
52.19331155990005
 20
8.5
 30
0.0
 11
1.246162889599985
 21
8.5
 31
0.0
  0
LINE
  5
2F5F
330
1E
100
AcDbEntity
  8
NOCUT
100
AcDbLine
 10
59.00000000000005
 20
5.649999999999991
 30
0.0
 11
59.00000000000005
 21
0.0
 31
0.0
  0
ARC
  5
2F6B
330
1E
100
AcDbEntity
  8
NOCUT
100
AcDbCircle
 10
-0.7002075381995497
 20
9.000000000000143
 30
0.0
 40
0.9999999999996017
100
AcDbArc
 50
19.99999999999968
 51
45.55634280813282
  0
ARC
  5
2F6D
330
1E
100
AcDbEntity
  8
NOCUT
100
AcDbCircle
 10
1.246162889599985
 20
9.5
 30
0.0
 40
1.0
100
AcDbArc
 50
200.0
 51
270.0
  0
ARC
  5
2F6F
330
1E
100
AcDbEntity
  8
NOCUT
100
AcDbCircle
 10
55.00000000000007
 20
5.649999999999991
 30
0.0
 40
4.0
100
AcDbArc
 50
0.0
 51
134.5613120436002
  0
SPLINE
  5
2F8E
330
1E
100
AcDbEntity
  8
CUT
100
AcDbSpline
210
0.0
220
0.0
230
1.0
 70
     8
 71
     3
 72
    36
 73
    32
 74
    30
 42
0.0000000001
 43
0.0000000001
 44
0.0000000001
 12
-0.9999657370739441
 22
0.0082779634067752
 32
0.0
 13
0.9999999735951984
 23
-0.0002298033996267
 33
0.0
 40
0.0
 40
0.0
 40
0.0
 40
0.0
 40
0.539689686929472
 40
1.073331327768114
 40
1.597940705002316
 40
2.117717130501729
 40
2.639005008059823
 40
3.164180589200099
 40
3.692981226458594
 40
4.224568159993412
 40
4.758205951357575
 40
5.293354380746111
 40
5.829631597440024
 40
6.366768874173845
 40
6.904570398130394
 40
7.442897443161587
 40
7.981640443161582
 40
8.520722009458374
 40
9.060078046986451
 40
9.599660119868806
 40
10.13942898107699
 40
10.67935170203992
 40
11.21940286055364
 40
11.7595600203997
 40
12.2998039585554
 40
12.84011964047203
 40
13.38049123911969
 40
13.92090588650163
 40
14.46135285487601
 40
15.0018203978811
 40
15.54229876020287
 40
15.54229876020287
 40
15.54229876020287
 40
15.54229876020287
 10
55.01572400000004
 20
0.4011730000000071
 30
0.0
 10
54.83583360147282
 20
0.4026621771598126
 30
0.0
 10
54.47806362647148
 20
0.4002109600225269
 30
0.0
 10
53.94536462559798
 20
0.4123361451285829
 30
0.0
 10
53.42120648995392
 20
0.4702693047553755
 30
0.0
 10
52.91480412319264
 20
0.6054286085277694
 30
0.0
 10
52.43546227855517
 20
0.8169952926330273
 30
0.0
 10
51.98754149469597
 20
1.093858164410782
 30
0.0
 10
51.5752625759798
 20
1.42662017124005
 30
0.0
 10
51.20320470362042
 20
1.807621387667487
 30
0.0
 10
50.87572275113018
 20
2.230165830023491
 30
0.0
 10
50.59669122057896
 20
2.687954638798825
 30
0.0
 10
50.3694111362123
 20
3.174787253705941
 30
0.0
 10
50.19656720534726
 20
3.684421247919556
 30
0.0
 10
50.08019875174187
 20
4.210528701952075
 30
0.0
 10
50.02167945952556
 20
4.746699188602543
 30
0.0
 10
50.02169962368007
 20
5.286477711085835
 30
0.0
 10
50.08026291142958
 20
5.823413231332444
 30
0.0
 10
50.19668516178135
 20
6.351121760039795
 30
0.0
 10
50.36960357778587
 20
6.863348719844318
 30
0.0
 10
50.59698991931989
 20
7.354038498604468
 30
0.0
 10
50.87618155390106
 20
7.817397867022165
 30
0.0
 10
51.20390424370672
 20
8.247964284245712
 30
0.0
 10
51.57631570624573
 20
8.640666667930195
 30
0.0
 10
51.98905271178688
 20
8.990879470686605
 30
0.0
 10
52.43727238954408
 20
9.294485966670043
 30
0.0
 10
52.91572415262391
 20
9.547912082407508
 30
0.0
 10
53.41879075411323
 20
9.748178603930815
 30
0.0
 10
53.94059832025813
 20
9.892936730496138
 30
0.0
 10
54.47494484070237
 20
9.980452260082238
 30
0.0
 10
54.83556455064985
 20
10.00004140125503
 30
0.0
 10
55.01572400000004
 20
10.0
 30
0.0
 11
55.01572400000004
 21
0.4011730000000071
 31
0.0
 11
54.47603700000001
 21
0.4028760000000136
 31
0.0
 11
53.94267800000005
 21
0.4202420000000089
 31
0.0
 11
53.421899
 21
0.4835210000000174
 31
0.0
 11
52.91980700000005
 21
0.6179500000000147
 31
0.0
 11
52.44228700000002
 21
0.8270330000000072
 31
0.0
 11
51.99493799999999
 21
1.102148000000005
 31
0.0
 11
51.58300500000001
 21
1.43372200000001
 31
0.0
 11
51.21131800000007
 21
1.813766000000008
 31
0.0
 11
50.88423400000005
 21
2.235412000000017
 31
0.0
 11
50.60558800000001
 21
2.692293000000013
 31
0.0
 11
50.37864700000007
 21
3.178185000000006
 31
0.0
 11
50.20607100000001
 21
3.686844000000013
 31
0.0
 11
50.08988400000004
 21
4.211945000000006
 31
0.0
 11
50.03144800000001
 21
4.747091000000018
 31
0.0
 11
50.03144800000001
 21
5.285834000000013
 31
0.0
 11
50.08988400000004
 21
5.821739000000013
 31
0.0
 11
50.20607100000001
 21
6.348432000000008
 31
0.0
 11
50.37864700000007
 21
6.859672000000008
 31
0.0
 11
50.60558800000001
 21
7.349415000000012
 31
0.0
 11
50.88423400000005
 21
7.811879000000011
 31
0.0
 11
51.21131800000007
 21
8.241613000000008
 31
0.0
 11
51.58300500000001
 21
8.633555000000008
 31
0.0
 11
51.99493799999999
 21
8.983090000000011
 31
0.0
 11
52.44228700000002
 21
9.286108000000018
 31
0.0
 11
52.91980700000005
 21
9.539043000000011
 31
0.0
 11
53.421899
 21
9.738922000000007
 31
0.0
 11
53.94267800000005
 21
9.883394000000015
 31
0.0
 11
54.47603700000001
 21
9.970763000000012
 31
0.0
 11
55.01572400000004
 21
10.0
 31
0.0
  0
SPLINE
  5
2F8F
330
1E
100
AcDbEntity
  8
CUT
100
AcDbSpline
210
0.0
220
0.0
230
1.0
 70
     8
 71
     3
 72
    36
 73
    32
 74
    30
 42
0.0000000001
 43
0.0000000001
 44
0.0000000001
 12
0.9999657370739441
 22
0.0082779634067752
 32
0.0
 13
-0.9999999735951984
 23
-0.0002298033996267
 33
0.0
 40
0.0
 40
0.0
 40
0.0
 40
0.0
 40
0.5396896869293938
 40
1.073331327768093
 40
1.597940705002239
 40
2.117717130501714
 40
2.639005008059788
 40
3.164180589200034
 40
3.692981226458562
 40
4.224568159993395
 40
4.758205951357553
 40
5.29335438074606
 40
5.829631597439999
 40
6.36676887417382
 40
6.904570398130367
 40
7.442897443161561
 40
7.981640443161556
 40
8.520722009458349
 40
9.060078046986424
 40
9.599660119868779
 40
10.13942898107699
 40
10.67935170203989
 40
11.21940286055361
 40
11.75956002039968
 40
12.29980395855542
 40
12.84011964047202
 40
13.38049123911965
 40
13.92090588650165
 40
14.46135285487598
 40
15.00182039788112
 40
15.54229876020282
 40
15.54229876020282
 40
15.54229876020282
 40
15.54229876020282
 10
55.01572400000004
 20
0.4011730000000071
 30
0.0
 10
55.19561439852722
 20
0.4026621771598123
 30
0.0
 10
55.55338437352857
 20
0.4002109600225298
 30
0.0
 10
56.08608337440202
 20
0.412336145128575
 30
0.0
 10
56.61024151004611
 20
0.4702693047553915
 30
0.0
 10
57.1166438768074
 20
0.6054286085277527
 30
0.0
 10
57.59598572144489
 20
0.8169952926330235
 30
0.0
 10
58.04390650530402
 20
1.093858164410805
 30
0.0
 10
58.45618542402026
 20
1.426620171240041
 30
0.0
 10
58.82824329637964
 20
1.807621387667482
 30
0.0
 10
59.15572524886988
 20
2.230165830023473
 30
0.0
 10
59.43475677942101
 20
2.68795463879886
 30
0.0
 10
59.66203686378777
 20
3.17478725370592
 30
0.0
 10
59.83488079465281
 20
3.684421247919559
 30
0.0
 10
59.9512492482582
 20
4.210528701952075
 30
0.0
 10
60.00976854047454
 20
4.746699188602544
 30
0.0
 10
60.00974837632
 20
5.286477711085833
 30
0.0
 10
59.95118508857047
 20
5.823413231332445
 30
0.0
 10
59.83476283821874
 20
6.351121760039792
 30
0.0
 10
59.66184442221422
 20
6.863348719844335
 30
0.0
 10
59.43445808068009
 20
7.354038498604435
 30
0.0
 10
59.15526644609903
 20
7.817397867022179
 30
0.0
 10
58.82754375629332
 20
8.247964284245721
 30
0.0
 10
58.45513229375435
 20
8.640666667930201
 30
0.0
 10
58.04239528821312
 20
8.990879470686582
 30
0.0
 10
57.59417561045598
 20
9.294485966670047
 30
0.0
 10
57.11572384737614
 20
9.547912082407531
 30
0.0
 10
56.61265724588681
 20
9.748178603930789
 30
0.0
 10
56.09084967974191
 20
9.89293673049616
 30
0.0
 10
55.55650315929764
 20
9.980452260082225
 30
0.0
 10
55.19588344935019
 20
10.00004140125503
 30
0.0
 10
55.01572400000004
 20
10.0
 30
0.0
 11
55.01572400000004
 21
0.4011730000000071
 31
0.0
 11
55.55541099999999
 21
0.4028760000000136
 31
0.0
 11
56.08877000000001
 21
0.4202420000000089
 31
0.0
 11
56.60954900000001
 21
0.4835210000000174
 31
0.0
 11
57.11164100000002
 21
0.6179500000000147
 31
0.0
 11
57.58916100000003
 21
0.8270330000000072
 31
0.0
 11
58.03651000000002
 21
1.102148000000005
 31
0.0
 11
58.44844300000005
 21
1.43372200000001
 31
0.0
 11
58.82013
 21
1.813766000000008
 31
0.0
 11
59.14721400000002
 21
2.235412000000017
 31
0.0
 11
59.42586
 21
2.692293000000013
 31
0.0
 11
59.65280100000001
 21
3.178185000000006
 31
0.0
 11
59.82537700000007
 21
3.686844000000013
 31
0.0
 11
59.94156400000003
 21
4.211945000000006
 31
0.0
 11
60.00000000000007
 21
4.747091000000018
 31
0.0
 11
60.00000000000007
 21
5.285834000000013
 31
0.0
 11
59.94156400000003
 21
5.821739000000013
 31
0.0
 11
59.82537700000007
 21
6.348432000000008
 31
0.0
 11
59.65280100000001
 21
6.859672000000008
 31
0.0
 11
59.42586
 21
7.349415000000012
 31
0.0
 11
59.14721400000002
 21
7.811879000000011
 31
0.0
 11
58.82013
 21
8.241613000000008
 31
0.0
 11
58.44844300000005
 21
8.633555000000008
 31
0.0
 11
58.03651000000002
 21
8.983090000000011
 31
0.0
 11
57.58916100000003
 21
9.286108000000018
 31
0.0
 11
57.11164100000002
 21
9.539043000000011
 31
0.0
 11
56.60954900000001
 21
9.738922000000007
 31
0.0
 11
56.08877000000001
 21
9.883394000000015
 31
0.0
 11
55.55541099999999
 21
9.970763000000012
 31
0.0
 11
55.01572400000004
 21
10.0
 31
0.0
  0
LWPOLYLINE
  5
30F9
330
1E
100
AcDbEntity
  8
1
100
AcDbPolyline
 90
        3
 70
     1
 43
0.0
 10
0.0000000000001279
 20
0.0
 10
-2.950972054112455
 20
0.0
 42
0.4142135623730966
 10
0.0000000000001279
 20
-2.950972054112583
  0
HATCH
  5
30FA
330
1E
100
AcDbEntity
  8
1
100
AcDbHatch
 10
0.0
 20
0.0
 30
0.0
210
0.0
220
0.0
230
1.0
  2
SOLID
 70
     1
 71
     0
 91
        2
 92
        7
 72
     1
 73
     1
 93
        3
 10
0.0000000000001279
 20
0.0
 42
0.0
 10
2.950972054112709
 20
0.0
 42
0.4142135623730966
 10
0.0000000000001279
 20
2.950972054112611
 42
0.0
 97
        0
 92
        7
 72
     1
 73
     1
 93
        3
 10
0.0000000000001279
 20
-2.950972054112496
 42
0.0
 10
0.0000000000001279
 20
0.0
 42
0.0
 10
-2.950972054112455
 20
0.0
 42
0.4142135623730953
 97
        0
 75
     0
 76
     1
 47
0.1190009775223266
 98
        2
 10
0.7445530588120306
 20
0.9212244733764975
 10
-1.279464601852807
 20
-1.696796923046291
  0
CIRCLE
  5
30FB
330
1E
100
AcDbEntity
  8
1
100
AcDbCircle
 10
0.0000000000001279
 20
0.0
 30
0.0
 40
2.950972054112601
  0
LINE
  5
30FC
330
1E
100
AcDbEntity
  8
1
100
AcDbLine
 10
0.0000000000001279
 20
2.950972054112611
 30
0.0
 11
0.0000000000001279
 21
-2.950972054112583
 31
0.0
  0
LINE
  5
30FD
330
1E
100
AcDbEntity
  8
1
100
AcDbLine
 10
-2.950972054112709
 20
0.0
 30
0.0
 11
2.950972054112709
 21
0.0
 31
0.0
  0
LWPOLYLINE
  5
30FE
330
1E
100
AcDbEntity
  8
1
100
AcDbPolyline
 90
        3
 70
     1
 43
0.0
 10
0.0000000000001279
 20
2.950972054112611
 10
0.0000000000001279
 20
0.0
 10
2.950972054112709
 20
0.0
 42
0.4142135623730966
  0
ENDSEC
  0
SECTION
  2
OBJECTS
  0
DICTIONARY
  5
C
330
0
100
AcDbDictionary
281
     1
  3
ACAD_COLOR
350
327F
  3
ACAD_GROUP
350
D
  3
ACAD_LAYOUT
350
19
  3
ACAD_MATERIAL
350
327E
  3
ACAD_MLINESTYLE
350
16
  3
ACAD_PLOTSETTINGS
350
18
  3
ACAD_PLOTSTYLENAME
350
2B6E
  3
ACAD_TABLESTYLE
350
3280
  3
ACDBHEADERROUNDTRIPXREC
350
3291
  3
AcDbVariableDictionary
350
328C
1001
ACAD
1000
TREAT_AS_HARD
1070
     0
1000
TREAT_AS_HARD
1070
     0
  0
DICTIONARY
  5
2278
330
1E
100
AcDbDictionary
281
     1
  3
ACAD_LAYOUTSELFREF
350
288B
1001
ACAD
1000
TREAT_AS_HARD
1070
     0
  0
DICTIONARY
  5
2276
330
1A
100
AcDbDictionary
281
     1
  3
ACAD_LAYOUTSELFREF
350
288A
1001
ACAD
1000
TREAT_AS_HARD
1070
     0
  0
DICTIONARY
  5
327F
102
{ACAD_REACTORS
330
C
102
}
330
C
100
AcDbDictionary
281
     1
  0
DICTIONARY
  5
D
102
{ACAD_REACTORS
330
C
102
}
330
C
100
AcDbDictionary
281
     1
1001
ACAD
1000
TREAT_AS_HARD
1070
     0
1000
TREAT_AS_HARD
1070
     0
  0
DICTIONARY
  5
19
102
{ACAD_REACTORS
330
C
102
}
330
C
100
AcDbDictionary
281
     1
  3
Layout1
350
2B71
  3
Model
350
2B70
1001
ACAD
1000
TREAT_AS_HARD
1070
     0
1000
TREAT_AS_HARD
1070
     0
  0
DICTIONARY
  5
327E
102
{ACAD_REACTORS
330
C
102
}
330
C
100
AcDbDictionary
281
     1
  0
DICTIONARY
  5
16
102
{ACAD_REACTORS
330
C
102
}
330
C
100
AcDbDictionary
281
     1
  3
STANDARD
350
17
1001
ACAD
1000
TREAT_AS_HARD
1070
     0
1000
TREAT_AS_HARD
1070
     0
  0
DICTIONARY
  5
18
102
{ACAD_REACTORS
330
C
102
}
330
C
100
AcDbDictionary
281
     1
1001
ACAD
1000
TREAT_AS_HARD
1070
     0
1000
TREAT_AS_HARD
1070
     0
  0
ACDBDICTIONARYWDFLT
  5
2B6E
102
{ACAD_REACTORS
330
C
102
}
330
C
100
AcDbDictionary
281
     1
  3
Normal
350
2B6F
100
AcDbDictionaryWithDefault
340
2B6F
  0
DICTIONARY
  5
3280
102
{ACAD_REACTORS
330
C
102
}
330
C
100
AcDbDictionary
281
     1
  3
Standard
350
3281
  0
DICTIONARY
  5
3291
102
{ACAD_REACTORS
330
C
102
}
330
C
100
AcDbDictionary
281
     1
  0
DICTIONARY
  5
328C
102
{ACAD_REACTORS
330
C
102
}
330
C
100
AcDbDictionary
281
     1
  3
CTABLESTYLE
350
328D
  3
DIMASSOC
350
328E
  3
PROJECTNAME
350
328F
  0
XRECORD
  5
288B
102
{ACAD_REACTORS
330
2278
102
}
330
2278
100
AcDbXrecord
280
     1
340
1E
  0
XRECORD
  5
288A
102
{ACAD_REACTORS
330
2276
102
}
330
2276
100
AcDbXrecord
280
     1
340
1A
  0
LAYOUT
  5
2B71
102
{ACAD_XDICTIONARY
360
3294
102
}
102
{ACAD_REACTORS
330
19
102
}
330
19
100
AcDbPlotSettings
  1

  2
\\ingdom02\ITB2
  4

  6

 40
0.0
 41
0.0
 42
0.0
 43
0.0
 44
0.0
 45
0.0
 46
0.0
 47
0.0
 48
0.0
 49
0.0
140
0.0
141
0.0
142
1.0
143
1.0
 70
   688
 72
     0
 73
     0
 74
     5
  7

 75
    16
147
1.0
148
0.0
149
0.0
100
AcDbLayout
  1
Layout1
 70
     1
 71
     1
 10
0.0
 20
0.0
 11
12.0
 21
9.0
 12
0.0
 22
0.0
 32
0.0
 14
100.0
 24
100.0
 34
100.0
 15
-100.0
 25
-100.0
 35
-100.0
146
0.0
 13
0.0
 23
0.0
 33
0.0
 16
1.0
 26
0.0
 36
0.0
 17
0.0
 27
1.0
 37
0.0
 76
     0
330
1A
  0
LAYOUT
  5
2B70
102
{ACAD_XDICTIONARY
360
3292
102
}
102
{ACAD_REACTORS
330
19
102
}
330
19
100
AcDbPlotSettings
  1

  2
\\ingdom02\ITB2
  4

  6

 40
0.0
 41
0.0
 42
0.0
 43
0.0
 44
0.0
 45
0.0
 46
0.0
 47
0.0
 48
0.0
 49
0.0
140
0.0
141
0.0
142
1.0
143
1.0
 70
  1712
 72
     0
 73
     0
 74
     0
  7

 75
     0
147
1.0
148
0.0
149
0.0
100
AcDbLayout
  1
Model
 70
     1
 71
     0
 10
0.0
 20
0.0
 11
12.0
 21
9.0
 12
0.0
 22
0.0
 32
0.0
 14
0.0
 24
0.0
 34
0.0
 15
0.0
 25
0.0
 35
0.0
146
0.0
 13
0.0
 23
0.0
 33
0.0
 16
1.0
 26
0.0
 36
0.0
 17
0.0
 27
1.0
 37
0.0
 76
     0
330
1E
  0
MLINESTYLE
  5
17
102
{ACAD_REACTORS
330
16
102
}
330
16
100
AcDbMlineStyle
  2
STANDARD
 70
     0
  3

 62
   256
 51
90.0
 52
90.0
 71
     2
 49
0.5
 62
   256
  6
BYLAYER
 49
-0.5
 62
   256
  6
BYLAYER
  0
ACDBPLACEHOLDER
  5
2B6F
102
{ACAD_REACTORS
330
2B6E
102
}
330
2B6E
  0
TABLESTYLE
  5
3281
102
{ACAD_REACTORS
330
3280
102
}
330
3280
100
AcDbTableStyle
  3
Standard
 70
     0
 71
     0
 40
0.06
 41
0.06
280
     0
281
     0
  7
STANDARD
140
0.18
170
     2
 62
     0
 63
     7
283
     0
274
    -2
284
     1
 64
     0
275
    -2
285
     1
 65
     0
276
    -2
286
     1
 66
     0
277
    -2
287
     1
 67
     0
278
    -2
288
     1
 68
     0
279
    -2
289
     1
 69
     0
  7
STANDARD
140
0.25
170
     5
 62
     0
 63
     7
283
     0
274
    -2
284
     1
 64
     0
275
    -2
285
     1
 65
     0
276
    -2
286
     1
 66
     0
277
    -2
287
     1
 67
     0
278
    -2
288
     1
 68
     0
279
    -2
289
     1
 69
     0
  7
STANDARD
140
0.18
170
     5
 62
     0
 63
     7
283
     0
274
    -2
284
     1
 64
     0
275
    -2
285
     1
 65
     0
276
    -2
286
     1
 66
     0
277
    -2
287
     1
 67
     0
278
    -2
288
     1
 68
     0
279
    -2
289
     1
 69
     0
  0
DICTIONARYVAR
  5
328D
102
{ACAD_REACTORS
330
328C
102
}
330
328C
100
DictionaryVariables
280
     0
  1
STANDARD
  0
DICTIONARYVAR
  5
328E
102
{ACAD_REACTORS
330
328C
102
}
330
328C
100
DictionaryVariables
280
     0
  1
1
  0
DICTIONARYVAR
  5
328F
102
{ACAD_REACTORS
330
328C
102
}
330
328C
100
DictionaryVariables
280
     0
  1

  0
DICTIONARY
  5
3294
330
2B71
100
AcDbDictionary
280
     1
281
     1
  3
ACAD_XREC_ROUNDTRIP
360
3295
  0
DICTIONARY
  5
3292
330
2B70
100
AcDbDictionary
280
     1
281
     1
  3
ACAD_XREC_ROUNDTRIP
360
3293
  0
XRECORD
  5
3295
102
{ACAD_REACTORS
330
3294
102
}
330
3294
100
AcDbXrecord
280
     1
102
SHADEPLOT
 70
     0
102
SHADEPLOTRESLEVEL
 70
     2
102
SHADEPLOTCUSTOMDPI
 70
   300
  0
XRECORD
  5
3293
102
{ACAD_REACTORS
330
3292
102
}
330
3292
100
AcDbXrecord
280
     1
102
SHADEPLOT
 70
     0
102
SHADEPLOTRESLEVEL
 70
     2
102
SHADEPLOTCUSTOMDPI
 70
   300
  0
ENDSEC
  0
EOF
