  0
SECTION
  2
HEADER
  9
$ACADVER
  1
AC1015
  9
$ACADMAINTVER
 70
    20
  9
$DWGCODEPAGE
  3
ANSI_1252
  9
$INSBASE
 10
0.0
 20
0.0
 30
0.0
  9
$EXTMIN
 10
-68.24537031111913
 20
-64.35136725966208
 30
-0.0015258207003583
  9
$EXTMAX
 10
61.39862371127264
 20
19.3679130575149
 30
0.0000000349246037
  9
$LIMMIN
 10
0.0
 20
0.0
  9
$LIMMAX
 10
594.0
 20
420.0
  9
$ORTHOMODE
 70
     0
  9
$REGENMODE
 70
     1
  9
$FILLMODE
 70
     1
  9
$QTEXTMODE
 70
     0
  9
$MIRRTEXT
 70
     1
  9
$LTSCALE
 40
10.0
  9
$ATTMODE
 70
     1
  9
$TEXTSIZE
 40
0.2
  9
$TRACEWID
 40
0.05
  9
$TEXTSTYLE
  7
STANDARD
  9
$CLAYER
  8
0
  9
$CELTYPE
  6
BYLAYER
  9
$CECOLOR
 62
   256
  9
$CELTSCALE
 40
1.0
  9
$DISPSILH
 70
     0
  9
$DIMSCALE
 40
1.0
  9
$DIMASZ
 40
2.5
  9
$DIMEXO
 40
3.712499999999999
  9
$DIMDLI
 40
22.572
  9
$DIMRND
 40
0.0
  9
$DIMDLE
 40
0.0
  9
$DIMEXE
 40
10.692
  9
$DIMTP
 40
0.01
  9
$DIMTM
 40
0.01
  9
$DIMTXT
 40
3.5
  9
$DIMCEN
 40
5.346
  9
$DIMTSZ
 40
0.0
  9
$DIMTOL
 70
     1
  9
$DIMLIM
 70
     0
  9
$DIMTIH
 70
     1
  9
$DIMTOH
 70
     1
  9
$DIMSE1
 70
     0
  9
$DIMSE2
 70
     0
  9
$DIMTAD
 70
     0
  9
$DIMZIN
 70
     0
  9
$DIMBLK
  1
_FILLED
  9
$DIMASO
 70
     1
  9
$DIMSHO
 70
     1
  9
$DIMPOST
  1

  9
$DIMAPOST
  1

  9
$DIMALT
 70
     0
  9
$DIMALTD
 70
     2
  9
$DIMALTF
 40
25.4
  9
$DIMLFAC
 40
1.0
  9
$DIMTOFL
 70
     0
  9
$DIMTVP
 40
0.0
  9
$DIMTIX
 70
     0
  9
$DIMSOXD
 70
     0
  9
$DIMSAH
 70
     0
  9
$DIMBLK1
  1

  9
$DIMBLK2
  1

  9
$DIMSTYLE
  2
STANDARD
  9
$DIMCLRD
 70
     0
  9
$DIMCLRE
 70
     0
  9
$DIMCLRT
 70
     0
  9
$DIMTFAC
 40
1.0
  9
$DIMGAP
 40
0.09
  9
$DIMJUST
 70
     0
  9
$DIMSD1
 70
     0
  9
$DIMSD2
 70
     0
  9
$DIMTOLJ
 70
     1
  9
$DIMTZIN
 70
     0
  9
$DIMALTZ
 70
     0
  9
$DIMALTTZ
 70
     0
  9
$DIMUPT
 70
     0
  9
$DIMDEC
 70
     4
  9
$DIMTDEC
 70
     4
  9
$DIMALTU
 70
     2
  9
$DIMALTTD
 70
     2
  9
$DIMTXSTY
  7
STANDARD
  9
$DIMAUNIT
 70
     0
  9
$DIMADEC
 70
     0
  9
$DIMALTRND
 40
0.0
  9
$DIMAZIN
 70
     0
  9
$DIMDSEP
 70
    46
  9
$DIMATFIT
 70
     3
  9
$DIMFRAC
 70
     0
  9
$DIMLDRBLK
  1
_FILLED
  9
$DIMLUNIT
 70
     2
  9
$DIMLWD
 70
    -2
  9
$DIMLWE
 70
    -2
  9
$DIMTMOVE
 70
     0
  9
$LUNITS
 70
     2
  9
$LUPREC
 70
     4
  9
$SKETCHINC
 40
0.1
  9
$FILLETRAD
 40
0.0
  9
$AUNITS
 70
     0
  9
$AUPREC
 70
     0
  9
$MENU
  1

  9
$ELEVATION
 40
0.0
  9
$PELEVATION
 40
0.0
  9
$THICKNESS
 40
0.0
  9
$LIMCHECK
 70
     0
  9
$CHAMFERA
 40
0.0
  9
$CHAMFERB
 40
0.0
  9
$CHAMFERC
 40
0.0
  9
$CHAMFERD
 40
0.0
  9
$SKPOLY
 70
     0
  9
$TDCREATE
 40
2453413.519415405
  9
$TDUCREATE
 40
2453413.436082072
  9
$TDUPDATE
 40
2453909.292264432
  9
$TDUUPDATE
 40
2453909.208931100
  9
$TDINDWG
 40
0.0398540278
  9
$TDUSRTIMER
 40
0.0326150694
  9
$USRTIMER
 70
     1
  9
$ANGBASE
 50
0.0
  9
$ANGDIR
 70
     0
  9
$PDMODE
 70
     0
  9
$PDSIZE
 40
0.3125
  9
$PLINEWID
 40
0.0
  9
$SPLFRAME
 70
     0
  9
$SPLINETYPE
 70
     6
  9
$SPLINESEGS
 70
     8
  9
$HANDSEED
  5
3328
  9
$SURFTAB1
 70
     6
  9
$SURFTAB2
 70
     6
  9
$SURFTYPE
 70
     6
  9
$SURFU
 70
     6
  9
$SURFV
 70
     6
  9
$UCSBASE
  2

  9
$UCSNAME
  2

  9
$UCSORG
 10
0.0
 20
0.0
 30
0.0
  9
$UCSXDIR
 10
1.0
 20
0.0
 30
0.0
  9
$UCSYDIR
 10
0.0
 20
1.0
 30
0.0
  9
$UCSORTHOREF
  2

  9
$UCSORTHOVIEW
 70
     0
  9
$UCSORGTOP
 10
0.0
 20
0.0
 30
0.0
  9
$UCSORGBOTTOM
 10
0.0
 20
0.0
 30
0.0
  9
$UCSORGLEFT
 10
0.0
 20
0.0
 30
0.0
  9
$UCSORGRIGHT
 10
0.0
 20
0.0
 30
0.0
  9
$UCSORGFRONT
 10
0.0
 20
0.0
 30
0.0
  9
$UCSORGBACK
 10
0.0
 20
0.0
 30
0.0
  9
$PUCSBASE
  2

  9
$PUCSNAME
  2

  9
$PUCSORG
 10
0.0
 20
0.0
 30
0.0
  9
$PUCSXDIR
 10
1.0
 20
0.0
 30
0.0
  9
$PUCSYDIR
 10
0.0
 20
1.0
 30
0.0
  9
$PUCSORTHOREF
  2

  9
$PUCSORTHOVIEW
 70
     0
  9
$PUCSORGTOP
 10
0.0
 20
0.0
 30
0.0
  9
$PUCSORGBOTTOM
 10
0.0
 20
0.0
 30
0.0
  9
$PUCSORGLEFT
 10
0.0
 20
0.0
 30
0.0
  9
$PUCSORGRIGHT
 10
0.0
 20
0.0
 30
0.0
  9
$PUCSORGFRONT
 10
0.0
 20
0.0
 30
0.0
  9
$PUCSORGBACK
 10
0.0
 20
0.0
 30
0.0
  9
$USERI1
 70
     0
  9
$USERI2
 70
     0
  9
$USERI3
 70
     0
  9
$USERI4
 70
     0
  9
$USERI5
 70
     0
  9
$USERR1
 40
0.0
  9
$USERR2
 40
0.0
  9
$USERR3
 40
0.0
  9
$USERR4
 40
0.0
  9
$USERR5
 40
0.0
  9
$WORLDVIEW
 70
     1
  9
$SHADEDGE
 70
     3
  9
$SHADEDIF
 70
    70
  9
$TILEMODE
 70
     1
  9
$MAXACTVP
 70
    64
  9
$PINSBASE
 10
0.0
 20
0.0
 30
0.0
  9
$PLIMCHECK
 70
     0
  9
$PEXTMIN
 10
100.0
 20
100.0
 30
100.0
  9
$PEXTMAX
 10
-100.0
 20
-100.0
 30
-100.0
  9
$PLIMMIN
 10
0.0
 20
0.0
  9
$PLIMMAX
 10
12.0
 20
9.0
  9
$UNITMODE
 70
     0
  9
$VISRETAIN
 70
     1
  9
$PLINEGEN
 70
     1
  9
$PSLTSCALE
 70
     1
  9
$TREEDEPTH
 70
  3020
  9
$CMLSTYLE
  2
STANDARD
  9
$CMLJUST
 70
     0
  9
$CMLSCALE
 40
1.0
  9
$PROXYGRAPHICS
 70
     1
  9
$MEASUREMENT
 70
     0
  9
$CELWEIGHT
370
    -1
  9
$ENDCAPS
280
     0
  9
$JOINSTYLE
280
     0
  9
$LWDISPLAY
290
     0
  9
$INSUNITS
 70
     0
  9
$HYPERLINKBASE
  1

  9
$STYLESHEET
  1

  9
$XEDIT
290
     1
  9
$CEPSNTYPE
380
     0
  9
$PSTYLEMODE
290
     1
  9
$FINGERPRINTGUID
  2
{768B4D40-8578-4A70-A94D-DAF3240EE6F1}
  9
$VERSIONGUID
  2
{E703D67D-6679-4D44-8314-A04DF8972EF3}
  9
$EXTNAMES
290
     1
  9
$PSVPSCALE
 40
0.0
  9
$OLESTARTUP
290
     0
  0
ENDSEC
  0
SECTION
  2
CLASSES
  0
CLASS
  1
ACDBDICTIONARYWDFLT
  2
AcDbDictionaryWithDefault
  3
ObjectDBX Classes
 90
        0
280
     0
281
     0
  0
CLASS
  1
ACDBPLACEHOLDER
  2
AcDbPlaceHolder
  3
ObjectDBX Classes
 90
        0
280
     0
281
     0
  0
CLASS
  1
LAYOUT
  2
AcDbLayout
  3
ObjectDBX Classes
 90
        0
280
     0
281
     0
  0
CLASS
  1
TABLESTYLE
  2
AcDbTableStyle
  3
ObjectDBX Classes
 90
     2047
280
     0
281
     0
  0
CLASS
  1
DICTIONARYVAR
  2
AcDbDictionaryVar
  3
ObjectDBX Classes
 90
        0
280
     0
281
     0
  0
ENDSEC
  0
SECTION
  2
TABLES
  0
TABLE
  2
VPORT
  5
8
330
0
100
AcDbSymbolTable
 70
     2
  0
VPORT
  5
3322
330
8
100
AcDbSymbolTableRecord
100
AcDbViewportTableRecord
  2
*Active
 70
     0
 10
0.0
 20
0.0
 11
1.0
 21
1.0
 12
-3.423373299923241
 22
-22.49172710107359
 13
0.0
 23
0.0
 14
1.0
 24
1.0
 15
0.0
 25
0.0
 16
0.0
 26
0.0
 36
1.0
 17
0.0
 27
0.0
 37
0.0
 40
85.02221407986818
 41
1.532401524777636
 42
50.0
 43
0.0
 44
0.0
 50
0.0
 51
0.0
 71
     0
 72
   100
 73
     1
 74
     1
 75
     0
 76
     0
 77
     0
 78
     0
281
     0
 65
     1
110
0.0
120
0.0
130
0.0
111
1.0
121
0.0
131
0.0
112
0.0
122
1.0
132
0.0
 79
     0
146
0.0
  0
ENDTAB
  0
TABLE
  2
LTYPE
  5
5
330
0
100
AcDbSymbolTable
 70
     2
  0
LTYPE
  5
13
330
5
100
AcDbSymbolTableRecord
100
AcDbLinetypeTableRecord
  2
BYBLOCK
 70
     0
  3

 72
    65
 73
     0
 40
0.0
  0
LTYPE
  5
14
330
5
100
AcDbSymbolTableRecord
100
AcDbLinetypeTableRecord
  2
BYLAYER
 70
     0
  3

 72
    65
 73
     0
 40
0.0
  0
LTYPE
  5
15
330
5
100
AcDbSymbolTableRecord
100
AcDbLinetypeTableRecord
  2
CONTINUOUS
 70
     0
  3
Solid line
 72
    65
 73
     0
 40
0.0
  0
LTYPE
  5
2E
330
5
100
AcDbSymbolTableRecord
100
AcDbLinetypeTableRecord
  2
CENTER
 70
     0
  3
____ _ ____ _ ____ _ ____ _ ____ _ ____ _ ____
 72
    65
 73
     4
 40
0.6
 49
0.375
 74
     0
 49
-0.075
 74
     0
 49
0.075
 74
     0
 49
-0.075
 74
     0
  0
ENDTAB
  0
TABLE
  2
LAYER
  5
2
330
0
100
AcDbSymbolTable
 70
    11
  0
LAYER
  5
10
330
2
100
AcDbSymbolTableRecord
100
AcDbLayerTableRecord
  2
1
 70
     0
 62
     4
  6
CONTINUOUS
370
    -3
390
27F8
  0
LAYER
  5
31
330
2
100
AcDbSymbolTableRecord
100
AcDbLayerTableRecord
  2
2
 70
     0
 62
     7
  6
CONTINUOUS
370
    -3
390
27F8
  0
LAYER
  5
33
330
2
100
AcDbSymbolTableRecord
100
AcDbLayerTableRecord
  2
4
 70
     0
 62
     2
  6
CENTER
370
    -3
390
27F8
  0
LAYER
  5
36
330
2
100
AcDbSymbolTableRecord
100
AcDbLayerTableRecord
  2
0
 70
     0
 62
     7
  6
CONTINUOUS
370
    -3
390
27F8
  0
LAYER
  5
37
330
2
100
AcDbSymbolTableRecord
100
AcDbLayerTableRecord
  2
DEFPOINTS
 70
     0
 62
     7
  6
CONTINUOUS
290
     0
370
    -3
390
27F8
  0
LAYER
  5
9AC
330
2
100
AcDbSymbolTableRecord
100
AcDbLayerTableRecord
  2
SK1
 70
     0
 62
     4
  6
CONTINUOUS
370
    -3
390
27F8
  0
LAYER
  5
9AD
330
2
100
AcDbSymbolTableRecord
100
AcDbLayerTableRecord
  2
SK4
 70
     0
 62
     2
  6
CENTER
370
    -3
390
27F8
  0
LAYER
  5
9AF
330
2
100
AcDbSymbolTableRecord
100
AcDbLayerTableRecord
  2
SK2
 70
     0
 62
     7
  6
CONTINUOUS
370
    -3
390
27F8
  0
LAYER
  5
2C7A
330
2
100
AcDbSymbolTableRecord
100
AcDbLayerTableRecord
  2
6
 70
     0
 62
     5
  6
CONTINUOUS
370
    -3
390
27F8
  0
LAYER
  5
2C7B
330
2
100
AcDbSymbolTableRecord
100
AcDbLayerTableRecord
  2
CUT
 70
     0
 62
     1
  6
CONTINUOUS
370
    -3
390
27F8
  0
LAYER
  5
2C7C
330
2
100
AcDbSymbolTableRecord
100
AcDbLayerTableRecord
  2
NOCUT
 70
     0
 62
     7
  6
CONTINUOUS
370
    -3
390
27F8
  0
ENDTAB
  0
TABLE
  2
STYLE
  5
3
330
0
100
AcDbSymbolTable
 70
     1
  0
STYLE
  5
11
330
3
100
AcDbSymbolTableRecord
100
AcDbTextStyleTableRecord
  2
STANDARD
 70
     0
 40
0.0
 41
0.8
 50
0.0
 71
     0
 42
0.2
  3
isocp.shx
  4

  0
ENDTAB
  0
TABLE
  2
VIEW
  5
6
330
0
100
AcDbSymbolTable
 70
     0
  0
ENDTAB
  0
TABLE
  2
UCS
  5
7
330
0
100
AcDbSymbolTable
 70
     0
  0
ENDTAB
  0
TABLE
  2
APPID
  5
9
330
0
100
AcDbSymbolTable
 70
     1
  0
APPID
  5
12
330
9
100
AcDbSymbolTableRecord
100
AcDbRegAppTableRecord
  2
ACAD
 70
     0
  0
ENDTAB
  0
TABLE
  2
DIMSTYLE
  5
A
330
0
100
AcDbSymbolTable
 70
     2
100
AcDbDimStyleTable
 71
     0
  0
DIMSTYLE
105
30
330
A
100
AcDbSymbolTableRecord
100
AcDbDimStyleTableRecord
  2
STANDARD
 70
     0
340
11
  0
DIMSTYLE
105
9B0
102
{ACAD_REACTORS
330
8E
330
51A
330
8A
330
521
330
8B
102
}
330
A
100
AcDbSymbolTableRecord
100
AcDbDimStyleTableRecord
  2
ISO-25
 70
     0
 41
2.5
 42
0.625
 43
3.75
 44
1.25
 73
     0
 74
     0
 77
     1
 78
     8
140
2.5
141
2.5
143
0.03937007874016
147
0.625
171
     3
172
     1
271
     2
272
     2
274
     3
283
     0
284
     8
340
11
  0
ENDTAB
  0
TABLE
  2
BLOCK_RECORD
  5
1
330
0
100
AcDbSymbolTable
 70
     6
  0
BLOCK_RECORD
  5
1E
102
{ACAD_XDICTIONARY
360
1F01
102
}
330
1
100
AcDbSymbolTableRecord
100
AcDbBlockTableRecord
  2
*MODEL_SPACE
340
27F9
  0
BLOCK_RECORD
  5
1A
102
{ACAD_XDICTIONARY
360
1EFF
102
}
330
1
100
AcDbSymbolTableRecord
100
AcDbBlockTableRecord
  2
*PAPER_SPACE
340
27FA
  0
BLOCK_RECORD
  5
23
330
1
100
AcDbSymbolTableRecord
100
AcDbBlockTableRecord
  2
_FILLED
340
0
  0
BLOCK_RECORD
  5
A9E
330
1
100
AcDbSymbolTableRecord
100
AcDbBlockTableRecord
  2
*D1
340
0
  0
BLOCK_RECORD
  5
AAA
330
1
100
AcDbSymbolTableRecord
100
AcDbBlockTableRecord
  2
*D2
340
0
  0
BLOCK_RECORD
  5
AB6
330
1
100
AcDbSymbolTableRecord
100
AcDbBlockTableRecord
  2
*D3
340
0
  0
BLOCK_RECORD
  5
AC2
330
1
100
AcDbSymbolTableRecord
100
AcDbBlockTableRecord
  2
*D4
340
0
  0
BLOCK_RECORD
  5
ACE
330
1
100
AcDbSymbolTableRecord
100
AcDbBlockTableRecord
  2
*D5
340
0
  0
ENDTAB
  0
ENDSEC
  0
SECTION
  2
BLOCKS
  0
BLOCK
  5
3A
330
1E
100
AcDbEntity
  8
0
100
AcDbBlockBegin
  2
*MODEL_SPACE
 70
     0
 10
0.0
 20
0.0
 30
0.0
  3
*MODEL_SPACE
  1

  0
ENDBLK
  5
3B
330
1E
100
AcDbEntity
  8
0
100
AcDbBlockEnd
  0
BLOCK
  5
38
330
1A
100
AcDbEntity
 67
     1
  8
0
100
AcDbBlockBegin
  2
*PAPER_SPACE
 70
     0
 10
0.0
 20
0.0
 30
0.0
  3
*PAPER_SPACE
  1

  0
ENDBLK
  5
39
330
1A
100
AcDbEntity
 67
     1
  8
0
100
AcDbBlockEnd
  0
BLOCK
  5
3E
330
23
100
AcDbEntity
  8
0
100
AcDbBlockBegin
  2
_FILLED
 70
     0
 10
0.0
 20
0.0
 30
0.0
  3
_FILLED
  1

  0
SOLID
  5
3F
330
23
100
AcDbEntity
  8
0
  6
ByBlock
 62
     0
100
AcDbTrace
 10
0.0
 20
0.0
 30
0.0
 11
-1.0
 21
0.132
 31
0.0
 12
-1.0
 22
-0.132
 32
0.0
 13
-1.0
 23
-0.132
 33
0.0
  0
ENDBLK
  5
40
330
23
100
AcDbEntity
  8
0
100
AcDbBlockEnd
  0
BLOCK
  5
AA8
330
A9E
100
AcDbEntity
  8
0
100
AcDbBlockBegin
  2
*D1
 70
     1
 10
0.0
 20
0.0
 30
0.0
  3
*D1
  1

  0
LINE
  5
2828
330
A9E
100
AcDbEntity
  8
SK2
 62
     0
370
    -2
100
AcDbLine
 10
-49.42499999999999
 20
-9.999999999999994
 30
0.0
 11
-66.35016234483055
 21
-9.999999999999987
 31
0.0
  0
LINE
  5
2829
330
A9E
100
AcDbEntity
  8
SK2
 62
     0
370
    -2
100
AcDbLine
 10
-49.42499999999999
 20
10.0
 30
0.0
 11
-66.35016234483055
 21
10.0
 31
0.0
  0
LINE
  5
282A
330
A9E
100
AcDbEntity
  8
SK2
 62
     0
370
    -2
100
AcDbLine
 10
-65.10016234483055
 20
-7.499999999999986
 30
0.0
 11
-65.10016234483055
 21
7.500000000000007
 31
0.0
  0
SOLID
  5
282B
330
A9E
100
AcDbEntity
  8
SK2
 62
     0
100
AcDbTrace
 10
-65.51682901149722
 20
-7.499999999999986
 30
0.0
 11
-64.68349567816388
 21
-7.499999999999986
 31
0.0
 12
-65.10016234483055
 22
-9.999999999999987
 32
0.0
 13
-65.10016234483055
 23
-9.999999999999987
 33
0.0
  0
SOLID
  5
282C
330
A9E
100
AcDbEntity
  8
SK2
 62
     0
100
AcDbTrace
 10
-65.51682901149722
 20
7.500000000000007
 30
0.0
 11
-64.68349567816388
 21
7.500000000000007
 31
0.0
 12
-65.10016234483055
 22
10.0
 32
0.0
 13
-65.10016234483055
 23
10.0
 33
0.0
  0
MTEXT
  5
282D
330
A9E
100
AcDbEntity
  8
SK2
 62
     0
100
AcDbMText
 10
-66.97516234483055
 20
-0.0988907062544715
 30
0.0
 40
2.5
 41
0.0
 71
     5
 72
     1
  1
%%c20
 11
0.0000000000000001
 21
1.0
 31
0.0
 73
     1
 44
1.0
1001
ACAD
1000
MTEXTBEGIN
1070
    73
1070
     1
1070
    44
1040
1.0
1070
    74
1070
     0
1000
MTEXTEND
  0
POINT
  5
282E
330
A9E
100
AcDbEntity
  8
DEFPOINTS
 62
     0
100
AcDbPoint
 10
-48.79999999999999
 20
-9.999999999999994
 30
0.0
  0
POINT
  5
282F
330
A9E
100
AcDbEntity
  8
DEFPOINTS
 62
     0
100
AcDbPoint
 10
-48.79999999999999
 20
10.0
 30
0.0
  0
POINT
  5
2830
330
A9E
100
AcDbEntity
  8
DEFPOINTS
 62
     0
100
AcDbPoint
 10
-65.10016234483055
 20
10.0
 30
0.0
  0
ENDBLK
  5
AA9
330
A9E
100
AcDbEntity
  8
0
100
AcDbBlockEnd
  0
BLOCK
  5
AB4
330
AAA
100
AcDbEntity
  8
0
100
AcDbBlockBegin
  2
*D2
 70
     1
 10
0.0
 20
0.0
 30
0.0
  3
*D2
  1

  0
LINE
  5
283A
330
AAA
100
AcDbEntity
  8
SK2
 62
     0
370
    -2
100
AcDbLine
 10
-25.0
 20
-6.348635208499985
 30
0.0
 11
-25.0
 21
-37.73743545674482
 31
0.0
  0
LINE
  5
283B
330
AAA
100
AcDbEntity
  8
SK2
 62
     0
370
    -2
100
AcDbLine
 10
40.0
 20
-0.6250000000000049
 30
0.0
 11
40.0
 21
-37.73743545674483
 31
0.0
  0
LINE
  5
283C
330
AAA
100
AcDbEntity
  8
SK2
 62
     0
370
    -2
100
AcDbLine
 10
-22.5
 20
-36.48743545674483
 30
0.0
 11
37.5
 21
-36.48743545674483
 31
0.0
  0
SOLID
  5
283D
330
AAA
100
AcDbEntity
  8
SK2
 62
     0
100
AcDbTrace
 10
-22.5
 20
-36.07076879007815
 30
0.0
 11
-22.5
 21
-36.90410212341149
 31
0.0
 12
-25.0
 22
-36.48743545674483
 32
0.0
 13
-25.0
 23
-36.48743545674483
 33
0.0
  0
SOLID
  5
283E
330
AAA
100
AcDbEntity
  8
SK2
 62
     0
100
AcDbTrace
 10
37.5
 20
-36.07076879007815
 30
0.0
 11
37.5
 21
-36.90410212341149
 31
0.0
 12
40.0
 22
-36.48743545674483
 32
0.0
 13
40.0
 23
-36.48743545674483
 33
0.0
  0
MTEXT
  5
283F
330
AAA
100
AcDbEntity
  8
SK2
 62
     0
100
AcDbMText
 10
7.499999999999996
 20
-34.61243545674483
 30
0.0
 40
2.5
 41
0.0
 71
     5
 72
     1
  1
65
 73
     1
 44
1.0
1001
ACAD
1000
MTEXTBEGIN
1070
    73
1070
     1
1070
    44
1040
1.0
1070
    74
1070
     0
1000
MTEXTEND
  0
POINT
  5
2840
330
AAA
100
AcDbEntity
  8
DEFPOINTS
 62
     0
100
AcDbPoint
 10
-25.0
 20
-5.723635208499985
 30
0.0
  0
POINT
  5
2841
330
AAA
100
AcDbEntity
  8
DEFPOINTS
 62
     0
100
AcDbPoint
 10
40.0
 20
-0.0000000000000049
 30
0.0
  0
POINT
  5
2842
330
AAA
100
AcDbEntity
  8
DEFPOINTS
 62
     0
100
AcDbPoint
 10
40.0
 20
-36.48743545674483
 30
0.0
  0
ENDBLK
  5
AB5
330
AAA
100
AcDbEntity
  8
0
100
AcDbBlockEnd
  0
BLOCK
  5
AC0
330
AB6
100
AcDbEntity
  8
0
100
AcDbBlockBegin
  2
*D3
 70
     1
 10
0.0
 20
0.0
 30
0.0
  3
*D3
  1

  0
LINE
  5
2831
330
AB6
100
AcDbEntity
  8
SK2
 62
     0
370
    -2
100
AcDbLine
 10
40.0
 20
-5.188438489946411
 30
0.0
 11
40.0
 21
-47.74311885466363
 31
0.0
  0
LINE
  5
2832
330
AB6
100
AcDbEntity
  8
SK2
 62
     0
370
    -2
100
AcDbLine
 10
-50.0
 20
-12.55483326116641
 30
0.0
 11
-50.0
 21
-47.74311885466363
 31
0.0
  0
LINE
  5
2833
330
AB6
100
AcDbEntity
  8
SK2
 62
     0
370
    -2
100
AcDbLine
 10
37.5
 20
-46.49311885466363
 30
0.0
 11
-47.5
 21
-46.49311885466363
 31
0.0
  0
SOLID
  5
2834
330
AB6
100
AcDbEntity
  8
SK2
 62
     0
100
AcDbTrace
 10
37.5
 20
-46.07645218799695
 30
0.0
 11
37.5
 21
-46.90978552133029
 31
0.0
 12
40.0
 22
-46.49311885466363
 32
0.0
 13
40.0
 23
-46.49311885466363
 33
0.0
  0
SOLID
  5
2835
330
AB6
100
AcDbEntity
  8
SK2
 62
     0
100
AcDbTrace
 10
-47.5
 20
-46.07645218799695
 30
0.0
 11
-47.5
 21
-46.90978552133029
 31
0.0
 12
-50.0
 22
-46.49311885466363
 32
0.0
 13
-50.0
 23
-46.49311885466363
 33
0.0
  0
MTEXT
  5
2836
330
AB6
100
AcDbEntity
  8
SK2
 62
     0
100
AcDbMText
 10
-7.237790677944079
 20
-44.61811885466363
 30
0.0
 40
2.5
 41
0.0
 71
     5
 72
     1
  1
90
 73
     1
 44
1.0
1001
ACAD
1000
MTEXTBEGIN
1070
    73
1070
     1
1070
    44
1040
1.0
1070
    74
1070
     0
1000
MTEXTEND
  0
POINT
  5
2837
330
AB6
100
AcDbEntity
  8
DEFPOINTS
 62
     0
100
AcDbPoint
 10
40.0
 20
-4.563438489946411
 30
0.0
  0
POINT
  5
2838
330
AB6
100
AcDbEntity
  8
DEFPOINTS
 62
     0
100
AcDbPoint
 10
-50.0
 20
-11.9298332611664
 30
0.0
  0
POINT
  5
2839
330
AB6
100
AcDbEntity
  8
DEFPOINTS
 62
     0
100
AcDbPoint
 10
-50.0
 20
-46.49311885466363
 30
0.0
  0
ENDBLK
  5
AC1
330
AB6
100
AcDbEntity
  8
0
100
AcDbBlockEnd
  0
BLOCK
  5
ACC
330
AC2
100
AcDbEntity
  8
0
100
AcDbBlockBegin
  2
*D4
 70
     1
 10
0.0
 20
0.0
 30
0.0
  3
*D4
  1

  0
LINE
  5
2843
330
AC2
100
AcDbEntity
  8
2
 62
     0
370
    -2
100
AcDbLine
 10
-0.0000000000000282
 20
-12.05921645142143
 30
0.0
 11
-0.0000000000000291
 21
-26.16521391452454
 31
0.0
  0
LINE
  5
2844
330
AC2
100
AcDbEntity
  8
2
 62
     0
370
    -2
100
AcDbLine
 10
40.0
 20
-0.6250000000000049
 30
0.0
 11
40.0
 21
-26.16521391452454
 31
0.0
  0
LINE
  5
2845
330
AC2
100
AcDbEntity
  8
2
 62
     0
370
    -2
100
AcDbLine
 10
2.49999999999997
 20
-24.91521391452454
 30
0.0
 11
37.5
 21
-24.91521391452454
 31
0.0
  0
SOLID
  5
2846
330
AC2
100
AcDbEntity
  8
2
 62
     0
100
AcDbTrace
 10
2.49999999999997
 20
-24.49854724785787
 30
0.0
 11
2.49999999999997
 21
-25.33188058119121
 31
0.0
 12
-0.000000000000029
 22
-24.91521391452454
 32
0.0
 13
-0.000000000000029
 23
-24.91521391452454
 33
0.0
  0
SOLID
  5
2847
330
AC2
100
AcDbEntity
  8
2
 62
     0
100
AcDbTrace
 10
37.5
 20
-24.49854724785787
 30
0.0
 11
37.5
 21
-25.33188058119121
 31
0.0
 12
40.0
 22
-24.91521391452454
 32
0.0
 13
40.0
 23
-24.91521391452454
 33
0.0
  0
MTEXT
  5
2848
330
AC2
100
AcDbEntity
  8
2
 62
     0
100
AcDbMText
 10
19.99999999999998
 20
-23.04021391452454
 30
0.0
 40
2.5
 41
0.0
 71
     5
 72
     1
  1
40
 73
     1
 44
1.0
1001
ACAD
1000
MTEXTBEGIN
1070
    73
1070
     1
1070
    44
1040
1.0
1070
    74
1070
     0
1000
MTEXTEND
  0
POINT
  5
2849
330
AC2
100
AcDbEntity
  8
DEFPOINTS
 62
     0
100
AcDbPoint
 10
-0.0000000000000282
 20
-11.43421645142143
 30
0.0
  0
POINT
  5
284A
330
AC2
100
AcDbEntity
  8
DEFPOINTS
 62
     0
100
AcDbPoint
 10
40.0
 20
-0.0000000000000049
 30
0.0
  0
POINT
  5
284B
330
AC2
100
AcDbEntity
  8
DEFPOINTS
 62
     0
100
AcDbPoint
 10
40.0
 20
-24.91521391452454
 30
0.0
  0
ENDBLK
  5
ACD
330
AC2
100
AcDbEntity
  8
0
100
AcDbBlockEnd
  0
BLOCK
  5
AD8
330
ACE
100
AcDbEntity
  8
0
100
AcDbBlockBegin
  2
*D5
 70
     1
 10
0.0
 20
0.0
 30
0.0
  3
*D5
  1

  0
LINE
  5
284C
330
ACE
100
AcDbEntity
  8
2
 62
     0
370
    -2
100
AcDbLine
 10
40.625
 20
9.999999999999994
 30
0.0
 11
56.28332764828292
 21
9.999999999999987
 31
0.0
  0
LINE
  5
284D
330
ACE
100
AcDbEntity
  8
2
 62
     0
370
    -2
100
AcDbLine
 10
40.625
 20
-10.0
 30
0.0
 11
56.28332764828292
 21
-10.0
 31
0.0
  0
LINE
  5
284E
330
ACE
100
AcDbEntity
  8
2
 62
     0
370
    -2
100
AcDbLine
 10
55.03332764828292
 20
7.499999999999986
 30
0.0
 11
55.03332764828292
 21
-7.500000000000007
 31
0.0
  0
SOLID
  5
284F
330
ACE
100
AcDbEntity
  8
2
 62
     0
100
AcDbTrace
 10
54.61666098161625
 20
7.499999999999986
 30
0.0
 11
55.44999431494957
 21
7.499999999999986
 31
0.0
 12
55.03332764828292
 22
9.999999999999987
 32
0.0
 13
55.03332764828292
 23
9.999999999999987
 33
0.0
  0
SOLID
  5
2850
330
ACE
100
AcDbEntity
  8
2
 62
     0
100
AcDbTrace
 10
54.61666098161625
 20
-7.500000000000007
 30
0.0
 11
55.44999431494957
 21
-7.500000000000007
 31
0.0
 12
55.03332764828292
 22
-10.0
 32
0.0
 13
55.03332764828292
 23
-10.0
 33
0.0
  0
MTEXT
  5
2851
330
ACE
100
AcDbEntity
  8
2
 62
     0
100
AcDbMText
 10
53.15832764828292
 20
0.0894418356000066
 30
0.0
 40
2.5
 41
0.0
 71
     5
 72
     1
  1
%%c20
 11
0.0000000000000001
 21
1.0
 31
0.0
 73
     1
 44
1.0
1001
ACAD
1000
MTEXTBEGIN
1070
    73
1070
     1
1070
    44
1040
1.0
1070
    74
1070
     0
1000
MTEXTEND
  0
POINT
  5
2852
330
ACE
100
AcDbEntity
  8
DEFPOINTS
 62
     0
100
AcDbPoint
 10
40.0
 20
9.999999999999994
 30
0.0
  0
POINT
  5
2853
330
ACE
100
AcDbEntity
  8
DEFPOINTS
 62
     0
100
AcDbPoint
 10
40.0
 20
-10.0
 30
0.0
  0
POINT
  5
2854
330
ACE
100
AcDbEntity
  8
DEFPOINTS
 62
     0
100
AcDbPoint
 10
55.03332764828292
 20
-10.0
 30
0.0
  0
ENDBLK
  5
AD9
330
ACE
100
AcDbEntity
  8
0
100
AcDbBlockEnd
  0
ENDSEC
  0
SECTION
  2
ENTITIES
  0
DIMENSION
  5
8A
330
1E
100
AcDbEntity
  8
SK2
100
AcDbDimension
  2
*D3
 10
-50.0
 20
-46.49311885466363
 30
0.0
 11
-7.237790677944079
 21
-46.49311885466363
 31
0.0
 70
   160
 71
     5
 42
90.0
  3
ISO-25
100
AcDbAlignedDimension
 13
40.0
 23
-4.563438489946411
 33
0.0
 14
-50.0
 24
-11.9298332611664
 34
0.0
 50
180.0
100
AcDbRotatedDimension
  0
DIMENSION
  5
8B
330
1E
100
AcDbEntity
  8
2
100
AcDbDimension
  2
*D5
 10
55.03332764828292
 20
-10.0
 30
0.0
 11
55.03332764828292
 21
0.0894418356000064
 31
0.0
 70
   160
  1
%%c<>
 71
     5
 42
20.0
  3
ISO-25
100
AcDbAlignedDimension
 13
40.0
 23
9.999999999999994
 33
0.0
 14
40.0
 24
-10.0
 34
0.0
 50
270.0
100
AcDbRotatedDimension
  0
DIMENSION
  5
8E
330
1E
100
AcDbEntity
  8
SK2
100
AcDbDimension
  2
*D1
 10
-65.10016234483055
 20
10.0
 30
0.0
 11
-65.10016234483055
 21
-0.0988907062544718
 31
0.0
 70
   160
  1
%%c<>
 71
     5
 42
20.0
  3
ISO-25
100
AcDbAlignedDimension
 13
-48.79999999999999
 23
-9.999999999999994
 33
0.0
 14
-48.79999999999999
 24
10.0
 34
0.0
 50
89.99999999999998
100
AcDbRotatedDimension
  0
LINE
  5
8F
330
1E
100
AcDbEntity
  8
1
100
AcDbLine
 10
39.0
 20
-4.540475997299983
 30
0.0
 11
39.0
 21
-3.103420435599963
 31
0.0
  0
LINE
  5
91
330
1E
100
AcDbEntity
  8
1
100
AcDbLine
 10
32.03394201
 20
-7.806626818399994
 30
0.0
 11
32.03394201
 21
1.500356450699995
 31
0.0
  0
LINE
  5
93
330
1E
100
AcDbEntity
  8
1
100
AcDbLine
 10
0.7517263135999884
 20
-8.92642356369998
 30
0.0
 11
0.2985849937999776
 21
-9.573576436399966
 31
0.0
  0
LINE
  5
94
330
1E
100
AcDbEntity
  8
SK1
100
AcDbLine
 10
-0.5205670505000032
 20
10.0
 30
0.0
 11
-48.79999999999999
 21
10.0
 31
0.0
  0
LINE
  5
95
330
1E
100
AcDbEntity
  8
1
100
AcDbLine
 10
0.7517263135999907
 20
8.926423563600025
 30
0.0
 11
0.29858499379998
 21
9.573576436300019
 31
0.0
  0
LINE
  5
96
330
1E
100
AcDbEntity
  8
1
100
AcDbLine
 10
1.570878357899998
 20
-8.5
 30
0.0
 11
1.570878357900001
 21
8.5
 31
0.0
  0
LINE
  5
98
330
1E
100
AcDbEntity
  8
1
100
AcDbLine
 10
30.7700547591
 20
8.499999999999996
 30
0.0
 11
1.570878357900001
 21
8.5
 31
0.0
  0
LINE
  5
99
330
1E
100
AcDbEntity
  8
1
100
AcDbLine
 10
31.45640739
 20
8.499917391399996
 30
0.0
 11
31.0353881823
 21
8.499917391399996
 31
0.0
  0
LINE
  5
9A
330
1E
100
AcDbEntity
  8
1
100
AcDbLine
 10
30.7700547591
 20
8.496682050100014
 30
0.0
 11
21.0030719638
 21
8.496682050100016
 31
0.0
  0
LINE
  5
9C
330
1E
100
AcDbEntity
  8
SK1
100
AcDbLine
 10
-0.5205670505000032
 20
10.0
 30
0.0
 11
-0.5205670505000059
 21
-10.0
 31
0.0
  0
LINE
  5
9D
330
1E
100
AcDbEntity
  8
SK1
100
AcDbLine
 10
-19.49999999999999
 20
5.723635208500041
 30
0.0
 11
-30.49999999999998
 21
5.723635208500042
 31
0.0
  0
LINE
  5
9F
330
1E
100
AcDbEntity
  8
1
100
AcDbLine
 10
34.015724
 20
1.500356450699995
 30
0.0
 11
30.015724
 21
1.500356450699995
 31
0.0
  0
LINE
  5
A0
330
1E
100
AcDbEntity
  8
4
100
AcDbLine
 10
40.56006448571202
 20
-0.0000000000000065
 30
0.0
 11
0.0984499754099506
 21
0.0
 31
0.0
  0
LINE
  5
A1
330
1E
100
AcDbEntity
  8
SK1
100
AcDbLine
 10
-19.49999999999999
 20
-5.723635208499985
 30
0.0
 11
-30.49999999999998
 21
-5.723635208499985
 31
0.0
  0
LINE
  5
A2
330
1E
100
AcDbEntity
  8
1
100
AcDbLine
 10
32.03394201
 20
-7.806626818399994
 30
0.0
 11
31.7576806266
 21
-7.806626818399994
 31
0.0
  0
LINE
  5
A3
330
1E
100
AcDbEntity
  8
1
100
AcDbLine
 10
31.5868051731
 20
-8.500000000000001
 30
0.0
 11
1.570878357899998
 21
-8.5
 31
0.0
  0
LINE
  5
A4
330
1E
100
AcDbEntity
  8
SK1
100
AcDbLine
 10
-0.5205670505000059
 20
-10.0
 30
0.0
 11
-48.79999999999999
 21
-9.999999999999994
 31
0.0
  0
LINE
  5
A5
330
1E
100
AcDbEntity
  8
SK1
100
AcDbLine
 10
-19.49999999999999
 20
5.723635208500041
 30
0.0
 11
-19.49999999999999
 21
-5.723635208499985
 31
0.0
  0
LINE
  5
A7
330
1E
100
AcDbEntity
  8
SK1
100
AcDbLine
 10
-30.49999999999998
 20
5.723635208500042
 30
0.0
 11
-30.49999999999998
 21
-5.723635208499985
 31
0.0
  0
LINE
  5
A9
330
1E
100
AcDbEntity
  8
SK1
100
AcDbLine
 10
-48.79999999999999
 20
10.0
 30
0.0
 11
-50.0
 21
8.800000000000011
 31
0.0
  0
LINE
  5
AA
330
1E
100
AcDbEntity
  8
SK1
100
AcDbLine
 10
-48.79999999999999
 20
-9.999999999999994
 30
0.0
 11
-50.0
 21
-8.799999999999975
 31
0.0
  0
LINE
  5
AB
330
1E
100
AcDbEntity
  8
SK1
100
AcDbLine
 10
-48.79999999999999
 20
10.0
 30
0.0
 11
-48.79999999999999
 21
-9.999999999999994
 31
0.0
  0
LINE
  5
AC
330
1E
100
AcDbEntity
  8
SK1
100
AcDbLine
 10
-50.0
 20
8.799999365100042
 30
0.0
 11
-50.0
 21
-8.799999365099974
 31
0.0
  0
ARC
  5
B1
330
1E
100
AcDbEntity
  8
1
100
AcDbCircle
 10
35.015724
 20
5.000356450699995
 30
0.0
 40
4.991597085
100
AcDbArc
 50
294.379061805
 51
224.5220075037999
  0
CIRCLE
  5
B4
330
1E
100
AcDbEntity
  8
1
100
AcDbCircle
 10
35.015724
 20
5.000356450699995
 30
0.0
 40
3.0699873031
  0
ARC
  5
B5
330
1E
100
AcDbEntity
  8
1
100
AcDbCircle
 10
35.015724
 20
-5.000356450700004
 30
0.0
 40
4.991597085
100
AcDbArc
 50
224.5163043040999
 51
43.82214299970004
  0
ARC
  5
B7
330
1E
100
AcDbEntity
  8
1
100
AcDbCircle
 10
30.015724
 20
11.50035645069998
 30
0.0
 40
10.0
100
AcDbArc
 50
197.6523644442998
 51
270.0
  0
CIRCLE
  5
B8
330
1E
100
AcDbEntity
  8
1
100
AcDbCircle
 10
34.8743026438
 20
-4.858935094500004
 30
0.0
 40
2.25
  0
ARC
  5
B9
330
1E
100
AcDbEntity
  8
1
100
AcDbCircle
 10
35.015724
 20
-5.000356450700004
 30
0.0
 40
4.5
100
AcDbArc
 50
219.9479444775999
 51
227.5818836798999
  0
ARC
  5
BA
330
1E
100
AcDbEntity
  8
1
100
AcDbCircle
 10
-0.5205670505000033
 20
9.0
 30
0.0
 40
1.0
100
AcDbArc
 50
34.99999999999996
 51
58.62970418682103
  0
ARC
  5
BB
330
1E
100
AcDbEntity
  8
SK1
100
AcDbCircle
 10
-0.5205670505000059
 20
-9.0
 30
0.0
 40
1.0
100
AcDbArc
 50
270.0
 51
301.3702958131788
  0
ARC
  5
BC
330
1E
100
AcDbEntity
  8
1
100
AcDbCircle
 10
34.015724
 20
3.499643549299991
 30
0.0
 40
5.0
100
AcDbArc
 50
315.5718893204999
 51
336.9805670225998
  0
ARC
  5
BD
330
1E
100
AcDbEntity
  8
1
100
AcDbCircle
 10
1.570878357900001
 20
9.5
 30
0.0
 40
1.0
100
AcDbArc
 50
215.0000000001
 51
270.0
  0
ARC
  5
BE
330
1E
100
AcDbEntity
  8
1
100
AcDbCircle
 10
1.570878357899998
 20
-9.5
 30
0.0
 40
1.0
100
AcDbArc
 50
90.0
 51
144.9999999998999
  0
ARC
  5
BF
330
1E
100
AcDbEntity
  8
1
100
AcDbCircle
 10
35.015724
 20
5.000356450699995
 30
0.0
 40
5.5
100
AcDbArc
 50
140.5284077758999
 51
213.0557311508999
  0
ARC
  5
C0
330
1E
100
AcDbEntity
  8
1
100
AcDbCircle
 10
34.015724
 20
-3.499643549300001
 30
0.0
 40
5.0
100
AcDbArc
 50
4.545147958799891
 51
90.0
  0
ARC
  5
C1
330
1E
100
AcDbEntity
  8
1
100
AcDbCircle
 10
35.015724
 20
5.000356450699995
 30
0.0
 40
5.5
100
AcDbArc
 50
213.0571212770999
 51
219.3849043311999
  0
LWPOLYLINE
  5
230
330
1E
100
AcDbEntity
  8
1
100
AcDbPolyline
 90
      162
 70
     0
 43
0.0
 10
32.30358364549999
 20
-7.920329839199983
 10
32.3522746999311
 20
-7.967796545412983
 10
32.4017677855314
 20
-8.014437156764422
 10
32.45204855520309
 20
-8.060233013158404
 10
32.50310266224231
 20
-8.105165455492661
 10
32.5549161245717
 20
-8.149216744863151
 10
32.6074759997603
 20
-8.192371766092103
 10
32.66076952945431
 20
-8.234615868552271
 10
32.71478394791319
 20
-8.275934401926271
 10
32.7695057033758
 20
-8.316312748865911
 10
32.81696166573869
 20
-8.350163415208571
 10
32.86491670385589
 20
-8.383303476465311
 10
32.91336125501611
 20
-8.415723770689321
 10
32.9622856252397
 20
-8.447415286379664
 10
33.0116796200955
 20
-8.478369585602342
 10
33.0615329259076
 20
-8.508578367088745
 10
33.11183522900069
 20
-8.538033329570284
 10
33.1625761862241
 20
-8.566726197804072
 10
33.21374499518348
 20
-8.594649102048112
 10
33.26533049040679
 20
-8.621794493149192
 10
33.3173214965134
 20
-8.648154830702964
 10
33.3697068372961
 20
-8.673722575327612
 10
33.4224751369665
 20
-8.698490434460316
 10
33.4756145618773
 20
-8.72245168176663
 10
33.529113214434
 20
-8.745599669994604
 10
33.5829591970419
 20
-8.767927751892344
 10
33.63714055520119
 20
-8.789429365234701
 10
33.6916449301858
 20
-8.810098551784031
 10
33.7464597882958
 20
-8.829929614745161
 10
33.8015725951305
 20
-8.848916858370101
 10
33.8569708079194
 20
-8.867054602752462
 10
33.912641642669
 20
-8.884337624561537
 10
33.9685720435206
 20
-8.900761215040223
 10
34.0247489400898
 20
-8.916320692924532
 10
34.08115926189859
 20
-8.93101137718598
 10
34.12833668567738
 20
-8.942586723312023
 10
34.1756592921973
 20
-8.953553478033963
 10
34.22311927227319
 20
-8.963909548628572
 10
34.27070881671969
 20
-8.973652842372644
 10
34.31842011635149
 20
-8.982781266542975
 10
34.36624533712389
 20
-8.991292815116914
 10
34.41417652382639
 20
-8.999185904652341
 10
34.4622056843881
 20
-9.006459080262404
 10
34.51032482672939
 20
-9.013110887090363
 10
34.5585259587709
 20
-9.019139870279515
 10
34.6068010803968
 20
-9.02454462027623
 10
34.65514212069289
 20
-9.029324126640695
 10
34.7035409719268
 20
-9.033477586490873
 10
34.7519895260507
 20
-9.037004198722351
 10
34.80047967501679
 20
-9.039903162230775
 10
34.8490033093684
 20
-9.042173695790292
 10
34.897552295323
 20
-9.043815361372702
 10
34.9461184785614
 20
-9.044828010695011
 10
34.99469370411989
 20
-9.045211504566037
 10
35.04326981703469
 20
-9.044965703794645
 10
35.0918386625115
 20
-9.044090475594254
 10
35.1403920928775
 20
-9.042585956630613
 10
35.1889219700372
 20
-9.040452645924071
 10
35.2374201565689
 20
-9.037691067992724
 10
35.28587851505079
 20
-9.034301747354652
 10
35.3342889081933
 20
-9.030285209488882
 10
35.38264322459328
 20
-9.025642168388564
 10
35.43093340961089
 20
-9.020373751415522
 10
35.47915141613521
 20
-9.014481140759343
 10
35.52728919705518
 20
-9.007965518609584
 10
35.57533870526029
 20
-9.000828067157081
 10
35.6232919206815
 20
-8.993070083713133
 10
35.67114092431079
 20
-8.984693295825421
 10
35.718877820745
 20
-8.975699531529897
 10
35.7664947145808
 20
-8.966090618862507
 10
35.8139837104149
 20
-8.955868385859185
 10
35.86133693386759
 20
-8.945034719816781
 10
35.90854665258599
 20
-8.933591908370162
 10
35.9649980844288
 20
-8.919059917036193
 10
36.0212185599086
 20
-8.903658529383783
 10
36.07719481994239
 20
-8.887391986789664
 10
36.1329137389515
 20
-8.870264814314772
 10
36.1883625013352
 20
-8.852282195695632
 10
36.2435283353791
 20
-8.833449407922421
 10
36.2983984693685
 20
-8.813771727985312
 10
36.35296018888389
 20
-8.793254527716941
 10
36.40720115977871
 20
-8.771903808429174
 10
36.461109202806
 20
-8.749725827844406
 10
36.51467213917171
 20
-8.726726844435242
 10
36.56787780168627
 20
-8.702913131874101
 10
36.6207143408838
 20
-8.678291380002862
 10
36.67317025611978
 20
-8.652868735566743
 10
36.7252340645909
 20
-8.626652368679815
 10
36.7768942835486
 20
-8.599649449515345
 10
36.828139591489
 20
-8.571867321886772
 10
36.8789591824629
 20
-8.543313884796102
 10
36.9293423533435
 20
-8.513997147971792
 10
36.97927840100369
 20
-8.483925121142343
 10
37.0287566640336
 20
-8.453105849631473
 10
37.07776697983879
 20
-8.421547804377834
 10
37.1262995143435
 20
-8.389259736629202
 10
37.1743444392565
 20
-8.356250402568971
 10
37.22189192787659
 20
-8.322528559495312
 10
37.27672259070828
 20
-8.282297845388352
 10
37.33084896979689
 20
-8.241124388550044
 10
37.38425695010359
 20
-8.199023139420745
 10
37.4369324278156
 20
-8.156009054504272
 10
37.4888619113066
 20
-8.112097420959795
 10
37.54003282413378
 20
-8.067304020257202
 10
37.5904326647685
 20
-8.021644674328923
 10
37.64004896226099
 20
-7.975135217845456
 10
37.6888700320425
 20
-7.927791813047485
 10
37.73688502503299
 20
-7.879630970202282
 10
37.7840831325654
 20
-7.830669216411182
 10
37.83045359998729
 20
-7.780923094533132
 10
37.8759865948887
 20
-7.73040941646941
 10
37.92067305804661
 20
-7.679145219680432
 10
37.9645039541516
 20
-7.627147548602745
 10
38.0074703192149
 20
-7.574433460135012
 10
38.04956419213739
 20
-7.521020186414445
 10
38.09077835223789
 20
-7.466925088954081
 10
38.1311055961416
 20
-7.412165532290985
 10
38.17053879359679
 20
-7.356758886087233
 10
38.20907183758379
 20
-7.300722591720862
 10
38.24669937400919
 20
-7.244074143340772
 10
38.28341606624199
 20
-7.186831036319722
 10
38.31921663310179
 20
-7.129010763488841
 10
38.35409677279371
 20
-7.070630772787843
 10
38.3880530221858
 20
-7.011708473715195
 10
38.42108194523968
 20
-6.952261274527502
 10
38.4531801322621
 20
-6.892306579595754
 10
38.48434500776109
 20
-6.831861670252834
 10
38.51457498127059
 20
-6.770943682548222
 10
38.54386851909579
 20
-6.709569744158102
 10
38.57222409154029
 20
-6.647756981703132
 10
38.5996407477044
 20
-6.585522369018303
 10
38.6261187158735
 20
-6.522882568667464
 10
38.6516583678307
 20
-6.459854205335161
 10
38.6762600753595
 20
-6.396453903705933
 10
38.6999244782959
 20
-6.332698183878933
 10
38.72265346710939
 20
-6.268603077997472
 10
38.7444492967149
 20
-6.204184476010293
 10
38.7653142220695
 20
-6.139458267849695
 10
38.7852505579053
 20
-6.074440313801392
 10
38.80426159059339
 20
-6.009145992248834
 10
38.82235139605059
 20
-5.943590289985462
 10
38.8395240730579
 20
-5.877788182464871
 10
38.8557837205686
 20
-5.811754645029671
 10
38.8711348220519
 20
-5.745504405147701
 10
38.8855830627358
 20
-5.679051415584324
 10
38.8991343619827
 20
-5.612409478172541
 10
38.91179463915459
 20
-5.545592394745323
 10
38.92356983886291
 20
-5.478613949452643
 10
38.9344666926206
 20
-5.411487375342943
 10
38.9444928539474
 20
-5.344225259743351
 10
38.95365602884609
 20
-5.276840153224993
 10
38.96196392331928
 20
-5.209344606358913
 10
38.969424341874
 20
-5.141751050710742
 10
38.9760461049751
 20
-5.074070690440471
 10
38.9818386320116
 20
-5.006314006132743
 10
38.9868113500965
 20
-4.938491469040544
 10
38.9909736863426
 20
-4.870613550416833
 10
38.9943352803836
 20
-4.802690739324813
 10
38.9972103891455
 20
-4.725023273659839
 10
38.99907019082728
 20
-4.647326830146051
 10
38.9999312283651
 20
-4.569617246421001
 10
38.9999999999919
 20
-4.54048599730005
  0
LWPOLYLINE
  5
2D4
330
1E
100
AcDbEntity
  8
1
100
AcDbPolyline
 90
      123
 70
     0
 43
0.0
 10
31.5658974362
 20
-7.889767580899981
 10
31.56512219031339
 20
-7.888820581468451
 10
31.5645172718594
 20
-7.888049053842753
 10
31.5639273307759
 20
-7.887265058314312
 10
31.5633536563236
 20
-7.88646851421845
 10
31.56279753776329
 20
-7.885659340890451
 10
31.5622602643556
 20
-7.884837457665632
 10
31.5618704520022
 20
-7.884212655852373
 10
31.5614925091631
 20
-7.883580625317852
 10
31.5611269797454
 20
-7.882941332031619
 10
31.5607744076557
 20
-7.882294741963287
 10
31.560435336801
 20
-7.881640821082431
 10
31.56011031108819
 20
-7.880979535358622
 10
31.5597998744241
 20
-7.880310850761452
 10
31.5595045713059
 20
-7.879634736545151
 10
31.5592249795247
 20
-7.878951347236497
 10
31.558961727293
 20
-7.878261117943582
 10
31.55871544702499
 20
-7.877564507156261
 10
31.558486771135
 20
-7.876861973364441
 10
31.55827633203728
 20
-7.876153975057992
 10
31.55808476214609
 20
-7.875440970726801
 10
31.5579126938757
 20
-7.874723418860742
 10
31.55776075964019
 20
-7.874001777949692
 10
31.55762959185409
 20
-7.873276506483542
 10
31.5575198229314
 20
-7.87254806295217
 10
31.5574588442105
 20
-7.872060898087561
 10
31.5574078445506
 20
-7.87157266303831
 10
31.5573670113337
 20
-7.871083493653292
 10
31.5573365319418
 20
-7.870593525781343
 10
31.5573165839832
 20
-7.870102898160642
 10
31.5573071966417
 20
-7.869611793406792
 10
31.557308283718
 20
-7.869120428245133
 10
31.557319755979
 20
-7.868629020297832
 10
31.55734152419139
 20
-7.868137787187091
 10
31.5573734991221
 20
-7.867646946535092
 10
31.557415591538
 20
-7.867156715964021
 10
31.55746771220589
 20
-7.866667313096057
 10
31.5575297718927
 20
-7.866178955553387
 10
31.5576016813652
 20
-7.865691860958222
 10
31.5577278187247
 20
-7.864964063140522
 10
31.5578756161655
 20
-7.864240331079463
 10
31.55804477252589
 20
-7.863521399249923
 10
31.5582349866439
 20
-7.862808002126772
 10
31.55844595735759
 20
-7.862100874184902
 10
31.5586773835052
 20
-7.861400749899177
 10
31.5589289020031
 20
-7.860708266156202
 10
31.5591998767695
 20
-7.860023629598232
 10
31.5594895965118
 20
-7.859346928335252
 10
31.55979734993469
 20
-7.858678250473543
 10
31.5601224257432
 20
-7.858017684119391
 10
31.5604641126421
 20
-7.857365317379072
 10
31.5608216993364
 20
-7.85672123835888
 10
31.5611944745309
 20
-7.856085535165121
 10
31.5615817269305
 20
-7.855458295904051
 10
31.5619827452401
 20
-7.854839608681967
 10
31.5623968181645
 20
-7.854229561605171
 10
31.5628232344088
 20
-7.853628242779941
 10
31.5632612826777
 20
-7.853035740312557
 10
31.5638622707302
 20
-7.852259562649082
 10
31.5644816093087
 20
-7.851498990669412
 10
31.56511843185139
 20
-7.850753662264281
 10
31.5657718738194
 20
-7.850023213914841
 10
31.5664410706741
 20
-7.849307282102213
 10
31.5671251578767
 20
-7.848605503307522
 10
31.5678232708884
 20
-7.847917514011903
 10
31.56853454517049
 20
-7.847242950696473
 10
31.5694408289889
 20
-7.84641807303857
 10
31.5703646378983
 20
-7.845612895478701
 10
31.5713042833476
 20
-7.844826708019262
 10
31.57225825545769
 20
-7.84405883111286
 10
31.5732257198937
 20
-7.843308700341871
 10
31.57420600195111
 20
-7.842575778493701
 10
31.57519842692539
 20
-7.841859528355747
 10
31.57620232011209
 20
-7.841159412715432
 10
31.57721700680669
 20
-7.840474894360162
 10
31.5784479282867
 20
-7.839673304354751
 10
31.5796922549541
 20
-7.838892472550312
 10
31.5809488209197
 20
-7.838131470643491
 10
31.5822164602939
 20
-7.83738937033091
 10
31.58349410235488
 20
-7.836665296432182
 10
31.58499653858688
 20
-7.835842516602382
 10
31.5865110559895
 20
-7.835042598300981
 10
31.5880369359057
 20
-7.834264699713672
 10
31.5895734596786
 20
-7.833507979026133
 10
31.59134159824939
 20
-7.832668007626963
 10
31.593121627599
 20
-7.831853341059723
 10
31.59491247498019
 20
-7.831062722738571
 10
31.59693877571569
 20
-7.830200459719829
 10
31.59897616699479
 20
-7.829365514107633
 10
31.6010239538915
 20
-7.828556861226863
 10
31.6030815057904
 20
-7.827773535460282
 10
31.6053783603435
 20
-7.826931703678482
 10
31.6076856268755
 20
-7.826118623240972
 10
31.6102346134691
 20
-7.825255861678721
 10
31.612794000486
 20
-7.824424523490772
 10
31.6155966061088
 20
-7.823551422977303
 10
31.61840927416319
 20
-7.822712010218616
 10
31.6214669164983
 20
-7.821839195923074
 10
31.6245347523777
 20
-7.821002835976742
 10
31.62784901592469
 20
-7.820141076031442
 10
31.63117308643411
 20
-7.819317745010081
 10
31.6347442861743
 20
-7.818475981259262
 10
31.63856335891809
 20
-7.817621674133702
 10
31.64239171442638
 20
-7.816810526814736
 10
31.64646869630769
 20
-7.815994092463162
 10
31.65079505038169
 20
-7.815178429209256
 10
31.6551302062962
 20
-7.814410607148011
 10
31.6597146041585
 20
-7.813649385223143
 10
31.664548450049
 20
-7.812900029948252
 10
31.6696321488851
 20
-7.812168323590692
 10
31.6749660035917
 20
-7.811459961334412
 10
31.6805501193011
 20
-7.810780345116882
 10
31.68638437374028
 20
-7.810134504869306
 10
31.6924684402926
 20
-7.809527136250302
 10
31.69880217199358
 20
-7.808963440080221
 10
31.7053854531308
 20
-7.808448777771372
 10
31.71221800022129
 20
-7.807988213651093
 10
31.7192993421661
 20
-7.807586454968872
 10
31.7266288358896
 20
-7.807247939503271
 10
31.73420586647718
 20
-7.806977699823672
 10
31.74202973621429
 20
-7.806780920060721
 10
31.7500995616117
 20
-7.806662527045091
 10
31.75767062659939
 20
-7.806626818461401
  0
LWPOLYLINE
  5
351
330
1E
100
AcDbEntity
  8
1
100
AcDbPolyline
 90
       83
 70
     0
 43
0.0
 10
31.5877245854
 20
-8.500001150099963
 10
31.5976716048228
 20
-8.499946698924572
 10
31.60716765313519
 20
-8.499792195119614
 10
31.6162109726667
 20
-8.499548849242271
 10
31.62525226261339
 20
-8.499208726044431
 10
31.6338382583768
 20
-8.498793349232142
 10
31.64241981438459
 20
-8.498285568937991
 10
31.6505444626732
 20
-8.497717042575002
 10
31.65866290554109
 20
-8.497061273293134
 10
31.66677406264339
 20
-8.496316164260703
 10
31.6744269364312
 20
-8.495528527855944
 10
31.6820714377492
 20
-8.494657565862231
 10
31.6897066564921
 20
-8.493701511864292
 10
31.6968834483466
 20
-8.492722381897996
 10
31.7040501548417
 20
-8.491664602240254
 10
31.7112050954768
 20
-8.490525967596752
 10
31.71790060091419
 20
-8.489383047164931
 10
31.7245827672738
 20
-8.488165199094561
 10
31.7312501439151
 20
-8.486870553860043
 10
31.7374584054523
 20
-8.485591280955011
 10
31.74365134040828
 20
-8.484241960628921
 10
31.74982776935889
 20
-8.482821072888214
 10
31.7559865128797
 20
-8.481327097739322
 10
31.7616884795491
 20
-8.479873063429632
 10
31.76737323578119
 20
-8.478353482276531
 10
31.77303983726281
 20
-8.476767137288094
 10
31.7786873396808
 20
-8.475112811472401
 10
31.7838826503476
 20
-8.473524351002662
 10
31.78906013990639
 20
-8.471875971880411
 10
31.7942190656293
 20
-8.470166716908552
 10
31.7993585760383
 20
-8.468395637443551
 10
31.8044772404278
 20
-8.466561830400031
 10
31.8095734360151
 20
-8.464664407800134
 10
31.81464553989199
 20
-8.462702481675842
 10
31.81927241847009
 20
-8.460846626453824
 10
31.8238764395732
 20
-8.458935140252432
 10
31.82845635314869
 20
-8.456967339110221
 10
31.833010909144
 20
-8.454942539065722
 10
31.8375388575068
 20
-8.452860056157481
 10
31.84203894818439
 20
-8.450719206424043
 10
31.8465099311243
 20
-8.448519305903932
 10
31.8509505562739
 20
-8.446259670635692
 10
31.85535957358069
 20
-8.443939616657882
 10
31.85933929095411
 20
-8.441777471684503
 10
31.86329091385919
 20
-8.439564314765512
 10
31.86721350311289
 20
-8.437299632030542
 10
31.87110611953229
 20
-8.434982909609232
 10
31.8749678237856
 20
-8.43261363413111
 10
31.8787976239963
 20
-8.430191468830043
 10
31.88259439851909
 20
-8.427716513092962
 10
31.88635700602779
 20
-8.425188932455593
 10
31.89008430519599
 20
-8.422608892453633
 10
31.8937751546975
 20
-8.419976558622803
 10
31.8974284132059
 20
-8.417292096498821
 10
31.901042939395
 20
-8.414555671617396
 10
31.9046175919384
 20
-8.411767449514263
 10
31.9081512295098
 20
-8.408927595725103
 10
31.9116427107829
 20
-8.406036275785654
 10
31.9150908944314
 20
-8.403093655231611
 10
31.918494639129
 20
-8.400099899598721
 10
31.92185280354939
 20
-8.397055174422673
 10
31.9251642463662
 20
-8.393959645239181
 10
31.92842782625319
 20
-8.390813477583972
 10
31.931642401884
 20
-8.387616836992751
 10
31.93480683193239
 20
-8.38436988900124
 10
31.9379200122932
 20
-8.381072860885064
 10
31.94098121229461
 20
-8.377726599344933
 10
31.9439899167415
 20
-8.374332308499793
 10
31.94694561304269
 20
-8.370891196787061
 10
31.9498477886067
 20
-8.367404472644157
 10
31.9526959308422
 20
-8.363873344508544
 10
31.9554895271575
 20
-8.360299020817601
 10
31.9582280649615
 20
-8.356682710008772
 10
31.9609110316626
 20
-8.353025620519494
 10
31.96353791466949
 20
-8.349328960787181
 10
31.96585373416029
 20
-8.345969133243842
 10
31.9681233369806
 20
-8.342579113588847
 10
31.97034634945119
 20
-8.339159782773092
 10
31.972522397893
 20
-8.335712021747442
 10
31.9746511086268
 20
-8.332236711462781
 10
31.97673210797359
 20
-8.328734732870014
 10
31.9787650222542
 20
-8.325206966920003
 10
31.98030785031098
 20
-8.322454632914713
  0
LWPOLYLINE
  5
3A6
330
1E
100
AcDbEntity
  8
1
100
AcDbPolyline
 90
       15
 70
     0
 43
0.0
 10
30.7647697179
 20
1.510458502099985
 10
30.7763610459217
 20
1.508899995003913
 10
30.7876923015558
 20
1.507494788169636
 10
30.7987612329169
 20
1.506236959328225
 10
30.8097043719313
 20
1.505106828000803
 10
30.8203815098263
 20
1.504114590885933
 10
30.830929738857
 20
1.503243125816096
 10
30.8412088197641
 20
1.502499547528306
 10
30.8513561278385
 20
1.501869695990625
 10
30.8612310285972
 20
1.501358382465464
 10
30.8708319358151
 20
1.500959505043526
 10
30.88029666927861
 20
1.500663152373244
 10
30.8894848708053
 20
1.500469398517945
 10
30.89853470927339
 20
1.500370896040674
 10
30.9035369609997
 20
1.500356450757706
  0
LWPOLYLINE
  5
3B7
330
1E
100
AcDbEntity
  8
1
100
AcDbPolyline
 90
       65
 70
     0
 43
0.0
 10
32.30358364549999
 20
-7.920329839199983
 10
32.29907424812159
 20
-7.915926389216282
 10
32.29449735655139
 20
-7.911591284627391
 10
32.2900766325664
 20
-7.907527489091742
 10
32.2855965669141
 20
-7.903528267614293
 10
32.28105807547481
 20
-7.899594880083011
 10
32.2766932259172
 20
-7.895920288142672
 10
32.2722772589215
 20
-7.892307328584132
 10
32.26781095895439
 20
-7.888757076310087
 10
32.2635339949907
 20
-7.88545240071408
 10
32.2592131871127
 20
-7.882205609262347
 10
32.25484917542611
 20
-7.879017434720681
 10
32.25044260003639
 20
-7.875888609854842
 10
32.2459941010493
 20
-7.872819867430602
 10
32.2417548231006
 20
-7.869977439360797
 10
32.23747926053511
 20
-7.867189874251732
 10
32.2331679529174
 20
-7.864457789353762
 10
32.22882148506439
 20
-7.861781795392063
 10
32.2244405329887
 20
-7.85916248994186
 10
32.22002578365749
 20
-7.85660046899882
 10
32.2158404670823
 20
-7.854242018033692
 10
32.2116263937073
 20
-7.851935335264411
 10
32.2073841362616
 20
-7.849680917576423
 10
32.2031142674742
 20
-7.847479261855172
 10
32.19881736007411
 20
-7.845330864986072
 10
32.19449398774289
 20
-7.843236222843481
 10
32.1901447566418
 20
-7.841195796821431
 10
32.1857703126685
 20
-7.8392100061302
 10
32.1816469495737
 20
-7.837398317844883
 10
32.1775025307397
 20
-7.835635358379573
 10
32.17333759036559
 20
-7.833921471034121
 10
32.1691526626509
 20
-7.832256999108332
 10
32.1649482817945
 20
-7.830642285902031
 10
32.1607249819957
 20
-7.829077674715033
 10
32.15648329749269
 20
-7.827563508808382
 10
32.15222378175909
 20
-7.826100112244521
 10
32.1479470385388
 20
-7.8246877589129
 10
32.14365367968539
 20
-7.823326714608552
 10
32.1393443170528
 20
-7.822017245126532
 10
32.1353083460578
 20
-7.820841840037952
 10
32.1312594644453
 20
-7.8197118099884
 10
32.12719816967489
 20
-7.818627371079093
 10
32.1231249592067
 20
-7.817588739411231
 10
32.11904033050007
 20
-7.816596131086043
 10
32.1149447810664
 20
-7.815649761436892
 10
32.1108388105965
 20
-7.814749813128173
 10
32.1067229217274
 20
-7.813896424679431
 10
32.1025976173047
 20
-7.81308973148174
 10
32.09846340017409
 20
-7.812329868926202
 10
32.0943207731812
 20
-7.811616972403902
 10
32.09017023917169
 20
-7.810951177305941
 10
32.0860123009912
 20
-7.810332619023382
 10
32.0818474614855
 20
-7.809761432947347
 10
32.0776762235001
 20
-7.80923775446891
 10
32.07349909158109
 20
-7.808761717928521
 10
32.06931663153758
 20
-7.808333419812292
 10
32.06512948607001
 20
-7.807952909095071
 10
32.0609383027558
 20
-7.807620231738352
 10
32.0567437291725
 20
-7.807335433703631
 10
32.0525464128974
 20
-7.807098560952402
 10
32.0483470015079
 20
-7.806909659446152
 10
32.04414614258139
 20
-7.806768775146391
 10
32.0399444836953
 20
-7.806675954014611
 10
32.03574267242709
 20
-7.806631242012286
 10
32.0339520100022
 20
-7.806626818536452
  0
LWPOLYLINE
  5
3FA
330
1E
100
AcDbEntity
  8
SK1
100
AcDbPolyline
 90
       54
 70
     0
 43
0.0
 10
-30.49999999999998
 20
-5.723635208499985
 10
-30.5725699923225
 20
-5.618236617562674
 10
-30.6437891357724
 20
-5.511912365242382
 10
-30.71364358349549
 20
-5.404683125084559
 10
-30.78211955681319
 20
-5.296569503403003
 10
-30.84920498748739
 20
-5.187590419747943
 10
-30.91488960078847
 20
-5.077763024987956
 10
-30.9761347048885
 20
-4.972392442548933
 10
-31.03609118194278
 20
-4.866282857929096
 10
-31.09475023271089
 20
-4.759450145277746
 10
-31.15210305863238
 20
-4.651910418958325
 10
-31.20814087263789
 20
-4.543679794469461
 10
-31.26285526823918
 20
-4.434774424871672
 10
-31.31623829815789
 20
-4.325210508547673
 10
-31.36828204250629
 20
-4.215004246583585
 10
-31.4189786691341
 20
-4.104171894140392
 10
-31.46588594793279
 20
-3.998316285648995
 10
-31.51156452700578
 20
-3.891924766129153
 10
-31.55600817077929
 20
-3.785011566633263
 10
-31.59921088438731
 20
-3.677591008780736
 10
-31.64116700915931
 20
-3.569677540685586
 10
-31.6818709114243
 20
-3.461285619867946
 10
-31.7213170111917
 20
-3.352429724049254
 10
-31.7595001049999
 20
-3.243124472647995
 10
-31.79641515055498
 20
-3.133384545733866
 10
-31.83205710919419
 20
-3.023224624565465
 10
-31.86642115461236
 20
-2.912659457817145
 10
-31.89950280891937
 20
-2.801703904772564
 10
-31.93129762656639
 20
-2.690372834982543
 10
-31.96180122379719
 20
-2.578681135297185
 10
-31.9895046716152
 20
-2.472548875724134
 10
-32.0160423763156
 20
-2.366119190608673
 10
-32.0414110656864
 20
-2.259404865098896
 10
-32.06560764180059
 20
-2.152418723879215
 10
-32.0886293060406
 20
-2.045173659531596
 10
-32.1104732892745
 20
-1.937682571326875
 10
-32.13113685451819
 20
-1.829958365753594
 10
-32.1506175684275
 20
-1.722014017472814
 10
-32.1689131647136
 20
-1.613862538652524
 10
-32.1860213793757
 20
-1.505516941872054
 10
-32.2019400868583
 20
-1.396990245192955
 10
-32.21666748154179
 20
-1.288295479345745
 10
-32.230201802862
 20
-1.179445676845084
 10
-32.2425413159733
 20
-1.070453884267865
 10
-32.25368457693181
 20
-0.9613333072484648
 10
-32.26363032570719
 20
-0.8520972519802679
 10
-32.27237730565649
 20
-0.7427590254892391
 10
-32.27992439586087
 20
-0.6333317249384982
 10
-32.28627079595788
 20
-0.5238279518318612
 10
-32.2914157518475
 20
-0.4142602361395312
 10
-32.2953585379093
 20
-0.304641282076582
 10
-32.2980987247386
 20
-0.194985606200032
 10
-32.2996360586919
 20
-0.0853088004284042
 10
-32.29999999999499
 20
-0.0000100000000231
  0
LWPOLYLINE
  5
432
330
1E
100
AcDbEntity
  8
SK1
100
AcDbPolyline
 90
       54
 70
     0
 43
0.0
 10
-32.29999999999999
 20
0.000000000000004
 10
-32.2993983920359
 20
0.1096824506343099
 10
-32.2975937357077
 20
0.2193559092613909
 10
-32.2945862823611
 20
0.329004769828656
 10
-32.29037629542769
 20
0.4386135002328662
 10
-32.28496428682719
 20
0.548168088829668
 10
-32.2783510016162
 20
0.6576559505024471
 10
-32.2705371938695
 20
0.7670645552637431
 10
-32.26152371265281
 20
0.8763812262505819
 10
-32.2513117414964
 20
0.9855927694504378
 10
-32.2399025375051
 20
1.094685877089361
 10
-32.2272973716076
 20
1.203647248951571
 10
-32.2134977708038
 20
1.312463724829644
 10
-32.1985054878838
 20
1.421122267968119
 10
-32.18232228337861
 20
1.529609845842144
 10
-32.1649500109392
 20
1.637913429614889
 10
-32.1463908595965
 20
1.746020003732573
 10
-32.1266470938589
 20
1.853916555630691
 10
-32.10572098854679
 20
1.961590075060303
 10
-32.0836150592458
 20
2.069027605833662
 10
-32.06033206431281
 20
2.176216246274799
 10
-32.03587477281839
 20
2.283143097113394
 10
-32.0102460210138
 20
2.389795274313569
 10
-31.98344897942619
 20
2.496159969643013
 10
-31.95548692235218
 20
2.602224398400982
 10
-31.9247111422065
 20
2.713841417858933
 10
-31.89264504225719
 20
2.825094667086901
 10
-31.85929304158059
 20
2.935969269145212
 10
-31.82465958564729
 20
3.046450354485691
 10
-31.7887491920788
 20
3.156523076460912
 10
-31.75156677013069
 20
3.266172712728961
 10
-31.71311736131161
 20
3.375384582925121
 10
-31.67340601329359
 20
3.484144008998263
 10
-31.63243801710889
 20
3.592436404479029
 10
-31.5902189844713
 20
3.700247303577911
 10
-31.5467545489901
 20
3.807562248745112
 10
-31.50205040390559
 20
3.914366804868621
 10
-31.45611263263448
 20
4.020646683650012
 10
-31.4089474754851
 20
4.126387655825419
 10
-31.35798081921211
 20
4.237096103414051
 10
-31.30566858413359
 20
4.347175192601831
 10
-31.2520186474576
 20
4.45660869599513
 10
-31.19703892901068
 20
4.565380412465168
 10
-31.14073741604289
 20
4.673474147539413
 10
-31.08312264117969
 20
4.780873760586549
 10
-31.02420340120178
 20
4.887563137053516
 10
-30.96398849462839
 20
4.993526164893471
 10
-30.89937801007581
 20
5.103988436728443
 10
-30.83335894427738
 20
5.213615401280251
 10
-30.76594148712349
 20
5.322389991283927
 10
-30.6971360922513
 20
5.430294879381271
 10
-30.62695546066299
 20
5.537310521979361
 10
-30.5554134303941
 20
5.643416254202612
 10
-30.5000057236311
 20
5.723627008497151
  0
LWPOLYLINE
  5
46A
330
1E
100
AcDbEntity
  8
1
100
AcDbPolyline
 90
       39
 70
     0
 43
0.0
 10
20.4865847577
 20
8.467947293000007
 10
20.486457379547
 20
8.468967091660596
 10
20.4866573389326
 20
8.470006760928558
 10
20.4871082651584
 20
8.471020485840522
 10
20.4877337875262
 20
8.471962451433125
 10
20.4884617442194
 20
8.472790794415718
 10
20.48925972910049
 20
8.473500977669504
 10
20.4901172096547
 20
8.474109000980615
 10
20.49102388051438
 20
8.474631077400827
 10
20.4919694363118
 20
8.475083419981947
 10
20.49294357167898
 20
8.475482241775786
 10
20.4939359812482
 20
8.475843755834148
 10
20.4959369904076
 20
8.476515723346878
 10
20.49793672887159
 20
8.477157047494657
 10
20.4999364064978
 20
8.477768519473807
 10
20.5019383729757
 20
8.478349173941797
 10
20.50394497799489
 20
8.478898045556057
 10
20.5059585712448
 20
8.479414168974036
 10
20.50798146107509
 20
8.479896624530008
 10
20.51001444299159
 20
8.480346164117507
 10
20.51205640010759
 20
8.480765652655456
 10
20.51461957955387
 20
8.481252324979655
 10
20.5171924250807
 20
8.481702590862436
 10
20.52028919027387
 20
8.482203104552137
 10
20.52442720917289
 20
8.482819534915646
 10
20.5306383337772
 20
8.483673290039074
 10
20.53685206464161
 20
8.484455680473157
 10
20.54410725596889
 20
8.485286068019647
 10
20.5518907616998
 20
8.486087358092277
 10
20.561244718878
 20
8.486944353883275
 10
20.5726911034117
 20
8.487865507439844
 10
20.5883108141593
 20
8.488956509193377
 10
20.6075855653846
 20
8.490097251312048
 10
20.632605465793
 20
8.491315111116316
 10
20.66702393023049
 20
8.492633472977697
 10
20.71710343023269
 20
8.494039364917338
 10
20.7974582019254
 20
8.495474115255706
 10
20.94096727604739
 20
8.496583815775926
 10
21.0030595578
 20
8.496682050097513
  0
LWPOLYLINE
  5
493
330
1E
100
AcDbEntity
  8
SK1
100
AcDbPolyline
 90
       54
 70
     0
 43
0.0
 10
-19.49999999999999
 20
-5.723635208499985
 10
-19.42743000766309
 20
-5.618236617571356
 10
-19.35621086418407
 20
-5.511912365269495
 10
-19.28635641643689
 20
-5.404683125127183
 10
-19.21788044311979
 20
-5.296569503446074
 10
-19.15079501247069
 20
-5.187590419776005
 10
-19.08511039919907
 20
-5.077763024997566
 10
-19.02386529511177
 20
-4.972392442549304
 10
-18.96390881804247
 20
-4.866282857936043
 10
-18.90524976724409
 20
-4.759450145300495
 10
-18.84789694129569
 20
-4.651910418995777
 10
-18.79185912728488
 20
-4.543679794510447
 10
-18.73714473170347
 20
-4.434774424902836
 10
-18.68376170181537
 20
-4.325210508563044
 10
-18.63171795749297
 20
-4.215004246585115
 10
-18.58102133087457
 20
-4.104171894136286
 10
-18.53411405207328
 20
-3.998316285645396
 10
-18.48843547299497
 20
-3.891924766127904
 10
-18.4439918292216
 20
-3.785011566632475
 10
-18.40078911561987
 20
-3.677591008777666
 10
-18.35883299085177
 20
-3.569677540680616
 10
-18.31812908857859
 20
-3.461285619864896
 10
-18.27868298878378
 20
-3.352429724054545
 10
-18.24049989493946
 20
-3.243124472664796
 10
-18.20358484935767
 20
-3.133384545759636
 10
-18.16794289071848
 20
-3.023224624591946
 10
-18.13357884532996
 20
-2.912659457835006
 10
-18.1004971910601
 20
-2.801703904778884
 10
-18.06870237343318
 20
-2.690372834981536
 10
-18.0381987761863
 20
-2.578681135298726
 10
-18.01049532833228
 20
-2.472548875734184
 10
-17.98395762359868
 20
-2.366119190627234
 10
-17.95858893422028
 20
-2.259404865120175
 10
-17.93439235813067
 20
-2.152418723895376
 10
-17.91137069392829
 20
-2.045173659539174
 10
-17.88952671072239
 20
-1.937682571327385
 10
-17.86886314547729
 20
-1.829958365753046
 10
-17.84938243154049
 20
-1.722014017476666
 10
-17.83108683521647
 20
-1.613862538662925
 10
-17.81397862052157
 20
-1.505516941887846
 10
-17.79805991302268
 20
-1.396990245210804
 10
-17.78333251833878
 20
-1.288295479362925
 10
-17.76979819703239
 20
-1.179445676859777
 10
-17.75745868394678
 20
-1.070453884279193
 10
-17.74631542302019
 20
-0.9613333072562618
 10
-17.7363696742751
 20
-0.8520972519849166
 10
-17.72762269434629
 20
-0.7427590254916821
 10
-17.72007560414869
 20
-0.6333317249399448
 10
-17.71372920404929
 20
-0.5238279518331021
 10
-17.70858424815399
 20
-0.4142602361408389
 10
-17.70464146208897
 20
-0.3046412820777518
 10
-17.70190127525969
 20
-0.1949856062007858
 10
-17.70036394130747
 20
-0.085308800428635
 10
-17.70000000000498
 20
-0.0000100000000249
  0
LWPOLYLINE
  5
4CB
330
1E
100
AcDbEntity
  8
SK1
100
AcDbPolyline
 90
       54
 70
     0
 43
0.0
 10
-17.69999999999998
 20
0.0000000000000022
 10
-17.70060160794447
 20
0.1096824506353542
 10
-17.70240626423219
 20
0.2193559092639532
 10
-17.70541371754489
 20
0.3290047698322202
 10
-17.70962370447717
 20
0.4386135002359822
 10
-17.71503571310948
 20
0.5481680888311025
 10
-17.72164899836067
 20
0.6576559505022562
 10
-17.72946280613077
 20
0.7670645552633142
 10
-17.73847628733657
 20
0.8763812262521753
 10
-17.74868825845917
 20
0.9855927694555619
 10
-17.76009746241108
 20
1.094685877098432
 10
-17.77270262828046
 20
1.203647248963889
 10
-17.78650222907418
 20
1.312463724843832
 10
-17.80149451199989
 20
1.421122267982388
 10
-17.81767771652407
 20
1.529609845854331
 10
-17.83504998899226
 20
1.637913429622838
 10
-17.85360914036669
 20
1.746020003735399
 10
-17.87335290613127
 20
1.853916555629148
 10
-17.89427901145797
 20
1.961590075056681
 10
-17.91638494076107
 20
2.06902760583031
 10
-17.93966793569006
 20
2.176216246272709
 10
-17.9641252271813
 20
2.283143097112122
 10
-17.98975397898868
 20
2.389795274311671
 10
-18.01655102058089
 20
2.49615996964022
 10
-18.04451307765448
 20
2.602224398398969
 10
-18.07528885778688
 20
2.713841417861587
 10
-18.10735495770927
 20
2.825094667098252
 10
-18.14070695835498
 20
2.935969269166341
 10
-18.17534041426378
 20
3.046450354514528
 10
-18.21125080782287
 20
3.156523076492901
 10
-18.24843322977279
 20
3.26617271276074
 10
-18.28688263859756
 20
3.375384582955808
 10
-18.32659398661747
 20
3.484144009029381
 10
-18.36756198279887
 20
3.592436404512381
 10
-18.40978101543428
 20
3.700247303612691
 10
-18.45324545092099
 20
3.807562248777801
 10
-18.49794959602398
 20
3.914366804893538
 10
-18.54388736732198
 20
4.02064668366362
 10
-18.59105252449809
 20
4.126387655827921
 10
-18.64201918078968
 20
4.237096103409228
 10
-18.69433141587267
 20
4.347175192595917
 10
-18.74798135254525
 20
4.456608695991381
 10
-18.80296107098859
 20
4.565380412463301
 10
-18.85926258395848
 20
4.673474147536252
 10
-18.91687735882668
 20
4.78087376058083
 10
-18.97579659880529
 20
4.887563137048211
 10
-19.03601150536777
 20
4.993526164895801
 10
-19.10062198989487
 20
5.103988436747221
 10
-19.16664105566589
 20
5.2136154013163
 10
-19.23405851280507
 20
5.322389991329071
 10
-19.30286390768728
 20
5.430294879419808
 10
-19.37304453930248
 20
5.537310522000677
 10
-19.44458656959747
 20
5.643416254207487
 10
-19.49999427636887
 20
5.723627008497151
  0
LWPOLYLINE
  5
503
330
1E
100
AcDbEntity
  8
1
100
AcDbPolyline
 90
       21
 70
     0
 43
0.0
 10
30.7700547591
 20
8.496682050100014
 10
30.77045250512259
 20
8.497002158573335
 10
30.77094710899229
 20
8.497175578471026
 10
30.7715031641189
 20
8.497251508024096
 10
30.7720852639125
 20
8.497279145463545
 10
30.7726610431637
 20
8.497303559285175
 10
30.7732215493443
 20
8.497338027103246
 10
30.77376870092119
 20
8.497381065363986
 10
30.7745687160928
 20
8.497458269126235
 10
30.775349811747
 20
8.497545953847366
 10
30.7766277295397
 20
8.497701041193682
 10
30.7779025290194
 20
8.497846139482225
 10
30.7789358071801
 20
8.497942848919075
 10
30.7799812115252
 20
8.498022961057774
 10
30.78130179716319
 20
8.498103539016591
 10
30.782901331211
 20
8.498177934410826
 10
30.79251594682461
 20
8.498495476586786
 10
30.8036312886356
 20
8.498829977301896
 10
30.8264692209947
 20
8.499217871708486
 10
30.90052997786779
 20
8.499748696075656
 10
31.0353781823
 20
8.499917391399392
  0
DIMENSION
  5
51A
330
1E
100
AcDbEntity
  8
SK2
100
AcDbDimension
  2
*D2
 10
40.0
 20
-36.48743545674483
 30
0.0
 11
7.499999999999996
 21
-36.48743545674483
 31
0.0
 70
   160
 71
     5
 42
65.0
  3
ISO-25
100
AcDbAlignedDimension
 13
-25.0
 23
-5.723635208499985
 33
0.0
 14
40.0
 24
-0.0000000000000049
 34
0.0
 50
180.0
100
AcDbRotatedDimension
  0
LINE
  5
51B
330
1E
100
AcDbEntity
  8
SK4
100
AcDbLine
 10
-25.0
 20
-3.828780126966872
 30
0.0
 11
-25.0
 21
4.811342103036508
 31
0.0
  0
ARC
  5
51C
330
1E
100
AcDbEntity
  8
1
100
AcDbCircle
 10
-0.5205670505000059
 20
-9.0
 30
0.0
 40
1.0
100
AcDbArc
 50
301.3702958131788
 51
325.0
  0
LINE
  5
51D
330
1E
100
AcDbEntity
  8
2
100
AcDbLine
 10
40.0
 20
-24.58137049239998
 30
0.0
 11
40.0
 21
-25.6697642904492
 31
0.0
  0
LINE
  5
51E
330
1E
100
AcDbEntity
  8
2
100
AcDbLine
 10
0.0000000000000053
 20
9.714335361318827
 30
0.0
 11
-0.0000000000000014
 21
-25.6697642904492
 31
0.0
  0
ARC
  5
51F
330
1E
100
AcDbEntity
  8
SK1
100
AcDbCircle
 10
-0.5205670505000033
 20
9.0
 30
0.0
 40
1.0
100
AcDbArc
 50
58.62970418682103
 51
90.0
  0
LINE
  5
520
330
1E
100
AcDbEntity
  8
SK4
100
AcDbLine
 10
0.0000000000000017
 20
0.0
 30
0.0
 11
-50.83156715638621
 21
0.0000000000000062
 31
0.0
  0
DIMENSION
  5
521
330
1E
100
AcDbEntity
  8
2
100
AcDbDimension
  2
*D4
 10
40.0
 20
-24.91521391452454
 30
0.0
 11
19.99999999999998
 21
-24.91521391452454
 31
0.0
 70
   160
 71
     5
 42
40.00000000000002
  3
ISO-25
100
AcDbAlignedDimension
 13
-0.0000000000000282
 23
-11.43421645142143
 33
0.0
 14
40.0
 24
-0.0000000000000049
 34
0.0
 50
180.0
100
AcDbRotatedDimension
  0
TEXT
  5
A02
330
1E
100
AcDbEntity
  8
6
100
AcDbText
 10
-23.40899989291648
 20
-64.32064893534652
 30
0.0
 40
5.0
  1
15B1G020040W4R00
100
AcDbText
  0
LINE
  5
2510
330
1E
100
AcDbEntity
  8
SK4
100
AcDbLine
 10
35.015724
 20
-0.592936210686223
 30
0.0
 11
35.015724
 21
10.77946608583878
 31
0.0
  0
LINE
  5
2511
330
1E
100
AcDbEntity
  8
SK4
100
AcDbLine
 10
28.92356487900077
 20
5.000356450699996
 30
0.0
 11
40.52708188040674
 21
5.000356450699993
 31
0.0
  0
TEXT
  5
2DBF
330
1E
100
AcDbEntity
  8
6
100
AcDbText
 10
61.55544017614714
 20
-4.904194031324891
 30
0.0
 40
3.5
  1
Z=2
 50
90.0
100
AcDbText
  0
TEXT
  5
2DC0
330
1E
100
AcDbEntity
  8
6
100
AcDbText
 10
20.23955853371933
 20
16.95914601686581
 30
0.0
 40
2.5
  1
RHKW1003M0TN
100
AcDbText
  0
LINE
  5
2FC1
330
1E
100
AcDbEntity
  8
NOCUT
100
AcDbLine
 10
0.0
 20
9.853820792633738
 30
0.0
 11
0.0
 21
0.0
 31
0.0
  0
LINE
  5
2FF5
330
1E
100
AcDbEntity
  8
NOCUT
100
AcDbLine
 10
39.0
 20
0.0
 30
0.0
 11
0.0
 21
0.0
 31
0.0
  0
LINE
  5
2FFA
330
1E
100
AcDbEntity
  8
NOCUT
100
AcDbLine
 10
32.19331155989999
 20
8.5
 30
0.0
 11
1.570878357900026
 21
8.5
 31
0.0
  0
LINE
  5
2FFE
330
1E
100
AcDbEntity
  8
NOCUT
100
AcDbLine
 10
0.7517263135999884
 20
8.926423563600007
 30
0.0
 11
0.2985849937999774
 21
9.573576436399987
 31
0.0
  0
LINE
  5
3000
330
1E
100
AcDbEntity
  8
NOCUT
100
AcDbLine
 10
39.0
 20
5.650000000000003
 30
0.0
 11
39.0
 21
0.0
 31
0.0
  0
ARC
  5
300C
330
1E
100
AcDbEntity
  8
NOCUT
100
AcDbCircle
 10
-0.5205670504998751
 20
9.00000000000011
 30
0.0
 40
0.9999999999998287
100
AcDbArc
 50
34.99999999999936
 51
58.6297041868217
  0
ARC
  5
300E
330
1E
100
AcDbEntity
  8
NOCUT
100
AcDbCircle
 10
1.570878357900026
 20
9.5
 30
0.0
 40
1.0
100
AcDbArc
 50
215.0000000000002
 51
270.0
  0
ARC
  5
3010
330
1E
100
AcDbEntity
  8
NOCUT
100
AcDbCircle
 10
35.0
 20
5.650000000000003
 30
0.0
 40
4.0
100
AcDbArc
 50
0.0
 51
134.5613120436002
  0
SPLINE
  5
302F
330
1E
100
AcDbEntity
  8
CUT
100
AcDbSpline
210
0.0
220
0.0
230
1.0
 70
     8
 71
     3
 72
    36
 73
    32
 74
    30
 42
0.0000000001
 43
0.0000000001
 44
0.0000000001
 12
-0.9999657370739441
 22
0.0082779634067752
 32
0.0
 13
0.9999999735951984
 23
-0.0002298033996267
 33
0.0
 40
0.0
 40
0.0
 40
0.0
 40
0.0
 40
0.5396896869293938
 40
1.073331327768086
 40
1.597940705002246
 40
2.117717130501707
 40
2.6390050080598
 40
3.164180589200029
 40
3.692981226458572
 40
4.224568159993395
 40
4.758205951357549
 40
5.293354380746062
 40
5.829631597439997
 40
6.366768874173798
 40
6.90457039813036
 40
7.442897443161546
 40
7.981640443161541
 40
8.52072200945833
 40
9.060078046986419
 40
9.599660119868753
 40
10.13942898107696
 40
10.67935170203987
 40
11.21940286055358
 40
11.75956002039964
 40
12.29980395855539
 40
12.84011964047197
 40
13.38049123911963
 40
13.92090588650162
 40
14.46135285487596
 40
15.00182039788109
 40
15.54229876020279
 40
15.54229876020279
 40
15.54229876020279
 40
15.54229876020279
 10
35.01572399999997
 20
0.401173
 30
0.0
 10
34.83583360147278
 20
0.4026621771598052
 30
0.0
 10
34.47806362647144
 20
0.4002109600225222
 30
0.0
 10
33.94536462559796
 20
0.4123361451285699
 30
0.0
 10
33.42120648995388
 20
0.4702693047553793
 30
0.0
 10
32.91480412319261
 20
0.6054286085277551
 30
0.0
 10
32.43546227855512
 20
0.8169952926330021
 30
0.0
 10
31.98754149469596
 20
1.093858164410815
 30
0.0
 10
31.57526257597975
 20
1.426620171240021
 30
0.0
 10
31.20320470362036
 20
1.807621387667478
 30
0.0
 10
30.87572275113012
 20
2.23016583002347
 30
0.0
 10
30.59669122057899
 20
2.68795463879885
 30
0.0
 10
30.3694111362122
 20
3.1747872537059
 30
0.0
 10
30.19656720534732
 20
3.684421247919576
 30
0.0
 10
30.08019875174176
 20
4.210528701952052
 30
0.0
 10
30.02167945952557
 20
4.746699188602544
 30
0.0
 10
30.02169962368009
 20
5.28647771108582
 30
0.0
 10
30.08026291142949
 20
5.823413231332455
 30
0.0
 10
30.1966851617814
 20
6.351121760039762
 30
0.0
 10
30.36960357778575
 20
6.863348719844343
 30
0.0
 10
30.59698991931992
 20
7.354038498604433
 30
0.0
 10
30.87618155390098
 20
7.817397867022165
 30
0.0
 10
31.20390424370668
 20
8.247964284245711
 30
0.0
 10
31.57631570624564
 20
8.640666667930204
 30
0.0
 10
31.98905271178688
 20
8.990879470686563
 30
0.0
 10
32.43727238954403
 20
9.294485966670034
 30
0.0
 10
32.91572415262387
 20
9.54791208240752
 30
0.0
 10
33.4187907541132
 20
9.748178603930785
 30
0.0
 10
33.9405983202581
 20
9.892936730496151
 30
0.0
 10
34.47494484070235
 20
9.980452260082216
 30
0.0
 10
34.83556455064981
 20
10.00004140125503
 30
0.0
 10
35.01572399999997
 20
10.0
 30
0.0
 11
35.01572399999997
 21
0.401173
 31
0.0
 11
34.47603700000001
 21
0.4028760000000064
 31
0.0
 11
33.942678
 21
0.4202420000000018
 31
0.0
 11
33.42189899999999
 21
0.4835210000000103
 31
0.0
 11
32.91980699999999
 21
0.6179500000000076
 31
0.0
 11
32.44228699999997
 21
0.8270330000000001
 31
0.0
 11
31.99493799999999
 21
1.102147999999999
 31
0.0
 11
31.58300499999994
 21
1.433722000000003
 31
0.0
 11
31.211318
 21
1.813766
 31
0.0
 11
30.88423399999999
 21
2.235412000000009
 31
0.0
 11
30.605588
 21
2.692293000000006
 31
0.0
 11
30.378647
 21
3.178184999999998
 31
0.0
 11
30.20607100000001
 21
3.686844000000006
 31
0.0
 11
30.08988399999998
 21
4.211945
 31
0.0
 11
30.03144800000001
 21
4.747091000000011
 31
0.0
 11
30.03144800000001
 21
5.285834000000006
 31
0.0
 11
30.08988399999998
 21
5.821739000000007
 31
0.0
 11
30.20607100000001
 21
6.348432000000002
 31
0.0
 11
30.378647
 21
6.859672000000002
 31
0.0
 11
30.605588
 21
7.349415000000008
 31
0.0
 11
30.88423399999999
 21
7.811879000000002
 31
0.0
 11
31.211318
 21
8.241613
 31
0.0
 11
31.58300499999994
 21
8.633555000000001
 31
0.0
 11
31.99493799999999
 21
8.983090000000004
 31
0.0
 11
32.44228699999997
 21
9.286107999999996
 31
0.0
 11
32.91980699999999
 21
9.539043000000006
 31
0.0
 11
33.42189899999999
 21
9.738922000000002
 31
0.0
 11
33.942678
 21
9.883394000000008
 31
0.0
 11
34.47603700000001
 21
9.970763000000003
 31
0.0
 11
35.01572399999997
 21
10.0
 31
0.0
  0
SPLINE
  5
3030
330
1E
100
AcDbEntity
  8
CUT
100
AcDbSpline
210
0.0
220
0.0
230
1.0
 70
     8
 71
     3
 72
    36
 73
    32
 74
    30
 42
0.0000000001
 43
0.0000000001
 44
0.0000000001
 12
0.9999657370739441
 22
0.0082779634067752
 32
0.0
 13
-0.9999999735951984
 23
-0.0002298033996267
 33
0.0
 40
0.0
 40
0.0
 40
0.0
 40
0.0
 40
0.539689686929472
 40
1.073331327768171
 40
1.597940705002317
 40
2.117717130501737
 40
2.639005008059831
 40
3.164180589200107
 40
3.692981226458595
 40
4.224568159993458
 40
4.758205951357585
 40
5.293354380746123
 40
5.829631597440061
 40
6.366768874173864
 40
6.90457039813041
 40
7.442897443161604
 40
7.981640443161599
 40
8.520722009458394
 40
9.060078046986468
 40
9.599660119868802
 40
10.13942898107701
 40
10.67935170203994
 40
11.21940286055363
 40
11.75956002039973
 40
12.29980395855543
 40
12.84011964047205
 40
13.38049123911972
 40
13.92090588650166
 40
14.46135285487599
 40
15.00182039788113
 40
15.54229876020291
 40
15.54229876020291
 40
15.54229876020291
 40
15.54229876020291
 10
35.01572399999997
 20
0.401173
 30
0.0
 10
35.19561439852718
 20
0.4026621771598055
 30
0.0
 10
35.55338437352855
 20
0.4002109600225217
 30
0.0
 10
36.08608337440202
 20
0.4123361451285695
 30
0.0
 10
36.61024151004612
 20
0.4702693047553762
 30
0.0
 10
37.11664387680737
 20
0.6054286085277598
 30
0.0
 10
37.59598572144483
 20
0.8169952926330221
 30
0.0
 10
38.04390650530404
 20
1.09385816441077
 30
0.0
 10
38.45618542402019
 20
1.42662017124007
 30
0.0
 10
38.82824329637966
 20
1.807621387667437
 30
0.0
 10
39.15572524886982
 20
2.230165830023503
 30
0.0
 10
39.43475677942102
 20
2.687954638798834
 30
0.0
 10
39.66203686378781
 20
3.174787253705904
 30
0.0
 10
39.83488079465272
 20
3.684421247919564
 30
0.0
 10
39.95124924825815
 20
4.210528701952069
 30
0.0
 10
40.00976854047445
 20
4.746699188602535
 30
0.0
 10
40.00974837631995
 20
5.286477711085828
 30
0.0
 10
39.95118508857041
 20
5.823413231332441
 30
0.0
 10
39.83476283821865
 20
6.351121760039772
 30
0.0
 10
39.66184442221424
 20
6.863348719844343
 30
0.0
 10
39.4344580806801
 20
7.354038498604449
 30
0.0
 10
39.15526644609894
 20
7.817397867022133
 30
0.0
 10
38.82754375629335
 20
8.24796428424575
 30
0.0
 10
38.45513229375429
 20
8.640666667930158
 30
0.0
 10
38.04239528821314
 20
8.990879470686609
 30
0.0
 10
37.59417561045593
 20
9.294485966670015
 30
0.0
 10
37.1157238473761
 20
9.547912082407513
 30
0.0
 10
36.61265724588679
 20
9.748178603930796
 30
0.0
 10
36.09084967974192
 20
9.892936730496151
 30
0.0
 10
35.55650315929764
 20
9.980452260082222
 30
0.0
 10
35.19588344935015
 20
10.00004140125503
 30
0.0
 10
35.01572399999997
 20
10.0
 30
0.0
 11
35.01572399999997
 21
0.401173
 31
0.0
 11
35.55541099999999
 21
0.4028760000000064
 31
0.0
 11
36.08877000000001
 21
0.4202420000000018
 31
0.0
 11
36.60954900000001
 21
0.4835210000000103
 31
0.0
 11
37.11164099999996
 21
0.6179500000000076
 31
0.0
 11
37.58916099999999
 21
0.8270330000000001
 31
0.0
 11
38.03651000000002
 21
1.102147999999999
 31
0.0
 11
38.448443
 21
1.433722000000003
 31
0.0
 11
38.82013
 21
1.813766
 31
0.0
 11
39.14721399999996
 21
2.235412000000009
 31
0.0
 11
39.42586
 21
2.692293000000006
 31
0.0
 11
39.65280100000001
 21
3.178184999999998
 31
0.0
 11
39.825377
 21
3.686844000000006
 31
0.0
 11
39.94156399999996
 21
4.211945
 31
0.0
 11
40.0
 21
4.747091000000011
 31
0.0
 11
40.0
 21
5.285834000000006
 31
0.0
 11
39.94156399999996
 21
5.821739000000007
 31
0.0
 11
39.825377
 21
6.348432000000002
 31
0.0
 11
39.65280100000001
 21
6.859672000000002
 31
0.0
 11
39.42586
 21
7.349415000000008
 31
0.0
 11
39.14721399999996
 21
7.811879000000002
 31
0.0
 11
38.82013
 21
8.241613
 31
0.0
 11
38.448443
 21
8.633555000000001
 31
0.0
 11
38.03651000000002
 21
8.983090000000004
 31
0.0
 11
37.58916099999999
 21
9.286107999999996
 31
0.0
 11
37.11164099999996
 21
9.539043000000006
 31
0.0
 11
36.60954900000001
 21
9.738922000000002
 31
0.0
 11
36.08877000000001
 21
9.883394000000008
 31
0.0
 11
35.55541099999999
 21
9.970763000000003
 31
0.0
 11
35.01572399999997
 21
10.0
 31
0.0
  0
LWPOLYLINE
  5
3195
330
1E
100
AcDbEntity
  8
1
100
AcDbPolyline
 90
        3
 70
     1
 43
0.0
 10
0.0
 20
-0.0000000000000284
 10
-2.950972054112583
 20
-0.0000000000000284
 42
0.4142135623730966
 10
0.0
 20
-2.950972054112611
  0
HATCH
  5
3196
330
1E
100
AcDbEntity
  8
1
100
AcDbHatch
 10
0.0
 20
0.0
 30
0.0
210
0.0
220
0.0
230
1.0
  2
SOLID
 70
     1
 71
     0
 91
        2
 92
        7
 72
     1
 73
     1
 93
        3
 10
0.0
 20
-0.0000000000000284
 42
0.0
 10
2.950972054112583
 20
-0.0000000000000284
 42
0.4142135623730966
 10
0.0
 20
2.950972054112583
 42
0.0
 97
        0
 92
        7
 72
     1
 73
     1
 93
        3
 10
0.0
 20
-2.950972054112526
 42
0.0
 10
0.0
 20
-0.0000000000000284
 42
0.0
 10
-2.950972054112583
 20
-0.0000000000000284
 42
0.4142135623730953
 97
        0
 75
     0
 76
     1
 47
0.1190009775223266
 98
        2
 10
0.7445530588119027
 20
0.9212244733764691
 10
-1.279464601852936
 20
-1.69679692304632
  0
CIRCLE
  5
3197
330
1E
100
AcDbEntity
  8
1
100
AcDbCircle
 10
0.0
 20
-0.0000000000000284
 30
0.0
 40
2.950972054112601
  0
LINE
  5
3198
330
1E
100
AcDbEntity
  8
1
100
AcDbLine
 10
0.0
 20
2.950972054112583
 30
0.0
 11
0.0
 21
-2.950972054112611
 31
0.0
  0
LINE
  5
3199
330
1E
100
AcDbEntity
  8
1
100
AcDbLine
 10
-2.950972054112837
 20
-0.0000000000000284
 30
0.0
 11
2.950972054112583
 21
-0.0000000000000284
 31
0.0
  0
LWPOLYLINE
  5
319A
330
1E
100
AcDbEntity
  8
1
100
AcDbPolyline
 90
        3
 70
     1
 43
0.0
 10
0.0
 20
2.950972054112583
 10
0.0
 20
-0.0000000000000284
 10
2.950972054112583
 20
-0.0000000000000284
 42
0.4142135623730966
  0
ENDSEC
  0
SECTION
  2
OBJECTS
  0
DICTIONARY
  5
C
330
0
100
AcDbDictionary
281
     1
  3
ACAD_COLOR
350
331A
  3
ACAD_GROUP
350
D
  3
ACAD_LAYOUT
350
19
  3
ACAD_MATERIAL
350
3319
  3
ACAD_MLINESTYLE
350
16
  3
ACAD_PLOTSETTINGS
350
18
  3
ACAD_PLOTSTYLENAME
350
27F7
  3
ACAD_TABLESTYLE
350
331B
  3
ACDBHEADERROUNDTRIPXREC
350
3323
  3
AcDbVariableDictionary
350
331E
1001
ACAD
1000
TREAT_AS_HARD
1070
     0
1000
TREAT_AS_HARD
1070
     0
  0
DICTIONARY
  5
1F01
330
1E
100
AcDbDictionary
281
     1
  3
ACAD_LAYOUTSELFREF
350
2514
1001
ACAD
1000
TREAT_AS_HARD
1070
     0
  0
DICTIONARY
  5
1EFF
330
1A
100
AcDbDictionary
281
     1
  3
ACAD_LAYOUTSELFREF
350
2513
1001
ACAD
1000
TREAT_AS_HARD
1070
     0
  0
DICTIONARY
  5
331A
102
{ACAD_REACTORS
330
C
102
}
330
C
100
AcDbDictionary
281
     1
  0
DICTIONARY
  5
D
102
{ACAD_REACTORS
330
C
102
}
330
C
100
AcDbDictionary
281
     1
1001
ACAD
1000
TREAT_AS_HARD
1070
     0
1000
TREAT_AS_HARD
1070
     0
  0
DICTIONARY
  5
19
102
{ACAD_REACTORS
330
C
102
}
330
C
100
AcDbDictionary
281
     1
  3
Layout1
350
27FA
  3
Model
350
27F9
1001
ACAD
1000
TREAT_AS_HARD
1070
     0
1000
TREAT_AS_HARD
1070
     0
  0
DICTIONARY
  5
3319
102
{ACAD_REACTORS
330
C
102
}
330
C
100
AcDbDictionary
281
     1
  0
DICTIONARY
  5
16
102
{ACAD_REACTORS
330
C
102
}
330
C
100
AcDbDictionary
281
     1
  3
STANDARD
350
17
1001
ACAD
1000
TREAT_AS_HARD
1070
     0
1000
TREAT_AS_HARD
1070
     0
  0
DICTIONARY
  5
18
102
{ACAD_REACTORS
330
C
102
}
330
C
100
AcDbDictionary
281
     1
1001
ACAD
1000
TREAT_AS_HARD
1070
     0
1000
TREAT_AS_HARD
1070
     0
  0
ACDBDICTIONARYWDFLT
  5
27F7
102
{ACAD_REACTORS
330
C
102
}
330
C
100
AcDbDictionary
281
     1
  3
Normal
350
27F8
100
AcDbDictionaryWithDefault
340
27F8
  0
DICTIONARY
  5
331B
102
{ACAD_REACTORS
330
C
102
}
330
C
100
AcDbDictionary
281
     1
  3
Standard
350
331C
  0
DICTIONARY
  5
3323
102
{ACAD_REACTORS
330
C
102
}
330
C
100
AcDbDictionary
281
     1
  0
DICTIONARY
  5
331E
102
{ACAD_REACTORS
330
C
102
}
330
C
100
AcDbDictionary
281
     1
  3
CTABLESTYLE
350
331F
  3
DIMASSOC
350
3320
  3
PROJECTNAME
350
3321
  0
XRECORD
  5
2514
102
{ACAD_REACTORS
330
1F01
102
}
330
1F01
100
AcDbXrecord
280
     1
340
1E
  0
XRECORD
  5
2513
102
{ACAD_REACTORS
330
1EFF
102
}
330
1EFF
100
AcDbXrecord
280
     1
340
1A
  0
LAYOUT
  5
27FA
102
{ACAD_XDICTIONARY
360
3326
102
}
102
{ACAD_REACTORS
330
19
102
}
330
19
100
AcDbPlotSettings
  1

  2
\\ingdom02\ITB2
  4

  6

 40
0.0
 41
0.0
 42
0.0
 43
0.0
 44
0.0
 45
0.0
 46
0.0
 47
0.0
 48
0.0
 49
0.0
140
0.0
141
0.0
142
1.0
143
1.0
 70
   688
 72
     0
 73
     0
 74
     5
  7

 75
    16
147
1.0
148
0.0
149
0.0
100
AcDbLayout
  1
Layout1
 70
     1
 71
     1
 10
0.0
 20
0.0
 11
12.0
 21
9.0
 12
0.0
 22
0.0
 32
0.0
 14
100.0
 24
100.0
 34
100.0
 15
-100.0
 25
-100.0
 35
-100.0
146
0.0
 13
0.0
 23
0.0
 33
0.0
 16
1.0
 26
0.0
 36
0.0
 17
0.0
 27
1.0
 37
0.0
 76
     0
330
1A
  0
LAYOUT
  5
27F9
102
{ACAD_XDICTIONARY
360
3324
102
}
102
{ACAD_REACTORS
330
19
102
}
330
19
100
AcDbPlotSettings
  1

  2
\\ingdom02\ITB2
  4

  6

 40
0.0
 41
0.0
 42
0.0
 43
0.0
 44
0.0
 45
0.0
 46
0.0
 47
0.0
 48
0.0
 49
0.0
140
0.0
141
0.0
142
1.0
143
1.0
 70
  1712
 72
     0
 73
     0
 74
     0
  7

 75
     0
147
1.0
148
0.0
149
0.0
100
AcDbLayout
  1
Model
 70
     1
 71
     0
 10
0.0
 20
0.0
 11
12.0
 21
9.0
 12
0.0
 22
0.0
 32
0.0
 14
0.0
 24
0.0
 34
0.0
 15
0.0
 25
0.0
 35
0.0
146
0.0
 13
0.0
 23
0.0
 33
0.0
 16
1.0
 26
0.0
 36
0.0
 17
0.0
 27
1.0
 37
0.0
 76
     0
330
1E
  0
MLINESTYLE
  5
17
102
{ACAD_REACTORS
330
16
102
}
330
16
100
AcDbMlineStyle
  2
STANDARD
 70
     0
  3

 62
   256
 51
90.0
 52
90.0
 71
     2
 49
0.5
 62
   256
  6
BYLAYER
 49
-0.5
 62
   256
  6
BYLAYER
  0
ACDBPLACEHOLDER
  5
27F8
102
{ACAD_REACTORS
330
27F7
102
}
330
27F7
  0
TABLESTYLE
  5
331C
102
{ACAD_REACTORS
330
331B
102
}
330
331B
100
AcDbTableStyle
  3
Standard
 70
     0
 71
     0
 40
0.06
 41
0.06
280
     0
281
     0
  7
STANDARD
140
0.18
170
     2
 62
     0
 63
     7
283
     0
274
    -2
284
     1
 64
     0
275
    -2
285
     1
 65
     0
276
    -2
286
     1
 66
     0
277
    -2
287
     1
 67
     0
278
    -2
288
     1
 68
     0
279
    -2
289
     1
 69
     0
  7
STANDARD
140
0.25
170
     5
 62
     0
 63
     7
283
     0
274
    -2
284
     1
 64
     0
275
    -2
285
     1
 65
     0
276
    -2
286
     1
 66
     0
277
    -2
287
     1
 67
     0
278
    -2
288
     1
 68
     0
279
    -2
289
     1
 69
     0
  7
STANDARD
140
0.18
170
     5
 62
     0
 63
     7
283
     0
274
    -2
284
     1
 64
     0
275
    -2
285
     1
 65
     0
276
    -2
286
     1
 66
     0
277
    -2
287
     1
 67
     0
278
    -2
288
     1
 68
     0
279
    -2
289
     1
 69
     0
  0
DICTIONARYVAR
  5
331F
102
{ACAD_REACTORS
330
331E
102
}
330
331E
100
DictionaryVariables
280
     0
  1
STANDARD
  0
DICTIONARYVAR
  5
3320
102
{ACAD_REACTORS
330
331E
102
}
330
331E
100
DictionaryVariables
280
     0
  1
1
  0
DICTIONARYVAR
  5
3321
102
{ACAD_REACTORS
330
331E
102
}
330
331E
100
DictionaryVariables
280
     0
  1

  0
DICTIONARY
  5
3326
330
27FA
100
AcDbDictionary
280
     1
281
     1
  3
ACAD_XREC_ROUNDTRIP
360
3327
  0
DICTIONARY
  5
3324
330
27F9
100
AcDbDictionary
280
     1
281
     1
  3
ACAD_XREC_ROUNDTRIP
360
3325
  0
XRECORD
  5
3327
102
{ACAD_REACTORS
330
3326
102
}
330
3326
100
AcDbXrecord
280
     1
102
SHADEPLOT
 70
     0
102
SHADEPLOTRESLEVEL
 70
     2
102
SHADEPLOTCUSTOMDPI
 70
   300
  0
XRECORD
  5
3325
102
{ACAD_REACTORS
330
3324
102
}
330
3324
100
AcDbXrecord
280
     1
102
SHADEPLOT
 70
     0
102
SHADEPLOTRESLEVEL
 70
     2
102
SHADEPLOTCUSTOMDPI
 70
   300
  0
ENDSEC
  0
EOF
