  0
SECTION
  2
HEADER
  9
$ACADVER
  1
AC1015
  9
$ACADMAINTVER
 70
    20
  9
$DWGCODEPAGE
  3
ANSI_1252
  9
$INSBASE
 10
0.0
 20
0.0
 30
0.0
  9
$EXTMIN
 10
-37.76811000235535
 20
-34.00325417705835
 30
-0.0015258207003583
  9
$EXTMAX
 10
50.81626580286888
 20
17.60814154322895
 30
0.0000000349246037
  9
$LIMMIN
 10
0.0
 20
0.0
  9
$LIMMAX
 10
594.0
 20
420.0
  9
$ORTHOMODE
 70
     0
  9
$REGENMODE
 70
     1
  9
$FILLMODE
 70
     1
  9
$QTEXTMODE
 70
     0
  9
$MIRRTEXT
 70
     1
  9
$LTSCALE
 40
10.0
  9
$ATTMODE
 70
     1
  9
$TEXTSIZE
 40
0.2
  9
$TRACEWID
 40
0.05
  9
$TEXTSTYLE
  7
STANDARD
  9
$CLAYER
  8
0
  9
$CELTYPE
  6
BYLAYER
  9
$CECOLOR
 62
   256
  9
$CELTSCALE
 40
1.0
  9
$DISPSILH
 70
     0
  9
$DIMSCALE
 40
1.0
  9
$DIMASZ
 40
2.5
  9
$DIMEXO
 40
3.712499999999999
  9
$DIMDLI
 40
22.572
  9
$DIMRND
 40
0.0
  9
$DIMDLE
 40
0.0
  9
$DIMEXE
 40
10.692
  9
$DIMTP
 40
0.01
  9
$DIMTM
 40
0.01
  9
$DIMTXT
 40
3.5
  9
$DIMCEN
 40
5.346
  9
$DIMTSZ
 40
0.0
  9
$DIMTOL
 70
     1
  9
$DIMLIM
 70
     0
  9
$DIMTIH
 70
     1
  9
$DIMTOH
 70
     1
  9
$DIMSE1
 70
     0
  9
$DIMSE2
 70
     0
  9
$DIMTAD
 70
     0
  9
$DIMZIN
 70
     0
  9
$DIMBLK
  1
_FILLED
  9
$DIMASO
 70
     1
  9
$DIMSHO
 70
     1
  9
$DIMPOST
  1

  9
$DIMAPOST
  1

  9
$DIMALT
 70
     0
  9
$DIMALTD
 70
     2
  9
$DIMALTF
 40
25.4
  9
$DIMLFAC
 40
1.0
  9
$DIMTOFL
 70
     0
  9
$DIMTVP
 40
0.0
  9
$DIMTIX
 70
     0
  9
$DIMSOXD
 70
     0
  9
$DIMSAH
 70
     0
  9
$DIMBLK1
  1

  9
$DIMBLK2
  1

  9
$DIMSTYLE
  2
STANDARD
  9
$DIMCLRD
 70
     0
  9
$DIMCLRE
 70
     0
  9
$DIMCLRT
 70
     0
  9
$DIMTFAC
 40
1.0
  9
$DIMGAP
 40
0.09
  9
$DIMJUST
 70
     0
  9
$DIMSD1
 70
     0
  9
$DIMSD2
 70
     0
  9
$DIMTOLJ
 70
     1
  9
$DIMTZIN
 70
     0
  9
$DIMALTZ
 70
     0
  9
$DIMALTTZ
 70
     0
  9
$DIMUPT
 70
     0
  9
$DIMDEC
 70
     4
  9
$DIMTDEC
 70
     4
  9
$DIMALTU
 70
     2
  9
$DIMALTTD
 70
     2
  9
$DIMTXSTY
  7
STANDARD
  9
$DIMAUNIT
 70
     0
  9
$DIMADEC
 70
     0
  9
$DIMALTRND
 40
0.0
  9
$DIMAZIN
 70
     0
  9
$DIMDSEP
 70
    46
  9
$DIMATFIT
 70
     3
  9
$DIMFRAC
 70
     0
  9
$DIMLDRBLK
  1
_FILLED
  9
$DIMLUNIT
 70
     2
  9
$DIMLWD
 70
    -2
  9
$DIMLWE
 70
    -2
  9
$DIMTMOVE
 70
     0
  9
$LUNITS
 70
     2
  9
$LUPREC
 70
     4
  9
$SKETCHINC
 40
0.1
  9
$FILLETRAD
 40
0.0
  9
$AUNITS
 70
     0
  9
$AUPREC
 70
     0
  9
$MENU
  1

  9
$ELEVATION
 40
0.0
  9
$PELEVATION
 40
0.0
  9
$THICKNESS
 40
0.0
  9
$LIMCHECK
 70
     0
  9
$CHAMFERA
 40
0.0
  9
$CHAMFERB
 40
0.0
  9
$CHAMFERC
 40
0.0
  9
$CHAMFERD
 40
0.0
  9
$SKPOLY
 70
     0
  9
$TDCREATE
 40
2453431.589039746
  9
$TDUCREATE
 40
2453431.505706412
  9
$TDUPDATE
 40
2453909.292702998
  9
$TDUUPDATE
 40
2453909.209369665
  9
$TDINDWG
 40
0.0541175231
  9
$TDUSRTIMER
 40
0.0527214815
  9
$USRTIMER
 70
     1
  9
$ANGBASE
 50
0.0
  9
$ANGDIR
 70
     0
  9
$PDMODE
 70
     0
  9
$PDSIZE
 40
0.3125
  9
$PLINEWID
 40
0.0
  9
$SPLFRAME
 70
     0
  9
$SPLINETYPE
 70
     6
  9
$SPLINESEGS
 70
     8
  9
$HANDSEED
  5
240E
  9
$SURFTAB1
 70
     6
  9
$SURFTAB2
 70
     6
  9
$SURFTYPE
 70
     6
  9
$SURFU
 70
     6
  9
$SURFV
 70
     6
  9
$UCSBASE
  2

  9
$UCSNAME
  2

  9
$UCSORG
 10
0.0
 20
0.0
 30
0.0
  9
$UCSXDIR
 10
1.0
 20
0.0
 30
0.0
  9
$UCSYDIR
 10
0.0
 20
1.0
 30
0.0
  9
$UCSORTHOREF
  2

  9
$UCSORTHOVIEW
 70
     0
  9
$UCSORGTOP
 10
0.0
 20
0.0
 30
0.0
  9
$UCSORGBOTTOM
 10
0.0
 20
0.0
 30
0.0
  9
$UCSORGLEFT
 10
0.0
 20
0.0
 30
0.0
  9
$UCSORGRIGHT
 10
0.0
 20
0.0
 30
0.0
  9
$UCSORGFRONT
 10
0.0
 20
0.0
 30
0.0
  9
$UCSORGBACK
 10
0.0
 20
0.0
 30
0.0
  9
$PUCSBASE
  2

  9
$PUCSNAME
  2

  9
$PUCSORG
 10
0.0
 20
0.0
 30
0.0
  9
$PUCSXDIR
 10
1.0
 20
0.0
 30
0.0
  9
$PUCSYDIR
 10
0.0
 20
1.0
 30
0.0
  9
$PUCSORTHOREF
  2

  9
$PUCSORTHOVIEW
 70
     0
  9
$PUCSORGTOP
 10
0.0
 20
0.0
 30
0.0
  9
$PUCSORGBOTTOM
 10
0.0
 20
0.0
 30
0.0
  9
$PUCSORGLEFT
 10
0.0
 20
0.0
 30
0.0
  9
$PUCSORGRIGHT
 10
0.0
 20
0.0
 30
0.0
  9
$PUCSORGFRONT
 10
0.0
 20
0.0
 30
0.0
  9
$PUCSORGBACK
 10
0.0
 20
0.0
 30
0.0
  9
$USERI1
 70
     0
  9
$USERI2
 70
     0
  9
$USERI3
 70
     0
  9
$USERI4
 70
     0
  9
$USERI5
 70
     0
  9
$USERR1
 40
0.0
  9
$USERR2
 40
0.0
  9
$USERR3
 40
0.0
  9
$USERR4
 40
0.0
  9
$USERR5
 40
0.0
  9
$WORLDVIEW
 70
     1
  9
$SHADEDGE
 70
     3
  9
$SHADEDIF
 70
    70
  9
$TILEMODE
 70
     1
  9
$MAXACTVP
 70
    64
  9
$PINSBASE
 10
0.0
 20
0.0
 30
0.0
  9
$PLIMCHECK
 70
     0
  9
$PEXTMIN
 10
100.0
 20
100.0
 30
100.0
  9
$PEXTMAX
 10
-100.0
 20
-100.0
 30
-100.0
  9
$PLIMMIN
 10
0.0
 20
0.0
  9
$PLIMMAX
 10
12.0
 20
9.0
  9
$UNITMODE
 70
     0
  9
$VISRETAIN
 70
     1
  9
$PLINEGEN
 70
     1
  9
$PSLTSCALE
 70
     1
  9
$TREEDEPTH
 70
  3020
  9
$CMLSTYLE
  2
STANDARD
  9
$CMLJUST
 70
     0
  9
$CMLSCALE
 40
1.0
  9
$PROXYGRAPHICS
 70
     1
  9
$MEASUREMENT
 70
     0
  9
$CELWEIGHT
370
    -1
  9
$ENDCAPS
280
     0
  9
$JOINSTYLE
280
     0
  9
$LWDISPLAY
290
     0
  9
$INSUNITS
 70
     0
  9
$HYPERLINKBASE
  1

  9
$STYLESHEET
  1

  9
$XEDIT
290
     1
  9
$CEPSNTYPE
380
     0
  9
$PSTYLEMODE
290
     1
  9
$FINGERPRINTGUID
  2
{4CEC5419-6970-4188-96AA-0B039E331ABE}
  9
$VERSIONGUID
  2
{9EBF1516-67F3-4CA4-AF26-456820C6BD2A}
  9
$EXTNAMES
290
     1
  9
$PSVPSCALE
 40
0.0
  9
$OLESTARTUP
290
     0
  0
ENDSEC
  0
SECTION
  2
CLASSES
  0
CLASS
  1
ACDBDICTIONARYWDFLT
  2
AcDbDictionaryWithDefault
  3
ObjectDBX Classes
 90
        0
280
     0
281
     0
  0
CLASS
  1
ACDBPLACEHOLDER
  2
AcDbPlaceHolder
  3
ObjectDBX Classes
 90
        0
280
     0
281
     0
  0
CLASS
  1
LAYOUT
  2
AcDbLayout
  3
ObjectDBX Classes
 90
        0
280
     0
281
     0
  0
CLASS
  1
TABLESTYLE
  2
AcDbTableStyle
  3
ObjectDBX Classes
 90
     2047
280
     0
281
     0
  0
CLASS
  1
DICTIONARYVAR
  2
AcDbDictionaryVar
  3
ObjectDBX Classes
 90
        0
280
     0
281
     0
  0
ENDSEC
  0
SECTION
  2
TABLES
  0
TABLE
  2
VPORT
  5
8
330
0
100
AcDbSymbolTable
 70
     2
  0
VPORT
  5
2408
330
8
100
AcDbSymbolTableRecord
100
AcDbViewportTableRecord
  2
*Active
 70
     0
 10
0.0
 20
0.0
 11
1.0
 21
1.0
 12
6.52407790025677
 22
-8.197556316914699
 13
0.0
 23
0.0
 14
1.0
 24
1.0
 15
0.0
 25
0.0
 16
0.0
 26
0.0
 36
1.0
 17
0.0
 27
0.0
 37
0.0
 40
58.09478349257292
 41
1.532401524777636
 42
50.0
 43
0.0
 44
0.0
 50
0.0
 51
0.0
 71
     0
 72
  1000
 73
     1
 74
     1
 75
     0
 76
     0
 77
     0
 78
     0
281
     0
 65
     1
110
0.0
120
0.0
130
0.0
111
1.0
121
0.0
131
0.0
112
0.0
122
1.0
132
0.0
 79
     0
146
0.0
  0
ENDTAB
  0
TABLE
  2
LTYPE
  5
5
330
0
100
AcDbSymbolTable
 70
     2
  0
LTYPE
  5
13
330
5
100
AcDbSymbolTableRecord
100
AcDbLinetypeTableRecord
  2
BYBLOCK
 70
     0
  3

 72
    65
 73
     0
 40
0.0
  0
LTYPE
  5
14
330
5
100
AcDbSymbolTableRecord
100
AcDbLinetypeTableRecord
  2
BYLAYER
 70
     0
  3

 72
    65
 73
     0
 40
0.0
  0
LTYPE
  5
15
330
5
100
AcDbSymbolTableRecord
100
AcDbLinetypeTableRecord
  2
CONTINUOUS
 70
     0
  3
Solid line
 72
    65
 73
     0
 40
0.0
  0
LTYPE
  5
2A
330
5
100
AcDbSymbolTableRecord
100
AcDbLinetypeTableRecord
  2
CENTER
 70
     0
  3
____ _ ____ _ ____ _ ____ _ ____ _ ____ _ ____
 72
    65
 73
     4
 40
0.6
 49
0.375
 74
     0
 49
-0.075
 74
     0
 49
0.075
 74
     0
 49
-0.075
 74
     0
  0
ENDTAB
  0
TABLE
  2
LAYER
  5
2
330
0
100
AcDbSymbolTable
 70
    11
  0
LAYER
  5
10
330
2
100
AcDbSymbolTableRecord
100
AcDbLayerTableRecord
  2
1
 70
     0
 62
     4
  6
CONTINUOUS
370
    -3
390
2075
  0
LAYER
  5
2D
330
2
100
AcDbSymbolTableRecord
100
AcDbLayerTableRecord
  2
2
 70
     0
 62
     7
  6
CONTINUOUS
370
    -3
390
2075
  0
LAYER
  5
2F
330
2
100
AcDbSymbolTableRecord
100
AcDbLayerTableRecord
  2
4
 70
     0
 62
     2
  6
CENTER
370
    -3
390
2075
  0
LAYER
  5
32
330
2
100
AcDbSymbolTableRecord
100
AcDbLayerTableRecord
  2
0
 70
     0
 62
     7
  6
CONTINUOUS
370
    -3
390
2075
  0
LAYER
  5
33
330
2
100
AcDbSymbolTableRecord
100
AcDbLayerTableRecord
  2
DEFPOINTS
 70
     0
 62
     7
  6
CONTINUOUS
290
     0
370
    -3
390
2075
  0
LAYER
  5
352
330
2
100
AcDbSymbolTableRecord
100
AcDbLayerTableRecord
  2
SK1
 70
     0
 62
     4
  6
CONTINUOUS
370
    -3
390
2075
  0
LAYER
  5
353
330
2
100
AcDbSymbolTableRecord
100
AcDbLayerTableRecord
  2
SK4
 70
     0
 62
     2
  6
CENTER
370
    -3
390
2075
  0
LAYER
  5
354
330
2
100
AcDbSymbolTableRecord
100
AcDbLayerTableRecord
  2
SK2
 70
     0
 62
     7
  6
CONTINUOUS
370
    -3
390
2075
  0
LAYER
  5
209F
330
2
100
AcDbSymbolTableRecord
100
AcDbLayerTableRecord
  2
CUT
 70
     0
 62
     1
  6
CONTINUOUS
370
    -3
390
2075
  0
LAYER
  5
20B7
330
2
100
AcDbSymbolTableRecord
100
AcDbLayerTableRecord
  2
NOCUT
 70
     0
 62
     7
  6
CONTINUOUS
370
    -3
390
2075
  0
LAYER
  5
20D6
330
2
100
AcDbSymbolTableRecord
100
AcDbLayerTableRecord
  2
6
 70
     0
 62
     5
  6
CONTINUOUS
370
    -3
390
2075
  0
ENDTAB
  0
TABLE
  2
STYLE
  5
3
330
0
100
AcDbSymbolTable
 70
     1
  0
STYLE
  5
11
330
3
100
AcDbSymbolTableRecord
100
AcDbTextStyleTableRecord
  2
STANDARD
 70
     0
 40
0.0
 41
0.8
 50
0.0
 71
     0
 42
0.2
  3
ISOCP
  4

  0
ENDTAB
  0
TABLE
  2
VIEW
  5
6
330
0
100
AcDbSymbolTable
 70
     0
  0
ENDTAB
  0
TABLE
  2
UCS
  5
7
330
0
100
AcDbSymbolTable
 70
     0
  0
ENDTAB
  0
TABLE
  2
APPID
  5
9
330
0
100
AcDbSymbolTable
 70
     1
  0
APPID
  5
12
330
9
100
AcDbSymbolTableRecord
100
AcDbRegAppTableRecord
  2
ACAD
 70
     0
  0
ENDTAB
  0
TABLE
  2
DIMSTYLE
  5
A
330
0
100
AcDbSymbolTable
 70
     2
100
AcDbDimStyleTable
 71
     0
  0
DIMSTYLE
105
2C
330
A
100
AcDbSymbolTableRecord
100
AcDbDimStyleTableRecord
  2
STANDARD
 70
     0
340
11
  0
DIMSTYLE
105
355
102
{ACAD_REACTORS
330
71
330
70
330
6E
330
6F
102
}
330
A
100
AcDbSymbolTableRecord
100
AcDbDimStyleTableRecord
  2
ISO-25
 70
     0
 41
2.5
 42
0.625
 43
3.75
 44
1.25
 73
     0
 74
     0
 77
     1
 78
     8
140
2.5
141
2.5
143
0.03937007874016
147
0.625
171
     3
172
     1
271
     2
272
     2
274
     3
283
     0
284
     8
340
11
  0
ENDTAB
  0
TABLE
  2
BLOCK_RECORD
  5
1
330
0
100
AcDbSymbolTable
 70
     5
  0
BLOCK_RECORD
  5
1E
102
{ACAD_XDICTIONARY
360
175F
102
}
330
1
100
AcDbSymbolTableRecord
100
AcDbBlockTableRecord
  2
*MODEL_SPACE
340
2076
  0
BLOCK_RECORD
  5
1A
102
{ACAD_XDICTIONARY
360
175D
102
}
330
1
100
AcDbSymbolTableRecord
100
AcDbBlockTableRecord
  2
*PAPER_SPACE
340
2077
  0
BLOCK_RECORD
  5
23
330
1
100
AcDbSymbolTableRecord
100
AcDbBlockTableRecord
  2
_FILLED
340
0
  0
BLOCK_RECORD
  5
49E
330
1
100
AcDbSymbolTableRecord
100
AcDbBlockTableRecord
  2
*D1
340
0
  0
BLOCK_RECORD
  5
4AA
330
1
100
AcDbSymbolTableRecord
100
AcDbBlockTableRecord
  2
*D2
340
0
  0
BLOCK_RECORD
  5
4B8
330
1
100
AcDbSymbolTableRecord
100
AcDbBlockTableRecord
  2
*D3
340
0
  0
BLOCK_RECORD
  5
4C4
330
1
100
AcDbSymbolTableRecord
100
AcDbBlockTableRecord
  2
*D4
340
0
  0
ENDTAB
  0
ENDSEC
  0
SECTION
  2
BLOCKS
  0
BLOCK
  5
36
330
1E
100
AcDbEntity
  8
0
100
AcDbBlockBegin
  2
*MODEL_SPACE
 70
     0
 10
0.0
 20
0.0
 30
0.0
  3
*MODEL_SPACE
  1

  0
ENDBLK
  5
37
330
1E
100
AcDbEntity
  8
0
100
AcDbBlockEnd
  0
BLOCK
  5
34
330
1A
100
AcDbEntity
 67
     1
  8
0
100
AcDbBlockBegin
  2
*PAPER_SPACE
 70
     0
 10
0.0
 20
0.0
 30
0.0
  3
*PAPER_SPACE
  1

  0
ENDBLK
  5
35
330
1A
100
AcDbEntity
 67
     1
  8
0
100
AcDbBlockEnd
  0
BLOCK
  5
3A
330
23
100
AcDbEntity
  8
0
100
AcDbBlockBegin
  2
_FILLED
 70
     0
 10
0.0
 20
0.0
 30
0.0
  3
_FILLED
  1

  0
SOLID
  5
3B
330
23
100
AcDbEntity
  8
0
  6
ByBlock
 62
     0
100
AcDbTrace
 10
0.0
 20
0.0
 30
0.0
 11
-1.0
 21
0.132
 31
0.0
 12
-1.0
 22
-0.132
 32
0.0
 13
-1.0
 23
-0.132
 33
0.0
  0
ENDBLK
  5
3C
330
23
100
AcDbEntity
  8
0
100
AcDbBlockEnd
  0
BLOCK
  5
4A8
330
49E
100
AcDbEntity
  8
0
100
AcDbBlockBegin
  2
*D1
 70
     1
 10
0.0
 20
0.0
 30
0.0
  3
*D1
  1

  0
LINE
  5
23FB
330
49E
100
AcDbEntity
  8
SK2
 62
     0
370
    -2
100
AcDbLine
 10
-0.6250000000000011
 20
-9.0
 30
0.0
 11
-35.97324769605291
 21
-8.999999999999991
 31
0.0
  0
LINE
  5
23FC
330
49E
100
AcDbEntity
  8
SK2
 62
     0
370
    -2
100
AcDbLine
 10
-0.624999999999999
 20
9.0
 30
0.0
 11
-35.97324769605291
 21
9.000000000000008
 31
0.0
  0
LINE
  5
23FD
330
49E
100
AcDbEntity
  8
SK2
 62
     0
370
    -2
100
AcDbLine
 10
-34.72324769605291
 20
-6.49999999999999
 30
0.0
 11
-34.72324769605291
 21
6.500000000000009
 31
0.0
  0
SOLID
  5
23FE
330
49E
100
AcDbEntity
  8
SK2
 62
     0
100
AcDbTrace
 10
-35.13991436271957
 20
-6.49999999999999
 30
0.0
 11
-34.30658102938624
 21
-6.49999999999999
 31
0.0
 12
-34.72324769605291
 22
-8.999999999999991
 32
0.0
 13
-34.72324769605291
 23
-8.999999999999991
 33
0.0
  0
SOLID
  5
23FF
330
49E
100
AcDbEntity
  8
SK2
 62
     0
100
AcDbTrace
 10
-35.13991436271957
 20
6.500000000000009
 30
0.0
 11
-34.30658102938624
 21
6.500000000000009
 31
0.0
 12
-34.72324769605291
 22
9.000000000000008
 32
0.0
 13
-34.72324769605291
 23
9.000000000000008
 33
0.0
  0
MTEXT
  5
2400
330
49E
100
AcDbEntity
  8
SK2
 62
     0
100
AcDbMText
 10
-36.59824769605291
 20
-0.4657649818095705
 30
0.0
 40
2.5
 41
0.0
 71
     5
 72
     1
  1
%%c18
 11
0.0000000000000001
 21
1.0
 31
0.0
 73
     1
 44
1.0
1001
ACAD
1000
MTEXTBEGIN
1070
    73
1070
     1
1070
    44
1040
1.0
1070
    74
1070
     0
1000
MTEXTEND
  0
POINT
  5
2401
330
49E
100
AcDbEntity
  8
DEFPOINTS
 62
     0
100
AcDbPoint
 10
-0.0000000000000011
 20
-9.0
 30
0.0
  0
POINT
  5
2402
330
49E
100
AcDbEntity
  8
DEFPOINTS
 62
     0
100
AcDbPoint
 10
0.0000000000000011
 20
9.0
 30
0.0
  0
POINT
  5
2403
330
49E
100
AcDbEntity
  8
DEFPOINTS
 62
     0
100
AcDbPoint
 10
-34.72324769605291
 20
9.000000000000008
 30
0.0
  0
ENDBLK
  5
4A9
330
49E
100
AcDbEntity
  8
0
100
AcDbBlockEnd
  0
BLOCK
  5
4B6
330
4AA
100
AcDbEntity
  8
0
100
AcDbBlockBegin
  2
*D2
 70
     1
 10
0.0
 20
0.0
 30
0.0
  3
*D2
  1

  0
LINE
  5
23F2
330
4AA
100
AcDbEntity
  8
SK2
 62
     0
370
    -2
100
AcDbLine
 10
-19.125
 20
-4.999999999999997
 30
0.0
 11
-29.1579154321276
 21
-4.999999999999994
 31
0.0
  0
LINE
  5
23F3
330
4AA
100
AcDbEntity
  8
SK2
 62
     0
370
    -2
100
AcDbLine
 10
-19.125
 20
5.0
 30
0.0
 11
-29.1579154321276
 21
5.000000000000002
 31
0.0
  0
LINE
  5
23F4
330
4AA
100
AcDbEntity
  8
SK2
 62
     0
370
    -2
100
AcDbLine
 10
-27.9079154321276
 20
-2.499999999999994
 30
0.0
 11
-27.9079154321276
 21
2.500000000000002
 31
0.0
  0
SOLID
  5
23F5
330
4AA
100
AcDbEntity
  8
SK2
 62
     0
100
AcDbTrace
 10
-28.32458209879427
 20
-2.499999999999994
 30
0.0
 11
-27.49124876546093
 21
-2.499999999999994
 31
0.0
 12
-27.9079154321276
 22
-4.999999999999994
 32
0.0
 13
-27.9079154321276
 23
-4.999999999999994
 33
0.0
  0
SOLID
  5
23F6
330
4AA
100
AcDbEntity
  8
SK2
 62
     0
100
AcDbTrace
 10
-28.32458209879427
 20
2.500000000000002
 30
0.0
 11
-27.49124876546093
 21
2.500000000000002
 31
0.0
 12
-27.9079154321276
 22
5.000000000000002
 32
0.0
 13
-27.9079154321276
 23
5.000000000000002
 33
0.0
  0
MTEXT
  5
23F7
330
4AA
100
AcDbEntity
  8
SK2
 62
     0
100
AcDbMText
 10
-29.7829154321276
 20
-0.1251485339917904
 30
0.0
 40
2.5
 41
0.0
 71
     5
 72
     1
  1
M10
 11
0.0000000000000001
 21
1.0
 31
0.0
 73
     1
 44
1.0
1001
ACAD
1000
MTEXTBEGIN
1070
    73
1070
     1
1070
    44
1040
1.0
1070
    74
1070
     0
1000
MTEXTEND
  0
POINT
  5
23F8
330
4AA
100
AcDbEntity
  8
DEFPOINTS
 62
     0
100
AcDbPoint
 10
-18.5
 20
-4.999999999999997
 30
0.0
  0
POINT
  5
23F9
330
4AA
100
AcDbEntity
  8
DEFPOINTS
 62
     0
100
AcDbPoint
 10
-18.5
 20
5.0
 30
0.0
  0
POINT
  5
23FA
330
4AA
100
AcDbEntity
  8
DEFPOINTS
 62
     0
100
AcDbPoint
 10
-27.9079154321276
 20
5.000000000000002
 30
0.0
  0
ENDBLK
  5
4B7
330
4AA
100
AcDbEntity
  8
0
100
AcDbBlockEnd
  0
BLOCK
  5
4C2
330
4B8
100
AcDbEntity
  8
0
100
AcDbBlockBegin
  2
*D3
 70
     1
 10
0.0
 20
0.0
 30
0.0
  3
*D3
  1

  0
LINE
  5
23E9
330
4B8
100
AcDbEntity
  8
2
 62
     0
370
    -2
100
AcDbLine
 10
30.0
 20
-5.60260663119999
 30
0.0
 11
30.0
 21
-20.80297659418932
 31
0.0
  0
LINE
  5
23EA
330
4B8
100
AcDbEntity
  8
2
 62
     0
370
    -2
100
AcDbLine
 10
-0.0000000000000007
 20
-6.125
 30
0.0
 11
-0.0000000000000016
 21
-20.80297659418932
 31
0.0
  0
LINE
  5
23EB
330
4B8
100
AcDbEntity
  8
2
 62
     0
370
    -2
100
AcDbLine
 10
27.5
 20
-19.55297659418931
 30
0.0
 11
2.499999999999998
 21
-19.55297659418931
 31
0.0
  0
SOLID
  5
23EC
330
4B8
100
AcDbEntity
  8
2
 62
     0
100
AcDbTrace
 10
27.5
 20
-19.13630992752265
 30
0.0
 11
27.5
 21
-19.96964326085598
 31
0.0
 12
30.0
 22
-19.55297659418931
 32
0.0
 13
30.0
 23
-19.55297659418931
 33
0.0
  0
SOLID
  5
23ED
330
4B8
100
AcDbEntity
  8
2
 62
     0
100
AcDbTrace
 10
2.499999999999998
 20
-19.13630992752265
 30
0.0
 11
2.499999999999998
 21
-19.96964326085598
 31
0.0
 12
-0.0000000000000016
 22
-19.55297659418931
 32
0.0
 13
-0.0000000000000016
 23
-19.55297659418931
 33
0.0
  0
MTEXT
  5
23EE
330
4B8
100
AcDbEntity
  8
2
 62
     0
100
AcDbMText
 10
14.93505554607151
 20
-17.67797659418931
 30
0.0
 40
2.5
 41
0.0
 71
     5
 72
     1
  1
30
 73
     1
 44
1.0
1001
ACAD
1000
MTEXTBEGIN
1070
    73
1070
     1
1070
    44
1040
1.0
1070
    74
1070
     0
1000
MTEXTEND
  0
POINT
  5
23EF
330
4B8
100
AcDbEntity
  8
DEFPOINTS
 62
     0
100
AcDbPoint
 10
30.0
 20
-4.97760663119999
 30
0.0
  0
POINT
  5
23F0
330
4B8
100
AcDbEntity
  8
DEFPOINTS
 62
     0
100
AcDbPoint
 10
-0.0000000000000007
 20
-5.5
 30
0.0
  0
POINT
  5
23F1
330
4B8
100
AcDbEntity
  8
DEFPOINTS
 62
     0
100
AcDbPoint
 10
-0.0000000000000016
 20
-19.55297659418931
 30
0.0
  0
ENDBLK
  5
4C3
330
4B8
100
AcDbEntity
  8
0
100
AcDbBlockEnd
  0
BLOCK
  5
4CE
330
4C4
100
AcDbEntity
  8
0
100
AcDbBlockBegin
  2
*D4
 70
     1
 10
0.0
 20
0.0
 30
0.0
  3
*D4
  1

  0
LINE
  5
20AE
330
4C4
100
AcDbEntity
  8
2
 62
     0
370
    -2
100
AcDbLine
 10
22.9551867946298
 20
9.999999999999996
 30
0.0
 11
46.30162512569904
 21
9.999999999999987
 31
0.0
  0
LINE
  5
20AF
330
4C4
100
AcDbEntity
  8
2
 62
     0
370
    -2
100
AcDbLine
 10
25.7756327628
 20
-10.0
 30
0.0
 11
46.30162512569904
 21
-10.0
 31
0.0
  0
LINE
  5
20B0
330
4C4
100
AcDbEntity
  8
2
 62
     0
370
    -2
100
AcDbLine
 10
45.05162512569904
 20
7.49999999999999
 30
0.0
 11
45.05162512569904
 21
-7.500000000000006
 31
0.0
  0
SOLID
  5
20B1
330
4C4
100
AcDbEntity
  8
2
 62
     0
100
AcDbTrace
 10
44.63495845903238
 20
7.49999999999999
 30
0.0
 11
45.4682917923657
 21
7.49999999999999
 31
0.0
 12
45.05162512569904
 22
9.999999999999987
 32
0.0
 13
45.05162512569904
 23
9.999999999999987
 33
0.0
  0
SOLID
  5
20B2
330
4C4
100
AcDbEntity
  8
2
 62
     0
100
AcDbTrace
 10
44.63495845903238
 20
-7.500000000000006
 30
0.0
 11
45.4682917923657
 21
-7.500000000000006
 31
0.0
 12
45.05162512569904
 22
-10.0
 32
0.0
 13
45.05162512569904
 23
-10.0
 33
0.0
  0
MTEXT
  5
20B3
330
4C4
100
AcDbEntity
  8
2
 62
     0
100
AcDbMText
 10
43.17637906270689
 20
-0.3597204519999817
 30
0.0
 40
2.5
 41
0.0
 71
     5
 72
     1
  1
%%c20
 11
0.0000000000000001
 21
1.0
 31
0.0
 73
     1
 44
1.0
1001
ACAD
1000
MTEXTBEGIN
1070
    73
1070
     1
1070
    44
1040
1.0
1070
    74
1070
     0
1000
MTEXTEND
  0
POINT
  5
20B4
330
4C4
100
AcDbEntity
  8
DEFPOINTS
 62
     0
100
AcDbPoint
 10
22.3301867946298
 20
9.999999999999996
 30
0.0
  0
POINT
  5
20B5
330
4C4
100
AcDbEntity
  8
DEFPOINTS
 62
     0
100
AcDbPoint
 10
25.1506327628
 20
-10.0
 30
0.0
  0
POINT
  5
20B6
330
4C4
100
AcDbEntity
  8
DEFPOINTS
 62
     0
100
AcDbPoint
 10
45.05162512569904
 20
-10.0
 30
0.0
  0
ENDBLK
  5
4CF
330
4C4
100
AcDbEntity
  8
0
100
AcDbBlockEnd
  0
ENDSEC
  0
SECTION
  2
ENTITIES
  0
DIMENSION
  5
6E
330
1E
100
AcDbEntity
  8
2
100
AcDbDimension
  2
*D3
 10
-0.0000000000000016
 20
-19.55297659418931
 30
0.0
 11
14.93505554607151
 21
-19.55297659418931
 31
0.0
 70
   160
 71
     5
 42
30.0
  3
ISO-25
100
AcDbAlignedDimension
 13
30.0
 23
-4.97760663119999
 33
0.0
 14
-0.0000000000000007
 24
-5.5
 34
0.0
 50
180.0
100
AcDbRotatedDimension
  0
DIMENSION
  5
6F
330
1E
100
AcDbEntity
  8
2
100
AcDbDimension
  2
*D4
 10
45.05162512569904
 20
-10.0
 30
0.0
 11
45.05162512569904
 21
-0.3597204519999819
 31
0.0
 70
   160
  1
%%c<>
 71
     5
 42
19.99999999999999
  3
ISO-25
100
AcDbAlignedDimension
 13
22.3301867946298
 23
9.999999999999996
 33
0.0
 14
25.1506327628
 24
-10.0
 34
0.0
 50
270.0
100
AcDbRotatedDimension
  0
DIMENSION
  5
70
330
1E
100
AcDbEntity
  8
SK2
100
AcDbDimension
  2
*D2
 10
-27.9079154321276
 20
5.000000000000002
 30
0.0
 11
-27.9079154321276
 21
-0.1251485339917906
 31
0.0
 70
   160
  1
M<>
 71
     5
 42
9.999999999999996
  3
ISO-25
100
AcDbAlignedDimension
 13
-18.5
 23
-4.999999999999997
 33
0.0
 14
-18.5
 24
5.0
 34
0.0
 50
89.99999999999998
100
AcDbRotatedDimension
  0
DIMENSION
  5
71
330
1E
100
AcDbEntity
  8
SK2
100
AcDbDimension
  2
*D1
 10
-34.72324769605291
 20
9.000000000000008
 30
0.0
 11
-34.72324769605291
 21
-0.4657649818095706
 31
0.0
 70
   160
  1
%%c<>
 71
     5
 42
18.0
  3
ISO-25
100
AcDbAlignedDimension
 13
-0.0000000000000011
 23
-9.0
 33
0.0
 14
0.0000000000000011
 24
9.0
 34
0.0
 50
89.99999999999998
100
AcDbRotatedDimension
  0
LINE
  5
72
330
1E
100
AcDbEntity
  8
1
100
AcDbLine
 10
29.0
 20
-4.247079951800006
 30
0.0
 11
29.0
 21
-1.295200993399989
 31
0.0
  0
LINE
  5
73
330
1E
100
AcDbEntity
  8
1
100
AcDbLine
 10
29.0
 20
2.001826435499985
 30
0.0
 11
29.0
 21
1.29507095420001
 31
0.0
  0
LINE
  5
74
330
1E
100
AcDbEntity
  8
SK4
100
AcDbLine
 10
25.00733199999999
 20
-10.93984219264797
 30
0.0
 11
25.00733199999999
 21
-0.5148446761859904
 31
0.0
  0
LINE
  5
75
330
1E
100
AcDbEntity
  8
SK4
100
AcDbLine
 10
25.00733199999999
 20
11.23696994414199
 30
0.0
 11
25.00733199999999
 21
0.5087005454050173
 31
0.0
  0
LINE
  5
76
330
1E
100
AcDbEntity
  8
1
100
AcDbLine
 10
15.0
 20
-7.214101615099992
 30
0.0
 11
15.0
 21
-0.2858983847999657
 31
0.0
  0
LINE
  5
77
330
1E
100
AcDbEntity
  8
1
100
AcDbLine
 10
6.0
 20
9.0
 30
0.0
 11
0.5000000000000011
 21
9.0
 31
0.0
  0
LINE
  5
78
330
1E
100
AcDbEntity
  8
1
100
AcDbLine
 10
6.499999999999999
 20
-8.5
 30
0.0
 11
5.999999999999999
 21
-9.0
 31
0.0
  0
LINE
  5
79
330
1E
100
AcDbEntity
  8
1
100
AcDbLine
 10
8.114750469699997
 20
8.499999999999998
 30
0.0
 11
6.5
 21
8.5
 31
0.0
  0
LINE
  5
7A
330
1E
100
AcDbEntity
  8
1
100
AcDbLine
 10
21.15077644769999
 20
8.497646733099994
 30
0.0
 11
8.76698829349999
 21
8.497646733099994
 31
0.0
  0
LINE
  5
7B
330
1E
100
AcDbEntity
  8
1
100
AcDbLine
 10
6.5
 20
8.5
 30
0.0
 11
6.0
 21
9.0
 31
0.0
  0
LINE
  5
7C
330
1E
100
AcDbEntity
  8
SK1
100
AcDbLine
 10
-0.9999999999999992
 20
5.25
 30
0.0
 11
-5.599999999999991
 21
5.25
 31
0.0
  0
LINE
  5
7D
330
1E
100
AcDbEntity
  8
SK1
100
AcDbLine
 10
-0.3000000000000108
 20
5.09000000000003
 30
0.0
 11
-0.3502108716999993
 21
5.09000000000003
 31
0.0
  0
LINE
  5
7E
330
1E
100
AcDbEntity
  8
SK4
100
AcDbLine
 10
19.01232904773596
 20
5.009526999999987
 30
0.0
 11
30.76976569600798
 21
5.009526999999987
 31
0.0
  0
LINE
  5
7F
330
1E
100
AcDbEntity
  8
SK1
100
AcDbLine
 10
-9.656370849900012
 20
5.0
 30
0.0
 11
-18.0
 21
5.0
 31
0.0
  0
LINE
  5
80
330
1E
100
AcDbEntity
  8
SK1
100
AcDbLine
 10
-18.75
 20
4.25
 30
0.0
 11
-8.906370849900012
 21
4.25
 31
0.0
  0
LINE
  5
81
330
1E
100
AcDbEntity
  8
SK1
100
AcDbLine
 10
-6.800000000000013
 20
3.975000000000021
 30
0.0
 11
-8.300000000000011
 21
3.975000000000021
 31
0.0
  0
LINE
  5
82
330
1E
100
AcDbEntity
  8
SK1
100
AcDbLine
 10
-0.4537384898000023
 20
5.103629669500036
 30
0.0
 11
-0.9999999999999992
 21
5.25
 31
0.0
  0
LINE
  5
83
330
1E
100
AcDbEntity
  8
1
100
AcDbLine
 10
6.5
 20
8.5
 30
0.0
 11
6.5
 21
-0.2858983847999647
 31
0.0
  0
LINE
  5
84
330
1E
100
AcDbEntity
  8
1
100
AcDbLine
 10
6.499999999999999
 20
-7.214101615099992
 30
0.0
 11
6.499999999999999
 21
-8.5
 31
0.0
  0
LINE
  5
85
330
1E
100
AcDbEntity
  8
1
100
AcDbLine
 10
6.0
 20
9.0
 30
0.0
 11
5.999999999999999
 21
-9.0
 31
0.0
  0
LINE
  5
86
330
1E
100
AcDbEntity
  8
1
100
AcDbLine
 10
24.50733194409998
 20
1.509526999999985
 30
0.0
 11
21.00733199999998
 21
1.509526999999988
 31
0.0
  0
LINE
  5
87
330
1E
100
AcDbEntity
  8
4
100
AcDbLine
 10
33.0
 20
-0.000000000000004
 30
0.0
 11
0.0
 21
0.0
 31
0.0
  0
LINE
  5
88
330
1E
100
AcDbEntity
  8
1
100
AcDbLine
 10
15.0
 20
-0.2858983847999657
 30
0.0
 11
6.5
 21
-0.2858983847999647
 31
0.0
  0
LINE
  5
89
330
1E
100
AcDbEntity
  8
SK1
100
AcDbLine
 10
-0.4537384898000035
 20
-5.10362966949998
 30
0.0
 11
-1.0
 21
-5.25
 31
0.0
  0
LINE
  5
8A
330
1E
100
AcDbEntity
  8
1
100
AcDbLine
 10
0.000000000000001
 20
8.499999316800026
 30
0.0
 11
-0.000000000000001
 21
-8.499999316699982
 31
0.0
  0
LINE
  5
8B
330
1E
100
AcDbEntity
  8
SK1
100
AcDbLine
 10
-6.800000000000013
 20
-3.974999999999963
 30
0.0
 11
-8.300000000000011
 21
-3.974999999999963
 31
0.0
  0
LINE
  5
8C
330
1E
100
AcDbEntity
  8
SK1
100
AcDbLine
 10
-18.75
 20
-4.249999999999997
 30
0.0
 11
-8.906370849900012
 21
-4.249999999999999
 31
0.0
  0
LINE
  5
8D
330
1E
100
AcDbEntity
  8
SK1
100
AcDbLine
 10
-9.656370849900012
 20
-4.999999999999999
 30
0.0
 11
-18.0
 21
-4.999999999999998
 31
0.0
  0
LINE
  5
8E
330
1E
100
AcDbEntity
  8
SK4
100
AcDbLine
 10
19.50519921060898
 20
-5.009526999999994
 30
0.0
 11
30.95921695199159
 21
-5.009526999999994
 31
0.0
  0
LINE
  5
8F
330
1E
100
AcDbEntity
  8
SK1
100
AcDbLine
 10
-0.300000000000012
 20
-5.089999999999974
 30
0.0
 11
-0.3502108717000005
 21
-5.089999999999974
 31
0.0
  0
LINE
  5
90
330
1E
100
AcDbEntity
  8
SK1
100
AcDbLine
 10
-1.0
 20
-5.25
 30
0.0
 11
-5.599999999999995
 21
-5.249999999999999
 31
0.0
  0
LINE
  5
91
330
1E
100
AcDbEntity
  8
SK1
100
AcDbLine
 10
-0.9999999999999992
 20
5.25
 30
0.0
 11
-1.0
 21
-5.25
 31
0.0
  0
LINE
  5
92
330
1E
100
AcDbEntity
  8
SK1
100
AcDbLine
 10
-8.865685424899991
 20
-4.209314575000004
 30
0.0
 11
-9.656370849900012
 21
-4.999999999999999
 31
0.0
  0
LINE
  5
93
330
1E
100
AcDbEntity
  8
1
100
AcDbLine
 10
15.0
 20
-7.214101615099992
 30
0.0
 11
6.499999999999999
 21
-7.214101615099992
 31
0.0
  0
LINE
  5
94
330
1E
100
AcDbEntity
  8
SK1
100
AcDbLine
 10
-8.865685424899991
 20
4.209314575099996
 30
0.0
 11
-9.656370849900012
 21
5.0
 31
0.0
  0
LINE
  5
95
330
1E
100
AcDbEntity
  8
1
100
AcDbLine
 10
22.22771867669998
 20
-7.603288762099963
 30
0.0
 11
21.58761910069999
 21
-7.603288762099963
 31
0.0
  0
LINE
  5
96
330
1E
100
AcDbEntity
  8
1
100
AcDbLine
 10
21.54795282899998
 20
-8.490583018800007
 30
0.0
 11
21.41814699589998
 21
-8.490583018800007
 31
0.0
  0
LINE
  5
97
330
1E
100
AcDbEntity
  8
1
100
AcDbLine
 10
21.15077644769999
 20
-8.497646733000012
 30
0.0
 11
8.766988293499986
 21
-8.497646733000012
 31
0.0
  0
LINE
  5
98
330
1E
100
AcDbEntity
  8
1
100
AcDbLine
 10
8.114750469699995
 20
-8.500000000000001
 30
0.0
 11
6.499999999999999
 21
-8.5
 31
0.0
  0
LINE
  5
99
330
1E
100
AcDbEntity
  8
1
100
AcDbLine
 10
5.999999999999999
 20
-9.0
 30
0.0
 11
0.499999999999999
 21
-9.0
 31
0.0
  0
LINE
  5
9A
330
1E
100
AcDbEntity
  8
SK1
100
AcDbLine
 10
-5.599999999999991
 20
5.25
 30
0.0
 11
-5.599999999999995
 21
-5.249999999999999
 31
0.0
  0
LINE
  5
9B
330
1E
100
AcDbEntity
  8
SK1
100
AcDbLine
 10
-5.599999999999991
 20
5.25
 30
0.0
 11
-5.999999999999999
 21
5.019059892400036
 31
0.0
  0
LINE
  5
9C
330
1E
100
AcDbEntity
  8
SK1
100
AcDbLine
 10
-5.599999999999995
 20
-5.249999999999999
 30
0.0
 11
-6.0
 21
-5.019059892299991
 31
0.0
  0
LINE
  5
9D
330
1E
100
AcDbEntity
  8
SK1
100
AcDbLine
 10
-5.999999999999999
 20
5.019059892400036
 30
0.0
 11
-6.0
 21
-5.019059892299991
 31
0.0
  0
LINE
  5
9E
330
1E
100
AcDbEntity
  8
SK1
100
AcDbLine
 10
-8.906371116600011
 20
4.25
 30
0.0
 11
-8.906371116600011
 21
-4.249999999999999
 31
0.0
  0
LINE
  5
9F
330
1E
100
AcDbEntity
  8
SK1
100
AcDbLine
 10
-9.656370849900012
 20
5.0
 30
0.0
 11
-9.656370849900012
 21
-4.999999999999999
 31
0.0
  0
LINE
  5
A0
330
1E
100
AcDbEntity
  8
SK1
100
AcDbLine
 10
-18.0
 20
5.0
 30
0.0
 11
-19.5
 21
3.500000000000001
 31
0.0
  0
LINE
  5
A1
330
1E
100
AcDbEntity
  8
SK1
100
AcDbLine
 10
-18.0
 20
-4.999999999999998
 30
0.0
 11
-19.5
 21
-3.499999999999996
 31
0.0
  0
LINE
  5
A2
330
1E
100
AcDbEntity
  8
SK1
100
AcDbLine
 10
-18.0
 20
5.0
 30
0.0
 11
-18.0
 21
-4.999999999999998
 31
0.0
  0
LINE
  5
A3
330
1E
100
AcDbEntity
  8
SK1
100
AcDbLine
 10
-18.75
 20
4.25
 30
0.0
 11
-18.75
 21
-4.249999999999997
 31
0.0
  0
LINE
  5
A4
330
1E
100
AcDbEntity
  8
SK1
100
AcDbLine
 10
-19.5
 20
3.500000000000001
 30
0.0
 11
-19.5
 21
-3.499999999999996
 31
0.0
  0
CIRCLE
  5
A5
330
1E
100
AcDbEntity
  8
1
100
AcDbCircle
 10
25.00733199999999
 20
5.009526999999987
 30
0.0
 40
2.85
  0
ARC
  5
A6
330
1E
100
AcDbEntity
  8
1
100
AcDbCircle
 10
25.00733199999999
 20
4.999999999999998
 30
0.0
 40
5.0
100
AcDbArc
 50
298.3616871355403
 51
224.2735543487432
  0
CIRCLE
  5
A7
330
1E
100
AcDbEntity
  8
1
100
AcDbCircle
 10
25.00733199999999
 20
5.009526999999987
 30
0.0
 40
2.971999999999998
  0
ARC
  5
A9
330
1E
100
AcDbEntity
  8
1
100
AcDbCircle
 10
25.00733199999999
 20
-5.009526999999994
 30
0.0
 40
4.1377092369
100
AcDbArc
 50
218.8261959211998
 51
15.06728460319987
  0
ARC
  5
AA
330
1E
100
AcDbEntity
  8
1
100
AcDbCircle
 10
25.00733199999999
 20
-5.009526999999994
 30
0.0
 40
4.072700873699997
100
AcDbArc
 50
219.5804645369999
 51
11.15058547479998
  0
ARC
  5
AB
330
1E
100
AcDbEntity
  8
1
100
AcDbCircle
 10
21.00733199999998
 20
17.509527
 30
0.0
 40
16.0
100
AcDbArc
 50
214.3620677775999
 51
270.0
  0
ARC
  5
AC
330
1E
100
AcDbEntity
  8
1
100
AcDbCircle
 10
24.50733199999999
 20
3.490473000000004
 30
0.0
 40
5.0
100
AcDbArc
 50
315.7324321277998
 51
333.9659803875998
  0
ARC
  5
AD
330
1E
100
AcDbEntity
  8
1
100
AcDbCircle
 10
24.50733199999999
 20
-3.490473000000011
 30
0.0
 40
5.0
100
AcDbArc
 50
26.03402290610002
 51
90.00000064080003
  0
ARC
  5
AE
330
1E
100
AcDbEntity
  8
1
100
AcDbCircle
 10
25.00733199999999
 20
-5.009526999999994
 30
0.0
 40
4.4920899795
100
AcDbArc
 50
216.7937098432
 51
225.4426544728
  0
ARC
  5
AF
330
1E
100
AcDbEntity
  8
1
100
AcDbCircle
 10
0.499999999999999
 20
-8.5
 30
0.0
 40
0.5
100
AcDbArc
 50
180.0
 51
270.0
  0
ARC
  5
B0
330
1E
100
AcDbEntity
  8
1
100
AcDbCircle
 10
25.00733199999999
 20
5.009526999999987
 30
0.0
 40
5.2
100
AcDbArc
 50
137.8717589904
 51
221.9276497666999
  0
ARC
  5
B1
330
1E
100
AcDbEntity
  8
SK1
100
AcDbCircle
 10
-0.3000000000000121
 20
-5.490000000000008
 30
0.0
 40
0.4
100
AcDbArc
 50
41.39990273140003
 51
90.0
  0
ARC
  5
B2
330
1E
100
AcDbEntity
  8
SK1
100
AcDbCircle
 10
-0.3502108717000006
 20
-5.490000000000008
 30
0.0
 40
0.4
100
AcDbArc
 50
90.0
 51
104.9999999999996
  0
ARC
  5
B3
330
1E
100
AcDbEntity
  8
SK1
100
AcDbCircle
 10
-6.800000000000013
 20
-4.774999999999971
 30
0.0
 40
0.8
100
AcDbArc
 50
0.0
 51
90.0
  0
ARC
  5
B4
330
1E
100
AcDbEntity
  8
SK1
100
AcDbCircle
 10
-8.300000000000011
 20
-4.774999999999971
 30
0.0
 40
0.8
100
AcDbArc
 50
90.0
 51
134.9999999999999
  0
ARC
  5
B5
330
1E
100
AcDbEntity
  8
1
100
AcDbCircle
 10
0.500000000000001
 20
8.5
 30
0.0
 40
0.5
100
AcDbArc
 50
90.0
 51
180.0
  0
ARC
  5
B6
330
1E
100
AcDbEntity
  8
SK1
100
AcDbCircle
 10
-0.3000000000000107
 20
5.490000000000008
 30
0.0
 40
0.4
100
AcDbArc
 50
270.0
 51
318.6000972686
  0
ARC
  5
B7
330
1E
100
AcDbEntity
  8
SK1
100
AcDbCircle
 10
-0.3502108716999992
 20
5.490000000000008
 30
0.0
 40
0.4
100
AcDbArc
 50
255.0
 51
270.0
  0
ARC
  5
B8
330
1E
100
AcDbEntity
  8
SK1
100
AcDbCircle
 10
-6.800000000000013
 20
4.775000000000034
 30
0.0
 40
0.8
100
AcDbArc
 50
270.0
 51
0.0
  0
ARC
  5
B9
330
1E
100
AcDbEntity
  8
SK1
100
AcDbCircle
 10
-8.300000000000011
 20
4.775000000000034
 30
0.0
 40
0.8
100
AcDbArc
 50
225.0
 51
270.0
  0
LWPOLYLINE
  5
BA
330
1E
100
AcDbEntity
  8
1
100
AcDbPolyline
 90
       28
 70
     0
 43
0.0
 10
21.15077644769999
 20
8.497646733099994
 10
21.15098801641499
 20
8.497333997308997
 10
21.15176626227998
 20
8.497135125953034
 10
21.15248630957299
 20
8.496987886947009
 10
21.15309208551898
 20
8.496877578478004
 10
21.15361090686199
 20
8.496796466917997
 10
21.15407009034198
 20
8.496736818639986
 10
21.15449695270098
 20
8.496690900019013
 10
21.155136328691
 20
8.496630867069026
 10
21.15559225985899
 20
8.496588049086991
 10
21.156073624437
 20
8.496542147235002
 10
21.15657722619399
 20
8.496493693448027
 10
21.157099868898
 20
8.496443219660985
 10
21.15763835631799
 20
8.496391257809021
 10
21.15818949222298
 20
8.496338339828009
 10
21.15903292023298
 20
8.496258333719021
 10
21.16130409830196
 20
8.496053953148017
 10
21.16213836516898
 20
8.49598487659102
 10
21.16323218729298
 20
8.495899472265021
 10
21.16430846579198
 20
8.495820730328031
 10
21.16563518888098
 20
8.495730022946982
 10
21.17274121655098
 20
8.495306284173008
 10
21.18588352877297
 20
8.494628091051987
 10
21.20806634850997
 20
8.49373177774299
 10
21.24472009743298
 20
8.492614473407
 10
21.30011398738199
 20
8.491476368797007
 10
21.37210991721898
 20
8.490713593810992
 10
21.4181369959
 20
8.49058301890602
  0
LWPOLYLINE
  5
D8
330
1E
100
AcDbEntity
  8
1
100
AcDbPolyline
 90
      163
 70
     0
 43
0.0
 10
22.49490763709998
 20
-7.717512903000002
 10
22.54284467758798
 20
-7.764660247992995
 10
22.59158768803498
 20
-7.810982778862976
 10
22.64112307977098
 20
-7.856460590766972
 10
22.69143731437499
 20
-7.901073903997994
 10
22.74251767404698
 20
-7.944804982531992
 10
22.79435210982998
 20
-7.987637756034986
 10
22.84692858935599
 20
-8.029556202615994
 10
22.90023438624899
 20
-8.070544275473995
 10
22.94649470376798
 20
-8.104924201139969
 10
22.99327117510798
 20
-8.13859860936299
 10
23.04055463126299
 20
-8.171557367496005
 10
23.08833551987298
 20
-8.203790689993981
 10
23.13660388191699
 20
-8.235289159513971
 10
23.185349738759
 20
-8.266043376477002
 10
23.234563078658
 20
-8.296043964448985
 10
23.28423338571298
 20
-8.325281899501991
 10
23.33434975135999
 20
-8.353748432262991
 10
23.384901256663
 20
-8.381434820607982
 10
23.43587692590698
 20
-8.408332377046976
 10
23.48726528145298
 20
-8.434432897049989
 10
23.53905458391098
 20
-8.459728427948961
 10
23.59123309162899
 20
-8.484211019251976
 10
23.64378896542099
 20
-8.507872831778003
 10
23.69670986818829
 20
-8.530706594587005
 10
23.7499833043573
 20
-8.552705217600991
 10
23.80359677812629
 20
-8.573861611048986
 10
23.85753764401209
 20
-8.594168900142964
 10
23.91179282931518
 20
-8.613620823703971
 10
23.96634918561287
 20
-8.632211229307985
 10
24.0120333906913
 20
-8.647040692026966
 10
24.05790990912878
 20
-8.661264207705986
 10
24.10397082973208
 20
-8.674878741548983
 10
24.1502082125196
 20
-8.687881308840989
 10
24.19661411750999
 20
-8.700268924864987
 10
24.24318059168709
 20
-8.712038635145976
 10
24.28989953119119
 20
-8.723187835174995
 10
24.33676273516849
 20
-8.733714145471996
 10
24.3837620011629
 20
-8.74361519027599
 10
24.4308891265798
 20
-8.752888594245007
 10
24.47813585544109
 20
-8.761532143856985
 10
24.52549379787979
 20
-8.769544031447994
 10
24.57295454337528
 20
-8.776922511956971
 10
24.6205096814072
 20
-8.783665840325003
 10
24.6681507947236
 20
-8.789772302378995
 10
24.71586938535828
 20
-8.795240554303976
 10
24.7636569020769
 20
-8.80006949670798
 10
24.81150479270159
 20
-8.804258034524997
 10
24.8594045050001
 20
-8.807805073182976
 10
24.9073474676256
 20
-8.810709690142008
 10
24.95532506214819
 20
-8.812971386617961
 10
25.0033286630172
 20
-8.814589727917967
 10
25.05134964468207
 20
-8.815564279341973
 10
25.0993793808355
 20
-8.815894640711011
 10
25.14740923671869
 20
-8.815580797309968
 10
25.19543057227998
 20
-8.814622975821979
 10
25.24343474738639
 20
-8.813021406642011
 10
25.29141312197209
 20
-8.810776320900007
 10
25.339357072591
 20
-8.807888132039007
 10
25.38725801412229
 20
-8.804357673923961
 10
25.4351073668291
 20
-8.800185839481972
 10
25.4828965509747
 20
-8.795373521638968
 10
25.53061699356787
 20
-8.789921650486011
 10
25.57826019155509
 20
-8.783831541423012
 10
25.62581768327959
 20
-8.777104737917001
 10
25.67328100762469
 20
-8.769742786411997
 10
25.72064170372598
 20
-8.761747234214967
 10
25.76789136350589
 20
-8.75311980941797
 10
25.81502169636459
 20
-8.743862642444984
 10
25.86202442755157
 20
-8.733977918003976
 10
25.90889128231658
 20
-8.723467820800014
 10
25.95561399980809
 20
-8.712334569694011
 10
26.0021844660631
 20
-8.70058074449901
 10
26.0485946553454
 20
-8.688209141831011
 10
26.09483654312159
 20
-8.675222561260968
 10
26.14090210512618
 20
-8.66162380287699
 10
26.18678339829578
 20
-8.64741582337996
 10
26.23247267448309
 20
-8.632601955401982
 10
26.27796221418549
 20
-8.617185586820996
 10
26.33227514060819
 20
-8.597895413858001
 10
26.38627605926699
 20
-8.57774847492999
 10
26.43995211215309
 20
-8.556751345289971
 10
26.49329059609618
 20
-8.53491083214698
 10
26.54627880823217
 20
-8.512233743161006
 10
26.59890419039389
 20
-8.488727064800972
 10
26.65115466027809
 20
-8.464398371583003
 10
26.70301823326148
 20
-8.439255358733991
 10
26.75448292672589
 20
-8.413305723486987
 10
26.80553701054648
 20
-8.386557415742972
 10
26.85616925036308
 20
-8.35901888152097
 10
26.90636846953519
 20
-8.33069862459496
 10
26.95612350104139
 20
-8.301605156584004
 10
27.00542354621958
 20
-8.271747289346992
 10
27.05425828169969
 20
-8.241134222142992
 10
27.10261741555439
 20
-8.209775179862957
 10
27.15049067967507
 20
-8.177679403265987
 10
27.19786827892889
 20
-8.144856448300973
 10
27.24474085297249
 20
-8.111316160655977
 10
27.29109905762728
 20
-8.077068396789972
 10
27.33693359067507
 20
-8.042123035022999
 10
27.38973371654338
 20
-8.000485343470987
 10
27.44179592775079
 20
-7.957928470371997
 10
27.49310699508908
 20
-7.914468905491959
 10
27.54365412462588
 20
-7.870123314657976
 10
27.5934255984499
 20
-7.824908798933964
 10
27.64240986201748
 20
-7.778842525463009
 10
27.6905954845777
 20
-7.731941697011964
 10
27.7379721037334
 20
-7.684223823794982
 10
27.7845299033412
 20
-7.635706573226006
 10
27.83025907988869
 20
-7.586407615469002
 10
27.87515045491057
 20
-7.536344733454997
 10
27.91919590289181
 20
-7.485535900086007
 10
27.96238739949429
 20
-7.433999106513002
 10
28.00471708011999
 20
-7.381752356666995
 10
28.04617822928989
 20
-7.328813746379016
 10
28.0867646345051
 20
-7.275201411708965
 10
28.1264700910223
 20
-7.220933488745973
 10
28.16528898847428
 20
-7.166028099061978
 10
28.20321682684911
 20
-7.110503337096986
 10
28.24024922777219
 20
-7.05437729431998
 10
28.27638190255957
 20
-6.997668051211976
 10
28.3116116098913
 20
-6.940393559938002
 10
28.34593578640999
 20
-6.882571689600982
 10
28.37935188015878
 20
-6.824220307909003
 10
28.41185764426309
 20
-6.76535721353099
 10
28.4434520408131
 20
-6.705999931550993
 10
28.47413433132659
 20
-6.646165919298994
 10
28.50390378311819
 20
-6.58587263218499
 10
28.5327602481679
 20
-6.525137332567968
 10
28.5607046560271
 20
-6.463976926992986
 10
28.58773805233369
 20
-6.402408283673994
 10
28.61386150996109
 20
-6.340448258747986
 10
28.63907688779559
 20
-6.278113359815962
 10
28.66338693117599
 20
-6.215419701406007
 10
28.68679443285619
 20
-6.15238337701999
 10
28.70930223200679
 20
-6.089020454289995
 10
28.73091403022829
 20
-6.025346520168002
 10
28.75163429096057
 20
-5.961376736987972
 10
28.7714675038453
 20
-5.897126252482966
 10
28.79041819869229
 20
-5.83261018744298
 10
28.80849172192549
 20
-5.767843114968972
 10
28.82569418109689
 20
-5.702839097685967
 10
28.8420317128128
 20
-5.637612178732012
 10
28.85751046759061
 20
-5.572176389942003
 10
28.87213723012509
 20
-5.506545247860006
 10
28.88591966742659
 20
-5.440731552111971
 10
28.89886551174789
 20
-5.374748049316965
 10
28.91098249571909
 20
-5.30860748573798
 10
28.92227870086609
 20
-5.242322282636965
 10
28.93276320317839
 20
-5.175903934905992
 10
28.94244525466149
 20
-5.109363773474966
 10
28.95133410732089
 20
-5.042713129275004
 10
28.96053359459198
 20
-4.966419997153995
 10
28.96872471649189
 20
-4.890012305543963
 10
28.97592343177759
 20
-4.813504557744979
 10
28.9821457014815
 20
-4.736911254503016
 10
28.98740783666109
 20
-4.660246542115999
 10
28.99172749577219
 20
-4.583523202452003
 10
28.99512266143728
 20
-4.506753689113
 10
28.99761132014958
 20
-4.429950451674987
 10
28.99935070385879
 20
-4.343521160926004
 10
28.99999457546588
 20
-4.257079121158994
 10
28.99999973017179
 20
-4.247484304399963
  0
LWPOLYLINE
  5
17D
330
1E
100
AcDbEntity
  8
1
100
AcDbPolyline
 90
       28
 70
     0
 43
0.0
 10
21.15077644769999
 20
-8.497646733000012
 10
21.15098801641499
 20
-8.497333997209013
 10
21.15176626227998
 20
-8.497135125852992
 10
21.15248630957299
 20
-8.496987886846968
 10
21.15309208551898
 20
-8.49687757837796
 10
21.15361090686199
 20
-8.496796466816986
 10
21.15407009034198
 20
-8.496736818540004
 10
21.15449695270098
 20
-8.496690899918974
 10
21.155136328691
 20
-8.496630866968985
 10
21.15559225985899
 20
-8.496588048987009
 10
21.156073624437
 20
-8.49654214713496
 10
21.15657722619399
 20
-8.496493693347986
 10
21.157099868898
 20
-8.496443219561003
 10
21.15763835631799
 20
-8.496391257708976
 10
21.15818949222298
 20
-8.496338339727971
 10
21.15903292023298
 20
-8.496258333618982
 10
21.16130409830196
 20
-8.496053953047978
 10
21.16213836516898
 20
-8.495984876490977
 10
21.16323218729199
 20
-8.495899472164976
 10
21.16430846579198
 20
-8.495820730227992
 10
21.16563518888098
 20
-8.495730022846997
 10
21.17274121655098
 20
-8.495306284073992
 10
21.18588352877198
 20
-8.494628090945012
 10
21.20806634851299
 20
-8.493731777729008
 10
21.24472009743198
 20
-8.492614473278987
 10
21.300113987383
 20
-8.491476368739997
 10
21.37210991722
 20
-8.490713593829982
 10
21.4181369959
 20
-8.490583018805976
  0
LWPOLYLINE
  5
19B
330
1E
100
AcDbEntity
  8
1
100
AcDbPolyline
 90
       91
 70
     0
 43
0.0
 10
21.54795282899998
 20
-8.490583018800007
 10
21.55453962151498
 20
-8.489437288207966
 10
21.56111530265599
 20
-8.488216181955007
 10
21.56724100165698
 20
-8.487006923298965
 10
21.57335400797498
 20
-8.485729037552006
 10
21.57945286684499
 20
-8.484381092603996
 10
21.58553612350198
 20
-8.482961656344969
 10
21.59116961988299
 20
-8.481578342693977
 10
21.59678724420398
 20
-8.480131004567001
 10
21.6023878317
 20
-8.478618495337967
 10
21.60797021760298
 20
-8.477039668375995
 10
21.61353323714799
 20
-8.475393377057004
 10
21.61865013572798
 20
-8.473812852300968
 10
21.62374862421098
 20
-8.472172964258961
 10
21.62882778647698
 20
-8.47047281107797
 10
21.63388669944198
 20
-8.468711492425994
 10
21.63892420237299
 20
-8.466888159941959
 10
21.64393884370098
 20
-8.465002028863013
 10
21.64892915411599
 20
-8.463052318307006
 10
21.65348097640698
 20
-8.461208563895981
 10
21.65800998760399
 20
-8.459310127425966
 10
21.66251505596498
 20
-8.457356407417988
 10
21.66699504974798
 20
-8.455346802392964
 10
21.67144883721199
 20
-8.453280710871981
 10
21.67587528661499
 20
-8.451157531375999
 10
21.68027326621599
 20
-8.448976662427982
 10
21.68464164427098
 20
-8.446737502546966
 10
21.68897928903998
 20
-8.444439450256991
 10
21.69328506878198
 20
-8.442081904075964
 10
21.697170810201
 20
-8.439886547218977
 10
21.70102843126798
 20
-8.437641072868983
 10
21.70485706427198
 20
-8.435345078086982
 10
21.70865571330299
 20
-8.432998520333969
 10
21.71242332519399
 20
-8.430601518034961
 10
21.71615884651
 20
-8.428154190362986
 10
21.71986122381898
 20
-8.425656656491982
 10
21.72352940368599
 20
-8.423109035592007
 10
21.72716233267798
 20
-8.420511446837965
 10
21.73075895736098
 20
-8.417864009401966
 10
21.73431822430296
 20
-8.415166842455962
 10
21.737839080068
 20
-8.412420065172964
 10
21.74166639922896
 20
-8.409341452455977
 10
21.74544456409297
 20
-8.406203114048992
 10
21.74917217253898
 20
-8.403005208569995
 10
21.75284782244798
 20
-8.399747894639974
 10
21.75647011169898
 20
-8.396431330876
 10
21.760037647481
 20
-8.393055689751978
 10
21.76354933218798
 20
-8.389621583122963
 10
21.76700441705198
 20
-8.386130142053961
 10
21.77040217343598
 20
-8.382582527569015
 10
21.77374187270197
 20
-8.37897990069098
 10
21.77702278621099
 20
-8.375323422444981
 10
21.78024418532598
 20
-8.37161425385597
 10
21.78312047212498
 20
-8.368197536355015
 10
21.78594642385799
 20
-8.364739104933962
 10
21.78872149308698
 20
-8.361239831886965
 10
21.79144513237698
 20
-8.35770058950999
 10
21.794116794291
 20
-8.354122250096965
 10
21.79673593139298
 20
-8.350505685941985
 10
21.79930199624497
 20
-8.346851769339986
 10
21.80181444141199
 20
-8.343161372585999
 10
21.80427277090199
 20
-8.339435377506957
 10
21.80667698558398
 20
-8.335674758001008
 10
21.80902736457598
 20
-8.33188053952699
 10
21.81132419005599
 20
-8.328053748108008
 10
21.81356774419899
 20
-8.324195409769972
 10
21.815758309185
 20
-8.32030655053899
 10
21.81789616718897
 20
-8.316388196438994
 10
21.81998160038998
 20
-8.312441373495007
 10
21.82201489096498
 20
-8.30846710773301
 10
21.82399632108999
 20
-8.304466425177967
 10
21.82592617294397
 20
-8.30044035185398
 10
21.82780472870399
 20
-8.296389913786985
 10
21.82963227054599
 20
-8.29231613700097
 10
21.83140908064899
 20
-8.288220047522999
 10
21.83313544118897
 20
-8.284102671375991
 10
21.83481163453699
 20
-8.279965034454964
 10
21.83659796041498
 20
-8.275391375892981
 10
21.83832486280598
 20
-8.270795426706003
 10
21.83999321354499
 20
-8.266178214908965
 10
21.84160388446898
 20
-8.261540768519012
 10
21.84315774741298
 20
-8.256884115548986
 10
21.844655674213
 20
-8.252209284015011
 10
21.84609853670499
 20
-8.24751730193299
 10
21.84761079235499
 20
-8.242380423869976
 10
21.849059686364
 20
-8.237225693301981
 10
21.85044635061198
 20
-8.232054444872009
 10
21.85177191697899
 20
-8.22686801322499
 10
21.85303751734598
 20
-8.221667733001996
 10
21.85434222721899
 20
-8.216020016304982
 10
21.85557724974898
 20
-8.210369091706981
  0
LWPOLYLINE
  5
1F8
330
1E
100
AcDbEntity
  8
1
100
AcDbPolyline
 90
       65
 70
     0
 43
0.0
 10
22.22771867669998
 20
-7.603288762099963
 10
22.23159459535198
 20
-7.603309795224959
 10
22.23547059759398
 20
-7.603372869091971
 10
22.239644230032
 20
-7.603487766889996
 10
22.24381666307198
 20
-7.603651329841968
 10
22.24798722453896
 20
-7.603863510162002
 10
22.25215524225597
 20
-7.604124260065987
 10
22.25632004404598
 20
-7.604433531766008
 10
22.260480957732
 20
-7.604791277478968
 10
22.26463731114999
 20
-7.60519744941098
 10
22.26878846426898
 20
-7.605651980903988
 10
22.272933879164
 20
-7.606154745350012
 10
22.27707303814198
 20
-7.606705604263995
 10
22.28120542351099
 20
-7.607304419157004
 10
22.28533051757997
 20
-7.607951051543976
 10
22.28944780265398
 20
-7.608645362939002
 10
22.29355676104399
 20
-7.609387214854963
 10
22.29765687505499
 20
-7.61017646880498
 10
22.30174762701099
 20
-7.611012985554963
 10
22.30582849986299
 20
-7.611896593622986
 10
22.30989897741698
 20
-7.612827077715964
 10
22.31395854353998
 20
-7.613804219406977
 10
22.31800668209998
 20
-7.614827800272965
 10
22.32204287696298
 20
-7.615897601887015
 10
22.32606661199699
 20
-7.617013405825959
 10
22.33007737106999
 20
-7.618174993662986
 10
22.33407463804798
 20
-7.619382146975968
 10
22.33805789998199
 20
-7.620634643819985
 10
22.34230959680498
 20
-7.622026625519994
 10
22.34654410632697
 20
-7.623470010792006
 10
22.35076086757199
 20
-7.624964449378015
 10
22.35495931956298
 20
-7.626509591023991
 10
22.35913890132299
 20
-7.628105085473013
 10
22.36329905187699
 20
-7.629750582469967
 10
22.36743921024598
 20
-7.631445731757994
 10
22.37155881633796
 20
-7.633190182335001
 10
22.37565734041598
 20
-7.634983557487997
 10
22.37973429003898
 20
-7.636825448919976
 10
22.38405870419398
 20
-7.63884314662198
 10
22.38835741885998
 20
-7.640915080446005
 10
22.39262983917198
 20
-7.643040752521986
 10
22.39687537026298
 20
-7.645219664980973
 10
22.40109341726697
 20
-7.647451319950961
 10
22.40528338638798
 20
-7.64973521886799
 10
22.40944472109098
 20
-7.652070838965982
 10
22.413576910885
 20
-7.654457627570994
 10
22.41793486056399
 20
-7.657049035702981
 10
22.42225872640298
 20
-7.659696917142982
 10
22.42654789950599
 20
-7.662400606758015
 10
22.43080177097898
 20
-7.665159439416981
 10
22.43501973192798
 20
-7.667972749986008
 10
22.439446003887
 20
-7.671010189424976
 10
22.443830742966
 20
-7.674107170784963
 10
22.44817339380298
 20
-7.677262906512964
 10
22.45247340130798
 20
-7.680476609055972
 10
22.45696542201199
 20
-7.68393086725098
 10
22.46140865830196
 20
-7.687447908203981
 10
22.465802457338
 20
-7.691026805678973
 10
22.47014616340397
 20
-7.694666617010003
 10
22.47466362568399
 20
-7.698562642498985
 10
22.47912403690496
 20
-7.702523704124986
 10
22.48352659924198
 20
-7.706548513662996
 10
22.48808615685998
 20
-7.71084176280897
 10
22.49258013289299
 20
-7.715202382477003
 10
22.49490056770099
 20
-7.717505830260963
  0
LWPOLYLINE
  5
23B
330
1E
100
AcDbEntity
  8
1
100
AcDbPolyline
 90
      132
 70
     0
 43
0.0
 10
21.4100792399
 20
-7.699999999999986
 10
21.40936181507198
 20
-7.699022411361966
 10
21.408662260534
 20
-7.698030882831973
 10
21.40798182302598
 20
-7.697025434383991
 10
21.407452075091
 20
-7.696211066704963
 10
21.4069359983
 20
-7.695387813286006
 10
21.40643423098298
 20
-7.694555684351997
 10
21.405947411472
 20
-7.69371469012998
 10
21.40547617809598
 20
-7.692864840845007
 10
21.40502116918799
 20
-7.692006146724
 10
21.40458302307798
 20
-7.691138617989963
 10
21.40416237809599
 20
-7.69026226487199
 10
21.40375987959798
 20
-7.689377114679984
 10
21.40337625228696
 20
-7.688483387740973
 10
21.40310138207798
 20
-7.687807669812968
 10
21.40283788995599
 20
-7.687127465154959
 10
21.40258610312899
 20
-7.686442918956004
 10
21.40234634880799
 20
-7.685754176400964
 10
21.40211895419998
 20
-7.685061382679013
 10
21.40190424651398
 20
-7.684364682975969
 10
21.40170255296097
 20
-7.68366422247897
 10
21.40151420074798
 20
-7.682960146375992
 10
21.40133951708399
 20
-7.682252599853997
 10
21.40117882917996
 20
-7.681541728099999
 10
21.40103246424299
 20
-7.680827676299997
 10
21.40090074784799
 20
-7.680110591568962
 10
21.40078393258098
 20
-7.679390707060972
 10
21.40068217033199
 20
-7.678668374626001
 10
21.40059560563999
 20
-7.677943954783986
 10
21.40052438304298
 20
-7.677217808053971
 10
21.40046864707798
 20
-7.676490294956977
 10
21.40042854228198
 20
-7.675761776011997
 10
21.40040421319298
 20
-7.675032611738003
 10
21.40039580434899
 20
-7.67430316265501
 10
21.40040346028798
 20
-7.673573789283012
 10
21.40042732554598
 20
-7.672844852142985
 10
21.40046754466199
 20
-7.672116711753008
 10
21.40052426217298
 20
-7.671389728631994
 10
21.40059758189898
 20
-7.670664258864976
 10
21.40068737471799
 20
-7.669940633149962
 10
21.40079342881699
 20
-7.669219173173988
 10
21.40091553228299
 20
-7.668500200614972
 10
21.40105347320298
 20
-7.667784037150001
 10
21.40120703966498
 20
-7.667071004455977
 10
21.40137601975498
 20
-7.666361424209982
 10
21.40156020156199
 20
-7.665655618088977
 10
21.401759373172
 20
-7.664953907771009
 10
21.40197332267198
 20
-7.664256614931956
 10
21.402201838151
 20
-7.663564061249986
 10
21.40244470769498
 20
-7.662876568401999
 10
21.40270170724198
 20
-7.662194438475975
 10
21.40297252559899
 20
-7.661517833091012
 10
21.40325681354098
 20
-7.660846852547992
 10
21.40355422168298
 20
-7.660181596894972
 10
21.40386440064298
 20
-7.659522166177965
 10
21.40418700103599
 20
-7.658868660442976
 10
21.40452167347997
 20
-7.658221179736982
 10
21.40486806858898
 20
-7.657579824105996
 10
21.40522583697998
 20
-7.656944693598008
 10
21.40571994940099
 20
-7.656107709362006
 10
21.406232831694
 20
-7.655282207016967
 10
21.406763655915
 20
-7.654468423308005
 10
21.40731164642398
 20
-7.653666500655957
 10
21.40787614688099
 20
-7.652876366361967
 10
21.40845651749399
 20
-7.652097917886012
 10
21.40905211846898
 20
-7.651331052682962
 10
21.40966231001697
 20
-7.650575668214004
 10
21.41028645234399
 20
-7.649831661935992
 10
21.41092390565899
 20
-7.649098931306982
 10
21.41173846619599
 20
-7.648198718186962
 10
21.41257157588398
 20
-7.647315762770007
 10
21.41342199442298
 20
-7.646449862074972
 10
21.41428872222298
 20
-7.645600743118963
 10
21.41517101637798
 20
-7.644768058265983
 10
21.41606814647396
 20
-7.643951456248997
 10
21.41697938209798
 20
-7.64315058579797
 10
21.41790399283798
 20
-7.642365095645002
 10
21.41903015245599
 20
-7.641442314868982
 10
21.42017325829399
 20
-7.640540568905011
 10
21.42133204819598
 20
-7.639659250758997
 10
21.42250532541499
 20
-7.638797764168999
 10
21.42369227824699
 20
-7.637955576029982
 10
21.42489223541998
 20
-7.637132176269004
 10
21.42610452586598
 20
-7.636327054850997
 10
21.42732847851998
 20
-7.63553970173797
 10
21.42877026774198
 20
-7.634642899825965
 10
21.43022595149698
 20
-7.633768778413982
 10
21.43169446415599
 20
-7.632916527583008
 10
21.43317479549899
 20
-7.632085363312969
 10
21.43466626373597
 20
-7.631274655114967
 10
21.436383715931
 20
-7.630372443209012
 10
21.43811414372899
 20
-7.629495342643964
 10
21.43985670963596
 20
-7.628642496523982
 10
21.44161057615398
 20
-7.627813047951976
 10
21.44359614096898
 20
-7.626906818755004
 10
21.44559378899898
 20
-7.626027921591004
 10
21.44760269112599
 20
-7.625175399403985
 10
21.44962220695199
 20
-7.62434843175396
 10
21.45187778538298
 20
-7.623458554244963
 10
21.45414480384598
 20
-7.622598091403007
 10
21.45642238691995
 20
-7.621765919994006
 10
21.458938885948
 20
-7.620881867793968
 10
21.46146607949598
 20
-7.620029324532991
 10
21.464003278915
 20
-7.619207252964997
 10
21.46678179755598
 20
-7.618344041462989
 10
21.46957064228498
 20
-7.617514639445007
 10
21.47236898785398
 20
-7.616717766384001
 10
21.47541029321998
 20
-7.615889710116963
 10
21.47846082727399
 20
-7.615096814828975
 10
21.48175559641799
 20
-7.614280936599985
 10
21.485059581559
 20
-7.613503165410007
 10
21.48860895765698
 20
-7.612710602013978
 10
21.49216716584298
 20
-7.611958593614986
 10
21.49597131300198
 20
-7.611199305164009
 10
21.49978361686597
 20
-7.610482618219013
 10
21.50384240504799
 20
-7.609766311503963
 10
21.507908910824
 20
-7.609094982119986
 10
21.51222218831799
 20
-7.608431412804012
 10
21.51678255509299
 20
-7.607781650719007
 10
21.52134968168199
 20
-7.607181985686962
 10
21.526163748749
 20
-7.606603184606973
 10
21.53098381021999
 20
-7.606076435842963
 10
21.53605050356298
 20
-7.605577460171959
 10
21.541363724755
 20
-7.605112019060982
 10
21.54692333226297
 20
-7.604685995964985
 10
21.55248721738999
 20
-7.604320081417997
 10
21.55829680776597
 20
-7.604000378350972
 10
21.56435173545796
 20
-7.603732622886981
 10
21.57040914737098
 20
-7.603529340960962
 10
21.57671067285999
 20
-7.603384482602963
 10
21.583255638897
 20
-7.603303924273975
 10
21.58760910069998
 20
-7.603288762178977
  0
LWPOLYLINE
  5
2C1
330
1E
100
AcDbEntity
  8
1
100
AcDbPolyline
 90
       17
 70
     0
 43
0.0
 10
21.43661778569998
 20
1.509526999999988
 10
21.42015059283099
 20
1.509612553810024
 10
21.40338476998898
 20
1.509873076162985
 10
21.38632233438796
 20
1.510314193354983
 10
21.36896551563999
 20
1.510941297565008
 10
21.35131676511599
 20
1.511759529089995
 10
21.33307986258198
 20
1.512792235998003
 10
21.31455639541897
 20
1.514032457809034
 10
21.29574838180399
 20
1.515486021484033
 10
21.27665796731398
 20
1.517158592441998
 10
21.25728744769998
 20
1.519055639142034
 10
21.23734174252099
 20
1.521216184145029
 10
21.21712181865198
 20
1.523618077350018
 10
21.19663084278899
 20
1.526267403243988
 10
21.17587220022698
 20
1.529170173619033
 10
21.15484948716698
 20
1.532332249875989
 10
21.13859814654198
 20
1.534928714058985
  0
LWPOLYLINE
  5
2D4
330
1E
100
AcDbEntity
  8
1
100
AcDbPolyline
 90
        2
 70
     0
 43
0.0
 10
8.114391494799985
 20
-8.500000016000003
 10
8.766978293499985
 20
-8.497646733000976
  0
LWPOLYLINE
  5
2D8
330
1E
100
AcDbEntity
  8
1
100
AcDbPolyline
 90
        2
 70
     0
 43
0.0
 10
8.114391494799987
 20
8.500000016099985
 10
8.766978293499985
 20
8.497646733101019
  0
LWPOLYLINE
  5
2DC
330
1E
100
AcDbEntity
  8
1
100
AcDbPolyline
 90
       45
 70
     0
 43
0.0
 10
7.799534409499996
 20
8.478797084499996
 10
7.799234562617994
 20
8.479367342362021
 10
7.799054514036996
 20
8.480001234201036
 10
7.798986988620003
 20
8.480672505721027
 10
7.799024711232987
 20
8.481354902630013
 10
7.799160406736987
 20
8.482022170632031
 10
7.799386799997988
 20
8.482648055433001
 10
7.799696354302001
 20
8.483210754199033
 10
7.800080257882002
 20
8.483710162713007
 10
7.800529311043987
 20
8.484152778424002
 10
7.80103431400299
 20
8.484545100328997
 10
7.801586066972987
 20
8.484893627427025
 10
7.802175370169988
 20
8.485204858718017
 10
7.802793023806997
 20
8.485485293197994
 10
7.803429828099992
 20
8.485741429868992
 10
7.804076583263992
 20
8.485979767727027
 10
7.805045798452992
 20
8.486317759873994
 10
7.806317613649
 20
8.486746825934002
 10
7.807568738982991
 20
8.487153071564017
 10
7.808803526428986
 20
8.487537605751011
 10
7.810026327965997
 20
8.487901537480007
 10
7.811241495568991
 20
8.488245975735987
 10
7.812453381215987
 20
8.488572029506029
 10
7.813970252987997
 20
8.488955433004031
 10
7.815497268125001
 20
8.489314008211009
 10
7.817039603596994
 20
8.489649768445016
 10
7.818596118899987
 20
8.489964436784985
 10
7.820480042550996
 20
8.490316577350027
 10
7.822378507959997
 20
8.490643700274004
 10
7.824607486636992
 20
8.490997620736035
 10
7.827167253974987
 20
8.491371222742996
 10
7.830695025158987
 20
8.491843391781001
 10
7.835495557467992
 20
8.492434110861037
 10
7.840601486417996
 20
8.493007594714011
 10
7.846336961579992
 20
8.493590010431999
 10
7.853030787068987
 20
8.494196182357027
 10
7.860698428303991
 20
8.494806955398015
 10
7.869983369137997
 20
8.495446816417027
 10
7.882483859149999
 20
8.496175651948982
 10
7.898829016213992
 20
8.496962088103995
 10
7.920305863376996
 20
8.497772375993005
 10
7.95013326208199
 20
8.498590857309009
 10
7.99600582885199
 20
8.499382237157986
 10
8.078778922494992
 20
8.499957617921037
 10
8.114381494799996
 20
8.500000016202021
  0
LWPOLYLINE
  5
30B
330
1E
100
AcDbEntity
  8
1
100
AcDbPolyline
 90
        8
 70
     0
 43
0.0
 10
5.999999999999999
 20
-8.058421984900007
 10
6.100444021797995
 20
-7.898984890348002
 10
6.192827285405994
 20
-7.748402018891964
 10
6.278394367562992
 20
-7.605166251456977
 10
6.357834145701997
 20
-7.468571373027995
 10
6.431328129881987
 20
-7.338747051102982
 10
6.499999999999999
 20
-7.214101615099992
 10
6.499995225471987
 20
-7.214110401673964
  0
LWPOLYLINE
  5
315
330
1E
100
AcDbEntity
  8
1
100
AcDbPolyline
 90
        8
 70
     0
 43
0.0
 10
6.5
 20
-0.2858983847999647
 10
6.431328129885996
 20
-0.1612529488299977
 10
6.357834145710991
 20
-0.0314286269419889
 10
6.278394367562992
 20
0.1051662515210402
 10
6.192827285365991
 20
0.2484020190040034
 10
6.100444021757994
 20
0.398984890408996
 10
6.0
 20
0.5584219849000072
 10
6.000005380272995
 20
0.5584135556260314
  0
LINE
  5
320
330
1E
100
AcDbEntity
  8
SK4
100
AcDbLine
 10
0.0
 20
0.0
 30
0.0
 11
-22.5
 21
0.0000000000000028
 31
0.0
  0
TEXT
  5
3D2
330
1E
100
AcDbEntity
  8
6
100
AcDbText
 10
-19.70954962348912
 20
-33.97240274684748
 30
0.0
 40
5.0
  1
15B1G020030X6R00
100
AcDbText
  0
LINE
  5
20C5
330
1E
100
AcDbEntity
  8
NOCUT
100
AcDbLine
 10
5.999999999999971
 20
9.0
 30
0.0
 11
0.4999999999999716
 21
9.0
 31
0.0
  0
LINE
  5
20C6
330
1E
100
AcDbEntity
  8
NOCUT
100
AcDbLine
 10
29.0
 20
-0.0000000000000142
 30
0.0
 11
0.0
 21
0.0
 31
0.0
  0
LINE
  5
20C7
330
1E
100
AcDbEntity
  8
NOCUT
100
AcDbLine
 10
-0.0000000000000284
 20
0.0
 30
0.0
 11
-0.0000000000000284
 21
8.5
 31
0.0
  0
ARC
  5
20C8
330
1E
100
AcDbEntity
  8
NOCUT
100
AcDbCircle
 10
0.4999999999999716
 20
8.5
 30
0.0
 40
0.5
100
AcDbArc
 50
90.0
 51
180.0
  0
ARC
  5
20C9
330
1E
100
AcDbEntity
  8
NOCUT
100
AcDbCircle
 10
25.09999999999996
 20
5.700000000000001
 30
0.0
 40
3.9
100
AcDbArc
 50
0.0
 51
131.9107659492996
  0
LINE
  5
20CA
330
1E
100
AcDbEntity
  8
NOCUT
100
AcDbLine
 10
22.22771867680001
 20
8.5
 30
0.0
 11
6.499999999999971
 21
8.5
 31
0.0
  0
LINE
  5
20CB
330
1E
100
AcDbEntity
  8
NOCUT
100
AcDbLine
 10
6.499999999999971
 20
8.5
 30
0.0
 11
5.999999999999971
 21
9.0
 31
0.0
  0
ARC
  5
20CC
330
1E
100
AcDbEntity
  8
NOCUT
100
AcDbCircle
 10
22.22771867680001
 20
8.899999999999991
 30
0.0
 40
0.4
100
AcDbArc
 50
270.0
 51
311.9107659492996
  0
LINE
  5
20CD
330
1E
100
AcDbEntity
  8
NOCUT
100
AcDbLine
 10
29.0
 20
5.700000000000001
 30
0.0
 11
29.0
 21
-0.0000000000000142
 31
0.0
  0
SPLINE
  5
20D4
330
1E
100
AcDbEntity
  8
CUT
100
AcDbSpline
210
0.0
220
0.0
230
1.0
 70
     8
 71
     3
 72
    36
 73
    32
 74
    30
 42
0.0000000001
 43
0.0000000001
 44
0.0000000001
 12
0.9999999749727241
 22
0.0002237287443903
 32
0.0
 13
-0.9999671596652301
 23
-0.0081042946054621
 33
0.0
 40
0.0
 40
0.0
 40
0.0
 40
0.0
 40
0.5413393210297962
 40
1.082688427312429
 40
1.624029710727065
 40
2.165347828903407
 40
2.706624730905514
 40
3.247842020372511
 40
3.788979227772812
 40
4.330014134062604
 40
4.870921530574252
 40
5.411669270765561
 40
5.9522238868341
 40
6.492544866785819
 40
7.032580595449214
 40
7.57226948524129
 40
8.111538485241279
 40
8.650325733169443
 40
9.188505280289179
 40
9.725904301055859
 40
10.2622853148073
 40
10.79731859655432
 40
11.33054359133327
 40
11.86131097483851
 40
12.38875748406954
 40
12.91197943572868
 40
13.43098568856288
 40
13.94914401841389
 40
14.47364074212625
 40
15.00802027294681
 40
15.54856738177083
 40
15.54856738177083
 40
15.54856738177083
 40
15.54856738177083
 10
25.007332
 20
10.0
 30
0.0
 10
25.18777843582718
 20
10.00004037105552
 30
0.0
 10
25.54897919852443
 20
9.980423981904394
 30
0.0
 10
26.08419765378235
 20
9.892785548866795
 30
0.0
 10
26.60687412010956
 20
9.747813284192975
 30
0.0
 10
27.11079330464965
 20
9.547248354468344
 30
0.0
 10
27.59006453675822
 20
9.293435841600246
 30
0.0
 10
28.03905895829775
 20
8.98936540606263
 30
0.0
 10
28.45251019621354
 20
8.638614852435214
 30
0.0
 10
28.82556706658118
 20
8.245315508718659
 30
0.0
 10
29.15385486008868
 20
7.814105066072189
 30
0.0
 10
29.43352101687036
 20
7.350069693673849
 30
0.0
 10
29.6612912630674
 20
6.858692795927888
 30
0.0
 10
29.83449409227016
 20
6.345784444476004
 30
0.0
 10
29.95110389657252
 20
5.817424005038594
 30
0.0
 10
30.0097612221991
 20
5.279888939801042
 30
0.0
 10
30.00978538293565
 20
4.739577069686124
 30
0.0
 10
29.95118040109199
 20
4.202955769241102
 30
0.0
 10
29.83463552104449
 20
3.676508124673592
 30
0.0
 10
29.66152134402605
 20
3.166698707899848
 30
0.0
 10
29.43388047496469
 20
2.679934548544503
 30
0.0
 10
29.15440682341944
 20
2.222568165674563
 30
0.0
 10
28.82640774887763
 20
1.800971437919632
 30
0.0
 10
28.45377142088318
 20
1.421701889836195
 30
0.0
 10
28.04083206444377
 20
1.091873445022744
 30
0.0
 10
27.59206350233144
 20
0.8197816394156458
 30
0.0
 10
27.11141093378881
 20
0.6157154009092225
 30
0.0
 10
26.60363354474292
 20
0.4910671089442451
 30
0.0
 10
26.07900399024014
 20
0.4425415899526094
 30
0.0
 10
25.54581402017542
 20
0.4349829486919504
 30
0.0
 10
25.18750845235867
 20
0.4381732510060111
 30
0.0
 10
25.007332
 20
0.4367129999999976
 30
0.0
 11
25.007332
 21
10.0
 31
0.0
 11
25.547879
 21
9.970721999999991
 31
0.0
 11
26.08211100000001
 21
9.883229
 31
0.0
 11
26.60375900000001
 21
9.73854399999999
 31
0.0
 11
27.10670399999999
 21
9.538364999999997
 31
0.0
 11
27.58504399999999
 21
9.285043999999999
 31
0.0
 11
28.03316699999999
 21
8.981560999999997
 31
0.0
 11
28.44581499999998
 21
8.63148799999999
 31
0.0
 11
28.81814699999999
 21
8.238947999999991
 31
0.0
 11
29.145796
 21
7.808567999999991
 31
0.0
 11
29.42491700000001
 21
7.345426999999986
 31
0.0
 11
29.65224000000002
 21
6.854994999999987
 31
0.0
 11
29.82509999999999
 21
6.343070999999991
 31
0.0
 11
29.94147300000001
 21
5.815722999999991
 31
0.0
 11
30.00000000000001
 21
5.279216999999988
 31
0.0
 11
30.00000000000001
 21
4.739947999999998
 31
0.0
 11
29.94147300000001
 21
4.204348999999993
 31
0.0
 11
29.82509999999999
 21
3.678901999999993
 31
0.0
 11
29.65224000000002
 21
3.170062999999998
 31
0.0
 11
29.42491700000001
 21
2.684234999999983
 31
0.0
 11
29.145796
 21
2.227778999999995
 31
0.0
 11
28.81814699999999
 21
1.807094999999988
 31
0.0
 11
28.44581499999998
 21
1.428831999999999
 31
0.0
 11
28.03316699999999
 21
1.100317999999987
 31
0.0
 11
27.58504399999999
 21
0.8302309999999977
 31
0.0
 11
27.10670399999999
 21
0.6288399999999969
 31
0.0
 11
26.60375900000001
 21
0.5042029999999899
 31
0.0
 11
26.08211100000001
 21
0.4496119999999877
 31
0.0
 11
25.547879
 21
0.4370559999999986
 31
0.0
 11
25.007332
 21
0.4367129999999976
 31
0.0
  0
SPLINE
  5
20D5
330
1E
100
AcDbEntity
  8
CUT
100
AcDbSpline
210
0.0
220
0.0
230
1.0
 70
     8
 71
     3
 72
    36
 73
    32
 74
    30
 42
0.0000000001
 43
0.0000000001
 44
0.0000000001
 12
-0.9999999749727241
 22
0.0002237287443903
 32
0.0
 13
0.9999671596652301
 23
-0.0081042946054621
 33
0.0
 40
0.0
 40
0.0
 40
0.0
 40
0.0
 40
0.5413393210297962
 40
1.082688427312432
 40
1.624029710727068
 40
2.16534782890341
 40
2.706624730905517
 40
3.24784202037252
 40
3.78897922777283
 40
4.33001413406261
 40
4.870921530574268
 40
5.411669270765574
 40
5.952223886834091
 40
6.492544866785832
 40
7.032580595449225
 40
7.572269485241299
 40
8.11153848524129
 40
8.650325733169452
 40
9.188505280289186
 40
9.725904301055887
 40
10.2622853148073
 40
10.79731859655432
 40
11.33054359133329
 40
11.86131097483851
 40
12.38875748406955
 40
12.9119794357287
 40
13.4309856885629
 40
13.9491440184139
 40
14.47364074212627
 40
15.00802027294683
 40
15.54856738177084
 40
15.54856738177084
 40
15.54856738177084
 40
15.54856738177084
 10
25.007332
 20
10.0
 30
0.0
 10
24.82688556417282
 20
10.00004037105552
 30
0.0
 10
24.46568480147558
 20
9.980423981904388
 30
0.0
 10
23.93046634621766
 20
9.8927855488668
 30
0.0
 10
23.40778987989044
 20
9.747813284192973
 30
0.0
 10
22.90387069535034
 20
9.547248354468347
 30
0.0
 10
22.42459946324178
 20
9.293435841600242
 30
0.0
 10
21.97560504170224
 20
8.98936540606263
 30
0.0
 10
21.56215380378645
 20
8.638614852435223
 30
0.0
 10
21.18909693341882
 20
8.245315508718647
 30
0.0
 10
20.8608091399113
 20
7.814105066072196
 30
0.0
 10
20.58114298312962
 20
7.350069693673861
 30
0.0
 10
20.35337273693267
 20
6.858692795927858
 30
0.0
 10
20.18016990772978
 20
6.345784444476025
 30
0.0
 10
20.06356010342746
 20
5.817424005038589
 30
0.0
 10
20.00490277780091
 20
5.279888939801043
 30
0.0
 10
20.00487861706435
 20
4.739577069686125
 30
0.0
 10
20.063483598908
 20
4.202955769241105
 30
0.0
 10
20.18002847895546
 20
3.676508124673574
 30
0.0
 10
20.35314265597402
 20
3.166698707899875
 30
0.0
 10
20.58078352503528
 20
2.679934548544491
 30
0.0
 10
20.86025717658055
 20
2.222568165674555
 30
0.0
 10
21.18825625112238
 20
1.800971437919645
 30
0.0
 10
21.56089257911681
 20
1.421701889836184
 30
0.0
 10
21.97383193555622
 20
1.091873445022746
 30
0.0
 10
22.42260049766856
 20
0.8197816394156472
 30
0.0
 10
22.90325306621118
 20
0.6157154009092224
 30
0.0
 10
23.41103045525709
 20
0.4910671089442451
 30
0.0
 10
23.93566000975985
 20
0.4425415899526094
 30
0.0
 10
24.4688499798246
 20
0.4349829486919504
 30
0.0
 10
24.82715554764134
 20
0.4381732510060111
 30
0.0
 10
25.007332
 20
0.4367129999999976
 30
0.0
 11
25.007332
 21
10.0
 31
0.0
 11
24.466785
 21
9.970721999999991
 31
0.0
 11
23.93255299999999
 21
9.883229
 31
0.0
 11
23.41090499999999
 21
9.73854399999999
 31
0.0
 11
22.90796000000001
 21
9.538364999999997
 31
0.0
 11
22.42962000000001
 21
9.285043999999999
 31
0.0
 11
21.981497
 21
8.981560999999997
 31
0.0
 11
21.568849
 21
8.63148799999999
 31
0.0
 11
21.19651700000001
 21
8.238947999999991
 31
0.0
 11
20.86886799999998
 21
7.808567999999991
 31
0.0
 11
20.58974699999998
 21
7.345426999999986
 31
0.0
 11
20.36242400000002
 21
6.854994999999987
 31
0.0
 11
20.18956399999998
 21
6.343070999999991
 31
0.0
 11
20.07319099999997
 21
5.815722999999991
 31
0.0
 11
20.01466399999999
 21
5.279216999999988
 31
0.0
 11
20.01466399999999
 21
4.739947999999998
 31
0.0
 11
20.07319099999997
 21
4.204348999999993
 31
0.0
 11
20.18956399999998
 21
3.678901999999993
 31
0.0
 11
20.36242400000002
 21
3.170062999999998
 31
0.0
 11
20.58974699999998
 21
2.684234999999983
 31
0.0
 11
20.86886799999998
 21
2.227778999999995
 31
0.0
 11
21.19651700000001
 21
1.807094999999988
 31
0.0
 11
21.568849
 21
1.428831999999999
 31
0.0
 11
21.981497
 21
1.100317999999987
 31
0.0
 11
22.42962000000001
 21
0.8302309999999977
 31
0.0
 11
22.90796000000001
 21
0.6288399999999969
 31
0.0
 11
23.41090499999999
 21
0.5042029999999899
 31
0.0
 11
23.93255299999999
 21
0.4496119999999877
 31
0.0
 11
24.466785
 21
0.4370559999999986
 31
0.0
 11
25.007332
 21
0.4367129999999976
 31
0.0
  0
TEXT
  5
20DD
330
1E
100
AcDbEntity
  8
6
100
AcDbText
 10
50.94814330401071
 20
-5.00952712003459
 30
0.0
 40
3.5
  1
Z=2
 50
90.0
100
AcDbText
  0
TEXT
  5
20DE
330
1E
100
AcDbEntity
  8
6
100
AcDbText
 10
5.146445553156979
 20
15.20258786845025
 30
0.0
 40
2.5
  1
RHHW1003M0TN
100
AcDbText
  0
LWPOLYLINE
  5
237D
330
1E
100
AcDbEntity
  8
1
100
AcDbPolyline
 90
        3
 70
     1
 43
0.0
 10
-0.0000000000000142
 20
2.950972054112568
 10
-0.0000000000000142
 20
-0.0000000000000426
 10
2.950972054112568
 20
-0.0000000000000426
 42
0.4142135623730966
  0
LINE
  5
237F
330
1E
100
AcDbEntity
  8
1
100
AcDbLine
 10
-0.0000000000000142
 20
2.950972054112568
 30
0.0
 11
-0.0000000000000142
 21
-2.950972054112625
 31
0.0
  0
LINE
  5
2380
330
1E
100
AcDbEntity
  8
1
100
AcDbLine
 10
-2.950972054112853
 20
-0.0000000000000426
 30
0.0
 11
2.950972054112568
 21
-0.0000000000000426
 31
0.0
  0
HATCH
  5
2381
330
1E
100
AcDbEntity
  8
1
100
AcDbHatch
 10
0.0
 20
0.0
 30
0.0
210
0.0
220
0.0
230
1.0
  2
SOLID
 70
     1
 71
     0
 91
        2
 92
        7
 72
     1
 73
     1
 93
        3
 10
-0.0000000000000142
 20
-0.0000000000000426
 42
0.0
 10
2.950972054112568
 20
-0.0000000000000426
 42
0.4142135623730966
 10
-0.0000000000000142
 20
2.950972054112568
 42
0.0
 97
        0
 92
        7
 72
     1
 73
     1
 93
        3
 10
-0.0000000000000142
 20
-2.95097205411254
 42
0.0
 10
-0.0000000000000142
 20
-0.0000000000000426
 42
0.0
 10
-2.950972054112596
 20
-0.0000000000000426
 42
0.4142135623730953
 97
        0
 75
     0
 76
     1
 47
0.1190009775223266
 98
        2
 10
0.7445530588118885
 20
0.9212244733764547
 10
-1.27946460185295
 20
-1.696796923046334
  0
CIRCLE
  5
2382
330
1E
100
AcDbEntity
  8
1
100
AcDbCircle
 10
-0.0000000000000142
 20
-0.0000000000000426
 30
0.0
 40
2.950972054112601
  0
LWPOLYLINE
  5
2383
330
1E
100
AcDbEntity
  8
1
100
AcDbPolyline
 90
        3
 70
     1
 43
0.0
 10
-0.0000000000000142
 20
-0.0000000000000426
 10
-2.950972054112596
 20
-0.0000000000000426
 42
0.4142135623730966
 10
-0.0000000000000142
 20
-2.950972054112625
  0
ENDSEC
  0
SECTION
  2
OBJECTS
  0
DICTIONARY
  5
C
330
0
100
AcDbDictionary
281
     1
  3
ACAD_COLOR
350
23E5
  3
ACAD_GROUP
350
D
  3
ACAD_LAYOUT
350
19
  3
ACAD_MATERIAL
350
23E4
  3
ACAD_MLINESTYLE
350
16
  3
ACAD_PLOTSETTINGS
350
18
  3
ACAD_PLOTSTYLENAME
350
2074
  3
ACAD_TABLESTYLE
350
23E6
  3
ACDBHEADERROUNDTRIPXREC
350
2409
  3
AcDbVariableDictionary
350
2404
1001
ACAD
1000
TREAT_AS_HARD
1070
     0
  0
DICTIONARY
  5
175F
330
1E
100
AcDbDictionary
281
     1
  3
ACAD_LAYOUTSELFREF
350
1760
  0
DICTIONARY
  5
175D
330
1A
100
AcDbDictionary
281
     1
  3
ACAD_LAYOUTSELFREF
350
175E
  0
DICTIONARY
  5
23E5
102
{ACAD_REACTORS
330
C
102
}
330
C
100
AcDbDictionary
281
     1
  0
DICTIONARY
  5
D
102
{ACAD_REACTORS
330
C
102
}
330
C
100
AcDbDictionary
281
     1
1001
ACAD
1000
TREAT_AS_HARD
1070
     0
  0
DICTIONARY
  5
19
102
{ACAD_REACTORS
330
C
102
}
330
C
100
AcDbDictionary
281
     1
  3
Layout1
350
2077
  3
Model
350
2076
1001
ACAD
1000
TREAT_AS_HARD
1070
     0
  0
DICTIONARY
  5
23E4
102
{ACAD_REACTORS
330
C
102
}
330
C
100
AcDbDictionary
281
     1
  0
DICTIONARY
  5
16
102
{ACAD_REACTORS
330
C
102
}
330
C
100
AcDbDictionary
281
     1
  3
STANDARD
350
17
1001
ACAD
1000
TREAT_AS_HARD
1070
     0
  0
DICTIONARY
  5
18
102
{ACAD_REACTORS
330
C
102
}
330
C
100
AcDbDictionary
281
     1
1001
ACAD
1000
TREAT_AS_HARD
1070
     0
  0
ACDBDICTIONARYWDFLT
  5
2074
102
{ACAD_REACTORS
330
C
102
}
330
C
100
AcDbDictionary
281
     1
  3
Normal
350
2075
100
AcDbDictionaryWithDefault
340
2075
  0
DICTIONARY
  5
23E6
102
{ACAD_REACTORS
330
C
102
}
330
C
100
AcDbDictionary
281
     1
  3
Standard
350
23E7
  0
DICTIONARY
  5
2409
102
{ACAD_REACTORS
330
C
102
}
330
C
100
AcDbDictionary
281
     1
  0
DICTIONARY
  5
2404
102
{ACAD_REACTORS
330
C
102
}
330
C
100
AcDbDictionary
281
     1
  3
CTABLESTYLE
350
2405
  3
DIMASSOC
350
2406
  3
PROJECTNAME
350
2407
  0
XRECORD
  5
1760
102
{ACAD_REACTORS
330
175F
102
}
330
175F
100
AcDbXrecord
280
     1
340
1E
  0
XRECORD
  5
175E
102
{ACAD_REACTORS
330
175D
102
}
330
175D
100
AcDbXrecord
280
     1
340
1A
  0
LAYOUT
  5
2077
102
{ACAD_XDICTIONARY
360
240C
102
}
102
{ACAD_REACTORS
330
19
102
}
330
19
100
AcDbPlotSettings
  1

  2
\\ingdom02\ITB2
  4

  6

 40
0.0
 41
0.0
 42
0.0
 43
0.0
 44
0.0
 45
0.0
 46
0.0
 47
0.0
 48
0.0
 49
0.0
140
0.0
141
0.0
142
1.0
143
1.0
 70
   688
 72
     0
 73
     0
 74
     5
  7

 75
    16
147
1.0
148
0.0
149
0.0
100
AcDbLayout
  1
Layout1
 70
     1
 71
     1
 10
0.0
 20
0.0
 11
12.0
 21
9.0
 12
0.0
 22
0.0
 32
0.0
 14
100.0
 24
100.0
 34
100.0
 15
-100.0
 25
-100.0
 35
-100.0
146
0.0
 13
0.0
 23
0.0
 33
0.0
 16
1.0
 26
0.0
 36
0.0
 17
0.0
 27
1.0
 37
0.0
 76
     0
330
1A
  0
LAYOUT
  5
2076
102
{ACAD_XDICTIONARY
360
240A
102
}
102
{ACAD_REACTORS
330
19
102
}
330
19
100
AcDbPlotSettings
  1

  2
\\ingdom02\ITB2
  4

  6

 40
0.0
 41
0.0
 42
0.0
 43
0.0
 44
0.0
 45
0.0
 46
0.0
 47
0.0
 48
0.0
 49
0.0
140
0.0
141
0.0
142
1.0
143
1.0
 70
  1712
 72
     0
 73
     0
 74
     0
  7

 75
     0
147
1.0
148
0.0
149
0.0
100
AcDbLayout
  1
Model
 70
     1
 71
     0
 10
0.0
 20
0.0
 11
12.0
 21
9.0
 12
0.0
 22
0.0
 32
0.0
 14
0.0
 24
0.0
 34
0.0
 15
0.0
 25
0.0
 35
0.0
146
0.0
 13
0.0
 23
0.0
 33
0.0
 16
1.0
 26
0.0
 36
0.0
 17
0.0
 27
1.0
 37
0.0
 76
     0
330
1E
  0
MLINESTYLE
  5
17
102
{ACAD_REACTORS
330
16
102
}
330
16
100
AcDbMlineStyle
  2
STANDARD
 70
     0
  3

 62
   256
 51
90.0
 52
90.0
 71
     2
 49
0.5
 62
   256
  6
BYLAYER
 49
-0.5
 62
   256
  6
BYLAYER
  0
ACDBPLACEHOLDER
  5
2075
102
{ACAD_REACTORS
330
2074
102
}
330
2074
  0
TABLESTYLE
  5
23E7
102
{ACAD_REACTORS
330
23E6
102
}
330
23E6
100
AcDbTableStyle
  3
Standard
 70
     0
 71
     0
 40
0.06
 41
0.06
280
     0
281
     0
  7
STANDARD
140
0.18
170
     2
 62
     0
 63
     7
283
     0
274
    -2
284
     1
 64
     0
275
    -2
285
     1
 65
     0
276
    -2
286
     1
 66
     0
277
    -2
287
     1
 67
     0
278
    -2
288
     1
 68
     0
279
    -2
289
     1
 69
     0
  7
STANDARD
140
0.25
170
     5
 62
     0
 63
     7
283
     0
274
    -2
284
     1
 64
     0
275
    -2
285
     1
 65
     0
276
    -2
286
     1
 66
     0
277
    -2
287
     1
 67
     0
278
    -2
288
     1
 68
     0
279
    -2
289
     1
 69
     0
  7
STANDARD
140
0.18
170
     5
 62
     0
 63
     7
283
     0
274
    -2
284
     1
 64
     0
275
    -2
285
     1
 65
     0
276
    -2
286
     1
 66
     0
277
    -2
287
     1
 67
     0
278
    -2
288
     1
 68
     0
279
    -2
289
     1
 69
     0
  0
DICTIONARYVAR
  5
2405
102
{ACAD_REACTORS
330
2404
102
}
330
2404
100
DictionaryVariables
280
     0
  1
STANDARD
  0
DICTIONARYVAR
  5
2406
102
{ACAD_REACTORS
330
2404
102
}
330
2404
100
DictionaryVariables
280
     0
  1
1
  0
DICTIONARYVAR
  5
2407
102
{ACAD_REACTORS
330
2404
102
}
330
2404
100
DictionaryVariables
280
     0
  1

  0
DICTIONARY
  5
240C
330
2077
100
AcDbDictionary
280
     1
281
     1
  3
ACAD_XREC_ROUNDTRIP
360
240D
  0
DICTIONARY
  5
240A
330
2076
100
AcDbDictionary
280
     1
281
     1
  3
ACAD_XREC_ROUNDTRIP
360
240B
  0
XRECORD
  5
240D
102
{ACAD_REACTORS
330
240C
102
}
330
240C
100
AcDbXrecord
280
     1
102
SHADEPLOT
 70
     0
102
SHADEPLOTRESLEVEL
 70
     2
102
SHADEPLOTCUSTOMDPI
 70
   300
  0
XRECORD
  5
240B
102
{ACAD_REACTORS
330
240A
102
}
330
240A
100
AcDbXrecord
280
     1
102
SHADEPLOT
 70
     0
102
SHADEPLOTRESLEVEL
 70
     2
102
SHADEPLOTCUSTOMDPI
 70
   300
  0
ENDSEC
  0
EOF
