  0
SECTION
  2
HEADER
  9
$ACADVER
  1
AC1015
  9
$ACADMAINTVER
 70
    20
  9
$DWGCODEPAGE
  3
ANSI_1252
  9
$INSBASE
 10
0.0
 20
0.0
 30
0.0
  9
$EXTMIN
 10
-68.65762077730597
 20
-67.01468547044282
 30
-0.0015258207003583
  9
$EXTMAX
 10
103.7853302613378
 20
23.77026925052996
 30
0.0000000349246037
  9
$LIMMIN
 10
0.0
 20
0.0
  9
$LIMMAX
 10
594.0
 20
420.0
  9
$ORTHOMODE
 70
     0
  9
$REGENMODE
 70
     1
  9
$FILLMODE
 70
     1
  9
$QTEXTMODE
 70
     0
  9
$MIRRTEXT
 70
     1
  9
$LTSCALE
 40
10.0
  9
$ATTMODE
 70
     1
  9
$TEXTSIZE
 40
0.2
  9
$TRACEWID
 40
0.05
  9
$TEXTSTYLE
  7
STANDARD
  9
$CLAYER
  8
0
  9
$CELTYPE
  6
BYLAYER
  9
$CECOLOR
 62
   256
  9
$CELTSCALE
 40
1.0
  9
$DISPSILH
 70
     0
  9
$DIMSCALE
 40
1.0
  9
$DIMASZ
 40
2.5
  9
$DIMEXO
 40
3.712499999999999
  9
$DIMDLI
 40
22.572
  9
$DIMRND
 40
0.0
  9
$DIMDLE
 40
0.0
  9
$DIMEXE
 40
10.692
  9
$DIMTP
 40
0.01
  9
$DIMTM
 40
0.01
  9
$DIMTXT
 40
3.5
  9
$DIMCEN
 40
5.346
  9
$DIMTSZ
 40
0.0
  9
$DIMTOL
 70
     1
  9
$DIMLIM
 70
     0
  9
$DIMTIH
 70
     1
  9
$DIMTOH
 70
     1
  9
$DIMSE1
 70
     0
  9
$DIMSE2
 70
     0
  9
$DIMTAD
 70
     0
  9
$DIMZIN
 70
     0
  9
$DIMBLK
  1
_FILLED
  9
$DIMASO
 70
     1
  9
$DIMSHO
 70
     1
  9
$DIMPOST
  1

  9
$DIMAPOST
  1

  9
$DIMALT
 70
     0
  9
$DIMALTD
 70
     2
  9
$DIMALTF
 40
25.4
  9
$DIMLFAC
 40
1.0
  9
$DIMTOFL
 70
     0
  9
$DIMTVP
 40
0.0
  9
$DIMTIX
 70
     0
  9
$DIMSOXD
 70
     0
  9
$DIMSAH
 70
     0
  9
$DIMBLK1
  1

  9
$DIMBLK2
  1

  9
$DIMSTYLE
  2
STANDARD
  9
$DIMCLRD
 70
     0
  9
$DIMCLRE
 70
     0
  9
$DIMCLRT
 70
     0
  9
$DIMTFAC
 40
1.0
  9
$DIMGAP
 40
0.09
  9
$DIMJUST
 70
     0
  9
$DIMSD1
 70
     0
  9
$DIMSD2
 70
     0
  9
$DIMTOLJ
 70
     1
  9
$DIMTZIN
 70
     0
  9
$DIMALTZ
 70
     0
  9
$DIMALTTZ
 70
     0
  9
$DIMUPT
 70
     0
  9
$DIMDEC
 70
     4
  9
$DIMTDEC
 70
     4
  9
$DIMALTU
 70
     2
  9
$DIMALTTD
 70
     2
  9
$DIMTXSTY
  7
STANDARD
  9
$DIMAUNIT
 70
     0
  9
$DIMADEC
 70
     0
  9
$DIMALTRND
 40
0.0
  9
$DIMAZIN
 70
     0
  9
$DIMDSEP
 70
    46
  9
$DIMATFIT
 70
     3
  9
$DIMFRAC
 70
     0
  9
$DIMLDRBLK
  1
_FILLED
  9
$DIMLUNIT
 70
     2
  9
$DIMLWD
 70
    -2
  9
$DIMLWE
 70
    -2
  9
$DIMTMOVE
 70
     0
  9
$LUNITS
 70
     2
  9
$LUPREC
 70
     4
  9
$SKETCHINC
 40
0.1
  9
$FILLETRAD
 40
0.0
  9
$AUNITS
 70
     0
  9
$AUPREC
 70
     0
  9
$MENU
  1

  9
$ELEVATION
 40
0.0
  9
$PELEVATION
 40
0.0
  9
$THICKNESS
 40
0.0
  9
$LIMCHECK
 70
     0
  9
$CHAMFERA
 40
0.0
  9
$CHAMFERB
 40
0.0
  9
$CHAMFERC
 40
0.0
  9
$CHAMFERD
 40
0.0
  9
$SKPOLY
 70
     0
  9
$TDCREATE
 40
2453413.506999977
  9
$TDUCREATE
 40
2453413.423666643
  9
$TDUPDATE
 40
2453909.274565741
  9
$TDUUPDATE
 40
2453909.191232408
  9
$TDINDWG
 40
0.0753331250
  9
$TDUSRTIMER
 40
0.0710796296
  9
$USRTIMER
 70
     1
  9
$ANGBASE
 50
0.0
  9
$ANGDIR
 70
     0
  9
$PDMODE
 70
     0
  9
$PDSIZE
 40
0.3125
  9
$PLINEWID
 40
0.0
  9
$SPLFRAME
 70
     0
  9
$SPLINETYPE
 70
     6
  9
$SPLINESEGS
 70
     8
  9
$HANDSEED
  5
4F92
  9
$SURFTAB1
 70
     6
  9
$SURFTAB2
 70
     6
  9
$SURFTYPE
 70
     6
  9
$SURFU
 70
     6
  9
$SURFV
 70
     6
  9
$UCSBASE
  2

  9
$UCSNAME
  2

  9
$UCSORG
 10
0.0
 20
0.0
 30
0.0
  9
$UCSXDIR
 10
1.0
 20
0.0
 30
0.0
  9
$UCSYDIR
 10
0.0
 20
1.0
 30
0.0
  9
$UCSORTHOREF
  2

  9
$UCSORTHOVIEW
 70
     0
  9
$UCSORGTOP
 10
0.0
 20
0.0
 30
0.0
  9
$UCSORGBOTTOM
 10
0.0
 20
0.0
 30
0.0
  9
$UCSORGLEFT
 10
0.0
 20
0.0
 30
0.0
  9
$UCSORGRIGHT
 10
0.0
 20
0.0
 30
0.0
  9
$UCSORGFRONT
 10
0.0
 20
0.0
 30
0.0
  9
$UCSORGBACK
 10
0.0
 20
0.0
 30
0.0
  9
$PUCSBASE
  2

  9
$PUCSNAME
  2

  9
$PUCSORG
 10
0.0
 20
0.0
 30
0.0
  9
$PUCSXDIR
 10
1.0
 20
0.0
 30
0.0
  9
$PUCSYDIR
 10
0.0
 20
1.0
 30
0.0
  9
$PUCSORTHOREF
  2

  9
$PUCSORTHOVIEW
 70
     0
  9
$PUCSORGTOP
 10
0.0
 20
0.0
 30
0.0
  9
$PUCSORGBOTTOM
 10
0.0
 20
0.0
 30
0.0
  9
$PUCSORGLEFT
 10
0.0
 20
0.0
 30
0.0
  9
$PUCSORGRIGHT
 10
0.0
 20
0.0
 30
0.0
  9
$PUCSORGFRONT
 10
0.0
 20
0.0
 30
0.0
  9
$PUCSORGBACK
 10
0.0
 20
0.0
 30
0.0
  9
$USERI1
 70
     0
  9
$USERI2
 70
     0
  9
$USERI3
 70
     0
  9
$USERI4
 70
     0
  9
$USERI5
 70
     0
  9
$USERR1
 40
0.0
  9
$USERR2
 40
0.0
  9
$USERR3
 40
0.0
  9
$USERR4
 40
0.0
  9
$USERR5
 40
0.0
  9
$WORLDVIEW
 70
     1
  9
$SHADEDGE
 70
     3
  9
$SHADEDIF
 70
    70
  9
$TILEMODE
 70
     1
  9
$MAXACTVP
 70
    64
  9
$PINSBASE
 10
0.0
 20
0.0
 30
0.0
  9
$PLIMCHECK
 70
     0
  9
$PEXTMIN
 10
100.0
 20
100.0
 30
100.0
  9
$PEXTMAX
 10
-100.0
 20
-100.0
 30
-100.0
  9
$PLIMMIN
 10
0.0
 20
0.0
  9
$PLIMMAX
 10
12.0
 20
9.0
  9
$UNITMODE
 70
     0
  9
$VISRETAIN
 70
     1
  9
$PLINEGEN
 70
     1
  9
$PSLTSCALE
 70
     1
  9
$TREEDEPTH
 70
  3020
  9
$CMLSTYLE
  2
STANDARD
  9
$CMLJUST
 70
     0
  9
$CMLSCALE
 40
1.0
  9
$PROXYGRAPHICS
 70
     1
  9
$MEASUREMENT
 70
     0
  9
$CELWEIGHT
370
    -1
  9
$ENDCAPS
280
     0
  9
$JOINSTYLE
280
     0
  9
$LWDISPLAY
290
     0
  9
$INSUNITS
 70
     0
  9
$HYPERLINKBASE
  1

  9
$STYLESHEET
  1

  9
$XEDIT
290
     1
  9
$CEPSNTYPE
380
     0
  9
$PSTYLEMODE
290
     1
  9
$FINGERPRINTGUID
  2
{1547E3C7-D74D-4245-8E44-970A608CDF0E}
  9
$VERSIONGUID
  2
{FF141047-47A2-4306-8469-809B0A4EBB1F}
  9
$EXTNAMES
290
     1
  9
$PSVPSCALE
 40
0.0
  9
$OLESTARTUP
290
     0
  0
ENDSEC
  0
SECTION
  2
CLASSES
  0
CLASS
  1
ACDBDICTIONARYWDFLT
  2
AcDbDictionaryWithDefault
  3
ObjectDBX Classes
 90
        0
280
     0
281
     0
  0
CLASS
  1
ACDBPLACEHOLDER
  2
AcDbPlaceHolder
  3
ObjectDBX Classes
 90
        0
280
     0
281
     0
  0
CLASS
  1
LAYOUT
  2
AcDbLayout
  3
ObjectDBX Classes
 90
        0
280
     0
281
     0
  0
CLASS
  1
TABLESTYLE
  2
AcDbTableStyle
  3
ObjectDBX Classes
 90
     2047
280
     0
281
     0
  0
CLASS
  1
DICTIONARYVAR
  2
AcDbDictionaryVar
  3
ObjectDBX Classes
 90
        0
280
     0
281
     0
  0
ENDSEC
  0
SECTION
  2
TABLES
  0
TABLE
  2
VPORT
  5
8
330
0
100
AcDbSymbolTable
 70
     2
  0
VPORT
  5
4F8C
330
8
100
AcDbSymbolTableRecord
100
AcDbViewportTableRecord
  2
*Active
 70
     0
 10
0.0
 20
0.0
 11
1.0
 21
1.0
 12
17.5638547420159
 22
-21.62220810995643
 13
0.0
 23
0.0
 14
1.0
 24
1.0
 15
0.0
 25
0.0
 16
0.0
 26
0.0
 36
1.0
 17
0.0
 27
0.0
 37
0.0
 40
113.0903256285015
 41
1.532401524777636
 42
50.0
 43
0.0
 44
0.0
 50
0.0
 51
0.0
 71
     0
 72
   100
 73
     1
 74
     1
 75
     0
 76
     0
 77
     0
 78
     0
281
     0
 65
     1
110
0.0
120
0.0
130
0.0
111
1.0
121
0.0
131
0.0
112
0.0
122
1.0
132
0.0
 79
     0
146
0.0
  0
ENDTAB
  0
TABLE
  2
LTYPE
  5
5
330
0
100
AcDbSymbolTable
 70
     2
  0
LTYPE
  5
13
330
5
100
AcDbSymbolTableRecord
100
AcDbLinetypeTableRecord
  2
BYBLOCK
 70
     0
  3

 72
    65
 73
     0
 40
0.0
  0
LTYPE
  5
14
330
5
100
AcDbSymbolTableRecord
100
AcDbLinetypeTableRecord
  2
BYLAYER
 70
     0
  3

 72
    65
 73
     0
 40
0.0
  0
LTYPE
  5
15
330
5
100
AcDbSymbolTableRecord
100
AcDbLinetypeTableRecord
  2
CONTINUOUS
 70
     0
  3
Solid line
 72
    65
 73
     0
 40
0.0
  0
LTYPE
  5
2E
330
5
100
AcDbSymbolTableRecord
100
AcDbLinetypeTableRecord
  2
CENTER
 70
     0
  3
____ _ ____ _ ____ _ ____ _ ____ _ ____ _ ____
 72
    65
 73
     4
 40
0.6
 49
0.375
 74
     0
 49
-0.075
 74
     0
 49
0.075
 74
     0
 49
-0.075
 74
     0
  0
ENDTAB
  0
TABLE
  2
LAYER
  5
2
330
0
100
AcDbSymbolTable
 70
    11
  0
LAYER
  5
10
330
2
100
AcDbSymbolTableRecord
100
AcDbLayerTableRecord
  2
1
 70
     0
 62
     4
  6
CONTINUOUS
370
    -3
390
47C9
  0
LAYER
  5
31
330
2
100
AcDbSymbolTableRecord
100
AcDbLayerTableRecord
  2
2
 70
     0
 62
     7
  6
CONTINUOUS
370
    -3
390
47C9
  0
LAYER
  5
33
330
2
100
AcDbSymbolTableRecord
100
AcDbLayerTableRecord
  2
4
 70
     0
 62
     2
  6
CENTER
370
    -3
390
47C9
  0
LAYER
  5
36
330
2
100
AcDbSymbolTableRecord
100
AcDbLayerTableRecord
  2
0
 70
     0
 62
     7
  6
CONTINUOUS
370
    -3
390
47C9
  0
LAYER
  5
37
330
2
100
AcDbSymbolTableRecord
100
AcDbLayerTableRecord
  2
DEFPOINTS
 70
     0
 62
     7
  6
CONTINUOUS
290
     0
370
    -3
390
47C9
  0
LAYER
  5
1685
330
2
100
AcDbSymbolTableRecord
100
AcDbLayerTableRecord
  2
SK1
 70
     0
 62
     4
  6
CONTINUOUS
370
    -3
390
47C9
  0
LAYER
  5
1686
330
2
100
AcDbSymbolTableRecord
100
AcDbLayerTableRecord
  2
SK4
 70
     0
 62
     2
  6
CENTER
370
    -3
390
47C9
  0
LAYER
  5
1688
330
2
100
AcDbSymbolTableRecord
100
AcDbLayerTableRecord
  2
SK2
 70
     0
 62
     7
  6
CONTINUOUS
370
    -3
390
47C9
  0
LAYER
  5
4860
330
2
100
AcDbSymbolTableRecord
100
AcDbLayerTableRecord
  2
6
 70
     0
 62
     5
  6
CONTINUOUS
370
    -3
390
47C9
  0
LAYER
  5
4861
330
2
100
AcDbSymbolTableRecord
100
AcDbLayerTableRecord
  2
CUT
 70
     0
 62
     1
  6
CONTINUOUS
370
    -3
390
47C9
  0
LAYER
  5
4862
330
2
100
AcDbSymbolTableRecord
100
AcDbLayerTableRecord
  2
NOCUT
 70
     0
 62
     7
  6
CONTINUOUS
370
    -3
390
47C9
  0
ENDTAB
  0
TABLE
  2
STYLE
  5
3
330
0
100
AcDbSymbolTable
 70
     1
  0
STYLE
  5
11
330
3
100
AcDbSymbolTableRecord
100
AcDbTextStyleTableRecord
  2
STANDARD
 70
     0
 40
0.0
 41
0.8
 50
0.0
 71
     0
 42
0.2
  3
isocp.shx
  4

  0
ENDTAB
  0
TABLE
  2
VIEW
  5
6
330
0
100
AcDbSymbolTable
 70
     0
  0
ENDTAB
  0
TABLE
  2
UCS
  5
7
330
0
100
AcDbSymbolTable
 70
     0
  0
ENDTAB
  0
TABLE
  2
APPID
  5
9
330
0
100
AcDbSymbolTable
 70
     1
  0
APPID
  5
12
330
9
100
AcDbSymbolTableRecord
100
AcDbRegAppTableRecord
  2
ACAD
 70
     0
  0
ENDTAB
  0
TABLE
  2
DIMSTYLE
  5
A
330
0
100
AcDbSymbolTable
 70
     2
100
AcDbDimStyleTable
 71
     1
340
30
  0
DIMSTYLE
105
30
330
A
100
AcDbSymbolTableRecord
100
AcDbDimStyleTableRecord
  2
STANDARD
 70
     0
340
11
  0
DIMSTYLE
105
1689
102
{ACAD_REACTORS
330
90
330
B9C
330
8D
330
B9B
330
8E
102
}
330
A
100
AcDbSymbolTableRecord
100
AcDbDimStyleTableRecord
  2
ISO-25
 70
     0
 41
2.5
 42
0.625
 43
3.75
 44
1.25
 73
     0
 74
     0
 77
     1
 78
     8
140
2.5
141
2.5
143
0.03937007874016
147
0.625
171
     3
172
     1
271
     2
272
     2
274
     3
283
     0
284
     8
340
11
  0
ENDTAB
  0
TABLE
  2
BLOCK_RECORD
  5
1
330
0
100
AcDbSymbolTable
 70
     6
  0
BLOCK_RECORD
  5
1E
102
{ACAD_XDICTIONARY
360
3192
102
}
330
1
100
AcDbSymbolTableRecord
100
AcDbBlockTableRecord
  2
*MODEL_SPACE
340
47CA
  0
BLOCK_RECORD
  5
1A
102
{ACAD_XDICTIONARY
360
3190
102
}
330
1
100
AcDbSymbolTableRecord
100
AcDbBlockTableRecord
  2
*PAPER_SPACE
340
47CB
  0
BLOCK_RECORD
  5
23
330
1
100
AcDbSymbolTableRecord
100
AcDbBlockTableRecord
  2
_FILLED
340
0
  0
BLOCK_RECORD
  5
1777
330
1
100
AcDbSymbolTableRecord
100
AcDbBlockTableRecord
  2
*D1
340
0
  0
BLOCK_RECORD
  5
1785
330
1
100
AcDbSymbolTableRecord
100
AcDbBlockTableRecord
  2
*D2
340
0
  0
BLOCK_RECORD
  5
1791
330
1
100
AcDbSymbolTableRecord
100
AcDbBlockTableRecord
  2
*D3
340
0
  0
BLOCK_RECORD
  5
179D
330
1
100
AcDbSymbolTableRecord
100
AcDbBlockTableRecord
  2
*D4
340
0
  0
BLOCK_RECORD
  5
17A9
330
1
100
AcDbSymbolTableRecord
100
AcDbBlockTableRecord
  2
*D5
340
0
  0
ENDTAB
  0
ENDSEC
  0
SECTION
  2
BLOCKS
  0
BLOCK
  5
3A
330
1E
100
AcDbEntity
  8
0
100
AcDbBlockBegin
  2
*MODEL_SPACE
 70
     0
 10
0.0
 20
0.0
 30
0.0
  3
*MODEL_SPACE
  1

  0
ENDBLK
  5
3B
330
1E
100
AcDbEntity
  8
0
100
AcDbBlockEnd
  0
BLOCK
  5
38
330
1A
100
AcDbEntity
 67
     1
  8
0
100
AcDbBlockBegin
  2
*PAPER_SPACE
 70
     0
 10
0.0
 20
0.0
 30
0.0
  3
*PAPER_SPACE
  1

  0
ENDBLK
  5
39
330
1A
100
AcDbEntity
 67
     1
  8
0
100
AcDbBlockEnd
  0
BLOCK
  5
3E
330
23
100
AcDbEntity
  8
0
100
AcDbBlockBegin
  2
_FILLED
 70
     0
 10
0.0
 20
0.0
 30
0.0
  3
_FILLED
  1

  0
SOLID
  5
3F
330
23
100
AcDbEntity
  8
0
  6
ByBlock
 62
     0
100
AcDbTrace
 10
0.0
 20
0.0
 30
0.0
 11
-1.0
 21
0.132
 31
0.0
 12
-1.0
 22
-0.132
 32
0.0
 13
-1.0
 23
-0.132
 33
0.0
  0
ENDBLK
  5
40
330
23
100
AcDbEntity
  8
0
100
AcDbBlockEnd
  0
BLOCK
  5
1783
330
1777
100
AcDbEntity
  8
0
100
AcDbBlockBegin
  2
*D1
 70
     1
 10
0.0
 20
0.0
 30
0.0
  3
*D1
  1

  0
LINE
  5
4F7F
330
1777
100
AcDbEntity
  8
SK2
 62
     0
370
    -2
100
AcDbLine
 10
-54.86483396939997
 20
-12.49999999999999
 30
0.0
 11
-66.74743678480661
 21
-12.49999999999999
 31
0.0
  0
LINE
  5
4F80
330
1777
100
AcDbEntity
  8
SK2
 62
     0
370
    -2
100
AcDbLine
 10
-56.84476861526711
 20
12.5
 30
0.0
 11
-66.74743678480661
 21
12.5
 31
0.0
  0
LINE
  5
4F81
330
1777
100
AcDbEntity
  8
SK2
 62
     0
370
    -2
100
AcDbLine
 10
-65.49743678480661
 20
-9.999999999999989
 30
0.0
 11
-65.49743678480661
 21
10.0
 31
0.0
  0
SOLID
  5
4F82
330
1777
100
AcDbEntity
  8
SK2
 62
     0
100
AcDbTrace
 10
-65.91410345147328
 20
-9.999999999999989
 30
0.0
 11
-65.08077011813994
 21
-9.999999999999989
 31
0.0
 12
-65.49743678480661
 22
-12.49999999999999
 32
0.0
 13
-65.49743678480661
 23
-12.49999999999999
 33
0.0
  0
SOLID
  5
4F83
330
1777
100
AcDbEntity
  8
SK2
 62
     0
100
AcDbTrace
 10
-65.91410345147328
 20
10.0
 30
0.0
 11
-65.08077011813994
 21
10.0
 31
0.0
 12
-65.49743678480661
 22
12.5
 32
0.0
 13
-65.49743678480661
 23
12.5
 33
0.0
  0
MTEXT
  5
4F84
330
1777
100
AcDbEntity
  8
SK2
 62
     0
100
AcDbMText
 10
-67.37268284779874
 20
0.1285294945808462
 30
0.0
 40
2.5
 41
0.0
 71
     5
 72
     1
  1
%%c25
 11
0.0000000000000001
 21
1.0
 31
0.0
 73
     1
 44
1.0
1001
ACAD
1000
MTEXTBEGIN
1070
    73
1070
     1
1070
    44
1040
1.0
1070
    74
1070
     0
1000
MTEXTEND
  0
POINT
  5
4F85
330
1777
100
AcDbEntity
  8
DEFPOINTS
 62
     0
100
AcDbPoint
 10
-54.23983396939997
 20
-12.49999999999999
 30
0.0
  0
POINT
  5
4F86
330
1777
100
AcDbEntity
  8
DEFPOINTS
 62
     0
100
AcDbPoint
 10
-56.21976861526711
 20
12.5
 30
0.0
  0
POINT
  5
4F87
330
1777
100
AcDbEntity
  8
DEFPOINTS
 62
     0
100
AcDbPoint
 10
-65.49743678480661
 20
12.5
 30
0.0
  0
ENDBLK
  5
1784
330
1777
100
AcDbEntity
  8
0
100
AcDbBlockEnd
  0
BLOCK
  5
178F
330
1785
100
AcDbEntity
  8
0
100
AcDbBlockBegin
  2
*D2
 70
     1
 10
0.0
 20
0.0
 30
0.0
  3
*D2
  1

  0
LINE
  5
480B
330
1785
100
AcDbEntity
  8
SK2
 62
     0
370
    -2
100
AcDbLine
 10
-23.43983396939998
 20
-0.6249999999999975
 30
0.0
 11
-23.43983396939998
 21
-41.56072906166865
 31
0.0
  0
LINE
  5
480C
330
1785
100
AcDbEntity
  8
SK2
 62
     0
370
    -2
100
AcDbLine
 10
81.56016603060001
 20
-13.125
 30
0.0
 11
81.56016603060001
 21
-41.56072906166865
 31
0.0
  0
LINE
  5
480D
330
1785
100
AcDbEntity
  8
SK2
 62
     0
370
    -2
100
AcDbLine
 10
-20.93983396939998
 20
-40.31072906166865
 30
0.0
 11
79.06016603060002
 21
-40.31072906166865
 31
0.0
  0
SOLID
  5
480E
330
1785
100
AcDbEntity
  8
SK2
 62
     0
100
AcDbTrace
 10
-20.93983396939998
 20
-39.894062395002
 30
0.0
 11
-20.93983396939998
 21
-40.72739572833532
 31
0.0
 12
-23.43983396939998
 22
-40.31072906166865
 32
0.0
 13
-23.43983396939998
 23
-40.31072906166865
 33
0.0
  0
SOLID
  5
480F
330
1785
100
AcDbEntity
  8
SK2
 62
     0
100
AcDbTrace
 10
79.06016603060002
 20
-39.894062395002
 30
0.0
 11
79.06016603060002
 21
-40.72739572833532
 31
0.0
 12
81.56016603060001
 22
-40.31072906166865
 32
0.0
 13
81.56016603060001
 23
-40.31072906166865
 33
0.0
  0
MTEXT
  5
4810
330
1785
100
AcDbEntity
  8
SK2
 62
     0
100
AcDbMText
 10
29.06016603060001
 20
-38.43572906166864
 30
0.0
 40
2.5
 41
0.0
 71
     5
 72
     1
  1
105
 73
     1
 44
1.0
1001
ACAD
1000
MTEXTBEGIN
1070
    73
1070
     1
1070
    44
1040
1.0
1070
    74
1070
     0
1000
MTEXTEND
  0
POINT
  5
4811
330
1785
100
AcDbEntity
  8
DEFPOINTS
 62
     0
100
AcDbPoint
 10
-23.43983396939998
 20
0.0000000000000029
 30
0.0
  0
POINT
  5
4812
330
1785
100
AcDbEntity
  8
DEFPOINTS
 62
     0
100
AcDbPoint
 10
81.56016603060001
 20
-12.5
 30
0.0
  0
POINT
  5
4813
330
1785
100
AcDbEntity
  8
DEFPOINTS
 62
     0
100
AcDbPoint
 10
81.56016603060001
 20
-40.31072906166865
 30
0.0
  0
ENDBLK
  5
1790
330
1785
100
AcDbEntity
  8
0
100
AcDbBlockEnd
  0
BLOCK
  5
179B
330
1791
100
AcDbEntity
  8
0
100
AcDbBlockBegin
  2
*D3
 70
     1
 10
0.0
 20
0.0
 30
0.0
  3
*D3
  1

  0
LINE
  5
47F9
330
1791
100
AcDbEntity
  8
SK2
 62
     0
370
    -2
100
AcDbLine
 10
81.56016603060001
 20
6.263748731599987
 30
0.0
 11
81.56016603060001
 21
-51.63557841064356
 31
0.0
  0
LINE
  5
47FA
330
1791
100
AcDbEntity
  8
SK2
 62
     0
370
    -2
100
AcDbLine
 10
-55.43983396939998
 20
-14.98493192210218
 30
0.0
 11
-55.43983396939998
 21
-51.63557841064356
 31
0.0
  0
LINE
  5
47FB
330
1791
100
AcDbEntity
  8
SK2
 62
     0
370
    -2
100
AcDbLine
 10
79.06016603060002
 20
-50.38557841064356
 30
0.0
 11
-52.93983396939998
 21
-50.38557841064356
 31
0.0
  0
SOLID
  5
47FC
330
1791
100
AcDbEntity
  8
SK2
 62
     0
100
AcDbTrace
 10
79.06016603060002
 20
-49.96891174397688
 30
0.0
 11
79.06016603060002
 21
-50.80224507731021
 31
0.0
 12
81.56016603060001
 22
-50.38557841064356
 32
0.0
 13
81.56016603060001
 23
-50.38557841064356
 33
0.0
  0
SOLID
  5
47FD
330
1791
100
AcDbEntity
  8
SK2
 62
     0
100
AcDbTrace
 10
-52.93983396939998
 20
-49.96891174397688
 30
0.0
 11
-52.93983396939998
 21
-50.80224507731021
 31
0.0
 12
-55.43983396939998
 22
-50.38557841064356
 32
0.0
 13
-55.43983396939998
 23
-50.38557841064356
 33
0.0
  0
MTEXT
  5
47FE
330
1791
100
AcDbEntity
  8
SK2
 62
     0
100
AcDbMText
 10
11.7557743675
 20
-48.51057841064356
 30
0.0
 40
2.5
 41
0.0
 71
     5
 72
     1
  1
137
 73
     1
 44
1.0
1001
ACAD
1000
MTEXTBEGIN
1070
    73
1070
     1
1070
    44
1040
1.0
1070
    74
1070
     0
1000
MTEXTEND
  0
POINT
  5
47FF
330
1791
100
AcDbEntity
  8
DEFPOINTS
 62
     0
100
AcDbPoint
 10
81.56016603060001
 20
6.888748731599987
 30
0.0
  0
POINT
  5
4800
330
1791
100
AcDbEntity
  8
DEFPOINTS
 62
     0
100
AcDbPoint
 10
-55.43983396939998
 20
-14.35993192210218
 30
0.0
  0
POINT
  5
4801
330
1791
100
AcDbEntity
  8
DEFPOINTS
 62
     0
100
AcDbPoint
 10
-55.43983396939998
 20
-50.38557841064356
 30
0.0
  0
ENDBLK
  5
179C
330
1791
100
AcDbEntity
  8
0
100
AcDbBlockEnd
  0
BLOCK
  5
17A7
330
179D
100
AcDbEntity
  8
0
100
AcDbBlockBegin
  2
*D4
 70
     1
 10
0.0
 20
0.0
 30
0.0
  3
*D4
  1

  0
LINE
  5
4802
330
179D
100
AcDbEntity
  8
2
 62
     0
370
    -2
100
AcDbLine
 10
1.575294854000013
 20
-11.875
 30
0.0
 11
1.575294854000012
 21
-31.54025081000907
 31
0.0
  0
LINE
  5
4803
330
179D
100
AcDbEntity
  8
2
 62
     0
370
    -2
100
AcDbLine
 10
81.56016603060001
 20
-0.62500000000001
 30
0.0
 11
81.56016603060001
 21
-31.54025081000907
 31
0.0
  0
LINE
  5
4804
330
179D
100
AcDbEntity
  8
2
 62
     0
370
    -2
100
AcDbLine
 10
4.075294854000009
 20
-30.29025081000907
 30
0.0
 11
79.06016603060002
 21
-30.29025081000907
 31
0.0
  0
SOLID
  5
4805
330
179D
100
AcDbEntity
  8
2
 62
     0
100
AcDbTrace
 10
4.075294854000009
 20
-29.8735841433424
 30
0.0
 11
4.075294854000009
 21
-30.70691747667574
 31
0.0
 12
1.575294854000012
 22
-30.29025081000907
 32
0.0
 13
1.575294854000012
 23
-30.29025081000907
 33
0.0
  0
SOLID
  5
4806
330
179D
100
AcDbEntity
  8
2
 62
     0
100
AcDbTrace
 10
79.06016603060002
 20
-29.8735841433424
 30
0.0
 11
79.06016603060002
 21
-30.70691747667574
 31
0.0
 12
81.56016603060001
 22
-30.29025081000907
 32
0.0
 13
81.56016603060001
 23
-30.29025081000907
 33
0.0
  0
MTEXT
  5
4807
330
179D
100
AcDbEntity
  8
2
 62
     0
100
AcDbMText
 10
41.56773044230001
 20
-28.41525081000907
 30
0.0
 40
2.5
 41
0.0
 71
     5
 72
     1
  1
80
 73
     1
 44
1.0
1001
ACAD
1000
MTEXTBEGIN
1070
    73
1070
     1
1070
    44
1040
1.0
1070
    74
1070
     0
1000
MTEXTEND
  0
POINT
  5
4808
330
179D
100
AcDbEntity
  8
DEFPOINTS
 62
     0
100
AcDbPoint
 10
1.575294854000013
 20
-11.25
 30
0.0
  0
POINT
  5
4809
330
179D
100
AcDbEntity
  8
DEFPOINTS
 62
     0
100
AcDbPoint
 10
81.56016603060001
 20
-0.00000000000001
 30
0.0
  0
POINT
  5
480A
330
179D
100
AcDbEntity
  8
DEFPOINTS
 62
     0
100
AcDbPoint
 10
81.56016603060001
 20
-30.29025081000907
 30
0.0
  0
ENDBLK
  5
17A8
330
179D
100
AcDbEntity
  8
0
100
AcDbBlockEnd
  0
BLOCK
  5
17B3
330
17A9
100
AcDbEntity
  8
0
100
AcDbBlockBegin
  2
*D5
 70
     1
 10
0.0
 20
0.0
 30
0.0
  3
*D5
  1

  0
LINE
  5
4814
330
17A9
100
AcDbEntity
  8
2
 62
     0
370
    -2
100
AcDbLine
 10
82.18516603060001
 20
12.49999999999999
 30
0.0
 11
97.78180948434721
 21
12.49999999999998
 31
0.0
  0
LINE
  5
4815
330
17A9
100
AcDbEntity
  8
2
 62
     0
370
    -2
100
AcDbLine
 10
82.18516603060001
 20
-12.5
 30
0.0
 11
97.78180948434721
 21
-12.5
 31
0.0
  0
LINE
  5
4816
330
17A9
100
AcDbEntity
  8
2
 62
     0
370
    -2
100
AcDbLine
 10
96.53180948434721
 20
9.999999999999984
 30
0.0
 11
96.53180948434721
 21
-10.0
 31
0.0
  0
SOLID
  5
4817
330
17A9
100
AcDbEntity
  8
2
 62
     0
100
AcDbTrace
 10
96.11514281768052
 20
9.999999999999984
 30
0.0
 11
96.94847615101387
 21
9.999999999999984
 31
0.0
 12
96.53180948434721
 22
12.49999999999998
 32
0.0
 13
96.53180948434721
 23
12.49999999999998
 33
0.0
  0
SOLID
  5
4818
330
17A9
100
AcDbEntity
  8
2
 62
     0
100
AcDbTrace
 10
96.11514281768052
 20
-10.0
 30
0.0
 11
96.94847615101387
 21
-10.0
 31
0.0
 12
96.53180948434721
 22
-12.5
 32
0.0
 13
96.53180948434721
 23
-12.5
 33
0.0
  0
MTEXT
  5
4819
330
17A9
100
AcDbEntity
  8
2
 62
     0
100
AcDbMText
 10
94.65680948434721
 20
-0.234179125537037
 30
0.0
 40
2.5
 41
0.0
 71
     5
 72
     1
  1
%%c25
 11
0.0000000000000001
 21
1.0
 31
0.0
 73
     1
 44
1.0
1001
ACAD
1000
MTEXTBEGIN
1070
    73
1070
     1
1070
    44
1040
1.0
1070
    74
1070
     0
1000
MTEXTEND
  0
POINT
  5
481A
330
17A9
100
AcDbEntity
  8
DEFPOINTS
 62
     0
100
AcDbPoint
 10
81.56016603060001
 20
12.49999999999999
 30
0.0
  0
POINT
  5
481B
330
17A9
100
AcDbEntity
  8
DEFPOINTS
 62
     0
100
AcDbPoint
 10
81.56016603060001
 20
-12.5
 30
0.0
  0
POINT
  5
481C
330
17A9
100
AcDbEntity
  8
DEFPOINTS
 62
     0
100
AcDbPoint
 10
96.53180948434721
 20
-12.5
 30
0.0
  0
ENDBLK
  5
17B4
330
17A9
100
AcDbEntity
  8
0
100
AcDbBlockEnd
  0
ENDSEC
  0
SECTION
  2
ENTITIES
  0
DIMENSION
  5
8D
330
1E
100
AcDbEntity
  8
SK2
100
AcDbDimension
  2
*D3
 10
-55.43983396939998
 20
-50.38557841064356
 30
0.0
 11
11.7557743675
 21
-50.38557841064356
 31
0.0
 70
   160
 71
     5
 42
137.0
  3
ISO-25
100
AcDbAlignedDimension
 13
81.56016603060001
 23
6.888748731599987
 33
0.0
 14
-55.43983396939998
 24
-14.35993192210218
 34
0.0
 50
180.0
100
AcDbRotatedDimension
  0
DIMENSION
  5
8E
330
1E
100
AcDbEntity
  8
2
100
AcDbDimension
  2
*D5
 10
96.53180948434721
 20
-12.5
 30
0.0
 11
96.53180948434721
 21
-0.2341791255370373
 31
0.0
 70
   160
  1
%%c<>
 71
     5
 42
25.0
  3
ISO-25
100
AcDbAlignedDimension
 13
81.56016603060001
 23
12.49999999999999
 33
0.0
 14
81.56016603060001
 24
-12.5
 34
0.0
 50
270.0
100
AcDbRotatedDimension
  0
DIMENSION
  5
90
330
1E
100
AcDbEntity
  8
SK2
100
AcDbDimension
  2
*D1
 10
-65.49743678480661
 20
12.5
 30
0.0
 11
-65.49743678480661
 21
0.1285294945808459
 31
0.0
 70
   160
  1
%%c<>
 71
     5
 42
25.0
  3
ISO-25
100
AcDbAlignedDimension
 13
-54.23983396939997
 23
-12.49999999999999
 33
0.0
 14
-56.21976861526711
 24
12.5
 34
0.0
 50
89.99999999999998
100
AcDbRotatedDimension
  0
LINE
  5
91
330
1E
100
AcDbEntity
  8
1
100
AcDbLine
 10
80.8601660306
 20
-1.951754220900008
 30
0.0
 11
80.8601660306
 21
2.80016515199997
 31
0.0
  0
LINE
  5
92
330
1E
100
AcDbEntity
  8
1
100
AcDbLine
 10
80.8601660306
 20
6.242057737799988
 30
0.0
 11
80.8601660306
 21
5.824799956899977
 31
0.0
  0
LINE
  5
93
330
1E
100
AcDbEntity
  8
1
100
AcDbLine
 10
80.8601660306
 20
-6.455343206500036
 30
0.0
 11
80.8601660306
 21
-8.625115379600041
 31
0.0
  0
LINE
  5
94
330
1E
100
AcDbEntity
  8
1
100
AcDbLine
 10
80.94382926840001
 20
-6.732419983000037
 30
0.0
 11
81.53040243600001
 21
-4.55171935170004
 31
0.0
  0
LINE
  5
95
330
1E
100
AcDbEntity
  8
1
100
AcDbLine
 10
80.94382926840001
 20
-1.775930017100028
 30
0.0
 11
81.53040243600001
 21
-3.956630648399997
 31
0.0
  0
LINE
  5
98
330
1E
100
AcDbEntity
  8
1
100
AcDbLine
 10
75.20061098780002
 20
-3.221050368900026
 30
0.0
 11
75.20061098780002
 21
5.508349999999999
 31
0.0
  0
LINE
  5
99
330
1E
100
AcDbEntity
  8
SK1
100
AcDbLine
 10
0.0000000000000015
 20
12.5
 30
0.0
 11
-54.23983396939997
 21
12.5
 31
0.0
  0
LINE
  5
9A
330
1E
100
AcDbEntity
  8
1
100
AcDbLine
 10
65.52829864420001
 20
11.24999999999999
 30
0.0
 11
1.575294854000014
 21
11.25
 31
0.0
  0
LINE
  5
9B
330
1E
100
AcDbEntity
  8
1
100
AcDbLine
 10
74.19572491210002
 20
11.24822208169999
 30
0.0
 11
66.08317664330002
 21
11.24822208169999
 31
0.0
  0
LINE
  5
9C
330
1E
100
AcDbEntity
  8
1
100
AcDbLine
 10
74.66671850010001
 20
11.24288663999999
 30
0.0
 11
74.4527553089
 21
11.24288663999999
 31
0.0
  0
LINE
  5
9D
330
1E
100
AcDbEntity
  8
SK1
100
AcDbLine
 10
-17.43983396939998
 20
6.782329983099967
 30
0.0
 11
-29.43983396939998
 21
6.782329983099971
 31
0.0
  0
LINE
  5
9E
330
1E
100
AcDbEntity
  8
SK1
100
AcDbLine
 10
-38.43983396939997
 20
6.782329983099972
 30
0.0
 11
-54.23983396939997
 21
6.782329983099972
 31
0.0
  0
LINE
  5
9F
330
1E
100
AcDbEntity
  8
1
100
AcDbLine
 10
77.07442303060002
 20
5.508349999999997
 30
0.0
 11
74.57442303060002
 21
5.508349999999999
 31
0.0
  0
LINE
  5
A0
330
1E
100
AcDbEntity
  8
4
100
AcDbLine
 10
83.20482531101138
 20
-0.0000000000000123
 30
0.0
 11
0.7375847158419051
 21
-0.0000000000000001
 31
0.0
  0
LINE
  5
A1
330
1E
100
AcDbEntity
  8
1
100
AcDbLine
 10
75.20061098780002
 20
-3.221050368900026
 30
0.0
 11
75.1324715071
 21
-3.221050368900026
 31
0.0
  0
LINE
  5
A2
330
1E
100
AcDbEntity
  8
1
100
AcDbLine
 10
0.8235407573000076
 20
-11.77638388539999
 30
0.0
 11
0.7517540966000227
 21
-11.9736161147
 31
0.0
  0
LINE
  5
A3
330
1E
100
AcDbEntity
  8
1
100
AcDbLine
 10
74.78299702
 20
-5.275033158500049
 30
0.0
 11
74.4527553089
 21
-5.275033158500049
 31
0.0
  0
LINE
  5
A4
330
1E
100
AcDbEntity
  8
1
100
AcDbLine
 10
74.19572491210002
 20
-5.450905960100027
 30
0.0
 11
66.08317664310002
 21
-5.450905960100024
 31
0.0
  0
LINE
  5
A5
330
1E
100
AcDbEntity
  8
SK1
100
AcDbLine
 10
-17.43983396939998
 20
-6.782329983200034
 30
0.0
 11
-29.43983396939998
 21
-6.782329983200034
 31
0.0
  0
LINE
  5
A6
330
1E
100
AcDbEntity
  8
SK1
100
AcDbLine
 10
-38.43983396939997
 20
-6.782329983200034
 30
0.0
 11
-54.23983396939997
 21
-6.782329983200032
 31
0.0
  0
LINE
  5
A7
330
1E
100
AcDbEntity
  8
1
100
AcDbLine
 10
0.8235407573000104
 20
11.77638388529999
 30
0.0
 11
0.7517540966000257
 21
11.9736161146
 31
0.0
  0
LINE
  5
A8
330
1E
100
AcDbEntity
  8
1
100
AcDbLine
 10
1.575294854000013
 20
-11.25
 30
0.0
 11
1.575294854000014
 21
11.25
 31
0.0
  0
LINE
  5
A9
330
1E
100
AcDbEntity
  8
SK1
100
AcDbLine
 10
0.0000000000000015
 20
12.5
 30
0.0
 11
-0.0000000000000015
 21
-12.5
 31
0.0
  0
LINE
  5
AA
330
1E
100
AcDbEntity
  8
1
100
AcDbLine
 10
75.20061098780002
 20
-11.24919914410001
 30
0.0
 11
74.57442303060002
 21
-11.24919914410001
 31
0.0
  0
LINE
  5
AB
330
1E
100
AcDbEntity
  8
1
100
AcDbLine
 10
73.05628105050001
 20
-11.25
 30
0.0
 11
1.575294854000013
 21
-11.25
 31
0.0
  0
LINE
  5
AC
330
1E
100
AcDbEntity
  8
SK1
100
AcDbLine
 10
-0.0000000000000015
 20
-12.5
 30
0.0
 11
-54.23983396939997
 21
-12.49999999999999
 31
0.0
  0
LINE
  5
AD
330
1E
100
AcDbEntity
  8
SK1
100
AcDbLine
 10
-17.43983396939998
 20
6.782329983099967
 30
0.0
 11
-17.43983396939998
 21
-6.782329983200034
 31
0.0
  0
LINE
  5
AE
330
1E
100
AcDbEntity
  8
SK1
100
AcDbLine
 10
-29.43983396939998
 20
6.782329983099971
 30
0.0
 11
-29.43983396939998
 21
-6.782329983200034
 31
0.0
  0
LINE
  5
AF
330
1E
100
AcDbEntity
  8
SK1
100
AcDbLine
 10
-38.43983396939997
 20
6.782329983099972
 30
0.0
 11
-38.43983396939997
 21
-6.782329983200034
 31
0.0
  0
LINE
  5
B0
330
1E
100
AcDbEntity
  8
SK1
100
AcDbLine
 10
-54.23983396939997
 20
12.5
 30
0.0
 11
-55.43983396939998
 21
11.3
 31
0.0
  0
LINE
  5
B1
330
1E
100
AcDbEntity
  8
SK1
100
AcDbLine
 10
-54.23983396939997
 20
-12.49999999999999
 30
0.0
 11
-55.43983396939998
 21
-11.29999999999999
 31
0.0
  0
LINE
  5
B2
330
1E
100
AcDbEntity
  8
SK1
100
AcDbLine
 10
-54.23983396939997
 20
6.782329983099972
 30
0.0
 11
-54.23983396939997
 21
12.5
 31
0.0
  0
LINE
  5
B3
330
1E
100
AcDbEntity
  8
SK1
100
AcDbLine
 10
-54.23983396939997
 20
-6.782329983200032
 30
0.0
 11
-54.23983396939997
 21
-12.49999999999999
 31
0.0
  0
LINE
  5
B4
330
1E
100
AcDbEntity
  8
SK1
100
AcDbLine
 10
-55.43983396939998
 20
11.2999981183
 30
0.0
 11
-55.43983396939998
 21
-11.29999811839998
 31
0.0
  0
CIRCLE
  5
B6
330
1E
100
AcDbEntity
  8
1
100
AcDbCircle
 10
77.57442303060002
 20
8.50835
 30
0.0
 40
2.45
  0
ARC
  5
B7
330
1E
100
AcDbEntity
  8
1
100
AcDbCircle
 10
77.57442303060002
 20
8.50835
 30
0.0
 40
3.991597085
100
AcDbArc
 50
294.5194686956998
 51
228.7289707691999
  0
ARC
  5
B9
330
1E
100
AcDbEntity
  8
1
100
AcDbCircle
 10
74.57442303060002
 20
15.50834999999999
 30
0.0
 40
10.0
100
AcDbArc
 50
205.2288644582
 51
270.0
  0
ARC
  5
BA
330
1E
100
AcDbEntity
  8
1
100
AcDbCircle
 10
0.0000000000000014
 20
11.69999999999999
 30
0.0
 40
0.8
100
AcDbArc
 50
20.00000000000001
 51
45.55634280407493
  0
ARC
  5
BB
330
1E
100
AcDbEntity
  8
SK1
100
AcDbCircle
 10
-0.0000000000000014
 20
-11.69999999999999
 30
0.0
 40
0.8
100
AcDbArc
 50
270.0
 51
314.4436571959249
  0
ARC
  5
BC
330
1E
100
AcDbEntity
  8
1
100
AcDbCircle
 10
1.575294854000014
 20
12.05
 30
0.0
 40
0.8
100
AcDbArc
 50
199.9999999997999
 51
270.0
  0
ARC
  5
BD
330
1E
100
AcDbEntity
  8
1
100
AcDbCircle
 10
1.575294854000013
 20
-12.05
 30
0.0
 40
0.8
100
AcDbArc
 50
90.0
 51
160.0000000001999
  0
ARC
  5
BE
330
1E
100
AcDbEntity
  8
1
100
AcDbCircle
 10
77.57442303060002
 20
8.50835
 30
0.0
 40
4.349999999999996
100
AcDbArc
 50
140.9605264703
 51
214.8026381268997
  0
ARC
  5
BF
330
1E
100
AcDbEntity
  8
1
100
AcDbCircle
 10
77.57442303060002
 20
8.50835
 30
0.0
 40
4.349999999999996
100
AcDbArc
 50
214.8043665622
 51
223.3958817486999
  0
ARC
  5
C0
330
1E
100
AcDbEntity
  8
1
100
AcDbCircle
 10
77.07442303060002
 20
1.50835
 30
0.0
 40
4.0
100
AcDbArc
 50
18.83797154719978
 51
90.0
  0
LWPOLYLINE
  5
1EA
330
1E
100
AcDbEntity
  8
1
100
AcDbPolyline
 90
       29
 70
     0
 43
0.0
 10
81.56552213270002
 20
-4.254173785000017
 10
81.56579902339741
 20
-4.264693617664066
 10
81.56596505796818
 20
-4.275216075226818
 10
81.56602011459352
 20
-4.285740008867538
 10
81.5659641101873
 20
-4.296264253489614
 10
81.56579711465322
 20
-4.306787579709109
 10
81.56551923566253
 20
-4.317308742271737
 10
81.56513058088652
 20
-4.32782649592324
 10
81.56463125799673
 20
-4.338339595409316
 10
81.56402138182802
 20
-4.348846799947645
 10
81.56330118047199
 20
-4.359346939456687
 10
81.56247097241751
 20
-4.369838900285365
 10
81.56153107867172
 20
-4.380321570354888
 10
81.56048182024182
 20
-4.390793837586428
 10
81.55932351825372
 20
-4.401254589936898
 10
81.55805654245112
 20
-4.41170272998992
 10
81.55664051107251
 20
-4.422435113649838
 10
81.55511058606261
 20
-4.433151884632768
 10
81.55346732474251
 20
-4.443851895368259
 10
81.55171128443347
 20
-4.454533998285834
 10
81.5498430400536
 20
-4.465197052159318
 10
81.54780671214242
 20
-4.476135298523346
 10
81.54565341242951
 20
-4.487051094070626
 10
81.54338395613192
 20
-4.497943268685919
 10
81.5409991584667
 20
-4.508810652253978
 10
81.53843071073401
 20
-4.519944718954659
 10
81.53574246544362
 20
-4.531050203728967
 10
81.53293549801711
 20
-4.542125949952326
 10
81.53040498374092
 20
-4.551709681524958
  0
LWPOLYLINE
  5
209
330
1E
100
AcDbEntity
  8
1
100
AcDbPolyline
 90
       22
 70
     0
 43
0.0
 10
80.943829371
 20
-6.732419392200037
 10
80.9411902960211
 20
-6.742023253331637
 10
80.93844788406419
 20
-6.751598490947136
 10
80.93553730366911
 20
-6.761360723045758
 10
80.93252076059771
 20
-6.771090952529569
 10
80.9293993885066
 20
-6.780788221699124
 10
80.92610155058581
 20
-6.790666017718469
 10
80.92262151024121
 20
-6.800721085663806
 10
80.91903113005422
 20
-6.810737314559167
 10
80.91525189505523
 20
-6.820925549287629
 10
80.91136047194153
 20
-6.831071317289357
 10
80.9072738081655
 20
-6.841383886393407
 10
80.90298647970961
 20
-6.851859714239227
 10
80.89858238045719
 20
-6.862287059205659
 10
80.8939716533921
 20
-6.872872164845729
 10
80.889149139711
 20
-6.883611163972124
 10
80.88410982782795
 20
-6.894500086739606
 10
80.8788488137452
 20
-6.905534811090537
 10
80.87336130706981
 20
-6.916711053416728
 10
80.8676426322143
 20
-6.928024397461566
 10
80.86179373979453
 20
-6.939270451433117
 10
80.8602099480309
 20
-6.942262485290799
  0
LWPOLYLINE
  5
221
330
1E
100
AcDbEntity
  8
1
100
AcDbPolyline
 90
       91
 70
     0
 43
0.0
 10
80.45586614799999
 20
-5.603685837000006
 10
80.47819273968682
 20
-5.621763555606729
 10
80.50026735855743
 20
-5.640149762207286
 10
80.52207777753372
 20
-5.658849023304077
 10
80.54263887868279
 20
-5.676994637848967
 10
80.56293655993451
 20
-5.695434142377507
 10
80.5829593600125
 20
-5.714171964542049
 10
80.60176174633692
 20
-5.732298715434994
 10
80.6202921915686
 20
-5.750703394937517
 10
80.6385390310889
 20
-5.769389447391715
 10
80.6555993968532
 20
-5.787404772064419
 10
80.67150537959232
 20
-5.80471134555237
 10
80.6862895347349
 20
-5.821272293163929
 10
80.70083342993061
 20
-5.838044579354027
 10
80.71429445073908
 20
-5.854024744193058
 10
80.72752706313581
 20
-5.870194610255566
 10
80.73971800577492
 20
-5.885526973061968
 10
80.75169440337452
 20
-5.901027628371727
 10
80.76344921827702
 20
-5.91669706500039
 10
80.77421401415213
 20
-5.93147440504758
 10
80.78477346709762
 20
-5.94639924901678
 10
80.79438944066311
 20
-5.960390135750865
 10
80.80381791950063
 20
-5.974508020497168
 10
80.81305374676372
 20
-5.988752677511477
 10
80.82209172798412
 20
-6.003123823211866
 10
80.83025419730033
 20
-6.016501231003549
 10
80.8382391557893
 20
-6.029985305313355
 10
80.84604228348592
 20
-6.043575462456159
 10
80.85303168328222
 20
-6.05612568363574
 10
80.85986115863672
 20
-6.068763640488699
 10
80.86652723696749
 20
-6.0814885070338
 10
80.87302644554773
 20
-6.094299456284757
 10
80.87935529218761
 20
-6.107195526425869
 10
80.88551024582569
 20
-6.120175486356258
 10
80.8909517841595
 20
-6.132047183987999
 10
80.89624403082792
 20
-6.143986218942419
 10
80.90138433777523
 20
-6.155991550288876
 10
80.90637007832761
 20
-6.168061901761325
 10
80.91119862919232
 20
-6.180195959883297
 10
80.9158673670764
 20
-6.192392411178285
 10
80.91993043446299
 20
-6.203421443775918
 10
80.9238601015461
 20
-6.214498740582127
 10
80.92765455084132
 20
-6.225623063331807
 10
80.93131196487961
 20
-6.236793173713338
 10
80.9348305266983
 20
-6.248007832600459
 10
80.93820847525853
 20
-6.259265710860307
 10
80.94144415538142
 20
-6.270565308983317
 10
80.94453592367552
 20
-6.281905108489047
 10
80.94748213674922
 20
-6.293283590897057
 10
80.95028116453631
 20
-6.304699224161389
 10
80.95293152527244
 20
-6.316150325262459
 10
80.9554318298251
 20
-6.327635116879728
 10
80.9575272278173
 20
-6.337870665963639
 10
80.95950199178899
 20
-6.348130179996767
 10
80.96135517693692
 20
-6.358412389950977
 10
80.96308599233202
 20
-6.368715924946567
 10
80.9646936965071
 20
-6.379039381364477
 10
80.96617754801842
 20
-6.389381355570201
 10
80.96753680542212
 20
-6.399740443929207
 10
80.9687707566173
 20
-6.410115230976387
 10
80.9698788691738
 20
-6.420504228806607
 10
80.97086067863662
 20
-6.43090592210814
 10
80.97171572067862
 20
-6.441318795517747
 10
80.97244353097293
 20
-6.451741333672227
 10
80.97304367460123
 20
-6.462172015450597
 10
80.97351591299402
 20
-6.472609281290598
 10
80.97386008799004
 20
-6.483051555887459
 10
80.97407604167051
 20
-6.493497263888987
 10
80.97416361611662
 20
-6.50394482994301
 10
80.97412268222269
 20
-6.514392679048718
 10
80.9739533116183
 20
-6.524839238653338
 10
80.97365566133618
 20
-6.53528293724563
 10
80.97322988872331
 20
-6.545722203318159
 10
80.9726761511262
 20
-6.556155465363507
 10
80.97199463283359
 20
-6.56658115575717
 10
80.9711857140585
 20
-6.576997735111767
 10
80.97024986159452
 20
-6.587403676518137
 10
80.96918754261769
 20
-6.597797453122256
 10
80.96799922430411
 20
-6.608177538070076
 10
80.9666853944609
 20
-6.618542417426446
 10
80.96524670497101
 20
-6.62889067999783
 10
80.9636838860537
 20
-6.639220963643919
 10
80.96199766841332
 20
-6.649531906527959
 10
80.96018878275392
 20
-6.659822146813199
 10
80.95825797752253
 20
-6.670090320074307
 10
80.95620617127602
 20
-6.680335037067528
 10
80.95403437728402
 20
-6.690554894730937
 10
80.95144894910342
 20
-6.702020772772338
 10
80.94871438932282
 20
-6.713451414353959
 10
80.94583215374099
 20
-6.724844940394738
 10
80.9438319684836
 20
-6.732409735436678
  0
LWPOLYLINE
  5
27E
330
1E
100
AcDbEntity
  8
1
100
AcDbPolyline
 90
       56
 70
     0
 43
0.0
 10
74.2589120022
 20
-5.333986132400016
 10
74.28979906421702
 20
-5.356683878836298
 10
74.32099961693321
 20
-5.378950455229165
 10
74.35537624513901
 20
-5.402758613166176
 10
74.39008924570892
 20
-5.426072921353909
 10
74.425122062404
 20
-5.448903697002045
 10
74.46045894602693
 20
-5.471261000438467
 10
74.49608510282851
 20
-5.493154449581505
 10
74.53499028128098
 20
-5.516359794791146
 10
74.57420196562522
 20
-5.539043348778466
 10
74.61370457183031
 20
-5.561216327015928
 10
74.6534835546433
 20
-5.582889532182438
 10
74.69661588307392
 20
-5.605682944589895
 10
74.7400369126847
 20
-5.627921388704105
 10
74.78373175097002
 20
-5.649616894773869
 10
74.82768634963942
 20
-5.670781076967477
 10
74.87505403949062
 20
-5.692879944913824
 10
74.92268981307771
 20
-5.714394723572797
 10
74.9705796636207
 20
-5.735337882855866
 10
75.02192728670211
 20
-5.757060731800137
 10
75.07353397703211
 20
-5.778160715261276
 10
75.12538573179002
 20
-5.798651053386257
 10
75.18073207629372
 20
-5.819768147561178
 10
75.23632563701081
 20
-5.840225572336525
 10
75.29215262816261
 20
-5.860037018986695
 10
75.35150376826472
 20
-5.880324110159476
 10
75.41108798061681
 20
-5.899916066497647
 10
75.47089188293042
 20
-5.918826725232237
 10
75.53424279637432
 20
-5.938063242016426
 10
75.59781079298133
 20
-5.956569721328818
 10
75.6615829520384
 20
-5.974359873961119
 10
75.72891881508181
 20
-5.992326647964397
 10
75.79645419609811
 20
-6.009528211663837
 10
75.86417662696901
 20
-6.025977900831176
 10
75.93547367711511
 20
-6.042454542158597
 10
76.00695122038911
 20
-6.058129631041754
 10
76.07859719620272
 20
-6.07301587502449
 10
76.15040022954622
 20
-6.08712511831183
 10
76.22577915345401
 20
-6.101084914200067
 10
76.3013068472426
 20
-6.114215949516949
 10
76.37697217094042
 20
-6.12652917289041
 10
76.45621246777892
 20
-6.138538672399857
 10
76.53558002768481
 20
-6.149676085519987
 10
76.6150638238919
 20
-6.159951167311097
 10
76.69465329505332
 20
-6.169372810152977
 10
76.77433828763442
 20
-6.177949096736218
 10
76.85757911295262
 20
-6.186004844729707
 10
76.94090257587781
 20
-6.193155409974909
 10
77.02429828508901
 20
-6.199407278055707
 10
77.10775613582292
 20
-6.204766088724626
 10
77.19126627268261
 20
-6.209236638169508
 10
77.27481907154431
 20
-6.212822892289167
 10
77.3584050079514
 20
-6.215528027444517
 10
77.44201475349871
 20
-6.217354442289789
 10
77.5256392738908
 20
-6.218303741634508
 10
77.57441303060002
 20
-6.218452795593776
  0
LWPOLYLINE
  5
2B8
330
1E
100
AcDbEntity
  8
1
100
AcDbPolyline
 90
       22
 70
     0
 43
0.0
 10
80.86020525620002
 20
-1.56607868380002
 10
80.86619252711832
 20
-1.57750776682457
 10
80.87194397280011
 20
-1.588804323698339
 10
80.87746425873133
 20
-1.599964273940589
 10
80.88275804402769
 20
-1.610983241392049
 10
80.88783008672532
 20
-1.621856929287138
 10
80.89268525906289
 20
-1.63258120265486
 10
80.89732853727047
 20
-1.643152082703059
 10
80.90185257903071
 20
-1.653774479407378
 10
80.90617043030993
 20
-1.664237779591736
 10
80.91028743233673
 20
-1.67453827581908
 10
80.91420898331552
 20
-1.684672413352109
 10
80.91801874896281
 20
-1.694849227655379
 10
80.92163940708308
 20
-1.704854540742869
 10
80.92515010386447
 20
-1.714898964057515
 10
80.92847831246752
 20
-1.724766604511389
 10
80.93169859539257
 20
-1.734669850349379
 10
80.93474320831152
 20
-1.744391377431228
 10
80.93768215092731
 20
-1.754145176839159
 10
80.94045257157011
 20
-1.763712438541078
 10
80.94311992886209
 20
-1.773308590116409
 10
80.94382677341121
 20
-1.775920951164715
  0
LWPOLYLINE
  5
2D0
330
1E
100
AcDbEntity
  8
1
100
AcDbPolyline
 90
      123
 70
     0
 43
0.0
 10
81.53040238630003
 20
-3.956630661800017
 10
81.53551712143864
 20
-3.976391951019227
 10
81.54025320267631
 20
-3.996248463355986
 10
81.54460470315722
 20
-4.016193487541189
 10
81.54856643144141
 20
-4.036219876366138
 10
81.55213335419439
 20
-4.056320389539227
 10
81.55530082275912
 20
-4.076487663421914
 10
81.558064996952
 20
-4.096714075138227
 10
81.55987121787092
 20
-4.111918087403338
 10
81.56144707839031
 20
-4.12714775320946
 10
81.56279154257232
 20
-4.142399605863746
 10
81.56390362283602
 20
-4.157670157493646
 10
81.56478234342229
 20
-4.172955918304229
 10
81.56542703217281
 20
-4.188253349130667
 10
81.56583733926202
 20
-4.203558858392129
 10
81.56601293043662
 20
-4.218868851975468
 10
81.56595351899522
 20
-4.234179735581109
 10
81.56565922831372
 20
-4.249487913301535
 10
81.56513039131423
 20
-4.264789788407576
 10
81.56436734260601
 20
-4.280081764163925
 10
81.5633705348643
 20
-4.295360264994219
 10
81.56214085438397
 20
-4.310621793032368
 10
81.56067928698282
 20
-4.325862868248089
 10
81.55898682103911
 20
-4.341080011560988
 10
81.55637314848341
 20
-4.361326449621278
 10
81.55335480518981
 20
-4.381516546716476
 10
81.54993555887214
 20
-4.401642587836516
 10
81.54611969080091
 20
-4.421697165852426
 10
81.54191213594414
 20
-4.441673265531457
 10
81.53731790259742
 20
-4.461563924870295
 10
81.53234251374732
 20
-4.481362644493987
 10
81.52699191662042
 20
-4.501063306354128
 10
81.52127211462282
 20
-4.520659862548186
 10
81.5151895396297
 20
-4.540146843770936
 10
81.50875086714131
 20
-4.55951910970409
 10
81.50196281725792
 20
-4.57877161556996
 10
81.49483239929052
 20
-4.597899951541108
 10
81.48736674487443
 20
-4.616899976348108
 10
81.47957301037122
 20
-4.635767663199787
 10
81.47145848800951
 20
-4.654499620302386
 10
81.46303051723583
 20
-4.673092676541278
 10
81.45429643665243
 20
-4.691543775523117
 10
81.44526358023171
 20
-4.709850455396495
 10
81.43593928044831
 20
-4.72801044668513
 10
81.42633084847661
 20
-4.746021574237206
 10
81.41644547622872
 20
-4.76388219050329
 10
81.40371020686663
 20
-4.785994074043355
 10
81.39056723825794
 20
-4.807865897188943
 10
81.37703000848672
 20
-4.829495961559738
 10
81.36311184625553
 20
-4.850882793037068
 10
81.34882567850072
 20
-4.872025484897488
 10
81.3341840690817
 20
-4.89292364317384
 10
81.3191994257532
 20
-4.913577034542158
 10
81.30388354852099
 20
-4.933986029837726
 10
81.28508362460882
 20
-4.95815499092292
 10
81.26584276168008
 20
-4.981974309554829
 10
81.24617943445512
 20
-5.005446090896068
 10
81.22611154162461
 20
-5.028572755156877
 10
81.20565594828802
 20
-5.051357273829579
 10
81.18132300304191
 20
-5.077510987421947
 10
81.15650915761589
 20
-5.103208945904407
 10
81.13123796796349
 20
-5.128457086065068
 10
81.10553132521372
 20
-5.153261783422016
 10
81.07941034942742
 20
-5.177629580496605
 10
81.05289460921545
 20
-5.201567269673676
 10
81.02600299132843
 20
-5.225081730237318
 10
80.99483185213731
 20
-5.251446116073076
 10
80.96321759217531
 20
-5.277277297001757
 10
80.93118327849481
 20
-5.302585724218999
 10
80.898750900794
 20
-5.327381804843278
 10
80.86594071111454
 20
-5.351675805455136
 10
80.83277205161072
 20
-5.375477884156889
 10
80.79926273412949
 20
-5.398797972747329
 10
80.76542979503129
 20
-5.421645857287027
 10
80.72700043160592
 20
-5.446797124746755
 10
80.68820259222182
 20
-5.471376040830596
 10
80.64905588224702
 20
-5.49539541592216
 10
80.60957876074551
 20
-5.518867698398866
 10
80.56978839442917
 20
-5.541804912538518
 10
80.52970086041911
 20
-5.564218673017277
 10
80.48482893639722
 20
-5.588522571524586
 10
80.43962795310731
 20
-5.612208862368679
 10
80.39411596413101
 20
-5.635291801337897
 10
80.3483096072118
 20
-5.657784960197139
 10
80.3022246099727
 20
-5.679701446103949
 10
80.25122661066372
 20
-5.703158395213496
 10
80.19992719505511
 20
-5.725948572276019
 10
80.14834326847921
 20
-5.748087157328106
 10
80.09649050517593
 20
-5.769588556154268
 10
80.03963455852691
 20
-5.792334126213407
 10
79.98249393516061
 20
-5.814354759430749
 10
79.92508517663292
 20
-5.835666557441117
 10
79.86742373673521
 20
-5.856284818224827
 10
79.80952395189703
 20
-5.876223971040128
 10
79.74654584469181
 20
-5.897074289492389
 10
79.68331981491601
 20
-5.917160218690479
 10
79.61986074703331
 20
-5.93649729567292
 10
79.55618261818301
 20
-5.955100234351668
 10
79.48737614214192
 20
-5.974329015102497
 10
79.41834599086212
 20
-5.992738677324108
 10
79.34910647938122
 20
-6.010344522007566
 10
79.27967101465529
 20
-6.027160888282701
 10
79.21005217535202
 20
-6.04320119491911
 10
79.13527055598972
 20
-6.059540361731027
 10
79.06030581392029
 20
-6.075017593953927
 10
78.98517088914022
 20
-6.089646346078867
 10
78.90987802259022
 20
-6.103439146459307
 10
78.82940460562922
 20
-6.117243166250964
 10
78.74877800628779
 20
-6.130122327758956
 10
78.66801087457041
 20
-6.142088610296784
 10
78.58711526104382
 20
-6.15315300574429
 10
78.50610267351261
 20
-6.163325555026307
 10
78.42498412163322
 20
-6.172615358349347
 10
78.33869138556251
 20
-6.181527733015657
 10
78.25230319766792
 20
-6.189461676948098
 10
78.16583136221881
 20
-6.196424979892839
 10
78.07928731046009
 20
-6.202424407794707
 10
77.99268217005381
 20
-6.207465747413428
 10
77.90602679492881
 20
-6.21155383854422
 10
77.81933184215191
 20
-6.214692592885727
 10
77.7326078553158
 20
-6.216884992321287
 10
77.64586492049271
 20
-6.218133106973485
 10
77.57443303060002
 20
-6.218452795593776
  0
LWPOLYLINE
  5
34D
330
1E
100
AcDbEntity
  8
1
100
AcDbPolyline
 90
        2
 70
     0
 43
0.0
 10
75.20412757330001
 20
-3.221109572300048
 10
75.2077377292083
 20
-3.222862498469428
  0
LWPOLYLINE
  5
351
330
1E
100
AcDbEntity
  8
1
100
AcDbPolyline
 90
       42
 70
     0
 43
0.0
 10
75.20774672740002
 20
-3.222866861100027
 10
75.24508882128332
 20
-3.240698439921549
 10
75.28485199896692
 20
-3.259103051309669
 10
75.32483328657082
 20
-3.277028149430357
 10
75.3650215926272
 20
-3.294483769329946
 10
75.40765563685113
 20
-3.312410641643066
 10
75.4504971316194
 20
-3.329836081329298
 10
75.49580543020701
 20
-3.347648306561377
 10
75.54131954821382
 20
-3.364927825343256
 10
75.58702831896481
 20
-3.381685594805218
 10
75.63522063933051
 20
-3.398731057756517
 10
75.68360477338953
 20
-3.415224140042766
 10
75.73448708452763
 20
-3.431921974806098
 10
75.78555689305982
 20
-3.448037260964698
 10
75.8368034463072
 20
-3.463581230531528
 10
75.8905575360623
 20
-3.479232308622588
 10
75.94448309003279
 20
-3.494281917610547
 10
75.99857001000462
 20
-3.508740826678308
 10
76.05517030647331
 20
-3.523209579281818
 10
76.11192575782881
 20
-3.537057120845856
 10
76.17120071895151
 20
-3.550832047270576
 10
76.23062344167941
 20
-3.563954849141798
 10
76.29018429634562
 20
-3.576435685781929
 10
76.35226434423009
 20
-3.588744950922126
 10
76.41447423644172
 20
-3.600380139870888
 10
76.4768047977751
 20
-3.611350519027126
 10
76.54165104653881
 20
-3.622048427763278
 10
76.60660868219932
 20
-3.632047685379306
 10
76.67166884893491
 20
-3.641356519221857
 10
76.73923787721431
 20
-3.650288988171998
 10
76.806898981222
 20
-3.658494864908497
 10
76.8746434791459
 20
-3.665981154815426
 10
76.9424629950627
 20
-3.672754214366086
 10
77.01277509593943
 20
-3.679023351646927
 10
77.08315030761352
 20
-3.684539095361476
 10
77.1535801790218
 20
-3.689306340478417
 10
77.22405647427461
 20
-3.693329299876928
 10
77.29457116710301
 20
-3.696611475218277
 10
77.3651163187708
 20
-3.699155727490328
 10
77.43568412364631
 20
-3.700964282285458
 10
77.50626713971141
 20
-3.702038686208219
 10
77.57441303060002
 20
-3.702380301692687
  0
LWPOLYLINE
  5
37D
330
1E
100
AcDbEntity
  8
1
100
AcDbPolyline
 90
      123
 70
     0
 43
0.0
 10
80.943829371
 20
-1.775930607900025
 10
80.94818565527573
 20
-1.792761360428858
 10
80.95221938953441
 20
-1.809673778986338
 10
80.95592583596021
 20
-1.82666203345786
 10
80.95930031911903
 20
-1.843719655745798
 10
80.96233831522461
 20
-1.860840199805178
 10
80.96503615600409
 20
-1.878017344407109
 10
80.96739047292041
 20
-1.895244812052985
 10
80.96892879022624
 20
-1.908194633862668
 10
80.97027096925001
 20
-1.92116632660861
 10
80.97141610078891
 20
-1.934156921532629
 10
80.97236327634723
 20
-1.947163449433409
 10
80.97311163321334
 20
-1.960182934511168
 10
80.97366068206371
 20
-1.973212347152449
 10
80.97401011568612
 20
-1.986248631497438
 10
80.97415962809581
 20
-1.999288731509478
 10
80.97410895694672
 20
-2.012329590619715
 10
80.97385821584749
 20
-2.025368147674369
 10
80.9734077103573
 20
-2.038401339178768
 10
80.9727577475734
 20
-2.051426101619498
 10
80.97190867426432
 20
-2.064439379250007
 10
80.97086119851152
 20
-2.077438187062025
 10
80.96961622145331
 20
-2.090419577844158
 10
80.96817464604502
 20
-2.103380604740809
 10
80.96594838807261
 20
-2.120625244399299
 10
80.9633773678461
 20
-2.137821860917799
 10
80.96046500085861
 20
-2.154963983278078
 10
80.9572147784282
 20
-2.172045190075468
 10
80.95363084679553
 20
-2.189059493404708
 10
80.94971769558872
 20
-2.206001132651858
 10
80.94547986087304
 20
-2.222864393399039
 10
80.94092235939321
 20
-2.239644050573404
 10
80.93605050700039
 20
-2.256335183600707
 10
80.93086964274672
 20
-2.272932906577634
 10
80.92538540408581
 20
-2.289432813857964
 10
80.91960366818131
 20
-2.305830885591888
 10
80.91353032353252
 20
-2.322123126329519
 10
80.90717139543043
 20
-2.338305945310345
 10
80.90053306640111
 20
-2.354376216943558
 10
80.89362152788067
 20
-2.37033084387623
 10
80.88644299653211
 20
-2.386167006406789
 10
80.87900373647331
 20
-2.401882407131398
 10
80.87131001706522
 20
-2.417474806357458
 10
80.86336808775602
 20
-2.432942102340799
 10
80.85518412345882
 20
-2.448282709686818
 10
80.84676428165051
 20
-2.463495163789576
 10
80.83591711772111
 20
-2.482328387013548
 10
80.82472265019552
 20
-2.500957239528089
 10
80.81319240286372
 20
-2.519380164194378
 10
80.80133774932559
 20
-2.537595835743806
 10
80.78916959914982
 20
-2.555603642286647
 10
80.7766987668298
 20
-2.573403115527268
 10
80.76393575979322
 20
-2.590994106469634
 10
80.75089061121408
 20
-2.608376959266069
 10
80.73487801942468
 20
-2.628962225809328
 10
80.71848985866031
 20
-2.649249693274615
 10
80.70174187594391
 20
-2.669241152156098
 10
80.68464935463628
 20
-2.688938642003626
 10
80.66722660295694
 20
-2.708344719162917
 10
80.64650140276322
 20
-2.730620404585097
 10
80.62536663258251
 20
-2.752507893285747
 10
80.60384231140458
 20
-2.774012268280278
 10
80.5819471783367
 20
-2.795138925610198
 10
80.55969906706691
 20
-2.815893479141156
 10
80.53711486271362
 20
-2.836281674580548
 10
80.51421037218052
 20
-2.856309405201487
 10
80.48766107542553
 20
-2.878764458074517
 10
80.46073419566459
 20
-2.900765363082586
 10
80.43344974293781
 20
-2.922321029116048
 10
80.40582608042042
 20
-2.943440300851126
 10
80.37788081964459
 20
-2.964131956341157
 10
80.3496300782074
 20
-2.984404602772068
 10
80.3210893716229
 20
-3.004266756093956
 10
80.29227288174864
 20
-3.023726686881247
 10
80.25954165276242
 20
-3.045148481684126
 10
80.22649646644982
 20
-3.066082754931537
 10
80.19315426534381
 20
-3.086540488582618
 10
80.1595305606601
 20
-3.106532219745806
 10
80.12564014786159
 20
-3.126068249428436
 10
80.09149657756342
 20
-3.145158418419768
 10
80.05327808392072
 20
-3.165858467405676
 10
80.01477930139063
 20
-3.186032473300207
 10
79.97601566014731
 20
-3.205692602363828
 10
79.93700128973468
 20
-3.224850394593917
 10
79.89774962601602
 20
-3.243517035568236
 10
79.85431342450941
 20
-3.263495696647248
 10
79.8106205482172
 20
-3.282906478722706
 10
79.76668531426162
 20
-3.301762262296667
 10
79.72252115107242
 20
-3.320075365542277
 10
79.67409565248191
 20
-3.339448137777646
 10
79.62542768239242
 20
-3.358203455721607
 10
79.57653139259
 20
-3.376355084404587
 10
79.52741983630922
 20
-3.393915969226318
 10
79.47810533166161
 20
-3.410898483856156
 10
79.42446549670052
 20
-3.428657039365087
 10
79.3706144889952
 20
-3.445764533105998
 10
79.31656504536022
 20
-3.462234255019136
 10
79.262328993081
 20
-3.478078666337408
 10
79.20372503590943
 20
-3.494456128065537
 10
79.14493058760412
 20
-3.510135946464226
 10
79.0859578077022
 20
-3.525131118356596
 10
79.02681814818942
 20
-3.539453891859678
 10
78.96752230917811
 20
-3.553115683286256
 10
78.90382922011072
 20
-3.567032011384037
 10
78.83998017227082
 20
-3.580214223404528
 10
78.77598617564341
 20
-3.592673764841598
 10
78.71185766373952
 20
-3.604421316360477
 10
78.64331677525232
 20
-3.616178428630008
 10
78.57464541427702
 20
-3.627147812337917
 10
78.50585436456872
 20
-3.637339684371856
 10
78.4369538960377
 20
-3.646763420978328
 10
78.36795379203343
 20
-3.655427541953828
 10
78.2988634365359
 20
-3.663339807564968
 10
78.22536613202041
 20
-3.670930629382038
 10
78.15178752999472
 20
-3.677688104769468
 10
78.07813767923692
 20
-3.683618854148916
 10
78.00442632580561
 20
-3.688728659617638
 10
77.93066294696631
 20
-3.693022457740299
 10
77.85685677224922
 20
-3.696504353189216
 10
77.78301690907591
 20
-3.699177674591318
 10
77.70915230603242
 20
-3.701044978317486
 10
77.63527151704352
 20
-3.702108020111647
 10
77.57443303060002
 20
-3.702380301692687
  0
LWPOLYLINE
  5
3FA
330
1E
100
AcDbEntity
  8
1
100
AcDbPolyline
 90
      133
 70
     0
 43
0.0
 10
75.45569801940001
 20
-3.268264015100017
 10
75.50137340668211
 20
-3.287337487127826
 10
75.54729325438909
 20
-3.305823808668868
 10
75.59344315071061
 20
-3.323734547190787
 10
75.64561881966371
 20
-3.343210529303218
 10
75.6980476336617
 20
-3.361988900980587
 10
75.75071440777332
 20
-3.380084364979877
 10
75.8036056901723
 20
-3.397511049932368
 10
75.85670803226552
 20
-3.414283083398236
 10
75.91000832273248
 20
-3.430414183809348
 10
75.96944917245572
 20
-3.447600067137766
 10
76.02910539237161
 20
-3.464024168238259
 10
76.08896206462851
 20
-3.479701585184606
 10
76.14900518968041
 20
-3.494646545119388
 10
76.20922289938132
 20
-3.508871253741636
 10
76.2696036272192
 20
-3.522387630677366
 10
76.33013583864192
 20
-3.535207554638716
 10
76.39688366057353
 20
-3.548517718684959
 10
76.46378940472711
 20
-3.561010319190486
 10
76.53084056313841
 20
-3.572697525237776
 10
76.59802491268698
 20
-3.583591078894368
 10
76.66533160957361
 20
-3.593700654459996
 10
76.73275022693612
 20
-3.603035301195877
 10
76.80027035366492
 20
-3.611604037944128
 10
76.8678821688089
 20
-3.619414742463477
 10
76.94173443269372
 20
-3.627078514377068
 10
77.01567332066971
 20
-3.633856006656396
 10
77.08968732739331
 20
-3.639754874357866
 10
77.16376571446762
 20
-3.644780653276426
 10
77.23789792798561
 20
-3.648938369417707
 10
77.31207344958161
 20
-3.652232875193678
 10
77.38628212037302
 20
-3.654667267212207
 10
77.4605139902178
 20
-3.656243622540748
 10
77.53475911253222
 20
-3.656963978493799
 10
77.60900758285751
 20
-3.656829211436626
 10
77.68324955374172
 20
-3.655838626655047
 10
77.75747518176811
 20
-3.653991417751698
 10
77.83167454763919
 20
-3.651286202154969
 10
77.90583747816602
 20
-3.647719669451888
 10
77.97995374712012
 20
-3.643288106491997
 10
78.05401306644981
 20
-3.637987589119418
 10
78.12800460004021
 20
-3.631812322612606
 10
78.2019172252986
 20
-3.624755534486816
 10
78.2695916317543
 20
-3.617506599666278
 10
78.33718129963542
 20
-3.609504880650876
 10
78.40467652745771
 20
-3.600742654022587
 10
78.4720675725017
 20
-3.591212105311758
 10
78.53934451090442
 20
-3.580905116495026
 10
78.6064962855677
 20
-3.569811670519146
 10
78.67351140205281
 20
-3.557921017452278
 10
78.74037834582002
 20
-3.545222380076026
 10
78.80708462201342
 20
-3.531703665577607
 10
78.86757555529541
 20
-3.518690502264635
 10
78.92791165181761
 20
-3.504977369735127
 10
78.98808220052382
 20
-3.490553441921997
 10
79.04807488108629
 20
-3.475406080329936
 10
79.10787646439281
 20
-3.459521622952856
 10
79.16747371105059
 20
-3.442886396209488
 10
79.22685269173442
 20
-3.425486069785788
 10
79.28009356893252
 20
-3.409157796222618
 10
79.33313189505911
 20
-3.392183626970076
 10
79.38595524501963
 20
-3.374550954225138
 10
79.43855020255542
 20
-3.356246369665508
 10
79.49090083841209
 20
-3.337254435333218
 10
79.54299083105141
 20
-3.317559396439996
 10
79.58906103532611
 20
-3.299449694654188
 10
79.63489983396559
 20
-3.280760194925846
 10
79.68049222851971
 20
-3.261477450404678
 10
79.72582289269381
 20
-3.241587793369656
 10
79.77087650019311
 20
-3.221077556099727
 10
79.81563680213371
 20
-3.199932570304638
 10
79.86008391173371
 20
-3.178136693879368
 10
79.89870187858532
 20
-3.158518296043089
 10
79.93705022210931
 20
-3.138377689013648
 10
79.9751147514457
 20
-3.117703623474198
 10
80.01287829559961
 20
-3.096483630997837
 10
80.05032182148921
 20
-3.074704481417588
 10
80.08742626760989
 20
-3.052352932939196
 10
80.12417255121459
 20
-3.029415738160718
 10
80.16053928417219
 20
-3.005879041098058
 10
80.19138919291419
 20
-2.985216207424206
 10
80.22192483927502
 20
-2.964092373938989
 10
80.25212971782641
 20
-2.942498013418946
 10
80.28198715463311
 20
-2.920423581736888
 10
80.31147736870209
 20
-2.897859223082748
 10
80.34057784710212
 20
-2.8747948075935
 10
80.369265983808
 20
-2.851220196067398
 10
80.39751917279431
 20
-2.827125249302739
 10
80.42531396646312
 20
-2.802499913175868
 10
80.45262180463621
 20
-2.777334650414924
 10
80.4794122069595
 20
-2.751620117866556
 10
80.50132028618419
 20
-2.729765019282055
 10
80.52283022400761
 20
-2.707516588784654
 10
80.54392323270411
 20
-2.684869853216019
 10
80.56457697656892
 20
-2.661821180946028
 10
80.58476843541134
 20
-2.638367199155856
 10
80.60447458904102
 20
-2.614504535026648
 10
80.61987462262342
 20
-2.595117885904917
 10
80.63493735125431
 20
-2.575465959919056
 10
80.64964913747571
 20
-2.555548637847417
 10
80.66399548702873
 20
-2.535366544583068
 10
80.67796189852272
 20
-2.514920311212498
 10
80.69153387056742
 20
-2.494210568822246
 10
80.70469690177253
 20
-2.473237948498836
 10
80.71743639838201
 20
-2.452003300096789
 10
80.7297367823206
 20
-2.430509804835095
 10
80.74158188050491
 20
-2.408762053211439
 10
80.75295551158761
 20
-2.386764655296377
 10
80.76384149422159
 20
-2.364522221160519
 10
80.77167622781091
 20
-2.347682363784308
 10
80.7792207387745
 20
-2.330709265848279
 10
80.78646838198251
 20
-2.313606081562238
 10
80.79341267810702
 20
-2.296377070628397
 10
80.80004715447229
 20
-2.279026537105647
 10
80.80636533840301
 20
-2.261558785052836
 10
80.81236075722351
 20
-2.243978118528845
 10
80.81802693825832
 20
-2.226288841592548
 10
80.82335740886554
 20
-2.208495258337929
 10
80.82834606201663
 20
-2.190602056398649
 10
80.83298806048532
 20
-2.172615255468168
 10
80.83727884253342
 20
-2.154541164235408
 10
80.84121384642282
 20
-2.136386091389268
 10
80.84478851041531
 20
-2.118156345618678
 10
80.84799827277292
 20
-2.099858235612545
 10
80.85083857175742
 20
-2.081498070059776
 10
80.85330507942343
 20
-2.063082350748188
 10
80.8553955341606
 20
-2.044619286135707
 10
80.85710875179161
 20
-2.026117974575738
 10
80.85844355745361
 20
-2.007587522115219
 10
80.8593987762841
 20
-1.989037034801128
 10
80.8599732334204
 20
-1.970475618680428
 10
80.86016575400002
 20
-1.951912379800059
 10
80.86016575331901
 20
-1.95192237980108
  0
LWPOLYLINE
  5
481
330
1E
100
AcDbEntity
  8
1
100
AcDbPolyline
 90
       44
 70
     0
 43
0.0
 10
75.81146680070002
 20
0.9469349432999552
 10
75.79897520446003
 20
0.9656217181166676
 10
75.78672626232101
 20
0.9844717738631095
 10
75.77471981233809
 20
1.003479900925229
 10
75.76295569256672
 20
1.02264088968897
 10
75.75143374106223
 20
1.041949530540289
 10
75.74015379587979
 20
1.061400613865129
 10
75.72911568627631
 20
1.080988936514859
 10
75.71831869908061
 20
1.100709693929988
 10
75.70776127190661
 20
1.12055870557461
 10
75.6974417683207
 20
1.140531845324749
 10
75.68686056425211
 20
1.161632720182699
 10
75.67653797239491
 20
1.182861120721049
 10
75.66647209837281
 20
1.20421227043555
 10
75.65666099399121
 20
1.225681433536448
 10
75.64710235960122
 20
1.24726414011633
 10
75.63779375448252
 20
1.26895602699104
 10
75.62830739464681
 20
1.291793209778217
 10
75.6190899575336
 20
1.314740413936039
 10
75.6101386364443
 20
1.337792623146319
 10
75.60145060947468
 20
1.360944853545247
 10
75.5926458702597
 20
1.385251541122688
 10
75.5841218629931
 20
1.409657972335589
 10
75.5758748803826
 20
1.434159482867029
 10
75.56790121513592
 20
1.45875140840012
 10
75.55986825967494
 20
1.484503900185979
 10
75.55212465472981
 20
1.510344503283
 10
75.54466616764251
 20
1.536268530021599
 10
75.5371955171304
 20
1.563356827829065
 10
75.5300248313777
 20
1.590526190442258
 10
75.52314931025431
 20
1.617771798730109
 10
75.51630671905342
 20
1.646182932465109
 10
75.50977281796861
 20
1.674666042050649
 10
75.50330880506111
 20
1.704316168968709
 10
75.49716642185408
 20
1.734034742282129
 10
75.4911301745428
 20
1.764921519507879
 10
75.4854273515312
 20
1.795872114144119
 10
75.47986558604113
 20
1.827990048225568
 10
75.47464794708901
 20
1.860165783111159
 10
75.46960595739292
 20
1.893506625503296
 10
75.46491887517898
 20
1.926898679996918
 10
75.46044122406012
 20
1.961451879195859
 10
75.45632785381681
 20
1.996048060022168
 10
75.45569913207121
 20
2.001621775394466
  0
LWPOLYLINE
  5
4AF
330
1E
100
AcDbEntity
  8
1
100
AcDbPolyline
 90
       12
 70
     0
 43
0.0
 10
79.62323342090001
 20
-5.935397834100004
 10
79.81563819533842
 20
-6.207321595430169
 10
79.95052074257009
 20
-6.403063320361589
 10
80.05510102396931
 20
-6.5588942173269
 10
80.13894846971272
 20
-6.687188976695829
 10
80.20948358490683
 20
-6.798017473068115
 10
80.26879494575153
 20
-6.893734216288367
 10
80.32129876242112
 20
-6.980783402783397
 10
80.36642448962712
 20
-7.057665314392655
 10
80.40675331419299
 20
-7.128286718529628
 10
80.44244677519081
 20
-7.192542911753099
 10
80.47219989480273
 20
-7.247558901872485
  0
LWPOLYLINE
  5
4BD
330
1E
100
AcDbEntity
  8
1
100
AcDbPolyline
 90
       39
 70
     0
 43
0.0
 10
76.76586893229998
 20
-11.98982540800001
 10
76.7300859779992
 20
-11.98096760797641
 10
76.69439981198351
 20
-11.97171628036848
 10
76.65881564571622
 20
-11.96207240177739
 10
76.62333869066042
 20
-11.9520369488043
 10
76.58797415827942
 20
-11.94161089805007
 10
76.5527272535696
 20
-11.93079522603498
 10
76.51760281144031
 20
-11.91959090464407
 10
76.48260510323841
 20
-11.90799889870451
 10
76.44773835299061
 20
-11.8960201724508
 10
76.41300678472379
 20
-11.8836556901175
 10
76.37841462246493
 20
-11.87090641593919
 10
76.34259121302132
 20
-11.8572400401929
 10
76.30692812000811
 20
-11.84315985760709
 10
76.27143040310601
 20
-11.8286673209567
 10
76.23610312356291
 20
-11.81376388488826
 10
76.20095134262671
 20
-11.7984510040486
 10
76.16598012131269
 20
-11.78273013365789
 10
76.13119448488162
 20
-11.76660281724681
 10
76.09659938460511
 20
-11.75007078108718
 10
76.06219976258393
 20
-11.73313577410358
 10
76.02800056091812
 20
-11.71579954522049
 10
75.99270343458981
 20
-11.69737374707467
 10
75.957633308963
 20
-11.67851915378011
 10
75.92279574280711
 20
-11.6592380616483
 10
75.8881963048305
 20
-11.63953290561731
 10
75.85384056379601
 20
-11.6194061213859
 10
75.81973408846652
 20
-11.5988601446528
 10
75.78588243944861
 20
-11.57789741487481
 10
75.75105191259281
 20
-11.5557208043249
 10
75.71650694792122
 20
-11.5331016520047
 10
75.68225328082981
 20
-11.51004289339699
 10
75.64829664671441
 20
-11.48654746398481
 10
75.61464278664622
 20
-11.46261830783201
 10
75.58011271719762
 20
-11.4373810496736
 10
75.54592144199453
 20
-11.4116871832585
 10
75.51207646914531
 20
-11.38554168752768
 10
75.47858530675831
 20
-11.3589495414219
 10
75.45570575124092
 20
-11.34035883671669
  0
LWPOLYLINE
  5
4E6
330
1E
100
AcDbEntity
  8
1
100
AcDbPolyline
 90
       28
 70
     0
 43
0.0
 10
80.47027529180004
 20
3.621798967999968
 10
80.50984352150232
 20
3.762155863682038
 10
80.54674979597152
 20
3.898594931703068
 10
80.58108306391122
 20
4.031074639263628
 10
80.61293221062753
 20
4.159555117342217
 10
80.64238809563509
 20
4.283998493559968
 10
80.66953865751491
 20
4.404368966511806
 10
80.69447449632084
 20
4.520632515878228
 10
80.71728199815911
 20
4.632756691331058
 10
80.737636921921
 20
4.738505322376768
 10
80.75608274515472
 20
4.840046163997188
 10
80.77270386531981
 20
4.937352397666597
 10
80.78724104751669
 20
5.028181490930228
 10
80.8001640150926
 20
5.114719790166255
 10
80.81155642308411
 20
5.196945392210916
 10
80.821223863077
 20
5.272610569242478
 10
80.8295708921757
 20
5.343917171364347
 10
80.83645280149442
 20
5.408614964935667
 10
80.8422291815787
 20
5.46891485673149
 10
80.84698925964202
 20
5.52480154655307
 10
80.85082258761531
 20
5.57626059703591
 10
80.85395866739892
 20
5.625519161954207
 10
80.85631620222782
 20
5.670328442998449
 10
80.85799938020384
 20
5.710677954784717
 10
80.85917576988341
 20
5.748801751766047
 10
80.85988128125782
 20
5.784692573036927
 10
80.86015798030343
 20
5.818344350589937
 10
80.86016608779962
 20
5.825064835000017
  0
LWPOLYLINE
  5
504
330
1E
100
AcDbEntity
  8
1
100
AcDbPolyline
 90
      131
 70
     0
 43
0.0
 10
74.89881948490001
 20
-3.417048561500029
 10
74.89840603901702
 20
-3.414985228215287
 10
74.8980218751252
 20
-3.412915525424168
 10
74.89766727343782
 20
-3.410839959939186
 10
74.89734251416813
 20
-3.408759038572818
 10
74.89704787752922
 20
-3.406673268137557
 10
74.89678364373431
 20
-3.404583155445898
 10
74.8965500929965
 20
-3.402489207310325
 10
74.89634750552912
 20
-3.400391930543348
 10
74.89617616154531
 20
-3.398291831957439
 10
74.89605744360201
 20
-3.396539959886575
 10
74.89596077927521
 20
-3.394786773466627
 10
74.89588633011691
 20
-3.393032565955388
 10
74.89583421775442
 20
-3.391277628218047
 10
74.89580449988221
 20
-3.389522247288379
 10
74.89579722844801
 20
-3.387766709855806
 10
74.8958124553998
 20
-3.386011302609718
 10
74.89585023268559
 20
-3.384256312239529
 10
74.89591061225332
 20
-3.382502025434638
 10
74.89599364605073
 20
-3.380748728884448
 10
74.89609938602581
 20
-3.378996709278379
 10
74.89622788412642
 20
-3.377246253305818
 10
74.8963791923006
 20
-3.375497647656186
 10
74.89655336249622
 20
-3.373751179018877
 10
74.89675044666111
 20
-3.372007134083306
 10
74.89697049569581
 20
-3.370265799683048
 10
74.89721351228751
 20
-3.368527469286767
 10
74.89747943177892
 20
-3.366792445631228
 10
74.89776818450422
 20
-3.365061032142437
 10
74.89807970079779
 20
-3.363333532246397
 10
74.89841391099361
 20
-3.361610249369106
 10
74.89877074542611
 20
-3.359891486936568
 10
74.89915013442952
 20
-3.358177548374797
 10
74.89955200833792
 20
-3.356468737109786
 10
74.89997629748561
 20
-3.354765356567558
 10
74.90042293220681
 20
-3.353067710174096
 10
74.9008918428358
 20
-3.351376101355416
 10
74.90138295970684
 20
-3.349690833537517
 10
74.90189620965451
 20
-3.348012208246628
 10
74.90254113592631
 20
-3.346007003726968
 10
74.9032174336477
 20
-3.344012173978468
 10
74.9039247899034
 20
-3.342028138800876
 10
74.90466289177831
 20
-3.340055317994008
 10
74.90543142635731
 20
-3.338094131357618
 10
74.90623008072521
 20
-3.336144998691497
 10
74.90705854196672
 20
-3.334208339795436
 10
74.90791649716669
 20
-3.332284574469198
 10
74.90880363341013
 20
-3.330374122512576
 10
74.90971963778161
 20
-3.328477403725357
 10
74.91066419132462
 20
-3.326594829416336
 10
74.91163691091902
 20
-3.324726720716546
 10
74.91263737475961
 20
-3.322873344387478
 10
74.91366516050792
 20
-3.321034966441258
 10
74.9147198458257
 20
-3.319211852889957
 10
74.91580100837452
 20
-3.317404269745718
 10
74.91690822581593
 20
-3.315612483020609
 10
74.9180410758116
 20
-3.313836758726758
 10
74.91939456739672
 20
-3.311785736400366
 10
74.92078170222892
 20
-3.309757361317029
 10
74.92220180965031
 20
-3.307752055890627
 10
74.92365421384201
 20
-3.305770195166667
 10
74.92513822087271
 20
-3.303811987937256
 10
74.92665313283962
 20
-3.301877606539926
 10
74.9281982518398
 20
-3.299967223312227
 10
74.9297728799702
 20
-3.298081010591685
 10
74.93160769333631
 20
-3.295955156524859
 10
74.93347909592571
 20
-3.293861354444167
 10
74.9353860459707
 20
-3.291799861599828
 10
74.93732750170379
 20
-3.289770935242038
 10
74.93930242425641
 20
-3.287774826015496
 10
74.94130983587361
 20
-3.285811645321408
 10
74.9433488169727
 20
-3.283881372019357
 10
74.94541845028111
 20
-3.281983979704818
 10
74.94751781852652
 20
-3.280119441973227
 10
74.94964600443663
 20
-3.278287732420058
 10
74.95180209073891
 20
-3.276488824640756
 10
74.95398516016102
 20
-3.274722692230787
 10
74.95619429543052
 20
-3.272989308785616
 10
74.95842857927502
 20
-3.271288647900687
 10
74.96068711622591
 20
-3.269620665483337
 10
74.96296914027562
 20
-3.267985212416677
 10
74.96527393301241
 20
-3.266382100972097
 10
74.96789314612242
 20
-3.264617025123758
 10
74.97053924391521
 20
-3.262892376593248
 10
74.9732112036004
 20
-3.261207888002408
 10
74.975908002388
 20
-3.259563291973078
 10
74.97862861748791
 20
-3.257958321127107
 10
74.98137202610981
 20
-3.256392708086336
 10
74.98413720556242
 20
-3.254866185444146
 10
74.9869232012885
 20
-3.253378466163026
 10
74.989729245688
 20
-3.251929209339118
 10
74.99255460294411
 20
-3.250518064911136
 10
74.99539853724002
 20
-3.249144682817826
 10
74.9982603127588
 20
-3.247808712997906
 10
75.0011391936837
 20
-3.246509805390116
 10
75.00403444419792
 20
-3.245247609933167
 10
75.00694532848442
 20
-3.244021776565796
 10
75.00987111072659
 20
-3.242831955226728
 10
75.01313855783753
 20
-3.241551742074316
 10
75.0164225096631
 20
-3.240315077042198
 10
75.01972218777061
 20
-3.239121489146767
 10
75.0230368964235
 20
-3.237970510702727
 10
75.02636594014091
 20
-3.236861674034976
 10
75.02970862344209
 20
-3.235794511468438
 10
75.03306425084592
 20
-3.234768555327997
 10
75.03643212687156
 20
-3.233783337938576
 10
75.03981155603831
 20
-3.232838391625068
 10
75.0432018428651
 20
-3.231933248712388
 10
75.04660229187101
 20
-3.231067441525429
 10
75.05035370077661
 20
-3.230159930481886
 10
75.05411581794172
 20
-3.229298879860948
 10
75.05788804541172
 20
-3.228483763284629
 10
75.06166979146292
 20
-3.227714056201937
 10
75.06546046437161
 20
-3.226989234061929
 10
75.06925947241402
 20
-3.226308772313617
 10
75.07306622386652
 20
-3.225672146406056
 10
75.07688012700531
 20
-3.225078831788267
 10
75.08070059010681
 20
-3.224528303909286
 10
75.08487515433711
 20
-3.223975909763156
 10
75.08905605330482
 20
-3.223473130404908
 10
75.09324255989859
 20
-3.223019332847016
 10
75.09743403213581
 20
-3.222613983549848
 10
75.10162983867381
 20
-3.222256561404436
 10
75.10582934817043
 20
-3.221946545301808
 10
75.11003192928341
 20
-3.221683414132998
 10
75.11423695067022
 20
-3.221466646789028
 10
75.11879441204481
 20
-3.221283531396266
 10
75.12335319370548
 20
-3.221153554979988
 10
75.12791249295594
 20
-3.221076054995978
 10
75.1324715071
 20
-3.221050368900026
 10
75.13246150709743
 20
-3.221050369023108
  0
LWPOLYLINE
  5
589
330
1E
100
AcDbEntity
  8
1
100
AcDbPolyline
 90
        7
 70
     0
 43
0.0
 10
75.05291675010001
 20
-4.260783682800028
 10
75.0326089002965
 20
-4.131991019313766
 10
75.0091362806857
 20
-3.992414041183056
 10
74.98166918594242
 20
-3.838731208890966
 10
74.9491134270511
 20
-3.666797091756818
 10
74.9095751000723
 20
-3.469132339534318
 10
74.89882151911531
 20
-3.417058352412567
  0
LWPOLYLINE
  5
592
330
1E
100
AcDbEntity
  8
1
100
AcDbPolyline
 90
       12
 70
     0
 43
0.0
 10
74.78299702
 20
-5.275033158500049
 10
74.8153535214357
 20
-5.174032041140788
 10
74.84601263875311
 20
-5.074694776834999
 10
74.87501594735011
 20
-4.977049297641197
 10
74.9024065111627
 20
-4.881122185565446
 10
74.92850330715431
 20
-4.785924504137875
 10
74.9530624382395
 20
-4.692488841628226
 10
74.97638522803072
 20
-4.599818665425669
 10
74.99849123587002
 20
-4.507928919611196
 10
75.01940352254809
 20
-4.416837359206346
 10
75.03936528102143
 20
-4.325535003717607
 10
75.05291473802102
 20
-4.260793478285656
  0
LWPOLYLINE
  5
5A0
330
1E
100
AcDbEntity
  8
1
100
AcDbPolyline
 90
      117
 70
     0
 43
0.0
 10
74.19572491210002
 20
-5.450905960100027
 10
74.19570897432681
 20
-5.44918648745195
 10
74.19571777627919
 20
-5.447466383673837
 10
74.19575125182851
 20
-5.44574606089395
 10
74.19580933484593
 20
-5.444025931240505
 10
74.19589195920242
 20
-5.442306406841749
 10
74.19599905876932
 20
-5.440587899825906
 10
74.19613056741771
 20
-5.438870822321224
 10
74.19628641901891
 20
-5.437155586455928
 10
74.19646654744401
 20
-5.435442604358255
 10
74.19667088656409
 20
-5.433732288156456
 10
74.19689937025061
 20
-5.432025049978745
 10
74.19715193237441
 20
-5.430321301953369
 10
74.19742850668061
 20
-5.428621456072129
 10
74.19772899016759
 20
-5.426925884629905
 10
74.19805319230651
 20
-5.425234865365965
 10
74.19840090981606
 20
-5.423548662243174
 10
74.19877193941501
 20
-5.421867539224384
 10
74.19916607782181
 20
-5.420191760272468
 10
74.1995831217552
 20
-5.418521589350278
 10
74.20002286793368
 20
-5.416857290420669
 10
74.20048511307619
 20
-5.415199127446516
 10
74.20096965390121
 20
-5.413547364390677
 10
74.20147628712742
 20
-5.411902265216013
 10
74.20200480947342
 20
-5.410264093885387
 10
74.202555017658
 20
-5.408633114361657
 10
74.20324360620042
 20
-5.406685803289716
 10
74.2039627404767
 20
-5.404749634082119
 10
74.20471196309652
 20
-5.402824921183698
 10
74.20549080925913
 20
-5.400911969145543
 10
74.20629881416352
 20
-5.399011082518748
 10
74.20713551300922
 20
-5.397122565854396
 10
74.20800044099533
 20
-5.395246723703579
 10
74.20889313332111
 20
-5.393383860617387
 10
74.20981312518572
 20
-5.391534281146896
 10
74.21075995178843
 20
-5.389698289843209
 10
74.21173314832842
 20
-5.387876191257403
 10
74.21273225000492
 20
-5.386068289940578
 10
74.21375679249192
 20
-5.384274871341784
 10
74.21498363095992
 20
-5.382201073953795
 10
74.21624373832421
 20
-5.380147410075378
 10
74.217536383711
 20
-5.378114073050856
 10
74.21886083624702
 20
-5.376101256224567
 10
74.22021636505859
 20
-5.374109152940865
 10
74.22160223927209
 20
-5.372137956544078
 10
74.22301772801411
 20
-5.370187860378528
 10
74.22446210041101
 20
-5.368259057788566
 10
74.2261472418987
 20
-5.366081033759386
 10
74.22786806622241
 20
-5.363931358501776
 10
74.22962356586261
 20
-5.361810191752296
 10
74.23141282348172
 20
-5.359717554004769
 10
74.23323492650013
 20
-5.357653458405978
 10
74.23508896233831
 20
-5.355617918102717
 10
74.2372117860866
 20
-5.353362084132516
 10
74.23937257047019
 20
-5.351142425815877
 10
74.24157001613291
 20
-5.348958961871566
 10
74.24380282371831
 20
-5.346811711018355
 10
74.24606969387811
 20
-5.344700691969959
 10
74.24836938967691
 20
-5.342625884062647
 10
74.25070088717252
 20
-5.340587132251718
 10
74.2530632078186
 20
-5.338584252851386
 10
74.25545537306881
 20
-5.336617062175815
 10
74.25787640437701
 20
-5.334685376539199
 10
74.2603253231968
 20
-5.332789012255726
 10
74.26280115098194
 20
-5.330927785639588
 10
74.26530290918609
 20
-5.329101513004967
 10
74.26811186255972
 20
-5.327113093186127
 10
74.27095028268851
 20
-5.325167346764579
 10
74.27381699497232
 20
-5.323263985618535
 10
74.27671103525302
 20
-5.321402676263295
 10
74.27963145325191
 20
-5.319583082222329
 10
74.2825772986902
 20
-5.317804867019098
 10
74.285547621289
 20
-5.316067694177085
 10
74.2885414707696
 20
-5.314371227219776
 10
74.29155789685322
 20
-5.312715129670636
 10
74.29459594926091
 20
-5.311099065053136
 10
74.29765467771403
 20
-5.309522696890756
 10
74.3007331512065
 20
-5.307985689914818
 10
74.30383061644359
 20
-5.306487719993968
 10
74.30694641603722
 20
-5.305028469007416
 10
74.31007989353282
 20
-5.303607618892876
 10
74.3135463532765
 20
-5.302088657166756
 10
74.31703253523131
 20
-5.300615352299566
 10
74.32053756565621
 20
-5.299187280950407
 10
74.3240605708107
 20
-5.297804019778409
 10
74.32760067695383
 20
-5.296465145442676
 10
74.33115701034502
 20
-5.295170234602346
 10
74.33472873245661
 20
-5.293918875136728
 10
74.3383151728311
 20
-5.292710708478468
 10
74.34191571109852
 20
-5.291545392019926
 10
74.3455297268975
 20
-5.290422583156199
 10
74.3491565998667
 20
-5.289341939282365
 10
74.35279570964461
 20
-5.288303117793526
 10
74.35677887465442
 20
-5.287217153664719
 10
74.36077505879881
 20
-5.286180109107949
 10
74.36478345667993
 20
-5.285191539328856
 10
74.36880326315559
 20
-5.284250999665175
 10
74.37283373994613
 20
-5.283358080019469
 10
74.3768743047321
 20
-5.282512450918226
 10
74.38092439738911
 20
-5.281713794361646
 10
74.38498345779263
 20
-5.280961792349968
 10
74.38905092581821
 20
-5.280256126883378
 10
74.39312624134132
 20
-5.279596479962096
 10
74.39720884423761
 20
-5.278982533586336
 10
74.40129817438242
 20
-5.278413969756306
 10
74.40573522390981
 20
-5.277848869727248
 10
74.41017879914081
 20
-5.277336254598806
 10
74.41462819098902
 20
-5.276875782079899
 10
74.41908269514701
 20
-5.276467206656976
 10
74.42354160773092
 20
-5.276110291396006
 10
74.42800422485682
 20
-5.275804799362978
 10
74.43246984264092
 20
-5.275550493623856
 10
74.43693775719942
 20
-5.275347137244619
 10
74.44140726464851
 20
-5.275194493291238
 10
74.44587766110429
 20
-5.275092324829686
 10
74.45034824268292
 20
-5.275040394925945
 10
74.45274530889772
 20
-5.275033158624847
  0
LWPOLYLINE
  5
617
330
1E
100
AcDbEntity
  8
1
100
AcDbPolyline
 90
        2
 70
     0
 43
0.0
 10
74.57442303060002
 20
-11.24919914410001
 10
73.0560823996
 20
-11.24999999439031
  0
LWPOLYLINE
  5
61B
330
1E
100
AcDbEntity
  8
1
100
AcDbPolyline
 90
       12
 70
     0
 43
0.0
 10
75.45569801940001
 20
2.001631713299977
 10
75.45204769179581
 20
2.03583465973803
 10
75.44866713508881
 20
2.070920133069678
 10
75.44553734510373
 20
2.107308752099628
 10
75.44271542415362
 20
2.144574435340109
 10
75.44019008368052
 20
2.183137292530068
 10
75.43803465310552
 20
2.222147330538638
 10
75.43623751564891
 20
2.262025701680479
 10
75.43481654851763
 20
2.30276943373677
 10
75.43379887449581
 20
2.343950234049787
 10
75.43318769217951
 20
2.38598804969727
 10
75.43300167044012
 20
2.42547067269989
  0
LWPOLYLINE
  5
629
330
1E
100
AcDbEntity
  8
1
100
AcDbPolyline
 90
       38
 70
     0
 43
0.0
 10
75.20061098780002
 20
-3.221050368900026
 10
75.20870430818979
 20
-3.221092425512507
 10
75.21679713356533
 20
-3.221218690726046
 10
75.22488842311702
 20
-3.221429307604767
 10
75.23297713603594
 20
-3.221724419212808
 10
75.24106224074092
 20
-3.222104186996766
 10
75.24914279428532
 20
-3.222568948960946
 10
75.25721790314111
 20
-3.223119141551018
 10
75.26528667431631
 20
-3.223755202280098
 10
75.27308828477292
 20
-3.224452919182028
 10
75.28088223823442
 20
-3.225231997404998
 10
75.28866756951841
 20
-3.226093115464558
 10
75.29644330887261
 20
-3.227036960145138
 10
75.30420848651842
 20
-3.228064218281336
 10
75.31170383940642
 20
-3.229137235063176
 10
75.31918736975909
 20
-3.230289786350818
 10
75.32665804613952
 20
-3.231522789834598
 10
75.33385794878519
 20
-3.232790475424176
 10
75.3410439690889
 20
-3.234134855594698
 10
75.34821504304024
 20
-3.235556948138396
 10
75.3551147737583
 20
-3.237002919635918
 10
75.36199850042542
 20
-3.238523240983997
 10
75.36886518822861
 20
-3.240118938997436
 10
75.37546042533282
 20
-3.241727796624649
 10
75.38203766702142
 20
-3.243408738230716
 10
75.38834383495881
 20
-3.245094138355518
 10
75.39463115917141
 20
-3.246848388420128
 10
75.40089855713261
 20
-3.248672570414357
 10
75.40689541792892
 20
-3.250490693901626
 10
75.41287162888882
 20
-3.252375634973618
 10
75.41857833156568
 20
-3.254245917887358
 10
75.42426388791422
 20
-3.256179862821507
 10
75.42992722764781
 20
-3.258178594649138
 10
75.43532236386131
 20
-3.260152157695586
 10
75.44069454558052
 20
-3.262187273425305
 10
75.44579976188652
 20
-3.264188393398668
 10
75.4508814224588
 20
-3.266247710468788
 10
75.45568881698251
 20
-3.268260101594408
  0
LWPOLYLINE
  5
651
330
1E
100
AcDbEntity
  8
1
100
AcDbPolyline
 90
       60
 70
     0
 43
0.0
 10
75.45569801940001
 20
-11.34035249489999
 10
75.45140262550451
 20
-11.33687861667706
 10
75.44705914656862
 20
-11.3334638493055
 10
75.44266858318382
 20
-11.33010892733331
 10
75.43823193594151
 20
-11.32681458530891
 10
75.43397534723981
 20
-11.32374174159828
 10
75.4296789287727
 20
-11.32072486400389
 10
75.42534353101581
 20
-11.31776457074989
 10
75.4209699306881
 20
-11.31486136495049
 10
75.41655886219631
 20
-11.31201568368489
 10
75.41211105944519
 20
-11.3092279632486
 10
75.40762725633931
 20
-11.30649863993701
 10
75.40334689989172
 20
-11.30396722832351
 10
75.39903551558701
 20
-11.30148899107739
 10
75.3946937414847
 20
-11.29906429381039
 10
75.39032225804742
 20
-11.29669348595758
 10
75.38592175371502
 20
-11.29437691391059
 10
75.3814929169276
 20
-11.29211492406118
 10
75.37703643612521
 20
-11.28990786280101
 10
75.37255299974771
 20
-11.2877560765216
 10
75.36804329625422
 20
-11.28565991153527
 10
75.36376063731811
 20
-11.2837315685571
 10
75.35945575857645
 20
-11.28185337311431
 10
75.35512925309301
 20
-11.28002556215599
 10
75.35078171393212
 20
-11.2782483726315
 10
75.3464137341578
 20
-11.27652204148991
 10
75.34202590683401
 20
-11.2748468056804
 10
75.33761882502502
 20
-11.27322290215239
 10
75.33319308361068
 20
-11.27165056250091
 10
75.32874928816422
 20
-11.27012998679449
 10
75.32428804815992
 20
-11.268661363601
 10
75.31980997307723
 20
-11.2672448814715
 10
75.31531567239591
 20
-11.26588072895681
 10
75.31080575559592
 20
-11.2645690946082
 10
75.30628083215681
 20
-11.26331016697649
 10
75.30174151207372
 20
-11.2621041334602
 10
75.29718841673481
 20
-11.26095115598249
 10
75.29289113338451
 20
-11.25991458984481
 10
75.2885827357687
 20
-11.25892525616239
 10
75.2842637516204
 20
-11.2579832682915
 10
75.27993470867269
 20
-11.25708873958829
 10
75.27559613465851
 20
-11.256241783409
 10
75.27124855731102
 20
-11.25544251310981
 10
75.26689250260068
 20
-11.25469103896976
 10
75.26252848090601
 20
-11.2539874440424
 10
75.25815699446731
 20
-11.25333179717241
 10
75.25377854545472
 20
-11.2527241670812
 10
75.24939363603822
 20
-11.2521646224904
 10
75.24500276838772
 20
-11.25165323212141
 10
75.24060644467351
 20
-11.25119006469569
 10
75.23620516706532
 20
-11.250775188935
 10
75.23179945099702
 20
-11.2504086688172
 10
75.22738989457881
 20
-11.25009053875441
 10
75.22297712772091
 20
-11.2498208217864
 10
75.2185617804
 20
-11.2495995409291
 10
75.21414448259261
 20
-11.24942671919868
 10
75.2097258642755
 20
-11.24930237961101
 10
75.205306555425
 20
-11.2492265451823
 10
75.20088718601802
 20
-11.24919923892841
 10
75.2006209878015
 20
-11.24919914422431
  0
LWPOLYLINE
  5
68F
330
1E
100
AcDbEntity
  8
1
100
AcDbPolyline
 90
       66
 70
     0
 43
0.0
 10
65.63598177540001
 20
-5.626127956200045
 10
65.64078072894111
 20
-5.621166301970005
 10
65.6460048208138
 20
-5.615929169166933
 10
65.65131171216582
 20
-5.610774099213536
 10
65.65669894854092
 20
-5.605701520800606
 10
65.66216407548312
 20
-5.600711862618934
 10
65.66770463853622
 20
-5.595805553359334
 10
65.67331818324412
 20
-5.590983021712608
 10
65.67900226995689
 20
-5.586244683986052
 10
65.6847547728445
 20
-5.581590694016196
 10
65.69057386573222
 20
-5.577020955015448
 10
65.69645773441681
 20
-5.572535360183675
 10
65.70240456469512
 20
-5.568133802720748
 10
65.70841254236381
 20
-5.563816175826516
 10
65.71447985321971
 20
-5.559582372700845
 10
65.72060468305962
 20
-5.555432286543616
 10
65.72678524815211
 20
-5.551365805766407
 10
65.73301992529389
 20
-5.547382793555978
 10
65.73930714395392
 20
-5.543483104822295
 10
65.74564533363191
 20
-5.539666594470487
 10
65.75203292382791
 20
-5.535933117405653
 10
65.75846834404181
 20
-5.532282528532928
 10
65.76495002377341
 20
-5.528714682757414
 10
65.7714763925227
 20
-5.525229434984238
 10
65.77804591672222
 20
-5.521826632487838
 10
65.78465724971652
 20
-5.518506083924714
 10
65.7913091038401
 20
-5.515267585763448
 10
65.79800019145022
 20
-5.512110934467949
 10
65.80472922490391
 20
-5.509035926502115
 10
65.81149491655832
 20
-5.506042358329866
 10
65.81829597877042
 20
-5.503130026415116
 10
65.8251311238974
 20
-5.500298727221784
 10
65.8319990723665
 20
-5.497548257764448
 10
65.83889865722801
 20
-5.494878422742836
 10
65.84582879425102
 20
-5.492289032501196
 10
65.85278840111502
 20
-5.489779897514146
 10
65.8597763954992
 20
-5.487350828256268
 10
65.86679169508311
 20
-5.485001635202175
 10
65.87383321754602
 20
-5.482732128826485
 10
65.88089988056741
 20
-5.480542119603764
 10
65.88846414554801
 20
-5.478293519774726
 10
65.89605450958472
 20
-5.476134935298458
 10
65.90366980255182
 20
-5.474066175608285
 10
65.91130887117341
 20
-5.472087054772265
 10
65.9189705621734
 20
-5.470197386858463
 10
65.9266537222761
 20
-5.468396985934948
 10
65.9343571982053
 20
-5.466685666069768
 10
65.94207983668522
 20
-5.465063241330986
 10
65.94982048443992
 20
-5.463529525786666
 10
65.95757801026511
 20
-5.462084341334136
 10
65.96535139874291
 20
-5.460727550942256
 10
65.97313967229242
 20
-5.459459031001503
 10
65.98094185335451
 20
-5.458278657909926
 10
65.98875696436961
 20
-5.457186308065544
 10
65.99658402777841
 20
-5.456181857866415
 10
66.00442206602162
 20
-5.455265183710555
 10
66.01227010153971
 20
-5.454436161996008
 10
66.0201271534806
 20
-5.453694670481896
 10
66.02799216206212
 20
-5.453040619553165
 10
66.03586398675431
 20
-5.452473952971986
 10
66.04374148337092
 20
-5.451994616011856
 10
66.05162350772562
 20
-5.451602553946298
 10
66.0595089156321
 20
-5.451297712048828
 10
66.06739656290422
 20
-5.451080035592945
 10
66.07528530535562
 20
-5.450949469852178
 10
66.08316399879901
 20
-5.450905960169928
  0
LWPOLYLINE
  5
6D3
330
1E
100
AcDbEntity
  8
1
100
AcDbPolyline
 90
       13
 70
     0
 43
0.0
 10
74.41360839170002
 20
5.519746510299981
 10
74.42588724808544
 20
5.518039810408359
 10
74.43792530881402
 20
5.516492368519988
 10
74.4497200876594
 20
5.515098993504182
 10
74.46126929767121
 20
5.513854317605518
 10
74.47257084166522
 20
5.512752815243548
 10
74.4837528818132
 20
5.511778148754491
 10
74.49468378994911
 20
5.510937842750797
 10
74.50536190311841
 20
5.510226250866447
 10
74.51578564735381
 20
5.509638117863619
 10
74.52595360463542
 20
5.509168060177706
 10
74.53599494033793
 20
5.508806485797797
 10
74.54355045214079
 20
5.50860297420774
  0
LWPOLYLINE
  5
6E2
330
1E
100
AcDbEntity
  8
1
100
AcDbPolyline
 90
       67
 70
     0
 43
0.0
 10
79.43300213509998
 20
2.670050494599979
 10
79.43275831209141
 20
2.626526659202037
 10
79.43208117110312
 20
2.585077514930329
 10
79.43096363504181
 20
2.543634947573808
 10
79.42939906559502
 20
2.502204935728769
 10
79.4273808234082
 20
2.46079346180824
 10
79.42503723174832
 20
2.421475181192878
 10
79.42227251600652
 20
2.382184159353529
 10
79.41908090202261
 20
2.342925566872826
 10
79.41545579721453
 20
2.30370498894531
 10
79.41161521738242
 20
2.266588996038968
 10
79.40737322531122
 20
2.229517303030319
 10
79.40272380982351
 20
2.192494864370789
 10
79.39766095974151
 20
2.155526634511816
 10
79.39249433060202
 20
2.120666461560456
 10
79.38694816720472
 20
2.08586400342106
 10
79.3810167404732
 20
2.051124960297709
 10
79.37469430395501
 20
2.016455072271928
 10
79.36838144363061
 20
1.983892902967068
 10
79.36171234055802
 20
1.951401862339839
 10
79.35468220388242
 20
1.918986735933428
 10
79.34728622030971
 20
1.886652526759979
 10
79.33951948444411
 20
1.854405130426479
 10
79.33137706726309
 20
1.822250671516059
 10
79.32339797291901
 20
1.792195718828658
 10
79.3150802963806
 20
1.762232878858878
 10
79.3064199762584
 20
1.732367198107828
 10
79.29741295681222
 20
1.702603740506819
 10
79.28805535361992
 20
1.672948098574168
 10
79.27834348031431
 20
1.64340647590836
 10
79.26895619257891
 20
1.615942668143115
 10
79.25925410640189
 20
1.588588688931499
 10
79.24923423359931
 20
1.561349609702716
 10
79.23889358598741
 20
1.53423050188602
 10
79.2282292315081
 20
1.507236496130849
 10
79.21723872882252
 20
1.480373240858776
 10
79.20591989020151
 20
1.453646652082778
 10
79.19427053004021
 20
1.427062648057129
 10
79.18228846273381
 20
1.40062714703611
 10
79.16997150267731
 20
1.374346067274009
 10
79.15731746526901
 20
1.348225327448339
 10
79.14526382806892
 20
1.32411921255834
 10
79.13291709563622
 20
1.300161690383428
 10
79.12027651931193
 20
1.27635792190953
 10
79.10734135043671
 20
1.252713068122579
 10
79.09411084035141
 20
1.229232290008499
 10
79.08058424039691
 20
1.205920748553229
 10
79.06676081032242
 20
1.182783605525639
 10
79.0526403110364
 20
1.159826069361139
 10
79.03822327833032
 20
1.13705342064997
 10
79.02351031442901
 20
1.114470946168448
 10
79.00850202155692
 20
1.092083932692909
 10
78.99319900193908
 20
1.06989766699967
 10
78.97760185780018
 20
1.04791743586504
 10
78.9617112452577
 20
1.026148500194459
 10
78.94427160723309
 20
1.002946994111399
 10
78.92649535669491
 20
0.9800021755543262
 10
78.90838471288581
 20
0.9573199433199352
 10
78.88994189504892
 20
0.9349061962049011
 10
78.87116912242682
 20
0.9127668330059027
 10
78.8520686689957
 20
0.8909077545626294
 10
78.8326440686827
 20
0.8693349087445344
 10
78.8129001159691
 20
0.8480542904733622
 10
78.791397006919
 20
0.8255847244073324
 10
78.76953882565778
 20
0.8034648839233883
 10
78.7488227641355
 20
0.7831417365791724
 10
78.7413586215862
 20
0.7759669102876523
  0
LWPOLYLINE
  5
727
330
1E
100
AcDbEntity
  8
1
100
AcDbPolyline
 90
       17
 70
     0
 43
0.0
 10
76.76586893229998
 20
-11.98982540800001
 10
76.78639698766851
 20
-11.98268724214089
 10
76.80700272090302
 20
-11.97577215127931
 10
76.8273785493099
 20
-11.96917786226381
 10
76.84782413969391
 20
-11.96280197908781
 10
76.8683366889538
 20
-11.9566454167361
 10
76.88891351452231
 20
-11.95070902735839
 10
76.90924388945481
 20
-11.94507711314819
 10
76.92963242201631
 20
-11.93965999327708
 10
76.95007707012192
 20
-11.93445821010411
 10
76.97057579168711
 20
-11.92947230598839
 10
76.99112642756422
 20
-11.92470282811381
 10
77.0117263425782
 20
-11.92015034328391
 10
77.03205962225192
 20
-11.9158794778267
 10
77.05243539303122
 20
-11.91182018046758
 10
77.07285102214959
 20
-11.90797299739799
 10
77.07441319264042
 20
-11.9076876546179
  0
LWPOLYLINE
  5
73A
330
1E
100
AcDbEntity
  8
1
100
AcDbPolyline
 90
       42
 70
     0
 43
0.0
 10
77.07442303060002
 20
-11.9076858617
 10
77.11465741602122
 20
-11.90057438444607
 10
77.1564070782712
 20
-11.89365653332058
 10
77.1982297967117
 20
-11.88718932237111
 10
77.24011885893259
 20
-11.8811678974665
 10
77.28206837858031
 20
-11.87558843894476
 10
77.32407363425011
 20
-11.8704485860076
 10
77.36758106703172
 20
-11.86559170613967
 10
77.41113806976331
 20
-11.86120065350981
 10
77.45473961370501
 20
-11.8572752958531
 10
77.49838070985311
 20
-11.85381643026701
 10
77.54205636981592
 20
-11.8508248770089
 10
77.5843043663061
 20
-11.8483791699146
 10
77.6265755861382
 20
-11.84637573698041
 10
77.66886559349912
 20
-11.84481841356179
 10
77.71116991533081
 20
-11.84371128045276
 10
77.75202455168522
 20
-11.8430753194474
 10
77.79288359065981
 20
-11.84287142758319
 10
77.83228336442542
 20
-11.84309019271591
 10
77.87167887115444
 20
-11.84372345040739
 10
77.90960675052412
 20
-11.84473316241468
 10
77.94752178271291
 20
-11.84614353108381
 10
77.98396231512
 20
-11.8478851206338
 10
78.02038259971242
 20
-11.85001286920059
 10
78.0553223148636
 20
-11.8524281652126
 10
78.0902341097248
 20
-11.8552177936955
 10
78.12366080554962
 20
-11.8582509193909
 10
78.15705324079451
 20
-11.8616448916171
 10
78.18895664614842
 20
-11.86523861838501
 10
78.2193712580367
 20
-11.8689946377456
 10
78.24974365781752
 20
-11.8730771073844
 10
78.27862642544579
 20
-11.8772763160446
 10
78.30746226838892
 20
-11.88178765413898
 10
78.33480820090402
 20
-11.88637103760689
 10
78.3621027809491
 20
-11.89125256297439
 10
78.38790945537211
 20
-11.89615945143899
 10
78.41366219075621
 20
-11.9013480353842
 10
78.43935543980194
 20
-11.90682610468539
 10
78.46356086102672
 20
-11.91227309616019
 10
78.48770204377202
 20
-11.91799264538641
 10
78.51035960947232
 20
-11.9236309720891
 10
78.52306599391494
 20
-11.92691099390249
  0
LWPOLYLINE
  5
766
330
1E
100
AcDbEntity
  8
1
100
AcDbPolyline
 90
       38
 70
     0
 43
0.0
 10
74.19572491210002
 20
11.24822208169999
 10
74.19574797142281
 20
11.24792817571459
 10
74.19629055418901
 20
11.24779672721727
 10
74.19709083840563
 20
11.24775459709707
 10
74.1978998428778
 20
11.24773215202267
 10
74.19862336372452
 20
11.24770201578507
 10
74.1992697301245
 20
11.24766480563209
 10
74.19984910452642
 20
11.24762163932839
 10
74.20037164937913
 20
11.24757363463899
 10
74.20084752713143
 20
11.24752190932887
 10
74.20128690023202
 20
11.24746758116297
 10
74.2016999311297
 20
11.24741176790607
 10
74.20209678227331
 20
11.24735558732318
 10
74.2028825950932
 20
11.24724659523906
 10
74.2032915284664
 20
11.24719597838139
 10
74.20371829555261
 20
11.24714869703989
 10
74.20416185665281
 20
11.24710457222517
 10
74.20462102326522
 20
11.24706340772268
 10
74.20509460688819
 20
11.24702500731789
 10
74.20558141901992
 20
11.24698917479619
 10
74.2060802711585
 20
11.24695571394285
 10
74.20684852453203
 20
11.24690954032189
 10
74.20763718259872
 20
11.24686759924766
 10
74.20844223416522
 20
11.24682922849618
 10
74.20953420432661
 20
11.24678247674399
 10
74.2133923722585
 20
11.24663692653638
 10
74.21447137310231
 20
11.24659490432678
 10
74.2158003995167
 20
11.24654110905369
 10
74.217110157829
 20
11.24648620033828
 10
74.21866042885551
 20
11.24641928501827
 10
74.22044571533051
 20
11.24634049415199
 10
74.22372006947608
 20
11.24619495048506
 10
74.22900510152212
 20
11.24597407956449
 10
74.23308666402309
 20
11.24582348764777
 10
74.26580614315692
 20
11.24488833387157
 10
74.32288349878921
 20
11.24379168699548
 10
74.40749122780681
 20
11.24299119947898
 10
74.45274530889992
 20
11.24288664000498
  0
LWPOLYLINE
  5
78E
330
1E
100
AcDbEntity
  8
1
100
AcDbPolyline
 90
       96
 70
     0
 43
0.0
 10
80.86016604810001
 20
-8.625082524400037
 10
80.85994968595121
 20
-8.659584338463359
 10
80.8593103623353
 20
-8.69408190435865
 10
80.85825742000158
 20
-8.728569534455299
 10
80.85679988060197
 20
-8.763042331575631
 10
80.85468737354593
 20
-8.801801356659877
 10
80.85208613687923
 20
-8.840530582945639
 10
80.84900749568879
 20
-8.87922476551336
 10
80.84546203582711
 20
-8.91787907256254
 10
80.84146017797131
 20
-8.956488732165098
 10
80.83701101793042
 20
-8.995049421283971
 10
80.83155310408519
 20
-9.037832227573233
 10
80.82556457517432
 20
-9.080543980049107
 10
80.81905477654251
 20
-9.123179483478239
 10
80.81203221819892
 20
-9.165733699627866
 10
80.80450518135892
 20
-9.208201611423046
 10
80.79648025986671
 20
-9.250578355248686
 10
80.78796328214847
 20
-9.292859137101476
 10
80.77896003292812
 20
-9.335039162929312
 10
80.76947528825241
 20
-9.377113628682652
 10
80.75849037252581
 20
-9.423267872909272
 10
80.74693221715312
 20
-9.469282154940296
 10
80.73480535438575
 20
-9.515150021494088
 10
80.72211292242281
 20
-9.56086483915207
 10
80.7088577060788
 20
-9.606419928831911
 10
80.69504248673172
 20
-9.651808610382401
 10
80.6806696296141
 20
-9.697024074213658
 10
80.66574069156281
 20
-9.742059259290918
 10
80.65025713651008
 20
-9.78690707568221
 10
80.6342204283546
 20
-9.831560433429011
 10
80.61763190548452
 20
-9.876012143266867
 10
80.6004924974975
 20
-9.920254692489999
 10
80.58280305090502
 20
-9.96428050265327
 10
80.56456441221831
 20
-10.00808199531159
 10
80.54577742757992
 20
-10.0516515864255
 10
80.52644292992992
 20
-10.09498149166991
 10
80.50656173568643
 20
-10.13806367607209
 10
80.4861346602242
 20
-10.1808900888338
 10
80.46516251891778
 20
-10.22345267915641
 10
80.44364612851842
 20
-10.26574339500718
 10
80.42158647849301
 20
-10.30775402941131
 10
80.39898489714422
 20
-10.349476071429
 10
80.37584275218231
 20
-10.3909009747682
 10
80.3521614113176
 20
-10.43202019313649
 10
80.32794224226064
 20
-10.4728251802418
 10
80.30318664071641
 20
-10.5133073833736
 10
80.27789646883553
 20
-10.55345814287917
 10
80.25207397383393
 20
-10.59326871082169
 10
80.2257214144584
 20
-10.63273033662091
 10
80.19884104945603
 20
-10.67183426969618
 10
80.17143513757361
 20
-10.71057175946718
 10
80.14094117392311
 20
-10.75240262943419
 10
80.10982854836532
 20
-10.79377562439191
 10
80.0781016359787
 20
-10.83467938042218
 10
80.04576481368152
 20
-10.8751025336028
 10
80.01282245839242
 20
-10.91503372001131
 10
79.97927899226211
 20
-10.95446158391339
 10
79.9451396464937
 20
-10.99337491602801
 10
79.91041035052521
 20
-11.0317626334679
 10
79.8750970567127
 20
-11.06961365749419
 10
79.83920571741241
 20
-11.1069169093682
 10
79.80274229886456
 20
-11.14366131568151
 10
79.76571338732418
 20
-11.1798360410605
 10
79.72812642424822
 20
-11.21543057845918
 10
79.68998891354593
 20
-11.25043444480799
 10
79.65130835912642
 20
-11.28483715703729
 10
79.61209226972082
 20
-11.318628234843
 10
79.57568053972494
 20
-11.3490573592981
 10
79.5388323576597
 20
-11.37895649535261
 10
79.50155463494041
 20
-11.40831821726541
 10
79.46385428298211
 20
-11.4371350992957
 10
79.42573821320003
 20
-11.4653997157024
 10
79.38721341619501
 20
-11.4931047103493
 10
79.34828747404552
 20
-11.5202432470125
 10
79.3089682363952
 20
-11.5468087246597
 10
79.27288879177813
 20
-11.5704563226527
 10
79.23649669649542
 20
-11.5936199051261
 10
79.19979784926201
 20
-11.616294513648
 10
79.16279831633231
 20
-11.6384753378632
 10
79.12550464442841
 20
-11.66015799206709
 10
79.08792346586242
 20
-11.68133816620219
 10
79.05006141294622
 20
-11.7020115502108
 10
79.01192511799171
 20
-11.72217383403518
 10
78.97352121337522
 20
-11.74182070930809
 10
78.93485634145953
 20
-11.7609481302384
 10
78.89593716532011
 20
-11.7795525956416
 10
78.85677035060762
 20
-11.79763067202769
 10
78.81736256297201
 20
-11.81517892590677
 10
78.77772046806382
 20
-11.8321939237888
 10
78.73785075747282
 20
-11.848672234515
 10
78.70177963775261
 20
-11.86304107376331
 10
78.66553658997151
 20
-11.87697010839217
 10
78.62912797214232
 20
-11.89045697008229
 10
78.59256014227802
 20
-11.9034992905145
 10
78.5558394583917
 20
-11.91609470136951
 10
78.52308518103011
 20
-11.9269104400837
  0
LWPOLYLINE
  5
834
330
1E
100
AcDbEntity
  8
1
100
AcDbPolyline
 90
        2
 70
     0
 43
0.0
 10
65.63708086870001
 20
11.24999994449999
 10
66.08316399880002
 20
11.24822208170139
  0
LWPOLYLINE
  5
838
330
1E
100
AcDbEntity
  8
1
100
AcDbPolyline
 90
       62
 70
     0
 43
0.0
 10
65.52829864420001
 20
11.24599928859998
 10
65.52824074266421
 20
11.24618601842808
 10
65.52824891735731
 20
11.24635221878307
 10
65.52831675688401
 20
11.24649952554109
 10
65.52843784984881
 20
11.24662957457837
 10
65.52860578485621
 20
11.24674400177138
 10
65.52881415051101
 20
11.24684444299619
 10
65.52905653541751
 20
11.24693253412919
 10
65.52932652818052
 20
11.24700991104659
 10
65.52961771740453
 20
11.24707820962467
 10
65.52992369169401
 20
11.24713906573977
 10
65.5302380396538
 20
11.24719411526807
 10
65.53071123729741
 20
11.24726938068958
 10
65.53101945291311
 20
11.24731683461448
 10
65.53131999135891
 20
11.24736267353427
 10
65.53161308962661
 20
11.24740693707287
 10
65.53189898477352
 20
11.24744966483818
 10
65.53217791385731
 20
11.24749089643808
 10
65.53245011393539
 20
11.24753067148049
 10
65.5327158220654
 20
11.24756902957349
 10
65.53297527530482
 20
11.24760601032499
 10
65.53322871071111
 20
11.24764165334288
 10
65.53347636534181
 20
11.24767599823518
 10
65.53371847625442
 20
11.24770908460988
 10
65.53395528050661
 20
11.24774095207479
 10
65.5341870151556
 20
11.24777164023789
 10
65.53441391725922
 20
11.24780118870718
 10
65.53463622387481
 20
11.24782963709069
 10
65.53496158582162
 20
11.24787033364728
 10
65.53527794136892
 20
11.24790877780538
 10
65.53558609058602
 20
11.24794510324177
 10
65.53588683354191
 20
11.24797944363349
 10
65.53618097030572
 20
11.24801193265718
 10
65.53646930094662
 20
11.24804270398968
 10
65.53684609289
 20
11.24808129151538
 10
65.53721588164231
 20
11.24811737987927
 10
65.5377615822941
 20
11.24816751963578
 10
65.53911756817069
 20
11.24827840506257
 10
65.53957975251562
 20
11.24831291642908
 10
65.53995646623761
 20
11.24834021058978
 10
65.54033926575852
 20
11.24836724307338
 10
65.54082597610332
 20
11.24840066166398
 10
65.54132139425231
 20
11.24843366208267
 10
65.54182507506292
 20
11.24846623916188
 10
65.54233657339231
 20
11.24849838773399
 10
65.54285544409812
 20
11.24853010263157
 10
65.54348719372092
 20
11.24856758078218
 10
65.54412814935361
 20
11.24860441807069
 10
65.54477754178981
 20
11.24864060556727
 10
65.54554480327872
 20
11.24868199113578
 10
65.54643288597802
 20
11.24872817286957
 10
65.54744409543983
 20
11.24877867904498
 10
65.54880799371722
 20
11.24884358486488
 10
65.55500789251361
 20
11.24909937432317
 10
65.55670410393282
 20
11.24915949018988
 10
65.55860569802212
 20
11.24922220173379
 10
65.56070816648412
 20
11.24928599257777
 10
65.56322636482882
 20
11.24935516089218
 10
65.56680102758632
 20
11.24944104851748
 10
65.58341013072613
 20
11.24971779323948
 10
65.61886402980731
 20
11.24997792846317
 10
65.63707086869452
 20
11.24999994547018
  0
LWPOLYLINE
  5
878
330
1E
100
AcDbEntity
  8
1
100
AcDbPolyline
 90
       11
 70
     0
 43
0.0
 10
75.43300167050003
 20
2.42548067269995
 10
75.43322002182972
 20
2.468386374598259
 10
75.43387998578811
 20
2.51173584394224
 10
75.43500329974602
 20
2.55597040358177
 10
75.43659328828422
 20
2.600637360761029
 10
75.43865705099681
 20
2.645731955572798
 10
75.4412283818609
 20
2.69169594175568
 10
75.44432698390342
 20
2.738523831356828
 10
75.4479701536924
 20
2.786209407633668
 10
75.45221374397191
 20
2.835190805023589
 10
75.45569703187111
 20
2.871663990980048
  0
LWPOLYLINE
  5
885
330
1E
100
AcDbEntity
  8
1
100
AcDbPolyline
 90
       71
 70
     0
 43
0.0
 10
75.45569801940001
 20
2.871673942099981
 10
75.46140131121603
 20
2.926027879675078
 10
75.46771373513052
 20
2.980318068856028
 10
75.47462996996902
 20
3.034537238251147
 10
75.48214469455711
 20
3.088678116468787
 10
75.49025258772052
 20
3.142733432117278
 10
75.49894892359382
 20
3.196696107222547
 10
75.50823167645531
 20
3.250559941094648
 10
75.51809958574222
 20
3.304318981645908
 10
75.52855139094109
 20
3.357967276804759
 10
75.5395858315387
 20
3.411498874499637
 10
75.55120188780401
 20
3.464907718807528
 10
75.56340062253781
 20
3.518186855590848
 10
75.57618416526871
 20
3.571328870622888
 10
75.58955465417682
 20
3.624326345945457
 10
75.60351422744242
 20
3.677171863600368
 10
75.61806508166272
 20
3.729857971624438
 10
75.63321088102253
 20
3.782376363764667
 10
75.64895682967222
 20
3.834717837346478
 10
75.66530820466531
 20
3.886873147257818
 10
75.6822702830557
 20
3.938833048386639
 10
75.6988555374524
 20
3.987718526162089
 10
75.7159954048437
 20
4.036412929930991
 10
75.73369659412931
 20
4.084906172680301
 10
75.75196601249422
 20
4.133187966016278
 10
75.77081056712301
 20
4.181248021545161
 10
75.78907818848894
 20
4.22626924453616
 10
75.80786729963222
 20
4.2710761319322
 10
75.82718500676802
 20
4.315658066489078
 10
75.84703899203252
 20
4.360003559274002
 10
75.8674369412242
 20
4.404101115810861
 10
75.8870608831741
 20
4.445207176755578
 10
75.90717600917802
 20
4.486075744817661
 10
75.92778907722131
 20
4.526696356509757
 10
75.94890771799781
 20
4.567056511058408
 10
75.97053967020581
 20
4.607143455558296
 10
75.9926926725442
 20
4.646944437104081
 10
76.01384573793622
 20
4.683822767481528
 10
76.03546577606481
 20
4.720430321313231
 10
76.0575596237896
 20
4.756754492038651
 10
76.080134417323
 20
4.792781443865241
 10
76.10319729696891
 20
4.828497324199851
 10
76.12505610561881
 20
4.861371425873375
 10
76.14734763779718
 20
4.893954269898136
 10
76.17007766772342
 20
4.926233869494796
 10
76.19325211254643
 20
4.958196003539637
 10
76.216876911399
 20
4.989826107255368
 10
76.24095800341361
 20
5.021109615864648
 10
76.2655013277228
 20
5.052031964590177
 10
76.28857207330942
 20
5.080242216927738
 10
76.31204612387872
 20
5.108118235022836
 10
76.33592781206359
 20
5.135645394978887
 10
76.36022147021961
 20
5.162809070304588
 10
76.38493143070192
 20
5.189594634508638
 10
76.41006197992422
 20
5.215987339899887
 10
76.435616677917
 20
5.241970522505988
 10
76.46159850492111
 20
5.267525988801898
 10
76.48579293218322
 20
5.290560521060558
 10
76.51035104021651
 20
5.313206282905828
 10
76.53299408019281
 20
5.33344410628508
 10
76.55594079220242
 20
5.353337465007988
 10
76.57919204000592
 20
5.372874069327838
 10
76.60274867472061
 20
5.392041603716287
 10
76.62421145522092
 20
5.40896665109037
 10
76.64592290868391
 20
5.425573797992588
 10
76.66788306117472
 20
5.44185361859703
 10
76.6900901043926
 20
5.457795305111929
 10
76.71003521748281
 20
5.471672875356259
 10
76.73017217918192
 20
5.485266750946149
 10
76.7504994715859
 20
5.498569154479837
 10
76.76586046633102
 20
5.508344677653217
  0
LWPOLYLINE
  5
8CE
330
1E
100
AcDbEntity
  8
1
100
AcDbPolyline
 90
       65
 70
     0
 43
0.0
 10
78.5230756685
 20
5.23680886849998
 10
78.54624133242819
 20
5.212719571332278
 10
78.56903981661869
 20
5.188276331544028
 10
78.59332626424651
 20
5.161412163752268
 10
78.61718693342111
 20
5.134165118448398
 10
78.64062450098143
 20
5.106552102642056
 10
78.66364168468831
 20
5.07858992668165
 10
78.68624218974551
 20
5.050293068500346
 10
78.70843073518881
 20
5.021673611282417
 10
78.73021208625529
 20
4.992743529081468
 10
78.75159100818201
 20
4.963514795951079
 10
78.77257226620592
 20
4.933999385944837
 10
78.79472818470681
 20
4.901906553610047
 10
78.81643402676131
 20
4.869507991677249
 10
78.83769518833844
 20
4.836815410013839
 10
78.8585170607422
 20
4.803840491240916
 10
78.8789050352763
 20
4.770594917979597
 10
78.89886450324491
 20
4.73709037285098
 10
78.91840082961111
 20
4.703338397773175
 10
78.93886877013222
 20
4.666912104047425
 10
78.95886267526451
 20
4.630223642329418
 10
78.97838846884592
 20
4.59328360392623
 10
78.99745207471422
 20
4.556102580144938
 10
79.01605941670742
 20
4.518691162292648
 10
79.034216377696
 20
4.481059850869469
 10
79.05309326478722
 20
4.44068759054966
 10
79.0714693860318
 20
4.400085031471228
 10
79.08935043994701
 20
4.35926172303923
 10
79.10674212505011
 20
4.318227214658707
 10
79.12365013985868
 20
4.276991055734738
 10
79.14008013563743
 20
4.2355627272719
 10
79.15701859236732
 20
4.19134377114885
 10
79.17342770258319
 20
4.146925800123868
 10
79.18931231137722
 20
4.102317387630428
 10
79.20467726384181
 20
4.057527107101988
 10
79.2195274050692
 20
4.01256353197202
 10
79.2338674925748
 20
3.967435156401986
 10
79.247701100697
 20
3.922149403576876
 10
79.26179943291892
 20
3.874035641590586
 10
79.27533621393481
 20
3.825760781200919
 10
79.28831465579141
 20
3.777332701005208
 10
79.30073797053529
 20
3.728759279600758
 10
79.31260912173972
 20
3.680048267917098
 10
79.32392936504301
 20
3.631206539332228
 10
79.33469923810282
 20
3.582240598319617
 10
79.3449192760922
 20
3.533156948076138
 10
79.35459001418461
 20
3.48396209179871
 10
79.36371198733231
 20
3.434662532640099
 10
79.37228513747931
 20
3.385264655211078
 10
79.38030752388448
 20
3.335774467775008
 10
79.38777683304201
 20
3.286197904079846
 10
79.39469075144642
 20
3.236540897873577
 10
79.40104696559171
 20
3.186809382904158
 10
79.40684312636894
 20
3.137009296206747
 10
79.41179977722292
 20
3.089918373261276
 10
79.41624919458942
 20
3.042776916077898
 10
79.42018685383951
 20
2.995590161176128
 10
79.4236082303442
 20
2.948363345075488
 10
79.42650879947452
 20
2.901101704295498
 10
79.4288839302512
 20
2.853810539369586
 10
79.43072752785709
 20
2.806496031939198
 10
79.43197071394322
 20
2.761949517608529
 10
79.4327307294059
 20
2.717394070018579
 10
79.4330015849812
 20
2.672835389368958
 10
79.43300213658648
 20
2.670060494599939
  0
LWPOLYLINE
  5
911
330
1E
100
AcDbEntity
  8
SK1
100
AcDbPolyline
 90
       52
 70
     0
 43
0.0
 10
-17.43983396939998
 20
-6.782329983200034
 10
-17.35510112131488
 20
-6.649317625849423
 10
-17.27204825925278
 20
-6.515238880079387
 10
-17.19069104007348
 20
-6.380119121153276
 10
-17.11104511743348
 20
-6.243983721025077
 10
-17.03312502468268
 20
-6.106856894217747
 10
-16.96036751751377
 20
-5.975057882393027
 10
-16.88920311271647
 20
-5.842393191674177
 10
-16.81964168442248
 20
-5.708881031591776
 10
-16.75169306418808
 20
-5.574540180191156
 10
-16.68536700828757
 20
-5.439390420771482
 10
-16.62067326529666
 20
-5.303451639428875
 10
-16.55762156930298
 20
-5.166743723348456
 10
-16.49622116725538
 20
-5.029286596329148
 10
-16.43928772982728
 20
-4.897696771380566
 10
-16.38386736060488
 20
-4.765462753538047
 10
-16.32996748798898
 20
-4.632601803806358
 10
-16.27759517765516
 20
-4.499131379540544
 10
-16.22675715018958
 20
-4.365069124899296
 10
-16.17746011248546
 20
-4.230432691453366
 10
-16.12971074109468
 20
-4.095239740486836
 10
-16.08351527493486
 20
-3.959508073384948
 10
-16.03887962421116
 20
-3.823255596764676
 10
-15.99580969113198
 20
-3.686500219802948
 10
-15.95431132027528
 20
-3.549259869897116
 10
-15.91438987170787
 20
-3.411552627627456
 10
-15.87605046308738
 20
-3.273396650214326
 10
-15.83929821026926
 20
-3.134810095447756
 10
-15.80585823173278
 20
-3.002770609598146
 10
-15.77385901161466
 20
-2.870374645452987
 10
-15.74330425837098
 20
-2.737637939535864
 10
-15.71419768045096
 20
-2.604576228371848
 10
-15.68654286776708
 20
-2.471205277063904
 10
-15.66034295992408
 20
-2.337540959278384
 10
-15.63560098961368
 20
-2.203599174457018
 10
-15.61231998937028
 20
-2.069395822051637
 10
-15.59050283769208
 20
-1.934946811419344
 10
-15.57015197094218
 20
-1.800268080348534
 10
-15.55126974664818
 20
-1.665375571697087
 10
-15.53385852079818
 20
-1.530285229123624
 10
-15.51792044165507
 20
-1.395013104316088
 10
-15.50345724198618
 20
-1.259575465044528
 10
-15.49047060509328
 20
-1.123988604804007
 10
-15.47896220754638
 20
-0.9882688076655112
 10
-15.46893345041538
 20
-0.8524319720207479
 10
-15.46038536869208
 20
-0.7164934837790852
 10
-15.45331897206046
 20
-0.5804686934210606
 10
-15.44773525050166
 20
-0.4443730618557792
 10
-15.44363484687448
 20
-0.3082239955237141
 10
-15.44101810725348
 20
-0.1720405642611141
 10
-15.43988536815616
 20
-0.0358418914711242
 10
-15.43983396940397
 20
-0.0000100000000217
  0
LWPOLYLINE
  5
947
330
1E
100
AcDbEntity
  8
SK1
100
AcDbPolyline
 90
       52
 70
     0
 43
0.0
 10
-15.43983396939998
 20
0.0000000000000019
 10
-15.44057612611478
 20
0.1361995053828219
 10
-15.44280237191496
 20
0.2723888018237588
 10
-15.44651237028417
 20
0.4085487659074598
 10
-15.45170578408588
 20
0.544660277693737
 10
-15.45838209581487
 20
0.680705228136729
 10
-15.46654035835668
 20
0.8166679159765525
 10
-15.47617956200707
 20
0.9525329907418036
 10
-15.48729869243758
 20
1.088285095486881
 10
-15.49989648043507
 20
1.223908516437619
 10
-15.51397127418396
 20
1.359387004191012
 10
-15.52952139037184
 20
1.494704265249858
 10
-15.54654513185417
 20
1.6298440133106
 10
-15.56504047949267
 20
1.76479012952556
 10
-15.58500509000146
 20
1.89952666362317
 10
-15.60643660583178
 20
2.034037672749517
 10
-15.62933264197788
 20
2.16830721581639
 10
-15.65369044051048
 20
2.302319375717681
 10
-15.67950697465516
 20
2.436058252636247
 10
-15.70677921169806
 20
2.569507947136941
 10
-15.73550407697126
 20
2.70265256989898
 10
-15.76567809100938
 20
2.835476329191537
 10
-15.79729754783097
 20
2.967963487893131
 10
-15.83035873896947
 20
3.10009830948135
 10
-15.86671340479448
 20
3.238789671051991
 10
-15.90465650409548
 20
3.377054995024908
 10
-15.94418292230998
 20
3.514876123290747
 10
-15.98528754355998
 20
3.652234898067169
 10
-16.02796512500438
 20
3.789113201712611
 10
-16.07220989965487
 20
3.925493082300238
 10
-16.11801596528307
 20
4.061356630660911
 10
-16.16537741928766
 20
4.196685937744828
 10
-16.21428816155538
 20
4.331463157732692
 10
-16.26474157031196
 20
4.46567061180692
 10
-16.31673093865658
 20
4.599290648401956
 10
-16.37024955817388
 20
4.732305616772072
 10
-16.42529049692317
 20
4.864697987168669
 10
-16.48184636529607
 20
4.996450477584417
 10
-16.54285232317517
 20
5.13408304511907
 10
-16.60551165573008
 20
5.270971154560736
 10
-16.66981531589668
 20
5.407094867090409
 10
-16.73575361007296
 20
5.542434292486676
 10
-16.80331678967376
 20
5.676969544661051
 10
-16.87249510382708
 20
5.810680768064711
 10
-16.94327874305998
 20
5.943548889725277
 10
-17.01565783575607
 20
6.075555666556192
 10
-17.08962250730306
 20
6.206682895482662
 10
-17.16879905129808
 20
6.343090942415281
 10
-17.24969110508526
 20
6.478490210000888
 10
-17.33228307182467
 20
6.612855384983681
 10
-17.41655929465107
 20
6.746161092093317
 10
-17.43982854353938
 20
6.782321583097777
  0
LWPOLYLINE
  5
989
330
1E
100
AcDbEntity
  8
1
100
AcDbPolyline
 90
       65
 70
     0
 43
0.0
 10
65.52829864420001
 20
-5.882807265500026
 10
65.52826537693862
 20
-5.879097364244604
 10
65.52827487879311
 20
-5.875386577305227
 10
65.52832707290761
 20
-5.871675477987357
 10
65.52842188242651
 20
-5.867964639596474
 10
65.52855923049391
 20
-5.864254635438045
 10
65.52873904025432
 20
-5.860546038817557
 10
65.52896123485172
 20
-5.856839423040467
 10
65.5292257374306
 20
-5.853135361412244
 10
65.52953247113511
 20
-5.849434427238374
 10
65.52988135910961
 20
-5.845737193824317
 10
65.53027232449821
 20
-5.842044234475543
 10
65.53070529044521
 20
-5.838356122497548
 10
65.53118015954311
 20
-5.834673407006697
 10
65.53169674172432
 20
-5.830996528061917
 10
65.53225482082021
 20
-5.827325895001226
 10
65.53285418066022
 20
-5.823661917160928
 10
65.53349460507401
 20
-5.820005003877316
 10
65.5341758778912
 20
-5.816355564486695
 10
65.53489778294149
 20
-5.812714008325357
 10
65.5356601040544
 20
-5.809080744729605
 10
65.53652601633011
 20
-5.805177742769457
 10
65.53743828097442
 20
-5.801285344207038
 10
65.53839662799592
 20
-5.797404060293495
 10
65.53940078740271
 20
-5.793534402280005
 10
65.540450471
 20
-5.789676868758156
 10
65.54154531337572
 20
-5.785831904619473
 10
65.54268492864753
 20
-5.781999940519276
 10
65.54386893093262
 20
-5.778181407112795
 10
65.54509693434841
 20
-5.774376735055255
 10
65.54636855301241
 20
-5.770586355001888
 10
65.54768340104181
 20
-5.766810697607917
 10
65.54913969974281
 20
-5.762782177319014
 10
65.5506447063945
 20
-5.758771582103888
 10
65.55219794637851
 20
-5.754779441649636
 10
65.5537989450757
 20
-5.750806285643355
 10
65.55544722487981
 20
-5.746852636712866
 10
65.55714226934201
 20
-5.742918925711363
 10
65.55888353485361
 20
-5.739005519319657
 10
65.56079121747972
 20
-5.734854011022587
 10
65.56275020983282
 20
-5.730726463979957
 10
65.56475985149702
 20
-5.726623321608863
 10
65.56681948205642
 20
-5.722545027326414
 10
65.56892844109511
 20
-5.718492024549707
 10
65.57122252074751
 20
-5.714213917056777
 10
65.57357074993652
 20
-5.709965393741445
 10
65.57597233654921
 20
-5.705746986185526
 10
65.57842649557271
 20
-5.701559162648856
 10
65.58108146447931
 20
-5.697158692887025
 10
65.58379360044472
 20
-5.692793237982896
 10
65.58656199329701
 20
-5.688463160418547
 10
65.58938573286422
 20
-5.684168822676026
 10
65.59242538549472
 20
-5.679675084439494
 10
65.5955246207361
 20
-5.675221997615022
 10
65.5986823681374
 20
-5.670809988516837
 10
65.60206834862182
 20
-5.666210614653565
 10
65.60551672470221
 20
-5.661657717737774
 10
65.60902621779262
 20
-5.657151718657507
 10
65.61277554904461
 20
-5.652471316716597
 10
65.61658934163981
 20
-5.647843493712064
 10
65.62065225246891
 20
-5.643052180021213
 10
65.62478254863382
 20
-5.638319577788587
 10
65.62917076828053
 20
-5.633435190974235
 10
65.63362879367392
 20
-5.628616124747653
 10
65.63597487738272
 20
-5.626135196186318
  0
LWPOLYLINE
  5
9CC
330
1E
100
AcDbEntity
  8
1
100
AcDbPolyline
 90
       52
 70
     0
 43
0.0
 10
-29.43983396939998
 20
-6.782329983200034
 10
-29.52456681853238
 20
-6.649317624178324
 10
-29.60761968159757
 20
-6.515238876709684
 10
-29.68897690174058
 20
-6.380119116061396
 10
-29.76862282530979
 20
-6.243983714191394
 10
-29.84654291895698
 20
-6.106856885624615
 10
-29.91930042694518
 20
-5.975057872101656
 10
-29.99046483251948
 20
-5.842393179663536
 10
-30.06002626154168
 20
-5.708881017838156
 10
-30.12797488245267
 20
-5.574540164670342
 10
-30.19430093898237
 20
-5.439390403462255
 10
-30.25899468255978
 20
-5.303451620313376
 10
-30.32204637910218
 20
-5.166743702412043
 10
-30.38344678166017
 20
-5.029286573558195
 10
-30.44038021953259
 20
-4.897696746848094
 10
-30.49580058915227
 20
-4.765462727228363
 10
-30.54970046211257
 20
-4.632601775702212
 10
-30.60207277274038
 20
-4.499131349626293
 10
-30.65291080045998
 20
-4.365069093163755
 10
-30.70220783838808
 20
-4.230432657889933
 10
-30.74995720998278
 20
-4.095239705093251
 10
-30.79615267632487
 20
-3.959508036159183
 10
-30.84078832719947
 20
-3.823255557701866
 10
-30.88385826038778
 20
-3.686500178895236
 10
-30.92535663130258
 20
-3.549259827134076
 10
-30.96527807987468
 20
-3.411552582998846
 10
-31.00361748844738
 20
-3.273396603711375
 10
-31.04036974116618
 20
-3.134810047063194
 10
-31.07380971956198
 20
-3.002770559420753
 10
-31.10580893949768
 20
-2.870374593479153
 10
-31.13636369252137
 20
-2.737637885763494
 10
-31.16547027018767
 20
-2.604576172800404
 10
-31.19312508258778
 20
-2.471205219694216
 10
-31.21932499011858
 20
-2.337540900111946
 10
-31.24406696008929
 20
-2.203599113495812
 10
-31.26734795996656
 20
-2.069395759298144
 10
-31.28916511125138
 20
-1.934946746876254
 10
-31.30951597757348
 20
-1.800268014018065
 10
-31.32839820139698
 20
-1.665375503580803
 10
-31.34580942672557
 20
-1.530285159222513
 10
-31.36174750529117
 20
-1.395013032631262
 10
-31.37621070432698
 20
-1.259575391578622
 10
-31.38919734053218
 20
-1.123988529561235
 10
-31.40070573733828
 20
-0.9882687306515959
 10
-31.41073449369078
 20
-0.8524318932426368
 10
-31.41928257463187
 20
-0.7164934032452461
 10
-31.42634897051248
 20
-0.5804686111415835
 10
-31.43193269138718
 20
-0.4443729778425893
 10
-31.43603309444148
 20
-0.3082239097893422
 10
-31.43864983365207
 20
-0.1720404768149871
 10
-31.43978257255328
 20
-0.0358418023192732
 10
-31.43983397129598
 20
-0.0000099104000407
  0
LWPOLYLINE
  5
A02
330
1E
100
AcDbEntity
  8
SK1
100
AcDbPolyline
 90
       52
 70
     0
 43
0.0
 10
-31.43983397129999
 20
0.0000000895999829
 10
-31.43909181397248
 20
0.1361995932718239
 10
-31.43686556668737
 20
0.2723888879849208
 10
-31.43315556649088
 20
0.4085488503294643
 10
-31.42796215104858
 20
0.5446603603708012
 10
-31.42128583820158
 20
0.6807053090667321
 10
-31.41312757494018
 20
0.8166679951565619
 10
-31.40348837077699
 20
0.9525330681674198
 10
-31.39236923985087
 20
1.088285171152242
 10
-31.37977145127448
 20
1.223908590336143
 10
-31.36569665689738
 20
1.359387076316441
 10
-31.35014654007688
 20
1.494704335596379
 10
-31.33312279800128
 20
1.629844081872833
 10
-31.31462744982788
 20
1.76479019629895
 10
-31.29466283883648
 20
1.899526728604369
 10
-31.27323132256897
 20
2.034037735936374
 10
-31.25033528602429
 20
2.168307277207961
 10
-31.22597748713078
 20
2.302319435314128
 10
-31.20016095266617
 20
2.436058310438752
 10
-31.17288871534757
 20
2.569508003147694
 10
-31.14416384984578
 20
2.702652624121053
 10
-31.11398983562198
 20
2.835476381627544
 10
-31.08237037865059
 20
2.967963538544453
 10
-31.04930918739048
 20
3.100098358348143
 10
-31.01295452146167
 20
3.238789718039581
 10
-30.97501142208717
 20
3.377055040135072
 10
-30.93548500384128
 20
3.514876166529321
 10
-30.89438038261349
 20
3.652234939444171
 10
-30.85170280125278
 20
3.789113241240951
 10
-30.80745802673888
 20
3.925493119990722
 10
-30.76165196128747
 20
4.061356666520953
 10
-30.71429050748748
 20
4.196685971778461
 10
-30.66537976544509
 20
4.331463189942422
 10
-30.61492635694187
 20
4.465670642198801
 10
-30.56293698888867
 20
4.599290676986351
 10
-30.50941836971038
 20
4.732305643563663
 10
-30.45437743135278
 20
4.864698012184502
 10
-30.39782156341829
 20
4.996450500839862
 10
-30.33681560604198
 20
5.134083066540261
 10
-30.27415627402568
 20
5.270971174159789
 10
-30.20985261443076
 20
5.407094884879422
 10
-30.14391432086508
 20
5.542434308481603
 10
-30.07635114192028
 20
5.676969558881991
 10
-30.00717282847459
 20
5.810680780535767
 10
-29.93638919000018
 20
5.94354890047069
 10
-29.86401009810446
 20
6.075555675596262
 10
-29.79004542739107
 20
6.206682902833552
 10
-29.71086888429568
 20
6.343090948009761
 10
-29.62997683143698
 20
6.478490213854851
 10
-29.54738486566608
 20
6.612855387121022
 10
-29.46310864386008
 20
6.746161092546081
 10
-29.43983939526058
 20
6.782321583097782
  0
LWPOLYLINE
  5
A38
330
1E
100
AcDbEntity
  8
1
100
AcDbPolyline
 90
      107
 70
     0
 43
0.0
 10
73.0560723996
 20
-11.24999999449999
 10
71.77023344991761
 20
-11.24511839089831
 10
71.2160487483269
 20
-11.23686266449579
 10
70.82820124904498
 20
-11.22697096435999
 10
70.52910131079831
 20
-11.21616823498911
 10
70.27442513049789
 20
-11.20423112411119
 10
70.06415757312621
 20
-11.19210119472018
 10
69.87615088322811
 20
-11.17922299607569
 10
69.71039480140311
 20
-11.16605588500177
 10
69.55583356511652
 20
-11.15205568636729
 10
69.4124710300818
 20
-11.137410170176
 10
69.28030078567271
 20
-11.12234893040578
 10
69.15931530985812
 20
-11.1071182721006
 10
69.04949760342631
 20
-11.0919895192948
 10
68.93986647679401
 20
-11.07554811456139
 10
68.8413859452269
 20
-11.05954526730541
 10
68.74311274415861
 20
-11.04231837107166
 10
68.65595605101832
 20
-11.02591405973758
 10
68.56900864533952
 20
-11.00842208013719
 10
68.49312538715692
 20
-10.99217286573509
 10
68.41744733707551
 20
-10.97499582632351
 10
68.34199600523672
 20
-10.95684609039927
 10
68.26679408402272
 20
-10.93767812294679
 10
68.20255639570932
 20
-10.9204004662345
 10
68.13854452626272
 20
-10.90230607224251
 10
68.07477906149312
 20
-10.88336273257976
 10
68.01128058965161
 20
-10.8635382385118
 10
67.94807174859411
 20
-10.84280009305981
 10
67.88518094884111
 20
-10.8211149874104
 10
67.82263760984311
 20
-10.7984494708603
 10
67.7708048067694
 20
-10.77878848237767
 10
67.71925075353002
 20
-10.75840406626729
 10
67.66799378401542
 20
-10.73727741446659
 10
67.61705571343512
 20
-10.71539118189239
 10
67.56645893056521
 20
-10.69272826449559
 10
67.51622582418192
 20
-10.66927155822708
 10
67.46637878306142
 20
-10.64500395903791
 10
67.41694046069162
 20
-10.61990879938081
 10
67.36793588079222
 20
-10.5939733201558
 10
67.31939131616922
 20
-10.56718682197069
 10
67.2713330508381
 20
-10.5395386239183
 10
67.22378736881471
 20
-10.51101804509117
 10
67.17678055524753
 20
-10.48161461601381
 10
67.13033892197632
 20
-10.45132284844469
 10
67.08448880788854
 20
-10.42014230200501
 10
67.0392565530761
 20
-10.3880727610742
 10
66.99466849763101
 20
-10.35511401003119
 10
66.9507509468876
 20
-10.32126591111409
 10
66.90752818087361
 20
-10.2865328633661
 10
66.86502137449192
 20
-10.2509262214913
 10
66.82325143948389
 20
-10.21445792969059
 10
66.78223928759101
 20
-10.1771399321648
 10
66.74200581698801
 20
-10.13898418645299
 10
66.70256905320141
 20
-10.1000054743326
 10
66.66394061422872
 20
-10.06022487713059
 10
66.62613125135462
 20
-10.01966432828129
 10
66.58915171586392
 20
-9.978345761218726
 10
66.55301275904112
 20
-9.93629110937706
 10
66.51772317180811
 20
-9.893523104989396
 10
66.48328398533251
 20
-9.850067642194908
 10
66.44969431105531
 20
-9.805951397373457
 10
66.41695326041761
 20
-9.761201046904899
 10
66.38505994486052
 20
-9.71584326716905
 10
66.35401300206621
 20
-9.669904692205179
 10
66.32380566569311
 20
-9.623411473085488
 10
66.29442773142081
 20
-9.576389453624116
 10
66.26586893976892
 20
-9.528864472705487
 10
66.2381190312571
 20
-9.48086236921396
 10
66.21116774463512
 20
-9.432408980510297
 10
66.18500359612082
 20
-9.383529091540435
 10
66.15961174659812
 20
-9.33424459881499
 10
66.13497678639761
 20
-9.284576907684717
 10
66.1110833058501
 20
-9.234547423500419
 10
66.08791589528641
 20
-9.184177551612876
 10
66.06545913976811
 20
-9.133488672566734
 10
66.03942675735831
 20
-9.072268036815234
 10
66.01436636291712
 20
-9.01064389670441
 10
65.99024929158222
 20
-8.948643650847136
 10
65.9670468784913
 20
-8.886294697856365
 10
65.9447304594581
 20
-8.823624433924797
 10
65.92327192953781
 20
-8.760658253551355
 10
65.90264475585761
 20
-8.697415924310886
 10
65.87959542999439
 20
-8.623309248021499
 10
65.85760023359242
 20
-8.548882104071719
 10
65.83661747321092
 20
-8.474164317598686
 10
65.8166072256942
 20
-8.399183064461539
 10
65.79753404898703
 20
-8.323958814434487
 10
65.77683899710631
 20
-8.237715613869035
 10
65.75727063236262
 20
-8.151209396387677
 10
65.73877741391431
 20
-8.064468849260629
 10
65.7192008926118
 20
-7.966634272160197
 10
65.7008689865162
 20
-7.868558702434927
 10
65.68372375223642
 20
-7.770268180553585
 10
65.66599515350812
 20
-7.660835808022767
 10
65.64959043033282
 20
-7.551199114295747
 10
65.63444923929932
 20
-7.441380595308997
 10
65.61918183708121
 20
-7.320396686397197
 10
65.60529258340601
 20
-7.199248384516326
 10
65.59163604456141
 20
-7.066924927456016
 10
65.57851694506712
 20
-6.923411249219918
 10
65.5670470755783
 20
-6.779757337104577
 10
65.55644373769441
 20
-6.624925087932476
 10
65.54756997500522
 20
-6.469983247046044
 10
65.5398854102653
 20
-6.303878948161732
 10
65.53366840955373
 20
-6.126621165428787
 10
65.5294089583214
 20
-5.949308210815987
 10
65.52829879159462
 20
-5.882817264413727
  0
LWPOLYLINE
  5
AA5
330
1E
100
AcDbEntity
  8
SK1
100
AcDbPolyline
 90
       52
 70
     0
 43
0.0
 10
-38.43983396939997
 20
-6.782329983200034
 10
-38.35510112131487
 20
-6.649317625849423
 10
-38.27204825925278
 20
-6.515238880079382
 10
-38.19069104007347
 20
-6.380119121153271
 10
-38.11104511743348
 20
-6.243983721025074
 10
-38.03312502468267
 20
-6.106856894217743
 10
-37.96036751751378
 20
-5.975057882393024
 10
-37.88920311271648
 20
-5.842393191674175
 10
-37.81964168442248
 20
-5.708881031591772
 10
-37.75169306418808
 20
-5.574540180191156
 10
-37.68536700828757
 20
-5.439390420771474
 10
-37.62067326529669
 20
-5.303451639428874
 10
-37.55762156930298
 20
-5.166743723348453
 10
-37.49622116725539
 20
-5.029286596329143
 10
-37.43928772982728
 20
-4.897696771380563
 10
-37.38386736060486
 20
-4.765462753538042
 10
-37.32996748798898
 20
-4.632601803806355
 10
-37.27759517765528
 20
-4.499131379540544
 10
-37.22675715018957
 20
-4.365069124899291
 10
-37.17746011248546
 20
-4.230432691453363
 10
-37.12971074109467
 20
-4.095239740486833
 10
-37.08351527493487
 20
-3.959508073384943
 10
-37.03887962421116
 20
-3.823255596764673
 10
-36.99580969113196
 20
-3.686500219802943
 10
-36.95431132027528
 20
-3.549259869897113
 10
-36.91438987170788
 20
-3.411552627627453
 10
-36.87605046308735
 20
-3.273396650214323
 10
-36.83929821026928
 20
-3.134810095447753
 10
-36.80585823173267
 20
-3.002770609598133
 10
-36.77385901161465
 20
-2.870374645452986
 10
-36.74330425837097
 20
-2.737637939535853
 10
-36.71419768045096
 20
-2.604576228371845
 10
-36.6865428677671
 20
-2.471205277063904
 10
-36.66034295992409
 20
-2.337540959278384
 10
-36.63560098961367
 20
-2.203599174457015
 10
-36.61231998937028
 20
-2.069395822051644
 10
-36.59050283769207
 20
-1.934946811419344
 10
-36.57015197094207
 20
-1.800268080348534
 10
-36.55126974664816
 20
-1.665375571697083
 10
-36.53385852079817
 20
-1.530285229123624
 10
-36.51792044165508
 20
-1.395013104316084
 10
-36.50345724198619
 20
-1.259575465044525
 10
-36.49047060509327
 20
-1.123988604804004
 10
-36.47896220754637
 20
-0.9882688076655076
 10
-36.46893345041537
 20
-0.8524319720207444
 10
-36.46038536869208
 20
-0.7164934837790826
 10
-36.45331897206047
 20
-0.5804686934210566
 10
-36.44773525050168
 20
-0.4443730618557766
 10
-36.44363484687448
 20
-0.3082239955237116
 10
-36.44101810725347
 20
-0.1720405642611116
 10
-36.43988536815617
 20
-0.0358418914711216
 10
-36.43983396940397
 20
-0.0000100000000191
  0
LWPOLYLINE
  5
ADB
330
1E
100
AcDbEntity
  8
SK1
100
AcDbPolyline
 90
       52
 70
     0
 43
0.0
 10
-36.43983396939997
 20
0.0000000000000045
 10
-36.44057612611478
 20
0.1361995053828245
 10
-36.44280237191498
 20
0.2723888018237614
 10
-36.44651237028415
 20
0.4085487659074624
 10
-36.45170578408587
 20
0.5446602776937396
 10
-36.45838209581496
 20
0.6807052281367315
 10
-36.46654035835668
 20
0.8166679159765552
 10
-36.47617956200706
 20
0.9525329907418063
 10
-36.48729869243757
 20
1.088285095486883
 10
-36.49989648043507
 20
1.223908516437623
 10
-36.51397127418397
 20
1.359387004191014
 10
-36.52952139037187
 20
1.49470426524986
 10
-36.54654513185418
 20
1.629844013310604
 10
-36.56504047949268
 20
1.764790129525561
 10
-36.58500509000148
 20
1.899526663623174
 10
-36.60643660583178
 20
2.034037672749523
 10
-36.62933264197786
 20
2.168307215816394
 10
-36.6536904405105
 20
2.302319375717681
 10
-36.67950697465519
 20
2.43605825263625
 10
-36.70677921169807
 20
2.569507947136943
 10
-36.73550407697128
 20
2.702652569898981
 10
-36.76567809100939
 20
2.835476329191542
 10
-36.79729754783098
 20
2.967963487893142
 10
-36.83035873896946
 20
3.100098309481363
 10
-36.86671340479446
 20
3.238789671051995
 10
-36.90465650409548
 20
3.377054995024912
 10
-36.94418292230997
 20
3.514876123290752
 10
-36.98528754355997
 20
3.652234898067173
 10
-37.02796512500439
 20
3.789113201712613
 10
-37.07220989965485
 20
3.925493082300241
 10
-37.11801596528307
 20
4.061356630660912
 10
-37.16537741928767
 20
4.196685937744832
 10
-37.21428816155536
 20
4.331463157732693
 10
-37.26474157031196
 20
4.465670611806921
 10
-37.31673093865657
 20
4.599290648401962
 10
-37.37024955817386
 20
4.732305616772075
 10
-37.42529049692318
 20
4.86469798716867
 10
-37.48184636529607
 20
4.996450477584422
 10
-37.54285232317517
 20
5.134083045119061
 10
-37.6055116557301
 20
5.270971154560741
 10
-37.66981531589667
 20
5.407094867090413
 10
-37.73575361007297
 20
5.542434292486682
 10
-37.80331678967377
 20
5.676969544661062
 10
-37.87249510382707
 20
5.810680768064723
 10
-37.94327874305997
 20
5.943548889725278
 10
-38.01565783575608
 20
6.075555666556192
 10
-38.0896225073031
 20
6.206682895482662
 10
-38.16879905129809
 20
6.343090942415282
 10
-38.24969110508528
 20
6.478490210000892
 10
-38.33228307182467
 20
6.612855384983682
 10
-38.41655929465108
 20
6.746161092093322
 10
-38.43982854353939
 20
6.782321583097782
  0
LWPOLYLINE
  5
B11
330
1E
100
AcDbEntity
  8
SK1
100
AcDbPolyline
 90
       14
 70
     0
 43
0.0
 10
-54.23983396939997
 20
-6.782329983200032
 10
-54.37804873543428
 20
-6.524089762763789
 10
-54.50533871599557
 20
-6.279560136982683
 10
-54.62335525897078
 20
-6.04640933541483
 10
-54.73364796671678
 20
-5.822242597507921
 10
-54.83644208598627
 20
-5.6072043256274
 10
-54.93197411322078
 20
-5.401440708141431
 10
-55.02165428179819
 20
-5.202473974146323
 10
-55.10565169025628
 20
-5.010409473380788
 10
-55.18414191982319
 20
-4.825352309174371
 10
-55.25838611480377
 20
-4.644743733526431
 10
-55.32743932687928
 20
-4.471325543768813
 10
-55.39251383773819
 20
-4.302519610457578
 10
-55.43983050286957
 20
-4.1761319835343
  0
LWPOLYLINE
  5
B21
330
1E
100
AcDbEntity
  8
1
100
AcDbPolyline
 90
       45
 70
     0
 43
0.0
 10
80.47220460350002
 20
-7.247567723900036
 10
80.5011858145276
 20
-7.302622047183357
 10
80.52820406815319
 20
-7.355436717890428
 10
80.55266968214272
 20
-7.404679285707794
 10
80.57467700319589
 20
-7.450292585883687
 10
80.59493335676993
 20
-7.493533927712067
 10
80.61409153188401
 20
-7.535688951311607
 10
80.63159421095404
 20
-7.575414570051457
 10
80.64806838004001
 20
-7.614008644875197
 10
80.66299325792561
 20
-7.650114457593018
 10
80.67697156268781
 20
-7.685043721068959
 10
80.69003201387351
 20
-7.718779589612977
 10
80.70220481345872
 20
-7.751304900681468
 10
80.71400596750152
 20
-7.78396670383621
 10
80.72495401684081
 20
-7.81539607118125
 10
80.73508404414862
 20
-7.845576257280978
 10
80.74486944481051
 20
-7.87586985874141
 10
80.75387935121389
 20
-7.904891043785786
 10
80.76215179491439
 20
-7.932624135618651
 10
80.77011589104641
 20
-7.960447583671077
 10
80.77776533952947
 20
-7.988359240818837
 10
80.7847354147203
 20
-8.014954806127278
 10
80.79141097355892
 20
-8.041625704795048
 10
80.79778690144314
 20
-8.068369842638301
 10
80.80385899310533
 20
-8.095184689792921
 10
80.80932848537582
 20
-8.120650650979611
 10
80.81452005632792
 20
-8.146174635135809
 10
80.81943119764311
 20
-8.171753979833269
 10
80.82405963967431
 20
-8.197385965204437
 10
80.8284045409151
 20
-8.223067527682275
 10
80.83246558872181
 20
-8.248795476422429
 10
80.83624247131011
 20
-8.27456662037372
 10
80.83973490990961
 20
-8.300377766296508
 10
80.84294354484354
 20
-8.326225660024299
 10
80.84587003417061
 20
-8.352106979924766
 10
80.84851608875593
 20
-8.378018400865048
 10
80.85088342204752
 20
-8.403956598362706
 10
80.85308227848361
 20
-8.43136130591872
 10
80.85497655456501
 20
-8.458788749005631
 10
80.85656996207445
 20
-8.486235444944746
 10
80.85786621872292
 20
-8.513697910901036
 10
80.85886936997322
 20
-8.541172655394131
 10
80.85961365674682
 20
-8.57010285153539
 10
80.86004354156772
 20
-8.59903868093688
 10
80.86016604859258
 20
-8.625072524400076
  0
LWPOLYLINE
  5
B50
330
1E
100
AcDbEntity
  8
SK1
100
AcDbPolyline
 90
       14
 70
     0
 43
0.0
 10
-55.43983396939998
 20
4.176122603499986
 10
-55.37821391230319
 20
4.340093476837584
 10
-55.31272810604995
 20
4.508741360218565
 10
-55.24218220406468
 20
4.684655421717375
 10
-55.16749600938807
 20
4.865081000215797
 10
-55.08742544942887
 20
5.052586315391316
 10
-55.00178847051458
 20
5.247067153801054
 10
-54.91041088152659
 20
5.448417946794263
 10
-54.81312596464068
 20
5.656532874664714
 10
-54.70851941554547
 20
5.873886219630865
 10
-54.59635635761009
 20
6.100332358632145
 10
-54.47509738042247
 20
6.338278050195472
 10
-54.34444889380209
 20
6.587532322902764
 10
-54.23983873847877
 20
6.782321193567124
  0
LWPOLYLINE
  5
B60
330
1E
100
AcDbEntity
  8
1
100
AcDbPolyline
 90
       55
 70
     0
 43
0.0
 10
78.74135139360001
 20
0.7759599996999686
 10
78.68910493120352
 20
0.7642248800966836
 10
78.63672889626672
 20
0.7530701934396235
 10
78.58423226856793
 20
0.7424903519565813
 10
78.52869825493512
 20
0.7319402035068313
 10
78.4730497463527
 20
0.7220180039726376
 10
78.41729461220241
 20
0.7127181680609227
 10
78.36144036639381
 20
0.7040352407536325
 10
78.30549451983991
 20
0.6959637775964284
 10
78.24946441923131
 20
0.6884989130265767
 10
78.19335716529102
 20
0.6816366485270594
 10
78.1371798385555
 20
0.6753730567401335
 10
78.07797786396793
 20
0.6694223002367054
 10
78.01871384024592
 20
0.6641268649888154
 10
77.95939517622322
 20
0.6594836766929845
 10
77.90002927016232
 20
0.6554896797901244
 10
77.84062346397843
 20
0.6521420466164404
 10
77.78118485248821
 20
0.6494389488905778
 10
77.72172046279369
 20
0.6473788322008886
 10
77.66223732088281
 20
0.6459601521301427
 10
77.60274239143459
 20
0.6451819145885084
 10
77.54324254710731
 20
0.6450439515015565
 10
77.4837446529845
 20
0.6455461627862166
 10
77.42425558138261
 20
0.6466885394679056
 10
77.36478227389831
 20
0.6484719452986806
 10
77.30533171067472
 20
0.6508977295936456
 10
77.24591087233091
 20
0.6539672471351957
 10
77.1865268232954
 20
0.6576821800232037
 10
77.1271868779555
 20
0.6620451865702007
 10
77.06789839709198
 20
0.667059106278235
 10
77.00866875380992
 20
0.6727268076845686
 10
76.94950562919911
 20
0.6790518849296966
 10
76.89336956305772
 20
0.6856735672457896
 10
76.8373076279342
 20
0.6928962233303447
 10
76.78132676667893
 20
0.7007237247177987
 10
76.72543446813873
 20
0.7091608137450697
 10
76.66963848410351
 20
0.7182126521137257
 10
76.61394656804822
 20
0.7278844042127628
 10
76.55836666900491
 20
0.7381814921806207
 10
76.50582325715432
 20
0.7485192937408171
 10
76.45339578630943
 20
0.7594298078944678
 10
76.40109183436192
 20
0.7709187243153057
 10
76.34891933000179
 20
0.7829920350014099
 10
76.29688720812231
 20
0.7956565991150148
 10
76.24500458289542
 20
0.8089194303242715
 10
76.19614980943352
 20
0.8220010939402399
 10
76.14744446714742
 20
0.8356289229147416
 10
76.0988972106643
 20
0.8498101033365696
 10
76.05051680471051
 20
0.8645519653215695
 10
76.00231201408861
 20
0.8798618389980205
 10
75.95711169441861
 20
0.8947966731369112
 10
75.91208537802072
 20
0.9102478100930115
 10
75.86724357423761
 20
0.9262218801659836
 10
75.82259679241201
 20
0.9427255136554915
 10
75.81147614873991
 20
0.9469313916593812
  0
LINE
  5
B99
330
1E
100
AcDbEntity
  8
SK4
100
AcDbLine
 10
-23.43983396939998
 20
-3.435444191700006
 30
0.0
 11
-23.43983396939998
 21
10.4040997724
 31
0.0
  0
DIMENSION
  5
B9B
330
1E
100
AcDbEntity
  8
2
100
AcDbDimension
  2
*D4
 10
81.56016603060001
 20
-30.29025081000907
 30
0.0
 11
41.56773044230001
 21
-30.29025081000907
 31
0.0
 70
   160
 71
     5
 42
79.98487117659999
  3
ISO-25
100
AcDbAlignedDimension
 13
1.575294854000013
 23
-11.25
 33
0.0
 14
81.56016603060001
 24
-0.00000000000001
 34
0.0
 50
180.0
100
AcDbRotatedDimension
1001
ACAD
1000
DSTYLE
1002
{
1070
   271
1070
     0
1002
}
  0
DIMENSION
  5
B9C
330
1E
100
AcDbEntity
  8
SK2
100
AcDbDimension
  2
*D2
 10
81.56016603060001
 20
-40.31072906166865
 30
0.0
 11
29.06016603060001
 21
-40.31072906166865
 31
0.0
 70
   160
 71
     5
 42
105.0
  3
ISO-25
100
AcDbAlignedDimension
 13
-23.43983396939998
 23
0.0000000000000029
 33
0.0
 14
81.56016603060001
 24
-12.5
 34
0.0
 50
180.0
100
AcDbRotatedDimension
  0
ARC
  5
B9D
330
1E
100
AcDbEntity
  8
1
100
AcDbCircle
 10
-0.0000000000000014
 20
-11.69999999999999
 30
0.0
 40
0.8
100
AcDbArc
 50
314.4436571959249
 51
340.0
  0
ARC
  5
B9E
330
1E
100
AcDbEntity
  8
SK1
100
AcDbCircle
 10
0.0000000000000014
 20
11.69999999999999
 30
0.0
 40
0.8
100
AcDbArc
 50
45.55634280407493
 51
90.0
  0
LINE
  5
B9F
330
1E
100
AcDbEntity
  8
SK4
100
AcDbLine
 10
0.5601660306000161
 20
-0.0000000000000001
 30
0.0
 11
-60.7272194259831
 21
0.0000000000000074
 31
0.0
  0
TEXT
  5
16DB
330
1E
100
AcDbEntity
  8
6
100
AcDbText
 10
7.146621859003175
 20
-67.04401103295999
 30
0.0
 40
5.0
  1
15B1E025080W5R00
100
AcDbText
  0
LINE
  5
3E41
330
1E
100
AcDbEntity
  8
SK4
100
AcDbLine
 10
77.57442303060002
 20
4.085183115993276
 30
0.0
 11
77.57442303060002
 21
13.09481639138481
 31
0.0
  0
LINE
  5
3E42
330
1E
100
AcDbEntity
  8
SK4
100
AcDbLine
 10
72.923859321474
 20
8.50835
 30
0.0
 11
82.33715358745937
 21
8.508349999999998
 31
0.0
  0
TEXT
  5
49A5
330
1E
100
AcDbEntity
  8
6
100
AcDbText
 10
103.764496765913
 20
-5.10534355001846
 30
0.0
 40
3.5
  1
Z=3
 50
90.0
100
AcDbText
  0
TEXT
  5
49A6
330
1E
100
AcDbEntity
  8
6
100
AcDbText
 10
52.75151216258803
 20
21.26373060882213
 30
0.0
 40
2.5
  1
RHHW0802M0TN
100
AcDbText
  0
LINE
  5
4BEB
330
1E
100
AcDbEntity
  8
NOCUT
100
AcDbLine
 10
-0.0000000000000084
 20
12.49999999999999
 30
0.0
 11
0.0
 21
0.0
 31
0.0
  0
LINE
  5
4C2F
330
1E
100
AcDbEntity
  8
NOCUT
100
AcDbLine
 10
80.29999999999995
 20
0.0
 30
0.0
 11
0.0
 21
0.0
 31
0.0
  0
LINE
  5
4C37
330
1E
100
AcDbEntity
  8
NOCUT
100
AcDbLine
 10
74.64044495719986
 20
11.25
 30
0.0
 11
1.575294854000004
 21
11.25
 31
0.0
  0
LINE
  5
4C3A
330
1E
100
AcDbEntity
  8
NOCUT
100
AcDbLine
 10
80.29999999999995
 20
0.0
 30
0.0
 11
80.29999999999995
 21
8.800000000000011
 31
0.0
  0
ARC
  5
4C48
330
1E
100
AcDbEntity
  8
NOCUT
100
AcDbCircle
 10
77.0
 20
8.800000000000011
 30
0.0
 40
3.299999999999998
100
AcDbArc
 50
0.0001463760001032
 51
129.6218349071996
  0
ARC
  5
4C4C
330
1E
100
AcDbEntity
  8
NOCUT
100
AcDbCircle
 10
74.64044495719986
 20
11.65
 30
0.0
 40
0.4
100
AcDbArc
 50
270.0
 51
309.6218349071997
  0
SPLINE
  5
4C81
330
1E
100
AcDbEntity
  8
CUT
100
AcDbSpline
210
0.0
220
0.0
230
1.0
 70
     8
 71
     3
 72
    36
 73
    32
 74
    30
 42
0.0000000001
 43
0.0000000001
 44
0.0000000001
 12
0.9999999742904019
 22
-0.0002267580109913
 32
0.0
 13
-0.999999974111397
 23
-0.0002275460507992
 33
0.0
 40
0.0
 40
0.0
 40
0.0
 40
0.0
 40
0.432201810532953
 40
0.8644020273873785
 40
1.296602923768871
 40
1.728802352257655
 40
2.161001385561728
 40
2.593199492871346
 40
3.02539710191726
 40
3.457594179099632
 40
3.88979028806522
 40
4.321986606385967
 40
4.754183279243358
 40
5.186379733634195
 40
5.618576575807973
 40
6.050773166504853
 40
6.482971166504853
 40
6.915168751339619
 40
7.347367546753235
 40
7.779565896449329
 40
8.211765292027305
 40
8.643964180911837
 40
9.076164270326431
 40
9.508364977463751
 40
9.940564528655118
 40
10.37276600304639
 40
10.80496690996467
 40
11.23716818911714
 40
11.66936962054578
 40
12.10157016095846
 40
12.53377202562931
 40
12.53377202562931
 40
12.53377202562931
 40
12.53377202562931
 10
77.57442303060009
 20
4.516899999999992
 30
0.0
 10
77.71849029707382
 20
4.516867331592358
 30
0.0
 10
78.00686802479015
 20
4.532544239534618
 30
0.0
 10
78.43416944192462
 20
4.602581812940518
 30
0.0
 10
78.85144294270486
 20
4.718436632439384
 30
0.0
 10
79.25373181951107
 20
4.878716575016889
 30
0.0
 10
79.63633439688833
 20
5.081556353817619
 30
0.0
 10
79.99476466989253
 20
5.324568740047748
 30
0.0
 10
80.32481578976314
 20
5.604913693523069
 30
0.0
 10
80.62262310401713
 20
5.919297289509796
 30
0.0
 10
80.88469243463332
 20
6.26403735245988
 30
0.0
 10
81.10795148067351
 20
6.635091549196932
 30
0.0
 10
81.28978421937024
 20
7.028109175685798
 30
0.0
 10
81.42805572774584
 20
7.438483504478854
 30
0.0
 10
81.52114925408076
 20
7.861401527498591
 30
0.0
 10
81.56796942328572
 20
8.291906400608963
 30
0.0
 10
81.56796940541161
 20
8.724949933063815
 30
0.0
 10
81.52114914742478
 20
9.15545577199879
 30
0.0
 10
81.42805577827164
 20
9.578375484544974
 30
0.0
 10
81.28978400300551
 20
9.988752013120844
 30
0.0
 10
81.10795160816982
 20
10.38177243648547
 30
0.0
 10
80.8846919485917
 20
10.75282985645559
 30
0.0
 10
80.62262317066515
 20
11.09757447661161
 30
0.0
 10
80.3248166416275
 20
11.41196337509419
 30
0.0
 10
79.99476377411271
 20
11.69231073285262
 30
0.0
 10
79.63633532244803
 20
11.93533005421438
 30
0.0
 10
79.25373161333688
 20
12.13817278600572
 30
0.0
 10
78.85144373935553
 20
12.29845909668061
 30
0.0
 10
78.43416944721878
 20
12.41431490717992
 30
0.0
 10
78.00686820129948
 20
12.48435491262828
 30
0.0
 10
77.718490315094
 20
12.50003278194248
 30
0.0
 10
77.57442303060009
 20
12.5
 30
0.0
 11
77.57442303060009
 21
4.516899999999992
 31
0.0
 11
78.00599103060005
 21
4.540298000000006
 31
0.0
 11
78.43249803060006
 21
4.610218000000003
 31
0.0
 11
78.84894603060002
 21
4.725841
 31
0.0
 11
79.25045103060006
 21
4.885809999999992
 31
0.0
 11
79.63230603060003
 21
5.088251999999981
 31
0.0
 11
79.99003503060004
 21
5.330791000000004
 31
0.0
 11
80.31944203060005
 21
5.610587000000008
 31
0.0
 11
80.61666703060003
 21
5.924356999999987
 31
0.0
 11
80.87822403060004
 21
6.268422999999982
 31
0.0
 11
81.10104703060006
 21
6.638751999999982
 31
0.0
 11
81.28252403060001
 21
7.031001999999999
 31
0.0
 11
81.42052603060006
 21
7.440573999999998
 31
0.0
 11
81.51343703060001
 21
7.86266599999999
 31
0.0
 11
81.56016603060004
 21
8.292328999999995
 31
0.0
 11
81.56016603060004
 21
8.724526999999994
 31
0.0
 11
81.51343703060001
 21
9.154190999999997
 31
0.0
 11
81.42052603060006
 21
9.576284999999984
 31
0.0
 11
81.28252403060001
 21
9.985859000000003
 31
0.0
 11
81.10104703060006
 21
10.37811199999998
 31
0.0
 11
80.87822403060004
 21
10.748444
 31
0.0
 11
80.61666703060003
 21
11.09251499999998
 31
0.0
 11
80.31944203060005
 21
11.40628999999998
 31
0.0
 11
79.99003503060004
 21
11.68608900000001
 31
0.0
 11
79.63230603060003
 21
11.92863399999998
 31
0.0
 11
79.25045103060006
 21
12.13107999999999
 31
0.0
 11
78.84894603060002
 21
12.29105399999999
 31
0.0
 11
78.43249803060006
 21
12.40667899999999
 31
0.0
 11
78.00599103060005
 21
12.47660099999998
 31
0.0
 11
77.57442303060009
 21
12.5
 31
0.0
  0
SPLINE
  5
4C84
330
1E
100
AcDbEntity
  8
CUT
100
AcDbSpline
210
0.0
220
0.0
230
1.0
 70
     8
 71
     3
 72
    36
 73
    32
 74
    30
 42
0.0000000001
 43
0.0000000001
 44
0.0000000001
 12
-0.9999999742904019
 22
-0.0002267580109913
 32
0.0
 13
0.999999974111397
 23
-0.0002275460507992
 33
0.0
 40
0.0
 40
0.0
 40
0.0
 40
0.0
 40
0.4322018105329957
 40
0.8644020273874211
 40
1.296602923768872
 40
1.728802352257657
 40
2.161001385561729
 40
2.593199492871347
 40
3.025397101917261
 40
3.457594179099652
 40
3.889790288065232
 40
4.321986606385965
 40
4.754183279243373
 40
5.18637973363421
 40
5.618576575807982
 40
6.050773166504862
 40
6.482971166504862
 40
6.915168751339628
 40
7.347367546753239
 40
7.779565896449333
 40
8.211765292027326
 40
8.643964180911844
 40
9.076164270326431
 40
9.50836497746377
 40
9.940564528655137
 40
10.37276600304641
 40
10.80496690996469
 40
11.23716818911716
 40
11.66936962054576
 40
12.10157016095844
 40
12.53377202562934
 40
12.53377202562934
 40
12.53377202562934
 40
12.53377202562934
 10
77.57442303060009
 20
4.516899999999992
 30
0.0
 10
77.43035576412633
 20
4.516867331592358
 30
0.0
 10
77.14197803641003
 20
4.532544239534617
 30
0.0
 10
76.71467661927554
 20
4.602581812940511
 30
0.0
 10
76.2974031184953
 20
4.718436632439395
 30
0.0
 10
75.89511424168911
 20
4.878716575016886
 30
0.0
 10
75.51251166431184
 20
5.081556353817621
 30
0.0
 10
75.15408139130764
 20
5.324568740047745
 30
0.0
 10
74.82403027143703
 20
5.604913693523077
 30
0.0
 10
74.52622295718303
 20
5.919297289509786
 30
0.0
 10
74.26415362656682
 20
6.264037352459874
 30
0.0
 10
74.0408945805267
 20
6.635091549196953
 30
0.0
 10
73.8590618418299
 20
7.028109175685784
 30
0.0
 10
73.72079033345428
 20
7.438483504478853
 30
0.0
 10
73.62769680711945
 20
7.861401527498594
 30
0.0
 10
73.58087663791447
 20
8.291906400608963
 30
0.0
 10
73.58087665578853
 20
8.724949933063815
 30
0.0
 10
73.62769691377542
 20
9.155455771998791
 30
0.0
 10
73.72079028292848
 20
9.578375484544976
 30
0.0
 10
73.85906205819465
 20
9.988752013120857
 30
0.0
 10
74.04089445303039
 20
10.38177243648545
 30
0.0
 10
74.26415411260848
 20
10.75282985645559
 30
0.0
 10
74.526222890535
 20
11.09757447661162
 30
0.0
 10
74.82402941957268
 20
11.41196337509418
 30
0.0
 10
75.15408228708745
 20
11.69231073285262
 30
0.0
 10
75.51251073875215
 20
11.93533005421438
 30
0.0
 10
75.89511444786328
 20
12.13817278600572
 30
0.0
 10
76.29740232184463
 20
12.2984590966806
 30
0.0
 10
76.71467661398132
 20
12.41431490717992
 30
0.0
 10
77.1419778599007
 20
12.48435491262828
 30
0.0
 10
77.43035574610615
 20
12.50003278194248
 30
0.0
 10
77.57442303060009
 20
12.5
 30
0.0
 11
77.57442303060009
 21
4.516899999999992
 31
0.0
 11
77.14285503060009
 21
4.540298000000006
 31
0.0
 11
76.71634803060007
 21
4.610218000000003
 31
0.0
 11
76.29990003060015
 21
4.725841
 31
0.0
 11
75.89839503060011
 21
4.885809999999992
 31
0.0
 11
75.51654003060014
 21
5.088251999999981
 31
0.0
 11
75.15881103060014
 21
5.330791000000004
 31
0.0
 11
74.82940403060013
 21
5.610587000000008
 31
0.0
 11
74.53217903060011
 21
5.924356999999987
 31
0.0
 11
74.27062203060012
 21
6.268422999999982
 31
0.0
 11
74.04779903060013
 21
6.638751999999982
 31
0.0
 11
73.86632203060013
 21
7.031001999999999
 31
0.0
 11
73.72832003060008
 21
7.440573999999998
 31
0.0
 11
73.63540903060016
 21
7.86266599999999
 31
0.0
 11
73.58868003060013
 21
8.292328999999995
 31
0.0
 11
73.58868003060013
 21
8.724526999999994
 31
0.0
 11
73.63540903060016
 21
9.154190999999997
 31
0.0
 11
73.72832003060008
 21
9.576284999999984
 31
0.0
 11
73.86632203060013
 21
9.985859000000003
 31
0.0
 11
74.04779903060013
 21
10.37811199999998
 31
0.0
 11
74.27062203060012
 21
10.748444
 31
0.0
 11
74.53217903060011
 21
11.09251499999998
 31
0.0
 11
74.82940403060013
 21
11.40628999999998
 31
0.0
 11
75.15881103060014
 21
11.68608900000001
 31
0.0
 11
75.51654003060014
 21
11.92863399999998
 31
0.0
 11
75.89839503060011
 21
12.13107999999999
 31
0.0
 11
76.29990003060015
 21
12.29105399999999
 31
0.0
 11
76.71634803060007
 21
12.40667899999999
 31
0.0
 11
77.14285503060009
 21
12.47660099999998
 31
0.0
 11
77.57442303060009
 21
12.5
 31
0.0
  0
ARC
  5
4C8E
330
1E
100
AcDbEntity
  8
NOCUT
100
AcDbCircle
 10
-0.0000000000000084
 20
11.69999999999999
 30
0.0
 40
0.8
100
AcDbArc
 50
45.55634280407486
 51
90.0
  0
ARC
  5
4C8F
330
1E
100
AcDbEntity
  8
NOCUT
100
AcDbCircle
 10
1.575294854000004
 20
12.05
 30
0.0
 40
0.8
100
AcDbArc
 50
199.9999999997998
 51
270.0
  0
ARC
  5
4C90
330
1E
100
AcDbEntity
  8
NOCUT
100
AcDbCircle
 10
-0.0000000000000084
 20
11.69999999999999
 30
0.0
 40
0.8
100
AcDbArc
 50
20.00000000000003
 51
45.55634280407486
  0
LINE
  5
4C91
330
1E
100
AcDbEntity
  8
NOCUT
100
AcDbLine
 10
0.8235407573000006
 20
11.77638388529999
 30
0.0
 11
0.7517540966000161
 21
11.9736161146
 31
0.0
  0
LWPOLYLINE
  5
4DF6
330
1E
100
AcDbEntity
  8
1
100
AcDbPolyline
 90
        3
 70
     1
 43
0.0
 10
0.0
 20
0.0
 10
-2.950972054112583
 20
0.0
 42
0.4142135623730966
 10
0.0
 20
-2.950972054112583
  0
HATCH
  5
4DF7
330
1E
100
AcDbEntity
  8
1
100
AcDbHatch
 10
0.0
 20
0.0
 30
0.0
210
0.0
220
0.0
230
1.0
  2
SOLID
 70
     1
 71
     0
 91
        2
 92
        7
 72
     1
 73
     1
 93
        3
 10
0.0
 20
0.0
 42
0.0
 10
2.950972054112583
 20
0.0
 42
0.4142135623730966
 10
0.0
 20
2.950972054112611
 42
0.0
 97
        0
 92
        7
 72
     1
 73
     1
 93
        3
 10
0.0
 20
-2.950972054112496
 42
0.0
 10
0.0
 20
0.0
 42
0.0
 10
-2.950972054112583
 20
0.0
 42
0.4142135623730953
 97
        0
 75
     0
 76
     1
 47
0.1190009775223266
 98
        2
 10
0.7445530588119027
 20
0.9212244733764975
 10
-1.279464601852936
 20
-1.696796923046291
  0
CIRCLE
  5
4DF8
330
1E
100
AcDbEntity
  8
1
100
AcDbCircle
 10
0.0
 20
0.0
 30
0.0
 40
2.950972054112601
  0
LINE
  5
4DF9
330
1E
100
AcDbEntity
  8
1
100
AcDbLine
 10
0.0
 20
2.950972054112611
 30
0.0
 11
0.0
 21
-2.950972054112583
 31
0.0
  0
LINE
  5
4DFA
330
1E
100
AcDbEntity
  8
1
100
AcDbLine
 10
-2.950972054112837
 20
0.0
 30
0.0
 11
2.950972054112583
 21
0.0
 31
0.0
  0
LWPOLYLINE
  5
4DFB
330
1E
100
AcDbEntity
  8
1
100
AcDbPolyline
 90
        3
 70
     1
 43
0.0
 10
0.0
 20
2.950972054112611
 10
0.0
 20
0.0
 10
2.950972054112583
 20
0.0
 42
0.4142135623730966
  0
ENDSEC
  0
SECTION
  2
OBJECTS
  0
DICTIONARY
  5
C
330
0
100
AcDbDictionary
281
     1
  3
ACAD_COLOR
350
4F7B
  3
ACAD_GROUP
350
D
  3
ACAD_LAYOUT
350
19
  3
ACAD_MATERIAL
350
4F7A
  3
ACAD_MLINESTYLE
350
16
  3
ACAD_PLOTSETTINGS
350
18
  3
ACAD_PLOTSTYLENAME
350
47C8
  3
ACAD_TABLESTYLE
350
4F7C
  3
ACDBHEADERROUNDTRIPXREC
350
4F8D
  3
AcDbVariableDictionary
350
4F88
1001
ACAD
1000
TREAT_AS_HARD
1070
     0
1000
TREAT_AS_HARD
1070
     0
  0
DICTIONARY
  5
3192
330
1E
100
AcDbDictionary
280
     1
281
     1
  3
ACAD_LAYOUTSELFREF
360
3E45
1001
ACAD
1000
TREAT_AS_HARD
1070
     0
  0
DICTIONARY
  5
3190
330
1A
100
AcDbDictionary
280
     1
281
     1
  3
ACAD_LAYOUTSELFREF
360
3E44
1001
ACAD
1000
TREAT_AS_HARD
1070
     0
  0
DICTIONARY
  5
4F7B
102
{ACAD_REACTORS
330
C
102
}
330
C
100
AcDbDictionary
281
     1
  0
DICTIONARY
  5
D
102
{ACAD_REACTORS
330
C
102
}
330
C
100
AcDbDictionary
281
     1
1001
ACAD
1000
TREAT_AS_HARD
1070
     0
1000
TREAT_AS_HARD
1070
     0
  0
DICTIONARY
  5
19
102
{ACAD_REACTORS
330
C
102
}
330
C
100
AcDbDictionary
281
     1
  3
Layout1
350
47CB
  3
Model
350
47CA
1001
ACAD
1000
TREAT_AS_HARD
1070
     0
1000
TREAT_AS_HARD
1070
     0
  0
DICTIONARY
  5
4F7A
102
{ACAD_REACTORS
330
C
102
}
330
C
100
AcDbDictionary
281
     1
  0
DICTIONARY
  5
16
102
{ACAD_REACTORS
330
C
102
}
330
C
100
AcDbDictionary
281
     1
  3
STANDARD
350
17
1001
ACAD
1000
TREAT_AS_HARD
1070
     0
1000
TREAT_AS_HARD
1070
     0
  0
DICTIONARY
  5
18
102
{ACAD_REACTORS
330
C
102
}
330
C
100
AcDbDictionary
281
     1
1001
ACAD
1000
TREAT_AS_HARD
1070
     0
1000
TREAT_AS_HARD
1070
     0
  0
ACDBDICTIONARYWDFLT
  5
47C8
102
{ACAD_REACTORS
330
C
102
}
330
C
100
AcDbDictionary
281
     1
  3
Normal
350
47C9
100
AcDbDictionaryWithDefault
340
47C9
  0
DICTIONARY
  5
4F7C
102
{ACAD_REACTORS
330
C
102
}
330
C
100
AcDbDictionary
281
     1
  3
Standard
350
4F7D
  0
DICTIONARY
  5
4F8D
102
{ACAD_REACTORS
330
C
102
}
330
C
100
AcDbDictionary
281
     1
  0
DICTIONARY
  5
4F88
102
{ACAD_REACTORS
330
C
102
}
330
C
100
AcDbDictionary
281
     1
  3
CTABLESTYLE
350
4F89
  3
DIMASSOC
350
4F8A
  3
PROJECTNAME
350
4F8B
  0
XRECORD
  5
3E45
102
{ACAD_REACTORS
330
3192
102
}
330
3192
100
AcDbXrecord
280
     1
340
1E
  0
XRECORD
  5
3E44
102
{ACAD_REACTORS
330
3190
102
}
330
3190
100
AcDbXrecord
280
     1
340
1A
  0
LAYOUT
  5
47CB
102
{ACAD_XDICTIONARY
360
4F90
102
}
102
{ACAD_REACTORS
330
19
102
}
330
19
100
AcDbPlotSettings
  1

  2
\\ingdom02\ITB2
  4

  6

 40
0.0
 41
0.0
 42
0.0
 43
0.0
 44
0.0
 45
0.0
 46
0.0
 47
0.0
 48
0.0
 49
0.0
140
0.0
141
0.0
142
1.0
143
1.0
 70
   688
 72
     0
 73
     0
 74
     5
  7

 75
    16
147
1.0
148
0.0
149
0.0
100
AcDbLayout
  1
Layout1
 70
     1
 71
     1
 10
0.0
 20
0.0
 11
12.0
 21
9.0
 12
0.0
 22
0.0
 32
0.0
 14
100.0
 24
100.0
 34
100.0
 15
-100.0
 25
-100.0
 35
-100.0
146
0.0
 13
0.0
 23
0.0
 33
0.0
 16
1.0
 26
0.0
 36
0.0
 17
0.0
 27
1.0
 37
0.0
 76
     0
330
1A
  0
LAYOUT
  5
47CA
102
{ACAD_XDICTIONARY
360
4F8E
102
}
102
{ACAD_REACTORS
330
19
102
}
330
19
100
AcDbPlotSettings
  1

  2
\\ingdom02\ITB2
  4

  6

 40
0.0
 41
0.0
 42
0.0
 43
0.0
 44
0.0
 45
0.0
 46
0.0
 47
0.0
 48
0.0
 49
0.0
140
0.0
141
0.0
142
1.0
143
1.0
 70
  1712
 72
     0
 73
     0
 74
     0
  7

 75
     0
147
1.0
148
0.0
149
0.0
100
AcDbLayout
  1
Model
 70
     1
 71
     0
 10
0.0
 20
0.0
 11
12.0
 21
9.0
 12
0.0
 22
0.0
 32
0.0
 14
0.0
 24
0.0
 34
0.0
 15
0.0
 25
0.0
 35
0.0
146
0.0
 13
0.0
 23
0.0
 33
0.0
 16
1.0
 26
0.0
 36
0.0
 17
0.0
 27
1.0
 37
0.0
 76
     0
330
1E
  0
MLINESTYLE
  5
17
102
{ACAD_REACTORS
330
16
102
}
330
16
100
AcDbMlineStyle
  2
STANDARD
 70
     0
  3

 62
   256
 51
90.0
 52
90.0
 71
     2
 49
0.5
 62
   256
  6
BYLAYER
 49
-0.5
 62
   256
  6
BYLAYER
  0
ACDBPLACEHOLDER
  5
47C9
102
{ACAD_REACTORS
330
47C8
102
}
330
47C8
  0
TABLESTYLE
  5
4F7D
102
{ACAD_REACTORS
330
4F7C
102
}
330
4F7C
100
AcDbTableStyle
  3
Standard
 70
     0
 71
     0
 40
0.06
 41
0.06
280
     0
281
     0
  7
STANDARD
140
0.18
170
     2
 62
     0
 63
     7
283
     0
274
    -2
284
     1
 64
     0
275
    -2
285
     1
 65
     0
276
    -2
286
     1
 66
     0
277
    -2
287
     1
 67
     0
278
    -2
288
     1
 68
     0
279
    -2
289
     1
 69
     0
  7
STANDARD
140
0.25
170
     5
 62
     0
 63
     7
283
     0
274
    -2
284
     1
 64
     0
275
    -2
285
     1
 65
     0
276
    -2
286
     1
 66
     0
277
    -2
287
     1
 67
     0
278
    -2
288
     1
 68
     0
279
    -2
289
     1
 69
     0
  7
STANDARD
140
0.18
170
     5
 62
     0
 63
     7
283
     0
274
    -2
284
     1
 64
     0
275
    -2
285
     1
 65
     0
276
    -2
286
     1
 66
     0
277
    -2
287
     1
 67
     0
278
    -2
288
     1
 68
     0
279
    -2
289
     1
 69
     0
  0
DICTIONARYVAR
  5
4F89
102
{ACAD_REACTORS
330
4F88
102
}
330
4F88
100
DictionaryVariables
280
     0
  1
STANDARD
  0
DICTIONARYVAR
  5
4F8A
102
{ACAD_REACTORS
330
4F88
102
}
330
4F88
100
DictionaryVariables
280
     0
  1
1
  0
DICTIONARYVAR
  5
4F8B
102
{ACAD_REACTORS
330
4F88
102
}
330
4F88
100
DictionaryVariables
280
     0
  1

  0
DICTIONARY
  5
4F90
330
47CB
100
AcDbDictionary
280
     1
281
     1
  3
ACAD_XREC_ROUNDTRIP
360
4F91
  0
DICTIONARY
  5
4F8E
330
47CA
100
AcDbDictionary
280
     1
281
     1
  3
ACAD_XREC_ROUNDTRIP
360
4F8F
  0
XRECORD
  5
4F91
102
{ACAD_REACTORS
330
4F90
102
}
330
4F90
100
AcDbXrecord
280
     1
102
SHADEPLOT
 70
     0
102
SHADEPLOTRESLEVEL
 70
     2
102
SHADEPLOTCUSTOMDPI
 70
   300
  0
XRECORD
  5
4F8F
102
{ACAD_REACTORS
330
4F8E
102
}
330
4F8E
100
AcDbXrecord
280
     1
102
SHADEPLOT
 70
     0
102
SHADEPLOTRESLEVEL
 70
     2
102
SHADEPLOTCUSTOMDPI
 70
   300
  0
ENDSEC
  0
EOF
