  0
SECTION
  2
HEADER
  9
$ACADVER
  1
AC1015
  9
$ACADMAINTVER
 70
    20
  9
$DWGCODEPAGE
  3
ANSI_1252
  9
$INSBASE
 10
0.0
 20
0.0
 30
0.0
  9
$EXTMIN
 10
-74.31753564951623
 20
-62.57064038772909
 30
-0.0015258207003583
  9
$EXTMAX
 10
84.150139428687
 20
22.25035802799607
 30
0.0000000349246037
  9
$LIMMIN
 10
0.0
 20
0.0
  9
$LIMMAX
 10
594.0
 20
420.0
  9
$ORTHOMODE
 70
     0
  9
$REGENMODE
 70
     1
  9
$FILLMODE
 70
     1
  9
$QTEXTMODE
 70
     0
  9
$MIRRTEXT
 70
     1
  9
$LTSCALE
 40
10.0
  9
$ATTMODE
 70
     1
  9
$TEXTSIZE
 40
0.2
  9
$TRACEWID
 40
0.05
  9
$TEXTSTYLE
  7
STANDARD
  9
$CLAYER
  8
0
  9
$CELTYPE
  6
BYLAYER
  9
$CECOLOR
 62
   256
  9
$CELTSCALE
 40
1.0
  9
$DISPSILH
 70
     0
  9
$DIMSCALE
 40
1.0
  9
$DIMASZ
 40
2.5
  9
$DIMEXO
 40
3.712499999999999
  9
$DIMDLI
 40
22.572
  9
$DIMRND
 40
0.0
  9
$DIMDLE
 40
0.0
  9
$DIMEXE
 40
10.692
  9
$DIMTP
 40
0.01
  9
$DIMTM
 40
0.01
  9
$DIMTXT
 40
3.5
  9
$DIMCEN
 40
5.346
  9
$DIMTSZ
 40
0.0
  9
$DIMTOL
 70
     1
  9
$DIMLIM
 70
     0
  9
$DIMTIH
 70
     1
  9
$DIMTOH
 70
     1
  9
$DIMSE1
 70
     0
  9
$DIMSE2
 70
     0
  9
$DIMTAD
 70
     0
  9
$DIMZIN
 70
     0
  9
$DIMBLK
  1
_FILLED
  9
$DIMASO
 70
     1
  9
$DIMSHO
 70
     1
  9
$DIMPOST
  1

  9
$DIMAPOST
  1

  9
$DIMALT
 70
     0
  9
$DIMALTD
 70
     2
  9
$DIMALTF
 40
25.4
  9
$DIMLFAC
 40
1.0
  9
$DIMTOFL
 70
     0
  9
$DIMTVP
 40
0.0
  9
$DIMTIX
 70
     0
  9
$DIMSOXD
 70
     0
  9
$DIMSAH
 70
     0
  9
$DIMBLK1
  1

  9
$DIMBLK2
  1

  9
$DIMSTYLE
  2
STANDARD
  9
$DIMCLRD
 70
     0
  9
$DIMCLRE
 70
     0
  9
$DIMCLRT
 70
     0
  9
$DIMTFAC
 40
1.0
  9
$DIMGAP
 40
0.09
  9
$DIMJUST
 70
     0
  9
$DIMSD1
 70
     0
  9
$DIMSD2
 70
     0
  9
$DIMTOLJ
 70
     1
  9
$DIMTZIN
 70
     0
  9
$DIMALTZ
 70
     0
  9
$DIMALTTZ
 70
     0
  9
$DIMUPT
 70
     0
  9
$DIMDEC
 70
     4
  9
$DIMTDEC
 70
     4
  9
$DIMALTU
 70
     2
  9
$DIMALTTD
 70
     2
  9
$DIMTXSTY
  7
STANDARD
  9
$DIMAUNIT
 70
     0
  9
$DIMADEC
 70
     0
  9
$DIMALTRND
 40
0.0
  9
$DIMAZIN
 70
     0
  9
$DIMDSEP
 70
    46
  9
$DIMATFIT
 70
     3
  9
$DIMFRAC
 70
     0
  9
$DIMLDRBLK
  1
_FILLED
  9
$DIMLUNIT
 70
     2
  9
$DIMLWD
 70
    -2
  9
$DIMLWE
 70
    -2
  9
$DIMTMOVE
 70
     0
  9
$LUNITS
 70
     2
  9
$LUPREC
 70
     4
  9
$SKETCHINC
 40
0.1
  9
$FILLETRAD
 40
0.0
  9
$AUNITS
 70
     0
  9
$AUPREC
 70
     0
  9
$MENU
  1

  9
$ELEVATION
 40
0.0
  9
$PELEVATION
 40
0.0
  9
$THICKNESS
 40
0.0
  9
$LIMCHECK
 70
     0
  9
$CHAMFERA
 40
0.0
  9
$CHAMFERB
 40
0.0
  9
$CHAMFERC
 40
0.0
  9
$CHAMFERD
 40
0.0
  9
$SKPOLY
 70
     0
  9
$TDCREATE
 40
2453413.498450891
  9
$TDUCREATE
 40
2453413.415117558
  9
$TDUPDATE
 40
2453909.275479572
  9
$TDUUPDATE
 40
2453909.192146239
  9
$TDINDWG
 40
0.1130443519
  9
$TDUSRTIMER
 40
0.0379253472
  9
$USRTIMER
 70
     1
  9
$ANGBASE
 50
0.0
  9
$ANGDIR
 70
     0
  9
$PDMODE
 70
     0
  9
$PDSIZE
 40
0.3125
  9
$PLINEWID
 40
0.0
  9
$SPLFRAME
 70
     0
  9
$SPLINETYPE
 70
     6
  9
$SPLINESEGS
 70
     8
  9
$HANDSEED
  5
52E2
  9
$SURFTAB1
 70
     6
  9
$SURFTAB2
 70
     6
  9
$SURFTYPE
 70
     6
  9
$SURFU
 70
     6
  9
$SURFV
 70
     6
  9
$UCSBASE
  2

  9
$UCSNAME
  2

  9
$UCSORG
 10
0.0
 20
0.0
 30
0.0
  9
$UCSXDIR
 10
1.0
 20
0.0
 30
0.0
  9
$UCSYDIR
 10
0.0
 20
1.0
 30
0.0
  9
$UCSORTHOREF
  2

  9
$UCSORTHOVIEW
 70
     0
  9
$UCSORGTOP
 10
0.0
 20
0.0
 30
0.0
  9
$UCSORGBOTTOM
 10
0.0
 20
0.0
 30
0.0
  9
$UCSORGLEFT
 10
0.0
 20
0.0
 30
0.0
  9
$UCSORGRIGHT
 10
0.0
 20
0.0
 30
0.0
  9
$UCSORGFRONT
 10
0.0
 20
0.0
 30
0.0
  9
$UCSORGBACK
 10
0.0
 20
0.0
 30
0.0
  9
$PUCSBASE
  2

  9
$PUCSNAME
  2

  9
$PUCSORG
 10
0.0
 20
0.0
 30
0.0
  9
$PUCSXDIR
 10
1.0
 20
0.0
 30
0.0
  9
$PUCSYDIR
 10
0.0
 20
1.0
 30
0.0
  9
$PUCSORTHOREF
  2

  9
$PUCSORTHOVIEW
 70
     0
  9
$PUCSORGTOP
 10
0.0
 20
0.0
 30
0.0
  9
$PUCSORGBOTTOM
 10
0.0
 20
0.0
 30
0.0
  9
$PUCSORGLEFT
 10
0.0
 20
0.0
 30
0.0
  9
$PUCSORGRIGHT
 10
0.0
 20
0.0
 30
0.0
  9
$PUCSORGFRONT
 10
0.0
 20
0.0
 30
0.0
  9
$PUCSORGBACK
 10
0.0
 20
0.0
 30
0.0
  9
$USERI1
 70
     0
  9
$USERI2
 70
     0
  9
$USERI3
 70
     0
  9
$USERI4
 70
     0
  9
$USERI5
 70
     0
  9
$USERR1
 40
0.0
  9
$USERR2
 40
0.0
  9
$USERR3
 40
0.0
  9
$USERR4
 40
0.0
  9
$USERR5
 40
0.0
  9
$WORLDVIEW
 70
     1
  9
$SHADEDGE
 70
     3
  9
$SHADEDIF
 70
    70
  9
$TILEMODE
 70
     1
  9
$MAXACTVP
 70
    64
  9
$PINSBASE
 10
0.0
 20
0.0
 30
0.0
  9
$PLIMCHECK
 70
     0
  9
$PEXTMIN
 10
100.0
 20
100.0
 30
100.0
  9
$PEXTMAX
 10
-100.0
 20
-100.0
 30
-100.0
  9
$PLIMMIN
 10
0.0
 20
0.0
  9
$PLIMMAX
 10
12.0
 20
9.0
  9
$UNITMODE
 70
     0
  9
$VISRETAIN
 70
     1
  9
$PLINEGEN
 70
     1
  9
$PSLTSCALE
 70
     1
  9
$TREEDEPTH
 70
  3020
  9
$CMLSTYLE
  2
STANDARD
  9
$CMLJUST
 70
     0
  9
$CMLSCALE
 40
1.0
  9
$PROXYGRAPHICS
 70
     1
  9
$MEASUREMENT
 70
     0
  9
$CELWEIGHT
370
    -1
  9
$ENDCAPS
280
     0
  9
$JOINSTYLE
280
     0
  9
$LWDISPLAY
290
     0
  9
$INSUNITS
 70
     0
  9
$HYPERLINKBASE
  1

  9
$STYLESHEET
  1

  9
$XEDIT
290
     1
  9
$CEPSNTYPE
380
     0
  9
$PSTYLEMODE
290
     1
  9
$FINGERPRINTGUID
  2
{229644C8-B27D-40F8-AE09-B76AFC459ACB}
  9
$VERSIONGUID
  2
{13A8D471-77DF-471A-83BD-6CAA0A1F0887}
  9
$EXTNAMES
290
     1
  9
$PSVPSCALE
 40
0.0
  9
$OLESTARTUP
290
     0
  0
ENDSEC
  0
SECTION
  2
CLASSES
  0
CLASS
  1
ACDBDICTIONARYWDFLT
  2
AcDbDictionaryWithDefault
  3
ObjectDBX Classes
 90
        0
280
     0
281
     0
  0
CLASS
  1
ACDBPLACEHOLDER
  2
AcDbPlaceHolder
  3
ObjectDBX Classes
 90
        0
280
     0
281
     0
  0
CLASS
  1
LAYOUT
  2
AcDbLayout
  3
ObjectDBX Classes
 90
        0
280
     0
281
     0
  0
CLASS
  1
TABLESTYLE
  2
AcDbTableStyle
  3
ObjectDBX Classes
 90
     2047
280
     0
281
     0
  0
CLASS
  1
DICTIONARYVAR
  2
AcDbDictionaryVar
  3
ObjectDBX Classes
 90
        0
280
     0
281
     0
  0
ENDSEC
  0
SECTION
  2
TABLES
  0
TABLE
  2
VPORT
  5
8
330
0
100
AcDbSymbolTable
 70
     3
  0
VPORT
  5
52DC
330
8
100
AcDbSymbolTableRecord
100
AcDbViewportTableRecord
  2
*Active
 70
     0
 10
0.0
 20
0.0
 11
1.0
 21
1.0
 12
4.916301889585383
 22
-20.16014117986651
 13
0.0
 23
0.0
 14
1.0
 24
1.0
 15
0.0
 25
0.0
 16
0.0
 26
0.0
 36
1.0
 17
0.0
 27
0.0
 37
0.0
 40
103.9251582523053
 41
1.532401524777636
 42
50.0
 43
0.0
 44
0.0
 50
0.0
 51
0.0
 71
     0
 72
   100
 73
     1
 74
     1
 75
     0
 76
     0
 77
     0
 78
     0
281
     0
 65
     1
110
0.0
120
0.0
130
0.0
111
1.0
121
0.0
131
0.0
112
0.0
122
1.0
132
0.0
 79
     0
146
0.0
  0
ENDTAB
  0
TABLE
  2
LTYPE
  5
5
330
0
100
AcDbSymbolTable
 70
     2
  0
LTYPE
  5
13
330
5
100
AcDbSymbolTableRecord
100
AcDbLinetypeTableRecord
  2
BYBLOCK
 70
     0
  3

 72
    65
 73
     0
 40
0.0
  0
LTYPE
  5
14
330
5
100
AcDbSymbolTableRecord
100
AcDbLinetypeTableRecord
  2
BYLAYER
 70
     0
  3

 72
    65
 73
     0
 40
0.0
  0
LTYPE
  5
15
330
5
100
AcDbSymbolTableRecord
100
AcDbLinetypeTableRecord
  2
CONTINUOUS
 70
     0
  3
Solid line
 72
    65
 73
     0
 40
0.0
  0
LTYPE
  5
2E
330
5
100
AcDbSymbolTableRecord
100
AcDbLinetypeTableRecord
  2
CENTER
 70
     0
  3
____ _ ____ _ ____ _ ____ _ ____ _ ____ _ ____
 72
    65
 73
     4
 40
0.6
 49
0.375
 74
     0
 49
-0.075
 74
     0
 49
0.075
 74
     0
 49
-0.075
 74
     0
  0
ENDTAB
  0
TABLE
  2
LAYER
  5
2
330
0
100
AcDbSymbolTable
 70
    11
  0
LAYER
  5
10
330
2
100
AcDbSymbolTableRecord
100
AcDbLayerTableRecord
  2
1
 70
     0
 62
     4
  6
CONTINUOUS
370
    -3
390
4B2A
  0
LAYER
  5
31
330
2
100
AcDbSymbolTableRecord
100
AcDbLayerTableRecord
  2
2
 70
     0
 62
     7
  6
CONTINUOUS
370
    -3
390
4B2A
  0
LAYER
  5
33
330
2
100
AcDbSymbolTableRecord
100
AcDbLayerTableRecord
  2
4
 70
     0
 62
     2
  6
CENTER
370
    -3
390
4B2A
  0
LAYER
  5
36
330
2
100
AcDbSymbolTableRecord
100
AcDbLayerTableRecord
  2
0
 70
     0
 62
     7
  6
CONTINUOUS
370
    -3
390
4B2A
  0
LAYER
  5
37
330
2
100
AcDbSymbolTableRecord
100
AcDbLayerTableRecord
  2
DEFPOINTS
 70
     0
 62
     7
  6
CONTINUOUS
290
     0
370
    -3
390
4B2A
  0
LAYER
  5
1739
330
2
100
AcDbSymbolTableRecord
100
AcDbLayerTableRecord
  2
SK1
 70
     0
 62
     4
  6
CONTINUOUS
370
    -3
390
4B2A
  0
LAYER
  5
173A
330
2
100
AcDbSymbolTableRecord
100
AcDbLayerTableRecord
  2
SK4
 70
     0
 62
     2
  6
CENTER
370
    -3
390
4B2A
  0
LAYER
  5
173C
330
2
100
AcDbSymbolTableRecord
100
AcDbLayerTableRecord
  2
SK2
 70
     0
 62
     7
  6
CONTINUOUS
370
    -3
390
4B2A
  0
LAYER
  5
4BC9
330
2
100
AcDbSymbolTableRecord
100
AcDbLayerTableRecord
  2
6
 70
     0
 62
     5
  6
CONTINUOUS
370
    -3
390
4B2A
  0
LAYER
  5
4BCA
330
2
100
AcDbSymbolTableRecord
100
AcDbLayerTableRecord
  2
CUT
 70
     0
 62
     1
  6
CONTINUOUS
370
    -3
390
4B2A
  0
LAYER
  5
4BCB
330
2
100
AcDbSymbolTableRecord
100
AcDbLayerTableRecord
  2
NOCUT
 70
     0
 62
     7
  6
CONTINUOUS
370
    -3
390
4B2A
  0
ENDTAB
  0
TABLE
  2
STYLE
  5
3
330
0
100
AcDbSymbolTable
 70
     1
  0
STYLE
  5
11
330
3
100
AcDbSymbolTableRecord
100
AcDbTextStyleTableRecord
  2
STANDARD
 70
     0
 40
0.0
 41
0.8
 50
0.0
 71
     0
 42
0.2
  3
isocp.shx
  4

  0
ENDTAB
  0
TABLE
  2
VIEW
  5
6
330
0
100
AcDbSymbolTable
 70
     0
  0
ENDTAB
  0
TABLE
  2
UCS
  5
7
330
0
100
AcDbSymbolTable
 70
     0
  0
ENDTAB
  0
TABLE
  2
APPID
  5
9
330
0
100
AcDbSymbolTable
 70
     1
  0
APPID
  5
12
330
9
100
AcDbSymbolTableRecord
100
AcDbRegAppTableRecord
  2
ACAD
 70
     0
  0
ENDTAB
  0
TABLE
  2
DIMSTYLE
  5
A
330
0
100
AcDbSymbolTable
 70
     2
100
AcDbDimStyleTable
 71
     1
340
30
  0
DIMSTYLE
105
30
330
A
100
AcDbSymbolTableRecord
100
AcDbDimStyleTableRecord
  2
STANDARD
 70
     0
340
11
  0
DIMSTYLE
105
173D
102
{ACAD_REACTORS
330
8C
330
BF5
330
8A
330
BEF
330
8B
102
}
330
A
100
AcDbSymbolTableRecord
100
AcDbDimStyleTableRecord
  2
ISO-25
 70
     0
 41
2.5
 42
0.625
 43
3.75
 44
1.25
 73
     0
 74
     0
 77
     1
 78
     8
140
2.5
141
2.5
143
0.03937007874016
147
0.625
171
     3
172
     1
271
     2
272
     2
274
     3
283
     0
284
     8
340
11
  0
ENDTAB
  0
TABLE
  2
BLOCK_RECORD
  5
1
330
0
100
AcDbSymbolTable
 70
     6
  0
BLOCK_RECORD
  5
1E
102
{ACAD_XDICTIONARY
360
3437
102
}
330
1
100
AcDbSymbolTableRecord
100
AcDbBlockTableRecord
  2
*MODEL_SPACE
340
4B2B
  0
BLOCK_RECORD
  5
1A
102
{ACAD_XDICTIONARY
360
3435
102
}
330
1
100
AcDbSymbolTableRecord
100
AcDbBlockTableRecord
  2
*PAPER_SPACE
340
4B2C
  0
BLOCK_RECORD
  5
23
330
1
100
AcDbSymbolTableRecord
100
AcDbBlockTableRecord
  2
_FILLED
340
0
  0
BLOCK_RECORD
  5
182B
330
1
100
AcDbSymbolTableRecord
100
AcDbBlockTableRecord
  2
*D1
340
0
  0
BLOCK_RECORD
  5
1837
330
1
100
AcDbSymbolTableRecord
100
AcDbBlockTableRecord
  2
*D2
340
0
  0
BLOCK_RECORD
  5
1843
330
1
100
AcDbSymbolTableRecord
100
AcDbBlockTableRecord
  2
*D3
340
0
  0
BLOCK_RECORD
  5
184F
330
1
100
AcDbSymbolTableRecord
100
AcDbBlockTableRecord
  2
*D4
340
0
  0
BLOCK_RECORD
  5
185B
330
1
100
AcDbSymbolTableRecord
100
AcDbBlockTableRecord
  2
*D5
340
0
  0
ENDTAB
  0
ENDSEC
  0
SECTION
  2
BLOCKS
  0
BLOCK
  5
3A
330
1E
100
AcDbEntity
  8
0
100
AcDbBlockBegin
  2
*MODEL_SPACE
 70
     0
 10
0.0
 20
0.0
 30
0.0
  3
*MODEL_SPACE
  1

  0
ENDBLK
  5
3B
330
1E
100
AcDbEntity
  8
0
100
AcDbBlockEnd
  0
BLOCK
  5
38
330
1A
100
AcDbEntity
 67
     1
  8
0
100
AcDbBlockBegin
  2
*PAPER_SPACE
 70
     0
 10
0.0
 20
0.0
 30
0.0
  3
*PAPER_SPACE
  1

  0
ENDBLK
  5
39
330
1A
100
AcDbEntity
 67
     1
  8
0
100
AcDbBlockEnd
  0
BLOCK
  5
3E
330
23
100
AcDbEntity
  8
0
100
AcDbBlockBegin
  2
_FILLED
 70
     0
 10
0.0
 20
0.0
 30
0.0
  3
_FILLED
  1

  0
SOLID
  5
3F
330
23
100
AcDbEntity
  8
0
  6
ByBlock
 62
     0
100
AcDbTrace
 10
0.0
 20
0.0
 30
0.0
 11
-1.0
 21
0.132
 31
0.0
 12
-1.0
 22
-0.132
 32
0.0
 13
-1.0
 23
-0.132
 33
0.0
  0
ENDBLK
  5
40
330
23
100
AcDbEntity
  8
0
100
AcDbBlockEnd
  0
BLOCK
  5
1835
330
182B
100
AcDbEntity
  8
0
100
AcDbBlockBegin
  2
*D1
 70
     1
 10
0.0
 20
0.0
 30
0.0
  3
*D1
  1

  0
LINE
  5
4B63
330
182B
100
AcDbEntity
  8
SK2
 62
     0
370
    -2
100
AcDbLine
 10
-55.616588066
 20
-12.49999999999989
 30
0.0
 11
-72.42214239523935
 21
-12.49999999999988
 31
0.0
  0
LINE
  5
4B64
330
182B
100
AcDbEntity
  8
SK2
 62
     0
370
    -2
100
AcDbLine
 10
-17.59938232870001
 20
12.5
 30
0.0
 11
-72.42214239523935
 21
12.5
 31
0.0
  0
LINE
  5
4B65
330
182B
100
AcDbEntity
  8
SK2
 62
     0
370
    -2
100
AcDbLine
 10
-71.17214239523935
 20
-9.999999999999886
 30
0.0
 11
-71.17214239523935
 21
10.0
 31
0.0
  0
SOLID
  5
4B66
330
182B
100
AcDbEntity
  8
SK2
 62
     0
100
AcDbTrace
 10
-71.58880906190602
 20
-9.999999999999886
 30
0.0
 11
-70.75547572857267
 21
-9.999999999999886
 31
0.0
 12
-71.17214239523935
 22
-12.49999999999988
 32
0.0
 13
-71.17214239523935
 23
-12.49999999999988
 33
0.0
  0
SOLID
  5
4B67
330
182B
100
AcDbEntity
  8
SK2
 62
     0
100
AcDbTrace
 10
-71.58880906190602
 20
10.0
 30
0.0
 11
-70.75547572857267
 21
10.0
 31
0.0
 12
-71.17214239523935
 22
12.5
 32
0.0
 13
-71.17214239523935
 23
12.5
 33
0.0
  0
MTEXT
  5
4B68
330
182B
100
AcDbEntity
  8
SK2
 62
     0
100
AcDbMText
 10
-73.04714239523935
 20
-0.1574971578465832
 30
0.0
 40
2.5
 41
0.0
 71
     5
 72
     1
  1
%%c25
 11
0.0000000000000001
 21
1.0
 31
0.0
 73
     1
 44
1.0
1001
ACAD
1000
MTEXTBEGIN
1070
    73
1070
     1
1070
    44
1040
1.0
1070
    74
1070
     0
1000
MTEXTEND
  0
POINT
  5
4B69
330
182B
100
AcDbEntity
  8
DEFPOINTS
 62
     0
100
AcDbPoint
 10
-54.991588066
 20
-12.49999999999989
 30
0.0
  0
POINT
  5
4B6A
330
182B
100
AcDbEntity
  8
DEFPOINTS
 62
     0
100
AcDbPoint
 10
-16.97438232870001
 20
12.5
 30
0.0
  0
POINT
  5
4B6B
330
182B
100
AcDbEntity
  8
DEFPOINTS
 62
     0
100
AcDbPoint
 10
-71.17214239523935
 20
12.5
 30
0.0
  0
ENDBLK
  5
1836
330
182B
100
AcDbEntity
  8
0
100
AcDbBlockEnd
  0
BLOCK
  5
1841
330
1837
100
AcDbEntity
  8
0
100
AcDbBlockBegin
  2
*D2
 70
     1
 10
0.0
 20
0.0
 30
0.0
  3
*D2
  1

  0
LINE
  5
4B75
330
1837
100
AcDbEntity
  8
SK2
 62
     0
370
    -2
100
AcDbLine
 10
-24.191588066
 20
-0.6249999999999975
 30
0.0
 11
-24.19158806600001
 21
-39.07979163998334
 31
0.0
  0
LINE
  5
4B76
330
1837
100
AcDbEntity
  8
SK2
 62
     0
370
    -2
100
AcDbLine
 10
60.808411934
 20
-13.1249999999999
 30
0.0
 11
60.808411934
 21
-39.07979163998334
 31
0.0
  0
LINE
  5
4B77
330
1837
100
AcDbEntity
  8
SK2
 62
     0
370
    -2
100
AcDbLine
 10
-21.69158806600001
 20
-37.82979163998334
 30
0.0
 11
58.308411934
 21
-37.82979163998334
 31
0.0
  0
SOLID
  5
4B78
330
1837
100
AcDbEntity
  8
SK2
 62
     0
100
AcDbTrace
 10
-21.69158806600001
 20
-37.41312497331668
 30
0.0
 11
-21.69158806600001
 21
-38.24645830665
 31
0.0
 12
-24.19158806600001
 22
-37.82979163998334
 32
0.0
 13
-24.19158806600001
 23
-37.82979163998334
 33
0.0
  0
SOLID
  5
4B79
330
1837
100
AcDbEntity
  8
SK2
 62
     0
100
AcDbTrace
 10
58.308411934
 20
-37.41312497331668
 30
0.0
 11
58.308411934
 21
-38.24645830665
 31
0.0
 12
60.808411934
 22
-37.82979163998334
 32
0.0
 13
60.808411934
 23
-37.82979163998334
 33
0.0
  0
MTEXT
  5
4B7A
330
1837
100
AcDbEntity
  8
SK2
 62
     0
100
AcDbMText
 10
18.30841193399998
 20
-35.95479163998334
 30
0.0
 40
2.5
 41
0.0
 71
     5
 72
     1
  1
85
 73
     1
 44
1.0
1001
ACAD
1000
MTEXTBEGIN
1070
    73
1070
     1
1070
    44
1040
1.0
1070
    74
1070
     0
1000
MTEXTEND
  0
POINT
  5
4B7B
330
1837
100
AcDbEntity
  8
DEFPOINTS
 62
     0
100
AcDbPoint
 10
-24.191588066
 20
0.0000000000000029
 30
0.0
  0
POINT
  5
4B7C
330
1837
100
AcDbEntity
  8
DEFPOINTS
 62
     0
100
AcDbPoint
 10
60.808411934
 20
-12.4999999999999
 30
0.0
  0
POINT
  5
4B7D
330
1837
100
AcDbEntity
  8
DEFPOINTS
 62
     0
100
AcDbPoint
 10
60.808411934
 20
-37.82979163998334
 30
0.0
  0
ENDBLK
  5
1842
330
1837
100
AcDbEntity
  8
0
100
AcDbBlockEnd
  0
BLOCK
  5
184D
330
1843
100
AcDbEntity
  8
0
100
AcDbBlockBegin
  2
*D3
 70
     1
 10
0.0
 20
0.0
 30
0.0
  3
*D3
  1

  0
LINE
  5
4B5A
330
1843
100
AcDbEntity
  8
SK2
 62
     0
370
    -2
100
AcDbLine
 10
60.808411934
 20
-9.480034312849859
 30
0.0
 11
60.808411934
 21
-49.09949210895229
 31
0.0
  0
LINE
  5
4B5B
330
1843
100
AcDbEntity
  8
SK2
 62
     0
370
    -2
100
AcDbLine
 10
-56.191588066
 20
-14.7469807119919
 30
0.0
 11
-56.191588066
 21
-49.09949210895229
 31
0.0
  0
LINE
  5
4B5C
330
1843
100
AcDbEntity
  8
SK2
 62
     0
370
    -2
100
AcDbLine
 10
58.308411934
 20
-47.84949210895229
 30
0.0
 11
-53.691588066
 21
-47.84949210895229
 31
0.0
  0
SOLID
  5
4B5D
330
1843
100
AcDbEntity
  8
SK2
 62
     0
100
AcDbTrace
 10
58.308411934
 20
-47.43282544228561
 30
0.0
 11
58.308411934
 21
-48.26615877561895
 31
0.0
 12
60.808411934
 22
-47.84949210895229
 32
0.0
 13
60.808411934
 23
-47.84949210895229
 33
0.0
  0
SOLID
  5
4B5E
330
1843
100
AcDbEntity
  8
SK2
 62
     0
100
AcDbTrace
 10
-53.691588066
 20
-47.43282544228561
 30
0.0
 11
-53.691588066
 21
-48.26615877561895
 31
0.0
 12
-56.191588066
 22
-47.84949210895229
 32
0.0
 13
-56.191588066
 23
-47.84949210895229
 33
0.0
  0
MTEXT
  5
4B5F
330
1843
100
AcDbEntity
  8
SK2
 62
     0
100
AcDbMText
 10
-1.33105503690001
 20
-45.97449210895229
 30
0.0
 40
2.5
 41
0.0
 71
     5
 72
     1
  1
117
 73
     1
 44
1.0
1001
ACAD
1000
MTEXTBEGIN
1070
    73
1070
     1
1070
    44
1040
1.0
1070
    74
1070
     0
1000
MTEXTEND
  0
POINT
  5
4B60
330
1843
100
AcDbEntity
  8
DEFPOINTS
 62
     0
100
AcDbPoint
 10
60.808411934
 20
-8.855034312849859
 30
0.0
  0
POINT
  5
4B61
330
1843
100
AcDbEntity
  8
DEFPOINTS
 62
     0
100
AcDbPoint
 10
-56.191588066
 20
-14.1219807119919
 30
0.0
  0
POINT
  5
4B62
330
1843
100
AcDbEntity
  8
DEFPOINTS
 62
     0
100
AcDbPoint
 10
-56.191588066
 20
-47.84949210895229
 30
0.0
  0
ENDBLK
  5
184E
330
1843
100
AcDbEntity
  8
0
100
AcDbBlockEnd
  0
BLOCK
  5
1859
330
184F
100
AcDbEntity
  8
0
100
AcDbBlockBegin
  2
*D4
 70
     1
 10
0.0
 20
0.0
 30
0.0
  3
*D4
  1

  0
LINE
  5
4B6C
330
184F
100
AcDbEntity
  8
2
 62
     0
370
    -2
100
AcDbLine
 10
0.8235407573999893
 20
-11.8749999999999
 30
0.0
 11
0.8235407573999882
 21
-29.02799081215869
 31
0.0
  0
LINE
  5
4B6D
330
184F
100
AcDbEntity
  8
2
 62
     0
370
    -2
100
AcDbLine
 10
60.808411934
 20
-6.168705921061816
 30
0.0
 11
60.808411934
 21
-29.02799081215869
 31
0.0
  0
LINE
  5
4B6E
330
184F
100
AcDbEntity
  8
2
 62
     0
370
    -2
100
AcDbLine
 10
3.323540757399987
 20
-27.77799081215869
 30
0.0
 11
58.308411934
 21
-27.77799081215869
 31
0.0
  0
SOLID
  5
4B6F
330
184F
100
AcDbEntity
  8
2
 62
     0
100
AcDbTrace
 10
3.323540757399987
 20
-27.36132414549202
 30
0.0
 11
3.323540757399987
 21
-28.19465747882535
 31
0.0
 12
0.8235407573999882
 22
-27.77799081215869
 32
0.0
 13
0.8235407573999882
 23
-27.77799081215869
 33
0.0
  0
SOLID
  5
4B70
330
184F
100
AcDbEntity
  8
2
 62
     0
100
AcDbTrace
 10
58.308411934
 20
-27.36132414549202
 30
0.0
 11
58.308411934
 21
-28.19465747882535
 31
0.0
 12
60.808411934
 22
-27.77799081215869
 32
0.0
 13
60.808411934
 23
-27.77799081215869
 33
0.0
  0
MTEXT
  5
4B71
330
184F
100
AcDbEntity
  8
2
 62
     0
100
AcDbMText
 10
30.81597634569999
 20
-25.90299081215869
 30
0.0
 40
2.5
 41
0.0
 71
     5
 72
     1
  1
60
 73
     1
 44
1.0
1001
ACAD
1000
MTEXTBEGIN
1070
    73
1070
     1
1070
    44
1040
1.0
1070
    74
1070
     0
1000
MTEXTEND
  0
POINT
  5
4B72
330
184F
100
AcDbEntity
  8
DEFPOINTS
 62
     0
100
AcDbPoint
 10
0.8235407573999893
 20
-11.2499999999999
 30
0.0
  0
POINT
  5
4B73
330
184F
100
AcDbEntity
  8
DEFPOINTS
 62
     0
100
AcDbPoint
 10
60.808411934
 20
-5.543705921061816
 30
0.0
  0
POINT
  5
4B74
330
184F
100
AcDbEntity
  8
DEFPOINTS
 62
     0
100
AcDbPoint
 10
60.808411934
 20
-27.77799081215869
 30
0.0
  0
ENDBLK
  5
185A
330
184F
100
AcDbEntity
  8
0
100
AcDbBlockEnd
  0
BLOCK
  5
1865
330
185B
100
AcDbEntity
  8
0
100
AcDbBlockBegin
  2
*D5
 70
     1
 10
0.0
 20
0.0
 30
0.0
  3
*D5
  1

  0
LINE
  5
4B7E
330
185B
100
AcDbEntity
  8
2
 62
     0
370
    -2
100
AcDbLine
 10
61.433411934
 20
12.49999999999999
 30
0.0
 11
77.75364813086628
 21
12.49999999999998
 31
0.0
  0
LINE
  5
4B7F
330
185B
100
AcDbEntity
  8
2
 62
     0
370
    -2
100
AcDbLine
 10
61.433411934
 20
-12.4999999999999
 30
0.0
 11
77.75364813086628
 21
-12.49999999999991
 31
0.0
  0
LINE
  5
4B80
330
185B
100
AcDbEntity
  8
2
 62
     0
370
    -2
100
AcDbLine
 10
76.50364813086628
 20
9.999999999999987
 30
0.0
 11
76.50364813086628
 21
-9.999999999999911
 31
0.0
  0
SOLID
  5
4B81
330
185B
100
AcDbEntity
  8
2
 62
     0
100
AcDbTrace
 10
76.08698146419961
 20
9.999999999999987
 30
0.0
 11
76.92031479753295
 21
9.999999999999987
 31
0.0
 12
76.50364813086628
 22
12.49999999999998
 32
0.0
 13
76.50364813086628
 23
12.49999999999998
 33
0.0
  0
SOLID
  5
4B82
330
185B
100
AcDbEntity
  8
2
 62
     0
100
AcDbTrace
 10
76.08698146419961
 20
-9.999999999999911
 30
0.0
 11
76.92031479753295
 21
-9.999999999999911
 31
0.0
 12
76.50364813086628
 22
-12.49999999999991
 32
0.0
 13
76.50364813086628
 23
-12.49999999999991
 33
0.0
  0
MTEXT
  5
4B83
330
185B
100
AcDbEntity
  8
2
 62
     0
100
AcDbMText
 10
74.62864813086628
 20
-0.1255409604999702
 30
0.0
 40
2.5
 41
0.0
 71
     5
 72
     1
  1
%%c25
 11
0.0000000000000001
 21
1.0
 31
0.0
 73
     1
 44
1.0
1001
ACAD
1000
MTEXTBEGIN
1070
    73
1070
     1
1070
    44
1040
1.0
1070
    74
1070
     0
1000
MTEXTEND
  0
POINT
  5
4B84
330
185B
100
AcDbEntity
  8
DEFPOINTS
 62
     0
100
AcDbPoint
 10
60.808411934
 20
12.49999999999999
 30
0.0
  0
POINT
  5
4B85
330
185B
100
AcDbEntity
  8
DEFPOINTS
 62
     0
100
AcDbPoint
 10
60.808411934
 20
-12.4999999999999
 30
0.0
  0
POINT
  5
4B86
330
185B
100
AcDbEntity
  8
DEFPOINTS
 62
     0
100
AcDbPoint
 10
76.50364813086628
 20
-12.49999999999991
 30
0.0
  0
ENDBLK
  5
1866
330
185B
100
AcDbEntity
  8
0
100
AcDbBlockEnd
  0
ENDSEC
  0
SECTION
  2
ENTITIES
  0
DIMENSION
  5
8A
330
1E
100
AcDbEntity
  8
SK2
100
AcDbDimension
  2
*D3
 10
-56.191588066
 20
-47.84949210895229
 30
0.0
 11
-1.33105503690001
 21
-47.84949210895229
 31
0.0
 70
   160
 71
     5
 42
117.0
  3
ISO-25
100
AcDbAlignedDimension
 13
60.808411934
 23
-8.855034312849859
 33
0.0
 14
-56.191588066
 24
-14.1219807119919
 34
0.0
 50
180.0
100
AcDbRotatedDimension
  0
DIMENSION
  5
8B
330
1E
100
AcDbEntity
  8
2
100
AcDbDimension
  2
*D5
 10
76.50364813086628
 20
-12.49999999999991
 30
0.0
 11
76.50364813086628
 21
-0.1255409604999704
 31
0.0
 70
   160
  1
%%c<>
 71
     5
 42
24.9999999999999
  3
ISO-25
100
AcDbAlignedDimension
 13
60.808411934
 23
12.49999999999999
 33
0.0
 14
60.808411934
 24
-12.4999999999999
 34
0.0
 50
270.0
100
AcDbRotatedDimension
  0
DIMENSION
  5
8C
330
1E
100
AcDbEntity
  8
SK2
100
AcDbDimension
  2
*D1
 10
-71.17214239523935
 20
12.5
 30
0.0
 11
-71.17214239523935
 21
-0.1574971578465834
 31
0.0
 70
   160
  1
%%c<>
 71
     5
 42
24.9999999999999
  3
ISO-25
100
AcDbAlignedDimension
 13
-54.991588066
 23
-12.49999999999989
 33
0.0
 14
-16.97438232870001
 24
12.5
 34
0.0
 50
89.99999999999998
100
AcDbRotatedDimension
  0
LINE
  5
8D
330
1E
100
AcDbEntity
  8
1
100
AcDbLine
 10
60.108411934
 20
-1.951430483499995
 30
0.0
 11
60.108411934
 21
2.80041719390001
 31
0.0
  0
LINE
  5
8E
330
1E
100
AcDbEntity
  8
1
100
AcDbLine
 10
60.108411934
 20
6.242057737800013
 30
0.0
 11
60.108411934
 21
5.824959994000002
 31
0.0
  0
LINE
  5
8F
330
1E
100
AcDbEntity
  8
1
100
AcDbLine
 10
60.108411934
 20
-6.455565961199977
 30
0.0
 11
60.108411934
 21
-8.624968741099966
 31
0.0
  0
LINE
  5
90
330
1E
100
AcDbEntity
  8
1
100
AcDbLine
 10
60.19207517179999
 20
-6.732419982899987
 30
0.0
 11
60.77864833939999
 21
-4.551719351599967
 31
0.0
  0
LINE
  5
91
330
1E
100
AcDbEntity
  8
1
100
AcDbLine
 10
60.19207517179999
 20
-1.775930016999985
 30
0.0
 11
60.77864833939999
 21
-3.956630648399966
 31
0.0
  0
LINE
  5
94
330
1E
100
AcDbEntity
  8
1
100
AcDbLine
 10
54.44885689119999
 20
-3.221050368899973
 30
0.0
 11
54.44885689119999
 21
5.508350000000021
 31
0.0
  0
LINE
  5
95
330
1E
100
AcDbEntity
  8
1
100
AcDbLine
 10
53.82266893399997
 20
-5.539093185099976
 30
0.0
 11
53.82266893399997
 21
-11.249199144
 31
0.0
  0
LINE
  5
96
330
1E
100
AcDbEntity
  8
SK1
100
AcDbLine
 10
-0.7517540966000233
 20
12.5
 30
0.0
 11
-54.991588066
 21
12.5
 31
0.0
  0
LINE
  5
97
330
1E
100
AcDbEntity
  8
1
100
AcDbLine
 10
44.77654454759996
 20
11.24999999999999
 30
0.0
 11
0.8235407573999918
 21
11.25
 31
0.0
  0
LINE
  5
98
330
1E
100
AcDbEntity
  8
1
100
AcDbLine
 10
53.44397081549999
 20
11.24822208169999
 30
0.0
 11
45.33142257259996
 21
11.24822208169999
 31
0.0
  0
LINE
  5
99
330
1E
100
AcDbEntity
  8
1
100
AcDbLine
 10
53.9149644035
 20
11.24288663999999
 30
0.0
 11
53.70100121229999
 21
11.24288663999999
 31
0.0
  0
LINE
  5
9A
330
1E
100
AcDbEntity
  8
SK1
100
AcDbLine
 10
-18.19158806599998
 20
6.782329983100058
 30
0.0
 11
-30.19158806600001
 21
6.782329983100061
 31
0.0
  0
LINE
  5
9B
330
1E
100
AcDbEntity
  8
SK1
100
AcDbLine
 10
-39.191588066
 20
6.782329983100062
 30
0.0
 11
-54.991588066
 21
6.782329983100065
 31
0.0
  0
LINE
  5
9C
330
1E
100
AcDbEntity
  8
1
100
AcDbLine
 10
56.32266893399997
 20
5.508350000000021
 30
0.0
 11
53.82266893399997
 21
5.508350000000021
 31
0.0
  0
LINE
  5
9D
330
1E
100
AcDbEntity
  8
1
100
AcDbLine
 10
0.0717866606999831
 20
-11.7763838852999
 30
0.0
 11
-0.0000000000000019
 21
-11.9736161146
 31
0.0
  0
LINE
  5
9E
330
1E
100
AcDbEntity
  8
4
100
AcDbLine
 10
63.63945337473492
 20
0.0000000000000182
 30
0.0
 11
-0.1636301439368139
 21
0.0
 31
0.0
  0
LINE
  5
9F
330
1E
100
AcDbEntity
  8
1
100
AcDbLine
 10
0.071786660699986
 20
11.77638388529999
 30
0.0
 11
0.000000000000001
 21
11.9736161147
 31
0.0
  0
LINE
  5
A0
330
1E
100
AcDbEntity
  8
1
100
AcDbLine
 10
0.8235407573999893
 20
-11.2499999999999
 30
0.0
 11
0.8235407573999918
 21
11.25
 31
0.0
  0
LINE
  5
A1
330
1E
100
AcDbEntity
  8
1
100
AcDbLine
 10
0.0717866606999831
 20
-11.7763838852999
 30
0.0
 11
0.071786660699986
 21
11.77638388529999
 31
0.0
  0
LINE
  5
A2
330
1E
100
AcDbEntity
  8
1
100
AcDbLine
 10
0.000000000000001
 20
11.9736161147
 30
0.0
 11
-0.0000000000000019
 21
-11.9736161146
 31
0.0
  0
LINE
  5
A3
330
1E
100
AcDbEntity
  8
SK1
100
AcDbLine
 10
-0.7517540966000233
 20
12.5
 30
0.0
 11
-0.7517540966000264
 21
-12.4999999999999
 31
0.0
  0
LINE
  5
A4
330
1E
100
AcDbEntity
  8
1
100
AcDbLine
 10
54.44885689119999
 20
-3.221050368899973
 30
0.0
 11
54.38071741049999
 21
-3.221050368899973
 31
0.0
  0
LINE
  5
A5
330
1E
100
AcDbEntity
  8
1
100
AcDbLine
 10
54.03124292339999
 20
-5.275033158499985
 30
0.0
 11
53.70100121229999
 21
-5.275033158499985
 31
0.0
  0
LINE
  5
A6
330
1E
100
AcDbEntity
  8
1
100
AcDbLine
 10
53.44397081549999
 20
-5.450905960099996
 30
0.0
 11
45.33142257269996
 21
-5.450905960099992
 31
0.0
  0
LINE
  5
A7
330
1E
100
AcDbEntity
  8
SK1
100
AcDbLine
 10
-18.19158806599998
 20
-6.782329983099962
 30
0.0
 11
-30.19158806600001
 21
-6.782329983099962
 31
0.0
  0
LINE
  5
A8
330
1E
100
AcDbEntity
  8
SK1
100
AcDbLine
 10
-39.191588066
 20
-6.782329983099962
 30
0.0
 11
-54.991588066
 21
-6.782329983099961
 31
0.0
  0
LINE
  5
A9
330
1E
100
AcDbEntity
  8
1
100
AcDbLine
 10
54.44885689119999
 20
-11.249199144
 30
0.0
 11
53.82266893399997
 21
-11.249199144
 31
0.0
  0
LINE
  5
AA
330
1E
100
AcDbEntity
  8
1
100
AcDbLine
 10
52.30290928779997
 20
-11.2499999999999
 30
0.0
 11
0.8235407573999893
 21
-11.2499999999999
 31
0.0
  0
LINE
  5
AB
330
1E
100
AcDbEntity
  8
SK1
100
AcDbLine
 10
-0.7517540966000264
 20
-12.4999999999999
 30
0.0
 11
-54.991588066
 21
-12.49999999999989
 31
0.0
  0
LINE
  5
AC
330
1E
100
AcDbEntity
  8
SK1
100
AcDbLine
 10
-18.19158806599998
 20
6.782329983100058
 30
0.0
 11
-18.19158806599998
 21
-6.782329983099962
 31
0.0
  0
LINE
  5
AD
330
1E
100
AcDbEntity
  8
SK1
100
AcDbLine
 10
-30.19158806600001
 20
6.782329983100061
 30
0.0
 11
-30.19158806600001
 21
-6.782329983099962
 31
0.0
  0
LINE
  5
AE
330
1E
100
AcDbEntity
  8
SK1
100
AcDbLine
 10
-39.191588066
 20
6.782329983100062
 30
0.0
 11
-39.191588066
 21
-6.782329983099962
 31
0.0
  0
LINE
  5
AF
330
1E
100
AcDbEntity
  8
SK1
100
AcDbLine
 10
-54.991588066
 20
12.5
 30
0.0
 11
-56.191588066
 21
11.3
 31
0.0
  0
LINE
  5
B0
330
1E
100
AcDbEntity
  8
SK1
100
AcDbLine
 10
-54.991588066
 20
-12.49999999999989
 30
0.0
 11
-56.191588066
 21
-11.29999999999988
 31
0.0
  0
LINE
  5
B1
330
1E
100
AcDbEntity
  8
SK1
100
AcDbLine
 10
-54.991588066
 20
6.782329983100065
 30
0.0
 11
-54.991588066
 21
12.5
 31
0.0
  0
LINE
  5
B2
330
1E
100
AcDbEntity
  8
SK1
100
AcDbLine
 10
-54.991588066
 20
-6.782329983099961
 30
0.0
 11
-54.991588066
 21
-12.49999999999989
 31
0.0
  0
LINE
  5
B3
330
1E
100
AcDbEntity
  8
SK1
100
AcDbLine
 10
-56.191588066
 20
11.2999976069
 30
0.0
 11
-56.191588066
 21
-11.29999760689989
 31
0.0
  0
CIRCLE
  5
B4
330
1E
100
AcDbEntity
  8
1
100
AcDbCircle
 10
56.82266893399997
 20
8.508350000000032
 30
0.0
 40
2.45
  0
ARC
  5
B5
330
1E
100
AcDbEntity
  8
1
100
AcDbCircle
 10
56.82266893399997
 20
8.508350000000032
 30
0.0
 40
3.991597085
100
AcDbArc
 50
294.5261521127
 51
228.7289707691999
  0
ARC
  5
B7
330
1E
100
AcDbEntity
  8
1
100
AcDbCircle
 10
53.82266893399997
 20
15.50834999999999
 30
0.0
 40
10.0
100
AcDbArc
 50
205.2288644582
 51
270.0
  0
ARC
  5
B8
330
1E
100
AcDbEntity
  8
1
100
AcDbCircle
 10
-0.7517540966000233
 20
11.69999999999999
 30
0.0
 40
0.8
100
AcDbArc
 50
20.00000000000001
 51
45.55634280407493
  0
ARC
  5
B9
330
1E
100
AcDbEntity
  8
SK1
100
AcDbCircle
 10
-0.7517540966000259
 20
-11.69999999999999
 30
0.0
 40
0.8
100
AcDbArc
 50
270.0
 51
314.443657195924
  0
ARC
  5
BA
330
1E
100
AcDbEntity
  8
1
100
AcDbCircle
 10
0.8235407573999921
 20
12.05
 30
0.0
 40
0.8
100
AcDbArc
 50
200.0000000002998
 51
270.0
  0
ARC
  5
BB
330
1E
100
AcDbEntity
  8
1
100
AcDbCircle
 10
0.8235407573999891
 20
-12.0499999999999
 30
0.0
 40
0.8
100
AcDbArc
 50
90.0
 51
159.9999999996998
  0
ARC
  5
BC
330
1E
100
AcDbEntity
  8
1
100
AcDbCircle
 10
56.82266893399997
 20
8.508350000000032
 30
0.0
 40
4.349999999999996
100
AcDbArc
 50
140.9605264703
 51
223.3958817486999
  0
ARC
  5
BD
330
1E
100
AcDbEntity
  8
1
100
AcDbCircle
 10
56.32266893399997
 20
1.508350000000023
 30
0.0
 40
4.0
100
AcDbArc
 50
18.83778137449996
 51
90.0
  0
LWPOLYLINE
  5
1E7
330
1E
100
AcDbEntity
  8
1
100
AcDbPolyline
 90
       29
 70
     0
 43
0.0
 10
60.81376803609999
 20
-4.254173784999957
 10
60.81404492679729
 20
-4.264693617660553
 10
60.81421096136799
 20
-4.275216075219835
 10
60.8142660179935
 20
-4.285740008857116
 10
60.8142100135879
 20
-4.296264253475796
 10
60.81404301805458
 20
-4.306787579691905
 10
60.81376513906469
 20
-4.317308742251136
 10
60.8133764842891
 20
-4.327826495899175
 10
60.81287716139878
 20
-4.338339595381737
 10
60.81226728522869
 20
-4.348846799916414
 10
60.8115470838706
 20
-4.359346939421746
 10
60.81071687581378
 20
-4.369838900246706
 10
60.80977698206607
 20
-4.380321570312576
 10
60.80872772363528
 20
-4.390793837540627
 10
60.80756942164811
 20
-4.401254589887845
 10
60.80630244584821
 20
-4.411702729937847
 10
60.8048864144736
 20
-4.422435113594816
 10
60.803356489468
 20
-4.433151884574796
 10
60.80171322815149
 20
-4.443851895307183
 10
60.79995718784458
 20
-4.454533998221367
 10
60.79808894346427
 20
-4.465197052091038
 10
60.79605261555048
 20
-4.476135298450794
 10
60.79389931583389
 20
-4.487051093993627
 10
60.79162985953259
 20
-4.497943268604465
 10
60.78924506186448
 20
-4.508810652168266
 10
60.78667661413069
 20
-4.519944718864924
 10
60.78398836884097
 20
-4.531050203635547
 10
60.78118140141588
 20
-4.542125949855375
 10
60.77865088714089
 20
-4.551709681424917
  0
LWPOLYLINE
  5
206
330
1E
100
AcDbEntity
  8
1
100
AcDbPolyline
 90
       22
 70
     0
 43
0.0
 10
60.19207527439998
 20
-6.732419392099963
 10
60.18943619942096
 20
-6.742023253231574
 10
60.18669378746388
 20
-6.751598490847084
 10
60.18378320706879
 20
-6.761360722945807
 10
60.18076666399789
 20
-6.771090952429925
 10
60.17764529190761
 20
-6.780788221599972
 10
60.1743474539876
 20
-6.790666017619796
 10
60.17086741364328
 20
-6.800721085565366
 10
60.1672770334555
 20
-6.810737314460435
 10
60.1634977984542
 20
-6.820925549187815
 10
60.15960637533678
 20
-6.831071317187785
 10
60.15551971155729
 20
-6.841383886290214
 10
60.15123238310009
 20
-6.851859714135525
 10
60.14682828385089
 20
-6.862287059103602
 10
60.1422175567956
 20
-6.872872164748636
 10
60.13739504313067
 20
-6.883611163883053
 10
60.13235573126438
 20
-6.894500086658852
 10
60.12709471719269
 20
-6.905534811015074
 10
60.1216072105149
 20
-6.916711053339826
 10
60.1158885356377
 20
-6.928024397373454
 10
60.11003964319589
 20
-6.939270451333767
 10
60.10845585143079
 20
-6.942262485190724
  0
LWPOLYLINE
  5
27B
330
1E
100
AcDbEntity
  8
1
100
AcDbPolyline
 90
       56
 70
     0
 43
0.0
 10
53.50716034639999
 20
-5.333987952799962
 10
53.53804740678429
 20
-5.356685644926652
 10
53.56924795613601
 20
-5.378952168482261
 10
53.60362457874199
 20
-5.402760270326826
 10
53.63833757191269
 20
-5.426074523971176
 10
53.67337037950139
 20
-5.448905246656065
 10
53.70870725243599
 20
-5.471262498658906
 10
53.7443333970742
 20
-5.493155897794221
 10
53.78323856083849
 20
-5.516361190358736
 10
53.82245022896477
 20
-5.539044693319996
 10
53.86195281753089
 20
-5.561217622117016
 10
53.90173178137279
 20
-5.582890779355737
 10
53.94486408801878
 20
-5.605684141753924
 10
53.98828509451337
 20
-5.627922537478664
 10
54.03197990845058
 20
-5.649617996733763
 10
54.075934481598
 20
-5.670782133665005
 10
54.12330214291738
 20
-5.692880954737832
 10
54.17093788684759
 20
-5.714395688096014
 10
54.21882770667348
 20
-5.735338803624956
 10
54.27017529589949
 20
-5.757061607558732
 10
54.32178195133809
 20
-5.778161547619042
 10
54.37363367025047
 20
-5.798651843894906
 10
54.42897997566021
 20
-5.819768895322494
 10
54.48457349633289
 20
-5.840226279026465
 10
54.54040044657379
 20
-5.860037686184034
 10
54.59975154245439
 20
-5.880324737274785
 10
54.65933570974168
 20
-5.899916655202707
 10
54.71913956624568
 20
-5.918827277016804
 10
54.7824904305432
 20
-5.938063756539657
 10
54.8460583772316
 20
-5.956570200349906
 10
54.90983048570988
 20
-5.974360318983506
 10
54.97716629483909
 20
-5.992327058830267
 10
55.04470162127216
 20
-6.009528590105793
 10
55.11242399695878
 20
-6.025978248458145
 10
55.18372098857097
 20
-6.042454859088727
 10
55.2551984727501
 20
-6.058129918939142
 10
55.32684438895209
 20
-6.073016135503682
 10
55.39864736221229
 20
-6.087125352925553
 10
55.47402622270859
 20
-6.101085123355963
 10
55.54955385263678
 20
-6.114216134907548
 10
55.6252191120796
 20
-6.126529336071387
 10
55.70445934136277
 20
-6.138538813962923
 10
55.78382683335039
 20
-6.149676207131641
 10
55.86331056132269
 20
-6.159951270503107
 10
55.94289996395128
 20
-6.169372896553402
 10
56.02258488772428
 20
-6.177949168003224
 10
56.10582564100847
 20
-6.186004901685666
 10
56.1891490316761
 20
-6.193155454258872
 10
56.27254466842849
 20
-6.199407311351055
 10
56.35600244653969
 20
-6.204766112601764
 10
56.43951251063819
 20
-6.209236654185577
 10
56.52306523662311
 20
-6.212822902083315
 10
56.60665110006578
 20
-6.215528032553383
 10
56.69026077259039
 20
-6.217354444115456
 10
56.77388521991939
 20
-6.218303741856292
 10
56.822658934
 20
-6.218452795593718
  0
LWPOLYLINE
  5
2B5
330
1E
100
AcDbEntity
  8
1
100
AcDbPolyline
 90
       22
 70
     0
 43
0.0
 10
60.10845115959999
 20
-1.566078683799995
 10
60.11443843051819
 20
-1.577507766824536
 10
60.1201898762001
 20
-1.588804323698296
 10
60.12571016213128
 20
-1.599964273940545
 10
60.13100394742771
 20
-1.610983241391995
 10
60.13607599012529
 20
-1.621856929287084
 10
60.14093116246288
 20
-1.632581202654803
 10
60.14557444067049
 20
-1.643152082703004
 10
60.15009848243067
 20
-1.653774479407323
 10
60.15441633371
 20
-1.664237779591686
 10
60.15853333573669
 20
-1.674538275819025
 10
60.16245488671549
 20
-1.684672413352054
 10
60.16626465236278
 20
-1.694849227655323
 10
60.16988531048307
 20
-1.704854540742806
 10
60.17339600726449
 20
-1.714898964057455
 10
60.17672421586748
 20
-1.724766604511333
 10
60.17994449879259
 20
-1.734669850349327
 10
60.1829891117116
 20
-1.744391377431164
 10
60.18592805432728
 20
-1.754145176839093
 10
60.18869847497009
 20
-1.763712438541014
 10
60.1913658322621
 20
-1.773308590116345
 10
60.19207267681128
 20
-1.775920951164666
  0
LWPOLYLINE
  5
2CD
330
1E
100
AcDbEntity
  8
1
100
AcDbPolyline
 90
      123
 70
     0
 43
0.0
 10
60.7786482897
 20
-3.956630661699995
 10
60.78376302482968
 20
-3.976391950921586
 10
60.78849910605407
 20
-3.996248463261855
 10
60.7928506065321
 20
-4.016193487448044
 10
60.7968123348207
 20
-4.036219876272156
 10
60.80037925757899
 20
-4.056320389444196
 10
60.803546726146
 20
-4.076487663326584
 10
60.80631090033989
 20
-4.096714075043013
 10
60.80811712126038
 20
-4.111918087308186
 10
60.80969298178271
 20
-4.127147753114206
 10
60.81103744596809
 20
-4.142399605768305
 10
60.81214952623501
 20
-4.157670157398036
 10
60.81302824682328
 20
-4.172955918208587
 10
60.81367293557438
 20
-4.188253349035127
 10
60.81408324266309
 20
-4.203558858296767
 10
60.81425883383678
 20
-4.218868851880293
 10
60.81419942239445
 20
-4.234179735486056
 10
60.81390513171228
 20
-4.249487913206555
 10
60.81337629471279
 20
-4.264789788312705
 10
60.81261324600578
 20
-4.280081764069237
 10
60.81161643826638
 20
-4.295360264899817
 10
60.8103867577893
 20
-4.310621792938365
 10
60.80892519039139
 20
-4.325862868154525
 10
60.80723272445046
 20
-4.341080011467854
 10
60.80461905189729
 20
-4.361326449528664
 10
60.80160070860507
 20
-4.381516546624255
 10
60.79818146228819
 20
-4.401642587744565
 10
60.794365594218
 20
-4.421697165760757
 10
60.79015803936338
 20
-4.441673265440424
 10
60.78556380602067
 20
-4.461563924780604
 10
60.78058841717471
 20
-4.481362644405677
 10
60.7752378200475
 20
-4.501063306265787
 10
60.76951801804138
 20
-4.520659862457214
 10
60.763435443036
 20
-4.540146843676167
 10
60.75699677054029
 20
-4.559519109607267
 10
60.75020872066168
 20
-4.578771615475286
 10
60.743078302708
 20
-4.597899951451674
 10
60.73561264830678
 20
-4.616899976264416
 10
60.72781891381259
 20
-4.635767663119985
 10
60.71970439145289
 20
-4.654499620223746
 10
60.7112764206742
 20
-4.673092676460714
 10
60.70254234007959
 20
-4.691543775437476
 10
60.69350948364489
 20
-4.709850455304157
 10
60.68418518384897
 20
-4.728010446586525
 10
60.67457675186968
 20
-4.746021574134677
 10
60.66469137962059
 20
-4.763882190400113
 10
60.65195611026648
 20
-4.785994073944997
 10
60.6388131416755
 20
-4.807865897101534
 10
60.62527591192428
 20
-4.829495961485053
 10
60.61135774970699
 20
-4.850882792971737
 10
60.59707158195589
 20
-4.872025484835065
 10
60.58242997252978
 20
-4.892923643106806
 10
60.56744532918449
 20
-4.913577034463115
 10
60.55212945193249
 20
-4.933986029744094
 10
60.53332952800379
 20
-4.958154990816796
 10
60.514088665073
 20
-4.981974309447124
 10
60.49442533786027
 20
-5.005446090798976
 10
60.47435744505289
 20
-5.028572755080077
 10
60.45390185173872
 20
-5.051357273773334
 10
60.42956890650478
 20
-5.077510987377754
 10
60.4047550610686
 20
-5.103208945850802
 10
60.37948387138587
 20
-5.128457085980865
 10
60.35377722861689
 20
-5.153261783318828
 10
60.32765625284898
 20
-5.177629580414246
 10
60.30114051266671
 20
-5.201567269623945
 10
60.27424889478798
 20
-5.225081730196806
 10
60.24307775559189
 20
-5.251446116027855
 10
60.21146349563307
 20
-5.277277296961925
 10
60.17942918194959
 20
-5.302585724175187
 10
60.1469968042236
 20
-5.327381804766414
 10
60.11418661452047
 20
-5.351675805347806
 10
60.08101795501477
 20
-5.375477884047936
 10
60.04750863753629
 20
-5.398797972642052
 10
60.0136756984336
 20
-5.421645857174775
 10
59.97524633501718
 20
-5.446797124650217
 10
59.93644849566378
 20
-5.471376040783766
 10
59.89730178569528
 20
-5.495395415884707
 10
59.85782466416528
 20
-5.518867698314535
 10
59.81803429783049
 20
-5.541804912424066
 10
59.77794676382369
 20
-5.564218672909006
 10
59.7330748398065
 20
-5.588522571425565
 10
59.6878738565141
 20
-5.612208862265886
 10
59.64236186753279
 20
-5.635291801225637
 10
59.59655551062039
 20
-5.657784960100275
 10
59.55047051340478
 20
-5.67970144605773
 10
59.4994725141111
 20
-5.703158395200522
 10
59.44817309849928
 20
-5.725948572257594
 10
59.39658917192499
 20
-5.748087157315497
 10
59.3447364086181
 20
-5.769588556133525
 10
59.28788046194519
 20
-5.792334126133722
 10
59.23073983856588
 20
-5.814354759320184
 10
59.17333108004078
 20
-5.835666557338265
 10
59.11566964013939
 20
-5.856284818111636
 10
59.05776985530988
 20
-5.876223970955694
 10
58.99479174812736
 20
-5.897074289478367
 10
58.93156571833738
 20
-5.917160218630467
 10
58.86810665044198
 20
-5.936497295576467
 10
58.80442852161299
 20
-5.955100234330425
 10
58.73562204556619
 20
-5.974329015059746
 10
58.66659189426627
 20
-5.992738677211474
 10
58.59735238278688
 20
-6.010344521902386
 10
58.52791691806238
 20
-6.027160888184707
 10
58.4582980787572
 20
-6.043201194816612
 10
58.3835164593946
 20
-6.059540361629556
 10
58.30855171732509
 20
-6.075017593856016
 10
58.23341679254268
 20
-6.089646345970597
 10
58.158123925994
 20
-6.103439146362487
 10
58.0776505090456
 20
-6.117243166232586
 10
57.9970239097074
 20
-6.130122327761744
 10
57.91625677798869
 20
-6.142088610299457
 10
57.83536116446079
 20
-6.153153005740505
 10
57.75434857691829
 20
-6.163325554935275
 10
57.67323002504149
 20
-6.172615358295236
 10
57.5869372889755
 20
-6.181527733005084
 10
57.50054910107127
 20
-6.189461676845686
 10
57.41407726562108
 20
-6.196424979785834
 10
57.32753321386269
 20
-6.202424407701664
 10
57.24092807345478
 20
-6.207465747302713
 10
57.15427269832979
 20
-6.211553838452874
 10
57.06757774555518
 20
-6.214692592883714
 10
56.98085375871738
 20
-6.216884992251697
 10
56.89411082389271
 20
-6.218133106905677
 10
56.82267893399997
 20
-6.218452795593718
  0
LWPOLYLINE
  5
34A
330
1E
100
AcDbEntity
  8
1
100
AcDbPolyline
 90
        2
 70
     0
 43
0.0
 10
54.45237347219999
 20
-3.221109570100001
 10
54.45598363260828
 20
-3.222862498469334
  0
LWPOLYLINE
  5
34E
330
1E
100
AcDbEntity
  8
1
100
AcDbPolyline
 90
       42
 70
     0
 43
0.0
 10
54.4559926308
 20
-3.222866861099966
 10
54.49333472468359
 20
-3.240698439919883
 10
54.5330979023662
 20
-3.259103051309423
 10
54.5730791899666
 20
-3.277028149437632
 10
54.61326749602649
 20
-3.294483769327702
 10
54.65590154026878
 20
-3.312410641595943
 10
54.6987430350552
 20
-3.329836081236873
 10
54.74405133364657
 20
-3.347648306457896
 10
54.78956545164109
 20
-3.364927825271132
 10
54.83527422237229
 20
-3.381685594786336
 10
54.8834665427281
 20
-3.398731057763253
 10
54.93185067678899
 20
-3.415224140043066
 10
54.98273298792478
 20
-3.431921974813723
 10
55.03380279645888
 20
-3.448037260963622
 10
55.08504934972449
 20
-3.463581230467316
 10
55.1388034394866
 20
-3.479232308535173
 10
55.19272899343878
 20
-3.494281917586643
 10
55.2468159133997
 20
-3.508740826691551
 10
55.30341620987138
 20
-3.523209579282495
 10
55.36017166122839
 20
-3.537057120838676
 10
55.41944662234779
 20
-3.550832047275626
 10
55.4788693450741
 20
-3.563954849152404
 10
55.5384301997521
 20
-3.576435685730205
 10
55.60051024764518
 20
-3.588744950827273
 10
55.66272013984279
 20
-3.600380139850654
 10
55.72505070117529
 20
-3.611350519002115
 10
55.78989694995099
 20
-3.622048427665436
 10
55.85485458560198
 20
-3.632047685344295
 10
55.9199147523325
 20
-3.641356519211236
 10
55.9874837806227
 20
-3.650288988078606
 10
56.0551448846321
 20
-3.658494864798296
 10
56.12288938255339
 20
-3.665981154719363
 10
56.1907088984701
 20
-3.672754214266852
 10
56.2610209993462
 20
-3.679023351550196
 10
56.33139621102021
 20
-3.684539095254415
 10
56.40182608242771
 20
-3.689306340376526
 10
56.47230237767579
 20
-3.693329299853862
 10
56.5428170705027
 20
-3.696611475201616
 10
56.61336222217328
 20
-3.699155727390335
 10
56.6839300270486
 20
-3.700964282163305
 10
56.7545130431122
 20
-3.702038686151055
 10
56.822658934
 20
-3.702380301692627
  0
LWPOLYLINE
  5
37A
330
1E
100
AcDbEntity
  8
1
100
AcDbPolyline
 90
      123
 70
     0
 43
0.0
 10
60.19207527439998
 20
-1.775930607899975
 10
60.19643155869768
 20
-1.792761360422906
 10
60.2004652929695
 20
-1.809673778976705
 10
60.20417173939
 20
-1.826662033449306
 10
60.20754622253758
 20
-1.843719655739814
 10
60.21058421863678
 20
-1.860840199800456
 10
60.2132820594151
 20
-1.878017344402264
 10
60.215636376332
 20
-1.895244812047534
 10
60.2171746936375
 20
-1.908194633856935
 10
60.21851687266019
 20
-1.921166326602816
 10
60.21966200419726
 20
-1.934156921526884
 10
60.22060917975347
 20
-1.947163449427735
 10
60.22135753661761
 20
-1.960182934505485
 10
60.2219065854662
 20
-1.973212347146666
 10
60.22225601908728
 20
-1.986248631491504
 10
60.2224055314959
 20
-1.999288731503364
 10
60.22235486034639
 20
-2.012329590613425
 10
60.22210411924719
 20
-2.025368147667906
 10
60.22165361375727
 20
-2.038401339172164
 10
60.22100365097371
 20
-2.051426101612745
 10
60.22015457766499
 20
-2.064439379243125
 10
60.21910710191249
 20
-2.077438187055014
 10
60.21786212485428
 20
-2.090419577836994
 10
60.21642054944589
 20
-2.103380604733456
 10
60.21419429147319
 20
-2.120625244391614
 10
60.21162327124649
 20
-2.137821860909813
 10
60.2087109042597
 20
-2.154963983270016
 10
60.20546068183119
 20
-2.172045190067706
 10
60.20187675020018
 20
-2.189059493397174
 10
60.19796359899229
 20
-2.206001132643752
 10
60.19372576427027
 20
-2.222864393388935
 10
60.18916826278039
 20
-2.239644050560293
 10
60.18429641037776
 20
-2.256335183584595
 10
60.17911554611799
 20
-2.272932906559565
 10
60.17363130745528
 20
-2.289432813839076
 10
60.16784957155088
 20
-2.305830885572706
 10
60.16177622690219
 20
-2.322123126309976
 10
60.15541729879899
 20
-2.338305945290095
 10
60.14877896976798
 20
-2.354376216922437
 10
60.14186743124599
 20
-2.370330843854226
 10
60.13468889989621
 20
-2.386167006384003
 10
60.12724963983629
 20
-2.401882407107855
 10
60.1195559204271
 20
-2.417474806333076
 10
60.11161399111667
 20
-2.432942102315478
 10
60.10343002681828
 20
-2.448282709660595
 10
60.09501018500909
 20
-2.463495163762654
 10
60.08416302107928
 20
-2.482328386986226
 10
60.0729685535531
 20
-2.500957239500095
 10
60.06143830621879
 20
-2.519380164164306
 10
60.04958365267611
 20
-2.537595835710193
 10
60.03741550249878
 20
-2.555603642251626
 10
60.024944670186
 20
-2.573403115497213
 10
60.01218166316609
 20
-2.590994106451457
 10
59.99913651460587
 20
-2.608376959261545
 10
59.98312392283136
 20
-2.628962225815945
 10
59.96673576206839
 20
-2.649249693282277
 10
59.94998777933989
 20
-2.669241152153186
 10
59.9328952580101
 20
-2.688938641980786
 10
59.91547250630978
 20
-2.708344719121006
 10
59.8947473061071
 20
-2.730620404534546
 10
59.8736125359291
 20
-2.752507893237065
 10
59.85208821475328
 20
-2.774012268232606
 10
59.83019308168397
 20
-2.795138925560595
 10
59.8079449704137
 20
-2.815893479090883
 10
59.78536076606088
 20
-2.836281674530556
 10
59.76245627552499
 20
-2.856309405147125
 10
59.73590697876389
 20
-2.878764458011632
 10
59.70898009901259
 20
-2.900765363031476
 10
59.68169564631597
 20
-2.922321029103383
 10
59.65407198381298
 20
-2.943440300855497
 10
59.6261267230136
 20
-2.964131956311727
 10
59.59787598155299
 20
-2.984404602710597
 10
59.56933527498168
 20
-3.004266756051483
 10
59.54051878513678
 20
-3.023726686880605
 10
59.50778755616589
 20
-3.045148481705504
 10
59.47474236984469
 20
-3.066082754939043
 10
59.44140016871539
 20
-3.086540488551075
 10
59.40777646401047
 20
-3.106532219677676
 10
59.37388605120739
 20
-3.126068249351892
 10
59.33974248091248
 20
-3.145158418347575
 10
59.30152398726729
 20
-3.165858467326945
 10
59.2630252047402
 20
-3.186032473226473
 10
59.22426156351829
 20
-3.205692602331826
 10
59.18524719312599
 20
-3.224850394601055
 10
59.1459955294094
 20
-3.243517035578044
 10
59.10255932790059
 20
-3.263495696651772
 10
59.05886645161139
 20
-3.282906478732886
 10
59.01493121764699
 20
-3.301762262283906
 10
58.97076705443646
 20
-3.320075365476747
 10
58.9223415558326
 20
-3.339448137677405
 10
58.8736735857496
 20
-3.358203455635625
 10
58.8247772959676
 20
-3.376355084372457
 10
58.77566573970209
 20
-3.393915969234017
 10
58.72635123505439
 20
-3.410898483861194
 10
58.67271140009439
 20
-3.428657039372883
 10
58.6188603923895
 20
-3.445764533112392
 10
58.56481094873688
 20
-3.462234254963035
 10
58.51057489644857
 20
-3.478078666249825
 10
58.4519709392963
 20
-3.494456128044437
 10
58.39317649100209
 20
-3.510135946479406
 10
58.33420371109679
 20
-3.525131118356766
 10
58.27506405158358
 20
-3.539453891854665
 10
58.21576821257629
 20
-3.553115683296017
 10
58.15207512350855
 20
-3.567032011387986
 10
58.08822607565378
 20
-3.580214223329825
 10
58.0242320790262
 20
-3.592673764766196
 10
57.96010356713699
 20
-3.604421316359517
 10
57.89156267864068
 20
-3.616178428565466
 10
57.82289131766289
 20
-3.627147812259725
 10
57.75410026796759
 20
-3.637339684371656
 10
57.6851997994299
 20
-3.646763420919185
 10
57.61619969541889
 20
-3.655427541840944
 10
57.54710933992429
 20
-3.663339807466756
 10
57.47361203540999
 20
-3.670930629284153
 10
57.40003343338488
 20
-3.677688104672356
 10
57.32638358262788
 20
-3.683618854045397
 10
57.25267222919728
 20
-3.688728659510693
 10
57.1789088503631
 20
-3.693022457710846
 10
57.1051026756481
 20
-3.696504353174955
 10
57.03126281247238
 20
-3.699177674490676
 10
56.95739820942947
 20
-3.701044978196846
 10
56.88351742044239
 20
-3.702108020063725
 10
56.82267893399997
 20
-3.702380301692627
  0
LWPOLYLINE
  5
3F7
330
1E
100
AcDbEntity
  8
1
100
AcDbPolyline
 90
      132
 70
     0
 43
0.0
 10
54.70394392279999
 20
-3.268264015099993
 10
54.74961966764788
 20
-3.287337608358252
 10
54.79553978860129
 20
-3.305823989040693
 10
54.84168982349268
 20
-3.323734756363646
 10
54.89386542465627
 20
-3.343210774141793
 10
54.94629413694648
 20
-3.361989145401201
 10
54.99896104190909
 20
-3.380084545074542
 10
55.05185254425811
 20
-3.397511218864285
 10
55.10495504958949
 20
-3.414283411491126
 10
55.15825556088739
 20
-3.430414646444216
 10
55.21769680429528
 20
-3.447600495622165
 10
55.27735334506669
 20
-3.464024587182957
 10
55.33721008026739
 20
-3.479702196265173
 10
55.39725343668156
 20
-3.494647165504386
 10
55.4574715248373
 20
-3.508871760795616
 10
55.51785254175078
 20
-3.522388167042433
 10
55.57838488840546
 20
-3.535208312730603
 10
55.6451331033125
 20
-3.548518402642355
 10
55.71203928721338
 20
-3.561010880185265
 10
55.77909066421788
 20
-3.572698271400836
 10
55.84627530343778
 20
-3.583591870202905
 10
55.9135824489225
 20
-3.593701257286035
 10
55.98100143152717
 20
-3.603035886770656
 10
56.04852178344138
 20
-3.611604838521452
 10
56.1161340041847
 20
-3.619415394256725
 10
56.18998674382699
 20
-3.627078975625365
 10
56.26392593845249
 20
-3.633856673149602
 10
56.33794032933379
 20
-3.639755456078395
 10
56.41201917854939
 20
-3.644780963869836
 10
56.4861517682737
 20
-3.648938774756353
 10
56.56032765103039
 20
-3.652233313633247
 10
56.6345367592735
 20
-3.654667384573837
 10
56.70876905404417
 20
-3.656243668967023
 10
56.783014548596
 20
-3.656964172907686
 10
56.85726339735778
 20
-3.656829076573547
 10
56.93150577838467
 20
-3.655838254572055
 10
57.0057318388913
 20
-3.653991248572437
 10
57.07993155521259
 20
-3.651285755507106
 10
57.15409484483348
 20
-3.647718836991295
 10
57.2282115912381
 20
-3.643287416591785
 10
57.30227126601739
 20
-3.637986749991837
 10
57.37626306658968
 20
-3.631810982663766
 10
57.45017616704128
 20
-3.624754194870966
 10
57.517850989028
 20
-3.617505307021977
 10
57.58544081546129
 20
-3.609503071268026
 10
57.65293632505379
 20
-3.600740514888315
 10
57.72032794254457
 20
-3.591210203804265
 10
57.7876050866519
 20
-3.580902876441416
 10
57.85475692703299
 20
-3.569808818791555
 10
57.92177256456678
 20
-3.557918217485805
 10
57.98863995827439
 20
-3.545219609574135
 10
58.0553461266976
 20
-3.531700173445292
 10
58.11583724388071
 20
-3.518686664017315
 10
58.17617404358389
 20
-3.504973835719346
 10
58.236344694333
 20
-3.490549563793595
 10
58.29633710569407
 20
-3.475401413666437
 10
58.35613912293299
 20
-3.459516885147196
 10
58.41573706207849
 20
-3.442881917488936
 10
58.47511568142389
 20
-3.425480860306902
 10
58.52835626528019
 20
-3.409151908217126
 10
58.58139531228808
 20
-3.392177948494075
 10
58.63421922030338
 20
-3.374545411191693
 10
58.6868135349882
 20
-3.356239989838705
 10
58.7391637996671
 20
-3.337247375943946
 10
58.79125476122089
 20
-3.317552675713045
 10
58.8373253733479
 20
-3.299443030761155
 10
58.883163264457
 20
-3.280752693053506
 10
58.9287550611636
 20
-3.261469246915645
 10
58.97408667859821
 20
-3.241579847038043
 10
59.0191410205876
 20
-3.221069829714937
 10
59.06390019441769
 20
-3.199924050243926
 10
59.10834630736939
 20
-3.178127363919566
 10
59.1469651533827
 20
-3.158509110656094
 10
59.1853145550591
 20
-3.138368824475455
 10
59.22337829724908
 20
-3.117694343241514
 10
59.26114016476677
 20
-3.096473504800856
 10
59.29858377273721
 20
-3.074694088935946
 10
59.33568971765469
 20
-3.052342842516486
 10
59.37243599962519
 20
-3.029405623982075
 10
59.40880053411579
 20
-3.005868262810523
 10
59.43964954452738
 20
-2.985204973772044
 10
59.47018640563269
 20
-2.964081130369377
 10
59.50039253670921
 20
-2.942486908185156
 10
59.53024897253859
 20
-2.920412408695773
 10
59.55973674790278
 20
-2.897847733377632
 10
59.5888367320045
 20
-2.874782980126876
 10
59.61752647258037
 20
-2.851208175020753
 10
59.645780445775
 20
-2.827113277720615
 10
59.67357301222429
 20
-2.802488245390186
 10
59.7008785323322
 20
-2.777323035239595
 10
59.7276697363291
 20
-2.751607930303084
 10
59.74957924543909
 20
-2.729752394865437
 10
59.77108915331871
 20
-2.707504159675837
 10
59.79217980047987
 20
-2.684858376663364
 10
59.81283152445119
 20
-2.661810199316795
 10
59.83302331751649
 20
-2.638355484427524
 10
59.85273070824788
 20
-2.614491899638127
 10
59.86813103685049
 20
-2.595105271312654
 10
59.88319252344115
 20
-2.575454610538224
 10
59.89790235712339
 20
-2.555538870331333
 10
59.91224763938078
 20
-2.535357105553365
 10
59.92621415985198
 20
-2.514909895901634
 10
59.93978669790249
 20
-2.494198995373293
 10
59.95295000688678
 20
-2.473226188200225
 10
59.96568884015886
 20
-2.451993258614287
 10
59.977987951073
 20
-2.430501990847326
 10
59.9898320132921
 20
-2.408754523013695
 10
60.0012050712386
 20
-2.386755787467496
 10
60.01209087074139
 20
-2.364512042516214
 10
60.01992567803069
 20
-2.347672215958186
 10
60.0274704004716
 20
-2.330700740009334
 10
60.03471818007509
 20
-2.313600258269504
 10
60.04166216094989
 20
-2.296373420397503
 10
60.04829573290177
 20
-2.279023585799774
 10
60.05461275862209
 20
-2.261555479912227
 10
60.06060715453918
 20
-2.243973983401187
 10
60.06627283708128
 20
-2.226283976932957
 10
60.07160372267668
 20
-2.208490341173845
 10
60.07659372775369
 20
-2.190597956790166
 10
60.08123676874719
 20
-2.172611704455043
 10
60.08552717211919
 20
-2.154536890688274
 10
60.08946078217399
 20
-2.136380398411755
 10
60.09303379435639
 20
-2.118149475235775
 10
60.09624240411139
 20
-2.099851368770583
 10
60.09908280688399
 20
-2.081493326626485
 10
60.10155119811916
 20
-2.063082596413725
 10
60.10364377326199
 20
-2.044626425742595
 10
60.1053572231027
 20
-2.026132235859384
 10
60.10669065642986
 20
-2.007608295603914
 10
60.10764391871989
 20
-1.989063132051025
 10
60.1082168556256
 20
-1.970505272337456
 10
60.10840931157789
 20
-1.951953243600534
  0
LWPOLYLINE
  5
47D
330
1E
100
AcDbEntity
  8
1
100
AcDbPolyline
 90
      166
 70
     0
 43
0.0
 10
57.91868444479999
 20
1.293771842400009
 10
57.89823931417219
 20
1.270504285890428
 10
57.877387874809
 20
1.247593210349251
 10
57.8561362921328
 20
1.225048367622177
 10
57.83449073156609
 20
1.202879509554918
 10
57.81245735853528
 20
1.181096387954839
 10
57.79004239524367
 20
1.159708199117521
 10
57.76725226370339
 20
1.138722184383152
 10
57.74409342985709
 20
1.118145155268009
 10
57.72057235964768
 20
1.09798392328842
 10
57.69669552105689
 20
1.0782452987649
 10
57.6724698460265
 20
1.058935819903791
 10
57.65143338225477
 20
1.04273089489118
 10
57.6301516140831
 20
1.026849286830292
 10
57.60862965994729
 20
1.011294671361339
 10
57.58687263828369
 20
0.9960707241245508
 10
57.56488570920089
 20
0.9811810243958888
 10
57.54267429765529
 20
0.9666285390136517
 10
57.52024393230668
 20
0.9524159950105467
 10
57.49760014205667
 20
0.9385461188604221
 10
57.47474845580669
 20
0.9250216370371267
 10
57.451694404386
 20
0.9118452697217067
 10
57.4284436053793
 20
0.8990194538669527
 10
57.40500179643099
 20
0.8865462344728978
 10
57.3813747239946
 20
0.8744276277798109
 10
57.35756813452399
 20
0.8626656500279649
 10
57.3335877744727
 20
0.8512623174576289
 10
57.30943939096698
 20
0.8402195636711139
 10
57.2851287340072
 20
0.8295389691706468
 10
57.26066155436077
 20
0.8192220201670908
 10
57.23604360279566
 20
0.8092702028703698
 10
57.21128063007938
 20
0.799685003490411
 10
57.18637838397488
 20
0.7904678955418472
 10
57.1613425727638
 20
0.7816201857312808
 10
57.13617887691438
 20
0.7731430632537811
 10
57.11089297631389
 20
0.7650377148492728
 10
57.08549055084959
 20
0.7573053272576809
 10
57.05997728000099
 20
0.7499470867251449
 10
57.03435881293229
 20
0.7429641427761858
 10
57.0086407481004
 20
0.7363575835125559
 10
56.982828679135
 20
0.7301284911883951
 10
56.95692819966539
 20
0.7242779480578421
 10
56.93094490332121
 20
0.7188070363750391
 10
56.90488438033767
 20
0.7137168477659879
 10
56.87875220765069
 20
0.7090085105784719
 10
56.8525539589392
 20
0.7046831621531942
 10
56.82629520788211
 20
0.7007419398308619
 10
56.79998152815829
 20
0.6971859809521789
 10
56.77361850021927
 20
0.6940164342995912
 10
56.74721176044189
 20
0.6912345431397169
 10
56.72076697276768
 20
0.6888415973076829
 10
56.6942898013313
 20
0.6868388869655229
 10
56.66778591026758
 20
0.6852277022752693
 10
56.64126097231989
 20
0.6840093394813631
 10
56.6147207954371
 20
0.6831851903568164
 10
56.58817129501978
 20
0.6827567225940401
 10
56.56161838943472
 20
0.6827254059810059
 10
56.539492636753
 20
0.6830037485334161
 10
56.51737205440698
 20
0.6835597617765382
 10
56.49526012274328
 20
0.6843943127856359
 10
56.47316047431278
 20
0.6855083140053441
 10
56.45107676763238
 20
0.686902685620178
 10
56.42901266121878
 20
0.6885783478146542
 10
56.40697181358867
 20
0.6905362207732921
 10
56.384957883259
 20
0.6927772246806062
 10
56.36297457948097
 20
0.6953022769192762
 10
56.34102581802169
 20
0.6981122834671031
 10
56.31911556718701
 20
0.7012081474004162
 10
56.2972477952826
 20
0.7045907717955439
 10
56.27542647061448
 20
0.708261059728817
 10
56.25365556148828
 20
0.7122199142765651
 10
56.23193908393299
 20
0.7164682168607809
 10
56.2102812960191
 20
0.7210067390770734
 10
56.18868653236719
 20
0.7258362177866085
 10
56.16715912762739
 20
0.7309573898369744
 10
56.14570341645008
 20
0.736370992075758
 10
56.12432373348561
 20
0.7420777613505483
 10
56.10302445351929
 20
0.7480783918896531
 10
56.08181017819799
 20
0.7543733370183931
 10
56.06068558879469
 20
0.7609629655074243
 10
56.03965536666859
 20
0.7678476460355243
 10
56.01872419317938
 20
0.7750277472814751
 10
55.99789674968639
 20
0.782503637924058
 10
55.97717774816838
 20
0.7902756120268683
 10
55.95657206403089
 20
0.7983435654047844
 10
55.93608462698199
 20
0.8067072615438426
 10
55.91572036676638
 20
0.8153664638418238
 10
55.8954842131285
 20
0.8243209356965078
 10
55.87538109581289
 20
0.8335704405056729
 10
55.85541595232172
 20
0.8431146173216051
 10
55.83559375552519
 20
0.8529525382918411
 10
55.81591948836758
 20
0.8630831140942579
 10
55.7963981337938
 20
0.8735052553949838
 10
55.77703467474847
 20
0.8842178728601448
 10
55.7578340941766
 20
0.8952198771558689
 10
55.7388013310366
 20
0.9065100104421336
 10
55.71994114479418
 20
0.9180863272619998
 10
55.70125824913649
 20
0.9299467067879698
 10
55.68275735775088
 20
0.942089028192497
 10
55.66444318432478
 20
0.9545111706480351
 10
55.64632044254529
 20
0.9672110133267038
 10
55.624832289024
 20
0.9828140782460351
 10
55.60363361273179
 20
0.9988084049901358
 10
55.58273145288749
 20
1.015188440297591
 10
55.56213284870988
 20
1.031948630907012
 10
55.54184483941767
 20
1.049083423556982
 10
55.52187418977349
 20
1.066587001077921
 10
55.50222649992267
 20
1.084452426442423
 10
55.48290706115508
 20
1.102672465637343
 10
55.46392116475818
 20
1.121239884647412
 10
55.44527410201939
 20
1.140147449457353
 10
55.4269709123627
 20
1.159387791231561
 10
55.40901520400539
 20
1.178952775021822
 10
55.39141008029607
 20
1.19883399562804
 10
55.37415864401199
 20
1.219023047544389
 10
55.35726399793059
 20
1.239511525264999
 10
55.34072912041199
 20
1.260290997583521
 10
55.32455564227316
 20
1.28135275493531
 10
55.30874436967589
 20
1.302687917408902
 10
55.293296096914
 20
1.324287602641402
 10
55.2782116182816
 20
1.346142928269902
 10
55.2634917145377
 20
1.368245013661382
 10
55.24913638524298
 20
1.390585078027572
 10
55.23514443654228
 20
1.413154493110351
 10
55.22151457393277
 20
1.435944643515323
 10
55.20824550291147
 20
1.458946913848119
 10
55.19533592897547
 20
1.482152688714359
 10
55.18278441653869
 20
1.505553428452639
 10
55.17058852732889
 20
1.529141131639291
 10
55.15874538885888
 20
1.552908029935641
 10
55.14725212689839
 20
1.576846355938649
 10
55.13610586721728
 20
1.600948342245231
 10
55.12530373557559
 20
1.62520622146434
 10
55.114842678276
 20
1.64961245248787
 10
55.10471900303329
 20
1.674160299418989
 10
55.0949288755824
 20
1.698843205387473
 10
55.08546846165799
 20
1.723654613523071
 10
55.07633392699478
 20
1.748587966955561
 10
55.06752143732759
 20
1.7736367088147
 10
55.05764202834178
 20
1.80299765005383
 10
55.04818910771478
 20
1.83249835034014
 10
55.03915602569538
 20
1.862130504271292
 10
55.03053613252949
 20
1.891885806456441
 10
55.02232277846289
 20
1.921755951504753
 10
55.01450931694039
 20
1.9517326631686
 10
55.00708919729099
 20
1.981808538705103
 10
55.00005597904989
 20
2.011977179352411
 10
54.99340322783309
 20
2.042232241745793
 10
54.9871245092568
 20
2.072567382520531
 10
54.98121338893728
 20
2.102976258311889
 10
54.97489972877028
 20
2.13781150124776
 10
54.9690488607846
 20
2.172726850837483
 10
54.9636522703784
 20
2.207715356298779
 10
54.9587014547249
 20
2.242770094047999
 10
54.95418791099689
 20
2.2778841405015
 10
54.95010313641369
 20
2.313050572127163
 10
54.9464389303344
 20
2.348262801263691
 10
54.94318811271199
 20
2.38351537478372
 10
54.94001639932159
 20
2.423216252326383
 10
54.93734914927379
 20
2.462954168412772
 10
54.93517644593278
 20
2.502721699463521
 10
54.93348843808239
 20
2.542511470761021
 10
54.9322764575205
 20
2.582316991179451
 10
54.93153286392519
 20
2.622132537315653
 10
54.93125005117528
 20
2.661952411310759
 10
54.93124674158249
 20
2.666366861400033
  0
LWPOLYLINE
  5
525
330
1E
100
AcDbEntity
  8
1
100
AcDbPolyline
 90
       47
 70
     0
 43
0.0
 10
56.32266893399997
 20
-12.04931479839999
 10
56.28552273412989
 20
-12.0437226992292
 10
56.24843798044699
 20
-12.0377171763412
 10
56.21142015433289
 20
-12.03129886578859
 10
56.17447473716929
 20
-12.0244684036236
 10
56.13760721033789
 20
-12.0172264258988
 10
56.10082305498639
 20
-12.009573568682
 10
56.06412751695579
 20
-12.0015104835934
 10
56.02752516447496
 20
-11.99303786703867
 10
55.99102044453628
 20
-11.98415642343658
 10
55.95461780413208
 20
-11.9748668572058
 10
55.91832169025447
 20
-11.965169872765
 10
55.88213655032689
 20
-11.95506617494617
 10
55.84606691801049
 20
-11.94455655126549
 10
55.81011751691619
 20
-11.93364197136159
 10
55.77429309597978
 20
-11.9223234291542
 10
55.73859840413689
 20
-11.91060191856309
 10
55.70303819032329
 20
-11.8984784335083
 10
55.66761720320871
 20
-11.88595396907867
 10
55.6323401699286
 20
-11.8730296150168
 10
55.59721178056769
 20
-11.8597066239234
 10
55.5622367215519
 20
-11.8459862644819
 10
55.52741967930678
 20
-11.83186980537576
 10
55.49111927177879
 20
-11.81665767468188
 10
55.4550028200818
 20
-11.8010136786952
 10
55.4190757078189
 20
-11.78493943945319
 10
55.383343313357
 20
-11.76843676101259
 10
55.34781101477349
 20
-11.75150745750177
 10
55.3124841901457
 20
-11.73415334304918
 10
55.27736821755087
 20
-11.7163762317833
 10
55.2424684756885
 20
-11.69817797307229
 10
55.20779034840249
 20
-11.6795607078025
 10
55.1733392220766
 20
-11.6605267207531
 10
55.13912048311219
 20
-11.6410782977195
 10
55.10360066542776
 20
-11.6203052153744
 10
55.06834688312219
 20
-11.5990842751028
 10
55.03336517542229
 20
-11.5774181501752
 10
54.99866128397917
 20
-11.5553096719297
 10
54.96424090309449
 20
-11.53276169685619
 10
54.9301097270696
 20
-11.5097770814446
 10
54.8962734502059
 20
-11.48635868218458
 10
54.86128665790019
 20
-11.4614627868646
 10
54.82663440714509
 20
-11.4361021256776
 10
54.79232429929737
 20
-11.4102817078916
 10
54.75836394241407
 20
-11.38400655321839
 10
54.72336868719189
 20
-11.35615845969167
 10
54.7039516546409
 20
-11.34035883671669
  0
LWPOLYLINE
  5
556
330
1E
100
AcDbEntity
  8
1
100
AcDbPolyline
 90
       12
 70
     0
 43
0.0
 10
58.87149990339999
 20
-5.935427551899956
 10
59.0643202386996
 20
-6.207944911111225
 10
59.19973497565628
 20
-6.404489775153746
 10
59.30403780553548
 20
-6.559939056701637
 10
59.3885101348437
 20
-6.689229861633221
 10
59.4588447594678
 20
-6.799795173342054
 10
59.51880011516267
 20
-6.896615048349547
 10
59.57034229575667
 20
-6.982123058368926
 10
59.61533702533189
 20
-7.058820355030347
 10
59.6555545154015
 20
-7.129272516372337
 10
59.6911486893228
 20
-7.193375170952784
 10
59.71861303581488
 20
-7.244130611224447
  0
LWPOLYLINE
  5
564
330
1E
100
AcDbEntity
  8
1
100
AcDbPolyline
 90
       28
 70
     0
 43
0.0
 10
59.71853287729999
 20
3.621840188200021
 10
59.75809934050869
 20
3.762191977094301
 10
59.79500415248677
 20
3.898626712278819
 10
59.82933558806109
 20
4.031101904650729
 10
59.86118375267529
 20
4.159577287800463
 10
59.8906375325648
 20
4.284015680085078
 10
59.91778769551807
 20
4.404381651600082
 10
59.94272171206429
 20
4.520640957797223
 10
59.96552906483699
 20
4.632761008283861
 10
59.98588256691978
 20
4.738505760396813
 10
60.00432819100579
 20
4.840042890230551
 10
60.0209485785599
 20
4.937345577850721
 10
60.03548520220299
 20
5.028171371220524
 10
60.04840837303989
 20
5.114706494852493
 10
60.05979961964878
 20
5.196929075201643
 10
60.06946804369198
 20
5.272591489186451
 10
60.07781360240579
 20
5.343895389527243
 10
60.08469660590928
 20
5.408590781798102
 10
60.09047240825549
 20
5.468888231605363
 10
60.09523252399759
 20
5.524772761565402
 10
60.0990667687413
 20
5.576229923688018
 10
60.10220208386659
 20
5.625486502478572
 10
60.10456046692669
 20
5.670293992091298
 10
60.10624407010238
 20
5.710641625511682
 10
60.10742030829568
 20
5.748763589414687
 10
60.1081265482515
 20
5.784653109507652
 10
60.10840380676638
 20
5.818303804116107
 10
60.10841194116059
 20
5.825024062700051
  0
LWPOLYLINE
  5
582
330
1E
100
AcDbEntity
  8
1
100
AcDbPolyline
 90
      130
 70
     0
 43
0.0
 10
54.14706538829999
 20
-3.417048561399953
 10
54.1466519423125
 20
-3.414985228455165
 10
54.14626777816678
 20
-3.412915526702962
 10
54.14591317613478
 20
-3.410839962839975
 10
54.14558841648859
 20
-3.408759043562805
 10
54.14529377950007
 20
-3.406673275568063
 10
54.14502954544128
 20
-3.404583165552363
 10
54.14479599458427
 20
-3.402489220212333
 10
54.14459340720078
 20
-3.400391946244562
 10
54.14442206356309
 20
-3.398291850345673
 10
54.14430334615089
 20
-3.396539980344693
 10
54.14420668261199
 20
-3.394786795769173
 10
54.14413223449419
 20
-3.393032589808302
 10
54.14408012293828
 20
-3.391277653276254
 10
54.1440504055155
 20
-3.389522273250663
 10
54.14404313421738
 20
-3.387766736481207
 10
54.1440583610356
 20
-3.386011329717584
 10
54.14409613796157
 20
-3.384256339709476
 10
54.144156516987
 20
-3.382502053206573
 10
54.14423955010327
 20
-3.380748756958562
 10
54.14434528930218
 20
-3.378996737715123
 10
54.14447378657528
 20
-3.377246282225956
 10
54.14462509391396
 20
-3.375497677240726
 10
54.14479926330999
 20
-3.373751209509133
 10
54.14499634675479
 20
-3.372007165780873
 10
54.14521639512638
 20
-3.370265832958005
 10
54.14545941050299
 20
-3.368527504620076
 10
54.1457253281861
 20
-3.366792483484006
 10
54.14601407865696
 20
-3.365061072926275
 10
54.14632559239707
 20
-3.363333576323352
 10
54.14665979988768
 20
-3.361610297051736
 10
54.1470166316099
 20
-3.359891538487897
 10
54.14739601804527
 20
-3.358177604008316
 10
54.14779788967499
 20
-3.356468796989473
 10
54.14822217698038
 20
-3.354765420807852
 10
54.14866881044268
 20
-3.353067778839936
 10
54.14913772054329
 20
-3.351376174462203
 10
54.14962883776349
 20
-3.349690911051146
 10
54.15014208870188
 20
-3.348012289883163
 10
54.15078701499779
 20
-3.346007088848435
 10
54.15146331148888
 20
-3.344012261145993
 10
54.15217066554839
 20
-3.342028226892423
 10
54.15290876454971
 20
-3.340055406204254
 10
54.15367729586608
 20
-3.338094219198044
 10
54.15447594687108
 20
-3.336145085990356
 10
54.15530440493789
 20
-3.334208426697745
 10
54.15616235744
 20
-3.332284661436752
 10
54.15704949175069
 20
-3.330374210323943
 10
54.15796549524329
 20
-3.328477493475883
 10
54.1589100486735
 20
-3.326594921721825
 10
54.15988276747859
 20
-3.324726814223727
 10
54.16088322988517
 20
-3.322873437922015
 10
54.16191101368768
 20
-3.321035059150763
 10
54.16296569668059
 20
-3.319211944244023
 10
54.1640468566581
 20
-3.317404359535863
 10
54.16515407141488
 20
-3.315612571360353
 10
54.16628691874539
 20
-3.313836846051545
 10
54.16764040742267
 20
-3.311785823520934
 10
54.16902753976527
 20
-3.309757449775555
 10
54.17044764532517
 20
-3.307752147732534
 10
54.17190004811111
 20
-3.305770290001133
 10
54.17338405387628
 20
-3.303812083515683
 10
54.1748989646221
 20
-3.301877701155142
 10
54.17644408234949
 20
-3.299967315798455
 10
54.17801870905949
 20
-3.298081100324565
 10
54.17985352049819
 20
-3.295955243041015
 10
54.18172492069859
 20
-3.293861438443403
 10
54.18363186774969
 20
-3.291799944590106
 10
54.1855733197406
 20
-3.289771019539496
 10
54.18754823803596
 20
-3.287774913863356
 10
54.1895556466455
 20
-3.285811734961892
 10
54.191594625889
 20
-3.283881461540575
 10
54.1936642580906
 20
-3.281984067724055
 10
54.1957636255746
 20
-3.280119527636953
 10
54.19789181066529
 20
-3.278287815403931
 10
54.20004789568679
 20
-3.276488905149602
 10
54.20223096296329
 20
-3.274722770998613
 10
54.2044400948191
 20
-3.272989387075615
 10
54.20667437357849
 20
-3.271288727505216
 10
54.2089329054264
 20
-3.269620747009794
 10
54.21121492700907
 20
-3.267985294228143
 10
54.21351971933589
 20
-3.266382181725506
 10
54.2161389336767
 20
-3.264617103484285
 10
54.21878503364778
 20
-3.262892451731215
 10
54.22145699558228
 20
-3.261207959548832
 10
54.22415379581346
 20
-3.259563360019662
 10
54.22687441067449
 20
-3.257958386226222
 10
54.2296178164986
 20
-3.256392771251042
 10
54.23238298979221
 20
-3.254866248126556
 10
54.2351689798378
 20
-3.253378528822233
 10
54.23797502114639
 20
-3.251929271698727
 10
54.24080037726559
 20
-3.250518126712904
 10
54.24364431174279
 20
-3.249144743821685
 10
54.24650608812537
 20
-3.247808772981944
 10
54.24938496996089
 20
-3.246509864150606
 10
54.25228022079679
 20
-3.245247667284535
 10
54.25519110418049
 20
-3.244021832340647
 10
54.2581168836595
 20
-3.242832009275824
 10
54.26138432474528
 20
-3.241551794052986
 10
54.26466826986079
 20
-3.240315126931633
 10
54.26796794550347
 20
-3.239121537096816
 10
54.27128265521679
 20
-3.237970556777995
 10
54.27461170268959
 20
-3.236861718210382
 10
54.27795439161069
 20
-3.235794553629207
 10
54.28131002566878
 20
-3.234768595269664
 10
54.2846779085527
 20
-3.233783375366991
 10
54.28805734395108
 20
-3.232838426156406
 10
54.29144763555298
 20
-3.231933279873103
 10
54.294848087047
 20
-3.231067468752316
 10
54.29859949607117
 20
-3.230159952914402
 10
54.30236161519699
 20
-3.229298898411383
 10
54.30613384683677
 20
-3.228483778914566
 10
54.30991559885359
 20
-3.227714069689143
 10
54.31370627911029
 20
-3.226989246000316
 10
54.31750529546989
 20
-3.226308783113275
 10
54.32131205579548
 20
-3.225672156293225
 10
54.32512596795
 20
-3.225078840805356
 10
54.32894643979638
 20
-3.224528311914865
 10
54.3331210127723
 20
-3.223975916287975
 10
54.33730191916769
 20
-3.223473134860645
 10
54.3414884323134
 20
-3.223019335414971
 10
54.3456799105291
 20
-3.222613984746323
 10
54.34987572245359
 20
-3.222256561672205
 10
54.35407523672568
 20
-3.221946545010166
 10
54.35827782198439
 20
-3.221683413577725
 10
54.36248284686839
 20
-3.221466646192413
 10
54.36704031127798
 20
-3.221283530920473
 10
54.37159909516648
 20
-3.221153554706196
 10
54.3761583958139
 20
-3.221076054911916
 10
54.38070741049738
 20
-3.221050369023046
  0
LWPOLYLINE
  5
606
330
1E
100
AcDbEntity
  8
1
100
AcDbPolyline
 90
        7
 70
     0
 43
0.0
 10
54.30116265349997
 20
-4.260783682799946
 10
54.28085480370246
 20
-4.131991019304273
 10
54.25738218409539
 20
-3.992414041199715
 10
54.22991508930119
 20
-3.838731208921133
 10
54.19735933039818
 20
-3.666797091741833
 10
54.15782100346877
 20
-3.469132339445542
 10
54.14706742251528
 20
-3.417058352312496
  0
LWPOLYLINE
  5
60F
330
1E
100
AcDbEntity
  8
1
100
AcDbPolyline
 90
       12
 70
     0
 43
0.0
 10
54.03124292339999
 20
-5.275033158499985
 10
54.06359942661128
 20
-5.174032003034174
 10
54.09425855893069
 20
-5.074694645469036
 10
54.12326190828828
 20
-4.977049049022643
 10
54.1506525303615
 20
-4.881121823985695
 10
54.17674932302317
 20
-4.785924065842462
 10
54.20130842657038
 20
-4.692488398368403
 10
54.22463121579847
 20
-4.599818320398504
 10
54.24673723041839
 20
-4.507928728846036
 10
54.2676494806404
 20
-4.416837280136902
 10
54.28761119702719
 20
-4.325534989380834
 10
54.30116064142099
 20
-4.260793478285573
  0
LWPOLYLINE
  5
61D
330
1E
100
AcDbEntity
  8
1
100
AcDbPolyline
 90
      117
 70
     0
 43
0.0
 10
53.44397081549999
 20
-5.450905960099996
 10
53.44395487746588
 20
-5.449186487560683
 10
53.44396367871328
 20
-5.447466384594956
 10
53.4439971532157
 20
-5.445746063287834
 10
53.44405523494689
 20
-5.444025935724353
 10
53.44413785788069
 20
-5.442306413989552
 10
53.4442449559906
 20
-5.440587910168476
 10
53.44437646325049
 20
-5.438870836346134
 10
53.44453231363399
 20
-5.437155604607573
 10
53.44471244111488
 20
-5.435442627037834
 10
53.44491677966678
 20
-5.433732315721936
 10
53.44514526326349
 20
-5.432025082744924
 10
53.44539782587859
 20
-5.430321340191836
 10
53.44567440133428
 20
-5.428621499984075
 10
53.44597488573739
 20
-5.426925933363434
 10
53.4462990881412
 20
-5.425234917674986
 10
53.44664680535569
 20
-5.423548717058387
 10
53.44701783419129
 20
-5.421867595653304
 10
53.44741197145789
 20
-5.420191817599393
 10
53.44782901396587
 20
-5.418521647036335
 10
53.44826875852517
 20
-5.416857348103784
 10
53.44873100194609
 20
-5.415199184941406
 10
53.44921554103867
 20
-5.413547421688853
 10
53.44972217261309
 20
-5.411902322485802
 10
53.45025069347959
 20
-5.410264151471926
 10
53.45080090044818
 20
-5.408633172786876
 10
53.4514894879561
 20
-5.406685863589313
 10
53.45220862082911
 20
-5.404749696170494
 10
53.45295784141677
 20
-5.402824984692593
 10
53.45373668501871
 20
-5.400912033903097
 10
53.45454468693461
 20
-5.399011148549464
 10
53.45538138246379
 20
-5.397122633379166
 10
53.45624630690609
 20
-5.395246793139665
 10
53.45713899556089
 20
-5.393383932578446
 10
53.45805898372778
 20
-5.391534356442964
 10
53.45900580670639
 20
-5.389698369480695
 10
53.45997899979619
 20
-5.387876276439103
 10
53.46097809829679
 20
-5.386068382065674
 10
53.46200263799801
 20
-5.384274970400053
 10
53.46322947369849
 20
-5.382201178198265
 10
53.46448957863549
 20
-5.380147516941055
 10
53.4657822217461
 20
-5.378114180611683
 10
53.46710667196727
 20
-5.376101363193446
 10
53.46846219823611
 20
-5.374109258669613
 10
53.46984806948949
 20
-5.372138061023454
 10
53.4712635546645
 20
-5.370187964238262
 10
53.4727079226981
 20
-5.368259162297306
 10
53.47439305798117
 20
-5.366081141382916
 10
53.47611387503088
 20
-5.363931471894603
 10
53.47786936930929
 20
-5.361810309035193
 10
53.47965862348039
 20
-5.359717672915325
 10
53.48148072431178
 20
-5.357653577288075
 10
53.48333475857137
 20
-5.355618035906513
 10
53.48545758045799
 20
-5.353362200223271
 10
53.48761836199408
 20
-5.351142540495515
 10
53.48981580289411
 20
-5.348959076305273
 10
53.49204860287207
 20
-5.346811827234565
 10
53.494315461676
 20
-5.344700812844096
 10
53.49661514729838
 20
-5.342626009520802
 10
53.49894663915709
 20
-5.340587259897386
 10
53.50130895748939
 20
-5.338584380782735
 10
53.50370112253266
 20
-5.336617188985756
 10
53.50612215452429
 20
-5.334685501315344
 10
53.50857107370138
 20
-5.332789134580384
 10
53.51104690030169
 20
-5.330927905589786
 10
53.51354865456219
 20
-5.329101631152446
 10
53.51635759883899
 20
-5.327113210602836
 10
53.51919600465739
 20
-5.325167465144095
 10
53.52206270710788
 20
-5.323264104632664
 10
53.52495674297299
 20
-5.321402795164583
 10
53.52787716037938
 20
-5.319583200374615
 10
53.5308230074539
 20
-5.317804983897511
 10
53.53379333232298
 20
-5.316067809368066
 10
53.53678718311338
 20
-5.314371340421025
 10
53.5398036079518
 20
-5.312715240691165
 10
53.54284165496479
 20
-5.311099173813244
 10
53.54590037227918
 20
-5.309522803422034
 10
53.5489788314201
 20
-5.307985794584634
 10
53.55207628757339
 20
-5.306487823610773
 10
53.55519208263628
 20
-5.305028572118143
 10
53.5583255590186
 20
-5.303607721755834
 10
53.5617920201291
 20
-5.302088759710962
 10
53.56527820469921
 20
-5.300615454104075
 10
53.56878323747639
 20
-5.299187381210074
 10
53.57230624320809
 20
-5.297804117303906
 10
53.5758463466416
 20
-5.296465238660456
 10
53.57940267252448
 20
-5.295170321554657
 10
53.58297438714819
 20
-5.293918955480084
 10
53.58656082594539
 20
-5.292710783747955
 10
53.59016136738788
 20
-5.291545463363906
 10
53.5937753899477
 20
-5.290422651333563
 10
53.59740227209648
 20
-5.289342004662536
 10
53.60104139230649
 20
-5.288303180356463
 10
53.605024568754
 20
-5.287217212673806
 10
53.60902076292329
 20
-5.286180163570174
 10
53.61302916790188
 20
-5.285191587745615
 10
53.61704897722519
 20
-5.284251040130972
 10
53.6210794575145
 20
-5.283358113316743
 10
53.62512002882488
 20
-5.282512478955143
 10
53.62917013055739
 20
-5.281713818666934
 10
53.63322920211309
 20
-5.280961814072906
 10
53.63729668289298
 20
-5.280256146793826
 10
53.64137201229818
 20
-5.279596498450456
 10
53.64545462972978
 20
-5.278982550663584
 10
53.64954397458888
 20
-5.278413985053971
 10
53.65398103970799
 20
-5.277848882241156
 10
53.6584246295922
 20
-5.277336263129503
 10
53.6628740348696
 20
-5.276875787131641
 10
53.66732855119877
 20
-5.276467209204116
 10
53.67178747465761
 20
-5.276110292266053
 10
53.676250101324
 20
-5.275804799236616
 10
53.68071572727577
 20
-5.275550493034955
 10
53.68518364859077
 20
-5.275347136580235
 10
53.68965316134676
 20
-5.275194492791603
 10
53.6941235616219
 20
-5.275092324588213
 10
53.69859414549368
 20
-5.275040394889221
 10
53.70099121229769
 20
-5.275033158624784
  0
LWPOLYLINE
  5
694
330
1E
100
AcDbEntity
  8
1
100
AcDbPolyline
 90
        2
 70
     0
 43
0.0
 10
53.82266893399997
 20
-11.249199144
 10
52.30278358839999
 20
-11.2500000106944
  0
LWPOLYLINE
  5
698
330
1E
100
AcDbEntity
  8
1
100
AcDbPolyline
 90
       38
 70
     0
 43
0.0
 10
54.44885689119999
 20
-3.221050368899973
 10
54.45695021157228
 20
-3.221092425517043
 10
54.46504303691568
 20
-3.221218690739136
 10
54.4731343264261
 20
-3.221429307622485
 10
54.48122303929949
 20
-3.221724419223365
 10
54.48930814396327
 20
-3.222104186988135
 10
54.4973886974807
 20
-3.222568948935334
 10
54.50546380632149
 20
-3.223119141506931
 10
54.51353257749071
 20
-3.223755202211234
 10
54.52133418794549
 20
-3.224452919081973
 10
54.52912814139429
 20
-3.225231997286413
 10
54.5369134726533
 20
-3.226093115338006
 10
54.5446892119714
 20
-3.227036960013772
 10
54.55245438957138
 20
-3.228064218141196
 10
54.55994974239338
 20
-3.229137234932633
 10
54.56743327266188
 20
-3.230289786246513
 10
54.57490394895689
 20
-3.231522789746484
 10
54.5821038515351
 20
-3.232790475317103
 10
54.58928987178449
 20
-3.234134855435415
 10
54.59646094565538
 20
-3.235556947957685
 10
54.6033606762958
 20
-3.237002919443332
 10
54.61024440291446
 20
-3.238523240760745
 10
54.6171110907275
 20
-3.240118938697995
 10
54.62370632782969
 20
-3.241727796277674
 10
54.6302835694696
 20
-3.243408737894785
 10
54.63658973735639
 20
-3.245094138040543
 10
54.64287706155379
 20
-3.246848388092852
 10
54.64914445956647
 20
-3.248672570007845
 10
54.65514132040059
 20
-3.250490693462062
 10
54.6611175313921
 20
-3.252375634562703
 10
54.66682423413669
 20
-3.254245917533173
 10
54.67250979063046
 20
-3.256179862525035
 10
54.67817313061646
 20
-3.258178594388275
 10
54.68356826703518
 20
-3.260152157486562
 10
54.68894044888338
 20
-3.262187273287362
 10
54.69404566525678
 20
-3.264188393328886
 10
54.69912732585658
 20
-3.266247710450493
 10
54.70393472038249
 20
-3.268260101594373
  0
LWPOLYLINE
  5
6C0
330
1E
100
AcDbEntity
  8
1
100
AcDbPolyline
 90
       60
 70
     0
 43
0.0
 10
54.70394392279999
 20
-11.34035249489999
 10
54.6996485273587
 20
-11.33687861577427
 10
54.6953050438687
 20
-11.3334638456849
 10
54.69091447249739
 20
-11.33010891871989
 10
54.68647781341227
 20
-11.3268145689674
 10
54.68222120950168
 20
-11.32374171496228
 10
54.6779247715991
 20
-11.32072482379498
 10
54.67358935074027
 20
-11.3177645146622
 10
54.66921572650496
 20
-11.31486129442577
 10
54.66480463416321
 20
-11.31201560028838
 10
54.66035680832288
 20
-11.30922786841167
 10
54.65587298359219
 20
-11.3064985349576
 10
54.65159260864588
 20
-11.30396711481119
 10
54.64728120837678
 20
-11.3014888699669
 10
54.64293941870449
 20
-11.2990641668431
 10
54.6385679184257
 20
-11.2966933550298
 10
54.63416739650119
 20
-11.29437678012799
 10
54.62973854189149
 20
-11.2921147877387
 10
54.62528204355738
 20
-11.28990772346289
 10
54.62079859045959
 20
-11.28775593290159
 10
54.61628887155987
 20
-11.28565976165109
 10
54.61200619874396
 20
-11.28373141444839
 10
54.60770130666428
 20
-11.2818532181461
 10
54.60337478891169
 20
-11.2800254087392
 10
54.59902723907688
 20
-11.27824822222309
 10
54.59465925075079
 20
-11.27652189459299
 10
54.59027141752409
 20
-11.27484666184408
 10
54.58586433298759
 20
-11.2732227599717
 10
54.58143859176338
 20
-11.27165042185477
 10
54.57699479815168
 20
-11.2701298511259
 10
54.57253356175039
 20
-11.2686612354093
 10
54.56805549221119
 20
-11.2672447621657
 10
54.56356119918607
 20
-11.26588061885579
 10
54.55905129232699
 20
-11.2645689929404
 10
54.55452638128579
 20
-11.26331007187999
 10
54.5499870759346
 20
-11.2621040426435
 10
54.54543399559677
 20
-11.26095107107681
 10
54.5411367262564
 20
-11.259914512179
 10
54.53682834259717
 20
-11.25892518666949
 10
54.53250937240329
 20
-11.2579832072262
 10
54.52818034345878
 20
-11.25708868652679
 10
54.52384178354789
 20
-11.2562417372493
 10
54.51949422045449
 20
-11.25544247207129
 10
54.51513818071639
 20
-11.254691001543
 10
54.51077417605588
 20
-11.25398741092417
 10
54.50640270848047
 20
-11.25333176889107
 10
54.50202427982866
 20
-11.2527241438317
 10
54.49763939193889
 20
-11.25216460413357
 10
54.49324854664967
 20
-11.2516532181847
 10
54.48885224579949
 20
-11.25119005437281
 10
54.48445099122679
 20
-11.25077518108549
 10
54.48004529665649
 20
-11.2504086625103
 10
54.47563575775848
 20
-11.25009053387808
 10
54.4712230047418
 20
-11.24982081821439
 10
54.46680766793638
 20
-11.24959953850219
 10
54.4623903776721
 20
-11.24942671772459
 10
54.4579717642791
 20
-11.2493023788643
 10
54.45355245808738
 20
-11.2492265449044
 10
54.44913308942679
 20
-11.2491992388278
 10
54.44886689120147
 20
-11.2491991441243
  0
LWPOLYLINE
  5
6FE
330
1E
100
AcDbEntity
  8
1
100
AcDbPolyline
 90
       67
 70
     0
 43
0.0
 10
44.88422802669999
 20
-5.626127586999984
 10
44.88902705803439
 20
-5.621165878723385
 10
44.8942512406506
 20
-5.615928678269844
 10
44.89955821957859
 20
-5.610773541120164
 10
44.90494553297867
 20
-5.605700903488654
 10
44.91041071901118
 20
-5.600711201589603
 10
44.91595131583627
 20
-5.595804871637321
 10
44.92156486161428
 20
-5.590982349846112
 10
44.92724891859299
 20
-5.586244052172502
 10
44.9330013989472
 20
-5.581590100282443
 10
44.93882047895827
 20
-5.577020393726981
 10
44.94470434140377
 20
-5.572534826593773
 10
44.95065116906109
 20
-5.568133292970443
 10
44.95665914470778
 20
-5.563815686944653
 10
44.96272645112139
 20
-5.559581902604032
 10
44.9688512710796
 20
-5.555431834036225
 10
44.9750318260621
 20
-5.55136536924205
 10
44.9812665001867
 20
-5.547382370643985
 10
44.98755372028578
 20
-5.543482693946629
 10
44.99389191319179
 20
-5.539666194854643
 10
45.00027950573707
 20
-5.535932729072603
 10
45.00671492475409
 20
-5.532282152305143
 10
45.01319659707528
 20
-5.528714320256884
 10
45.0197229495331
 20
-5.525229088632432
 10
45.02629245427598
 20
-5.521826303678455
 10
45.03290377269729
 20
-5.518505772144193
 10
45.03955561558359
 20
-5.515267290469946
 10
45.04624669372168
 20
-5.512110655095971
 10
45.05297571789856
 20
-5.509035662462554
 10
45.05974139890078
 20
-5.506042109009952
 10
45.0665424475154
 20
-5.503129791178455
 10
45.07337757452908
 20
-5.500298505408313
 10
45.08024550120111
 20
-5.497548048846092
 10
45.0871450676612
 20
-5.494878226655254
 10
45.09407518938806
 20
-5.492288849080953
 10
45.10103478305759
 20
-5.489779726449084
 10
45.10802276534517
 20
-5.487350669085512
 10
45.1150380529266
 20
-5.485001487316151
 10
45.12207956247737
 20
-5.482731991466871
 10
45.12914621067317
 20
-5.480541991863552
 10
45.13671045669457
 20
-5.478293401153671
 10
45.14430080190177
 20
-5.476134825639375
 10
45.15191607787288
 20
-5.474066075181643
 10
45.15955513065727
 20
-5.472086963602743
 10
45.16721680630449
 20
-5.470197304724933
 10
45.1748999508641
 20
-5.468396912370471
 10
45.18260341038558
 20
-5.466685600361603
 10
45.19032603091837
 20
-5.465063182520592
 10
45.19806665851207
 20
-5.463529472669705
 10
45.20582416368138
 20
-5.462084293296263
 10
45.2135975337861
 20
-5.460727508272011
 10
45.22138579102988
 20
-5.459458993809653
 10
45.22918795762239
 20
-5.458278626124043
 10
45.23700305577338
 20
-5.457186281430024
 10
45.24483010769237
 20
-5.456181835942455
 10
45.2526681355891
 20
-5.455265165876165
 10
45.26051616167328
 20
-5.454436147446005
 10
45.26837320453537
 20
-5.453694658367165
 10
45.27623820227527
 20
-5.453040609722492
 10
45.28411001400098
 20
-5.452473945341445
 10
45.29198749550057
 20
-5.451994610429533
 10
45.29986950256247
 20
-5.451602550192274
 10
45.3077548909751
 20
-5.451297709835174
 10
45.31564251652659
 20
-5.451080034563741
 10
45.32353123500546
 20
-5.450949469583512
 10
45.33141990219998
 20
-5.450905960099992
 10
45.33140990219897
 20
-5.450905960169901
  0
LWPOLYLINE
  5
743
330
1E
100
AcDbEntity
  8
1
100
AcDbPolyline
 90
       14
 70
     0
 43
0.0
 10
53.66185429509997
 20
5.519746510300011
 10
53.67411911287327
 20
5.518041684307533
 10
53.68613780950219
 20
5.516496476515543
 10
53.69790790446638
 20
5.51510553574301
 10
53.70942711793738
 20
5.513863335269872
 10
53.72082597018678
 20
5.512751943899141
 10
53.73197017608617
 20
5.511780484514114
 10
53.74285795490759
 20
5.510942997618893
 10
53.75362055747768
 20
5.51022548349429
 10
53.764123611669
 20
5.509633416996011
 10
53.77436563205378
 20
5.509161255478852
 10
53.7843453000267
 20
5.508803275453561
 10
53.79419456578799
 20
5.508550863278832
 10
53.7944507926381
 20
5.508545653193293
  0
LWPOLYLINE
  5
753
330
1E
100
AcDbEntity
  8
1
100
AcDbPolyline
 90
       61
 70
     0
 43
0.0
 10
58.43124772749999
 20
2.865974880300021
 10
58.43105920744548
 20
2.83051270746216
 10
58.43049525465279
 20
2.795051568467839
 10
58.4295514871502
 20
2.759596002783391
 10
58.4282234664877
 20
2.724151102782151
 10
58.42650675421547
 20
2.68872196083749
 10
58.42450636057928
 20
2.654999230494311
 10
58.42214555229029
 20
2.62129981108927
 10
58.41942037975869
 20
2.58762813895274
 10
58.416326318621
 20
2.553988836283783
 10
58.4130409940769
 20
2.522065743487701
 10
58.40941447113197
 20
2.49018010020781
 10
58.40544271765338
 20
2.458335918897172
 10
58.40112170150771
 20
2.426537212008863
 10
58.39644738375849
 20
2.394788010541363
 10
58.3916893329539
 20
2.364759658461851
 10
58.3866065419976
 20
2.33478439238299
 10
58.3811951661235
 20
2.304866758944919
 10
58.37545136056569
 20
2.275011304787759
 10
58.36937128055788
 20
2.245222576551662
 10
58.36295108133429
 20
2.215505120876763
 10
58.35657178747259
 20
2.187508272859409
 10
58.34988239319709
 20
2.159583678735573
 10
58.342879596517
 20
2.131736095065261
 10
58.33556009541116
 20
2.103970278859061
 10
58.32792058785849
 20
2.076290987127523
 10
58.3199577718376
 20
2.048702976881231
 10
58.3121650592156
 20
2.022825437152381
 10
58.30408035406708
 20
1.997037171381793
 10
58.29570115473928
 20
1.971342922629661
 10
58.28702498434109
 20
1.945747510538961
 10
58.27804936598119
 20
1.920255754752681
 10
58.26877182276838
 20
1.894872474913792
 10
58.25918987781149
 20
1.869602490665272
 10
58.24930106679649
 20
1.84445063636037
 10
58.23974968106939
 20
1.820982665391133
 10
58.22992516046237
 20
1.797627650211792
 10
58.21982598945798
 20
1.77439017657175
 10
58.20945065253878
 20
1.751274830220389
 10
58.1987976341874
 20
1.72828619690711
 10
58.18786541888639
 20
1.705428862381291
 10
58.17665253861328
 20
1.682707439413811
 10
58.16515804318928
 20
1.66012683539378
 10
58.15338130093628
 20
1.637692138916162
 10
58.1413216848264
 20
1.61540844122141
 10
58.12897856783179
 20
1.593280833549951
 10
58.11635132292429
 20
1.57131440714224
 10
58.10343932328136
 20
1.5495142532293
 10
58.0902421444961
 20
1.527885453760992
 10
58.07675994367288
 20
1.506433064023659
 10
58.062992981699
 20
1.485162134545053
 10
58.04894151946118
 20
1.464077715852852
 10
58.03460581784658
 20
1.44318485847481
 10
58.01998613774238
 20
1.42248861293863
 10
58.00508287069511
 20
1.40199407760199
 10
57.98989758289049
 20
1.381706780817203
 10
57.97443246156339
 20
1.361632478281179
 10
57.9586896995864
 20
1.341776927754541
 10
57.94267148983188
 20
1.322145886997889
 10
57.92638002517218
 20
1.302745113771812
 10
57.91869097988378
 20
1.293779411593271
  0
LWPOLYLINE
  5
792
330
1E
100
AcDbEntity
  8
1
100
AcDbPolyline
 90
       38
 70
     0
 43
0.0
 10
53.44397081549999
 20
11.24822208169999
 10
53.44399440605061
 20
11.24792828659018
 10
53.44453796738869
 20
11.24779702808877
 10
53.44533875473278
 20
11.24775495299009
 10
53.44614727490672
 20
11.24773232383089
 10
53.44687020146679
 20
11.24770201373707
 10
53.44751597504711
 20
11.24766466330497
 10
53.44809477855888
 20
11.24762138851688
 10
53.44861679491399
 20
11.24757330535498
 10
53.4490922070238
 20
11.24752152980158
 10
53.44953119779997
 20
11.24746717783899
 10
53.44994395015419
 20
11.24741136544949
 10
53.45034064699788
 20
11.24735520861527
 10
53.45112660580009
 20
11.24724632554197
 10
53.45153584808249
 20
11.24719578679168
 10
53.45196294500119
 20
11.24714858051466
 10
53.4524068370462
 20
11.24710452563097
 10
53.45286633216378
 20
11.24706342576868
 10
53.45334023830051
 20
11.24702508455589
 10
53.45382736340269
 20
11.24698930562058
 10
53.45432651541679
 20
11.24695589259098
 10
53.45509518628078
 20
11.24690977955609
 10
53.45588421239539
 20
11.24686788521689
 10
53.45668957057977
 20
11.24682954681829
 10
53.45778183328869
 20
11.24678281491359
 10
53.46163961775199
 20
11.24663711198887
 10
53.46271824213459
 20
11.24659501525228
 10
53.46404682440528
 20
11.24654113921177
 10
53.465356175316
 20
11.24648616327536
 10
53.46690601708139
 20
11.24641918483787
 10
53.4686909022072
 20
11.24634034401088
 10
53.47221562692678
 20
11.24618374471858
 10
53.47699685585149
 20
11.24598391132748
 10
53.48107615760878
 20
11.24583250973839
 10
53.48984838106009
 20
11.24554982571889
 10
53.53615006495608
 20
11.24439529625469
 10
53.60815913476296
 20
11.24333689813987
 10
53.70099121229999
 20
11.24288664000498
  0
LWPOLYLINE
  5
7BA
330
1E
100
AcDbEntity
  8
1
100
AcDbPolyline
 90
      128
 70
     0
 43
0.0
 10
60.1084119371
 20
-8.624961760799987
 10
60.1081949351101
 20
-8.659636765261886
 10
60.10755071275319
 20
-8.694307627104034
 10
60.10627178556577
 20
-8.734743806522176
 10
60.10443882974059
 20
-8.775158106177354
 10
60.1020658070756
 20
-8.815544169560046
 10
60.09916640583329
 20
-8.855895854858237
 10
60.0957530300776
 20
-8.896207470511306
 10
60.09183762466747
 20
-8.936473486200236
 10
60.0874313668238
 20
-8.976688665249467
 10
60.08254401552559
 20
-9.016848313530148
 10
60.07638160882328
 20
-9.062671128016255
 10
60.069615761569
 20
-9.10840880279856
 10
60.0622573202656
 20
-9.154055067877044
 10
60.05431672731699
 20
-9.199603699937288
 10
60.04580233097371
 20
-9.245048692029532
 10
60.03672169229409
 20
-9.290384118535612
 10
60.02708201891329
 20
-9.335604055935872
 10
60.01688876097261
 20
-9.380702590457886
 10
60.00614682121771
 20
-9.425673811365053
 10
59.99486099817739
 20
-9.470511797087617
 10
59.98303493454208
 20
-9.515210505691866
 10
59.97067155199617
 20
-9.559763820161693
 10
59.95777376122289
 20
-9.604165622328007
 10
59.94434421047959
 20
-9.64840972509998
 10
59.9303846695308
 20
-9.692489710664915
 10
59.91404865698777
 20
-9.741875472103815
 10
59.89704613912229
 20
-9.791036131200707
 10
59.87937906113888
 20
-9.839962294189584
 10
59.8610487492364
 20
-9.888644197240317
 10
59.84205645631408
 20
-9.937072032701827
 10
59.8224034346764
 20
-9.985235991293327
 10
59.80209086409169
 20
-10.03312606507918
 10
59.78111978316489
 20
-10.08073185951569
 10
59.75949121424129
 20
-10.12804293552999
 10
59.73720617966649
 20
-10.175048854049
 10
59.71426574462538
 20
-10.2217391192568
 10
59.69067126398778
 20
-10.26810285163658
 10
59.66642421262559
 20
-10.31412901272259
 10
59.6415260657956
 20
-10.3598065635398
 10
59.61597829875438
 20
-10.40512446511318
 10
59.58978255196269
 20
-10.45007160732349
 10
59.56294114971321
 20
-10.4946365855641
 10
59.53545659321028
 20
-10.5388079190423
 10
59.50733138365817
 20
-10.5825741269655
 10
59.47856802226128
 20
-10.6259237285412
 10
59.449169169611
 20
-10.66884523373039
 10
59.4191383454115
 20
-10.71132710265658
 10
59.38847935753939
 20
-10.7533577787259
 10
59.35719601408179
 20
-10.79492570533217
 10
59.32529212312588
 20
-10.8360193258695
 10
59.29277164187078
 20
-10.8766270973145
 10
59.25963950197019
 20
-10.91673756540759
 10
59.22590102646979
 20
-10.9563393115414
 10
59.19156153947409
 20
-10.99542091720499
 10
59.15662636508749
 20
-11.0339709638874
 10
59.1211009751327
 20
-11.07197807591759
 10
59.08094397071769
 20
-11.11355794417079
 10
59.0400757113359
 20
-11.1544387862755
 10
58.99850562504028
 20
-11.19460555518019
 10
58.96050028040829
 20
-11.23013267955679
 10
58.92194141159599
 20
-11.2650584631888
 10
58.88283725415297
 20
-11.29937259674649
 10
58.84319615881718
 20
-11.3330648266949
 10
58.80302647632639
 20
-11.36612489949909
 10
58.76233656869049
 20
-11.3985425694575
 10
58.72113532527489
 20
-11.4303079573386
 10
58.6794323770588
 20
-11.46141169927288
 10
58.6419497363126
 20
-11.48849647543418
 10
58.6040851437592
 20
-11.51504455221527
 10
58.56584540610138
 20
-11.54104938345619
 10
58.52723761095628
 20
-11.56650468430431
 10
58.48826933047778
 20
-11.5914046206231
 10
58.4489481848211
 20
-11.61574340292758
 10
58.40928179414189
 20
-11.6395152417326
 10
58.3692777785956
 20
-11.66271434755317
 10
58.32894386498447
 20
-11.68533506468458
 10
58.28828822501757
 20
-11.707372295525
 10
58.24731914640559
 20
-11.72882108798739
 10
58.20604491685919
 20
-11.74967648998568
 10
58.16447382408927
 20
-11.7699335494333
 10
58.12261419112759
 20
-11.789587374162
 10
58.0804746542503
 20
-11.8086336033906
 10
58.03806401352311
 20
-11.82706815419019
 10
58.0007392321546
 20
-11.84269341086108
 10
57.96321952186089
 20
-11.85784449348139
 10
57.92551077945239
 20
-11.87251866959359
 10
57.88761897681138
 20
-11.88671338249369
 10
57.84955024052928
 20
-11.90042643767289
 10
57.8113107162826
 20
-11.91365568530309
 10
57.7729065497478
 20
-11.92639897555608
 10
57.7343438866012
 20
-11.93865415860359
 10
57.69562887417528
 20
-11.95041909034999
 10
57.65676772713689
 20
-11.9616918597958
 10
57.61776674937399
 20
-11.97247086480379
 10
57.57863225091671
 20
-11.9827545244998
 10
57.5393705417952
 20
-11.9925412580099
 10
57.49998793203968
 20
-12.0018294844598
 10
57.46049073550961
 20
-12.01061764249518
 10
57.42088532399049
 20
-12.01890446604199
 10
57.38117811418349
 20
-12.02668891798517
 10
57.3413755239641
 20
-12.0339699671955
 10
57.3014839712076
 20
-12.0407465825435
 10
57.26150987378947
 20
-12.0470177328999
 10
57.22145965052778
 20
-12.0527824333746
 10
57.1813397269961
 20
-12.0580400304746
 10
57.14115653171528
 20
-12.062790015288
 10
57.10091649321839
 20
-12.0670318795044
 10
57.06062604003871
 20
-12.07076511481349
 10
57.0202916007096
 20
-12.07398921290649
 10
56.97991961979647
 20
-12.07670375872941
 10
56.9395166009659
 20
-12.07890868100889
 10
56.89908906150018
 20
-12.0806039876718
 10
56.85864351868199
 20
-12.0817896866451
 10
56.81818648979338
 20
-12.0824657858555
 10
56.77772449082438
 20
-12.0826322944544
 10
56.7372638953531
 20
-12.0822893564886
 10
56.69681080758909
 20
-12.0814373711569
 10
56.65637130177728
 20
-12.0800767660411
 10
56.6159514521626
 20
-12.0782079687234
 10
56.57555733298988
 20
-12.07583140678559
 10
56.53519504583377
 20
-12.0729475211206
 10
56.49487134399178
 20
-12.06955707004049
 10
56.4545936456064
 20
-12.0656611356675
 10
56.41436939877428
 20
-12.0612608147134
 10
56.37420605159229
 20
-12.0563572038895
 10
56.33411105215721
 20
-12.05095139990739
 10
56.32267883070349
 20
-12.04931623201838
  0
LWPOLYLINE
  5
83C
330
1E
100
AcDbEntity
  8
1
100
AcDbPolyline
 90
       66
 70
     0
 43
0.0
 10
60.10840931169999
 20
-6.455275169399956
 10
60.10834794825838
 20
-6.444626565441787
 10
60.10816127535479
 20
-6.433979076283754
 10
60.10784914065799
 20
-6.423333712138972
 10
60.10741139510727
 20
-6.412691485500674
 10
60.10684815585521
 20
-6.402053594461515
 10
60.10615999892316
 20
-6.391421557029842
 10
60.10534754575228
 20
-6.380796922879847
 10
60.10441141778379
 20
-6.370181241685707
 10
60.10335223645879
 20
-6.359576063121642
 10
60.10217062321828
 20
-6.348982936861846
 10
60.10086719950368
 20
-6.338403412580515
 10
60.099442586756
 20
-6.327839039951838
 10
60.0978974064164
 20
-6.317291368650018
 10
60.09623227992587
 20
-6.306761948349244
 10
60.09444782872588
 20
-6.296252328723736
 10
60.09254467425739
 20
-6.285764059447666
 10
60.09052348662017
 20
-6.275298628691802
 10
60.08818508362907
 20
-6.263909138668648
 10
60.08570877785039
 20
-6.252549395163476
 10
60.08309598005828
 20
-6.241220646664744
 10
60.0803481010271
 20
-6.229924141660893
 10
60.07746655153098
 20
-6.218661128640362
 10
60.07445274234449
 20
-6.207432856091597
 10
60.07130808424168
 20
-6.196240572503037
 10
60.06803398799699
 20
-6.185085526363117
 10
60.0646318643847
 20
-6.173968966160286
 10
60.06080339138571
 20
-6.161970904271692
 10
60.05682811418028
 20
-6.150021060875605
 10
60.05270791950867
 20
-6.138120825401797
 10
60.04844487363659
 20
-6.126271205498006
 10
60.04404106349127
 20
-6.114473164872298
 10
60.0394985760004
 20
-6.102727667232674
 10
60.0344539712734
 20
-6.090138536256697
 10
60.02925356051219
 20
-6.077612664029697
 10
60.02389995023878
 20
-6.065151254199771
 10
60.01839574697509
 20
-6.052755510415016
 10
60.01274355724299
 20
-6.040426636323516
 10
60.00652638130419
 20
-6.027292700740375
 10
60.00014551439509
 20
-6.014238348718896
 10
59.99360407160089
 20
-6.001264481700053
 10
59.98690511013329
 20
-5.988371632182886
 10
59.97958937397989
 20
-5.974709150458027
 10
59.97210160265527
 20
-5.961140083712716
 10
59.96444550510129
 20
-5.947665069400684
 10
59.95613061443849
 20
-5.933451633250457
 10
59.94763433502921
 20
-5.919345857707517
 10
59.93844551106938
 20
-5.904528526729474
 10
59.92906359559699
 20
-5.889833655108815
 10
59.91949356613099
 20
-5.875261774707577
 10
59.90919271592709
 20
-5.860013654934122
 10
59.89869242598969
 20
-5.844902249505927
 10
59.88742972910357
 20
-5.829142982170082
 10
59.8759578417385
 20
-5.813534740146584
 10
59.86369383739429
 20
-5.797308369612784
 10
59.85061324763067
 20
-5.780487327301432
 10
59.8373025883955
 20
-5.763848126864258
 10
59.82314911906819
 20
-5.746646435127867
 10
59.8081292981832
 20
-5.728906925204077
 10
59.79286161711709
 20
-5.711380680205855
 10
59.77670346909569
 20
-5.693349547718216
 10
59.75963400401258
 20
-5.674839560346707
 10
59.74163359582389
 20
-5.655877479190284
 10
59.72268398191268
 20
-5.636490699056555
 10
59.70276594106328
 20
-5.616705758144717
 10
59.69444657998979
 20
-5.608612139859216
  0
LWPOLYLINE
  5
880
330
1E
100
AcDbEntity
  8
1
100
AcDbPolyline
 90
        2
 70
     0
 43
0.0
 10
44.88533409819996
 20
11.24999992499999
 10
45.33140990219997
 20
11.24822208170139
  0
LWPOLYLINE
  5
884
330
1E
100
AcDbEntity
  8
SK1
100
AcDbPolyline
 90
       52
 70
     0
 43
0.0
 10
-18.19158806599998
 20
-6.782329983099962
 10
-18.10685450554279
 20
-6.649316567759226
 10
-18.02380145432739
 20
-6.515237609479275
 10
-17.94244460251537
 20
-6.380118453694906
 10
-17.8627995820307
 20
-6.243984384117926
 10
-17.78488017518969
 20
-6.106858724152335
 10
-17.71212295481889
 20
-5.975060342234207
 10
-17.64095857927831
 20
-5.842395757601995
 10
-17.57139701708909
 20
-5.708883286973446
 10
-17.50344819570409
 20
-5.574542309828625
 10
-17.43712202620819
 20
-5.439392629212683
 10
-17.37242841701581
 20
-5.303454049432428
 10
-17.30937694473871
 20
-5.166746395728938
 10
-17.24797653401231
 20
-5.029289534478246
 10
-17.1910430489672
 20
-4.897699876971516
 10
-17.13562276429341
 20
-4.765465872888436
 10
-17.081722907629
 20
-4.632604923906698
 10
-17.02935044529659
 20
-4.499134580025386
 10
-16.97851233865159
 20
-4.365072394062725
 10
-16.9292154251815
 20
-4.230435960492086
 10
-16.88146604363699
 20
-4.095243041504658
 10
-16.83527040726428
 20
-3.959511441497156
 10
-16.7906347213771
 20
-3.823258967525346
 10
-16.7475648873371
 20
-3.686503528536977
 10
-16.70606641419229
 20
-3.549263164992776
 10
-16.66614478502459
 20
-3.411555926057863
 10
-16.6278054061084
 20
-3.273399882476933
 10
-16.59105320812559
 20
-3.134813238615306
 10
-16.55761307172009
 20
-3.002773710723196
 10
-16.5256137212439
 20
-2.870377693924765
 10
-16.49505902141791
 20
-2.737640887877466
 10
-16.46595245687508
 20
-2.604579080219787
 10
-16.43829747088609
 20
-2.471208068164542
 10
-16.41209748206978
 20
-2.337543654514865
 10
-16.3873555648744
 20
-2.203601720122095
 10
-16.36407454089191
 20
-2.069398203178085
 10
-16.34225722587189
 20
-1.934949043199688
 10
-16.3219063304816
 20
-1.800270184293838
 10
-16.3030241476165
 20
-1.665377588816196
 10
-16.28561286636418
 20
-1.530287223656848
 10
-16.26967466848091
 20
-1.395015059679957
 10
-16.25521147091791
 20
-1.259577211288287
 10
-16.24222485788958
 20
-1.123989973246355
 10
-16.23071639246971
 20
-0.9882696517779688
 10
-16.2206875752745
 20
-0.852432458075258
 10
-16.21213950415769
 20
-0.7164939905106113
 10
-16.2050731171536
 20
-0.5804696042850665
 10
-16.1994893494401
 20
-0.4443746687844194
 10
-16.19538892409208
 20
-0.3082258325770991
 10
-16.19277219142719
 20
-0.1720419923161531
 10
-16.19163946393959
 20
-0.0358422727639149
 10
-16.19158806600401
 20
-0.0000099999999916
  0
LWPOLYLINE
  5
8BA
330
1E
100
AcDbEntity
  8
SK1
100
AcDbPolyline
 90
       52
 70
     0
 43
0.0
 10
-16.19158806599999
 20
0.0000000000000303
 10
-16.19233021387531
 20
0.1362007197379759
 10
-16.1945564491674
 20
0.2723905931045119
 10
-16.19826645937568
 20
0.4085504953281152
 10
-16.20345992249459
 20
0.5446613589614771
 10
-16.21013623679309
 20
0.6807058035788021
 10
-16.21829448195289
 20
0.8166683701507865
 10
-16.2279337203371
 20
0.9525337040961499
 10
-16.23905293989209
 20
1.088286337606811
 10
-16.25165071828148
 20
1.22391017862086
 10
-16.26572549253819
 20
1.359388921103712
 10
-16.28127569601779
 20
1.49470626075591
 10
-16.29829953407449
 20
1.62984601687051
 10
-16.3167948498282
 20
1.764792205096379
 10
-16.3367594541834
 20
1.899528858545419
 10
-16.35819111662067
 20
2.034040012139219
 10
-16.38108722708819
 20
2.16830971737983
 10
-16.4054449717609
 20
2.302322034671431
 10
-16.43126153468729
 20
2.436061024543431
 10
-16.45853395406978
 20
2.56951078059847
 10
-16.4872588581296
 20
2.70265548940957
 10
-16.5174328035792
 20
2.8354793537657
 10
-16.54905233622359
 20
2.967966578980651
 10
-16.58211371263479
 20
3.100101437321201
 10
-16.6184683733374
 20
3.238792878804241
 10
-16.6564114024552
 20
3.377058283788711
 10
-16.69593796403278
 20
3.514879421298191
 10
-16.7370427402324
 20
3.652238195740651
 10
-16.77972024810038
 20
3.789116557913187
 10
-16.8239649994306
 20
3.92549646036571
 10
-16.869771228698
 20
4.061359948614088
 10
-16.9171327564466
 20
4.196689206936921
 10
-16.96604336941001
 20
4.331466430946917
 10
-17.01649680127309
 20
4.465673834096268
 10
-17.06848632726321
 20
4.599293784008268
 10
-17.12200498792799
 20
4.732308727224808
 10
-17.17704582179551
 20
4.864701110994992
 10
-17.2336017156125
 20
4.996453468716961
 10
-17.2946077122299
 20
5.134085783765231
 10
-17.35726687721661
 20
5.27097362249594
 10
-17.42157033754289
 20
5.407097115285458
 10
-17.48750870050171
 20
5.542436425294321
 10
-17.55507207511461
 20
5.676971747116811
 10
-17.62425055034339
 20
5.810683276612682
 10
-17.6950342068571
 20
5.943551424235848
 10
-17.76741308316688
 20
6.075557691348937
 10
-17.84493867686981
 20
6.212905771491342
 10
-17.92419259020871
 20
6.349267110137168
 10
-18.00516175395761
 20
6.484619139656413
 10
-18.08783068306939
 20
6.618936732016867
 10
-18.17218368737048
 20
6.752194541783389
 10
-18.19158264013941
 20
6.782321583097862
  0
LWPOLYLINE
  5
8F0
330
1E
100
AcDbEntity
  8
1
100
AcDbPolyline
 90
       63
 70
     0
 43
0.0
 10
44.77654454759996
 20
11.24599928859998
 10
44.77648653227197
 20
11.24618604122808
 10
44.77649440630606
 20
11.24635228092129
 10
44.7765618016696
 20
11.24649963755617
 10
44.77668235032989
 20
11.24662974100967
 10
44.77684968425458
 20
11.24674422115839
 10
44.777057435411
 20
11.24684470787918
 10
44.77729923576658
 20
11.24693283104877
 10
44.77756871728877
 20
11.24701022054389
 10
44.77785951194499
 20
11.24707850624127
 10
44.77816525170278
 20
11.24713931801769
 10
44.77847956852938
 20
11.24719428574989
 10
44.77895319570229
 20
11.24726934512069
 10
44.77926193905739
 20
11.24731663009908
 10
44.77956301627807
 20
11.24736231913477
 10
44.77985666204367
 20
11.24740645123989
 10
44.78014311170197
 20
11.24744906526567
 10
44.78042260060036
 20
11.24749020006349
 10
44.7806953640866
 20
11.24752989448458
 10
44.78096163750827
 20
11.24756818738018
 10
44.78122165621289
 20
11.24760511760169
 10
44.78147565554809
 20
11.24764072400028
 10
44.7817238708616
 20
11.24767504542717
 10
44.78196653750077
 20
11.24770812073389
 10
44.78220389081346
 20
11.24773998877148
 10
44.78243616614721
 20
11.24777068839128
 10
44.78266359884949
 20
11.24780025844459
 10
44.78288642426806
 20
11.24782873778269
 10
44.78321253856168
 20
11.24786949668589
 10
44.7835296102971
 20
11.24790802001839
 10
44.78383843377248
 20
11.24794443890307
 10
44.78413980328585
 20
11.24797888446309
 10
44.78443451313569
 20
11.24801148782159
 10
44.78472335761979
 20
11.24804238010136
 10
44.78510073255768
 20
11.24808113476258
 10
44.7854709750455
 20
11.24811739142427
 10
44.78601708401618
 20
11.24816777256498
 10
44.78746395295035
 20
11.24828604065366
 10
44.78783371627717
 20
11.24831363468209
 10
44.78820969011559
 20
11.24834094630928
 10
44.78859176076745
 20
11.24836798996858
 10
44.78907757758449
 20
11.24840141417827
 10
44.78957212419098
 20
11.24843441153098
 10
44.79007495809719
 20
11.24846697749488
 10
44.79058563681308
 20
11.24849910753838
 10
44.79110371784899
 20
11.24853079712949
 10
44.79173456312877
 20
11.24856823686117
 10
44.79237466594137
 20
11.24860502798488
 10
44.79302326166449
 20
11.24864116266967
 10
44.79378967068328
 20
11.24868247968898
 10
44.79467688962047
 20
11.24872857607139
 10
44.79568728121209
 20
11.24877898040217
 10
44.79693621350198
 20
11.24883845761227
 10
44.79957757495369
 20
11.24895505150327
 10
44.8029097080101
 20
11.24908650835058
 10
44.80461092121667
 20
11.24914752046959
 10
44.80640601531669
 20
11.24920761797059
 10
44.80840421330507
 20
11.24926951705989
 10
44.81082048454008
 20
11.24933767775788
 10
44.81397151306746
 20
11.24941641733239
 10
44.83122509015585
 20
11.24971234793648
 10
44.86635216076559
 20
11.24997569020978
 10
44.88532409819447
 20
11.24999992592469
  0
LWPOLYLINE
  5
931
330
1E
100
AcDbEntity
  8
SK1
100
AcDbPolyline
 90
       52
 70
     0
 43
0.0
 10
-30.19158806600001
 20
-6.782329983099962
 10
-30.27632162748971
 20
-6.649316566143455
 10
-30.3593746797122
 20
-6.515237606231762
 10
-30.4407315324873
 20
-6.380118448789732
 10
-30.52037655387241
 20
-6.243984377519482
 10
-30.59829596154751
 20
-6.106858715823475
 10
-30.6710531826642
 20
-5.975060332226624
 10
-30.74221755891381
 20
-5.842395745897285
 10
-30.81177912178511
 20
-5.708883273560021
 10
-30.8797279438238
 20
-5.574542294695043
 10
-30.94605411393869
 20
-5.439392612344843
 10
-31.01074772370911
 20
-5.303454030813575
 10
-31.07379919651941
 20
-5.166746375341044
 10
-31.13519960773511
 20
-5.029289512304632
 10
-31.19213309320651
 20
-4.897699853083233
 10
-31.24755337826921
 20
-4.765465847273254
 10
-31.30145323528489
 20
-4.632604896553254
 10
-31.35382569793061
 20
-4.499134550922714
 10
-31.40466380484981
 20
-4.365072363200251
 10
-31.45396071855479
 20
-4.230435927859754
 10
-31.50171010029481
 20
-4.095243007093136
 10
-31.54790573682419
 20
-3.959511405297944
 10
-31.5925414228295
 20
-3.823258929530754
 10
-31.63561125694851
 20
-3.686503488739923
 10
-31.67710973013139
 20
-3.549263123386506
 10
-31.7170313592946
 20
-3.411555882635894
 10
-31.7553707381627
 20
-3.273399837233271
 10
-31.792122936058
 20
-3.134813191545616
 10
-31.82556307234931
 20
-3.002773661916623
 10
-31.85756242268629
 20
-2.870377643380956
 10
-31.88811712234901
 20
-2.737640835596866
 10
-31.91722368669689
 20
-2.604579026201776
 10
-31.9448786724509
 20
-2.471208012407184
 10
-31.97107866098431
 20
-2.337543597015083
 10
-31.99582057784831
 20
-2.203601660877326
 10
-32.0191016014545
 20
-2.069398142187484
 10
-32.04091891605781
 20
-1.934948980464113
 10
-32.06126981099489
 20
-1.800270119815704
 10
-32.08015199337402
 20
-1.665377522598594
 10
-32.0975632741108
 20
-1.530287155703363
 10
-32.1135014714522
 20
-1.395014989994634
 10
-32.1279646684411
 20
-1.259577139875524
 10
-32.14095128084591
 20
-1.123989900110434
 10
-32.15245974557491
 20
-0.9882695769230011
 10
-32.1624885620013
 20
-0.8524323815053341
 10
-32.17103663230819
 20
-0.7164939122316183
 10
-32.17810301851661
 20
-0.5804695243058035
 10
-32.18368678550401
 20
-0.4443745871166761
 10
-32.18778721024931
 20
-0.3082257492347111
 10
-32.1904039424861
 20
-0.1720419073097091
 10
-32.1915366697703
 20
-0.0358421860997453
 10
-32.19158806769601
 20
-0.0000099128999841
  0
LWPOLYLINE
  5
967
330
1E
100
AcDbEntity
  8
SK1
100
AcDbPolyline
 90
       52
 70
     0
 43
0.0
 10
-32.19158806770001
 20
0.0000000871000378
 10
-32.1908459191902
 20
0.1362008051745089
 10
-32.18861968239119
 20
0.2723906768615928
 10
-32.18490967039881
 20
0.4085505773954142
 10
-32.1797162058012
 20
0.5446614393342049
 10
-32.17303989055
 20
0.6807058822544838
 10
-32.16488164477141
 20
0.8166684471255884
 10
-32.15524240588779
 20
0.9525337793646745
 10
-32.14412318577011
 20
1.088286411162342
 10
-32.13152540674661
 20
1.223910250456734
 10
-32.11745063183661
 20
1.359388991213763
 10
-32.10190042773611
 20
1.494706329134513
 10
-32.08487658912179
 20
1.629846083513124
 10
-32.06638127287181
 20
1.764792270000492
 10
-32.04641666807681
 20
1.899528921710643
 10
-32.02498500525081
 20
2.034040073566964
 10
-32.00208889443759
 20
2.168309777070994
 10
-31.97773114945201
 20
2.302322092625074
 10
-31.9519145862354
 20
2.436061080756771
 10
-31.92464216658021
 20
2.569510835067883
 10
-31.89591726227151
 20
2.702655542133343
 10
-31.8657433166057
 20
2.835479404744531
 10
-31.8341237837863
 20
2.967966628217613
 10
-31.8010624072447
 20
3.100101484820712
 10
-31.76470774645069
 20
3.238792924479873
 10
-31.72676471728561
 20
3.377058327645832
 10
-31.6872381557021
 20
3.514879463342383
 10
-31.64613337953641
 20
3.652238235977792
 10
-31.60345587174131
 20
3.789116596349453
 10
-31.55921112052149
 20
3.925496497007573
 10
-31.51340489140121
 20
4.061359983468419
 10
-31.4660433638363
 20
4.196689240011052
 10
-31.4171327510926
 20
4.331466462248701
 10
-31.36667931948511
 20
4.465673863634123
 10
-31.3146897937878
 20
4.599293811791853
 10
-31.261171133455
 20
4.732308753265371
 10
-31.20613029996079
 20
4.864701135305423
 10
-31.14957440655961
 20
4.99645349131133
 10
-31.08856841042261
 20
5.134085804572992
 10
-31.02590924595901
 20
5.270973641532521
 10
-30.96160578619588
 20
5.407097132566181
 10
-30.89566742383949
 20
5.542436440835007
 10
-30.8281040498689
 20
5.676971760934432
 10
-30.75892557532271
 20
5.810683288725352
 10
-30.68814191953231
 20
5.943551434662713
 10
-30.61576304398561
 20
6.075557700109431
 10
-30.5382374511233
 20
6.212905778527082
 10
-30.45898353866549
 20
6.349267115469701
 10
-30.3780143758381
 20
6.484619143308212
 10
-30.29534544768941
 20
6.618936734012531
 10
-30.21099244439469
 20
6.752194542149722
 10
-30.19159349186061
 20
6.782321583097862
  0
LWPOLYLINE
  5
99D
330
1E
100
AcDbEntity
  8
SK1
100
AcDbPolyline
 90
       52
 70
     0
 43
0.0
 10
-39.191588066
 20
-6.782329983099962
 10
-39.1068545055428
 20
-6.649316567759223
 10
-39.0238014543274
 20
-6.515237609479275
 10
-38.9424446025154
 20
-6.380118453694902
 10
-38.86279958203079
 20
-6.243984384117922
 10
-38.78488017518971
 20
-6.106858724152332
 10
-38.71212295481891
 20
-5.975060342234202
 10
-38.64095857927829
 20
-5.84239575760199
 10
-38.57139701708911
 20
-5.708883286973441
 10
-38.50344819570411
 20
-5.574542309828625
 10
-38.43712202620817
 20
-5.439392629212695
 10
-38.37242841701579
 20
-5.303454049432422
 10
-38.3093769447387
 20
-5.166746395728933
 10
-38.24797653401228
 20
-5.029289534478243
 10
-38.19104304896722
 20
-4.897699876971511
 10
-38.1356227642934
 20
-4.76546587288842
 10
-38.081722907629
 20
-4.632604923906693
 10
-38.02935044529661
 20
-4.499134580025383
 10
-37.97851233865161
 20
-4.365072394062719
 10
-37.92921542518141
 20
-4.230435960492084
 10
-37.88146604363701
 20
-4.095243041504645
 10
-37.83527040726429
 20
-3.959511441497152
 10
-37.7906347213771
 20
-3.823258967525343
 10
-37.74756488733711
 20
-3.686503528536975
 10
-37.7060664141923
 20
-3.549263164992773
 10
-37.6661447850246
 20
-3.411555926057863
 10
-37.6278054061084
 20
-3.273399882476931
 10
-37.5910532081256
 20
-3.134813238615305
 10
-37.5576130717201
 20
-3.002773710723196
 10
-37.5256137212439
 20
-2.870377693924763
 10
-37.4950590214179
 20
-2.737640887877462
 10
-37.4659524568751
 20
-2.604579080219785
 10
-37.43829747088609
 20
-2.47120806816454
 10
-37.41209748206979
 20
-2.337543654514865
 10
-37.38735556487439
 20
-2.203601720122095
 10
-37.3640745408919
 20
-2.069398203178081
 10
-37.34225722587189
 20
-1.934949043199685
 10
-37.32190633048161
 20
-1.800270184293833
 10
-37.30302414761649
 20
-1.665377588816193
 10
-37.28561286636421
 20
-1.530287223656842
 10
-37.2696746684809
 20
-1.395015059679952
 10
-37.25521147091789
 20
-1.259577211288293
 10
-37.24222485788961
 20
-1.123989973246364
 10
-37.2307163924697
 20
-0.9882696517779695
 10
-37.22068757527451
 20
-0.8524324580752582
 10
-37.21213950415757
 20
-0.7164939905106117
 10
-37.20507311715361
 20
-0.5804696042850656
 10
-37.1994893494401
 20
-0.4443746687844178
 10
-37.1953889240921
 20
-0.3082258325770975
 10
-37.19277219142721
 20
-0.1720419923161525
 10
-37.1916394639396
 20
-0.035842272763914
 10
-37.191588066004
 20
-0.000009999999989
  0
LWPOLYLINE
  5
9D3
330
1E
100
AcDbEntity
  8
1
100
AcDbPolyline
 90
       50
 70
     0
 43
0.0
 10
54.93124674039999
 20
2.666376861400029
 10
54.93144857387778
 20
2.704509634311552
 10
54.9320586377762
 20
2.742639117539801
 10
54.9331350486236
 20
2.782767977863943
 10
54.93465118864179
 20
2.82288454442096
 10
54.93660164900727
 20
2.862983931947581
 10
54.93898102089668
 20
2.903061255180541
 10
54.94193505914109
 20
2.945113352485071
 10
54.9453497610215
 20
2.987130090617443
 10
54.9492197745292
 20
3.029106362533902
 10
54.95354119620138
 20
3.071037934508811
 10
54.95831025441948
 20
3.11292065230456
 10
54.96378241925029
 20
3.156740859675911
 10
54.96973739186948
 20
3.200498113600573
 10
54.9761709832392
 20
3.244187626685843
 10
54.98308052272467
 20
3.287804498427823
 10
54.99046423374569
 20
3.331343761721393
 10
54.99832035121089
 20
3.37480044860555
 10
55.00664711002897
 20
3.418169591119311
 10
55.01544274516988
 20
3.461446221287421
 10
55.02470594846919
 20
3.504625264530381
 10
55.03443696726028
 20
3.547701283311441
 10
55.04463637962548
 20
3.590668762917481
 10
55.05530476364729
 20
3.633522188635383
 10
55.06644269740809
 20
3.676256045752001
 10
55.07805076555919
 20
3.718864815889812
 10
55.09013026368669
 20
3.761342584079589
 10
55.10268382514978
 20
3.803682689081811
 10
55.11571423117729
 20
3.845878387168482
 10
55.12922426299828
 20
3.887922934611601
 10
55.14321670184159
 20
3.929809587683173
 10
55.15702572342549
 20
3.969638778644791
 10
55.17128012145219
 20
4.00931115941846
 10
55.18598398463608
 20
4.048819082479741
 10
55.20114143938021
 20
4.088154860077668
 10
55.21675661208699
 20
4.127310804461258
 10
55.23283362915928
 20
4.166279227879573
 10
55.2485783040614
 20
4.2032105553339
 10
55.26475026680638
 20
4.239956992044198
 10
55.28135469822439
 20
4.276510106741143
 10
55.29839679048587
 20
4.312861455594001
 10
55.31588173576128
 20
4.349002594772032
 10
55.33290735547109
 20
4.383134279533263
 10
55.35034180772118
 20
4.417061113549459
 10
55.36818973385589
 20
4.450773251454529
 10
55.38645586022968
 20
4.484259680167292
 10
55.40514491383419
 20
4.517509377862563
 10
55.42324474090627
 20
4.548780733280421
 10
55.44173240982161
 20
4.579820357282081
 10
55.4438055270932
 20
4.583245941278953
  0
LWPOLYLINE
  5
A07
330
1E
100
AcDbEntity
  8
SK1
100
AcDbPolyline
 90
       52
 70
     0
 43
0.0
 10
-37.19158806600001
 20
0.0000000000000329
 10
-37.1923302138753
 20
0.1362007197379785
 10
-37.1945564491674
 20
0.2723905931045145
 10
-37.19826645937571
 20
0.4085504953281176
 10
-37.20345992249461
 20
0.5446613589614798
 10
-37.2101362367931
 20
0.6807058035788045
 10
-37.21829448195288
 20
0.8166683701507892
 10
-37.2279337203371
 20
0.9525337040961524
 10
-37.23905293989211
 20
1.088286337606813
 10
-37.25165071828151
 20
1.223910178620863
 10
-37.26572549253821
 20
1.359388921103714
 10
-37.28127569601778
 20
1.494706260755914
 10
-37.29829953407451
 20
1.629846016870514
 10
-37.31679484982818
 20
1.764792205096374
 10
-37.33675945418339
 20
1.899528858545423
 10
-37.3581911166207
 20
2.034040012139223
 10
-37.38108722708822
 20
2.168309717379823
 10
-37.4054449717609
 20
2.302322034671433
 10
-37.43126153468729
 20
2.436061024543433
 10
-37.45853395406979
 20
2.569510780598474
 10
-37.48725885812961
 20
2.702655489409572
 10
-37.51743280357921
 20
2.835479353765693
 10
-37.54905233622361
 20
2.967966578980653
 10
-37.58211371263481
 20
3.100101437321205
 10
-37.6184683733374
 20
3.238792878804243
 10
-37.6564114024552
 20
3.377058283788711
 10
-37.69593796403281
 20
3.514879421298193
 10
-37.7370427402324
 20
3.652238195740653
 10
-37.77972024810039
 20
3.789116557913192
 10
-37.82396499943061
 20
3.925496460365703
 10
-37.86977122869799
 20
4.061359948614091
 10
-37.9171327564466
 20
4.196689206936921
 10
-37.96604336941
 20
4.331466430946921
 10
-38.0164968012731
 20
4.465673834096271
 10
-38.06848632726321
 20
4.599293784008271
 10
-38.12200498792801
 20
4.732308727224811
 10
-38.17704582179551
 20
4.864701110994993
 10
-38.2336017156125
 20
4.996453468716961
 10
-38.29460771222999
 20
5.134085783765231
 10
-38.35726687721661
 20
5.270973622495943
 10
-38.42157033754288
 20
5.407097115285463
 10
-38.48750870050167
 20
5.542436425294326
 10
-38.55507207511461
 20
5.676971747116812
 10
-38.62425055034341
 20
5.810683276612682
 10
-38.69503420685711
 20
5.943551424235862
 10
-38.7674130831669
 20
6.075557691348932
 10
-38.84493867686971
 20
6.212905771491342
 10
-38.92419259020871
 20
6.349267110137173
 10
-39.00516175395761
 20
6.484619139656413
 10
-39.0878306830694
 20
6.618936732016868
 10
-39.17218368737049
 20
6.752194541783392
 10
-39.1915826401394
 20
6.782321583097865
  0
LWPOLYLINE
  5
A3D
330
1E
100
AcDbEntity
  8
SK1
100
AcDbPolyline
 90
       14
 70
     0
 43
0.0
 10
-54.991588066
 20
-6.782329983099961
 10
-55.1298028320476
 20
-6.524089762681231
 10
-55.25709281262622
 20
-6.279560136919291
 10
-55.37510935559101
 20
-6.04640933535594
 10
-55.48540206331129
 20
-5.822242597445168
 10
-55.58819618256421
 20
-5.607204325564792
 10
-55.6837282097965
 20
-5.401440708085734
 10
-55.77340837837471
 20
-5.202473974098943
 10
-55.85740578682901
 20
-5.010409473339351
 10
-55.93589601639202
 20
-4.825352309138332
 10
-56.0101402113765
 20
-4.644743733498462
 10
-56.07919342346451
 20
-4.471325543752151
 10
-56.14426793433541
 20
-4.302519610451803
 10
-56.19158459946961
 20
-4.176131983534243
  0
LWPOLYLINE
  5
A4D
330
1E
100
AcDbEntity
  8
SK1
100
AcDbPolyline
 90
       14
 70
     0
 43
0.0
 10
-56.191588066
 20
4.176122603600056
 10
-56.1299680089067
 20
4.340093476933046
 10
-56.06448220265721
 20
4.508741360309316
 10
-55.99393630067083
 20
4.684655421801056
 10
-55.91925010598461
 20
4.865081000288605
 10
-55.83917954601229
 20
5.052586315451445
 10
-55.7535425670898
 20
5.247067153850276
 10
-55.66216497810279
 20
5.448417946836226
 10
-55.56488006122281
 20
5.656532874701147
 10
-55.46027351213222
 20
5.873886219660897
 10
-55.34811045419949
 20
6.100332358654536
 10
-55.2268514770148
 20
6.338278050209815
 10
-55.09620299039861
 20
6.587532322909096
 10
-54.99159283507879
 20
6.782321193567214
  0
LWPOLYLINE
  5
A69
330
1E
100
AcDbEntity
  8
1
100
AcDbPolyline
 90
       65
 70
     0
 43
0.0
 10
44.77654454759996
 20
-5.882807265399971
 10
44.77651128070928
 20
-5.879097357554422
 10
44.77652078375409
 20
-5.875386562501542
 10
44.77657297973907
 20
-5.871675453462624
 10
44.776667791669
 20
-5.867964603658903
 10
44.77680514254847
 20
-5.864254586311662
 10
44.77698495538239
 20
-5.860545974642155
 10
44.77720715317539
 20
-5.856839341871642
 10
44.77747165893227
 20
-5.853135261221392
 10
44.77777839565779
 20
-5.849434305912656
 10
44.77812728635649
 20
-5.845737049166706
 10
44.77851825403329
 20
-5.842044064204795
 10
44.77895122169289
 20
-5.838355924248192
 10
44.77942609334609
 20
-5.834673180200312
 10
44.77994268051125
 20
-5.830996274285621
 10
44.78050076659418
 20
-5.827325615696262
 10
44.78110013499429
 20
-5.823661613616724
 10
44.78174056911067
 20
-5.820004677231482
 10
44.78242185234289
 20
-5.816355215725052
 10
44.78314376808989
 20
-5.812713638281902
 10
44.78390609975128
 20
-5.809080354086532
 10
44.7847720227272
 20
-5.805177330530972
 10
44.78568429686315
 20
-5.801284910798665
 10
44.78664265163017
 20
-5.797403605951142
 10
44.78764681649899
 20
-5.793533927049972
 10
44.78869650558747
 20
-5.789676374409432
 10
44.78979135635827
 20
-5.785831394685352
 10
44.79093098239919
 20
-5.781999417820992
 10
44.7921149972901
 20
-5.778180873754215
 10
44.793343014611
 20
-5.774376192422865
 10
44.79461464794189
 20
-5.770585803764793
 10
44.7959295108627
 20
-5.766810137717871
 10
44.79738582515721
 20
-5.762781607289393
 10
44.79889084638219
 20
-5.758771000173442
 10
44.80044409925809
 20
-5.754778845174802
 10
44.80204510850517
 20
-5.750805671098213
 10
44.80369339676857
 20
-5.746852001828295
 10
44.80538845078799
 20
-5.742918276110022
 10
44.80712972694619
 20
-5.739004860706032
 10
44.80903742167138
 20
-5.734853348106442
 10
44.8109964264066
 20
-5.730725801212673
 10
44.81300608024247
 20
-5.726622662389392
 10
44.81506572226959
 20
-5.722544374001282
 10
44.81717469157818
 20
-5.718491378413001
 10
44.81946878027799
 20
-5.714213278798554
 10
44.82181701601296
 20
-5.709964762372182
 10
44.82421860605795
 20
-5.705746359638445
 10
44.82667276420598
 20
-5.701558546013762
 10
44.82932772770999
 20
-5.697158095530111
 10
44.83203985467461
 20
-5.692792666959133
 10
44.834808235952
 20
-5.688462620766402
 10
44.83763196239438
 20
-5.684168317417523
 10
44.84067160062108
 20
-5.679674616535804
 10
44.84377082207736
 20
-5.675221565814982
 10
44.84692855751695
 20
-5.670809589197725
 10
44.85031452870408
 20
-5.666210243004153
 10
44.85376290016136
 20
-5.66165736483707
 10
44.85727239340118
 20
-5.657151376211885
 10
44.86102172915416
 20
-5.652470978053842
 10
44.86483552986196
 20
-5.647843153256152
 10
44.8688984521356
 20
-5.643051833692742
 10
44.87302876179398
 20
-5.638319223565313
 10
44.87741699667538
 20
-5.633434828610592
 10
44.8818750373532
 20
-5.628615756720181
 10
44.88422112867199
 20
-5.626134826975995
  0
LWPOLYLINE
  5
AAC
330
1E
100
AcDbEntity
  8
1
100
AcDbPolyline
 90
      165
 70
     0
 43
0.0
 10
55.4438107107
 20
4.583254492900032
 10
55.46490994214337
 20
4.61750673431332
 10
55.48650840089038
 20
4.651452456803252
 10
55.50861232127928
 20
4.685074588869579
 10
55.53122793764869
 20
4.718356059012071
 10
55.5543614843367
 20
4.751279795730471
 10
55.57801937187428
 20
4.78382833099141
 10
55.60220887208828
 20
4.81598225835445
 10
55.62381669649538
 20
4.8437775220559
 10
55.64584235317639
 20
4.871241956157901
 10
55.66829088976959
 20
4.898362163575921
 10
55.69116723968298
 20
4.92512420028234
 10
55.71447576712477
 20
4.951511396874838
 10
55.73822065935971
 20
4.977506236730668
 10
55.7624061035965
 20
5.003091202959801
 10
55.78703628683109
 20
5.028248778148332
 10
55.8121150503365
 20
5.052960593023803
 10
55.83764518638989
 20
5.077205693600252
 10
55.85988938219919
 20
5.097599488201193
 10
55.88246873808177
 20
5.117621134011328
 10
55.90538488191199
 20
5.137257120402813
 10
55.92863883534169
 20
5.156493133959693
 10
55.95223048547438
 20
5.175313358843202
 10
55.97615959484548
 20
5.193701814255732
 10
55.99635812936519
 20
5.208684173841771
 10
56.0167907059974
 20
5.223346345976603
 10
56.03745672677558
 20
5.237678751838941
 10
56.05835458060039
 20
5.251671085170768
 10
56.07948252073017
 20
5.26531294232207
 10
56.10083880042348
 20
5.278593919642853
 10
56.12242167293898
 20
5.291503613483103
 10
56.1442291361159
 20
5.304031545027733
 10
56.16625779061588
 20
5.316166824298073
 10
56.18850376177859
 20
5.327898421437073
 10
56.20645440266859
 20
5.336985635871568
 10
56.22453966215839
 20
5.345801787212601
 10
56.24275754253829
 20
5.354341229157419
 10
56.26110551980249
 20
5.362598355549441
 10
56.279580389474
 20
5.370567612138921
 10
56.29817890191949
 20
5.37824344812067
 10
56.31689780750578
 20
5.385620312689491
 10
56.33573385659961
 20
5.392692655040193
 10
56.35468376738439
 20
5.399454939036002
 10
56.37374359807439
 20
5.405901929339393
 10
56.3929087886381
 20
5.412028672395242
 10
56.41217475521687
 20
5.417830225508451
 10
56.43153691395209
 20
5.423301645983891
 10
56.45099068098499
 20
5.428437991126433
 10
56.47053133847658
 20
5.433234448822983
 10
56.49015338903219
 20
5.437686966743917
 10
56.50985105405549
 20
5.441791766628941
 10
56.5296185545721
 20
5.445545070586311
 10
56.54945011160749
 20
5.448943100724243
 10
56.5693399364413
 20
5.451982097969431
 10
56.5892818844502
 20
5.45465899045775
 10
56.60926936154839
 20
5.456971574188001
 10
56.62929574487177
 20
5.458917700726223
 10
56.64935441155647
 20
5.460495221638471
 10
56.6694387386715
 20
5.46170198887184
 10
56.6895420287151
 20
5.462536278638322
 10
56.70965736686999
 20
5.4629976035498
 10
56.72977779894821
 20
5.463085700215533
 10
56.74989637076166
 20
5.462800305244761
 10
56.77000612812239
 20
5.46214115524674
 10
56.79010013927578
 20
5.461108219178153
 10
56.81017159404078
 20
5.459702725148521
 10
56.83021372322729
 20
5.45792632581783
 10
56.85021975767678
 20
5.455780674171532
 10
56.87018292823061
 20
5.453267423195103
 10
56.89009649663312
 20
5.450388300675379
 10
56.90995412370567
 20
5.447146000378662
 10
56.92974974800879
 20
5.443543888346412
 10
56.94947731373369
 20
5.439585344250507
 10
56.9691307650719
 20
5.435273747762852
 10
56.98870404901059
 20
5.43061248181335
 10
57.00819146299538
 20
5.42560533772728
 10
57.02758799175609
 20
5.420256907733851
 10
57.0468886999216
 20
5.414571877170422
 10
57.0660886521211
 20
5.408554931374363
 10
57.08518291298339
 20
5.402210755683023
 10
57.10416662256419
 20
5.395544080003593
 10
57.12303569249669
 20
5.388560090170653
 10
57.14178648639359
 20
5.38126423909513
 10
57.16041537358647
 20
5.373661983067051
 10
57.1789187234069
 20
5.365758778376458
 10
57.19729290518627
 20
5.357560081313382
 10
57.2155344663597
 20
5.349071381216961
 10
57.23364081699688
 20
5.34029832749796
 10
57.25160962797938
 20
5.331246617963631
 10
57.26943857024429
 20
5.321921950431621
 10
57.29152450950977
 20
5.309890949101403
 10
57.313383724618
 20
5.297453480668918
 10
57.33501244015849
 20
5.284620531604643
 10
57.35640822568889
 20
5.271402841342662
 10
57.37756878737159
 20
5.257811124226298
 10
57.3984918313689
 20
5.243856094598871
 10
57.41917506432629
 20
5.229548466521811
 10
57.43961660025798
 20
5.214898716342743
 10
57.45981570117868
 20
5.199916650511441
 10
57.47977182986839
 20
5.184611958324079
 10
57.50339770454568
 20
5.165834103438259
 10
57.52667199729779
 20
5.14662236228998
 10
57.54959409615668
 20
5.126993123502781
 10
57.57216480173139
 20
5.106961192851483
 10
57.59438530875359
 20
5.086540934481003
 10
57.61625681197219
 20
5.065746712516743
 10
57.64133405801128
 20
5.041033300906493
 10
57.66594023984549
 20
5.01585233182369
 10
57.69007899758039
 20
4.990223044475452
 10
57.71375420692138
 20
4.964164195417799
 10
57.7369697435737
 20
4.937694541206761
 10
57.75972949620069
 20
4.91083277926234
 10
57.7820377314801
 20
4.88359588187448
 10
57.80389914472839
 20
4.855998865169032
 10
57.82531845439559
 20
4.828056639700152
 10
57.84630037893117
 20
4.799784116021973
 10
57.86684963696089
 20
4.771196179329511
 10
57.8869709561393
 20
4.7423064125806
 10
57.90666907730578
 20
4.713126497183273
 10
57.92594874234389
 20
4.683667963912242
 10
57.94481469313716
 20
4.653942343542202
 10
57.96587527376978
 20
4.619657952213461
 10
57.98640866197878
 20
4.585056414014011
 10
58.00642133854609
 20
4.550151618507539
 10
58.0259196354506
 20
4.51495662777456
 10
58.04490988464139
 20
4.479484503731978
 10
58.06339841806821
 20
4.443748308296721
 10
58.08139149082199
 20
4.40776090398134
 10
58.09889462653448
 20
4.371533255570913
 10
58.11591294396759
 20
4.335075277439241
 10
58.13245155759519
 20
4.298396872836103
 10
58.1485155818915
 20
4.261507945011213
 10
58.16411012934651
 20
4.224418394051202
 10
58.17923990090609
 20
4.187137463910333
 10
58.19571005079249
 20
4.14497734562695
 10
58.21160197896769
 20
4.1025956769027
 10
58.22692090260368
 20
4.060003266060753
 10
58.24167203887238
 20
4.017210921424271
 10
58.25586032366759
 20
3.974229168345122
 10
58.26948921257528
 20
3.931067042956271
 10
58.28256167593337
 20
3.887733093221671
 10
58.2950806837976
 20
3.844235866821178
 10
58.30704920622348
 20
3.80058391143465
 10
58.31847014529389
 20
3.756785734021983
 10
58.3293451941066
 20
3.712849117282872
 10
58.33967500598588
 20
3.66878122102599
 10
58.3494602003677
 20
3.62458918475847
 10
58.35870139668767
 20
3.580280147987461
 10
58.3673992129124
 20
3.535861249873033
 10
58.375553652939
 20
3.491339484518751
 10
58.38316315927939
 20
3.446721477195183
 10
58.3902259299451
 20
3.402013795416501
 10
58.39674016294718
 20
3.357223006696893
 10
58.40270405629709
 20
3.31235567855053
 10
58.40811557884839
 20
3.267418375219301
 10
58.41297110963939
 20
3.222417638243021
 10
58.4172663538321
 20
3.177359999538751
 10
58.42099701415587
 20
3.132251990988831
 10
58.42415879334029
 20
3.087100144475602
 10
58.42674730403789
 20
3.041911069253111
 10
58.42856234027829
 20
3.001717996088411
 10
58.42991515294548
 20
2.961507710401799
 10
58.43080097704047
 20
2.92128630023933
 10
58.43121504756467
 20
2.881059853647021
 10
58.43124772808779
 20
2.8659848803001
  0
LWPOLYLINE
  5
B53
330
1E
100
AcDbEntity
  8
1
100
AcDbPolyline
 90
      107
 70
     0
 43
0.0
 10
52.30277358839997
 20
-11.25000001079998
 10
51.01710344034838
 20
-11.2451039802619
 10
50.46299178007418
 20
-11.23683518968426
 10
50.0751957325314
 20
-11.2269311266061
 10
49.77613540944249
 20
-11.21611832736719
 10
49.5214935220165
 20
-11.20416906604799
 10
49.31125463510809
 20
-11.1920284744872
 10
49.1232737220551
 20
-11.1791391693053
 10
48.9575402336758
 20
-11.1659632420399
 10
48.8030017924779
 20
-11.1519499006497
 10
48.65965809096397
 20
-11.13729705758609
 10
48.52750791358759
 20
-11.1222241579688
 10
48.406541055177
 20
-11.1069816050344
 10
48.29673768830009
 20
-11.091846208294
 10
48.187123874694
 20
-11.07539421231789
 10
48.08866041188617
 20
-11.05937925477689
 10
47.99040116186559
 20
-11.04214363416019
 10
47.9032568611717
 20
-11.0257320612869
 10
47.81632582722099
 20
-11.0082288930225
 10
47.72963466864927
 20
-10.98957185715349
 10
47.65399864639625
 20
-10.97225069619089
 10
47.5785927700562
 20
-10.9539506467008
 10
47.5034443680786
 20
-10.93462304294239
 10
47.43925709862867
 20
-10.9172017847989
 10
47.37529645028618
 20
-10.8989591286972
 10
47.31158357303328
 20
-10.8798630872813
 10
47.24814339293478
 20
-10.85988038912159
 10
47.18500100038109
 20
-10.8389777069095
 10
47.12218148576218
 20
-10.81712171333576
 10
47.0700971318937
 20
-10.79815617641749
 10
47.01827330329147
 20
-10.7784867046818
 10
46.96672977887799
 20
-10.7580946356753
 10
46.91548634206899
 20
-10.7369613074778
 10
46.8645627762801
 20
-10.7150680581694
 10
46.81397894909328
 20
-10.69239629798768
 10
46.76375693621139
 20
-10.66892933025209
 10
46.71392118424726
 20
-10.6446524909263
 10
46.66449625658938
 20
-10.6195512160891
 10
46.61550671662618
 20
-10.5936109418193
 10
46.56697713855487
 20
-10.5668171422154
 10
46.51893291143037
 20
-10.53915815765289
 10
46.47140079358817
 20
-10.51062714497507
 10
46.42440767450888
 20
-10.48121772233119
 10
46.37798044367317
 20
-10.45092350787039
 10
46.3321459838125
 20
-10.41973815491439
 10
46.28693047570199
 20
-10.3876589748818
 10
46.242358794526
 20
-10.35469008300039
 10
46.19845567321777
 20
-10.320836335811
 10
46.15524584471027
 20
-10.2861025898544
 10
46.11275401199868
 20
-10.2504937481462
 10
46.07100237146469
 20
-10.21401860487209
 10
46.03000875912028
 20
-10.1766927230888
 10
45.98979057428047
 20
-10.1385323437647
 10
45.95036521625978
 20
-10.0995537078686
 10
45.91175003466789
 20
-10.0597730932429
 10
45.87395859796116
 20
-10.0192095827795
 10
45.83699810149669
 20
-9.977886987256264
 10
45.80087512782458
 20
-9.935829572061825
 10
45.76559625949467
 20
-9.893061602584957
 10
45.73116805870927
 20
-9.849607349189575
 10
45.69759384126977
 20
-9.805491876004415
 10
45.6648701447014
 20
-9.76074190448809
 10
45.63299265735909
 20
-9.715384363726576
 10
45.60195706759778
 20
-9.669446182805826
 10
45.57175906377239
 20
-9.622954290811806
 10
45.5423930669552
 20
-9.575935270383617
 10
45.51384822086949
 20
-9.528414261450754
 10
45.48611229572627
 20
-9.480416028455094
 10
45.45917306173357
 20
-9.431965335837643
 10
45.43301828909938
 20
-9.383086948039391
 10
45.40763565049088
 20
-9.333805506229273
 10
45.38301090839437
 20
-9.284143237482306
 10
45.35912808373699
 20
-9.234120167885103
 10
45.33597113372009
 20
-9.183756242987476
 10
45.31352401554516
 20
-9.133071408339192
 10
45.2875018635061
 20
-9.071854089222146
 10
45.26245093319889
 20
-9.010236256885537
 10
45.23834295529939
 20
-8.948244640172886
 10
45.21514955547146
 20
-8.885904483582775
 10
45.19284235937925
 20
-8.823241031613783
 10
45.17139299268658
 20
-8.760279528764494
 10
45.15077352920957
 20
-8.697043999615175
 10
45.12773177088628
 20
-8.622947759705981
 10
45.10574382456986
 20
-8.548531484057182
 10
45.08476927355197
 20
-8.473822627548955
 10
45.0647677219892
 20
-8.398848616744356
 10
45.04570102561158
 20
-8.323633822488142
 10
45.02501176226259
 20
-8.237403076881731
 10
45.00544932050689
 20
-8.150909022145734
 10
44.98696377861548
 20
-8.064178514275374
 10
44.96739438130599
 20
-7.966355898484592
 10
44.94906719048278
 20
-7.868294004078382
 10
44.9319263923035
 20
-7.770017239478902
 10
44.91420462873278
 20
-7.660598509265842
 10
44.89780534410868
 20
-7.550975942366945
 10
44.88266762889629
 20
-7.441172575919732
 10
44.86740407899167
 20
-7.320205195792643
 10
44.85351998105628
 20
-7.199072470408263
 10
44.83986699791259
 20
-7.066766703191574
 10
44.82675063166849
 20
-6.923272489469892
 10
44.81528437948306
 20
-6.779637459767132
 10
44.80468379795139
 20
-6.624825809129295
 10
44.79581171619336
 20
-6.469904917358633
 10
44.78812917449896
 20
-6.303822963047914
 10
44.78191357809699
 20
-6.126588889595705
 10
44.7776547270003
 20
-5.949299463847313
 10
44.77654469499459
 20
-5.882817264313672
  0
LWPOLYLINE
  5
BC0
330
1E
100
AcDbEntity
  8
1
100
AcDbPolyline
 90
       45
 70
     0
 43
0.0
 10
59.71861775059998
 20
-7.244139429999965
 10
59.74838405828799
 20
-7.300604627768588
 10
59.77484345995209
 20
-7.352251057358142
 10
59.79940842402579
 20
-7.401604274988534
 10
59.82213149929989
 20
-7.448629649171325
 10
59.8424597129691
 20
-7.491974599121014
 10
59.86168489627699
 20
-7.534230537771175
 10
59.87924849153586
 20
-7.574051874593843
 10
59.89578103083211
 20
-7.612740143498226
 10
59.91075908510429
 20
-7.648934537014535
 10
59.92478672110088
 20
-7.683949313375205
 10
59.9378928164419
 20
-7.717768086190415
 10
59.95010808412946
 20
-7.750374331950418
 10
59.961950350249
 20
-7.783117892584374
 10
59.97293643496139
 20
-7.814625744786223
 10
59.9831013075791
 20
-7.844881252373395
 10
59.99248095108408
 20
-7.873868430065224
 10
60.00153619427738
 20
-7.902958741970497
 10
60.01025873915921
 20
-7.932150399949307
 10
60.01824902303249
 20
-7.960044561651263
 10
60.0259228540295
 20
-7.988027470624575
 10
60.03291391462719
 20
-8.014691629688901
 10
60.03960892571149
 20
-8.041431635277886
 10
60.04600345441097
 20
-8.068244953483706
 10
60.05209306785439
 20
-8.095129050398506
 10
60.05757702103609
 20
-8.120661138609166
 10
60.06278104923869
 20
-8.146251757161177
 10
60.06770342542869
 20
-8.171897974777456
 10
60.07234242994409
 20
-8.197596857376927
 10
60.07669635061809
 20
-8.223345469621165
 10
60.0807641886071
 20
-8.249140756510257
 10
60.08454623690889
 20
-8.274979446334977
 10
60.08804292467416
 20
-8.300858244546226
 10
60.09125468148559
 20
-8.326773856592645
 10
60.09418234648839
 20
-8.352722985787025
 10
60.09682792990329
 20
-8.378702329335096
 10
60.09919364991688
 20
-8.404708583358017
 10
60.10128172575219
 20
-8.430738444347893
 10
60.10318741253218
 20
-8.458236499467586
 10
60.10479045947319
 20
-8.485753874085848
 10
60.10609487659269
 20
-8.513287184048806
 10
60.1071046948366
 20
-8.540833041153286
 10
60.10785422032529
 20
-8.569838434755077
 10
60.10828763063376
 20
-8.598849803925432
 10
60.10841193714959
 20
-8.624951760800037
  0
DIMENSION
  5
BEF
330
1E
100
AcDbEntity
  8
2
100
AcDbDimension
  2
*D4
 10
60.808411934
 20
-27.77799081215869
 30
0.0
 11
30.81597634569999
 21
-27.77799081215869
 31
0.0
 70
   160
 71
     5
 42
59.98487117659998
  3
ISO-25
100
AcDbAlignedDimension
 13
0.8235407573999893
 23
-11.2499999999999
 33
0.0
 14
60.808411934
 24
-5.543705921061816
 34
0.0
 50
180.0
100
AcDbRotatedDimension
1001
ACAD
1000
DSTYLE
1002
{
1070
   271
1070
     0
1002
}
  0
LINE
  5
BF1
330
1E
100
AcDbEntity
  8
SK4
100
AcDbLine
 10
-24.191588066
 20
-5.283660668137486
 30
0.0
 11
-24.191588066
 21
4.948333839971041
 31
0.0
  0
ARC
  5
BF2
330
1E
100
AcDbEntity
  8
1
100
AcDbCircle
 10
-0.7517540966000259
 20
-11.69999999999999
 30
0.0
 40
0.8
100
AcDbArc
 50
314.443657195924
 51
340.0
  0
ARC
  5
BF3
330
1E
100
AcDbEntity
  8
SK1
100
AcDbCircle
 10
-0.7517540966000233
 20
11.69999999999999
 30
0.0
 40
0.8
100
AcDbArc
 50
45.55634280407493
 51
90.0
  0
LINE
  5
BF4
330
1E
100
AcDbEntity
  8
SK4
100
AcDbLine
 10
-0.1915880660000084
 20
0.0
 30
0.0
 11
-57.01986087038921
 21
0.0000000000000353
 31
0.0
  0
DIMENSION
  5
BF5
330
1E
100
AcDbEntity
  8
SK2
100
AcDbDimension
  2
*D2
 10
60.808411934
 20
-37.82979163998334
 30
0.0
 11
18.30841193399998
 21
-37.82979163998334
 31
0.0
 70
   160
 71
     5
 42
85.0
  3
ISO-25
100
AcDbAlignedDimension
 13
-24.191588066
 23
0.0000000000000029
 33
0.0
 14
60.808411934
 24
-12.4999999999999
 34
0.0
 50
180.0
100
AcDbRotatedDimension
  0
TEXT
  5
178F
330
1E
100
AcDbEntity
  8
6
100
AcDbText
 10
-11.15776433184277
 20
-62.53711246868545
 30
0.0
 40
5.0
  1
15B1E025060W5R00
100
AcDbText
  0
LINE
  5
4144
330
1E
100
AcDbEntity
  8
SK4
100
AcDbLine
 10
56.82266893399997
 20
3.932143580863018
 30
0.0
 11
56.82266893399997
 21
13.00880898118989
 31
0.0
  0
LINE
  5
4145
330
1E
100
AcDbEntity
  8
SK4
100
AcDbLine
 10
52.1181826220004
 20
8.508350000000032
 30
0.0
 11
61.63804797617575
 21
8.508350000000032
 31
0.0
  0
TEXT
  5
4D0E
330
1E
100
AcDbEntity
  8
6
100
AcDbText
 10
84.10957269982146
 20
-4.834418712471117
 30
0.0
 40
3.5
  1
Z=2
 50
90.0
100
AcDbText
  0
TEXT
  5
4D0F
330
1E
100
AcDbEntity
  8
6
100
AcDbText
 10
28.63310901909517
 20
19.73374679110191
 30
0.0
 40
2.5
  1
RHHW0802M0TN
100
AcDbText
  0
LINE
  5
4F49
330
1E
100
AcDbEntity
  8
NOCUT
100
AcDbLine
 10
0.0
 20
11.97361611483523
 30
0.0
 11
0.0
 21
0.0
 31
0.0
  0
LINE
  5
4F8A
330
1E
100
AcDbEntity
  8
NOCUT
100
AcDbLine
 10
60.30000000000001
 20
0.0
 30
0.0
 11
0.0
 21
0.0
 31
0.0
  0
LINE
  5
4F8D
330
1E
100
AcDbEntity
  8
NOCUT
100
AcDbLine
 10
0.0717866607726979
 20
11.77638388533552
 30
0.0
 11
0.0000000000726846
 21
11.97361611463553
 31
0.0
  0
LINE
  5
4F90
330
1E
100
AcDbEntity
  8
NOCUT
100
AcDbLine
 10
54.64044495720003
 20
11.25
 30
0.0
 11
0.8235407573999921
 21
11.25
 31
0.0
  0
LINE
  5
4F93
330
1E
100
AcDbEntity
  8
NOCUT
100
AcDbLine
 10
60.30000000000001
 20
0.0
 30
0.0
 11
60.30000000000001
 21
8.799999999999997
 31
0.0
  0
ARC
  5
4FA1
330
1E
100
AcDbEntity
  8
NOCUT
100
AcDbCircle
 10
57.0
 20
8.799999999999997
 30
0.0
 40
3.299999999999998
100
AcDbArc
 50
0.0002609805000853
 51
129.6218349071996
  0
ARC
  5
4FA5
330
1E
100
AcDbEntity
  8
NOCUT
100
AcDbCircle
 10
54.64044495720003
 20
11.64999999999998
 30
0.0
 40
0.4
100
AcDbArc
 50
270.0
 51
309.6218349071997
  0
SPLINE
  5
4FD7
330
1E
100
AcDbEntity
  8
CUT
100
AcDbSpline
210
0.0
220
0.0
230
1.0
 70
     8
 71
     3
 72
    36
 73
    32
 74
    30
 42
0.0000000001
 43
0.0000000001
 44
0.0000000001
 12
0.9999999742904019
 22
-0.0002267580109913
 32
0.0
 13
-0.999999974111397
 23
-0.0002275460507992
 33
0.0
 40
0.0
 40
0.0
 40
0.0
 40
0.0
 40
0.4322018105329594
 40
0.8644020273874007
 40
1.29660292376886
 40
1.728802352257657
 40
2.161001385561724
 40
2.593199492871343
 40
3.025397101917255
 40
3.457594179099668
 40
3.889790288065246
 40
4.321986606385983
 40
4.754183279243363
 40
5.186379733634193
 40
5.618576575807971
 40
6.050773166504852
 40
6.482971166504855
 40
6.915168751339623
 40
7.347367546753252
 40
7.779565896449315
 40
8.211765292027319
 40
8.643964180911808
 40
9.076164270326406
 40
9.508364977463759
 40
9.940564528655107
 40
10.3727660030464
 40
10.80496690996467
 40
11.23716818911716
 40
11.66936962054576
 40
12.10157016095846
 40
12.53377202562932
 40
12.53377202562932
 40
12.53377202562932
 40
12.53377202562932
 10
56.82266893400004
 20
4.516900000000029
 30
0.0
 10
56.96673620047377
 20
4.516867331592394
 30
0.0
 10
57.25511392819008
 20
4.532544239534631
 30
0.0
 10
57.68241534532457
 20
4.602581812940548
 30
0.0
 10
58.09968884610483
 20
4.718436632439436
 30
0.0
 10
58.501977722911
 20
4.878716575016908
 30
0.0
 10
58.88458030028827
 20
5.08155635381769
 30
0.0
 10
59.24301057329252
 20
5.324568740047758
 30
0.0
 10
59.57306169316307
 20
5.604913693523098
 30
0.0
 10
59.87086900741714
 20
5.919297289509831
 30
0.0
 10
60.1329383380333
 20
6.264037352459931
 30
0.0
 10
60.35619738407344
 20
6.635091549196989
 30
0.0
 10
60.53803012277021
 20
7.028109175685829
 30
0.0
 10
60.67630163114579
 20
7.438483504478892
 30
0.0
 10
60.76939515748067
 20
7.861401527498627
 30
0.0
 10
60.81621532668565
 20
8.291906400608993
 30
0.0
 10
60.81621530881157
 20
8.724949933063852
 30
0.0
 10
60.7693950508247
 20
9.155455771998827
 30
0.0
 10
60.67630168167159
 20
9.578375484545013
 30
0.0
 10
60.53802990640545
 20
9.988752013120883
 30
0.0
 10
60.35619751156976
 20
10.3817724364855
 30
0.0
 10
60.13293785199164
 20
10.7528298564556
 30
0.0
 10
59.8708690740651
 20
11.09757447661165
 30
0.0
 10
59.57306254502746
 20
11.41196337509422
 30
0.0
 10
59.24300967751264
 20
11.69231073285264
 30
0.0
 10
58.88458122584798
 20
11.93533005421441
 30
0.0
 10
58.5019775167368
 20
12.13817278600575
 30
0.0
 10
58.0996896427555
 20
12.29845909668064
 30
0.0
 10
57.68241535061871
 20
12.41431490717995
 30
0.0
 10
57.25511410469942
 20
12.48435491262833
 30
0.0
 10
56.96673621849395
 20
12.5000327819425
 30
0.0
 10
56.82266893400004
 20
12.50000000000002
 30
0.0
 11
56.82266893400004
 21
4.516900000000029
 31
0.0
 11
57.25423693399999
 21
4.540298000000028
 31
0.0
 11
57.68074393400002
 21
4.610218000000037
 31
0.0
 11
58.09719193399995
 21
4.725841000000038
 31
0.0
 11
58.49869693400001
 21
4.885810000000027
 31
0.0
 11
58.88055193399996
 21
5.08825200000003
 31
0.0
 11
59.238280934
 21
5.330791000000026
 31
0.0
 11
59.567687934
 21
5.610587000000028
 31
0.0
 11
59.86491293400002
 21
5.924357000000036
 31
0.0
 11
60.126469934
 21
6.268423000000034
 31
0.0
 11
60.34929293400001
 21
6.638752000000032
 31
0.0
 11
60.53076993399997
 21
7.031002000000034
 31
0.0
 11
60.66877193399999
 21
7.44057400000003
 31
0.0
 11
60.76168293399994
 21
7.862666000000023
 31
0.0
 11
60.808411934
 21
8.292329000000027
 31
0.0
 11
60.808411934
 21
8.72452700000003
 31
0.0
 11
60.76168293399994
 21
9.154191000000032
 31
0.0
 11
60.66877193399999
 21
9.576285000000034
 31
0.0
 11
60.53076993399997
 21
9.985859000000024
 31
0.0
 11
60.34929293400001
 21
10.37811200000003
 31
0.0
 11
60.126469934
 21
10.74844400000001
 31
0.0
 11
59.86491293400002
 21
11.09251500000001
 31
0.0
 11
59.567687934
 21
11.40629000000003
 31
0.0
 11
59.238280934
 21
11.68608900000003
 31
0.0
 11
58.88055193399996
 21
11.92863400000002
 31
0.0
 11
58.49869693400001
 21
12.13108000000002
 31
0.0
 11
58.09719193399995
 21
12.29105400000003
 31
0.0
 11
57.68074393400002
 21
12.40667900000002
 31
0.0
 11
57.25423693399999
 21
12.47660100000002
 31
0.0
 11
56.82266893400004
 21
12.50000000000002
 31
0.0
  0
SPLINE
  5
4FDA
330
1E
100
AcDbEntity
  8
CUT
100
AcDbSpline
210
0.0
220
0.0
230
1.0
 70
     8
 71
     3
 72
    36
 73
    32
 74
    30
 42
0.0000000001
 43
0.0000000001
 44
0.0000000001
 12
-0.9999999742904019
 22
-0.0002267580109913
 32
0.0
 13
0.999999974111397
 23
-0.0002275460507992
 33
0.0
 40
0.0
 40
0.0
 40
0.0
 40
0.0
 40
0.4322018105329665
 40
0.8644020273874078
 40
1.296602923768874
 40
1.728802352257658
 40
2.161001385561724
 40
2.593199492871338
 40
3.025397101917256
 40
3.457594179099668
 40
3.889790288065247
 40
4.321986606385984
 40
4.754183279243368
 40
5.186379733634198
 40
5.618576575807975
 40
6.050773166504853
 40
6.482971166504857
 40
6.915168751339622
 40
7.347367546753251
 40
7.779565896449314
 40
8.211765292027321
 40
8.64396418091181
 40
9.076164270326408
 40
9.508364977463761
 40
9.940564528655114
 40
10.37276600304641
 40
10.80496690996467
 40
11.23716818911715
 40
11.66936962054576
 40
12.10157016095845
 40
12.53377202562932
 40
12.53377202562932
 40
12.53377202562932
 40
12.53377202562932
 10
56.82266893400004
 20
4.516900000000029
 30
0.0
 10
56.67860166752629
 20
4.516867331592394
 30
0.0
 10
56.39022393980996
 20
4.53254423953463
 30
0.0
 10
55.96292252267551
 20
4.602581812940549
 30
0.0
 10
55.54564902189522
 20
4.718436632439432
 30
0.0
 10
55.14336014508907
 20
4.878716575016913
 30
0.0
 10
54.7607575677118
 20
5.081556353817687
 30
0.0
 10
54.40232729470758
 20
5.324568740047761
 30
0.0
 10
54.072276174837
 20
5.604913693523099
 30
0.0
 10
53.77446886058294
 20
5.91929728950983
 30
0.0
 10
53.51239952996679
 20
6.264037352459932
 30
0.0
 10
53.28914048392661
 20
6.635091549196989
 30
0.0
 10
53.10730774522988
 20
7.028109175685829
 30
0.0
 10
52.96903623685427
 20
7.438483504478895
 30
0.0
 10
52.87594271051939
 20
7.861401527498624
 30
0.0
 10
52.8291225413144
 20
8.291906400608995
 30
0.0
 10
52.82912255918851
 20
8.724949933063848
 30
0.0
 10
52.87594281717534
 20
9.15545577199883
 30
0.0
 10
52.96903618632846
 20
9.578375484545011
 30
0.0
 10
53.10730796159464
 20
9.988752013120883
 30
0.0
 10
53.2891403564303
 20
10.3817724364855
 30
0.0
 10
53.51240001600844
 20
10.7528298564556
 30
0.0
 10
53.77446879393494
 20
11.09757447661165
 30
0.0
 10
54.07227532297262
 20
11.41196337509423
 30
0.0
 10
54.40232819048741
 20
11.69231073285263
 30
0.0
 10
54.7607566421521
 20
11.93533005421442
 30
0.0
 10
55.14336035126326
 20
12.13817278600575
 30
0.0
 10
55.54564822524457
 20
12.29845909668065
 30
0.0
 10
55.96292251738134
 20
12.41431490717994
 30
0.0
 10
56.39022376330064
 20
12.48435491262833
 30
0.0
 10
56.67860164950611
 20
12.5000327819425
 30
0.0
 10
56.82266893400004
 20
12.50000000000002
 30
0.0
 11
56.82266893400004
 21
4.516900000000029
 31
0.0
 11
56.39110093400006
 21
4.540298000000028
 31
0.0
 11
55.96459393400003
 21
4.610218000000037
 31
0.0
 11
55.5481459340001
 21
4.725841000000038
 31
0.0
 11
55.14664093400006
 21
4.885810000000027
 31
0.0
 11
54.7647859340001
 21
5.08825200000003
 31
0.0
 11
54.40705693400008
 21
5.330791000000026
 31
0.0
 11
54.07764993400007
 21
5.610587000000028
 31
0.0
 11
53.78042493400005
 21
5.924357000000036
 31
0.0
 11
53.51886793400007
 21
6.268423000000034
 31
0.0
 11
53.29604493400006
 21
6.638752000000032
 31
0.0
 11
53.11456793400009
 21
7.031002000000034
 31
0.0
 11
52.97656593400006
 21
7.44057400000003
 31
0.0
 11
52.88365493400011
 21
7.862666000000023
 31
0.0
 11
52.83692593400008
 21
8.292329000000027
 31
0.0
 11
52.83692593400008
 21
8.72452700000003
 31
0.0
 11
52.88365493400011
 21
9.154191000000032
 31
0.0
 11
52.97656593400006
 21
9.576285000000034
 31
0.0
 11
53.11456793400009
 21
9.985859000000024
 31
0.0
 11
53.29604493400006
 21
10.37811200000003
 31
0.0
 11
53.51886793400007
 21
10.74844400000001
 31
0.0
 11
53.78042493400005
 21
11.09251500000001
 31
0.0
 11
54.07764993400007
 21
11.40629000000003
 31
0.0
 11
54.40705693400008
 21
11.68608900000003
 31
0.0
 11
54.7647859340001
 21
11.92863400000002
 31
0.0
 11
55.14664093400006
 21
12.13108000000002
 31
0.0
 11
55.5481459340001
 21
12.29105400000003
 31
0.0
 11
55.96459393400003
 21
12.40667900000002
 31
0.0
 11
56.39110093400006
 21
12.47660100000002
 31
0.0
 11
56.82266893400004
 21
12.50000000000002
 31
0.0
  0
ARC
  5
4FE1
330
1E
100
AcDbEntity
  8
NOCUT
100
AcDbCircle
 10
0.8235407573999921
 20
12.05
 30
0.0
 40
0.8
100
AcDbArc
 50
200.0000000002998
 51
270.0
  0
LWPOLYLINE
  5
5149
330
1E
100
AcDbEntity
  8
1
100
AcDbPolyline
 90
        3
 70
     1
 43
0.0
 10
0.0000000000001279
 20
0.0
 10
-2.950972054112455
 20
0.0
 42
0.4142135623730966
 10
0.0000000000001279
 20
-2.950972054112583
  0
HATCH
  5
514A
330
1E
100
AcDbEntity
  8
1
100
AcDbHatch
 10
0.0
 20
0.0
 30
0.0
210
0.0
220
0.0
230
1.0
  2
SOLID
 70
     1
 71
     0
 91
        2
 92
        7
 72
     1
 73
     1
 93
        3
 10
0.0000000000001279
 20
0.0
 42
0.0
 10
2.950972054112709
 20
0.0
 42
0.4142135623730966
 10
0.0000000000001279
 20
2.950972054112611
 42
0.0
 97
        0
 92
        7
 72
     1
 73
     1
 93
        3
 10
0.0000000000001279
 20
-2.950972054112496
 42
0.0
 10
0.0000000000001279
 20
0.0
 42
0.0
 10
-2.950972054112455
 20
0.0
 42
0.4142135623730953
 97
        0
 75
     0
 76
     1
 47
0.1190009775223266
 98
        2
 10
0.7445530588120306
 20
0.9212244733764975
 10
-1.279464601852807
 20
-1.696796923046291
  0
CIRCLE
  5
514B
330
1E
100
AcDbEntity
  8
1
100
AcDbCircle
 10
0.0000000000001279
 20
0.0
 30
0.0
 40
2.950972054112601
  0
LINE
  5
514C
330
1E
100
AcDbEntity
  8
1
100
AcDbLine
 10
0.0000000000001279
 20
2.950972054112611
 30
0.0
 11
0.0000000000001279
 21
-2.950972054112583
 31
0.0
  0
LINE
  5
514D
330
1E
100
AcDbEntity
  8
1
100
AcDbLine
 10
-2.950972054112709
 20
0.0
 30
0.0
 11
2.950972054112709
 21
0.0
 31
0.0
  0
LWPOLYLINE
  5
514E
330
1E
100
AcDbEntity
  8
1
100
AcDbPolyline
 90
        3
 70
     1
 43
0.0
 10
0.0000000000001279
 20
2.950972054112611
 10
0.0000000000001279
 20
0.0
 10
2.950972054112709
 20
0.0
 42
0.4142135623730966
  0
ENDSEC
  0
SECTION
  2
OBJECTS
  0
DICTIONARY
  5
C
330
0
100
AcDbDictionary
281
     1
  3
ACAD_COLOR
350
52CE
  3
ACAD_GROUP
350
D
  3
ACAD_LAYOUT
350
19
  3
ACAD_MATERIAL
350
52CD
  3
ACAD_MLINESTYLE
350
16
  3
ACAD_PLOTSETTINGS
350
18
  3
ACAD_PLOTSTYLENAME
350
4B29
  3
ACAD_TABLESTYLE
350
52CF
  3
ACDBHEADERROUNDTRIPXREC
350
52DD
  3
AcDbVariableDictionary
350
52D1
1001
ACAD
1000
TREAT_AS_HARD
1070
     0
1000
TREAT_AS_HARD
1070
     0
  0
DICTIONARY
  5
3437
330
1E
100
AcDbDictionary
280
     1
281
     1
  3
ACAD_LAYOUTSELFREF
360
4148
1001
ACAD
1000
TREAT_AS_HARD
1070
     0
  0
DICTIONARY
  5
3435
330
1A
100
AcDbDictionary
280
     1
281
     1
  3
ACAD_LAYOUTSELFREF
360
4147
1001
ACAD
1000
TREAT_AS_HARD
1070
     0
  0
DICTIONARY
  5
52CE
102
{ACAD_REACTORS
330
C
102
}
330
C
100
AcDbDictionary
281
     1
  0
DICTIONARY
  5
D
102
{ACAD_REACTORS
330
C
102
}
330
C
100
AcDbDictionary
281
     1
1001
ACAD
1000
TREAT_AS_HARD
1070
     0
1000
TREAT_AS_HARD
1070
     0
  0
DICTIONARY
  5
19
102
{ACAD_REACTORS
330
C
102
}
330
C
100
AcDbDictionary
281
     1
  3
Layout1
350
4B2C
  3
Model
350
4B2B
1001
ACAD
1000
TREAT_AS_HARD
1070
     0
1000
TREAT_AS_HARD
1070
     0
  0
DICTIONARY
  5
52CD
102
{ACAD_REACTORS
330
C
102
}
330
C
100
AcDbDictionary
281
     1
  0
DICTIONARY
  5
16
102
{ACAD_REACTORS
330
C
102
}
330
C
100
AcDbDictionary
281
     1
  3
STANDARD
350
17
1001
ACAD
1000
TREAT_AS_HARD
1070
     0
1000
TREAT_AS_HARD
1070
     0
  0
DICTIONARY
  5
18
102
{ACAD_REACTORS
330
C
102
}
330
C
100
AcDbDictionary
281
     1
1001
ACAD
1000
TREAT_AS_HARD
1070
     0
1000
TREAT_AS_HARD
1070
     0
  0
ACDBDICTIONARYWDFLT
  5
4B29
102
{ACAD_REACTORS
330
C
102
}
330
C
100
AcDbDictionary
281
     1
  3
Normal
350
4B2A
100
AcDbDictionaryWithDefault
340
4B2A
  0
DICTIONARY
  5
52CF
102
{ACAD_REACTORS
330
C
102
}
330
C
100
AcDbDictionary
281
     1
  3
Standard
350
52D0
  0
DICTIONARY
  5
52DD
102
{ACAD_REACTORS
330
C
102
}
330
C
100
AcDbDictionary
281
     1
  0
DICTIONARY
  5
52D1
102
{ACAD_REACTORS
330
C
102
}
330
C
100
AcDbDictionary
281
     1
  3
CTABLESTYLE
350
52D2
  3
DIMASSOC
350
52D3
  3
PROJECTNAME
350
52D4
  0
XRECORD
  5
4148
102
{ACAD_REACTORS
330
3437
102
}
330
3437
100
AcDbXrecord
280
     1
340
1E
  0
XRECORD
  5
4147
102
{ACAD_REACTORS
330
3435
102
}
330
3435
100
AcDbXrecord
280
     1
340
1A
  0
LAYOUT
  5
4B2C
102
{ACAD_XDICTIONARY
360
52E0
102
}
102
{ACAD_REACTORS
330
19
102
}
330
19
100
AcDbPlotSettings
  1

  2
\\ingdom02\ITB2
  4

  6

 40
0.0
 41
0.0
 42
0.0
 43
0.0
 44
0.0
 45
0.0
 46
0.0
 47
0.0
 48
0.0
 49
0.0
140
0.0
141
0.0
142
1.0
143
1.0
 70
   688
 72
     0
 73
     0
 74
     5
  7

 75
    16
147
1.0
148
0.0
149
0.0
100
AcDbLayout
  1
Layout1
 70
     1
 71
     1
 10
0.0
 20
0.0
 11
12.0
 21
9.0
 12
0.0
 22
0.0
 32
0.0
 14
100.0
 24
100.0
 34
100.0
 15
-100.0
 25
-100.0
 35
-100.0
146
0.0
 13
0.0
 23
0.0
 33
0.0
 16
1.0
 26
0.0
 36
0.0
 17
0.0
 27
1.0
 37
0.0
 76
     0
330
1A
  0
LAYOUT
  5
4B2B
102
{ACAD_XDICTIONARY
360
52DE
102
}
102
{ACAD_REACTORS
330
19
102
}
330
19
100
AcDbPlotSettings
  1

  2
\\ingdom02\ITB2
  4

  6

 40
0.0
 41
0.0
 42
0.0
 43
0.0
 44
0.0
 45
0.0
 46
0.0
 47
0.0
 48
0.0
 49
0.0
140
0.0
141
0.0
142
1.0
143
1.0
 70
  1712
 72
     0
 73
     0
 74
     0
  7

 75
     0
147
1.0
148
0.0
149
0.0
100
AcDbLayout
  1
Model
 70
     1
 71
     0
 10
0.0
 20
0.0
 11
12.0
 21
9.0
 12
0.0
 22
0.0
 32
0.0
 14
0.0
 24
0.0
 34
0.0
 15
0.0
 25
0.0
 35
0.0
146
0.0
 13
0.0
 23
0.0
 33
0.0
 16
1.0
 26
0.0
 36
0.0
 17
0.0
 27
1.0
 37
0.0
 76
     0
330
1E
  0
MLINESTYLE
  5
17
102
{ACAD_REACTORS
330
16
102
}
330
16
100
AcDbMlineStyle
  2
STANDARD
 70
     0
  3

 62
   256
 51
90.0
 52
90.0
 71
     2
 49
0.5
 62
   256
  6
BYLAYER
 49
-0.5
 62
   256
  6
BYLAYER
  0
ACDBPLACEHOLDER
  5
4B2A
102
{ACAD_REACTORS
330
4B29
102
}
330
4B29
  0
TABLESTYLE
  5
52D0
102
{ACAD_REACTORS
330
52CF
102
}
330
52CF
100
AcDbTableStyle
  3
Standard
 70
     0
 71
     0
 40
0.06
 41
0.06
280
     0
281
     0
  7
STANDARD
140
0.18
170
     2
 62
     0
 63
     7
283
     0
274
    -2
284
     1
 64
     0
275
    -2
285
     1
 65
     0
276
    -2
286
     1
 66
     0
277
    -2
287
     1
 67
     0
278
    -2
288
     1
 68
     0
279
    -2
289
     1
 69
     0
  7
STANDARD
140
0.25
170
     5
 62
     0
 63
     7
283
     0
274
    -2
284
     1
 64
     0
275
    -2
285
     1
 65
     0
276
    -2
286
     1
 66
     0
277
    -2
287
     1
 67
     0
278
    -2
288
     1
 68
     0
279
    -2
289
     1
 69
     0
  7
STANDARD
140
0.18
170
     5
 62
     0
 63
     7
283
     0
274
    -2
284
     1
 64
     0
275
    -2
285
     1
 65
     0
276
    -2
286
     1
 66
     0
277
    -2
287
     1
 67
     0
278
    -2
288
     1
 68
     0
279
    -2
289
     1
 69
     0
  0
DICTIONARYVAR
  5
52D2
102
{ACAD_REACTORS
330
52D1
102
}
330
52D1
100
DictionaryVariables
280
     0
  1
STANDARD
  0
DICTIONARYVAR
  5
52D3
102
{ACAD_REACTORS
330
52D1
102
}
330
52D1
100
DictionaryVariables
280
     0
  1
1
  0
DICTIONARYVAR
  5
52D4
102
{ACAD_REACTORS
330
52D1
102
}
330
52D1
100
DictionaryVariables
280
     0
  1

  0
DICTIONARY
  5
52E0
330
4B2C
100
AcDbDictionary
280
     1
281
     1
  3
ACAD_XREC_ROUNDTRIP
360
52E1
  0
DICTIONARY
  5
52DE
330
4B2B
100
AcDbDictionary
280
     1
281
     1
  3
ACAD_XREC_ROUNDTRIP
360
52DF
  0
XRECORD
  5
52E1
102
{ACAD_REACTORS
330
52E0
102
}
330
52E0
100
AcDbXrecord
280
     1
102
SHADEPLOT
 70
     0
102
SHADEPLOTRESLEVEL
 70
     2
102
SHADEPLOTCUSTOMDPI
 70
   300
  0
XRECORD
  5
52DF
102
{ACAD_REACTORS
330
52DE
102
}
330
52DE
100
AcDbXrecord
280
     1
102
SHADEPLOT
 70
     0
102
SHADEPLOTRESLEVEL
 70
     2
102
SHADEPLOTCUSTOMDPI
 70
   300
  0
ENDSEC
  0
EOF
