  0
SECTION
  2
HEADER
  9
$ACADVER
  1
AC1015
  9
$ACADMAINTVER
 70
    20
  9
$DWGCODEPAGE
  3
ANSI_1252
  9
$INSBASE
 10
0.0
 20
0.0
 30
0.0
  9
$EXTMIN
 10
-74.27617673954637
 20
-67.90193916606256
 30
-0.0015258207003583
  9
$EXTMAX
 10
64.46094633072994
 20
23.53185289970429
 30
0.0000000349246037
  9
$LIMMIN
 10
0.0
 20
0.0
  9
$LIMMAX
 10
297.0
 20
210.0
  9
$ORTHOMODE
 70
     0
  9
$REGENMODE
 70
     1
  9
$FILLMODE
 70
     1
  9
$QTEXTMODE
 70
     0
  9
$MIRRTEXT
 70
     1
  9
$LTSCALE
 40
10.0
  9
$ATTMODE
 70
     1
  9
$TEXTSIZE
 40
0.2
  9
$TRACEWID
 40
0.05
  9
$TEXTSTYLE
  7
STANDARD
  9
$CLAYER
  8
0
  9
$CELTYPE
  6
BYLAYER
  9
$CECOLOR
 62
   256
  9
$CELTSCALE
 40
1.0
  9
$DISPSILH
 70
     0
  9
$DIMSCALE
 40
1.0
  9
$DIMASZ
 40
2.5
  9
$DIMEXO
 40
1.85625
  9
$DIMDLI
 40
11.286
  9
$DIMRND
 40
0.0
  9
$DIMDLE
 40
0.0
  9
$DIMEXE
 40
5.346
  9
$DIMTP
 40
0.01
  9
$DIMTM
 40
0.01
  9
$DIMTXT
 40
3.5
  9
$DIMCEN
 40
2.673
  9
$DIMTSZ
 40
0.0
  9
$DIMTOL
 70
     1
  9
$DIMLIM
 70
     0
  9
$DIMTIH
 70
     1
  9
$DIMTOH
 70
     1
  9
$DIMSE1
 70
     0
  9
$DIMSE2
 70
     0
  9
$DIMTAD
 70
     0
  9
$DIMZIN
 70
     0
  9
$DIMBLK
  1
_FILLED
  9
$DIMASO
 70
     1
  9
$DIMSHO
 70
     1
  9
$DIMPOST
  1

  9
$DIMAPOST
  1

  9
$DIMALT
 70
     0
  9
$DIMALTD
 70
     2
  9
$DIMALTF
 40
25.4
  9
$DIMLFAC
 40
1.0
  9
$DIMTOFL
 70
     0
  9
$DIMTVP
 40
0.0
  9
$DIMTIX
 70
     0
  9
$DIMSOXD
 70
     0
  9
$DIMSAH
 70
     0
  9
$DIMBLK1
  1

  9
$DIMBLK2
  1

  9
$DIMSTYLE
  2
STANDARD
  9
$DIMCLRD
 70
     0
  9
$DIMCLRE
 70
     0
  9
$DIMCLRT
 70
     0
  9
$DIMTFAC
 40
1.0
  9
$DIMGAP
 40
0.09
  9
$DIMJUST
 70
     0
  9
$DIMSD1
 70
     0
  9
$DIMSD2
 70
     0
  9
$DIMTOLJ
 70
     1
  9
$DIMTZIN
 70
     0
  9
$DIMALTZ
 70
     0
  9
$DIMALTTZ
 70
     0
  9
$DIMUPT
 70
     0
  9
$DIMDEC
 70
     4
  9
$DIMTDEC
 70
     4
  9
$DIMALTU
 70
     2
  9
$DIMALTTD
 70
     2
  9
$DIMTXSTY
  7
STANDARD
  9
$DIMAUNIT
 70
     0
  9
$DIMADEC
 70
     0
  9
$DIMALTRND
 40
0.0
  9
$DIMAZIN
 70
     0
  9
$DIMDSEP
 70
    46
  9
$DIMATFIT
 70
     3
  9
$DIMFRAC
 70
     0
  9
$DIMLDRBLK
  1
_FILLED
  9
$DIMLUNIT
 70
     2
  9
$DIMLWD
 70
    -2
  9
$DIMLWE
 70
    -2
  9
$DIMTMOVE
 70
     0
  9
$LUNITS
 70
     2
  9
$LUPREC
 70
     4
  9
$SKETCHINC
 40
0.1
  9
$FILLETRAD
 40
0.0
  9
$AUNITS
 70
     0
  9
$AUPREC
 70
     0
  9
$MENU
  1

  9
$ELEVATION
 40
0.0
  9
$PELEVATION
 40
0.0
  9
$THICKNESS
 40
0.0
  9
$LIMCHECK
 70
     0
  9
$CHAMFERA
 40
0.0
  9
$CHAMFERB
 40
0.0
  9
$CHAMFERC
 40
0.0
  9
$CHAMFERD
 40
0.0
  9
$SKPOLY
 70
     0
  9
$TDCREATE
 40
2453413.471134584
  9
$TDUCREATE
 40
2453413.387801250
  9
$TDUPDATE
 40
2453909.275784838
  9
$TDUUPDATE
 40
2453909.192451504
  9
$TDINDWG
 40
0.0566834028
  9
$TDUSRTIMER
 40
0.0342602315
  9
$USRTIMER
 70
     1
  9
$ANGBASE
 50
0.0
  9
$ANGDIR
 70
     0
  9
$PDMODE
 70
     0
  9
$PDSIZE
 40
0.3125
  9
$PLINEWID
 40
0.0
  9
$SPLFRAME
 70
     0
  9
$SPLINETYPE
 70
     6
  9
$SPLINESEGS
 70
     8
  9
$HANDSEED
  5
34FA
  9
$SURFTAB1
 70
     6
  9
$SURFTAB2
 70
     6
  9
$SURFTYPE
 70
     6
  9
$SURFU
 70
     6
  9
$SURFV
 70
     6
  9
$UCSBASE
  2

  9
$UCSNAME
  2

  9
$UCSORG
 10
0.0
 20
0.0
 30
0.0
  9
$UCSXDIR
 10
1.0
 20
0.0
 30
0.0
  9
$UCSYDIR
 10
0.0
 20
1.0
 30
0.0
  9
$UCSORTHOREF
  2

  9
$UCSORTHOVIEW
 70
     0
  9
$UCSORGTOP
 10
0.0
 20
0.0
 30
0.0
  9
$UCSORGBOTTOM
 10
0.0
 20
0.0
 30
0.0
  9
$UCSORGLEFT
 10
0.0
 20
0.0
 30
0.0
  9
$UCSORGRIGHT
 10
0.0
 20
0.0
 30
0.0
  9
$UCSORGFRONT
 10
0.0
 20
0.0
 30
0.0
  9
$UCSORGBACK
 10
0.0
 20
0.0
 30
0.0
  9
$PUCSBASE
  2

  9
$PUCSNAME
  2

  9
$PUCSORG
 10
0.0
 20
0.0
 30
0.0
  9
$PUCSXDIR
 10
1.0
 20
0.0
 30
0.0
  9
$PUCSYDIR
 10
0.0
 20
1.0
 30
0.0
  9
$PUCSORTHOREF
  2

  9
$PUCSORTHOVIEW
 70
     0
  9
$PUCSORGTOP
 10
0.0
 20
0.0
 30
0.0
  9
$PUCSORGBOTTOM
 10
0.0
 20
0.0
 30
0.0
  9
$PUCSORGLEFT
 10
0.0
 20
0.0
 30
0.0
  9
$PUCSORGRIGHT
 10
0.0
 20
0.0
 30
0.0
  9
$PUCSORGFRONT
 10
0.0
 20
0.0
 30
0.0
  9
$PUCSORGBACK
 10
0.0
 20
0.0
 30
0.0
  9
$USERI1
 70
     0
  9
$USERI2
 70
     0
  9
$USERI3
 70
     0
  9
$USERI4
 70
     0
  9
$USERI5
 70
     0
  9
$USERR1
 40
0.0
  9
$USERR2
 40
0.0
  9
$USERR3
 40
0.0
  9
$USERR4
 40
0.0
  9
$USERR5
 40
0.0
  9
$WORLDVIEW
 70
     1
  9
$SHADEDGE
 70
     3
  9
$SHADEDIF
 70
    70
  9
$TILEMODE
 70
     1
  9
$MAXACTVP
 70
    64
  9
$PINSBASE
 10
0.0
 20
0.0
 30
0.0
  9
$PLIMCHECK
 70
     0
  9
$PEXTMIN
 10
100.0
 20
100.0
 30
100.0
  9
$PEXTMAX
 10
-100.0
 20
-100.0
 30
-100.0
  9
$PLIMMIN
 10
0.0
 20
0.0
  9
$PLIMMAX
 10
12.0
 20
9.0
  9
$UNITMODE
 70
     0
  9
$VISRETAIN
 70
     1
  9
$PLINEGEN
 70
     1
  9
$PSLTSCALE
 70
     1
  9
$TREEDEPTH
 70
  3020
  9
$CMLSTYLE
  2
STANDARD
  9
$CMLJUST
 70
     0
  9
$CMLSCALE
 40
1.0
  9
$PROXYGRAPHICS
 70
     1
  9
$MEASUREMENT
 70
     0
  9
$CELWEIGHT
370
    -1
  9
$ENDCAPS
280
     0
  9
$JOINSTYLE
280
     0
  9
$LWDISPLAY
290
     0
  9
$INSUNITS
 70
     0
  9
$HYPERLINKBASE
  1

  9
$STYLESHEET
  1

  9
$XEDIT
290
     1
  9
$CEPSNTYPE
380
     0
  9
$PSTYLEMODE
290
     1
  9
$FINGERPRINTGUID
  2
{7504E431-FE4D-466A-9E6E-9CE77239AF77}
  9
$VERSIONGUID
  2
{D1E4C4DB-9251-4A36-AAA1-4762FC890748}
  9
$EXTNAMES
290
     1
  9
$PSVPSCALE
 40
0.0
  9
$OLESTARTUP
290
     0
  0
ENDSEC
  0
SECTION
  2
CLASSES
  0
CLASS
  1
ACDBDICTIONARYWDFLT
  2
AcDbDictionaryWithDefault
  3
ObjectDBX Classes
 90
        0
280
     0
281
     0
  0
CLASS
  1
ACDBPLACEHOLDER
  2
AcDbPlaceHolder
  3
ObjectDBX Classes
 90
        0
280
     0
281
     0
  0
CLASS
  1
LAYOUT
  2
AcDbLayout
  3
ObjectDBX Classes
 90
        0
280
     0
281
     0
  0
CLASS
  1
TABLESTYLE
  2
AcDbTableStyle
  3
ObjectDBX Classes
 90
     2047
280
     0
281
     0
  0
CLASS
  1
DICTIONARYVAR
  2
AcDbDictionaryVar
  3
ObjectDBX Classes
 90
        0
280
     0
281
     0
  0
ENDSEC
  0
SECTION
  2
TABLES
  0
TABLE
  2
VPORT
  5
8
330
0
100
AcDbSymbolTable
 70
     2
  0
VPORT
  5
34F4
330
8
100
AcDbSymbolTableRecord
100
AcDbViewportTableRecord
  2
*Active
 70
     0
 10
0.0
 20
0.0
 11
1.0
 21
1.0
 12
-4.90761520440822
 22
-22.18504313317914
 13
0.0
 23
0.0
 14
1.0
 24
1.0
 15
0.0
 25
0.0
 16
0.0
 26
0.0
 36
1.0
 17
0.0
 27
0.0
 37
0.0
 40
92.12998845205442
 41
1.532401524777636
 42
50.0
 43
0.0
 44
0.0
 50
0.0
 51
0.0
 71
     0
 72
   100
 73
     1
 74
     1
 75
     0
 76
     0
 77
     0
 78
     0
281
     0
 65
     1
110
0.0
120
0.0
130
0.0
111
1.0
121
0.0
131
0.0
112
0.0
122
1.0
132
0.0
 79
     0
146
0.0
  0
ENDTAB
  0
TABLE
  2
LTYPE
  5
5
330
0
100
AcDbSymbolTable
 70
     2
  0
LTYPE
  5
13
330
5
100
AcDbSymbolTableRecord
100
AcDbLinetypeTableRecord
  2
BYBLOCK
 70
     0
  3

 72
    65
 73
     0
 40
0.0
  0
LTYPE
  5
14
330
5
100
AcDbSymbolTableRecord
100
AcDbLinetypeTableRecord
  2
BYLAYER
 70
     0
  3

 72
    65
 73
     0
 40
0.0
  0
LTYPE
  5
15
330
5
100
AcDbSymbolTableRecord
100
AcDbLinetypeTableRecord
  2
CONTINUOUS
 70
     0
  3
Solid line
 72
    65
 73
     0
 40
0.0
  0
LTYPE
  5
2E
330
5
100
AcDbSymbolTableRecord
100
AcDbLinetypeTableRecord
  2
CENTER
 70
     0
  3
____ _ ____ _ ____ _ ____ _ ____ _ ____ _ ____
 72
    65
 73
     4
 40
0.6
 49
0.375
 74
     0
 49
-0.075
 74
     0
 49
0.075
 74
     0
 49
-0.075
 74
     0
  0
ENDTAB
  0
TABLE
  2
LAYER
  5
2
330
0
100
AcDbSymbolTable
 70
    11
  0
LAYER
  5
10
330
2
100
AcDbSymbolTableRecord
100
AcDbLayerTableRecord
  2
1
 70
     0
 62
     4
  6
CONTINUOUS
370
    -3
390
2D34
  0
LAYER
  5
31
330
2
100
AcDbSymbolTableRecord
100
AcDbLayerTableRecord
  2
2
 70
     0
 62
     7
  6
CONTINUOUS
370
    -3
390
2D34
  0
LAYER
  5
33
330
2
100
AcDbSymbolTableRecord
100
AcDbLayerTableRecord
  2
4
 70
     0
 62
     2
  6
CENTER
370
    -3
390
2D34
  0
LAYER
  5
36
330
2
100
AcDbSymbolTableRecord
100
AcDbLayerTableRecord
  2
0
 70
     0
 62
     7
  6
CONTINUOUS
370
    -3
390
2D34
  0
LAYER
  5
37
330
2
100
AcDbSymbolTableRecord
100
AcDbLayerTableRecord
  2
DEFPOINTS
 70
     0
 62
     7
  6
CONTINUOUS
290
     0
370
    -3
390
2D34
  0
LAYER
  5
B05
330
2
100
AcDbSymbolTableRecord
100
AcDbLayerTableRecord
  2
SK1
 70
     0
 62
     4
  6
CONTINUOUS
370
    -3
390
2D34
  0
LAYER
  5
B06
330
2
100
AcDbSymbolTableRecord
100
AcDbLayerTableRecord
  2
SK4
 70
     0
 62
     2
  6
CENTER
370
    -3
390
2D34
  0
LAYER
  5
B08
330
2
100
AcDbSymbolTableRecord
100
AcDbLayerTableRecord
  2
SK2
 70
     0
 62
     7
  6
CONTINUOUS
370
    -3
390
2D34
  0
LAYER
  5
2DCB
330
2
100
AcDbSymbolTableRecord
100
AcDbLayerTableRecord
  2
6
 70
     0
 62
     5
  6
CONTINUOUS
370
    -3
390
2D34
  0
LAYER
  5
2DCC
330
2
100
AcDbSymbolTableRecord
100
AcDbLayerTableRecord
  2
CUT
 70
     0
 62
     1
  6
CONTINUOUS
370
    -3
390
2D34
  0
LAYER
  5
2DCD
330
2
100
AcDbSymbolTableRecord
100
AcDbLayerTableRecord
  2
NOCUT
 70
     0
 62
     7
  6
CONTINUOUS
370
    -3
390
2D34
  0
ENDTAB
  0
TABLE
  2
STYLE
  5
3
330
0
100
AcDbSymbolTable
 70
     1
  0
STYLE
  5
11
330
3
100
AcDbSymbolTableRecord
100
AcDbTextStyleTableRecord
  2
STANDARD
 70
     0
 40
0.0
 41
0.8
 50
0.0
 71
     0
 42
0.2
  3
isocp.shx
  4

  0
ENDTAB
  0
TABLE
  2
VIEW
  5
6
330
0
100
AcDbSymbolTable
 70
     0
  0
ENDTAB
  0
TABLE
  2
UCS
  5
7
330
0
100
AcDbSymbolTable
 70
     0
  0
ENDTAB
  0
TABLE
  2
APPID
  5
9
330
0
100
AcDbSymbolTable
 70
     1
  0
APPID
  5
12
330
9
100
AcDbSymbolTableRecord
100
AcDbRegAppTableRecord
  2
ACAD
 70
     0
  0
ENDTAB
  0
TABLE
  2
DIMSTYLE
  5
A
330
0
100
AcDbSymbolTable
 70
     2
100
AcDbDimStyleTable
 71
     1
340
30
  0
DIMSTYLE
105
30
330
A
100
AcDbSymbolTableRecord
100
AcDbDimStyleTableRecord
  2
STANDARD
 70
     0
340
11
  0
DIMSTYLE
105
B09
102
{ACAD_REACTORS
330
AC3
330
AC1
330
8A
330
8B
330
8C
102
}
330
A
100
AcDbSymbolTableRecord
100
AcDbDimStyleTableRecord
  2
ISO-25
 70
     0
 41
2.5
 42
0.625
 43
3.75
 44
1.25
 73
     0
 74
     0
 77
     1
 78
     8
140
2.5
141
2.5
143
0.03937007874016
147
0.625
171
     3
172
     1
271
     2
272
     2
274
     3
283
     0
284
     8
340
11
  0
ENDTAB
  0
TABLE
  2
BLOCK_RECORD
  5
1
330
0
100
AcDbSymbolTable
 70
     6
  0
BLOCK_RECORD
  5
1E
102
{ACAD_XDICTIONARY
360
19CB
102
}
330
1
100
AcDbSymbolTableRecord
100
AcDbBlockTableRecord
  2
*MODEL_SPACE
340
2D35
  0
BLOCK_RECORD
  5
1A
102
{ACAD_XDICTIONARY
360
19C9
102
}
330
1
100
AcDbSymbolTableRecord
100
AcDbBlockTableRecord
  2
*PAPER_SPACE
340
2D36
  0
BLOCK_RECORD
  5
23
330
1
100
AcDbSymbolTableRecord
100
AcDbBlockTableRecord
  2
_FILLED
340
0
  0
BLOCK_RECORD
  5
18F3
330
1
100
AcDbSymbolTableRecord
100
AcDbBlockTableRecord
  2
*D1
340
0
  0
BLOCK_RECORD
  5
18FF
330
1
100
AcDbSymbolTableRecord
100
AcDbBlockTableRecord
  2
*D2
340
0
  0
BLOCK_RECORD
  5
190B
330
1
100
AcDbSymbolTableRecord
100
AcDbBlockTableRecord
  2
*D3
340
0
  0
BLOCK_RECORD
  5
1917
330
1
100
AcDbSymbolTableRecord
100
AcDbBlockTableRecord
  2
*D4
340
0
  0
BLOCK_RECORD
  5
1923
330
1
100
AcDbSymbolTableRecord
100
AcDbBlockTableRecord
  2
*D5
340
0
  0
ENDTAB
  0
ENDSEC
  0
SECTION
  2
BLOCKS
  0
BLOCK
  5
3A
330
1E
100
AcDbEntity
  8
0
100
AcDbBlockBegin
  2
*MODEL_SPACE
 70
     0
 10
0.0
 20
0.0
 30
0.0
  3
*MODEL_SPACE
  1

  0
ENDBLK
  5
3B
330
1E
100
AcDbEntity
  8
0
100
AcDbBlockEnd
  0
BLOCK
  5
38
330
1A
100
AcDbEntity
 67
     1
  8
0
100
AcDbBlockBegin
  2
*PAPER_SPACE
 70
     0
 10
0.0
 20
0.0
 30
0.0
  3
*PAPER_SPACE
  1

  0
ENDBLK
  5
39
330
1A
100
AcDbEntity
 67
     1
  8
0
100
AcDbBlockEnd
  0
BLOCK
  5
3E
330
23
100
AcDbEntity
  8
0
100
AcDbBlockBegin
  2
_FILLED
 70
     0
 10
0.0
 20
0.0
 30
0.0
  3
_FILLED
  1

  0
SOLID
  5
3F
330
23
100
AcDbEntity
  8
0
  6
ByBlock
 62
     0
100
AcDbTrace
 10
0.0
 20
0.0
 30
0.0
 11
-1.0
 21
0.132
 31
0.0
 12
-1.0
 22
-0.132
 32
0.0
 13
-1.0
 23
-0.132
 33
0.0
  0
ENDBLK
  5
40
330
23
100
AcDbEntity
  8
0
100
AcDbBlockEnd
  0
BLOCK
  5
18FD
330
18F3
100
AcDbEntity
  8
0
100
AcDbBlockBegin
  2
*D1
 70
     1
 10
0.0
 20
0.0
 30
0.0
  3
*D1
  1

  0
LINE
  5
2D7F
330
18F3
100
AcDbEntity
  8
2
 62
     0
370
    -2
100
AcDbLine
 10
0.8235407574000177
 20
-11.875
 30
0.0
 11
0.8235407574000166
 21
-28.53636823874518
 31
0.0
  0
LINE
  5
2D80
330
18F3
100
AcDbEntity
  8
2
 62
     0
370
    -2
100
AcDbLine
 10
40.80841193400003
 20
-13.125
 30
0.0
 11
40.80841193400003
 21
-28.53636823874518
 31
0.0
  0
LINE
  5
2D81
330
18F3
100
AcDbEntity
  8
2
 62
     0
370
    -2
100
AcDbLine
 10
3.323540757400015
 20
-27.28636823874518
 30
0.0
 11
38.30841193400003
 21
-27.28636823874518
 31
0.0
  0
SOLID
  5
2D82
330
18F3
100
AcDbEntity
  8
2
 62
     0
100
AcDbTrace
 10
3.323540757400015
 20
-26.86970157207852
 30
0.0
 11
3.323540757400015
 21
-27.70303490541186
 31
0.0
 12
0.8235407574000166
 22
-27.28636823874518
 32
0.0
 13
0.8235407574000166
 23
-27.28636823874518
 33
0.0
  0
SOLID
  5
2D83
330
18F3
100
AcDbEntity
  8
2
 62
     0
100
AcDbTrace
 10
38.30841193400003
 20
-26.86970157207852
 30
0.0
 11
38.30841193400003
 21
-27.70303490541186
 31
0.0
 12
40.80841193400003
 22
-27.28636823874518
 32
0.0
 13
40.80841193400003
 23
-27.28636823874518
 33
0.0
  0
MTEXT
  5
2D84
330
18F3
100
AcDbEntity
  8
2
 62
     0
100
AcDbMText
 10
20.81597634570001
 20
-25.41136823874518
 30
0.0
 40
2.5
 41
0.0
 71
     5
 72
     1
  1
40
 73
     1
 44
1.0
1001
ACAD
1000
MTEXTBEGIN
1070
    73
1070
     1
1070
    44
1040
1.0
1070
    74
1070
     0
1000
MTEXTEND
  0
POINT
  5
2D85
330
18F3
100
AcDbEntity
  8
DEFPOINTS
 62
     0
100
AcDbPoint
 10
0.8235407574000177
 20
-11.25
 30
0.0
  0
POINT
  5
2D86
330
18F3
100
AcDbEntity
  8
DEFPOINTS
 62
     0
100
AcDbPoint
 10
40.80841193400003
 20
-12.5
 30
0.0
  0
POINT
  5
2D87
330
18F3
100
AcDbEntity
  8
DEFPOINTS
 62
     0
100
AcDbPoint
 10
40.80841193400003
 20
-27.28636823874518
 30
0.0
  0
ENDBLK
  5
18FE
330
18F3
100
AcDbEntity
  8
0
100
AcDbBlockEnd
  0
BLOCK
  5
1909
330
18FF
100
AcDbEntity
  8
0
100
AcDbBlockBegin
  2
*D2
 70
     1
 10
0.0
 20
0.0
 30
0.0
  3
*D2
  1

  0
LINE
  5
2D6D
330
18FF
100
AcDbEntity
  8
SK2
 62
     0
370
    -2
100
AcDbLine
 10
-24.19158806599998
 20
-0.6249999999999828
 30
0.0
 11
-24.19158806599998
 21
-38.41319844240121
 31
0.0
  0
LINE
  5
2D6E
330
18FF
100
AcDbEntity
  8
SK2
 62
     0
370
    -2
100
AcDbLine
 10
40.80841193400003
 20
-0.6249999999999908
 30
0.0
 11
40.80841193400003
 21
-38.41319844240121
 31
0.0
  0
LINE
  5
2D6F
330
18FF
100
AcDbEntity
  8
SK2
 62
     0
370
    -2
100
AcDbLine
 10
-21.69158806599998
 20
-37.16319844240121
 30
0.0
 11
38.30841193400003
 21
-37.16319844240121
 31
0.0
  0
SOLID
  5
2D70
330
18FF
100
AcDbEntity
  8
SK2
 62
     0
100
AcDbTrace
 10
-21.69158806599998
 20
-36.74653177573453
 30
0.0
 11
-21.69158806599998
 21
-37.57986510906786
 31
0.0
 12
-24.19158806599998
 22
-37.16319844240121
 32
0.0
 13
-24.19158806599998
 23
-37.16319844240121
 33
0.0
  0
SOLID
  5
2D71
330
18FF
100
AcDbEntity
  8
SK2
 62
     0
100
AcDbTrace
 10
38.30841193400003
 20
-36.74653177573453
 30
0.0
 11
38.30841193400003
 21
-37.57986510906786
 31
0.0
 12
40.80841193400003
 22
-37.16319844240121
 32
0.0
 13
40.80841193400003
 23
-37.16319844240121
 33
0.0
  0
MTEXT
  5
2D72
330
18FF
100
AcDbEntity
  8
SK2
 62
     0
100
AcDbMText
 10
8.308411934000014
 20
-35.28819844240121
 30
0.0
 40
2.5
 41
0.0
 71
     5
 72
     1
  1
65
 73
     1
 44
1.0
1001
ACAD
1000
MTEXTBEGIN
1070
    73
1070
     1
1070
    44
1040
1.0
1070
    74
1070
     0
1000
MTEXTEND
  0
POINT
  5
2D73
330
18FF
100
AcDbEntity
  8
DEFPOINTS
 62
     0
100
AcDbPoint
 10
-24.19158806599998
 20
0.0000000000000172
 30
0.0
  0
POINT
  5
2D74
330
18FF
100
AcDbEntity
  8
DEFPOINTS
 62
     0
100
AcDbPoint
 10
40.80841193400003
 20
0.0000000000000092
 30
0.0
  0
POINT
  5
2D75
330
18FF
100
AcDbEntity
  8
DEFPOINTS
 62
     0
100
AcDbPoint
 10
40.80841193400003
 20
-37.16319844240121
 30
0.0
  0
ENDBLK
  5
190A
330
18FF
100
AcDbEntity
  8
0
100
AcDbBlockEnd
  0
BLOCK
  5
1915
330
190B
100
AcDbEntity
  8
0
100
AcDbBlockBegin
  2
*D3
 70
     1
 10
0.0
 20
0.0
 30
0.0
  3
*D3
  1

  0
LINE
  5
2D64
330
190B
100
AcDbEntity
  8
SK2
 62
     0
370
    -2
100
AcDbLine
 10
40.80841193400003
 20
-8.967478530667056
 30
0.0
 11
40.80841193400003
 21
-48.45180114576502
 31
0.0
  0
LINE
  5
2D65
330
190B
100
AcDbEntity
  8
SK2
 62
     0
370
    -2
100
AcDbLine
 10
-56.19158806599998
 20
-15.22529349721133
 30
0.0
 11
-56.19158806599998
 21
-48.45180114576502
 31
0.0
  0
LINE
  5
2D66
330
190B
100
AcDbEntity
  8
SK2
 62
     0
370
    -2
100
AcDbLine
 10
38.30841193400003
 20
-47.20180114576502
 30
0.0
 11
-53.69158806599998
 21
-47.20180114576502
 31
0.0
  0
SOLID
  5
2D67
330
190B
100
AcDbEntity
  8
SK2
 62
     0
100
AcDbTrace
 10
38.30841193400003
 20
-46.78513447909836
 30
0.0
 11
38.30841193400003
 21
-47.61846781243169
 31
0.0
 12
40.80841193400003
 22
-47.20180114576502
 32
0.0
 13
40.80841193400003
 23
-47.20180114576502
 33
0.0
  0
SOLID
  5
2D68
330
190B
100
AcDbEntity
  8
SK2
 62
     0
100
AcDbTrace
 10
-53.69158806599998
 20
-46.78513447909836
 30
0.0
 11
-53.69158806599998
 21
-47.61846781243169
 31
0.0
 12
-56.19158806599998
 22
-47.20180114576502
 32
0.0
 13
-56.19158806599998
 23
-47.20180114576502
 33
0.0
  0
MTEXT
  5
2D69
330
190B
100
AcDbEntity
  8
SK2
 62
     0
100
AcDbMText
 10
-4.578496383869983
 20
-45.32680114576502
 30
0.0
 40
2.5
 41
0.0
 71
     5
 72
     1
  1
97
 73
     1
 44
1.0
1001
ACAD
1000
MTEXTBEGIN
1070
    73
1070
     1
1070
    44
1040
1.0
1070
    74
1070
     0
1000
MTEXTEND
  0
POINT
  5
2D6A
330
190B
100
AcDbEntity
  8
DEFPOINTS
 62
     0
100
AcDbPoint
 10
40.80841193400003
 20
-8.342478530667056
 30
0.0
  0
POINT
  5
2D6B
330
190B
100
AcDbEntity
  8
DEFPOINTS
 62
     0
100
AcDbPoint
 10
-56.19158806599998
 20
-14.60029349721133
 30
0.0
  0
POINT
  5
2D6C
330
190B
100
AcDbEntity
  8
DEFPOINTS
 62
     0
100
AcDbPoint
 10
-56.19158806599998
 20
-47.20180114576502
 30
0.0
  0
ENDBLK
  5
1916
330
190B
100
AcDbEntity
  8
0
100
AcDbBlockEnd
  0
BLOCK
  5
1921
330
1917
100
AcDbEntity
  8
0
100
AcDbBlockBegin
  2
*D4
 70
     1
 10
0.0
 20
0.0
 30
0.0
  3
*D4
  1

  0
LINE
  5
2D76
330
1917
100
AcDbEntity
  8
2
 62
     0
370
    -2
100
AcDbLine
 10
41.43341193400003
 20
12.49999999999999
 30
0.0
 11
57.55851256368114
 21
12.49999999999999
 31
0.0
  0
LINE
  5
2D77
330
1917
100
AcDbEntity
  8
2
 62
     0
370
    -2
100
AcDbLine
 10
41.43341193400003
 20
-12.5
 30
0.0
 11
57.55851256368114
 21
-12.5
 31
0.0
  0
LINE
  5
2D78
330
1917
100
AcDbEntity
  8
2
 62
     0
370
    -2
100
AcDbLine
 10
56.30851256368114
 20
9.999999999999987
 30
0.0
 11
56.30851256368114
 21
-10.0
 31
0.0
  0
SOLID
  5
2D79
330
1917
100
AcDbEntity
  8
2
 62
     0
100
AcDbTrace
 10
55.89184589701448
 20
9.999999999999987
 30
0.0
 11
56.72517923034781
 21
9.999999999999987
 31
0.0
 12
56.30851256368114
 22
12.49999999999999
 32
0.0
 13
56.30851256368114
 23
12.49999999999999
 33
0.0
  0
SOLID
  5
2D7A
330
1917
100
AcDbEntity
  8
2
 62
     0
100
AcDbTrace
 10
55.89184589701448
 20
-10.0
 30
0.0
 11
56.72517923034781
 21
-10.0
 31
0.0
 12
56.30851256368114
 22
-12.5
 32
0.0
 13
56.30851256368114
 23
-12.5
 33
0.0
  0
MTEXT
  5
2D7B
330
1917
100
AcDbEntity
  8
2
 62
     0
100
AcDbMText
 10
54.43351256368114
 20
-0.643571343993933
 30
0.0
 40
2.5
 41
0.0
 71
     5
 72
     1
  1
%%c25
 11
0.0000000000000001
 21
1.0
 31
0.0
 73
     1
 44
1.0
1001
ACAD
1000
MTEXTBEGIN
1070
    73
1070
     1
1070
    44
1040
1.0
1070
    74
1070
     0
1000
MTEXTEND
  0
POINT
  5
2D7C
330
1917
100
AcDbEntity
  8
DEFPOINTS
 62
     0
100
AcDbPoint
 10
40.80841193400003
 20
12.49999999999999
 30
0.0
  0
POINT
  5
2D7D
330
1917
100
AcDbEntity
  8
DEFPOINTS
 62
     0
100
AcDbPoint
 10
40.80841193400003
 20
-12.5
 30
0.0
  0
POINT
  5
2D7E
330
1917
100
AcDbEntity
  8
DEFPOINTS
 62
     0
100
AcDbPoint
 10
56.30851256368114
 20
-12.5
 30
0.0
  0
ENDBLK
  5
1922
330
1917
100
AcDbEntity
  8
0
100
AcDbBlockEnd
  0
BLOCK
  5
192D
330
1923
100
AcDbEntity
  8
0
100
AcDbBlockBegin
  2
*D5
 70
     1
 10
0.0
 20
0.0
 30
0.0
  3
*D5
  1

  0
LINE
  5
2D88
330
1923
100
AcDbEntity
  8
SK2
 62
     0
370
    -2
100
AcDbLine
 10
-55.61658806599997
 20
-12.49999999999999
 30
0.0
 11
-72.38984749996287
 21
-12.49999999999998
 31
0.0
  0
LINE
  5
2D89
330
1923
100
AcDbEntity
  8
SK2
 62
     0
370
    -2
100
AcDbLine
 10
-55.34268150349998
 20
12.5
 30
0.0
 11
-72.38984749996287
 21
12.5
 31
0.0
  0
LINE
  5
2D8A
330
1923
100
AcDbEntity
  8
SK2
 62
     0
370
    -2
100
AcDbLine
 10
-71.13984749996287
 20
-9.999999999999987
 30
0.0
 11
-71.13984749996287
 21
10.0
 31
0.0
  0
SOLID
  5
2D8B
330
1923
100
AcDbEntity
  8
SK2
 62
     0
100
AcDbTrace
 10
-71.55651416662954
 20
-9.999999999999987
 30
0.0
 11
-70.72318083329618
 21
-9.999999999999987
 31
0.0
 12
-71.13984749996287
 22
-12.49999999999998
 32
0.0
 13
-71.13984749996287
 23
-12.49999999999998
 33
0.0
  0
SOLID
  5
2D8C
330
1923
100
AcDbEntity
  8
SK2
 62
     0
100
AcDbTrace
 10
-71.55651416662954
 20
10.0
 30
0.0
 11
-70.72318083329618
 21
10.0
 31
0.0
 12
-71.13984749996287
 22
12.5
 32
0.0
 13
-71.13984749996287
 23
12.5
 33
0.0
  0
MTEXT
  5
2D8D
330
1923
100
AcDbEntity
  8
SK2
 62
     0
100
AcDbMText
 10
-73.01484749996287
 20
-0.8944266240999978
 30
0.0
 40
2.5
 41
0.0
 71
     5
 72
     1
  1
%%c25
 11
0.0000000000000001
 21
1.0
 31
0.0
 73
     1
 44
1.0
1001
ACAD
1000
MTEXTBEGIN
1070
    73
1070
     1
1070
    44
1040
1.0
1070
    74
1070
     0
1000
MTEXTEND
  0
POINT
  5
2D8E
330
1923
100
AcDbEntity
  8
DEFPOINTS
 62
     0
100
AcDbPoint
 10
-54.99158806599997
 20
-12.49999999999999
 30
0.0
  0
POINT
  5
2D8F
330
1923
100
AcDbEntity
  8
DEFPOINTS
 62
     0
100
AcDbPoint
 10
-54.71768150349998
 20
12.5
 30
0.0
  0
POINT
  5
2D90
330
1923
100
AcDbEntity
  8
DEFPOINTS
 62
     0
100
AcDbPoint
 10
-71.13984749996287
 20
12.5
 30
0.0
  0
ENDBLK
  5
192E
330
1923
100
AcDbEntity
  8
0
100
AcDbBlockEnd
  0
ENDSEC
  0
SECTION
  2
ENTITIES
  0
DIMENSION
  5
8A
330
1E
100
AcDbEntity
  8
SK2
100
AcDbDimension
  2
*D3
 10
-56.19158806599998
 20
-47.20180114576502
 30
0.0
 11
-4.578496383869983
 21
-47.20180114576502
 31
0.0
 70
   160
 71
     5
 42
97.0
  3
ISO-25
100
AcDbAlignedDimension
 13
40.80841193400003
 23
-8.342478530667056
 33
0.0
 14
-56.19158806599998
 24
-14.60029349721133
 34
0.0
 50
180.0
100
AcDbRotatedDimension
  0
DIMENSION
  5
8B
330
1E
100
AcDbEntity
  8
2
100
AcDbDimension
  2
*D4
 10
56.30851256368114
 20
-12.5
 30
0.0
 11
56.30851256368114
 21
-0.6435713439939335
 31
0.0
 70
   160
  1
%%c<>
 71
     5
 42
25.0
  3
ISO-25
100
AcDbAlignedDimension
 13
40.80841193400003
 23
12.49999999999999
 33
0.0
 14
40.80841193400003
 24
-12.5
 34
0.0
 50
270.0
100
AcDbRotatedDimension
  0
DIMENSION
  5
8C
330
1E
100
AcDbEntity
  8
SK2
100
AcDbDimension
  2
*D5
 10
-71.13984749996287
 20
12.5
 30
0.0
 11
-71.13984749996287
 21
-0.8944266240999978
 31
0.0
 70
   160
  1
%%c<>
 71
     5
 42
25.0
  3
ISO-25
100
AcDbAlignedDimension
 13
-54.99158806599997
 23
-12.49999999999999
 33
0.0
 14
-54.71768150349998
 24
12.5
 34
0.0
 50
89.99999999999998
100
AcDbRotatedDimension
  0
LINE
  5
8D
330
1E
100
AcDbEntity
  8
1
100
AcDbLine
 10
40.108411934
 20
-1.951536433499994
 30
0.0
 11
40.108411934
 21
2.800873370199983
 31
0.0
  0
LINE
  5
8E
330
1E
100
AcDbEntity
  8
1
100
AcDbLine
 10
40.108411934
 20
6.241995805999981
 30
0.0
 11
40.108411934
 21
5.824865457099994
 31
0.0
  0
LINE
  5
8F
330
1E
100
AcDbEntity
  8
1
100
AcDbLine
 10
40.108411934
 20
-6.455492415500004
 30
0.0
 11
40.108411934
 21
-8.625141624499995
 31
0.0
  0
LINE
  5
90
330
1E
100
AcDbEntity
  8
1
100
AcDbLine
 10
40.19211817180001
 20
-6.732419983000004
 30
0.0
 11
40.77869133940001
 21
-4.551719351600005
 31
0.0
  0
LINE
  5
92
330
1E
100
AcDbEntity
  8
1
100
AcDbLine
 10
40.19211817180001
 20
-1.775930017099993
 30
0.0
 11
40.77869133940001
 21
-3.956630648399993
 31
0.0
  0
LINE
  5
94
330
1E
100
AcDbEntity
  8
1
100
AcDbLine
 10
34.44885689120002
 20
-3.221050368899994
 30
0.0
 11
34.44885689120002
 21
5.508350000000002
 31
0.0
  0
LINE
  5
95
330
1E
100
AcDbEntity
  8
1
100
AcDbLine
 10
33.82271193400001
 20
-5.539093185199992
 30
0.0
 11
33.82271193400001
 21
-11.2491991441
 31
0.0
  0
LINE
  5
96
330
1E
100
AcDbEntity
  8
1
100
AcDbLine
 10
0.0717866608000274
 20
-11.77638388529999
 30
0.0
 11
-0.0000000000000015
 21
-11.9736161147
 31
0.0
  0
LINE
  5
97
330
1E
100
AcDbEntity
  8
SK1
100
AcDbLine
 10
-0.7517540965999947
 20
12.5
 30
0.0
 11
-54.99158806599997
 21
12.5
 31
0.0
  0
LINE
  5
98
330
1E
100
AcDbEntity
  8
1
100
AcDbLine
 10
24.77658754760001
 20
11.24999999999999
 30
0.0
 11
0.8235407574000204
 21
11.25
 31
0.0
  0
LINE
  5
99
330
1E
100
AcDbEntity
  8
1
100
AcDbLine
 10
33.44401381550002
 20
11.24822208169999
 30
0.0
 11
25.33146496150002
 21
11.24822208169999
 31
0.0
  0
LINE
  5
9A
330
1E
100
AcDbEntity
  8
1
100
AcDbLine
 10
33.91500740350002
 20
11.24288663999999
 30
0.0
 11
33.70104421230001
 21
11.24288663999999
 31
0.0
  0
LINE
  5
9B
330
1E
100
AcDbEntity
  8
1
100
AcDbLine
 10
0.0717866608000303
 20
11.77638388529999
 30
0.0
 11
0.0000000000000015
 21
11.9736161147
 31
0.0
  0
LINE
  5
9C
330
1E
100
AcDbEntity
  8
1
100
AcDbLine
 10
0.8235407574000177
 20
-11.25
 30
0.0
 11
0.8235407574000204
 21
11.25
 31
0.0
  0
LINE
  5
9D
330
1E
100
AcDbEntity
  8
1
100
AcDbLine
 10
0.0717866608000274
 20
-11.77638388529999
 30
0.0
 11
0.0717866608000303
 21
11.77638388529999
 31
0.0
  0
LINE
  5
9E
330
1E
100
AcDbEntity
  8
1
100
AcDbLine
 10
0.0000000000000015
 20
11.9736161147
 30
0.0
 11
-0.0000000000000015
 21
-11.9736161147
 31
0.0
  0
LINE
  5
9F
330
1E
100
AcDbEntity
  8
SK1
100
AcDbLine
 10
-0.7517540965999947
 20
12.5
 30
0.0
 11
-0.7517540965999979
 21
-12.5
 31
0.0
  0
LINE
  5
A0
330
1E
100
AcDbEntity
  8
SK1
100
AcDbLine
 10
-18.19158806599998
 20
6.782329983100012
 30
0.0
 11
-30.19158806599998
 21
6.782329983100012
 31
0.0
  0
LINE
  5
A1
330
1E
100
AcDbEntity
  8
SK1
100
AcDbLine
 10
-39.19158806599997
 20
6.782329983100012
 30
0.0
 11
-54.99158806599997
 21
6.782329983100017
 31
0.0
  0
LINE
  5
A2
330
1E
100
AcDbEntity
  8
1
100
AcDbLine
 10
36.32271193400001
 20
5.508350000000002
 30
0.0
 11
33.82271193400001
 21
5.508350000000002
 31
0.0
  0
LINE
  5
A3
330
1E
100
AcDbEntity
  8
4
100
AcDbLine
 10
45.56867558452802
 20
0.0000000000000064
 30
0.0
 11
-0.0989665902594936
 21
0.0
 31
0.0
  0
LINE
  5
A4
330
1E
100
AcDbEntity
  8
1
100
AcDbLine
 10
34.44885689120002
 20
-3.221050368899994
 30
0.0
 11
34.38076041050001
 21
-3.221050368899994
 31
0.0
  0
LINE
  5
A5
330
1E
100
AcDbEntity
  8
1
100
AcDbLine
 10
34.03128592340002
 20
-5.275033158499991
 30
0.0
 11
33.70104421230001
 21
-5.275033158499991
 31
0.0
  0
LINE
  5
A6
330
1E
100
AcDbEntity
  8
1
100
AcDbLine
 10
33.44401381550002
 20
-5.450905960099992
 30
0.0
 11
25.3314649614
 21
-5.450905960099992
 31
0.0
  0
LINE
  5
A7
330
1E
100
AcDbEntity
  8
SK1
100
AcDbLine
 10
-18.19158806599998
 20
-6.782329983099995
 30
0.0
 11
-30.19158806599998
 21
-6.782329983099995
 31
0.0
  0
LINE
  5
A8
330
1E
100
AcDbEntity
  8
SK1
100
AcDbLine
 10
-39.19158806599997
 20
-6.782329983099995
 30
0.0
 11
-54.99158806599997
 21
-6.782329983099992
 31
0.0
  0
LINE
  5
A9
330
1E
100
AcDbEntity
  8
SK1
100
AcDbLine
 10
-18.19158806599998
 20
6.782329983100012
 30
0.0
 11
-18.19158806599998
 21
-6.782329983099995
 31
0.0
  0
LINE
  5
AA
330
1E
100
AcDbEntity
  8
1
100
AcDbLine
 10
34.44885689120002
 20
-11.2491991441
 30
0.0
 11
33.82271193400001
 21
-11.2491991441
 31
0.0
  0
LINE
  5
AB
330
1E
100
AcDbEntity
  8
1
100
AcDbLine
 10
32.31176355410001
 20
-11.25
 30
0.0
 11
0.8235407574000177
 21
-11.25
 31
0.0
  0
LINE
  5
AC
330
1E
100
AcDbEntity
  8
SK1
100
AcDbLine
 10
-0.7517540965999979
 20
-12.5
 30
0.0
 11
-54.99158806599997
 21
-12.49999999999999
 31
0.0
  0
LINE
  5
AD
330
1E
100
AcDbEntity
  8
SK1
100
AcDbLine
 10
-30.19158806599998
 20
6.782329983100012
 30
0.0
 11
-30.19158806599998
 21
-6.782329983099995
 31
0.0
  0
LINE
  5
AE
330
1E
100
AcDbEntity
  8
SK1
100
AcDbLine
 10
-39.19158806599997
 20
6.782329983100012
 30
0.0
 11
-39.19158806599997
 21
-6.782329983099995
 31
0.0
  0
LINE
  5
AF
330
1E
100
AcDbEntity
  8
SK1
100
AcDbLine
 10
-54.99158806599997
 20
12.5
 30
0.0
 11
-56.19158806599998
 21
11.3
 31
0.0
  0
LINE
  5
B0
330
1E
100
AcDbEntity
  8
SK1
100
AcDbLine
 10
-54.99158806599997
 20
-12.49999999999999
 30
0.0
 11
-56.19158806599998
 21
-11.29999999999999
 31
0.0
  0
LINE
  5
B1
330
1E
100
AcDbEntity
  8
SK1
100
AcDbLine
 10
-54.99158806599997
 20
6.782329983100017
 30
0.0
 11
-54.99158806599997
 21
12.5
 31
0.0
  0
LINE
  5
B2
330
1E
100
AcDbEntity
  8
SK1
100
AcDbLine
 10
-54.99158806599997
 20
-6.782329983099992
 30
0.0
 11
-54.99158806599997
 21
-12.49999999999999
 31
0.0
  0
LINE
  5
B3
330
1E
100
AcDbEntity
  8
SK1
100
AcDbLine
 10
-56.19158806599998
 20
11.2999979071
 30
0.0
 11
-56.19158806599998
 21
-11.29999790719999
 31
0.0
  0
CIRCLE
  5
B5
330
1E
100
AcDbEntity
  8
1
100
AcDbCircle
 10
36.822711934
 20
8.508350000000001
 30
0.0
 40
2.45
  0
ARC
  5
B6
330
1E
100
AcDbEntity
  8
1
100
AcDbCircle
 10
36.822711934
 20
8.508350000000001
 30
0.0
 40
3.991597085
100
AcDbArc
 50
294.5210038631998
 51
228.7289707691999
  0
ARC
  5
B8
330
1E
100
AcDbEntity
  8
1
100
AcDbCircle
 10
33.82271193400001
 20
15.50834999999999
 30
0.0
 40
10.0
100
AcDbArc
 50
205.2288644582
 51
270.0
  0
ARC
  5
B9
330
1E
100
AcDbEntity
  8
1
100
AcDbCircle
 10
-0.7517540965999947
 20
11.69999999999999
 30
0.0
 40
0.8
100
AcDbArc
 50
20.0000000001
 51
45.55634280407605
  0
ARC
  5
BA
330
1E
100
AcDbEntity
  8
SK1
100
AcDbCircle
 10
-0.7517540965999976
 20
-11.69999999999999
 30
0.0
 40
0.8
100
AcDbArc
 50
270.0
 51
314.443657195924
  0
ARC
  5
BB
330
1E
100
AcDbEntity
  8
1
100
AcDbCircle
 10
0.8235407574000205
 20
12.05
 30
0.0
 40
0.8
100
AcDbArc
 50
200.0
 51
270.0
  0
ARC
  5
BC
330
1E
100
AcDbEntity
  8
1
100
AcDbCircle
 10
0.8235407574000175
 20
-12.05
 30
0.0
 40
0.8
100
AcDbArc
 50
90.0
 51
160.0
  0
ARC
  5
BD
330
1E
100
AcDbEntity
  8
1
100
AcDbCircle
 10
36.822711934
 20
8.508350000000001
 30
0.0
 40
4.349999999999996
100
AcDbArc
 50
140.9605264703
 51
214.8026314376997
  0
ARC
  5
BE
330
1E
100
AcDbEntity
  8
1
100
AcDbCircle
 10
36.822711934
 20
8.508350000000001
 30
0.0
 40
4.349999999999996
100
AcDbArc
 50
214.8046510768998
 51
223.3958817486999
  0
ARC
  5
BF
330
1E
100
AcDbEntity
  8
1
100
AcDbCircle
 10
36.32271193400001
 20
1.508350000000004
 30
0.0
 40
4.0
100
AcDbArc
 50
18.8396908974
 51
90.0
  0
LWPOLYLINE
  5
282
330
1E
100
AcDbEntity
  8
1
100
AcDbPolyline
 90
       29
 70
     0
 43
0.0
 10
40.8138110361
 20
-4.254173784999995
 10
40.81408792679732
 20
-4.264693617663133
 10
40.81425396136802
 20
-4.275216075224964
 10
40.81430901799352
 20
-4.285740008864805
 10
40.81425301358801
 20
-4.296264253486075
 10
40.8140860180547
 20
-4.306787579704772
 10
40.81380813906469
 20
-4.317308742266574
 10
40.81341948428881
 20
-4.327826495917153
 10
40.812920161398
 20
-4.338339595402192
 10
40.81231028522688
 20
-4.348846799939263
 10
40.81159008386761
 20
-4.359346939446933
 10
40.81075987580971
 20
-4.369838900274253
 10
40.80981998206131
 20
-4.380321570342593
 10
40.8087707236305
 20
-4.390793837573292
 10
40.80761242164427
 20
-4.401254589923424
 10
40.8063454458464
 20
-4.411702729976584
 10
40.8049294144738
 20
-4.422435113636771
 10
40.80339948946891
 20
-4.433151884619663
 10
40.80175622815052
 20
-4.443851895354311
 10
40.80000018783779
 20
-4.454533998269795
 10
40.79813194344718
 20
-4.465197052139624
 10
40.79609561552127
 20
-4.476135298499173
 10
40.79394231579612
 20
-4.487051094042643
 10
40.79167285949462
 20
-4.497943268656253
 10
40.78928806183991
 20
-4.508810652226193
 10
40.78671961413848
 20
-4.519944718933783
 10
40.78403136889202
 20
-4.531050203718033
 10
40.78122440150342
 20
-4.542125949949802
 10
40.77869388724089
 20
-4.55170968152492
  0
LWPOLYLINE
  5
2A1
330
1E
100
AcDbEntity
  8
1
100
AcDbPolyline
 90
       22
 70
     0
 43
0.0
 10
40.19211827440001
 20
-6.732419392100002
 10
40.18947809052092
 20
-6.742027205020842
 10
40.1867344848901
 20
-6.751606370429402
 10
40.18382259731202
 20
-6.761372593497521
 10
40.18080466105871
 20
-6.771106786303922
 10
40.17768181132479
 20
-6.780807990167695
 10
40.17438237717962
 20
-6.790689777677544
 10
40.17090061799451
 20
-6.800748890740785
 10
40.16730843176602
 20
-6.810769130075713
 10
40.16352726403842
 20
-6.820961423588252
 10
40.15963382090281
 20
-6.831111212619042
 10
40.15554500698803
 20
-6.841427846844593
 10
40.15125539492282
 20
-6.851907780367563
 10
40.14684892370792
 20
-6.862339187068505
 10
40.14223568848191
 20
-6.872928389279074
 10
40.13741052784161
 20
-6.883671516445666
 10
40.13236842740961
 20
-6.894564595404112
 10
40.1271044804301
 20
-6.905603500587502
 10
40.12161389392871
 20
-6.916783944757233
 10
40.1158919897067
 20
-6.928101508742922
 10
40.11003977639702
 20
-6.939351724415544
 10
40.10845508087022
 20
-6.942344863083615
  0
LWPOLYLINE
  5
2B9
330
1E
100
AcDbEntity
  8
1
100
AcDbPolyline
 90
       91
 70
     0
 43
0.0
 10
39.7041550514
 20
-5.603685837000003
 10
39.72648164318542
 20
-5.621763555480991
 10
39.74855626201721
 20
-5.640149762126072
 10
39.77036668092122
 20
-5.658849023309512
 10
39.79092778205652
 20
-5.676994637869454
 10
39.81122546332322
 20
-5.695434142376985
 10
39.8312482634062
 20
-5.714171964531511
 10
39.85005064972471
 20
-5.732298715428393
 10
39.868581094961
 20
-5.750703394925852
 10
39.88682793450539
 20
-5.769389447355445
 10
39.90388830029151
 20
-5.787404772005115
 10
39.91979428303012
 20
-5.804711345490812
 10
39.9345784381526
 20
-5.821272293118743
 10
39.94912233332231
 20
-5.838044579330302
 10
39.96258335411281
 20
-5.854024744182972
 10
39.9758159665037
 20
-5.870194610248172
 10
39.98800690915089
 20
-5.885526973046642
 10
39.99998330677289
 20
-5.901027628338344
 10
40.01173812170422
 20
-5.916697064944763
 10
40.02250291759827
 20
-5.931474404976762
 10
40.03306237054212
 20
-5.946399248944882
 10
40.0426783440869
 20
-5.960390135691302
 10
40.05210682289841
 20
-5.974508020453915
 10
40.06134265014431
 20
-5.988752677479162
 10
40.07038063136731
 20
-6.003123823177692
 10
40.07854310069832
 20
-6.016501230959532
 10
40.08652805920372
 20
-6.029985305258052
 10
40.09433118690862
 20
-6.043575462394322
 10
40.10132058670079
 20
-6.056125683575085
 10
40.1081500620432
 20
-6.068763640433882
 10
40.11481614035832
 20
-6.081488506986732
 10
40.12131534892352
 20
-6.094299456244532
 10
40.12764419555299
 20
-6.107195526389513
 10
40.13379914918782
 20
-6.120175486320116
 10
40.13924068752722
 20
-6.132047183948402
 10
40.14453293421103
 20
-6.143986218895492
 10
40.14967324118321
 20
-6.155991550231152
 10
40.15465898176318
 20
-6.168061901691843
 10
40.15948753265059
 20
-6.180195959803923
 10
40.16415627054472
 20
-6.192392411093722
 10
40.16821933792451
 20
-6.203421443692522
 10
40.17214900498932
 20
-6.214498740504255
 10
40.17594345426052
 20
-6.225623063261572
 10
40.17960086827521
 20
-6.236793173650712
 10
40.18311943007661
 20
-6.248007832543182
 10
40.18649737862921
 20
-6.259265710805001
 10
40.18973305875197
 20
-6.270565308927342
 10
40.19282482705079
 20
-6.281905108430752
 10
40.1957710401315
 20
-6.293283590835802
 10
40.1985700679254
 20
-6.304699224097433
 10
40.20122042866711
 20
-6.316150325196383
 10
40.20372073322429
 20
-6.327635116812023
 10
40.20581613121981
 20
-6.337870665894802
 10
40.20779089519442
 20
-6.348130179927042
 10
40.20964408034461
 20
-6.358412389880535
 10
40.21137489574111
 20
-6.368715924875532
 10
40.21298259991629
 20
-6.379039381292945
 10
40.21446645142611
 20
-6.389381355498222
 10
40.2158257088261
 20
-6.399740443856852
 10
40.21705966001561
 20
-6.410115230903624
 10
40.21816777256598
 20
-6.420504228733432
 10
40.2191495820251
 20
-6.430905922034463
 10
40.2200046240686
 20
-6.441318795443462
 10
40.2207324343719
 20
-6.451741333597195
 10
40.221332578019
 20
-6.462172015374645
 10
40.22180481643681
 20
-6.472609281213562
 10
40.2221489914586
 20
-6.483051555809212
 10
40.22236494515991
 20
-6.493497263809454
 10
40.22245251961622
 20
-6.503944829862133
 10
40.22241158571772
 20
-6.514392678966485
 10
40.22224221509627
 20
-6.524839238569781
 10
40.22194456479031
 20
-6.535282937160835
 10
40.22151879215228
 20
-6.545722203232282
 10
40.2209650545346
 20
-6.556155465276732
 10
40.2202835362307
 20
-6.566581155669741
 10
40.21947461745312
 20
-6.576997735023882
 10
40.2185387649924
 20
-6.587403676429872
 10
40.21747644602162
 20
-6.597797453033595
 10
40.21628812771412
 20
-6.608177537980892
 10
40.21497429787421
 20
-6.618542417336542
 10
40.21353560838512
 20
-6.628890679907125
 10
40.21197278946752
 20
-6.639220963552534
 10
40.21028657182712
 20
-6.649531906436224
 10
40.20847768616972
 20
-6.659822146721642
 10
40.20654688094341
 20
-6.670090319983612
 10
40.20449507470361
 20
-6.680335036977973
 10
40.20232328071696
 20
-6.690554894642082
 10
40.19973785253712
 20
-6.702020772682875
 10
40.19700329274772
 20
-6.713451414261423
 10
40.19412105714731
 20
-6.724844940296735
 10
40.1921208718836
 20
-6.732409735336641
  0
LWPOLYLINE
  5
316
330
1E
100
AcDbEntity
  8
1
100
AcDbPolyline
 90
       56
 70
     0
 43
0.0
 10
33.5071977121
 20
-5.333983750499999
 10
33.53808477633432
 20
-5.356681567883874
 10
33.56928533345662
 20
-5.378948213401832
 10
33.6036619689497
 20
-5.402756444783221
 10
33.63837497917732
 20
-5.426070824368791
 10
33.67340780776792
 20
-5.448901669343999
 10
33.70874470535491
 20
-5.47125904010709
 10
33.74437087806802
 20
-5.493152554682601
 10
33.78327607575691
 20
-5.516357968740323
 10
33.82248778133151
 20
-5.539041589470913
 10
33.86199041061171
 20
-5.561214632400973
 10
33.90176941825421
 20
-5.582887900259971
 10
33.94490177521292
 20
-5.605681378050432
 10
33.98832283508932
 20
-5.627919885435273
 10
34.03201770522572
 20
-5.649615452766842
 10
34.07597233724312
 20
-5.670779694274552
 10
34.12334006437392
 20
-5.692878623656422
 10
34.17097587675741
 20
-5.714393461597882
 10
34.21886576749471
 20
-5.735336678120384
 10
34.27021343486392
 20
-5.757059585975272
 10
34.32182017087741
 20
-5.778159626138593
 10
34.37367197259472
 20
-5.798650018867302
 10
34.42901836825832
 20
-5.819767168948874
 10
34.48461198135392
 20
-5.84022464749782
 10
34.54043902603891
 20
-5.860036145799552
 10
34.59979022397182
 20
-5.880323289500902
 10
34.65937449524012
 20
-5.899915296231498
 10
34.71917845750741
 20
-5.918826003212692
 10
34.78252943526992
 20
-5.938062568701598
 10
34.84609749716481
 20
-5.956569094547302
 10
34.90986972241763
 20
-5.974359291589102
 10
34.97720565603771
 20
-5.992326110149312
 10
35.04474110846761
 20
-6.009527716277911
 10
35.11246361152441
 20
-6.025977445828352
 10
35.18376073824301
 20
-6.042454127372093
 10
35.25523835883601
 20
-6.058129254238852
 10
35.32688441265602
 20
-6.073015534038503
 10
35.3986875246241
 20
-6.0871248111014
 10
35.47406653149653
 20
-6.10108464030749
 10
35.54959430881122
 20
-6.114215706878942
 10
35.62525971656302
 20
-6.126528959403202
 10
35.70450010179281
 20
-6.138538487179594
 10
35.78386775056031
 20
-6.149675926417745
 10
35.8633516360646
 20
-6.159951032137882
 10
35.94294119690042
 20
-6.169372696902182
 10
36.0226262794865
 20
-6.177949003485982
 10
36.10586719906562
 20
-6.186004770055133
 10
36.1891907565386
 20
-6.193155351818742
 10
36.27258656054542
 20
-6.199407234364472
 10
36.35604450630371
 20
-6.204766057263292
 10
36.43955473836541
 20
-6.209236616940002
 10
36.52310763257202
 20
-6.212822879341982
 10
36.60669366443951
 20
-6.215528020755423
 10
36.69030350553061
 20
-6.217354439780222
 10
36.7739281215171
 20
-6.218303741292403
 10
36.82270193400003
 20
-6.218452795593742
  0
LWPOLYLINE
  5
350
330
1E
100
AcDbEntity
  8
1
100
AcDbPolyline
 90
       22
 70
     0
 43
0.0
 10
40.10845038830002
 20
-1.565996306299991
 10
40.1144410627842
 20
-1.577429609444843
 10
40.1201957610518
 20
-1.588730371883943
 10
40.12571915017672
 20
-1.599894509382493
 10
40.13101589198021
 20
-1.610917643493273
 10
40.13609074703622
 20
-1.621795473815483
 10
40.1409485902996
 20
-1.632523861863713
 10
40.14559440083681
 20
-1.643098825479963
 10
40.15003328968109
 20
-1.653516499383604
 10
40.15435579270781
 20
-1.663982927120414
 10
40.15847729899181
 20
-1.674286545921749
 10
40.16240320807212
 20
-1.684423796542023
 10
40.16621727614277
 20
-1.69460377741339
 10
40.16984209069021
 20
-1.704612247597673
 10
40.1733568863129
 20
-1.714659883899914
 10
40.17668904917861
 20
-1.724530721959433
 10
40.179913228035
 20
-1.734437216692984
 10
40.182961594141
 20
-1.744161970748514
 10
40.18590422900131
 20
-1.753919047185633
 10
40.18867819881361
 20
-1.763489561418914
 10
40.1913490436737
 20
-1.773089012078604
 10
40.19211567681131
 20
-1.775920951164694
  0
LWPOLYLINE
  5
368
330
1E
100
AcDbEntity
  8
1
100
AcDbPolyline
 90
      123
 70
     0
 43
0.0
 10
40.77869128980002
 20
-3.956630661799993
 10
40.7838060249006
 20
-3.976391951028431
 10
40.78854210607911
 20
-3.996248463379734
 10
40.79289360654017
 20
-4.016193487569663
 10
40.7968553348338
 20
-4.036219876392022
 10
40.80042225760037
 20
-4.056320389561423
 10
40.80358972616752
 20
-4.076487663443162
 10
40.8063539003565
 20
-4.096714075160162
 10
40.8081601212732
 20
-4.111918087425784
 10
40.80973598179302
 20
-4.127147753231903
 10
40.81108044597692
 20
-4.142399605885824
 10
40.81219252624253
 20
-4.157670157515243
 10
40.8130712468291
 20
-4.172955918325451
 10
40.8137159355781
 20
-4.188253349151741
 10
40.81412624266481
 20
-4.203558858413153
 10
40.8143018338371
 20
-4.218868851996472
 10
40.81424242239431
 20
-4.234179735602031
 10
40.81394813171232
 20
-4.249487913322304
 10
40.81341929471292
 20
-4.264789788428145
 10
40.81265624600489
 20
-4.280081764184285
 10
40.81165943826301
 20
-4.295360265014353
 10
40.81042975778241
 20
-4.310621793052312
 10
40.8089681903808
 20
-4.325862868267865
 10
40.80727572443682
 20
-4.341080011580602
 10
40.8046620518809
 20
-4.361326449640703
 10
40.80164370858702
 20
-4.381516546735615
 10
40.79822446226842
 20
-4.401642587855204
 10
40.7944085941961
 20
-4.421697165870591
 10
40.7902010393394
 20
-4.441673265549423
 10
40.7856068059947
 20
-4.461563924888762
 10
40.78063141714672
 20
-4.481362644512961
 10
40.7752808200176
 20
-4.501063306372133
 10
40.76956101800951
 20
-4.520659862562513
 10
40.76347844300202
 20
-4.540146843780394
 10
40.75703977050481
 20
-4.559519109710624
 10
40.75025172062529
 20
-4.578771615578073
 10
40.74312130267061
 20
-4.597899951553742
 10
40.73565564826661
 20
-4.616899976364874
 10
40.72786191376751
 20
-4.635767663217623
 10
40.71974739140402
 20
-4.654499620319223
 10
40.71131942062842
 20
-4.673092676557363
 10
40.7025853400467
 20
-4.691543775540261
 10
40.69355248362822
 20
-4.709850455414563
 10
40.68422818384132
 20
-4.728010446700853
 10
40.67461975185621
 20
-4.746021574245143
 10
40.66473437959049
 20
-4.763882190501083
 10
40.65199911021381
 20
-4.785994074032722
 10
40.63885614161061
 20
-4.807865897181292
 10
40.62531891186222
 20
-4.829495961565712
 10
40.6114007496645
 20
-4.850882793064603
 10
40.59711458194222
 20
-4.872025484946973
 10
40.58247297253881
 20
-4.892923643233824
 10
40.56748832919788
 20
-4.913577034592705
 10
40.55217245193492
 20
-4.933986029865173
 10
40.53337252798249
 20
-4.958154990918853
 10
40.51413166502702
 20
-4.981974309528305
 10
40.49446833779891
 20
-5.005446090866495
 10
40.47440044498922
 20
-5.028572755144933
 10
40.453944851678
 20
-5.051357273839821
 10
40.42961190644439
 20
-5.077510987443563
 10
40.40479806100639
 20
-5.103208945914083
 10
40.37952687132277
 20
-5.128457086042323
 10
40.3538202285535
 20
-5.153261783378983
 10
40.32769925278522
 20
-5.177629580472915
 10
40.30118351260242
 20
-5.20156726968109
 10
40.27429189472338
 20
-5.225081730252632
 10
40.2431207555269
 20
-5.251446116081993
 10
40.21150649556742
 20
-5.277277297013832
 10
40.17947218188409
 20
-5.302585724226221
 10
40.14703980415951
 20
-5.327381804818324
 10
40.11422961445413
 20
-5.351675805394972
 10
40.08106095494262
 20
-5.375477884085011
 10
40.04755163747321
 20
-5.398797972691496
 10
40.01371869839998
 20
-5.421645857267744
 10
39.97528933499602
 20
-5.446797124758854
 10
39.93649149561282
 20
-5.471376040843124
 10
39.8973447856339
 20
-5.495395415927461
 10
39.85786766413289
 20
-5.518867698404141
 10
39.818077297819
 20
-5.541804912546683
 10
39.7779897638092
 20
-5.564218673025242
 10
39.73311783978162
 20
-5.588522571521091
 10
39.68791685647811
 20
-5.612208862337863
 10
39.642404867484
 20
-5.635291801269992
 10
39.59659851056329
 20
-5.657784960125762
 10
39.55051351334779
 20
-5.679701446081334
 10
39.49951551405639
 20
-5.703158395226394
 10
39.44821609844503
 20
-5.725948572281664
 10
39.39663217187101
 20
-5.748087157337882
 10
39.34477940856512
 20
-5.769588556155222
 10
39.28792346189302
 20
-5.792334126154532
 10
39.23078283851431
 20
-5.814354759339072
 10
39.17337407999012
 20
-5.835666557356482
 10
39.11571264009072
 20
-5.856284818132343
 10
39.05781285525971
 20
-5.876223970967662
 10
38.99483474807701
 20
-5.897074289485642
 10
38.93160871830801
 20
-5.917160218701622
 10
38.86814965042322
 20
-5.936497295675772
 10
38.80447152157449
 20
-5.955100234357982
 10
38.7356650455252
 20
-5.974329015075983
 10
38.66663489423192
 20
-5.992738677244672
 10
38.59739538274761
 20
-6.01034452191091
 10
38.52795991803471
 20
-6.027160888236752
 10
38.45834107874731
 20
-6.043201194938405
 10
38.38355945938721
 20
-6.059540361757221
 10
38.30859471730222
 20
-6.075017593900246
 10
38.23345979251103
 20
-6.089646345963753
 10
38.15816692596632
 20
-6.103439146368442
 10
38.07769350901942
 20
-6.117243166238313
 10
37.99706690968231
 20
-6.130122327764754
 10
37.9162997779653
 20
-6.142088610303195
 10
37.83540416443881
 20
-6.153153005743361
 10
37.75439157689781
 20
-6.163325554936871
 10
37.67327302502279
 20
-6.172615358300615
 10
37.58698028895761
 20
-6.181527732999891
 10
37.50059210105572
 20
-6.189461676849112
 10
37.41412026561411
 20
-6.196424979878202
 10
37.32757621385521
 20
-6.202424407753442
 10
37.24097107344462
 20
-6.207465747292353
 10
37.15431569832222
 20
-6.211553838452561
 10
37.06762074554911
 20
-6.214692592875223
 10
36.9808967587144
 20
-6.216884992328622
 10
36.89415382389192
 20
-6.218133106971392
 10
36.82272193400001
 20
-6.218452795593742
  0
LWPOLYLINE
  5
3E5
330
1E
100
AcDbEntity
  8
1
100
AcDbPolyline
 90
        2
 70
     0
 43
0.0
 10
34.45241747290002
 20
-3.221110056699981
 10
34.45602663260832
 20
-3.222862498469431
  0
LWPOLYLINE
  5
3E9
330
1E
100
AcDbEntity
  8
1
100
AcDbPolyline
 90
       42
 70
     0
 43
0.0
 10
34.45603563080001
 20
-3.222866861099991
 10
34.49337772468391
 20
-3.240698439919431
 10
34.53314090236641
 20
-3.259103051309611
 10
34.57312218996592
 20
-3.277028149440662
 10
34.61331049602731
 20
-3.294483769327333
 10
34.65594454027382
 20
-3.312410641584822
 10
34.69878603505321
 20
-3.329836081244381
 10
34.74409433362151
 20
-3.347648306525331
 10
34.78960845161012
 20
-3.364927825352732
 10
34.83531722236202
 20
-3.381685594812033
 10
34.88350954273152
 20
-3.398731057752593
 10
34.93189367678942
 20
-3.415224140040941
 10
34.98277598792542
 20
-3.431921974809843
 10
35.03384579645871
 20
-3.448037260964062
 10
35.08509234971163
 20
-3.463581230511543
 10
35.13884643946791
 20
-3.479232308598112
 10
35.1927719934326
 20
-3.494281917605923
 10
35.24685891340402
 20
-3.508740826672811
 10
35.30345920987711
 20
-3.523209579258443
 10
35.36021466123071
 20
-3.537057120828812
 10
35.41948962234762
 20
-3.550832047277443
 10
35.47891234507442
 20
-3.563954849152882
 10
35.5384731997525
 20
-3.576435685732072
 10
35.6005532476461
 20
-3.588744950826352
 10
35.66276313984551
 20
-3.600380139840245
 10
35.72509370117151
 20
-3.611350519032481
 10
35.78993994993872
 20
-3.622048427747504
 10
35.85489758559682
 20
-3.632047685378993
 10
35.91995775233443
 20
-3.641356519202663
 10
35.98752678062332
 20
-3.650288988078643
 10
36.05518788463391
 20
-3.658494864787331
 10
36.12293238255171
 20
-3.665981154747821
 10
36.19075189846142
 20
-3.672754214364974
 10
36.26106399934212
 20
-3.679023351594412
 10
36.33143921102143
 20
-3.684539095243461
 10
36.40186908242802
 20
-3.689306340376523
 10
36.4723453776765
 20
-3.693329299842913
 10
36.54286007050222
 20
-3.696611475237391
 10
36.61340522217042
 20
-3.699155727490292
 10
36.6839730270472
 20
-3.700964282199334
 10
36.75455604311231
 20
-3.702038686139981
 10
36.82270193400003
 20
-3.702380301692641
  0
LWPOLYLINE
  5
415
330
1E
100
AcDbEntity
  8
1
100
AcDbPolyline
 90
      123
 70
     0
 43
0.0
 10
40.19211827440001
 20
-1.775930607899991
 10
40.19647455869781
 20
-1.792761360423074
 10
40.20050829296489
 20
-1.809673778977984
 10
40.20421473937781
 20
-1.826662033452334
 10
40.20758922252022
 20
-1.843719655744305
 10
40.21062721862052
 20
-1.860840199805423
 10
40.21332505940272
 20
-1.878017344406964
 10
40.2156793763206
 20
-1.895244812051813
 10
40.21721769362211
 20
-1.908194633861112
 10
40.21855987263971
 20
-1.921166326607053
 10
40.2197050041765
 20
-1.934156921531203
 10
40.22065217974311
 20
-1.947163449431995
 10
40.22140053663262
 20
-1.960182934509403
 10
40.22194958551541
 20
-1.973212347149985
 10
40.22229901916818
 20
-1.986248631494053
 10
40.22244853159492
 20
-1.999288731505053
 10
40.22239786043988
 20
-2.012329590614243
 10
40.2221471193159
 20
-2.025368147667933
 10
40.22169661379303
 20
-2.038401339171532
 10
40.22104665097971
 20
-2.051426101611693
 10
40.2201975776544
 20
-2.064439379241922
 10
40.21915010189881
 20
-2.077438187053894
 10
40.2179051248454
 20
-2.090419577836093
 10
40.21646354944432
 20
-2.103380604732793
 10
40.21423729147667
 20
-2.120625244391173
 10
40.21166627124961
 20
-2.137821860909514
 10
40.20875390426031
 20
-2.154963983269884
 10
40.20550368183029
 20
-2.172045190067855
 10
40.20191975019939
 20
-2.189059493397603
 10
40.19800659899201
 20
-2.206001132644253
 10
40.19376876427052
 20
-2.222864393389181
 10
40.1892112627847
 20
-2.239644050561413
 10
40.18433941039591
 20
-2.256335183590103
 10
40.17915854616531
 20
-2.272932906575082
 10
40.17367430754029
 20
-2.289432813867855
 10
40.16789257166577
 20
-2.305830885611903
 10
40.16181922702268
 20
-2.322123126350791
 10
40.1554602988985
 20
-2.338305945322689
 10
40.14882196983331
 20
-2.354376216941609
 10
40.14191043127821
 20
-2.370330843859771
 10
40.13473189990631
 20
-2.386167006379514
 10
40.12729263983671
 20
-2.401882407098562
 10
40.11959892043111
 20
-2.417474806325663
 10
40.11165699113602
 20
-2.432942102316653
 10
40.10347302685571
 20
-2.448282709671933
 10
40.09505318505668
 20
-2.463495163779399
 10
40.0842060211159
 20
-2.482328386995693
 10
40.07301155356651
 20
-2.500957239495681
 10
40.0614813062247
 20
-2.519380164156622
 10
40.04962665270549
 20
-2.537595835719244
 10
40.0374585025605
 20
-2.555603642282314
 10
40.02498767025911
 20
-2.573403115534814
 10
40.01222466321922
 20
-2.590994106474453
 10
39.99917951462681
 20
-2.608376959261459
 10
39.98316692282642
 20
-2.628962225796712
 10
39.9667787620624
 20
-2.649249693261961
 10
39.9500307793529
 20
-2.669241152148931
 10
39.93293825805253
 20
-2.688938642002923
 10
39.91551550637172
 20
-2.708344719160872
 10
39.8947903061566
 20
-2.730620404562412
 10
39.87365553594711
 20
-2.752507893235395
 10
39.8521312147566
 20
-2.774012268217755
 10
39.83023608169112
 20
-2.795138925549963
 10
39.80798797042221
 20
-2.815893479080973
 10
39.78540376606522
 20
-2.836281674516083
 10
39.76249927553752
 20
-2.856309405143533
 10
39.73594997880672
 20
-2.878764458044993
 10
39.70902309907121
 20
-2.900765363083713
 10
39.68173864635328
 20
-2.922321029128962
 10
39.65411498382162
 20
-2.943440300844892
 10
39.62616972301361
 20
-2.964131956289993
 10
39.59791898156311
 20
-2.984404602703053
 10
39.56937827501131
 20
-3.004266756073272
 10
39.54056178517802
 20
-3.023726686920013
 10
39.50783055619339
 20
-3.045148481723555
 10
39.47478536985562
 20
-3.066082754932413
 10
39.44144316874042
 20
-3.086540488568954
 10
39.40781946406323
 20
-3.106532219741974
 10
39.37392905127202
 20
-3.126068249437471
 10
39.33978548096972
 20
-3.145158418421305
 10
39.30156698730151
 20
-3.165858467358833
 10
39.26306820475328
 20
-3.186032473219392
 10
39.22430456352762
 20
-3.205692602318154
 10
39.18529019313911
 20
-3.224850394595605
 10
39.14603852942303
 20
-3.243517035574491
 10
39.10260232791222
 20
-3.263495696645613
 10
39.05890945162222
 20
-3.282906478725953
 10
39.0149742176599
 20
-3.301762262282645
 10
38.97081005445681
 20
-3.320075365494363
 10
38.92238455586911
 20
-3.339448137737823
 10
38.87371658579461
 20
-3.358203455719392
 10
38.82482029599531
 20
-3.376355084409873
 10
38.77570873971171
 20
-3.393915969224013
 10
38.72639423506431
 20
-3.410898483853863
 10
38.67275440010411
 20
-3.428657039364513
 10
38.61890339239872
 20
-3.445764533104943
 10
38.56485394876381
 20
-3.462234255017944
 10
38.51061789648482
 20
-3.478078666336283
 10
38.45201393931342
 20
-3.494456128064263
 10
38.39321949100842
 20
-3.510135946463713
 10
38.3342467111065
 20
-3.525131118355294
 10
38.2751070515934
 20
-3.539453891855703
 10
38.21581121258412
 20
-3.553115683291613
 10
38.15211812351622
 20
-3.567032011385601
 10
38.0882690756639
 20
-3.580214223343593
 10
38.02427507903582
 20
-3.592673764778941
 10
37.96014656714581
 20
-3.604421316371403
 10
37.89160567865939
 20
-3.616178428642643
 10
37.82293431768182
 20
-3.627147812337823
 10
37.7541432679739
 20
-3.637339684371591
 10
37.68524279943432
 20
-3.646763420913383
 10
37.61624269542329
 20
-3.655427541834421
 10
37.54715233992861
 20
-3.663339807468531
 10
37.47365503542192
 20
-3.670930629370343
 10
37.4000764333949
 20
-3.677688104736313
 10
37.3264265826305
 20
-3.683618854036319
 10
37.25271522919992
 20
-3.688728659509623
 10
37.17895185036481
 20
-3.693022457700123
 10
37.10514567565053
 20
-3.696504353207393
 10
37.03130581247679
 20
-3.699177674590573
 10
36.9574412094316
 20
-3.701044978227823
 10
36.88356042044282
 20
-3.702108020053133
 10
36.82272193400001
 20
-3.702380301692641
  0
LWPOLYLINE
  5
492
330
1E
100
AcDbEntity
  8
1
100
AcDbPolyline
 90
      133
 70
     0
 43
0.0
 10
34.70394392280002
 20
-3.26826401509999
 10
34.74962019488941
 20
-3.287337779711263
 10
34.79554068009731
 20
-3.305824222446323
 10
34.84169082190832
 20
-3.323735001037883
 10
34.89386612117611
 20
-3.343211042752153
 10
34.94629460080143
 20
-3.361989343276761
 10
34.99896165387742
 20
-3.380084599195495
 10
35.05185340980502
 20
-3.397511278221671
 10
35.10495604777052
 20
-3.414283788337062
 10
35.15825692857672
 20
-3.430415119860692
 10
35.21769872837701
 20
-3.447600864575563
 10
35.27735553823211
 20
-3.464025039361643
 10
35.33721226303521
 20
-3.479702921866262
 10
35.39725604278702
 20
-3.494647748802903
 10
35.45747461854331
 20
-3.508872208046283
 10
35.51785578444469
 20
-3.522388922852242
 10
35.57838843204862
 20
-3.535209180571463
 10
35.64513728224901
 20
-3.548519024926953
 10
35.71204387928261
 20
-3.561011573917381
 10
35.77909546784022
 20
-3.572699275778651
 10
35.84628069207231
 20
-3.583592633174283
 10
35.91358839550442
 20
-3.593701871590504
 10
35.98100762685371
 20
-3.603036862820593
 10
36.0485284622165
 20
-3.611605707744622
 10
36.11614129856531
 20
-3.619415954142292
 10
36.18999446349872
 20
-3.627079766839332
 10
36.26393412583912
 20
-3.633857507130761
 10
36.3379491719036
 20
-3.639755892004981
 10
36.41202852762202
 20
-3.644781515445703
 10
36.48616157605072
 20
-3.648939437632725
 10
36.56033805310762
 20
-3.652233534785841
 10
36.63454771306493
 20
-3.654667588040043
 10
36.70878050120531
 20
-3.656244043753573
 10
36.78302654279121
 20
-3.656964090591383
 10
36.85727596969211
 20
-3.656828831480971
 10
36.93151890088261
 20
-3.655838202253042
 10
37.00574544008492
 20
-3.653990758293731
 10
37.07994568693172
 20
-3.651284955845214
 10
37.15410956930031
 20
-3.647718214181761
 10
37.22822676012182
 20
-3.643286413352313
 10
37.30228690845982
 20
-3.637985298610941
 10
37.37627935827731
 20
-3.631809659345393
 10
37.45019290088861
 20
-3.624752553518213
 10
37.51786804042602
 20
-3.617503109686951
 10
37.58545844849829
 20
-3.609500901190973
 10
37.65295444654081
 20
-3.600738262007203
 10
37.72034624235121
 20
-3.591207278613412
 10
37.78762387192839
 20
-3.580899752033203
 10
37.85477630916602
 20
-3.569805718535993
 10
37.92179212252821
 20
-3.557914540745751
 10
37.98865979506199
 20
-3.545215464041352
 10
38.05536657080772
 20
-3.531696036535543
 10
38.11585794874292
 20
-3.518682212435344
 10
38.17619472076592
 20
-3.504968702751853
 10
38.23636581220072
 20
-3.490544279882775
 10
38.29635868997352
 20
-3.475396041779605
 10
38.35616065599671
 20
-3.459510896934685
 10
38.41575871872072
 20
-3.442875463630272
 10
38.47513780868172
 20
-3.425474305259744
 10
38.52837857184312
 20
-3.409145076472982
 10
38.5814173794095
 20
-3.392170474999073
 10
38.6342414622611
 20
-3.374537645154303
 10
38.68683609141001
 20
-3.356232073626634
 10
38.73918633878242
 20
-3.337239078720033
 10
38.79127706114161
 20
-3.317543823621602
 10
38.83734778206497
 20
-3.299433921719061
 10
38.88318581594328
 20
-3.280743378279205
 10
38.92877750760021
 20
-3.261459596023323
 10
38.97410884567432
 20
-3.241569764380455
 10
39.0191630821298
 20
-3.221059433991971
 10
39.06392220033252
 20
-3.199913395831383
 10
39.10836817670632
 20
-3.178116436715455
 10
39.14698675785942
 20
-3.158497891259115
 10
39.18533582459681
 20
-3.138357292674955
 10
39.22339927365401
 20
-3.117682531394732
 10
39.2611610017397
 20
-3.096461497837501
 10
39.29860449411722
 20
-3.074681938846603
 10
39.33570983453861
 20
-3.052330414293273
 10
39.37245542865402
 20
-3.029392898467722
 10
39.40881967028991
 20
-3.005855361534343
 10
39.43966885832492
 20
-2.985192073503545
 10
39.4702051273274
 20
-2.964068133802955
 10
39.50041021477542
 20
-2.942473740688143
 10
39.53026583540472
 20
-2.920399087693511
 10
39.55975369687379
 20
-2.897834368012133
 10
39.58885381173312
 20
-2.874769693077812
 10
39.61754231011912
 20
-2.851194987066073
 10
39.64579478093072
 20
-2.827100148047173
 10
39.67358681306662
 20
-2.802475074091414
 10
39.70089308658081
 20
-2.777309802334803
 10
39.72768326119022
 20
-2.751595138093553
 10
39.74959103179001
 20
-2.729740133199944
 10
39.77109957696171
 20
-2.707492235530585
 10
39.79219030468792
 20
-2.684846292053264
 10
39.8128427042117
 20
-2.661797971450514
 10
39.83303340403202
 20
-2.638344167540112
 10
39.85273879934453
 20
-2.614481874053784
 10
39.8681378339203
 20
-2.595095906557764
 10
39.8831990681035
 20
-2.575445054305355
 10
39.89790951403179
 20
-2.555528611101613
 10
39.91225472938261
 20
-2.535347213671919
 10
39.92622013741391
 20
-2.514901622852609
 10
39.93979116138382
 20
-2.494192599480014
 10
39.95295322455051
 20
-2.473220904390439
 10
39.96569166346759
 20
-2.451987503327363
 10
39.9779909016894
 20
-2.430495519710194
 10
39.9898348158943
 20
-2.408749369380625
 10
40.00120727536572
 20
-2.386753485656721
 10
40.01209214938711
 20
-2.364512301856565
 10
40.01992612332811
 20
-2.347673102849864
 10
40.02746999893902
 20
-2.330700727059002
 10
40.0347171734587
 20
-2.313598935029252
 10
40.04166107603611
 20
-2.296371785337521
 10
40.04829513582019
 20
-2.279023336560725
 10
40.05461278195968
 20
-2.261557647275795
 10
40.0606074436036
 20
-2.243978776059633
 10
40.06627255018623
 20
-2.22629078182023
 10
40.07160188090998
 20
-2.208498129008773
 10
40.07659024526501
 20
-2.190606476657743
 10
40.08123264150422
 20
-2.172621702663144
 10
40.08552406788061
 20
-2.154549684920965
 10
40.08945952264697
 20
-2.136396301327184
 10
40.09303400405642
 20
-2.118167429777793
 10
40.09624252363101
 20
-2.099868961373545
 10
40.09908109330299
 20
-2.0815077827531
 10
40.10154740610739
 20
-2.063092453471284
 10
40.10363931609292
 20
-2.044631693312313
 10
40.10535467730811
 20
-2.026134222060443
 10
40.10669134380161
 20
-2.007608759499925
 10
40.10764716962198
 20
-1.989064025415004
 10
40.10822014214171
 20
-1.970508574933993
 10
40.10841043170002
 20
-1.951948267200124
 10
40.10841043186552
 20
-1.951958267199823
  0
LWPOLYLINE
  5
519
330
1E
100
AcDbEntity
  8
1
100
AcDbPolyline
 90
       47
 70
     0
 43
0.0
 10
36.32271193400001
 20
-12.04932102709999
 10
36.28556347780182
 20
-12.0437290860649
 10
36.24847689931851
 20
-12.0377237702881
 10
36.21145767947222
 20
-12.0313057046647
 10
36.17451129918502
 20
-12.0244755140902
 10
36.1376432393791
 20
-12.01723382345958
 10
36.10085890458501
 20
-12.0095812606745
 10
36.06416305893552
 20
-12.0015184788372
 10
36.02756014692793
 20
-11.9930461436286
 10
35.99105461070461
 20
-11.9841649208221
 10
35.95465089240821
 20
-11.974875476191
 10
35.91835344081472
 20
-11.9651784811288
 10
35.88216685219362
 20
-11.95507473198609
 10
35.84609586754339
 20
-11.9445651477286
 10
35.81014523394289
 20
-11.9336506524733
 10
35.77431969847072
 20
-11.9223321703373
 10
35.73862400803911
 20
-11.91061062600889
 10
35.70306288873452
 20
-11.8984870156735
 10
35.66764102581931
 20
-11.8859624756656
 10
35.63236309981311
 20
-11.87303815860379
 10
35.59723379123512
 20
-11.8597152171067
 10
35.56225778060481
 20
-11.84599480379268
 10
35.5274397522084
 20
-11.83187811551239
 10
35.49113828932419
 20
-11.81666567957269
 10
35.45502077957182
 20
-11.8010214873294
 10
35.4190926314712
 20
-11.78494718117667
 10
35.38335925354228
 20
-11.76844440350879
 10
35.34782604744111
 20
-11.7515148378374
 10
35.312498378865
 20
-11.7341603830726
 10
35.27738160177632
 20
-11.71638300841949
 10
35.24248107013081
 20
-11.69818468312199
 10
35.20780213788452
 20
-11.6795673764241
 10
35.17335015981912
 20
-11.66053310367759
 10
35.13913049581822
 20
-11.6410841650242
 10
35.10360960600852
 20
-11.62031043125778
 10
35.06835461678812
 20
-11.599088863283
 10
35.03337165488713
 20
-11.57742221373069
 10
34.9986667857747
 20
-11.5553132609733
 10
34.96424576792143
 20
-11.5327649123849
 10
34.93011426383151
 20
-11.5097801156645
 10
34.89627793597672
 20
-11.48636181852457
 10
34.86129129400472
 20
-11.4614663410785
 10
34.82663889719661
 20
-11.4361057672823
 10
34.79232818666142
 20
-11.4102849331741
 10
34.75836675236092
 20
-11.3840088944763
 10
34.72336985050748
 20
-11.3561594215748
 10
34.70395165464092
 20
-11.34035883671669
  0
LWPOLYLINE
  5
54A
330
1E
100
AcDbEntity
  8
1
100
AcDbPolyline
 90
       12
 70
     0
 43
0.0
 10
38.87152156970002
 20
-5.935441162299992
 10
39.06381987770252
 20
-6.207213912597361
 10
39.19862649538352
 20
-6.402847487461562
 10
39.30315186344702
 20
-6.558589634746472
 10
39.38780242777382
 20
-6.688124869857982
 10
39.45828735256302
 20
-6.798899060790352
 10
39.51836866077182
 20
-6.895903646866012
 10
39.57001938897452
 20
-6.981575861126684
 10
39.61510815770461
 20
-7.058420109471803
 10
39.65540556331352
 20
-7.129007218821821
 10
39.6910718799354
 20
-7.193232941130951
 10
39.72006386425672
 20
-7.246844424430818
  0
LWPOLYLINE
  5
558
330
1E
100
AcDbEntity
  8
1
100
AcDbPolyline
 90
       28
 70
     0
 43
0.0
 10
39.71863352360001
 20
3.622120535399993
 10
39.75818960117932
 20
3.762448363968383
 10
39.79508502010441
 20
3.898859324584665
 10
39.82940767368521
 20
4.031311812855663
 10
39.86124774742692
 20
4.159765555410173
 10
39.89069437223403
 20
4.284182795864451
 10
39.91783723575372
 20
4.40452799901675
 10
39.94276546428621
 20
4.520767168864782
 10
39.96556636372872
 20
4.632867770490572
 10
39.98591546825451
 20
4.738594112155452
 10
40.00435552367791
 20
4.840113505431071
 10
40.02097250067921
 20
4.937399118176164
 10
40.03550455614931
 20
5.028208913245101
 10
40.04842501542301
 20
5.114728749852123
 10
40.0598127914809
 20
5.196936723222422
 10
40.06947888277831
 20
5.272585699265092
 10
40.0778222440479
 20
5.343876884362883
 10
40.0849281634004
 20
5.410792472128893
 10
40.09067921954062
 20
5.471081392222113
 10
40.09541390933111
 20
5.526957892106282
 10
40.09922358800802
 20
5.578407660746695
 10
40.10220373124901
 20
5.625417671407743
 10
40.10456145563792
 20
5.670217164218013
 10
40.10624467928129
 20
5.710557555933721
 10
40.10742044182271
 20
5.748672622664852
 10
40.10812652326271
 20
5.784555740816752
 10
40.10840379621561
 20
5.818200481540382
 10
40.10841194064531
 20
5.824919551000012
  0
LWPOLYLINE
  5
576
330
1E
100
AcDbEntity
  8
1
100
AcDbPolyline
 90
      131
 70
     0
 43
0.0
 10
34.14710838840002
 20
-3.41704856139999
 10
34.14669488433222
 20
-3.414984999503051
 10
34.14631065975333
 20
-3.412915139824633
 10
34.14595599969022
 20
-3.410839483690542
 10
34.14563118917001
 20
-3.408758532426622
 10
34.14533651321971
 20
-3.406672787358691
 10
34.14507225686632
 20
-3.404582749812584
 10
34.14483870513691
 20
-3.402488921114131
 10
34.14463614305843
 20
-3.400391802589151
 10
34.14446485565802
 20
-3.398291895563473
 10
34.14434621216971
 20
-3.396540204619203
 10
34.14424964941321
 20
-3.394787215428423
 10
34.14417529399372
 20
-3.393033215289162
 10
34.14412321574491
 20
-3.391278487322332
 10
34.14409347980042
 20
-3.389523314303029
 10
34.14408615129392
 20
-3.387767979006341
 10
34.14410129535912
 20
-3.386012764207343
 10
34.14413897712972
 20
-3.384257952681143
 10
34.14419926173922
 20
-3.382503827202801
 10
34.14428221432141
 20
-3.380750670547431
 10
34.14438790000991
 20
-3.378998765490102
 10
34.14451638393838
 20
-3.377248394805923
 10
34.14466773124062
 20
-3.375499841269953
 10
34.14484200620743
 20
-3.373753387845071
 10
34.14503923048842
 20
-3.372009326996871
 10
34.14525936382711
 20
-3.370267964986751
 10
34.14550236110272
 20
-3.368529609160069
 10
34.14576817719481
 20
-3.366794566862213
 10
34.1460567669827
 20
-3.365063145438531
 10
34.14636808534571
 20
-3.363335652234411
 10
34.14670208716341
 20
-3.361612394595211
 10
34.14705872731502
 20
-3.359893679866301
 10
34.14743796068
 20
-3.358179815393062
 10
34.14783974213781
 20
-3.356471108520852
 10
34.14826402656771
 20
-3.354767866595031
 10
34.14871076552842
 20
-3.353070395604701
 10
34.14917985380422
 20
-3.351378978350473
 10
34.14967113854061
 20
-3.349693878175783
 10
34.15018446540712
 20
-3.348015357821193
 10
34.15082933596131
 20
-3.346010188696943
 10
34.15150545826371
 20
-3.344015326875771
 10
34.15221256563121
 20
-3.342031226373403
 10
34.15295039138072
 20
-3.340058341205533
 10
34.15371866882912
 20
-3.338097125387871
 10
34.15451713129311
 20
-3.336148032936133
 10
34.15534551208342
 20
-3.334211517859482
 10
34.15620351872702
 20
-3.332288007695384
 10
34.15709077430742
 20
-3.330377843282882
 10
34.15800688464722
 20
-3.328481347739433
 10
34.15895145556911
 20
-3.326598844182511
 10
34.15992409289562
 20
-3.324730655729603
 10
34.16092440244963
 20
-3.322877105498163
 10
34.1619519900535
 20
-3.321038516605681
 10
34.16300646153012
 20
-3.319215212169633
 10
34.16408742270192
 20
-3.317407515307483
 10
34.1651944793918
 20
-3.315615749136701
 10
34.16632723078432
 20
-3.313840215907441
 10
34.16768067166771
 20
-3.311789545391004
 10
34.16906779544332
 20
-3.309761520235943
 10
34.17048790033052
 20
-3.307756415119662
 10
34.17194028454841
 20
-3.305774504719551
 10
34.17342424631621
 20
-3.303816063712991
 10
34.17493908385312
 20
-3.301881366777381
 10
34.17648409537842
 20
-3.299970688590093
 10
34.17805857911111
 20
-3.298084303828521
 10
34.17989318094792
 20
-3.295958513641901
 10
34.18176435269432
 20
-3.293864992477123
 10
34.18367109970741
 20
-3.291803844378031
 10
34.18561242748813
 20
-3.289775172558311
 10
34.18758734153721
 20
-3.287779080231602
 10
34.1895948473555
 20
-3.28581567061156
 10
34.19163395044382
 20
-3.283885046911833
 10
34.1937036563028
 20
-3.281987312346091
 10
34.19580297070881
 20
-3.280122569757521
 10
34.19793094569902
 20
-3.278290859766251
 10
34.20008673112381
 20
-3.276492091429841
 10
34.20226948926952
 20
-3.274726157078731
 10
34.20447838242272
 20
-3.272992949043381
 10
34.20671257286961
 20
-3.271292359654243
 10
34.20897122289672
 20
-3.269624281241741
 10
34.21125349479051
 20
-3.267988606136361
 10
34.21355855083731
 20
-3.266385226668524
 10
34.21588555332363
 20
-3.264814035168693
 10
34.21852866304393
 20
-3.263084761208201
 10
34.22119756001382
 20
-3.261395784097812
 10
34.2238913217215
 20
-3.259746795638132
 10
34.22660902565572
 20
-3.258137487629482
 10
34.22934974930542
 20
-3.256567551872183
 10
34.23211257015922
 20
-3.255036680166543
 10
34.23489656570601
 20
-3.253544564312881
 10
34.23770081343452
 20
-3.252090896111524
 10
34.24052439083371
 20
-3.250675367362793
 10
34.24336641446362
 20
-3.249297662840473
 10
34.2462261702804
 20
-3.247957436854673
 10
34.24910299013652
 20
-3.246654335461551
 10
34.25199620588522
 20
-3.245388004717143
 10
34.25490514937989
 20
-3.244158090677454
 10
34.25782915247401
 20
-3.242964239398521
 10
34.26076754702082
 20
-3.241806096936373
 10
34.26404849606262
 20
-3.240560722195171
 10
34.26734547093271
 20
-3.239358509925223
 10
34.27065755777771
 20
-3.238198974895521
 10
34.27398395286842
 20
-3.237081643782343
 10
34.27732399926512
 20
-3.236006059133653
 10
34.28067705022302
 20
-3.234971764599771
 10
34.28404245899752
 20
-3.23397830383104
 10
34.28741957884402
 20
-3.233025220477781
 10
34.29080776301761
 20
-3.232112058190303
 10
34.29420636477392
 20
-3.231238360618953
 10
34.2979560871238
 20
-3.230322330384243
 10
34.30171677137042
 20
-3.229452892871524
 10
34.30548758568721
 20
-3.228629450130022
 10
34.30926788793912
 20
-3.227851466046423
 10
34.31305711226711
 20
-3.227118429372591
 10
34.31685469301993
 20
-3.226429828928082
 10
34.32066006454621
 20
-3.225785153532453
 10
34.32447266119462
 20
-3.225183892005273
 10
34.32829191731382
 20
-3.224625533166082
 10
34.33246530896141
 20
-3.22406474410499
 10
34.33664521838843
 20
-3.223553740790073
 10
34.34083091171521
 20
-3.22309186022679
 10
34.34502169350771
 20
-3.222678490981511
 10
34.34921693381892
 20
-3.222313109447851
 10
34.35341600908532
 20
-3.221995200580821
 10
34.35761829574341
 20
-3.221724249335451
 10
34.36182317022991
 20
-3.221499740666732
 10
34.36638064799542
 20
-3.221308334741193
 10
34.37093963823802
 20
-3.221170175042731
 10
34.37549934815162
 20
-3.221084606736962
 10
34.38005898493011
 20
-3.221050974989482
 10
34.38075041049763
 20
-3.221050369023112
  0
LWPOLYLINE
  5
5FB
330
1E
100
AcDbEntity
  8
1
100
AcDbPolyline
 90
        7
 70
     0
 43
0.0
 10
34.30120565360002
 20
-4.260783682800002
 10
34.28089780377121
 20
-4.131991019316283
 10
34.25742518412182
 20
-3.992414041260693
 10
34.22995808931942
 20
-3.838731209005463
 10
34.1974023304628
 20
-3.666797091792211
 10
34.15786400356792
 20
-3.469132339449921
 10
34.14711042261532
 20
-3.417058352312533
  0
LWPOLYLINE
  5
604
330
1E
100
AcDbEntity
  8
1
100
AcDbPolyline
 90
       12
 70
     0
 43
0.0
 10
34.03128592340002
 20
-5.275033158499991
 10
34.06364242660321
 20
-5.174032003357181
 10
34.09430155880022
 20
-5.074694646601793
 10
34.12330490781152
 20
-4.977049051185812
 10
34.15069552937902
 20
-4.881121827158233
 10
34.17679232207812
 20
-4.785924069720754
 10
34.20135142588222
 20
-4.692488402322379
 10
34.22467421513081
 20
-4.599818323508523
 10
34.24678022968981
 20
-4.507928730580072
 10
34.26769248023993
 20
-4.416837280863532
 10
34.28765419700872
 20
-4.325534989516461
 10
34.30120364152102
 20
-4.260793478285623
  0
LWPOLYLINE
  5
612
330
1E
100
AcDbEntity
  8
1
100
AcDbPolyline
 90
      117
 70
     0
 43
0.0
 10
33.44401381550002
 20
-5.450905960099992
 10
33.44399785847912
 20
-5.449186286628799
 10
33.44400661489532
 20
-5.447466034231283
 10
33.44404002572622
 20
-5.445745616054701
 10
33.44409803194962
 20
-5.444025445246281
 10
33.44418057454312
 20
-5.442305934953291
 10
33.44428759448452
 20
-5.440587498322961
 10
33.44441903275152
 20
-5.43887054850254
 10
33.44457483032172
 20
-5.43715549863928
 10
33.4447549281729
 20
-5.435442761880413
 10
33.44495926728272
 20
-5.433732751373201
 10
33.44518778862891
 20
-5.43202588026488
 10
33.44544043278192
 20
-5.430322561271051
 10
33.44571709801672
 20
-5.428623162276403
 10
33.44601760397461
 20
-5.426927967818076
 10
33.44634176173362
 20
-5.425237253356721
 10
33.44668938237183
 20
-5.423551294352985
 10
33.44706027696722
 20
-5.421870366267511
 10
33.44745425659792
 20
-5.420194744560954
 10
33.447871132342
 20
-5.418524704693951
 10
33.44831071527752
 20
-5.416860522127163
 10
33.44877281648251
 20
-5.415202472321221
 10
33.44925724703512
 20
-5.413550830736792
 10
33.44976381801321
 20
-5.411905872834513
 10
33.45029233995632
 20
-5.410267873506721
 10
33.45084259574502
 20
-5.408637078467334
 10
33.45153122851982
 20
-5.406689919762128
 10
33.45225033673011
 20
-5.404753772852163
 10
33.45299946988031
 20
-5.402828982879463
 10
33.453778177475
 20
-5.400915894986101
 10
33.45458600901852
 20
-5.399014854314128
 10
33.45542251401521
 20
-5.397126206005633
 10
33.45628724196962
 20
-5.395250295202643
 10
33.4571797423862
 20
-5.393387467047221
 10
33.45809956476932
 20
-5.391538066681443
 10
33.45904625677381
 20
-5.389702423233002
 10
33.46001935311112
 20
-5.387880753759413
 10
33.46101838296392
 20
-5.386073227446441
 10
33.46204287549402
 20
-5.384280013300243
 10
33.46326967062632
 20
-5.382206244590121
 10
33.46452973475482
 20
-5.380152454740803
 10
33.46582232020589
 20
-5.378118912127773
 10
33.46714667930601
 20
-5.376105885126483
 10
33.46850206438151
 20
-5.374113642112443
 10
33.46988772775871
 20
-5.372142451461101
 10
33.47130293125992
 20
-5.370192559020954
 10
33.47274699152583
 20
-5.368264080592461
 10
33.47443182949823
 20
-5.366086415295341
 10
33.47615250030492
 20
-5.363936913008112
 10
33.47790801322492
 20
-5.361815676990049
 10
33.47969737753771
 20
-5.359722810500471
 10
33.48151960252241
 20
-5.357658416798664
 10
33.48360765083862
 20
-5.355370136333191
 10
33.48573462394772
 20
-5.353118169448811
 10
33.48789916357731
 20
-5.350902615533041
 10
33.49010009947762
 20
-5.348723402860573
 10
33.49233630360301
 20
-5.346580421297693
 10
33.4946066479077
 20
-5.344473560710663
 10
33.49691000434622
 20
-5.342402710965783
 10
33.49924524487291
 20
-5.340367761929333
 10
33.50161124144202
 20
-5.338368603467583
 10
33.50400686600782
 20
-5.336405125446813
 10
33.50643099466522
 20
-5.334477216091471
 10
33.50888263008762
 20
-5.332584713430883
 10
33.51136092186801
 20
-5.330727397233252
 10
33.51386502783581
 20
-5.328905044000534
 10
33.51667661938552
 20
-5.326920941186052
 10
33.51951788534511
 20
-5.324979420020583
 10
33.52238767047401
 20
-5.323080173922431
 10
33.52528481953152
 20
-5.321222896309933
 10
33.52820817727681
 20
-5.319407280601383
 10
33.53115660354943
 20
-5.317633018794113
 10
33.5341291416495
 20
-5.315899785597911
 10
33.53712495723082
 20
-5.314207244193221
 10
33.54014321817301
 20
-5.312555057550714
 10
33.54318309235601
 20
-5.310942888641053
 10
33.5462437476597
 20
-5.309370400434893
 10
33.54932435196391
 20
-5.307837255902913
 10
33.55242407314852
 20
-5.306343118015761
 10
33.55554207909332
 20
-5.304887649744101
 10
33.55899202211072
 20
-5.303330897326723
 10
33.56246216565762
 20
-5.301820105760183
 10
33.56595171647172
 20
-5.300354871042523
 10
33.56945988502752
 20
-5.298934789701831
 10
33.57298588179951
 20
-5.297559458266193
 10
33.57652891726191
 20
-5.296228473263703
 10
33.58008820188931
 20
-5.294941431222454
 10
33.58366294615592
 20
-5.293697928670533
 10
33.58725236053631
 20
-5.292497562136034
 10
33.5908556709248
 20
-5.291339934092182
 10
33.59447223128641
 20
-5.290224696389842
 10
33.59810145901442
 20
-5.289151525334534
 10
33.60207437955182
 20
-5.288028389957511
 10
33.60606092669829
 20
-5.286954512335503
 10
33.61006034466061
 20
-5.285929472452072
 10
33.61407187764541
 20
-5.284952850290761
 10
33.61809476985941
 20
-5.284024225835143
 10
33.62212826550941
 20
-5.283143179068753
 10
33.62617163398311
 20
-5.282309303867453
 10
33.63022428439732
 20
-5.281522271195453
 10
33.63428567405863
 20
-5.280781778603302
 10
33.63835526031913
 20
-5.280087523666503
 10
33.64243250053071
 20
-5.279439203960541
 10
33.64651685204532
 20
-5.278836517060923
 10
33.65060777221501
 20
-5.278279160543132
 10
33.65504638557033
 20
-5.277726160967993
 10
33.65949138118512
 20
-5.277225622197733
 10
33.66394206832252
 20
-5.276777172406441
 10
33.66839775008401
 20
-5.276380536494833
 10
33.67285772673282
 20
-5.276035483923954
 10
33.67732129851682
 20
-5.275741784392221
 10
33.68178776568422
 20
-5.275499207598063
 10
33.68625642848282
 20
-5.275307523239903
 10
33.69072658716071
 20
-5.275166501016183
 10
33.69519754196602
 20
-5.275075910625299
 10
33.69966859314652
 20
-5.275035521765721
 10
33.70103421229792
 20
-5.275033158624832
  0
LWPOLYLINE
  5
689
330
1E
100
AcDbEntity
  8
1
100
AcDbPolyline
 90
        2
 70
     0
 43
0.0
 10
33.82271193400001
 20
-11.2491991441
 10
32.31126776969999
 20
-11.25000006374309
  0
LWPOLYLINE
  5
68D
330
1E
100
AcDbEntity
  8
1
100
AcDbPolyline
 90
       38
 70
     0
 43
0.0
 10
34.44885689120002
 20
-3.221050368899994
 10
34.45695021156412
 20
-3.221092425511931
 10
34.46504303690082
 20
-3.221218690722541
 10
34.47313432640302
 20
-3.221429307593991
 10
34.48122303926352
 20
-3.221724419188473
 10
34.48930814390711
 20
-3.222104186957472
 10
34.49738869739771
 20
-3.222568948917831
 10
34.50546380620782
 20
-3.223119141506352
 10
34.5135325773454
 20
-3.223755202226163
 10
34.52133418777052
 20
-3.224452919107123
 10
34.52912814118562
 20
-3.225231997322254
 10
34.53691347240521
 20
-3.226093115379323
 10
34.54468921167821
 20
-3.227036960047221
 10
34.55245438922691
 20
-3.228064218145551
 10
34.55994974198191
 20
-3.229137234907462
 10
34.56743327216781
 20
-3.230289786197073
 10
34.57490394837832
 20
-3.231522789664551
 10
34.58210385088592
 20
-3.232790475183341
 10
34.58928987107101
 20
-3.234134855240933
 10
34.5964609448471
 20
-3.235556947754073
 10
34.60336067539412
 20
-3.237002919250671
 10
34.61024440194881
 20
-3.238523240562602
 10
34.61711108975801
 20
-3.240118938442951
 10
34.62370632684552
 20
-3.241727795985283
 10
34.63028356842171
 20
-3.243408737617653
 10
34.63658973624037
 20
-3.245094137783982
 10
34.64287706040161
 20
-3.246848387820282
 10
34.64914445843972
 20
-3.248672569651123
 10
34.65514131927552
 20
-3.250490693078951
 10
34.66111753026352
 20
-3.252375634222462
 10
34.66682423305861
 20
-3.254245917261423
 10
34.67250978971271
 20
-3.256179862312392
 10
34.67817313001002
 20
-3.258178594195022
 10
34.68356826669511
 20
-3.260152157324981
 10
34.68894044872222
 20
-3.262187273178692
 10
34.6940456651983
 20
-3.264188393274082
 10
34.69912732584742
 20
-3.266247710437033
 10
34.70393472038252
 20
-3.268260101594371
  0
LWPOLYLINE
  5
6B5
330
1E
100
AcDbEntity
  8
1
100
AcDbPolyline
 90
       60
 70
     0
 43
0.0
 10
34.70394392280002
 20
-11.34035249489999
 10
34.69964852580933
 20
-11.336878614948
 10
34.69530503704152
 20
-11.33346384178359
 10
34.69091445600781
 20
-11.33010890883449
 10
34.68647778221943
 20
-11.3268145495288
 10
34.68222115907342
 20
-11.3237416825406
 10
34.67792469623098
 20
-11.3207247740069
 10
34.67358924523602
 20
-11.31776444415389
 10
34.66921558934252
 20
-11.31486120473299
 10
34.66480446505112
 20
-11.3120154932311
 10
34.66035660795272
 20
-11.3092277456895
 10
34.65587275363832
 20
-11.3064983981499
 10
34.65159235310071
 20
-11.30396696600729
 10
34.64728093046102
 20
-11.3014887103741
 10
34.64293911938671
 20
-11.2990639986494
 10
34.63856759592312
 20
-11.29669318093468
 10
34.63416704973772
 20
-11.29437660177099
 10
34.62973817050463
 20
-11.292114605697
 10
34.62528164789802
 20
-11.2899075372511
 10
34.62079817159182
 20
-11.2877557409719
 10
34.61628843126021
 20
-11.2856595613979
 10
34.61200573938322
 20
-11.2837312075636
 10
34.60770082893061
 20
-11.2818530094354
 10
34.60337429420391
 20
-11.2800252017156
 10
34.59902672950622
 20
-11.27824801909999
 10
34.59465872914062
 20
-11.276521696284
 10
34.59027088741022
 20
-11.27484646796329
 10
34.58586379861832
 20
-11.27322256883368
 10
34.58143805745862
 20
-11.2716502323669
 10
34.57699426638792
 20
-11.2701296677296
 10
34.57253303499963
 20
-11.2686610617416
 10
34.56805497315272
 20
-11.2672446003918
 10
34.56356069070611
 20
-11.26588046966918
 10
34.55905079751882
 20
-11.26456885556269
 10
34.55452590344972
 20
-11.26330994406117
 10
34.54998661839722
 20
-11.2621039210656
 10
34.54543355908822
 20
-11.26095095724599
 10
34.54113630940862
 20
-11.2599144079779
 10
34.53682794535122
 20
-11.258925093441
 10
34.53250899476663
 20
-11.2579831254075
 10
34.5281799855056
 20
-11.2570886156495
 10
34.52384144541872
 20
-11.2562416759391
 10
34.51949390235692
 20
-11.2554424180484
 10
34.51513788343452
 20
-11.2546909525339
 10
34.51077390224421
 20
-11.25398736762089
 10
34.50640246051632
 20
-11.25333173194458
 10
34.5020240595787
 20
-11.2527241134755
 10
34.49763920075921
 20
-11.2521645801843
 10
34.49324838538601
 20
-11.2516532000417
 10
34.48885211478682
 20
-11.25119004101826
 10
34.48445089028953
 20
-11.2507751710848
 10
34.48004522355592
 20
-11.2504086546206
 10
34.47563570713592
 20
-11.2500905278949
 10
34.47122297167972
 20
-11.2498208139359
 10
34.46680764806051
 20
-11.24959953569468
 10
34.46239036715152
 20
-11.2494267161223
 10
34.4579717598259
 20
-11.24930237816957
 10
34.45355245695682
 20
-11.2492265447875
 10
34.44913308941742
 20
-11.249199238927
 10
34.44886689120151
 20
-11.2491991442243
  0
LWPOLYLINE
  5
6F3
330
1E
100
AcDbEntity
  8
1
100
AcDbPolyline
 90
       67
 70
     0
 43
0.0
 10
24.88427146300001
 20
-5.626127119400003
 10
24.88907057571381
 20
-5.621165342302202
 10
24.89429421740602
 20
-5.615928575707243
 10
24.89960012455891
 20
-5.610774318409132
 10
24.90498595696042
 20
-5.605702925718476
 10
24.91044940487902
 20
-5.6007147211167
 10
24.91598830265291
 20
-5.595809877643431
 10
24.92160052714432
 20
-5.590988523933521
 10
24.92728395522182
 20
-5.586250788615336
 10
24.93303646375382
 20
-5.581596800317282
 10
24.93885592960862
 20
-5.577026687667721
 10
24.94474022965472
 20
-5.57254057929503
 10
24.95068730847691
 20
-5.568138562186232
 10
24.95669538563752
 20
-5.563820554234049
 10
24.96276275048682
 20
-5.559586430415891
 10
24.96888769237521
 20
-5.555436065709151
 10
24.97506850065292
 20
-5.551369335091209
 10
24.98130346467041
 20
-5.547386113539491
 10
24.98759087377781
 20
-5.543486276031371
 10
24.99392903510002
 20
-5.539669693894629
 10
25.00031641117432
 20
-5.535936206545801
 10
25.00675154486211
 20
-5.532285636908412
 10
25.01323297969731
 20
-5.528717807767828
 10
25.01975925921401
 20
-5.525232541909423
 10
25.02632892694641
 20
-5.521829662118538
 10
25.03294052642841
 20
-5.518508991180572
 10
25.03959260150772
 20
-5.515270351848021
 10
25.04628376215122
 20
-5.512113559943816
 10
25.05301276567761
 20
-5.509038415847901
 10
25.05977838931681
 20
-5.506044717853431
 10
25.06657941029892
 20
-5.503132264253538
 10
25.07341460585372
 20
-5.500300853341379
 10
25.08028275321132
 20
-5.497550283410101
 10
25.08718262960162
 20
-5.494880352752851
 10
25.09411301399211
 20
-5.492290859846048
 10
25.1010727579449
 20
-5.489781610823642
 10
25.10806081035371
 20
-5.487352422086432
 10
25.11507612693112
 20
-5.485003110754499
 10
25.12211766338962
 20
-5.482733493947931
 10
25.12918437544191
 20
-5.480543388786802
 10
25.13674877411443
 20
-5.478294710063711
 10
25.14433936147282
 20
-5.476136067898679
 10
25.15195487325182
 20
-5.474067241383097
 10
25.15959411206632
 20
-5.472088031950073
 10
25.16725594489111
 20
-5.470198262532441
 10
25.17493924130972
 20
-5.46839775693453
 10
25.18264287090563
 20
-5.466686338960631
 10
25.19036570326232
 20
-5.465063832415039
 10
25.19810660796322
 20
-5.46353006110207
 10
25.20586445459182
 20
-5.462084848826011
 10
25.21363812589921
 20
-5.460728024238028
 10
25.22142660559452
 20
-5.459459453150413
 10
25.22922892410051
 20
-5.458279018570221
 10
25.23704411209392
 20
-5.457186603597928
 10
25.24487120025132
 20
-5.456182091333961
 10
25.25270921924931
 20
-5.455265364878771
 10
25.26055719976441
 20
-5.454436307332778
 10
25.26841417247342
 20
-5.453694801796461
 10
25.27627914508902
 20
-5.45304073988417
 10
25.28415101011932
 20
-5.452474055923022
 10
25.29202862402182
 20
-5.45199469760603
 10
25.29991084324182
 20
-5.451602612630822
 10
25.30779652422452
 20
-5.451297748695
 10
25.31568452341491
 20
-5.451080053496177
 10
25.32357369725842
 20
-5.450949474731966
 10
25.33146290220003
 20
-5.450905960099992
 10
25.33145290219912
 20
-5.450905960169889
  0
LWPOLYLINE
  5
738
330
1E
100
AcDbEntity
  8
1
100
AcDbPolyline
 90
       14
 70
     0
 43
0.0
 10
33.66189729510001
 20
5.519746510299983
 10
33.67415771401403
 20
5.518042271881165
 10
33.68616920717263
 20
5.516497905419633
 10
33.69792929862642
 20
5.515107973753502
 10
33.70943571357762
 20
5.513866864871405
 10
33.72082037079982
 20
5.512756428650764
 10
33.73194760068391
 20
5.511785863580683
 10
33.74294985216541
 20
5.510939487944392
 10
33.75369141204952
 20
5.510223771101584
 10
33.76417061720658
 20
5.509633211310665
 10
33.77438596766541
 20
5.509162182253433
 10
33.78433613400241
 20
5.508804878757703
 10
33.7941544582642
 20
5.508552567380433
 10
33.79589313435052
 20
5.508518422409801
  0
LWPOLYLINE
  5
748
330
1E
100
AcDbEntity
  8
1
100
AcDbPolyline
 90
       34
 70
     0
 43
0.0
 10
33.44401381550002
 20
11.24822208169999
 10
33.44408895698242
 20
11.24793828590277
 10
33.44471954641762
 20
11.24782233862439
 10
33.4455417281342
 20
11.24777892844158
 10
33.44629252079312
 20
11.24773846964117
 10
33.44695043571862
 20
11.24769296373438
 10
33.44752936763332
 20
11.24764343596598
 10
33.44804321125991
 20
11.24759091158027
 10
33.4485058613211
 20
11.24753641582188
 10
33.44893121253972
 20
11.24748097393517
 10
33.44933315963832
 20
11.24742561116477
 10
33.45012242036661
 20
11.24731922395068
 10
33.45053642851041
 20
11.24727016220727
 10
33.45097091447851
 20
11.24722434272819
 10
33.45142428551911
 20
11.24718154901327
 10
33.45189490879282
 20
11.24714156134859
 10
33.4523811514602
 20
11.24710416001989
 10
33.45288138068171
 20
11.24706912531328
 10
33.45339396361791
 20
11.24703623751449
 10
33.45418242940102
 20
11.24699045064419
 10
33.4549895063203
 20
11.24694825842489
 10
33.45608503463881
 20
11.24689631214648
 10
33.45884006913252
 20
11.24677710825988
 10
33.4599192723269
 20
11.24672971031238
 10
33.46098203091892
 20
11.24668188902049
 10
33.46229040005931
 20
11.24662174751919
 10
33.46358010402183
 20
11.24656147633099
 10
33.46536176773322
 20
11.24647744130777
 10
33.47444894050441
 20
11.24607896079789
 10
33.47959122005661
 20
11.24589041192149
 10
33.51330689428371
 20
11.24490550926458
 10
33.5716829799262
 20
11.24378388588177
 10
33.65655111047402
 20
11.24298762677698
 10
33.7010342123
 20
11.24288664000498
  0
LWPOLYLINE
  5
76C
330
1E
100
AcDbEntity
  8
1
100
AcDbPolyline
 90
      128
 70
     0
 43
0.0
 10
40.10841194700001
 20
-8.625054201200002
 10
40.10819411017719
 20
-8.659728602592544
 10
40.10754912866389
 20
-8.694398501630644
 10
40.10626937454531
 20
-8.734833527265887
 10
40.10443552231531
 20
-8.775247288247856
 10
40.10206177909942
 20
-8.815632906246804
 10
40.09916156543932
 20
-8.855984052628445
 10
40.09574739837112
 20
-8.89629502900115
 10
40.09183141844842
 20
-8.936560293415425
 10
40.0874243089641
 20
-8.976774846739003
 10
40.08253633283761
 20
-9.016933844503917
 10
40.07637325512392
 20
-9.062755876478066
 10
40.06960644633421
 20
-9.108492823913396
 10
40.062247539313
 20
-9.154138298215553
 10
40.05430612128292
 20
-9.199686172683495
 10
40.0457908319155
 20
-9.245130441927331
 10
40.03670980721452
 20
-9.290465120079003
 10
40.02706930427152
 20
-9.335684292357015
 10
40.0168751375786
 20
-9.380782060725085
 10
40.00613280511532
 20
-9.425752511926122
 10
39.99484633623532
 20
-9.470589662078033
 10
39.98301933464201
 20
-9.515287506829491
 10
39.97065536027382
 20
-9.559840033487702
 10
39.95775717564672
 20
-9.604241077255645
 10
39.9443268467683
 20
-9.648484340481042
 10
39.93036641622492
 20
-9.692563521044233
 10
39.91402974326203
 20
-9.741948582120006
 10
39.89702663279603
 20
-9.791108594296352
 10
39.87935863554722
 20
-9.840034009345703
 10
39.8610272985784
 20
-9.888715277491192
 10
39.84203411878961
 20
-9.937142774047686
 10
39.82238027750701
 20
-9.985306403083953
 10
39.80206683364292
 20
-10.0331958858683
 10
39.78109484584031
 20
-10.08080094326659
 10
39.75946537608511
 20
-10.1281112864954
 10
39.73717957334422
 20
-10.1751163757229
 10
39.71423867956721
 20
-10.22180540274508
 10
39.69064394124922
 20
-10.2681675462387
 10
39.6663966048851
 20
-10.3141919848805
 10
39.64149800179269
 20
-10.35986784539699
 10
39.61594996356991
 20
-10.40518394811509
 10
39.58975450459102
 20
-10.45012900141849
 10
39.56291363950062
 20
-10.494691713526
 10
39.5354293833544
 20
-10.53886079256676
 10
39.50730402434453
 20
-10.5826248874019
 10
39.47854059623053
 20
-10.6259724851097
 10
39.44914225881539
 20
-10.66889204541799
 10
39.41911217190261
 20
-10.71137202805479
 10
39.38845350165811
 20
-10.7534008927519
 10
39.35716990037571
 20
-10.79496709953579
 10
39.3252658408919
 20
-10.8360591089306
 10
39.29274587509011
 20
-10.8766653815082
 10
39.2596145548542
 20
-10.91677437784069
 10
39.22587645370311
 20
-10.9563745627299
 10
39.19153680587861
 20
-10.99545453015299
 10
39.15660161210821
 20
-11.03400302394007
 10
39.12107691605351
 20
-11.072008796315
 10
39.08092099075261
 20
-11.1135872267513
 10
39.04005318419972
 20
-11.15446637178669
 10
38.99848317820289
 20
-11.1946313320993
 10
38.96047830920672
 20
-11.23015705017847
 10
38.92192052140512
 20
-11.2650817149751
 10
38.88281733277372
 20
-11.29939464038508
 10
38.84317666556091
 20
-11.3330853667323
 10
38.80300731002022
 20
-11.366143920497
 10
38.76231816875962
 20
-11.39856039108757
 10
38.72111814438702
 20
-11.4303248679126
 10
38.67941617384603
 20
-11.4614274673633
 10
38.64193408309883
 20
-11.4885109670645
 10
38.60407004835342
 20
-11.5150577864188
 10
38.56583118341072
 20
-11.5410616416971
 10
38.52722460207171
 20
-11.56651624917047
 10
38.48825743045731
 20
-11.591415337937
 10
38.44893712983042
 20
-11.6157529860275
 10
38.40927152816821
 20
-11.6395236532779
 10
38.36926847209852
 20
-11.66272181894169
 10
38.32893580824903
 20
-11.68534196227269
 10
38.28828138884672
 20
-11.7073785701407
 10
38.24731330803199
 20
-11.72882645847548
 10
38.20603998899501
 20
-11.7496808907921
 10
38.16446987847049
 20
-11.7699371626323
 10
38.12261142319322
 20
-11.78959056953748
 10
38.08047307318512
 20
-11.8086364130275
 10
38.03806345499181
 20
-11.8270703156723
 10
38.00073950150192
 20
-11.84269493027309
 10
37.96322063297962
 20
-11.8578454545305
 10
37.92551281854802
 20
-11.87251930148818
 10
37.88762202733021
 20
-11.8867138841903
 10
37.84955425044318
 20
-11.90042667126639
 10
37.81131562253921
 20
-11.91365549410769
 10
37.77291233585053
 20
-11.92639832962878
 10
37.73435058276381
 20
-11.938653155135
 10
37.69563655566612
 20
-11.95041794793169
 10
37.65677644711542
 20
-11.96169068599669
 10
37.61777648865452
 20
-11.9724695004078
 10
37.57864300016162
 20
-11.9827528691529
 10
37.53938231368049
 20
-11.9925393179956
 10
37.50000076125511
 20
-12.0018273726994
 10
37.46050467492892
 20
-12.010615559028
 10
37.4209003900995
 20
-12.0189024221742
 10
37.38119429130382
 20
-12.026686792007
 10
37.34139280037972
 20
-12.0339677144886
 10
37.30150234009462
 20
-12.0407442409666
 10
37.26152933321582
 20
-12.0470154227884
 10
37.22148020251092
 20
-12.0527803113052
 10
37.18136137177772
 20
-12.05803805002668
 10
37.1411792685271
 20
-12.0627881145534
 10
37.10094032110613
 20
-12.0670300552619
 10
37.06065095786143
 20
-12.0707634225289
 10
37.02031760714002
 20
-12.073987766731
 10
36.97994669867672
 20
-12.07670264600319
 10
36.93954470226142
 20
-12.0789078424047
 10
36.89911813285942
 20
-12.08060339054219
 10
36.85867350785252
 20
-12.0817893385316
 10
36.81821734462261
 20
-12.0824657344889
 10
36.77775616055153
 20
-12.0826326265301
 10
36.73729642398882
 20
-12.08229010701
 10
36.69684431213662
 20
-12.081438530969
 10
36.6564058951525
 20
-12.0800783500277
 10
36.61598724302869
 20
-12.0782100159556
 10
36.5755944257576
 20
-12.07583398052229
 10
36.5352335191126
 20
-12.07295069824199
 10
36.49491107124372
 20
-12.0695608478707
 10
36.4546344455468
 20
-12.0656654951701
 10
36.41441108624141
 20
-12.0612657442695
 10
36.37424843754731
 20
-12.05636269929859
 10
36.33415394368411
 20
-12.05095746438689
 10
36.32272183072201
 20
-12.0493224605912
  0
LWPOLYLINE
  5
7EE
330
1E
100
AcDbEntity
  8
1
100
AcDbPolyline
 90
       66
 70
     0
 43
0.0
 10
40.10841043
 20
-6.455282633599991
 10
40.10834753034772
 20
-6.444633117451852
 10
40.10815940403452
 20
-6.433983648385162
 10
40.10784629177289
 20
-6.423335849674625
 10
40.10740843427528
 20
-6.412691344594954
 10
40.10684607225432
 20
-6.402051756420862
 10
40.10615944642212
 20
-6.391418708427072
 10
40.1053487974914
 20
-6.380793823888281
 10
40.10441436617461
 20
-6.370178726079211
 10
40.10335639318422
 20
-6.35957503827457
 10
40.1021752212164
 20
-6.348984322990353
 10
40.10087159411392
 20
-6.338407903752552
 10
40.09944635433652
 20
-6.327847045334012
 10
40.09790034434431
 20
-6.317303012507601
 10
40.09623440659711
 20
-6.306777070046192
 10
40.09444938355502
 20
-6.296270482722642
 10
40.09254611767789
 20
-6.285784515309813
 10
40.09033596210328
 20
-6.274370281234543
 10
40.08798718412212
 20
-6.262983733760544
 10
40.08550087747649
 20
-6.251626514907001
 10
40.08287813590849
 20
-6.240300266693062
 10
40.08012006064812
 20
-6.229006621905946
 10
40.0772279549148
 20
-6.217746964294222
 10
40.07420334198619
 20
-6.206522406290402
 10
40.07104775624971
 20
-6.195334046629263
 10
40.0677627320929
 20
-6.184182984045602
 10
40.06434980390312
 20
-6.173070317274214
 10
40.06050990849382
 20
-6.161076197879252
 10
40.05652365510331
 20
-6.149129826668204
 10
40.0523929945701
 20
-6.137232600585682
 10
40.04811987773311
 20
-6.125385916576342
 10
40.04370625543089
 20
-6.113591171584812
 10
40.03915408448602
 20
-6.101849733654193
 10
40.03409913511132
 20
-6.089265863142562
 10
40.0288884650986
 20
-6.076745906266053
 10
40.02352468073818
 20
-6.064290787923072
 10
40.01801038831991
 20
-6.051901433012022
 10
40.01234819413389
 20
-6.039578766431302
 10
40.0061203928656
 20
-6.026450963803486
 10
39.9997290039421
 20
-6.013401915987103
 10
39.9931772329862
 20
-6.000432760566742
 10
39.98601551248651
 20
-5.986688335694112
 10
39.97867880947399
 20
-5.973037357589713
 10
39.97117076869599
 20
-5.959480442466492
 10
39.96349497141641
 20
-5.946018009028744
 10
39.955159631214
 20
-5.931818165644375
 10
39.94664324810722
 20
-5.917725957981473
 10
39.93743334461361
 20
-5.902922674193423
 10
39.92803038747521
 20
-5.888241220631813
 10
39.9184394757683
 20
-5.873682193372772
 10
39.90811745443802
 20
-5.858447799092942
 10
39.89759726685092
 20
-5.843350738271736
 10
39.88631477385322
 20
-5.827607080118012
 10
39.87482397841981
 20
-5.81201474883261
 10
39.8625407534506
 20
-5.795805163090982
 10
39.84944035669581
 20
-5.779001511931912
 10
39.8361098445889
 20
-5.762379212618268
 10
39.8219356697934
 20
-5.745194593637405
 10
39.80689521463082
 20
-5.727472589671242
 10
39.79160788930911
 20
-5.709963583296133
 10
39.77543001854511
 20
-5.691950071348651
 10
39.75834049504479
 20
-5.673457987321401
 10
39.74031935572821
 20
-5.654513977650633
 10
39.72134801567142
 20
-5.635145363552084
 10
39.70140906212341
 20
-5.615379773526563
 10
39.69447409494222
 20
-5.608639516211744
  0
LWPOLYLINE
  5
832
330
1E
100
AcDbEntity
  8
1
100
AcDbPolyline
 90
        2
 70
     0
 43
0.0
 10
24.88564159130001
 20
11.24999918399999
 10
25.33145290220002
 20
11.24822208170139
  0
LWPOLYLINE
  5
836
330
1E
100
AcDbEntity
  8
1
100
AcDbPolyline
 90
       58
 70
     0
 43
0.0
 10
24.77658754760001
 20
11.24599928859998
 10
24.7765338809545
 20
11.24618612745948
 10
24.77655398203541
 20
11.24635177805578
 10
24.77663953900993
 20
11.24649811668019
 10
24.77678224004531
 20
11.24662701962439
 10
24.77697377330902
 20
11.24674036317979
 10
24.77720582696833
 20
11.24684002363767
 10
24.77747008919041
 20
11.24692787728978
 10
24.77775824814282
 20
11.24700580042739
 10
24.77806199199263
 20
11.24707566934198
 10
24.77837300890721
 20
11.24713936032499
 10
24.77868298778413
 20
11.24719874951527
 10
24.77898542203432
 20
11.24725533560777
 10
24.77927949433942
 20
11.24730942729307
 10
24.77956550581291
 20
11.24736109932298
 10
24.77984375756822
 20
11.24741042644957
 10
24.78011455071891
 20
11.24745748342498
 10
24.78037818637832
 20
11.24750234500119
 10
24.78063496566011
 20
11.24754508593007
 10
24.78088518967751
 20
11.24758578096377
 10
24.78112915954412
 20
11.24762450485439
 10
24.78136717637352
 20
11.24766133235369
 10
24.78159954127891
 20
11.24769633821398
 10
24.78182655537402
 20
11.24772959718707
 10
24.78204851977212
 20
11.24776118402508
 10
24.78226573558682
 20
11.24779117347998
 10
24.78258331440061
 20
11.24783332608908
 10
24.78289190266491
 20
11.24787230506636
 10
24.78319251663771
 20
11.24790836269985
 10
24.7834861725769
 20
11.24794175127768
 10
24.78377388674041
 20
11.24797272308778
 10
24.78415001935842
 20
11.24801069547168
 10
24.78461154115722
 20
11.24805366079278
 10
24.78570688183742
 20
11.24814304846128
 10
24.78616987481782
 20
11.24817748507797
 10
24.78654744697962
 20
11.24820493972678
 10
24.78693182279132
 20
11.24823245707067
 10
24.78732271305592
 20
11.24826001679459
 10
24.78771982841502
 20
11.24828759854659
 10
24.7882245358338
 20
11.24832207570875
 10
24.78873795268742
 20
11.24835651574018
 10
24.78925951382271
 20
11.24839087889089
 10
24.78978865408671
 20
11.24842512541117
 10
24.79043283111802
 20
11.24846601131549
 10
24.79108613168992
 20
11.24850660334449
 10
24.79185854396583
 20
11.24855349764909
 10
24.79275288977421
 20
11.24860634694889
 10
24.79377103769442
 20
11.24866465895189
 10
24.79537257514092
 20
11.24875243097239
 10
24.79973779270191
 20
11.24896627392458
 10
24.80132190803811
 20
11.24903402375267
 10
24.80300100400002
 20
11.24910016555717
 10
24.80499442884021
 20
11.24917151442557
 10
24.80740475826779
 20
11.24924819194575
 10
24.81130593724842
 20
11.24935313572488
 10
24.82297941738242
 20
11.24958405156239
 10
24.85008105113512
 20
11.24990006002768
 10
24.88563159129572
 20
11.24999918415909
  0
LWPOLYLINE
  5
872
330
1E
100
AcDbEntity
  8
SK1
100
AcDbPolyline
 90
       52
 70
     0
 43
0.0
 10
-18.19158806599998
 20
-6.782329983099995
 10
-18.10685450552657
 20
-6.649316567748128
 10
-18.02380145426628
 20
-6.515237609433516
 10
-17.94244460239248
 20
-6.380118453594977
 10
-17.86279958184448
 20
-6.243984383952055
 10
-17.78488017497047
 20
-6.106858723938467
 10
-17.71212295459637
 20
-5.975060341991897
 10
-17.64095857907368
 20
-5.842395757342687
 10
-17.57139701691706
 20
-5.708883286696897
 10
-17.50344819556868
 20
-5.574542309525845
 10
-17.43712202609977
 20
-5.439392628882947
 10
-17.37242841691248
 20
-5.303454049083458
 10
-17.30937694462296
 20
-5.166746395372076
 10
-17.24797653387867
 20
-5.029289534120578
 10
-17.19104304881948
 20
-4.897699876615128
 10
-17.13562276414366
 20
-4.765465872530005
 10
-17.08172290749368
 20
-4.632604923539797
 10
-17.02935044518065
 20
-4.499134579648676
 10
-16.97851233854827
 20
-4.365072393680486
 10
-16.92921542508027
 20
-4.230435960110805
 10
-16.88146604353358
 20
-4.095243041128356
 10
-16.83527040715507
 20
-3.959511441128526
 10
-16.79063472126088
 20
-3.823258967165396
 10
-16.74756488722178
 20
-3.686503528183306
 10
-16.70606641408566
 20
-3.549263164643345
 10
-16.66614478493248
 20
-3.411555925711826
 10
-16.62780540603757
 20
-3.273399882133587
 10
-16.59105320808144
 20
-3.134813238274237
 10
-16.55761307169647
 20
-3.002773710386433
 10
-16.52561372122658
 20
-2.870377693596738
 10
-16.49505902139365
 20
-2.737640887562355
 10
-16.46595245683456
 20
-2.604579079920525
 10
-16.43829747082185
 20
-2.471208067883234
 10
-16.41209748197788
 20
-2.337543654252424
 10
-16.38735556475936
 20
-2.203601719877545
 10
-16.36407454076158
 20
-2.069398202950095
 10
-16.34225722573647
 20
-1.934949042986735
 10
-16.32190633035537
 20
-1.800270184094316
 10
-16.30302414750866
 20
-1.665377588629495
 10
-16.28561286627328
 20
-1.530287223483755
 10
-16.26967466839548
 20
-1.395015059522376
 10
-16.25521147082907
 20
-1.259577211146426
 10
-16.24222485779838
 20
-1.123989973119208
 10
-16.23071639238717
 20
-0.9882696516637288
 10
-16.22068757522027
 20
-0.8524324579734388
 10
-16.21213950414416
 20
-0.7164939904244271
 10
-16.20507311717688
 20
-0.5804696042183829
 10
-16.19948934948006
 20
-0.4443746687412581
 10
-16.19538892412438
 20
-0.308225832554343
 10
-16.19277219144126
 20
-0.172041992307658
 10
-16.19163946394036
 20
-0.0358422727631115
 10
-16.19158806600398
 20
-0.0000100000000057
  0
LWPOLYLINE
  5
8A8
330
1E
100
AcDbEntity
  8
SK1
100
AcDbPolyline
 90
       52
 70
     0
 43
0.0
 10
-16.19158806599998
 20
0.0000000000000162
 10
-16.19233021387897
 20
0.136200719731598
 10
-16.19455644917988
 20
0.272390593084304
 10
-16.19826645939847
 20
0.4085504952864511
 10
-16.20345992252547
 20
0.5446613588917904
 10
-16.21013623682707
 20
0.6807058034835573
 10
-16.21829448198588
 20
0.816668370034602
 10
-16.22793372036666
 20
0.952533703964004
 10
-16.23905293991596
 20
1.088286337461461
 10
-16.25165071829898
 20
1.223910178460958
 10
-16.26572549255326
 20
1.35938892092722
 10
-16.28127569603908
 20
1.494706260560288
 10
-16.29829953410607
 20
1.62984601665564
 10
-16.31679484986537
 20
1.764792204864169
 10
-16.33675945421298
 20
1.899528858299168
 10
-16.35819111662078
 20
2.034040011883428
 10
-16.38108722703946
 20
2.168309717117959
 10
-16.40544497165965
 20
2.302322034404439
 10
-16.43126153454586
 20
2.436061024269688
 10
-16.45853395390657
 20
2.569510780315647
 10
-16.48725885795995
 20
2.70265548911572
 10
-16.51743280341698
 20
2.835479353458711
 10
-16.54905233608018
 20
2.967966578658558
 10
-16.58211371251205
 20
3.100101436984057
 10
-16.61846837323447
 20
3.23879287845233
 10
-16.65641140236827
 20
3.377058283423792
 10
-16.69593796395157
 20
3.514879420923898
 10
-16.73704274014247
 20
3.652238195361846
 10
-16.77972024799268
 20
3.789116557533381
 10
-16.82396499930047
 20
3.925496459987261
 10
-16.86977122853926
 20
4.061359948240268
 10
-16.91713275626188
 20
4.196689206568136
 10
-16.96604336921408
 20
4.331466430579681
 10
-17.01649680108748
 20
4.465673833724912
 10
-17.06848632709888
 20
4.59929378363057
 10
-17.12200498778837
 20
4.732308726840757
 10
-17.17704582167657
 20
4.864701110606731
 10
-17.23360171549936
 20
4.996453468331808
 10
-17.29460771210866
 20
5.134085783392166
 10
-17.35726687708188
 20
5.270973622141148
 10
-17.42157033739696
 20
5.407097114952311
 10
-17.48750870034128
 20
5.54243642498305
 10
-17.55507207493948
 20
5.676971746822911
 10
-17.62425055015826
 20
5.810683276326686
 10
-17.69503420667117
 20
5.943551423954491
 10
-17.76741308299307
 20
6.075557691086308
 10
-17.84493867672698
 20
6.212905771271231
 10
-17.92419259011828
 20
6.349267109988438
 10
-18.00516175391407
 20
6.484619139578882
 10
-18.08783068305686
 20
6.618936731992048
 10
-18.17218368737037
 20
6.752194541782839
 10
-18.19158264013938
 20
6.782321583097822
  0
LWPOLYLINE
  5
8DE
330
1E
100
AcDbEntity
  8
1
100
AcDbPolyline
 90
       10
 70
     0
 43
0.0
 10
25.22802685450001
 20
-5.458038329999983
 10
25.16855041553771
 20
-5.508712069837898
 10
25.11068681661821
 20
-5.559362034634218
 10
25.05443132894312
 20
-5.609961718731922
 10
24.99977715188432
 20
-5.660484135931787
 10
24.94627185845383
 20
-5.711331045866527
 10
24.89393017864561
 20
-5.762490430686962
 10
24.84363402651692
 20
-5.813064122279628
 10
24.7957846235548
 20
-5.862553755542053
 10
24.77659440581882
 20
-5.88279998780561
  0
LWPOLYLINE
  5
8EA
330
1E
100
AcDbEntity
  8
1
100
AcDbPolyline
 90
       65
 70
     0
 43
0.0
 10
24.77658754760001
 20
-5.882807265499987
 10
24.77655426577902
 20
-5.879096947590962
 10
24.77656374044242
 20
-5.875385798132121
 10
24.77661589985772
 20
-5.87167439131044
 10
24.7767106722927
 20
-5.867963301312888
 10
24.77684798601491
 20
-5.864253102326452
 10
24.77702776929203
 20
-5.860544368538096
 10
24.77724995039182
 20
-5.856837674134791
 10
24.77751445758172
 20
-5.853133593303512
 10
24.77782121912952
 20
-5.84943270023123
 10
24.77817016330272
 20
-5.845735569104911
 10
24.77856121836921
 20
-5.842042774111543
 10
24.77899430267472
 20
-5.838354877584277
 10
24.77946925287231
 20
-5.834672344254737
 10
24.7799858654494
 20
-5.830995590867392
 10
24.78054393661421
 20
-5.827325033833051
 10
24.78114326257492
 20
-5.823661089562499
 10
24.7817836395397
 20
-5.820004174466532
 10
24.78246486371682
 20
-5.816354704955942
 10
24.78318673131432
 20
-5.812713097441528
 10
24.78394903854042
 20
-5.809079768334091
 10
24.78481497641441
 20
-5.80517668810328
 10
24.78572732380471
 20
-5.801284211890181
 10
24.78668582368862
 20
-5.797402858318423
 10
24.78769016293952
 20
-5.793533113062321
 10
24.78873997298982
 20
-5.789675429235901
 10
24.78983488291232
 20
-5.785830258567567
 10
24.79097452178021
 20
-5.781998052785777
 10
24.79215851866641
 20
-5.778179263618937
 10
24.79338650264382
 20
-5.774374342795487
 10
24.79465810278562
 20
-5.770583742043837
 10
24.79597294816462
 20
-5.76680791309244
 10
24.79742927862991
 20
-5.762779287464866
 10
24.79893437082942
 20
-5.758768693433051
 10
24.80048776165112
 20
-5.754776672795197
 10
24.80208893873732
 20
-5.75080366863153
 10
24.80373736829271
 20
-5.746850081047329
 10
24.80543251643342
 20
-5.742916309970977
 10
24.80717384927571
 20
-5.739002755330872
 10
24.80908157524332
 20
-5.734851030659058
 10
24.81104059375971
 20
-5.730723248193713
 10
24.81305025688801
 20
-5.726619893299718
 10
24.81510991669091
 20
-5.722541451342047
 10
24.81721892523132
 20
-5.718488407685612
 10
24.81951309312021
 20
-5.714210400998489
 10
24.82186145791372
 20
-5.709962022112589
 10
24.82426323691102
 20
-5.705743641511221
 10
24.82671764740581
 20
-5.701555629482299
 10
24.8293729316494
 20
-5.697154776012537
 10
24.83208541483493
 20
-5.692788823654552
 10
24.83485416784741
 20
-5.688458211960361
 10
24.83767826157171
 20
-5.684163380482018
 10
24.84071826059082
 20
-5.679669250062183
 10
24.84381779147641
 20
-5.67521598056394
 10
24.84697575542982
 20
-5.670803980284308
 10
24.85036184439421
 20
-5.666204751531792
 10
24.85381017411021
 20
-5.661652072714566
 10
24.85731945993782
 20
-5.657146365338531
 10
24.86106840843452
 20
-5.652466386813753
 10
24.86488165759661
 20
-5.647839146958888
 10
24.86894383616581
 20
-5.643048659520641
 10
24.87307325442262
 20
-5.638317133275608
 10
24.87746063390972
 20
-5.633433867761477
 10
24.88191831778693
 20
-5.628615382979392
 10
24.88426456490241
 20
-5.62613435930679
  0
LWPOLYLINE
  5
92D
330
1E
100
AcDbEntity
  8
SK1
100
AcDbPolyline
 90
       52
 70
     0
 43
0.0
 10
-30.19158806599998
 20
-6.782329983099995
 10
-30.27632162791348
 20
-6.649316565458506
 10
-30.35937468055607
 20
-6.515237604818115
 10
-30.44073153375129
 20
-6.380118446617966
 10
-30.52037655555728
 20
-6.243984374577966
 10
-30.59829596362737
 20
-6.106858712133823
 10
-30.67105318509097
 20
-5.975060327839916
 10
-30.74221756165798
 20
-5.842395740820681
 10
-30.81177912481718
 20
-5.708883267785285
 10
-30.87972794711848
 20
-5.574542288202406
 10
-30.94605411747698
 20
-5.439392605120425
 10
-31.01074772747777
 20
-5.303454022849561
 10
-31.07379920049957
 20
-5.166746366633342
 10
-31.13519961190568
 20
-5.029289502849771
 10
-31.19213309754138
 20
-4.897699842914035
 10
-31.24755338275127
 20
-4.765465836386236
 10
-31.30145323989408
 20
-4.632604884942433
 10
-31.35382570265297
 20
-4.499134538585276
 10
-31.40466380967886
 20
-4.365072350136975
 10
-31.45396072348318
 20
-4.230435914072011
 10
-31.50171010530758
 20
-4.095242992579814
 10
-31.54790574190446
 20
-3.959511390056915
 10
-31.59254142795717
 20
-3.823258913558542
 10
-31.63561126209747
 20
-3.686503472030913
 10
-31.67710973528428
 20
-3.549263105937705
 10
-31.71703136444457
 20
-3.411555864447892
 10
-31.75537074330757
 20
-3.273399818308404
 10
-31.79212294118268
 20
-3.134813171883406
 10
-31.82556307743078
 20
-3.002773641551546
 10
-31.85756242769137
 20
-2.870377622308792
 10
-31.88811712723798
 20
-2.737640813812094
 10
-31.91722369144618
 20
-2.604579003702355
 10
-31.94487867705708
 20
-2.471207989195594
 10
-31.97107866546147
 20
-2.337543573097645
 10
-31.99582058220407
 20
-2.203601636259246
 10
-32.01910160568218
 20
-2.069398116871175
 10
-32.04091892013586
 20
-1.934948954449293
 10
-32.06126981488868
 20
-1.800270093100073
 10
-32.08015199705236
 20
-1.665377495181133
 10
-32.09756327755396
 20
-1.530287127585284
 10
-32.11350147465137
 20
-1.395014961179134
 10
-32.12796467138947
 20
-1.259577110364874
 10
-32.14095128353486
 20
-1.123989869906322
 10
-32.15245974799457
 20
-0.988269546026957
 10
-32.16248856414019
 20
-0.852432349920614
 10
-32.17103663415748
 20
-0.7164938799649813
 10
-32.17810302007459
 20
-0.580469491364354
 10
-32.18368678677627
 20
-0.4443745535074052
 10
-32.18778721125879
 20
-0.3082257149577891
 10
-32.19040394329307
 20
-0.172041872362153
 10
-32.19153667047538
 20
-0.0358421504777838
 10
-32.19158806839597
 20
-0.0000098771000132
  0
LWPOLYLINE
  5
963
330
1E
100
AcDbEntity
  8
SK1
100
AcDbPolyline
 90
       52
 70
     0
 43
0.0
 10
-32.19158806839998
 20
0.0000001229000087
 10
-32.19084591961608
 20
0.1362008402835409
 10
-32.18861968217157
 20
0.2723907112653789
 10
-32.18490966942757
 20
0.408550611082814
 10
-32.17971620423218
 20
0.5446614722983809
 10
-32.17303988862858
 20
0.6807059144982599
 10
-32.16488164264009
 20
0.8166684786515967
 10
-32.15524240357567
 20
0.9525338101733947
 10
-32.14412318321328
 20
1.08828644125024
 10
-32.13152540389446
 20
1.223910279818313
 10
-32.11745062868479
 20
1.359389019846312
 10
-32.10190042432659
 20
1.494706357038261
 10
-32.08487658551868
 20
1.629846110691183
 10
-32.06638126911256
 20
1.764792296453713
 10
-32.04641666416709
 20
1.899528947436541
 10
-32.02498500116988
 20
2.034040098560284
 10
-32.00208889017317
 20
2.168309801327899
 10
-31.97773114501226
 20
2.302322116145201
 10
-31.95191458164868
 20
2.436061103543149
 10
-31.92464216189148
 20
2.569510857126704
 10
-31.89591725751546
 20
2.702655563469142
 10
-31.86574331179846
 20
2.835479425358573
 10
-31.83412377892698
 20
2.967966648108251
 10
-31.80106240233346
 20
3.100101503987029
 10
-31.76470774149207
 20
3.238792942884411
 10
-31.72676471229317
 20
3.377058345290703
 10
-31.68723815069967
 20
3.514879480232253
 10
-31.64613337455207
 20
3.652238252118693
 10
-31.60345586679648
 20
3.789116611746031
 10
-31.55921111563218
 20
3.925496511663323
 10
-31.51340488658618
 20
4.061359997388411
 10
-31.46604335910928
 20
4.196689253199231
 10
-31.41713274645938
 20
4.331466474706862
 10
-31.36667931494828
 20
4.465673875363552
 10
-31.31468978936008
 20
4.599293822797391
 10
-31.26117112915378
 20
4.732308763553453
 10
-31.20613029580778
 20
4.864701144883931
 10
-31.14957440258507
 20
4.996453500192862
 10
-31.08856840666518
 20
5.134085812736921
 10
-31.02590924243878
 20
5.270973648990461
 10
-30.96160578292468
 20
5.407097139326752
 10
-30.89566742083396
 20
5.542436446903693
 10
-30.82810404714248
 20
5.67697176631204
 10
-30.75892557288367
 20
5.810683293407882
 10
-30.68814191738487
 20
5.943551438652721
 10
-30.61576304213256
 20
6.075557703428744
 10
-30.53823744958088
 20
6.212905781177423
 10
-30.45898353743718
 20
6.349267117493582
 10
-30.37801437495367
 20
6.484619144719451
 10
-30.29534544718348
 20
6.618936734803591
 10
-30.21099244429787
 20
6.752194542299691
 10
-30.19159349186057
 20
6.782321583097822
  0
LWPOLYLINE
  5
999
330
1E
100
AcDbEntity
  8
1
100
AcDbPolyline
 90
      107
 70
     0
 43
0.0
 10
32.31125776970002
 20
-11.2500000641
 10
31.01349792356693
 20
-11.2450663953494
 10
30.45895683026562
 20
-11.23675207894717
 10
30.07086120982852
 20
-11.2267950485314
 10
29.77157119305401
 20
-11.2159247743006
 10
29.51673402616291
 20
-11.20391671323827
 10
29.30633562697002
 20
-11.191713453578
 10
29.11821274594002
 20
-11.17876044930119
 10
28.95235615656782
 20
-11.16551630194758
 10
28.79770273632061
 20
-11.1514347141707
 10
28.65425610399791
 20
-11.1367052034976
 10
28.52201055113971
 20
-11.12155712220767
 10
28.40095833295571
 20
-11.10623809182157
 10
28.29108091290072
 20
-11.09102325159968
 10
28.18139270751282
 20
-11.0744879187333
 10
28.08286420828032
 20
-11.0583918755879
 10
27.98454422997432
 20
-11.04106601999909
 10
27.89734683098741
 20
-11.0245693062263
 10
27.81036380702421
 20
-11.0069763440286
 10
27.73445225780262
 20
-10.99063260123869
 10
27.65874637630581
 20
-10.97335707499649
 10
27.58326802128962
 20
-10.9551049492393
 10
27.5080450808667
 20
-10.93582735357168
 10
27.44379338765152
 20
-10.9184500052352
 10
27.3797686286259
 20
-10.9002517422074
 10
27.31599018191233
 20
-10.88120102955999
 10
27.25248246425222
 20
-10.8612648087238
 10
27.18927116414381
 20
-10.84040963656019
 10
27.12638197008562
 20
-10.8186020699305
 10
27.07423906102102
 20
-10.7996774690047
 10
27.02235550202232
 20
-10.78004930315509
 10
26.97075104747402
 20
-10.7596988763064
 10
26.91944550999471
 20
-10.7386075002173
 10
26.86845870220291
 20
-10.71675648664639
 10
26.81781057664972
 20
-10.69412726245839
 10
26.76752345157232
 20
-10.6707032004888
 10
26.71762161622582
 20
-10.64646929489698
 10
26.66812942003891
 20
-10.6214105893404
 10
26.61907121244082
 20
-10.5955121274764
 10
26.57047148957781
 20
-10.5687593858704
 10
26.522356228911
 20
-10.54114221189458
 10
26.47475226685971
 20
-10.5126529873847
 10
26.42768645037952
 20
-10.4832841252661
 10
26.38118562642622
 20
-10.453028038464
 10
26.33527645327102
 20
-10.42187862715817
 10
26.28998471904202
 20
-10.38983665019699
 10
26.24533596120082
 20
-10.3569048422413
 10
26.20135571718552
 20
-10.32308593813509
 10
26.15806950753862
 20
-10.2883827038853
 10
26.11550094290432
 20
-10.2528014281804
 10
26.07366999484162
 20
-10.2163551117625
 10
26.03259622643782
 20
-10.1790575087723
 10
25.99229920078041
 20
-10.1409223733504
 10
25.95279819465961
 20
-10.1019637180661
 10
25.91410750038241
 20
-10.0622000547734
 10
25.87623717997712
 20
-10.0216537138228
 10
25.83919716128942
 20
-9.980347146685151
 10
25.80299737216522
 20
-9.938302804831693
 10
25.76764680587152
 20
-9.895543508729783
 10
25.73314771458742
 20
-9.852094740405604
 10
25.69949939288453
 20
-9.807983149626522
 10
25.66670112269711
 20
-9.763235391149564
 10
25.63475218595902
 20
-9.717878119731759
 10
25.60365069013472
 20
-9.671937920943163
 10
25.57338892926191
 20
-9.625441037889839
 10
25.54395740192092
 20
-9.578413607909027
 10
25.51534660617241
 20
-9.530881768307352
 10
25.48754704007682
 20
-9.482871656391402
 10
25.46054860338942
 20
-9.434408985665886
 10
25.43433774395072
 20
-9.385517024515491
 10
25.40889967429671
 20
-9.336218166312773
 10
25.38421960539981
 20
-9.286534803322494
 10
25.36028274823202
 20
-9.236489327809444
 10
25.33707424534571
 20
-9.186103942192911
 10
25.31457825638882
 20
-9.135398121617484
 10
25.2885002465724
 20
-9.074152702971193
 10
25.26339571130752
 20
-9.012500997847164
 10
25.23923597542791
 20
-8.950473043741974
 10
25.21599244117072
 20
-8.888098338855941
 10
25.19363723256402
 20
-8.825401352429681
 10
25.17214286670281
 20
-8.762403815075224
 10
25.15148186462731
 20
-8.699127429916581
 10
25.12839398163463
 20
-8.624981502138172
 10
25.10636036459682
 20
-8.550518094842383
 10
25.08534209506711
 20
-8.475762541791311
 10
25.06530111449902
 20
-8.400738512409441
 10
25.04619936434611
 20
-8.325469676121262
 10
25.02547056525392
 20
-8.239178148359712
 10
25.00586890526092
 20
-8.152625083111264
 10
24.98734770181771
 20
-8.065834030871574
 10
24.96774478033032
 20
-7.967938864845582
 10
24.94938497320343
 20
-7.869804779528602
 10
24.93221166556041
 20
-7.771457143296222
 10
24.91445817089612
 20
-7.66195805629559
 10
24.89803322461472
 20
-7.552252125476527
 10
24.88142037377491
 20
-7.431368793154471
 10
24.86625878126282
 20
-7.310294877953253
 10
24.85128831274252
 20
-7.178027058547511
 10
24.83786730703551
 20
-7.045594495122282
 10
24.82498980231682
 20
-6.901967545095088
 10
24.81375325725842
 20
-6.758202944985621
 10
24.80339008306291
 20
-6.603255160686043
 10
24.79474531474982
 20
-6.448201719894282
 10
24.78729762712512
 20
-6.281980899512299
 10
24.7813241136406
 20
-6.104601725617786
 10
24.77729928241851
 20
-5.927170148128037
 10
24.77658769499452
 20
-5.882817264413692
  0
LWPOLYLINE
  5
A06
330
1E
100
AcDbEntity
  8
SK1
100
AcDbPolyline
 90
       52
 70
     0
 43
0.0
 10
-39.19158806599997
 20
-6.782329983099995
 10
-39.10685450552657
 20
-6.649316567748124
 10
-39.02380145426627
 20
-6.515237609433512
 10
-38.94244460239247
 20
-6.380118453594961
 10
-38.86279958184447
 20
-6.243984383952034
 10
-38.78488017497058
 20
-6.106858723938462
 10
-38.71212295459637
 20
-5.975060341991892
 10
-38.64095857907368
 20
-5.842395757342695
 10
-38.57139701691707
 20
-5.708883286696902
 10
-38.50344819556868
 20
-5.574542309525855
 10
-38.43712202609978
 20
-5.439392628882943
 10
-38.37242841691247
 20
-5.303454049083454
 10
-38.30937694462297
 20
-5.166746395372072
 10
-38.24797653387868
 20
-5.029289534120573
 10
-38.19104304881948
 20
-4.897699876615122
 10
-38.13562276414368
 20
-4.76546587253
 10
-38.08172290749368
 20
-4.632604923539791
 10
-38.02935044518078
 20
-4.499134579648671
 10
-37.97851233854828
 20
-4.365072393680483
 10
-37.92921542508028
 20
-4.230435960110804
 10
-37.88146604353357
 20
-4.095243041128353
 10
-37.83527040715508
 20
-3.959511441128522
 10
-37.79063472126086
 20
-3.823258967165394
 10
-37.74756488722178
 20
-3.686503528183305
 10
-37.70606641408579
 20
-3.549263164643334
 10
-37.66614478493247
 20
-3.411555925711825
 10
-37.62780540603768
 20
-3.273399882133573
 10
-37.59105320808159
 20
-3.134813238274236
 10
-37.55761307169648
 20
-3.002773710386433
 10
-37.52561372122647
 20
-2.870377693596736
 10
-37.49505902139368
 20
-2.737640887562354
 10
-37.46595245683458
 20
-2.604579079920535
 10
-37.43829747082186
 20
-2.471208067883232
 10
-37.41209748197798
 20
-2.337543654252423
 10
-37.38735556475938
 20
-2.203601719877541
 10
-37.36407454076157
 20
-2.069398202950094
 10
-37.34225722573647
 20
-1.934949042986734
 10
-37.32190633035536
 20
-1.800270184094313
 10
-37.30302414750865
 20
-1.665377588629493
 10
-37.28561286627328
 20
-1.530287223483754
 10
-37.26967466839546
 20
-1.395015059522374
 10
-37.25521147082908
 20
-1.259577211146424
 10
-37.24222485779836
 20
-1.123989973119205
 10
-37.23071639238717
 20
-0.9882696516637251
 10
-37.22068757522038
 20
-0.8524324579734347
 10
-37.21213950414418
 20
-0.7164939904244224
 10
-37.20507311717685
 20
-0.5804696042183785
 10
-37.19948934948007
 20
-0.4443746687412535
 10
-37.19538892412447
 20
-0.3082258325543385
 10
-37.19277219144129
 20
-0.1720419923076535
 10
-37.19163946394036
 20
-0.0358422727631072
 10
-37.19158806600397
 20
-0.0000100000000031
  0
LWPOLYLINE
  5
A3C
330
1E
100
AcDbEntity
  8
SK1
100
AcDbPolyline
 90
       52
 70
     0
 43
0.0
 10
-37.19158806599998
 20
0.0000000000000188
 10
-37.19233021387896
 20
0.1362007197316005
 10
-37.19455644917987
 20
0.2723905930843075
 10
-37.19826645939846
 20
0.4085504952864535
 10
-37.20345992252546
 20
0.5446613588917926
 10
-37.21013623682697
 20
0.6807058034835596
 10
-37.21829448198589
 20
0.8166683700346045
 10
-37.22793372036667
 20
0.9525337039640064
 10
-37.23905293991597
 20
1.088286337461463
 10
-37.25165071829897
 20
1.22391017846096
 10
-37.26572549255326
 20
1.359388920927224
 10
-37.28127569603908
 20
1.494706260560293
 10
-37.29829953410607
 20
1.629846016655653
 10
-37.31679484986538
 20
1.764792204864181
 10
-37.33675945421297
 20
1.899528858299173
 10
-37.35819111662078
 20
2.034040011883432
 10
-37.38108722703947
 20
2.168309717117963
 10
-37.40544497165966
 20
2.302322034404443
 10
-37.43126153454588
 20
2.436061024269692
 10
-37.45853395390658
 20
2.569510780315653
 10
-37.48725885795986
 20
2.702655489115723
 10
-37.51743280341698
 20
2.835479353458712
 10
-37.54905233608019
 20
2.967966578658562
 10
-37.58211371251197
 20
3.100101436984071
 10
-37.61846837323447
 20
3.238792878452333
 10
-37.65641140236827
 20
3.377058283423794
 10
-37.69593796395157
 20
3.514879420923901
 10
-37.73704274014248
 20
3.652238195361852
 10
-37.77972024799268
 20
3.789116557533383
 10
-37.82396499930047
 20
3.925496459987263
 10
-37.86977122853935
 20
4.061359948240271
 10
-37.91713275626187
 20
4.196689206568142
 10
-37.96604336921407
 20
4.331466430579681
 10
-38.01649680108747
 20
4.465673833724912
 10
-38.06848632709888
 20
4.599293783630582
 10
-38.12200498778835
 20
4.732308726840773
 10
-38.17704582167658
 20
4.864701110606741
 10
-38.23360171549937
 20
4.996453468331822
 10
-38.29460771210868
 20
5.134085783392181
 10
-38.35726687708188
 20
5.270973622141152
 10
-38.42157033739697
 20
5.407097114952313
 10
-38.48750870034136
 20
5.542436424983053
 10
-38.55507207493946
 20
5.676971746822902
 10
-38.62425055015826
 20
5.810683276326691
 10
-38.69503420667118
 20
5.943551423954491
 10
-38.76741308299298
 20
6.07555769108632
 10
-38.84493867672697
 20
6.212905771271251
 10
-38.92419259011818
 20
6.349267109988462
 10
-39.00516175391408
 20
6.484619139578882
 10
-39.08783068305687
 20
6.618936731992052
 10
-39.17218368737035
 20
6.752194541782842
 10
-39.19158264013939
 20
6.782321583097822
  0
LWPOLYLINE
  5
A72
330
1E
100
AcDbEntity
  8
1
100
AcDbPolyline
 90
       45
 70
     0
 43
0.0
 10
39.72006857400002
 20
-7.246853245899982
 10
39.74974001537639
 20
-7.303218742881262
 10
39.77676704408661
 20
-7.356066613153072
 10
39.80123775676472
 20
-7.405340379977052
 10
39.82324844729753
 20
-7.450982742794883
 10
39.84350819272022
 20
-7.494251761566672
 10
39.86266833301582
 20
-7.536433460483382
 10
39.88017096227292
 20
-7.5761840501604
 10
39.89664435850311
 20
-7.614802883414537
 10
39.91156837232082
 20
-7.650932491442085
 10
39.92554492046103
 20
-7.685884430780552
 10
39.93860253261053
 20
-7.719641846804205
 10
39.95077174807653
 20
-7.752188280398075
 10
39.96256866211152
 20
-7.784871866641593
 10
39.97351214869622
 20
-7.816321864795782
 10
39.98363724391381
 20
-7.846521316867202
 10
39.99297988726461
 20
-7.875454129977172
 10
40.00199879888222
 20
-7.904489743037295
 10
40.01068581364338
 20
-7.933626381122222
 10
40.01864325016311
 20
-7.961467681224292
 10
40.02628543103041
 20
-7.989397125255742
 10
40.0332474145595
 20
-8.016010032994971
 10
40.03991422566401
 20
-8.042698449883715
 10
40.04628154953471
 20
-8.069459816311782
 10
40.05234507139613
 20
-8.096291572646352
 10
40.0578054347516
 20
-8.121773695335022
 10
40.06298699160692
 20
-8.147313989757741
 10
40.06788798062539
 20
-8.172909556988415
 10
40.0725066469086
 20
-8.198557495661855
 10
40.07684127947301
 20
-8.224254896595597
 10
40.0808911532045
 20
-8.249998675110854
 10
40.08465651561389
 20
-8.275785573390175
 10
40.08813765547818
 20
-8.301612326270294
 10
40.09133489438799
 20
-8.327475668013972
 10
40.09424937656981
 20
-8.353372318494535
 10
40.09688310848692
 20
-8.379298982503071
 10
40.09923813734212
 20
-8.405252364118142
 10
40.10142397347739
 20
-8.432672964369254
 10
40.10330492425052
 20
-8.460116072670031
 10
40.10488482316662
 20
-8.487578242119013
 10
40.10616751358109
 20
-8.515056028633674
 10
40.10715702641319
 20
-8.542545978808472
 10
40.10788685202692
 20
-8.571492086576043
 10
40.10830218022682
 20
-8.600443758799743
 10
40.10841194729841
 20
-8.625044201200031
  0
LWPOLYLINE
  5
AA1
330
1E
100
AcDbEntity
  8
SK1
100
AcDbPolyline
 90
       14
 70
     0
 43
0.0
 10
-54.99158806599997
 20
-6.782329983099992
 10
-55.12980344819869
 20
-6.524088073771822
 10
-55.25709365416158
 20
-6.279558435758572
 10
-55.37510980336207
 20
-6.046408089367162
 10
-55.48540256483111
 20
-5.822241056944231
 10
-55.58819715939217
 20
-5.607202450718403
 10
-55.68372869522237
 20
-5.401438984142111
 10
-55.77340949317346
 20
-5.202471752322143
 10
-55.85740655126437
 20
-5.010407121294933
 10
-55.93589675093795
 20
-4.82535023618333
 10
-56.00906334994046
 20
-4.647405190316328
 10
-56.07814514064948
 20
-4.474000379005079
 10
-56.14324919768058
 20
-4.305205631342243
 10
-56.19158459946958
 20
-4.176131983534268
  0
LWPOLYLINE
  5
AB1
330
1E
100
AcDbEntity
  8
SK1
100
AcDbPolyline
 90
       14
 70
     0
 43
0.0
 10
-56.19158806599998
 20
4.176122603600016
 10
-56.1299675445123
 20
4.340094629731225
 10
-56.06448182505296
 20
4.508742267613914
 10
-55.99393682256737
 20
4.684654323557971
 10
-55.91925086617727
 20
4.865078709183497
 10
-55.83918045359376
 20
5.052583856761065
 10
-55.75471533991127
 20
5.244443212704606
 10
-55.66336662764168
 20
5.445807787806806
 10
-55.56611157071658
 20
5.653936170569827
 10
-55.46153351909328
 20
5.871304147594827
 10
-55.34940002351959
 20
6.097764858303686
 10
-55.22948839512126
 20
6.333173644064146
 10
-55.09889826973477
 20
6.582459007653644
 10
-54.99159283507875
 20
6.782321193567176
  0
DIMENSION
  5
AC1
330
1E
100
AcDbEntity
  8
SK2
100
AcDbDimension
  2
*D2
 10
40.80841193400003
 20
-37.16319844240121
 30
0.0
 11
8.308411934000014
 21
-37.16319844240121
 31
0.0
 70
   160
 71
     5
 42
65.0
  3
ISO-25
100
AcDbAlignedDimension
 13
-24.19158806599998
 23
0.0000000000000172
 33
0.0
 14
40.80841193400003
 24
0.0000000000000092
 34
0.0
 50
180.0
100
AcDbRotatedDimension
  0
LINE
  5
AC2
330
1E
100
AcDbEntity
  8
SK4
100
AcDbLine
 10
-24.19158806599998
 20
-3.372944191599993
 30
0.0
 11
-24.19158806599998
 21
4.448333915739441
 31
0.0
  0
DIMENSION
  5
AC3
330
1E
100
AcDbEntity
  8
2
100
AcDbDimension
  2
*D1
 10
40.80841193400003
 20
-27.28636823874518
 30
0.0
 11
20.81597634570001
 21
-27.28636823874518
 31
0.0
 70
   160
 71
     5
 42
39.9848711766
  3
ISO-25
100
AcDbAlignedDimension
 13
0.8235407574000177
 23
-11.25
 33
0.0
 14
40.80841193400003
 24
-12.5
 34
0.0
 50
180.0
100
AcDbRotatedDimension
1001
ACAD
1000
DSTYLE
1002
{
1070
   271
1070
     0
1002
}
  0
LINE
  5
AC4
330
1E
100
AcDbEntity
  8
2
100
AcDbLine
 10
40.80841193400003
 20
8.465894649635282
 30
0.0
 11
40.80841193400003
 21
-24.74635837780001
 31
0.0
  0
LINE
  5
AC6
330
1E
100
AcDbEntity
  8
SK4
100
AcDbLine
 10
-0.19158806599998
 20
0.0
 30
0.0
 11
-59.19158806599996
 21
0.0000000000000214
 31
0.0
  0
ARC
  5
AC7
330
1E
100
AcDbEntity
  8
1
100
AcDbCircle
 10
-0.7517540965999976
 20
-11.69999999999999
 30
0.0
 40
0.8
100
AcDbArc
 50
314.443657195924
 51
339.9999999998999
  0
ARC
  5
AC8
330
1E
100
AcDbEntity
  8
SK1
100
AcDbCircle
 10
-0.7517540965999947
 20
11.69999999999999
 30
0.0
 40
0.8
100
AcDbArc
 50
45.55634280407605
 51
90.0
  0
TEXT
  5
B5B
330
1E
100
AcDbEntity
  8
6
100
AcDbText
 10
-30.17570223334218
 20
-67.94315541354183
 30
0.0
 40
5.0
  1
15B1E025040W5R00
100
AcDbText
  0
LINE
  5
2513
330
1E
100
AcDbEntity
  8
SK4
100
AcDbLine
 10
36.822711934
 20
4.042697905361984
 30
0.0
 11
36.822711934
 21
13.08320904884466
 31
0.0
  0
LINE
  5
2514
330
1E
100
AcDbEntity
  8
SK4
100
AcDbLine
 10
32.11799392095136
 20
8.508350000000005
 30
0.0
 11
41.57395759189731
 21
8.508350000000001
 31
0.0
  0
TEXT
  5
2F10
330
1E
100
AcDbEntity
  8
6
100
AcDbText
 10
64.47715250336489
 20
-4.461361744852124
 30
0.0
 40
3.5
  1
Z=3
 50
90.0
100
AcDbText
  0
TEXT
  5
2F11
330
1E
100
AcDbEntity
  8
6
100
AcDbText
 10
12.14500277689615
 20
21.02543306534017
 30
0.0
 40
2.5
  1
RHHW0802M0TN
100
AcDbText
  0
LINE
  5
314E
330
1E
100
AcDbEntity
  8
NOCUT
100
AcDbLine
 10
0.0
 20
11.97361611473946
 30
0.0
 11
0.0
 21
0.0
 31
0.0
  0
LINE
  5
318E
330
1E
100
AcDbEntity
  8
NOCUT
100
AcDbLine
 10
40.29999999999995
 20
0.0
 30
0.0
 11
0.0
 21
0.0
 31
0.0
  0
LINE
  5
3194
330
1E
100
AcDbEntity
  8
NOCUT
100
AcDbLine
 10
34.64044495719996
 20
11.25
 30
0.0
 11
1.015128823400002
 21
11.25
 31
0.0
  0
LINE
  5
3198
330
1E
100
AcDbEntity
  8
NOCUT
100
AcDbLine
 10
40.29999999999995
 20
0.0
 30
0.0
 11
40.29999999999995
 21
8.799999999999997
 31
0.0
  0
ARC
  5
31A6
330
1E
100
AcDbEntity
  8
NOCUT
100
AcDbCircle
 10
37.0
 20
8.799999999999997
 30
0.0
 40
3.299999999999998
100
AcDbArc
 50
359.9997317558001
 51
129.6218349071996
  0
ARC
  5
31AA
330
1E
100
AcDbEntity
  8
NOCUT
100
AcDbCircle
 10
34.64044495719996
 20
11.65
 30
0.0
 40
0.4
100
AcDbArc
 50
270.0
 51
309.6218349071997
  0
SPLINE
  5
31DD
330
1E
100
AcDbEntity
  8
CUT
100
AcDbSpline
210
0.0
220
0.0
230
1.0
 70
     8
 71
     3
 72
    36
 73
    32
 74
    30
 42
0.0000000001
 43
0.0000000001
 44
0.0000000001
 12
-0.9999999742904019
 22
-0.0002267580109913
 32
0.0
 13
0.999999974111397
 23
-0.0002275460507992
 33
0.0
 40
0.0
 40
0.0
 40
0.0
 40
0.0
 40
0.4322018105329736
 40
0.8644020273874058
 40
1.296602923768926
 40
1.728802352257669
 40
2.161001385561793
 40
2.593199492871396
 40
3.025397101917268
 40
3.457594179099669
 40
3.889790288065284
 40
4.321986606385995
 40
4.754183279243404
 40
5.186379733634223
 40
5.618576575808024
 40
6.050773166504886
 40
6.482971166504886
 40
6.915168751339646
 40
7.347367546753287
 40
7.779565896449351
 40
8.211765292027363
 40
8.643964180911842
 40
9.076164270326479
 40
9.508364977463816
 40
9.940564528655125
 40
10.3727660030464
 40
10.80496690996473
 40
11.23716818911716
 40
11.66936962054582
 40
12.10157016095851
 40
12.53377202562939
 40
12.53377202562939
 40
12.53377202562939
 40
12.53377202562939
 10
36.82271193400004
 20
4.516900000000029
 30
0.0
 10
36.67864466752629
 20
4.516867331592394
 30
0.0
 10
36.39026693980997
 20
4.532544239534632
 30
0.0
 10
35.9629655226755
 20
4.602581812940544
 30
0.0
 10
35.54569202189519
 20
4.718436632439387
 30
0.0
 10
35.14340314508904
 20
4.878716575016952
 30
0.0
 10
34.76080056771174
 20
5.08155635381764
 30
0.0
 10
34.40237029470754
 20
5.32456874004776
 30
0.0
 10
34.07231917483697
 20
5.604913693523092
 30
0.0
 10
33.77451186058298
 20
5.919297289509843
 30
0.0
 10
33.51244252996671
 20
6.264037352459874
 30
0.0
 10
33.28918348392666
 20
6.635091549197012
 30
0.0
 10
33.10735074522978
 20
7.028109175685789
 30
0.0
 10
32.96907923685429
 20
7.438483504478906
 30
0.0
 10
32.87598571051927
 20
7.861401527498601
 30
0.0
 10
32.82916554131443
 20
8.291906400608995
 30
0.0
 10
32.82916555918852
 20
8.724949933063831
 30
0.0
 10
32.87598581717523
 20
9.155455771998829
 30
0.0
 10
32.96907918632849
 20
9.578375484544981
 30
0.0
 10
33.10735096159452
 20
9.988752013120901
 30
0.0
 10
33.28918335643036
 20
10.38177243648545
 30
0.0
 10
33.51244301600835
 20
10.75282985645564
 30
0.0
 10
33.77451179393498
 20
11.09757447661162
 30
0.0
 10
34.07231832297259
 20
11.41196337509421
 30
0.0
 10
34.40237119048739
 20
11.69231073285262
 30
0.0
 10
34.76079964215202
 20
11.93533005421444
 30
0.0
 10
35.14340335126323
 20
12.13817278600569
 30
0.0
 10
35.54569122524454
 20
12.29845909668065
 30
0.0
 10
35.96296551738132
 20
12.41431490717991
 30
0.0
 10
36.39026676330065
 20
12.48435491262833
 30
0.0
 10
36.67864464950612
 20
12.50003278194249
 30
0.0
 10
36.82271193400004
 20
12.50000000000001
 30
0.0
 11
36.82271193400004
 21
4.516900000000029
 31
0.0
 11
36.39114393400006
 21
4.540298000000028
 31
0.0
 11
35.96463693400004
 21
4.610218000000023
 31
0.0
 11
35.54818893400006
 21
4.725841000000023
 31
0.0
 11
35.14668393400006
 21
4.885810000000027
 31
0.0
 11
34.76482893400003
 21
5.088252000000018
 31
0.0
 11
34.40709993400003
 21
5.330791000000026
 31
0.0
 11
34.07769293400007
 21
5.610587000000016
 31
0.0
 11
33.78046793400006
 21
5.924357000000021
 31
0.0
 11
33.51891093400002
 21
6.268423000000018
 31
0.0
 11
33.29608793400007
 21
6.638752000000017
 31
0.0
 11
33.11461093400004
 21
7.031002000000023
 31
0.0
 11
32.97660893400005
 21
7.440574000000019
 31
0.0
 11
32.88369793400004
 21
7.862666000000023
 31
0.0
 11
32.83696893400007
 21
8.292329000000016
 31
0.0
 11
32.83696893400007
 21
8.724527000000016
 31
0.0
 11
32.88369793400004
 21
9.154191000000018
 31
0.0
 11
32.97660893400005
 21
9.576285000000019
 31
0.0
 11
33.11461093400004
 21
9.985859000000024
 31
0.0
 11
33.29608793400007
 21
10.37811200000001
 31
0.0
 11
33.51891093400002
 21
10.74844400000001
 31
0.0
 11
33.78046793400006
 21
11.09251500000001
 31
0.0
 11
34.07769293400007
 21
11.40629000000002
 31
0.0
 11
34.40709993400003
 21
11.68608900000001
 31
0.0
 11
34.76482893400003
 21
11.92863400000001
 31
0.0
 11
35.14668393400006
 21
12.13108
 31
0.0
 11
35.54818893400006
 21
12.29105400000001
 31
0.0
 11
35.96463693400004
 21
12.406679
 31
0.0
 11
36.39114393400006
 21
12.47660100000001
 31
0.0
 11
36.82271193400004
 21
12.50000000000001
 31
0.0
  0
SPLINE
  5
31DE
330
1E
100
AcDbEntity
  8
CUT
100
AcDbSpline
210
0.0
220
0.0
230
1.0
 70
     8
 71
     3
 72
    36
 73
    32
 74
    30
 42
0.0000000001
 43
0.0000000001
 44
0.0000000001
 12
0.9999999742904019
 22
-0.0002267580109913
 32
0.0
 13
-0.999999974111397
 23
-0.0002275460507992
 33
0.0
 40
0.0
 40
0.0
 40
0.0
 40
0.0
 40
0.4322018105329594
 40
0.8644020273873916
 40
1.296602923768967
 40
1.728802352257657
 40
2.161001385561775
 40
2.593199492871395
 40
3.02539710191729
 40
3.457594179099671
 40
3.889790288065286
 40
4.321986606385992
 40
4.754183279243405
 40
5.186379733634215
 40
5.618576575808029
 40
6.050773166504891
 40
6.48297116650489
 40
6.915168751339649
 40
7.347367546753305
 40
7.77956589644936
 40
8.211765292027374
 40
8.643964180911849
 40
9.076164270326486
 40
9.508364977463802
 40
9.940564528655132
 40
10.37276600304643
 40
10.80496690996475
 40
11.23716818911712
 40
11.66936962054585
 40
12.10157016095853
 40
12.53377202562939
 40
12.53377202562939
 40
12.53377202562939
 40
12.53377202562939
 10
36.82271193400004
 20
4.516900000000029
 30
0.0
 10
36.96677920047378
 20
4.516867331592394
 30
0.0
 10
37.25515692819011
 20
4.532544239534631
 30
0.0
 10
37.68245834532459
 20
4.602581812940556
 30
0.0
 10
38.0997318461049
 20
4.718436632439363
 30
0.0
 10
38.50202072291101
 20
4.878716575016966
 30
0.0
 10
38.88462330028834
 20
5.081556353817645
 30
0.0
 10
39.24305357329254
 20
5.324568740047766
 30
0.0
 10
39.57310469316313
 20
5.604913693523071
 30
0.0
 10
39.87091200741711
 20
5.919297289509856
 30
0.0
 10
40.13298133803337
 20
6.264037352459867
 30
0.0
 10
40.3562403840734
 20
6.635091549197017
 30
0.0
 10
40.53807312277031
 20
7.028109175685779
 30
0.0
 10
40.67634463114572
 20
7.438483504478921
 30
0.0
 10
40.76943815748087
 20
7.861401527498593
 30
0.0
 10
40.81625832668566
 20
8.291906400608997
 30
0.0
 10
40.81625830881158
 20
8.724949933063825
 30
0.0
 10
40.7694380508249
 20
9.155455771998845
 30
0.0
 10
40.67634468167153
 20
9.578375484544963
 30
0.0
 10
40.53807290640556
 20
9.988752013120912
 30
0.0
 10
40.35624051156971
 20
10.38177243648545
 30
0.0
 10
40.13298085199174
 20
10.75282985645565
 30
0.0
 10
39.8709120740651
 20
11.09757447661161
 30
0.0
 10
39.57310554502752
 20
11.41196337509423
 30
0.0
 10
39.24305267751271
 20
11.69231073285262
 30
0.0
 10
38.88462422584803
 20
11.93533005421443
 30
0.0
 10
38.50202051673685
 20
12.13817278600568
 30
0.0
 10
38.09973264275554
 20
12.29845909668068
 30
0.0
 10
37.68245835061877
 20
12.4143149071799
 30
0.0
 10
37.25515710469943
 20
12.48435491262833
 30
0.0
 10
36.96677921849396
 20
12.50003278194249
 30
0.0
 10
36.82271193400004
 20
12.50000000000001
 30
0.0
 11
36.82271193400004
 21
4.516900000000029
 31
0.0
 11
37.254279934
 21
4.540298000000028
 31
0.0
 11
37.68078693400003
 21
4.610218000000023
 31
0.0
 11
38.09723493400007
 21
4.725841000000023
 31
0.0
 11
38.49873993400001
 21
4.885810000000027
 31
0.0
 11
38.88059493400003
 21
5.088252000000018
 31
0.0
 11
39.23832393400005
 21
5.330791000000026
 31
0.0
 11
39.56773093400004
 21
5.610587000000016
 31
0.0
 11
39.86495593400002
 21
5.924357000000021
 31
0.0
 11
40.12651293400006
 21
6.268423000000018
 31
0.0
 11
40.349335934
 21
6.638752000000017
 31
0.0
 11
40.53081293400004
 21
7.031002000000023
 31
0.0
 11
40.668814934
 21
7.440574000000019
 31
0.0
 11
40.76172593400007
 21
7.862666000000023
 31
0.0
 11
40.80845493400004
 21
8.292329000000016
 31
0.0
 11
40.80845493400004
 21
8.724527000000016
 31
0.0
 11
40.76172593400007
 21
9.154191000000018
 31
0.0
 11
40.668814934
 21
9.576285000000019
 31
0.0
 11
40.53081293400004
 21
9.985859000000024
 31
0.0
 11
40.349335934
 21
10.37811200000001
 31
0.0
 11
40.12651293400006
 21
10.74844400000001
 31
0.0
 11
39.86495593400002
 21
11.09251500000001
 31
0.0
 11
39.56773093400004
 21
11.40629000000002
 31
0.0
 11
39.23832393400005
 21
11.68608900000001
 31
0.0
 11
38.88059493400003
 21
11.92863400000001
 31
0.0
 11
38.49873993400001
 21
12.13108
 31
0.0
 11
38.09723493400007
 21
12.29105400000001
 31
0.0
 11
37.68078693400003
 21
12.406679
 31
0.0
 11
37.254279934
 21
12.47660100000001
 31
0.0
 11
36.82271193400004
 21
12.50000000000001
 31
0.0
  0
ARC
  5
31FE
330
1E
100
AcDbEntity
  8
NOCUT
100
AcDbCircle
 10
0.8235407574000205
 20
12.05
 30
0.0
 40
0.8
100
AcDbArc
 50
200.0
 51
270.0
  0
LINE
  5
31FF
330
1E
100
AcDbEntity
  8
NOCUT
100
AcDbLine
 10
0.0000000000282545
 20
11.97361611466183
 30
0.0
 11
0.0717866607712939
 21
11.77638388533946
 31
0.0
  0
LWPOLYLINE
  5
3367
330
1E
100
AcDbEntity
  8
1
100
AcDbPolyline
 90
        3
 70
     1
 43
0.0
 10
0.0000000000001279
 20
0.0
 10
-2.950972054112455
 20
0.0
 42
0.4142135623730966
 10
0.0000000000001279
 20
-2.950972054112583
  0
HATCH
  5
3368
330
1E
100
AcDbEntity
  8
1
100
AcDbHatch
 10
0.0
 20
0.0
 30
0.0
210
0.0
220
0.0
230
1.0
  2
SOLID
 70
     1
 71
     0
 91
        2
 92
        7
 72
     1
 73
     1
 93
        3
 10
0.0000000000001279
 20
0.0
 42
0.0
 10
2.950972054112709
 20
0.0
 42
0.4142135623730966
 10
0.0000000000001279
 20
2.950972054112611
 42
0.0
 97
        0
 92
        7
 72
     1
 73
     1
 93
        3
 10
0.0000000000001279
 20
-2.950972054112496
 42
0.0
 10
0.0000000000001279
 20
0.0
 42
0.0
 10
-2.950972054112455
 20
0.0
 42
0.4142135623730953
 97
        0
 75
     0
 76
     1
 47
0.1190009775223266
 98
        2
 10
0.7445530588120306
 20
0.9212244733764975
 10
-1.279464601852807
 20
-1.696796923046291
  0
CIRCLE
  5
3369
330
1E
100
AcDbEntity
  8
1
100
AcDbCircle
 10
0.0000000000001279
 20
0.0
 30
0.0
 40
2.950972054112601
  0
LINE
  5
336A
330
1E
100
AcDbEntity
  8
1
100
AcDbLine
 10
0.0000000000001279
 20
2.950972054112611
 30
0.0
 11
0.0000000000001279
 21
-2.950972054112583
 31
0.0
  0
LINE
  5
336B
330
1E
100
AcDbEntity
  8
1
100
AcDbLine
 10
-2.950972054112709
 20
0.0
 30
0.0
 11
2.950972054112709
 21
0.0
 31
0.0
  0
LWPOLYLINE
  5
336C
330
1E
100
AcDbEntity
  8
1
100
AcDbPolyline
 90
        3
 70
     1
 43
0.0
 10
0.0000000000001279
 20
2.950972054112611
 10
0.0000000000001279
 20
0.0
 10
2.950972054112709
 20
0.0
 42
0.4142135623730966
  0
ENDSEC
  0
SECTION
  2
OBJECTS
  0
DICTIONARY
  5
C
330
0
100
AcDbDictionary
281
     1
  3
ACAD_COLOR
350
34EC
  3
ACAD_GROUP
350
D
  3
ACAD_LAYOUT
350
19
  3
ACAD_MATERIAL
350
34EB
  3
ACAD_MLINESTYLE
350
16
  3
ACAD_PLOTSETTINGS
350
18
  3
ACAD_PLOTSTYLENAME
350
2D33
  3
ACAD_TABLESTYLE
350
34ED
  3
ACDBHEADERROUNDTRIPXREC
350
34F5
  3
AcDbVariableDictionary
350
34F0
1001
ACAD
1000
TREAT_AS_HARD
1070
     0
1000
TREAT_AS_HARD
1070
     0
  0
DICTIONARY
  5
19CB
330
1E
100
AcDbDictionary
280
     1
281
     1
  3
ACAD_LAYOUTSELFREF
360
2517
1001
ACAD
1000
TREAT_AS_HARD
1070
     0
  0
DICTIONARY
  5
19C9
330
1A
100
AcDbDictionary
280
     1
281
     1
  3
ACAD_LAYOUTSELFREF
360
2516
1001
ACAD
1000
TREAT_AS_HARD
1070
     0
  0
DICTIONARY
  5
34EC
102
{ACAD_REACTORS
330
C
102
}
330
C
100
AcDbDictionary
281
     1
  0
DICTIONARY
  5
D
102
{ACAD_REACTORS
330
C
102
}
330
C
100
AcDbDictionary
281
     1
1001
ACAD
1000
TREAT_AS_HARD
1070
     0
1000
TREAT_AS_HARD
1070
     0
  0
DICTIONARY
  5
19
102
{ACAD_REACTORS
330
C
102
}
330
C
100
AcDbDictionary
281
     1
  3
Layout1
350
2D36
  3
Model
350
2D35
1001
ACAD
1000
TREAT_AS_HARD
1070
     0
1000
TREAT_AS_HARD
1070
     0
  0
DICTIONARY
  5
34EB
102
{ACAD_REACTORS
330
C
102
}
330
C
100
AcDbDictionary
281
     1
  0
DICTIONARY
  5
16
102
{ACAD_REACTORS
330
C
102
}
330
C
100
AcDbDictionary
281
     1
  3
STANDARD
350
17
1001
ACAD
1000
TREAT_AS_HARD
1070
     0
1000
TREAT_AS_HARD
1070
     0
  0
DICTIONARY
  5
18
102
{ACAD_REACTORS
330
C
102
}
330
C
100
AcDbDictionary
281
     1
1001
ACAD
1000
TREAT_AS_HARD
1070
     0
1000
TREAT_AS_HARD
1070
     0
  0
ACDBDICTIONARYWDFLT
  5
2D33
102
{ACAD_REACTORS
330
C
102
}
330
C
100
AcDbDictionary
281
     1
  3
Normal
350
2D34
100
AcDbDictionaryWithDefault
340
2D34
  0
DICTIONARY
  5
34ED
102
{ACAD_REACTORS
330
C
102
}
330
C
100
AcDbDictionary
281
     1
  3
Standard
350
34EE
  0
DICTIONARY
  5
34F5
102
{ACAD_REACTORS
330
C
102
}
330
C
100
AcDbDictionary
281
     1
  0
DICTIONARY
  5
34F0
102
{ACAD_REACTORS
330
C
102
}
330
C
100
AcDbDictionary
281
     1
  3
CTABLESTYLE
350
34F1
  3
DIMASSOC
350
34F2
  3
PROJECTNAME
350
34F3
  0
XRECORD
  5
2517
102
{ACAD_REACTORS
330
19CB
102
}
330
19CB
100
AcDbXrecord
280
     1
340
1E
  0
XRECORD
  5
2516
102
{ACAD_REACTORS
330
19C9
102
}
330
19C9
100
AcDbXrecord
280
     1
340
1A
  0
LAYOUT
  5
2D36
102
{ACAD_XDICTIONARY
360
34F8
102
}
102
{ACAD_REACTORS
330
19
102
}
330
19
100
AcDbPlotSettings
  1

  2
\\ingdom02\ITB2
  4

  6

 40
0.0
 41
0.0
 42
0.0
 43
0.0
 44
0.0
 45
0.0
 46
0.0
 47
0.0
 48
0.0
 49
0.0
140
0.0
141
0.0
142
1.0
143
1.0
 70
   688
 72
     0
 73
     0
 74
     5
  7

 75
    16
147
1.0
148
0.0
149
0.0
100
AcDbLayout
  1
Layout1
 70
     1
 71
     1
 10
0.0
 20
0.0
 11
12.0
 21
9.0
 12
0.0
 22
0.0
 32
0.0
 14
100.0
 24
100.0
 34
100.0
 15
-100.0
 25
-100.0
 35
-100.0
146
0.0
 13
0.0
 23
0.0
 33
0.0
 16
1.0
 26
0.0
 36
0.0
 17
0.0
 27
1.0
 37
0.0
 76
     0
330
1A
  0
LAYOUT
  5
2D35
102
{ACAD_XDICTIONARY
360
34F6
102
}
102
{ACAD_REACTORS
330
19
102
}
330
19
100
AcDbPlotSettings
  1

  2
\\ingdom02\ITB2
  4

  6

 40
0.0
 41
0.0
 42
0.0
 43
0.0
 44
0.0
 45
0.0
 46
0.0
 47
0.0
 48
0.0
 49
0.0
140
0.0
141
0.0
142
1.0
143
1.0
 70
  1712
 72
     0
 73
     0
 74
     0
  7

 75
     0
147
1.0
148
0.0
149
0.0
100
AcDbLayout
  1
Model
 70
     1
 71
     0
 10
0.0
 20
0.0
 11
12.0
 21
9.0
 12
0.0
 22
0.0
 32
0.0
 14
0.0
 24
0.0
 34
0.0
 15
0.0
 25
0.0
 35
0.0
146
0.0
 13
0.0
 23
0.0
 33
0.0
 16
1.0
 26
0.0
 36
0.0
 17
0.0
 27
1.0
 37
0.0
 76
     0
330
1E
  0
MLINESTYLE
  5
17
102
{ACAD_REACTORS
330
16
102
}
330
16
100
AcDbMlineStyle
  2
STANDARD
 70
     0
  3

 62
   256
 51
90.0
 52
90.0
 71
     2
 49
0.5
 62
   256
  6
BYLAYER
 49
-0.5
 62
   256
  6
BYLAYER
  0
ACDBPLACEHOLDER
  5
2D34
102
{ACAD_REACTORS
330
2D33
102
}
330
2D33
  0
TABLESTYLE
  5
34EE
102
{ACAD_REACTORS
330
34ED
102
}
330
34ED
100
AcDbTableStyle
  3
Standard
 70
     0
 71
     0
 40
0.06
 41
0.06
280
     0
281
     0
  7
STANDARD
140
0.18
170
     2
 62
     0
 63
     7
283
     0
274
    -2
284
     1
 64
     0
275
    -2
285
     1
 65
     0
276
    -2
286
     1
 66
     0
277
    -2
287
     1
 67
     0
278
    -2
288
     1
 68
     0
279
    -2
289
     1
 69
     0
  7
STANDARD
140
0.25
170
     5
 62
     0
 63
     7
283
     0
274
    -2
284
     1
 64
     0
275
    -2
285
     1
 65
     0
276
    -2
286
     1
 66
     0
277
    -2
287
     1
 67
     0
278
    -2
288
     1
 68
     0
279
    -2
289
     1
 69
     0
  7
STANDARD
140
0.18
170
     5
 62
     0
 63
     7
283
     0
274
    -2
284
     1
 64
     0
275
    -2
285
     1
 65
     0
276
    -2
286
     1
 66
     0
277
    -2
287
     1
 67
     0
278
    -2
288
     1
 68
     0
279
    -2
289
     1
 69
     0
  0
DICTIONARYVAR
  5
34F1
102
{ACAD_REACTORS
330
34F0
102
}
330
34F0
100
DictionaryVariables
280
     0
  1
STANDARD
  0
DICTIONARYVAR
  5
34F2
102
{ACAD_REACTORS
330
34F0
102
}
330
34F0
100
DictionaryVariables
280
     0
  1
1
  0
DICTIONARYVAR
  5
34F3
102
{ACAD_REACTORS
330
34F0
102
}
330
34F0
100
DictionaryVariables
280
     0
  1

  0
DICTIONARY
  5
34F8
330
2D36
100
AcDbDictionary
280
     1
281
     1
  3
ACAD_XREC_ROUNDTRIP
360
34F9
  0
DICTIONARY
  5
34F6
330
2D35
100
AcDbDictionary
280
     1
281
     1
  3
ACAD_XREC_ROUNDTRIP
360
34F7
  0
XRECORD
  5
34F9
102
{ACAD_REACTORS
330
34F8
102
}
330
34F8
100
AcDbXrecord
280
     1
102
SHADEPLOT
 70
     0
102
SHADEPLOTRESLEVEL
 70
     2
102
SHADEPLOTCUSTOMDPI
 70
   300
  0
XRECORD
  5
34F7
102
{ACAD_REACTORS
330
34F6
102
}
330
34F6
100
AcDbXrecord
280
     1
102
SHADEPLOT
 70
     0
102
SHADEPLOTRESLEVEL
 70
     2
102
SHADEPLOTCUSTOMDPI
 70
   300
  0
ENDSEC
  0
EOF
