  0
SECTION
  2
HEADER
  9
$ACADVER
  1
AC1015
  9
$ACADMAINTVER
 70
    20
  9
$DWGCODEPAGE
  3
ANSI_1252
  9
$INSBASE
 10
0.0
 20
0.0
 30
0.0
  9
$EXTMIN
 10
-67.93274380567709
 20
-61.43168085273202
 30
-0.0015258207003583
  9
$EXTMAX
 10
142.9613679588187
 20
18.71468774833704
 30
0.0000000349246037
  9
$LIMMIN
 10
0.0
 20
0.0
  9
$LIMMAX
 10
594.0
 20
420.0
  9
$ORTHOMODE
 70
     0
  9
$REGENMODE
 70
     1
  9
$FILLMODE
 70
     1
  9
$QTEXTMODE
 70
     0
  9
$MIRRTEXT
 70
     1
  9
$LTSCALE
 40
10.0
  9
$ATTMODE
 70
     1
  9
$TEXTSIZE
 40
0.2
  9
$TRACEWID
 40
0.05
  9
$TEXTSTYLE
  7
STANDARD
  9
$CLAYER
  8
0
  9
$CELTYPE
  6
BYLAYER
  9
$CECOLOR
 62
   256
  9
$CELTSCALE
 40
1.0
  9
$DISPSILH
 70
     0
  9
$DIMSCALE
 40
1.0
  9
$DIMASZ
 40
2.5
  9
$DIMEXO
 40
3.712499999999999
  9
$DIMDLI
 40
22.572
  9
$DIMRND
 40
0.0
  9
$DIMDLE
 40
0.0
  9
$DIMEXE
 40
10.692
  9
$DIMTP
 40
0.01
  9
$DIMTM
 40
0.01
  9
$DIMTXT
 40
3.5
  9
$DIMCEN
 40
5.346
  9
$DIMTSZ
 40
0.0
  9
$DIMTOL
 70
     1
  9
$DIMLIM
 70
     0
  9
$DIMTIH
 70
     1
  9
$DIMTOH
 70
     1
  9
$DIMSE1
 70
     0
  9
$DIMSE2
 70
     0
  9
$DIMTAD
 70
     0
  9
$DIMZIN
 70
     0
  9
$DIMBLK
  1
_FILLED
  9
$DIMASO
 70
     1
  9
$DIMSHO
 70
     1
  9
$DIMPOST
  1

  9
$DIMAPOST
  1

  9
$DIMALT
 70
     0
  9
$DIMALTD
 70
     2
  9
$DIMALTF
 40
25.4
  9
$DIMLFAC
 40
1.0
  9
$DIMTOFL
 70
     0
  9
$DIMTVP
 40
0.0
  9
$DIMTIX
 70
     0
  9
$DIMSOXD
 70
     0
  9
$DIMSAH
 70
     0
  9
$DIMBLK1
  1

  9
$DIMBLK2
  1

  9
$DIMSTYLE
  2
STANDARD
  9
$DIMCLRD
 70
     0
  9
$DIMCLRE
 70
     0
  9
$DIMCLRT
 70
     0
  9
$DIMTFAC
 40
1.0
  9
$DIMGAP
 40
0.09
  9
$DIMJUST
 70
     0
  9
$DIMSD1
 70
     0
  9
$DIMSD2
 70
     0
  9
$DIMTOLJ
 70
     1
  9
$DIMTZIN
 70
     0
  9
$DIMALTZ
 70
     0
  9
$DIMALTTZ
 70
     0
  9
$DIMUPT
 70
     0
  9
$DIMDEC
 70
     4
  9
$DIMTDEC
 70
     4
  9
$DIMALTU
 70
     2
  9
$DIMALTTD
 70
     2
  9
$DIMTXSTY
  7
STANDARD
  9
$DIMAUNIT
 70
     0
  9
$DIMADEC
 70
     0
  9
$DIMALTRND
 40
0.0
  9
$DIMAZIN
 70
     0
  9
$DIMDSEP
 70
    46
  9
$DIMATFIT
 70
     3
  9
$DIMFRAC
 70
     0
  9
$DIMLDRBLK
  1
_FILLED
  9
$DIMLUNIT
 70
     2
  9
$DIMLWD
 70
    -2
  9
$DIMLWE
 70
    -2
  9
$DIMTMOVE
 70
     0
  9
$LUNITS
 70
     2
  9
$LUPREC
 70
     4
  9
$SKETCHINC
 40
0.1
  9
$FILLETRAD
 40
0.0
  9
$AUNITS
 70
     0
  9
$AUPREC
 70
     0
  9
$MENU
  1

  9
$ELEVATION
 40
0.0
  9
$PELEVATION
 40
0.0
  9
$THICKNESS
 40
0.0
  9
$LIMCHECK
 70
     0
  9
$CHAMFERA
 40
0.0
  9
$CHAMFERB
 40
0.0
  9
$CHAMFERC
 40
0.0
  9
$CHAMFERD
 40
0.0
  9
$SKPOLY
 70
     0
  9
$TDCREATE
 40
2453413.455000046
  9
$TDUCREATE
 40
2453413.371666713
  9
$TDUPDATE
 40
2453909.276259386
  9
$TDUUPDATE
 40
2453909.192926054
  9
$TDINDWG
 40
0.1471735648
  9
$TDUSRTIMER
 40
0.0290809491
  9
$USRTIMER
 70
     1
  9
$ANGBASE
 50
0.0
  9
$ANGDIR
 70
     0
  9
$PDMODE
 70
     0
  9
$PDSIZE
 40
0.3125
  9
$PLINEWID
 40
0.0
  9
$SPLFRAME
 70
     0
  9
$SPLINETYPE
 70
     6
  9
$SPLINESEGS
 70
     8
  9
$HANDSEED
  5
3425
  9
$SURFTAB1
 70
     6
  9
$SURFTAB2
 70
     6
  9
$SURFTYPE
 70
     6
  9
$SURFU
 70
     6
  9
$SURFV
 70
     6
  9
$UCSBASE
  2

  9
$UCSNAME
  2

  9
$UCSORG
 10
0.0
 20
0.0
 30
0.0
  9
$UCSXDIR
 10
1.0
 20
0.0
 30
0.0
  9
$UCSYDIR
 10
0.0
 20
1.0
 30
0.0
  9
$UCSORTHOREF
  2

  9
$UCSORTHOVIEW
 70
     0
  9
$UCSORGTOP
 10
0.0
 20
0.0
 30
0.0
  9
$UCSORGBOTTOM
 10
0.0
 20
0.0
 30
0.0
  9
$UCSORGLEFT
 10
0.0
 20
0.0
 30
0.0
  9
$UCSORGRIGHT
 10
0.0
 20
0.0
 30
0.0
  9
$UCSORGFRONT
 10
0.0
 20
0.0
 30
0.0
  9
$UCSORGBACK
 10
0.0
 20
0.0
 30
0.0
  9
$PUCSBASE
  2

  9
$PUCSNAME
  2

  9
$PUCSORG
 10
0.0
 20
0.0
 30
0.0
  9
$PUCSXDIR
 10
1.0
 20
0.0
 30
0.0
  9
$PUCSYDIR
 10
0.0
 20
1.0
 30
0.0
  9
$PUCSORTHOREF
  2

  9
$PUCSORTHOVIEW
 70
     0
  9
$PUCSORGTOP
 10
0.0
 20
0.0
 30
0.0
  9
$PUCSORGBOTTOM
 10
0.0
 20
0.0
 30
0.0
  9
$PUCSORGLEFT
 10
0.0
 20
0.0
 30
0.0
  9
$PUCSORGRIGHT
 10
0.0
 20
0.0
 30
0.0
  9
$PUCSORGFRONT
 10
0.0
 20
0.0
 30
0.0
  9
$PUCSORGBACK
 10
0.0
 20
0.0
 30
0.0
  9
$USERI1
 70
     0
  9
$USERI2
 70
     0
  9
$USERI3
 70
     0
  9
$USERI4
 70
     0
  9
$USERI5
 70
     0
  9
$USERR1
 40
0.0
  9
$USERR2
 40
0.0
  9
$USERR3
 40
0.0
  9
$USERR4
 40
0.0
  9
$USERR5
 40
0.0
  9
$WORLDVIEW
 70
     1
  9
$SHADEDGE
 70
     3
  9
$SHADEDIF
 70
    70
  9
$TILEMODE
 70
     1
  9
$MAXACTVP
 70
    64
  9
$PINSBASE
 10
0.0
 20
0.0
 30
0.0
  9
$PLIMCHECK
 70
     0
  9
$PEXTMIN
 10
100.0
 20
100.0
 30
100.0
  9
$PEXTMAX
 10
-100.0
 20
-100.0
 30
-100.0
  9
$PLIMMIN
 10
0.0
 20
0.0
  9
$PLIMMAX
 10
12.0
 20
9.0
  9
$UNITMODE
 70
     0
  9
$VISRETAIN
 70
     1
  9
$PLINEGEN
 70
     1
  9
$PSLTSCALE
 70
     1
  9
$TREEDEPTH
 70
  3020
  9
$CMLSTYLE
  2
STANDARD
  9
$CMLJUST
 70
     0
  9
$CMLSCALE
 40
1.0
  9
$PROXYGRAPHICS
 70
     1
  9
$MEASUREMENT
 70
     0
  9
$CELWEIGHT
370
    -1
  9
$ENDCAPS
280
     0
  9
$JOINSTYLE
280
     0
  9
$LWDISPLAY
290
     0
  9
$INSUNITS
 70
     0
  9
$HYPERLINKBASE
  1

  9
$STYLESHEET
  1

  9
$XEDIT
290
     1
  9
$CEPSNTYPE
380
     0
  9
$PSTYLEMODE
290
     1
  9
$FINGERPRINTGUID
  2
{1FC996A8-459D-482A-9A27-FE111F6189E8}
  9
$VERSIONGUID
  2
{C490EA30-7799-4E13-97A8-5AF23E522D13}
  9
$EXTNAMES
290
     1
  9
$PSVPSCALE
 40
0.0
  9
$OLESTARTUP
290
     0
  0
ENDSEC
  0
SECTION
  2
CLASSES
  0
CLASS
  1
ACDBDICTIONARYWDFLT
  2
AcDbDictionaryWithDefault
  3
ObjectDBX Classes
 90
        0
280
     0
281
     0
  0
CLASS
  1
ACDBPLACEHOLDER
  2
AcDbPlaceHolder
  3
ObjectDBX Classes
 90
        0
280
     0
281
     0
  0
CLASS
  1
LAYOUT
  2
AcDbLayout
  3
ObjectDBX Classes
 90
        0
280
     0
281
     0
  0
CLASS
  1
TABLESTYLE
  2
AcDbTableStyle
  3
ObjectDBX Classes
 90
     2047
280
     0
281
     0
  0
CLASS
  1
DICTIONARYVAR
  2
AcDbDictionaryVar
  3
ObjectDBX Classes
 90
        0
280
     0
281
     0
  0
ENDSEC
  0
SECTION
  2
TABLES
  0
TABLE
  2
VPORT
  5
8
330
0
100
AcDbSymbolTable
 70
     2
  0
VPORT
  5
341F
330
8
100
AcDbSymbolTableRecord
100
AcDbViewportTableRecord
  2
*Active
 70
     0
 10
0.0
 20
0.0
 11
1.0
 21
1.0
 12
37.51431207657082
 22
-21.35849655219749
 13
0.0
 23
0.0
 14
1.0
 24
1.0
 15
0.0
 25
0.0
 16
0.0
 26
0.0
 36
1.0
 17
0.0
 27
0.0
 37
0.0
 40
138.3070959347925
 41
1.532401524777636
 42
50.0
 43
0.0
 44
0.0
 50
0.0
 51
0.0
 71
     0
 72
   100
 73
     1
 74
     1
 75
     0
 76
     0
 77
     0
 78
     0
281
     0
 65
     1
110
0.0
120
0.0
130
0.0
111
1.0
121
0.0
131
0.0
112
0.0
122
1.0
132
0.0
 79
     0
146
0.0
  0
ENDTAB
  0
TABLE
  2
LTYPE
  5
5
330
0
100
AcDbSymbolTable
 70
     2
  0
LTYPE
  5
13
330
5
100
AcDbSymbolTableRecord
100
AcDbLinetypeTableRecord
  2
BYBLOCK
 70
     0
  3

 72
    65
 73
     0
 40
0.0
  0
LTYPE
  5
14
330
5
100
AcDbSymbolTableRecord
100
AcDbLinetypeTableRecord
  2
BYLAYER
 70
     0
  3

 72
    65
 73
     0
 40
0.0
  0
LTYPE
  5
15
330
5
100
AcDbSymbolTableRecord
100
AcDbLinetypeTableRecord
  2
CONTINUOUS
 70
     0
  3
Solid line
 72
    65
 73
     0
 40
0.0
  0
LTYPE
  5
2E
330
5
100
AcDbSymbolTableRecord
100
AcDbLinetypeTableRecord
  2
CENTER
 70
     0
  3
____ _ ____ _ ____ _ ____ _ ____ _ ____ _ ____
 72
    65
 73
     4
 40
0.6
 49
0.375
 74
     0
 49
-0.075
 74
     0
 49
0.075
 74
     0
 49
-0.075
 74
     0
  0
ENDTAB
  0
TABLE
  2
LAYER
  5
2
330
0
100
AcDbSymbolTable
 70
    11
  0
LAYER
  5
10
330
2
100
AcDbSymbolTableRecord
100
AcDbLayerTableRecord
  2
1
 70
     0
 62
     4
  6
CONTINUOUS
370
    -3
390
2CE3
  0
LAYER
  5
31
330
2
100
AcDbSymbolTableRecord
100
AcDbLayerTableRecord
  2
2
 70
     0
 62
     7
  6
CONTINUOUS
370
    -3
390
2CE3
  0
LAYER
  5
33
330
2
100
AcDbSymbolTableRecord
100
AcDbLayerTableRecord
  2
4
 70
     0
 62
     2
  6
CENTER
370
    -3
390
2CE3
  0
LAYER
  5
36
330
2
100
AcDbSymbolTableRecord
100
AcDbLayerTableRecord
  2
0
 70
     0
 62
     7
  6
CONTINUOUS
370
    -3
390
2CE3
  0
LAYER
  5
37
330
2
100
AcDbSymbolTableRecord
100
AcDbLayerTableRecord
  2
DEFPOINTS
 70
     0
 62
     7
  6
CONTINUOUS
290
     0
370
    -3
390
2CE3
  0
LAYER
  5
B11
330
2
100
AcDbSymbolTableRecord
100
AcDbLayerTableRecord
  2
SK1
 70
     0
 62
     4
  6
CONTINUOUS
370
    -3
390
2CE3
  0
LAYER
  5
B12
330
2
100
AcDbSymbolTableRecord
100
AcDbLayerTableRecord
  2
SK4
 70
     0
 62
     2
  6
CENTER
370
    -3
390
2CE3
  0
LAYER
  5
B14
330
2
100
AcDbSymbolTableRecord
100
AcDbLayerTableRecord
  2
SK2
 70
     0
 62
     7
  6
CONTINUOUS
370
    -3
390
2CE3
  0
LAYER
  5
2D4D
330
2
100
AcDbSymbolTableRecord
100
AcDbLayerTableRecord
  2
6
 70
     0
 62
     5
  6
CONTINUOUS
370
    -3
390
2CE3
  0
LAYER
  5
2D4E
330
2
100
AcDbSymbolTableRecord
100
AcDbLayerTableRecord
  2
CUT
 70
     0
 62
     1
  6
CONTINUOUS
370
    -3
390
2CE3
  0
LAYER
  5
2D4F
330
2
100
AcDbSymbolTableRecord
100
AcDbLayerTableRecord
  2
NOCUT
 70
     0
 62
     7
  6
CONTINUOUS
370
    -3
390
2CE3
  0
ENDTAB
  0
TABLE
  2
STYLE
  5
3
330
0
100
AcDbSymbolTable
 70
     1
  0
STYLE
  5
11
330
3
100
AcDbSymbolTableRecord
100
AcDbTextStyleTableRecord
  2
STANDARD
 70
     0
 40
0.0
 41
0.8
 50
0.0
 71
     0
 42
0.2
  3
isocp.shx
  4

  0
ENDTAB
  0
TABLE
  2
VIEW
  5
6
330
0
100
AcDbSymbolTable
 70
     0
  0
ENDTAB
  0
TABLE
  2
UCS
  5
7
330
0
100
AcDbSymbolTable
 70
     0
  0
ENDTAB
  0
TABLE
  2
APPID
  5
9
330
0
100
AcDbSymbolTable
 70
     1
  0
APPID
  5
12
330
9
100
AcDbSymbolTableRecord
100
AcDbRegAppTableRecord
  2
ACAD
 70
     0
  0
ENDTAB
  0
TABLE
  2
DIMSTYLE
  5
A
330
0
100
AcDbSymbolTable
 70
     2
100
AcDbDimStyleTable
 71
     1
340
30
  0
DIMSTYLE
105
30
330
A
100
AcDbSymbolTableRecord
100
AcDbDimStyleTableRecord
  2
STANDARD
 70
     0
340
11
  0
DIMSTYLE
105
B15
102
{ACAD_REACTORS
330
8C
330
5D4
330
8A
330
8D
330
8B
102
}
330
A
100
AcDbSymbolTableRecord
100
AcDbDimStyleTableRecord
  2
ISO-25
 70
     0
 41
2.5
 42
0.625
 43
3.75
 44
1.25
 73
     0
 74
     0
 77
     1
 78
     8
140
2.5
141
2.5
143
0.03937007874016
147
0.625
171
     3
172
     1
271
     2
272
     2
274
     3
283
     0
284
     8
340
11
  0
ENDTAB
  0
TABLE
  2
BLOCK_RECORD
  5
1
330
0
100
AcDbSymbolTable
 70
     6
  0
BLOCK_RECORD
  5
1E
102
{ACAD_XDICTIONARY
360
227E
102
}
330
1
100
AcDbSymbolTableRecord
100
AcDbBlockTableRecord
  2
*MODEL_SPACE
340
2CE4
  0
BLOCK_RECORD
  5
1A
102
{ACAD_XDICTIONARY
360
227C
102
}
330
1
100
AcDbSymbolTableRecord
100
AcDbBlockTableRecord
  2
*PAPER_SPACE
340
2CE5
  0
BLOCK_RECORD
  5
23
330
1
100
AcDbSymbolTableRecord
100
AcDbBlockTableRecord
  2
_FILLED
340
0
  0
BLOCK_RECORD
  5
C03
330
1
100
AcDbSymbolTableRecord
100
AcDbBlockTableRecord
  2
*D1
340
0
  0
BLOCK_RECORD
  5
C0F
330
1
100
AcDbSymbolTableRecord
100
AcDbBlockTableRecord
  2
*D2
340
0
  0
BLOCK_RECORD
  5
C1B
330
1
100
AcDbSymbolTableRecord
100
AcDbBlockTableRecord
  2
*D3
340
0
  0
BLOCK_RECORD
  5
C27
330
1
100
AcDbSymbolTableRecord
100
AcDbBlockTableRecord
  2
*D4
340
0
  0
BLOCK_RECORD
  5
C33
330
1
100
AcDbSymbolTableRecord
100
AcDbBlockTableRecord
  2
*D5
340
0
  0
ENDTAB
  0
ENDSEC
  0
SECTION
  2
BLOCKS
  0
BLOCK
  5
3A
330
1E
100
AcDbEntity
  8
0
100
AcDbBlockBegin
  2
*MODEL_SPACE
 70
     0
 10
0.0
 20
0.0
 30
0.0
  3
*MODEL_SPACE
  1

  0
ENDBLK
  5
3B
330
1E
100
AcDbEntity
  8
0
100
AcDbBlockEnd
  0
BLOCK
  5
38
330
1A
100
AcDbEntity
 67
     1
  8
0
100
AcDbBlockBegin
  2
*PAPER_SPACE
 70
     0
 10
0.0
 20
0.0
 30
0.0
  3
*PAPER_SPACE
  1

  0
ENDBLK
  5
39
330
1A
100
AcDbEntity
 67
     1
  8
0
100
AcDbBlockEnd
  0
BLOCK
  5
3E
330
23
100
AcDbEntity
  8
0
100
AcDbBlockBegin
  2
_FILLED
 70
     0
 10
0.0
 20
0.0
 30
0.0
  3
_FILLED
  1

  0
SOLID
  5
3F
330
23
100
AcDbEntity
  8
0
  6
ByBlock
 62
     0
100
AcDbTrace
 10
0.0
 20
0.0
 30
0.0
 11
-1.0
 21
0.132
 31
0.0
 12
-1.0
 22
-0.132
 32
0.0
 13
-1.0
 23
-0.132
 33
0.0
  0
ENDBLK
  5
40
330
23
100
AcDbEntity
  8
0
100
AcDbBlockEnd
  0
BLOCK
  5
C0D
330
C03
100
AcDbEntity
  8
0
100
AcDbBlockBegin
  2
*D1
 70
     1
 10
0.0
 20
0.0
 30
0.0
  3
*D1
  1

  0
LINE
  5
3412
330
C03
100
AcDbEntity
  8
SK2
 62
     0
370
    -2
100
AcDbLine
 10
-55.425
 20
-12.49999999999999
 30
0.0
 11
-66.02590223874677
 21
-12.49999999999999
 31
0.0
  0
LINE
  5
3413
330
C03
100
AcDbEntity
  8
SK2
 62
     0
370
    -2
100
AcDbLine
 10
-57.0744145808062
 20
12.5
 30
0.0
 11
-66.02590223874677
 21
12.5
 31
0.0
  0
LINE
  5
3414
330
C03
100
AcDbEntity
  8
SK2
 62
     0
370
    -2
100
AcDbLine
 10
-64.77590223874677
 20
-9.999999999999989
 30
0.0
 11
-64.77590223874677
 21
10.0
 31
0.0
  0
SOLID
  5
3415
330
C03
100
AcDbEntity
  8
SK2
 62
     0
100
AcDbTrace
 10
-65.19256890541344
 20
-9.999999999999989
 30
0.0
 11
-64.3592355720801
 21
-9.999999999999989
 31
0.0
 12
-64.77590223874677
 22
-12.49999999999999
 32
0.0
 13
-64.77590223874677
 23
-12.49999999999999
 33
0.0
  0
SOLID
  5
3416
330
C03
100
AcDbEntity
  8
SK2
 62
     0
100
AcDbTrace
 10
-65.19256890541344
 20
10.0
 30
0.0
 11
-64.3592355720801
 21
10.0
 31
0.0
 12
-64.77590223874677
 22
12.5
 32
0.0
 13
-64.77590223874677
 23
12.5
 33
0.0
  0
MTEXT
  5
3417
330
C03
100
AcDbEntity
  8
SK2
 62
     0
100
AcDbMText
 10
-66.6511483017389
 20
0.058392324142915
 30
0.0
 40
2.5
 41
0.0
 71
     5
 72
     1
  1
%%c25
 11
0.0000000000000001
 21
1.0
 31
0.0
 73
     1
 44
1.0
1001
ACAD
1000
MTEXTBEGIN
1070
    73
1070
     1
1070
    44
1040
1.0
1070
    74
1070
     0
1000
MTEXTEND
  0
POINT
  5
3418
330
C03
100
AcDbEntity
  8
DEFPOINTS
 62
     0
100
AcDbPoint
 10
-54.8
 20
-12.49999999999999
 30
0.0
  0
POINT
  5
3419
330
C03
100
AcDbEntity
  8
DEFPOINTS
 62
     0
100
AcDbPoint
 10
-56.4494145808062
 20
12.5
 30
0.0
  0
POINT
  5
341A
330
C03
100
AcDbEntity
  8
DEFPOINTS
 62
     0
100
AcDbPoint
 10
-64.77590223874677
 20
12.5
 30
0.0
  0
ENDBLK
  5
C0E
330
C03
100
AcDbEntity
  8
0
100
AcDbBlockEnd
  0
BLOCK
  5
C19
330
C0F
100
AcDbEntity
  8
0
100
AcDbBlockBegin
  2
*D2
 70
     1
 10
0.0
 20
0.0
 30
0.0
  3
*D2
  1

  0
LINE
  5
2CE6
330
C0F
100
AcDbEntity
  8
SK2
 62
     0
370
    -2
100
AcDbLine
 10
-24.0
 20
-0.6249999999999975
 30
0.0
 11
-24.0
 21
-34.93309480404333
 31
0.0
  0
LINE
  5
2CE7
330
C0F
100
AcDbEntity
  8
SK2
 62
     0
370
    -2
100
AcDbLine
 10
121.0
 20
-8.625000000000012
 30
0.0
 11
121.0
 21
-34.93309480404333
 31
0.0
  0
LINE
  5
2CE8
330
C0F
100
AcDbEntity
  8
SK2
 62
     0
370
    -2
100
AcDbLine
 10
-21.49999999999999
 20
-33.68309480404333
 30
0.0
 11
118.5
 21
-33.68309480404333
 31
0.0
  0
SOLID
  5
2CE9
330
C0F
100
AcDbEntity
  8
SK2
 62
     0
100
AcDbTrace
 10
-21.49999999999999
 20
-33.26642813737667
 30
0.0
 11
-21.49999999999999
 21
-34.09976147070997
 31
0.0
 12
-24.0
 22
-33.68309480404333
 32
0.0
 13
-24.0
 23
-33.68309480404333
 33
0.0
  0
SOLID
  5
2CEA
330
C0F
100
AcDbEntity
  8
SK2
 62
     0
100
AcDbTrace
 10
118.5
 20
-33.26642813737667
 30
0.0
 11
118.5
 21
-34.09976147070997
 31
0.0
 12
121.0
 22
-33.68309480404333
 32
0.0
 13
121.0
 23
-33.68309480404333
 33
0.0
  0
MTEXT
  5
2CEB
330
C0F
100
AcDbEntity
  8
SK2
 62
     0
100
AcDbMText
 10
48.49999999999999
 20
-31.80809480404332
 30
0.0
 40
2.5
 41
0.0
 71
     5
 72
     1
  1
145
 73
     1
 44
1.0
1001
ACAD
1000
MTEXTBEGIN
1070
    73
1070
     1
1070
    44
1040
1.0
1070
    74
1070
     0
1000
MTEXTEND
  0
POINT
  5
2CEC
330
C0F
100
AcDbEntity
  8
DEFPOINTS
 62
     0
100
AcDbPoint
 10
-24.0
 20
0.0000000000000029
 30
0.0
  0
POINT
  5
2CED
330
C0F
100
AcDbEntity
  8
DEFPOINTS
 62
     0
100
AcDbPoint
 10
121.0
 20
-8.000000000000012
 30
0.0
  0
POINT
  5
2CEE
330
C0F
100
AcDbEntity
  8
DEFPOINTS
 62
     0
100
AcDbPoint
 10
121.0
 20
-33.68309480404333
 30
0.0
  0
ENDBLK
  5
C1A
330
C0F
100
AcDbEntity
  8
0
100
AcDbBlockEnd
  0
BLOCK
  5
C25
330
C1B
100
AcDbEntity
  8
0
100
AcDbBlockBegin
  2
*D3
 70
     1
 10
0.0
 20
0.0
 30
0.0
  3
*D3
  1

  0
LINE
  5
2CEF
330
C1B
100
AcDbEntity
  8
SK2
 62
     0
370
    -2
100
AcDbLine
 10
121.0
 20
-2.841371688790001
 30
0.0
 11
121.0
 21
-45.02633395340184
 31
0.0
  0
LINE
  5
2CF0
330
C1B
100
AcDbEntity
  8
SK2
 62
     0
370
    -2
100
AcDbLine
 10
-56.0
 20
-15.9007512920425
 30
0.0
 11
-56.0
 21
-45.02633395340184
 31
0.0
  0
LINE
  5
2CF1
330
C1B
100
AcDbEntity
  8
SK2
 62
     0
370
    -2
100
AcDbLine
 10
118.5
 20
-43.77633395340184
 30
0.0
 11
-53.5
 21
-43.77633395340184
 31
0.0
  0
SOLID
  5
2CF2
330
C1B
100
AcDbEntity
  8
SK2
 62
     0
100
AcDbTrace
 10
118.5
 20
-43.35966728673517
 30
0.0
 11
118.5
 21
-44.1930006200685
 31
0.0
 12
121.0
 22
-43.77633395340184
 32
0.0
 13
121.0
 23
-43.77633395340184
 33
0.0
  0
SOLID
  5
2CF3
330
C1B
100
AcDbEntity
  8
SK2
 62
     0
100
AcDbTrace
 10
-53.5
 20
-43.35966728673517
 30
0.0
 11
-53.5
 21
-44.1930006200685
 31
0.0
 12
-56.0
 22
-43.77633395340184
 32
0.0
 13
-56.0
 23
-43.77633395340184
 33
0.0
  0
MTEXT
  5
2CF4
330
C1B
100
AcDbEntity
  8
SK2
 62
     0
100
AcDbMText
 10
33.46395314053413
 20
-41.90133395340184
 30
0.0
 40
2.5
 41
0.0
 71
     5
 72
     1
  1
177
 73
     1
 44
1.0
1001
ACAD
1000
MTEXTBEGIN
1070
    73
1070
     1
1070
    44
1040
1.0
1070
    74
1070
     0
1000
MTEXTEND
  0
POINT
  5
2CF5
330
C1B
100
AcDbEntity
  8
DEFPOINTS
 62
     0
100
AcDbPoint
 10
121.0
 20
-2.216371688790002
 30
0.0
  0
POINT
  5
2CF6
330
C1B
100
AcDbEntity
  8
DEFPOINTS
 62
     0
100
AcDbPoint
 10
-56.0
 20
-15.2757512920425
 30
0.0
  0
POINT
  5
2CF7
330
C1B
100
AcDbEntity
  8
DEFPOINTS
 62
     0
100
AcDbPoint
 10
-56.0
 20
-43.77633395340184
 30
0.0
  0
ENDBLK
  5
C26
330
C1B
100
AcDbEntity
  8
0
100
AcDbBlockEnd
  0
BLOCK
  5
C31
330
C27
100
AcDbEntity
  8
0
100
AcDbBlockBegin
  2
*D4
 70
     1
 10
0.0
 20
0.0
 30
0.0
  3
*D4
  1

  0
LINE
  5
3119
330
C27
100
AcDbEntity
  8
2
 62
     0
370
    -2
100
AcDbLine
 10
121.0
 20
-2.005749322035413
 30
0.0
 11
121.0
 21
-23.05022184492917
 31
0.0
  0
LINE
  5
311A
330
C27
100
AcDbEntity
  8
2
 62
     0
370
    -2
100
AcDbLine
 10
81.0
 20
6.12499999999999
 30
0.0
 11
81.0
 21
-23.05022184492917
 31
0.0
  0
LINE
  5
311B
330
C27
100
AcDbEntity
  8
2
 62
     0
370
    -2
100
AcDbLine
 10
118.5
 20
-21.80022184492917
 30
0.0
 11
83.49999999999999
 21
-21.80022184492917
 31
0.0
  0
SOLID
  5
311C
330
C27
100
AcDbEntity
  8
2
 62
     0
100
AcDbTrace
 10
118.5
 20
-21.3835551782625
 30
0.0
 11
118.5
 21
-22.21688851159582
 31
0.0
 12
121.0
 22
-21.80022184492917
 32
0.0
 13
121.0
 23
-21.80022184492917
 33
0.0
  0
SOLID
  5
311D
330
C27
100
AcDbEntity
  8
2
 62
     0
100
AcDbTrace
 10
83.49999999999999
 20
-21.3835551782625
 30
0.0
 11
83.49999999999999
 21
-22.21688851159582
 31
0.0
 12
81.0
 22
-21.80022184492917
 32
0.0
 13
81.0
 23
-21.80022184492917
 33
0.0
  0
MTEXT
  5
311E
330
C27
100
AcDbEntity
  8
2
 62
     0
100
AcDbMText
 10
101.1851111828
 20
-19.92522184492917
 30
0.0
 40
2.5
 41
0.0
 71
     5
 72
     1
  1
40
 73
     1
 44
1.0
1001
ACAD
1000
MTEXTBEGIN
1070
    73
1070
     1
1070
    44
1040
1.0
1070
    74
1070
     0
1000
MTEXTEND
  0
POINT
  5
311F
330
C27
100
AcDbEntity
  8
DEFPOINTS
 62
     0
100
AcDbPoint
 10
121.0
 20
-1.380749322035413
 30
0.0
  0
POINT
  5
3120
330
C27
100
AcDbEntity
  8
DEFPOINTS
 62
     0
100
AcDbPoint
 10
81.0
 20
6.74999999999999
 30
0.0
  0
POINT
  5
3121
330
C27
100
AcDbEntity
  8
DEFPOINTS
 62
     0
100
AcDbPoint
 10
81.0
 20
-21.80022184492917
 30
0.0
  0
ENDBLK
  5
C32
330
C27
100
AcDbEntity
  8
0
100
AcDbBlockEnd
  0
BLOCK
  5
C3F
330
C33
100
AcDbEntity
  8
0
100
AcDbBlockBegin
  2
*D5
 70
     1
 10
0.0
 20
0.0
 30
0.0
  3
*D5
  1

  0
LINE
  5
2D01
330
C33
100
AcDbEntity
  8
2
 62
     0
370
    -2
100
AcDbLine
 10
121.625
 20
7.999999999999985
 30
0.0
 11
137.3241971271049
 21
7.999999999999981
 31
0.0
  0
LINE
  5
2D02
330
C33
100
AcDbEntity
  8
2
 62
     0
370
    -2
100
AcDbLine
 10
121.625
 20
-8.000000000000012
 30
0.0
 11
137.3241971271049
 21
-8.000000000000019
 31
0.0
  0
LINE
  5
2D03
330
C33
100
AcDbEntity
  8
2
 62
     0
370
    -2
100
AcDbLine
 10
136.0741971271049
 20
5.499999999999981
 30
0.0
 11
136.0741971271049
 21
-5.500000000000018
 31
0.0
  0
SOLID
  5
2D04
330
C33
100
AcDbEntity
  8
2
 62
     0
100
AcDbTrace
 10
135.657530460438
 20
5.499999999999981
 30
0.0
 11
136.4908637937714
 21
5.499999999999981
 31
0.0
 12
136.0741971271049
 22
7.999999999999981
 32
0.0
 13
136.0741971271049
 23
7.999999999999981
 33
0.0
  0
SOLID
  5
2D05
330
C33
100
AcDbEntity
  8
2
 62
     0
100
AcDbTrace
 10
135.657530460438
 20
-5.500000000000018
 30
0.0
 11
136.4908637937714
 21
-5.500000000000018
 31
0.0
 12
136.0741971271049
 22
-8.000000000000019
 32
0.0
 13
136.0741971271049
 23
-8.000000000000019
 33
0.0
  0
MTEXT
  5
2D06
330
C33
100
AcDbEntity
  8
2
 62
     0
100
AcDbMText
 10
134.1991971271049
 20
-0.369396395780671
 30
0.0
 40
2.5
 41
0.0
 71
     5
 72
     1
  1
%%c16
 11
0.0000000000000001
 21
1.0
 31
0.0
 73
     1
 44
1.0
1001
ACAD
1000
MTEXTBEGIN
1070
    73
1070
     1
1070
    44
1040
1.0
1070
    74
1070
     0
1000
MTEXTEND
  0
POINT
  5
2D07
330
C33
100
AcDbEntity
  8
DEFPOINTS
 62
     0
100
AcDbPoint
 10
121.0
 20
7.999999999999985
 30
0.0
  0
POINT
  5
2D08
330
C33
100
AcDbEntity
  8
DEFPOINTS
 62
     0
100
AcDbPoint
 10
121.0
 20
-8.000000000000012
 30
0.0
  0
POINT
  5
2D09
330
C33
100
AcDbEntity
  8
DEFPOINTS
 62
     0
100
AcDbPoint
 10
136.0741971271049
 20
-8.000000000000019
 30
0.0
  0
ENDBLK
  5
C40
330
C33
100
AcDbEntity
  8
0
100
AcDbBlockEnd
  0
ENDSEC
  0
SECTION
  2
ENTITIES
  0
DIMENSION
  5
8A
330
1E
100
AcDbEntity
  8
SK2
100
AcDbDimension
  2
*D3
 10
-56.0
 20
-43.77633395340184
 30
0.0
 11
33.46395314053413
 21
-43.77633395340184
 31
0.0
 70
   160
 71
     5
 42
177.0
  3
ISO-25
100
AcDbAlignedDimension
 13
121.0
 23
-2.216371688790002
 33
0.0
 14
-56.0
 24
-15.2757512920425
 34
0.0
 50
180.0
100
AcDbRotatedDimension
  0
DIMENSION
  5
8B
330
1E
100
AcDbEntity
  8
2
100
AcDbDimension
  2
*D5
 10
136.0741971271049
 20
-8.000000000000019
 30
0.0
 11
136.0741971271049
 21
-0.3693963957806712
 31
0.0
 70
   160
  1
%%c<>
 71
     5
 42
16.0
  3
ISO-25
100
AcDbAlignedDimension
 13
121.0
 23
7.999999999999982
 33
0.0
 14
121.0
 24
-8.000000000000012
 34
0.0
 50
270.0
100
AcDbRotatedDimension
  0
DIMENSION
  5
8C
330
1E
100
AcDbEntity
  8
SK2
100
AcDbDimension
  2
*D1
 10
-64.77590223874677
 20
12.5
 30
0.0
 11
-64.77590223874677
 21
0.0583923241429147
 31
0.0
 70
   160
  1
%%c<>
 71
     5
 42
25.0
  3
ISO-25
100
AcDbAlignedDimension
 13
-54.8
 23
-12.49999999999999
 33
0.0
 14
-56.4494145808062
 24
12.5
 34
0.0
 50
89.99999999999998
100
AcDbRotatedDimension
  0
DIMENSION
  5
8D
330
1E
100
AcDbEntity
  8
2
100
AcDbDimension
  2
*D4
 10
81.0
 20
-21.80022184492917
 30
0.0
 11
101.1851111828
 21
-21.80022184492917
 31
0.0
 70
   160
 71
     5
 42
40.0
  3
ISO-25
100
AcDbAlignedDimension
 13
121.0
 23
-1.380749322035413
 33
0.0
 14
81.0
 24
6.74999999999999
 34
0.0
 50
180.0
100
AcDbRotatedDimension
  0
LINE
  5
8E
330
1E
100
AcDbEntity
  8
1
100
AcDbLine
 10
120.3
 20
-3.664448250500031
 30
0.0
 11
120.3
 21
-1.706183148000023
 31
0.0
  0
LINE
  5
8F
330
1E
100
AcDbEntity
  8
1
100
AcDbLine
 10
120.3
 20
1.735955800399994
 30
0.0
 11
120.3
 21
1.706183147899975
 31
0.0
  0
LINE
  5
91
330
1E
100
AcDbEntity
  8
1
100
AcDbLine
 10
114.6404449571999
 20
-6.364014533400032
 30
0.0
 11
114.6404449571999
 21
1.002248062499986
 31
0.0
  0
LINE
  5
94
330
1E
100
AcDbEntity
  8
SK1
100
AcDbLine
 10
0.0000000000000015
 20
12.5
 30
0.0
 11
-54.8
 21
12.5
 31
0.0
  0
LINE
  5
95
330
1E
100
AcDbEntity
  8
1
100
AcDbLine
 10
7.811910379999997
 20
12.24999999999999
 30
0.0
 11
0.2000000000000185
 21
12.25
 31
0.0
  0
LINE
  5
96
330
1E
100
AcDbEntity
  8
1
100
AcDbLine
 10
8.187558037899977
 20
12.23586891489999
 30
0.0
 11
7.81191037989998
 21
12.24999999999999
 31
0.0
  0
LINE
  5
97
330
1E
100
AcDbEntity
  8
SK1
100
AcDbLine
 10
-18.0
 20
6.782329983099999
 30
0.0
 11
-30.0
 21
6.782329983100003
 31
0.0
  0
LINE
  5
98
330
1E
100
AcDbEntity
  8
SK1
100
AcDbLine
 10
-39.0
 20
6.782329983100003
 30
0.0
 11
-54.8
 21
6.782329983100005
 31
0.0
  0
LINE
  5
99
330
1E
100
AcDbEntity
  8
1
100
AcDbLine
 10
113.6406038909
 20
6.749999999999985
 30
0.0
 11
81.18808962000001
 21
6.74999999999999
 31
0.0
  0
LINE
  5
9A
330
1E
100
AcDbEntity
  8
1
100
AcDbLine
 10
114.1188695842
 20
6.749815931599965
 30
0.0
 11
113.9040526971998
 21
6.749815931599965
 31
0.0
  0
LINE
  5
9B
330
1E
100
AcDbEntity
  8
1
100
AcDbLine
 10
113.6406038909
 20
6.748329761999984
 30
0.0
 11
105.0747775067
 21
6.748329761999987
 31
0.0
  0
LINE
  5
9C
330
1E
100
AcDbEntity
  8
1
100
AcDbLine
 10
80.81244196209999
 20
6.764131084999986
 30
0.0
 11
81.18808962000001
 21
6.74999999999999
 31
0.0
  0
LINE
  5
9D
330
1E
100
AcDbEntity
  8
1
100
AcDbLine
 10
80.81244196209999
 20
6.764131084999986
 30
0.0
 11
8.187558037899977
 21
12.23586891489999
 31
0.0
  0
LINE
  5
9E
330
1E
100
AcDbEntity
  8
1
100
AcDbLine
 10
116.5142569999999
 20
1.002248062499984
 30
0.0
 11
114.014257
 21
1.002248062499986
 31
0.0
  0
LINE
  5
9F
330
1E
100
AcDbEntity
  8
4
100
AcDbLine
 10
122.9379654310771
 20
-0.0000000000000169
 30
0.0
 11
0.107673558662498
 21
0.0
 31
0.0
  0
LINE
  5
A0
330
1E
100
AcDbEntity
  8
1
100
AcDbLine
 10
114.6404449571999
 20
-6.364014533400032
 30
0.0
 11
114.4993893817
 21
-6.364014533400032
 31
0.0
  0
LINE
  5
A1
330
1E
100
AcDbEntity
  8
1
100
AcDbLine
 10
114.2356565225999
 20
-6.749815931700041
 30
0.0
 11
113.9040526971998
 21
-6.749815931700041
 31
0.0
  0
LINE
  5
A2
330
1E
100
AcDbEntity
  8
1
100
AcDbLine
 10
113.7310534588998
 20
-6.750000000000013
 30
0.0
 11
81.18808962000001
 21
-6.750000000000007
 31
0.0
  0
LINE
  5
A3
330
1E
100
AcDbEntity
  8
1
100
AcDbLine
 10
80.81244196209999
 20
-6.764131085099997
 30
0.0
 11
8.187558037899972
 21
-12.235868915
 31
0.0
  0
LINE
  5
A4
330
1E
100
AcDbEntity
  8
1
100
AcDbLine
 10
80.81244196209999
 20
-6.764131085099997
 30
0.0
 11
81.18808962000001
 21
-6.750000000000007
 31
0.0
  0
LINE
  5
A5
330
1E
100
AcDbEntity
  8
1
100
AcDbLine
 10
8.187558037899972
 20
-12.235868915
 30
0.0
 11
7.811910379899977
 21
-12.25
 31
0.0
  0
LINE
  5
A6
330
1E
100
AcDbEntity
  8
SK1
100
AcDbLine
 10
-18.0
 20
-6.782329983200007
 30
0.0
 11
-30.0
 21
-6.782329983200005
 31
0.0
  0
LINE
  5
A7
330
1E
100
AcDbEntity
  8
SK1
100
AcDbLine
 10
-39.0
 20
-6.782329983200005
 30
0.0
 11
-54.8
 21
-6.782329983200003
 31
0.0
  0
LINE
  5
A8
330
1E
100
AcDbEntity
  8
1
100
AcDbLine
 10
7.811910379999996
 20
-12.25
 30
0.0
 11
0.2000000000000155
 21
-12.25
 31
0.0
  0
LINE
  5
A9
330
1E
100
AcDbEntity
  8
SK1
100
AcDbLine
 10
-0.0000000000000015
 20
-12.5
 30
0.0
 11
-54.8
 21
-12.49999999999999
 31
0.0
  0
LINE
  5
AA
330
1E
100
AcDbEntity
  8
1
100
AcDbLine
 10
8.187558037899977
 20
12.23586891489999
 30
0.0
 11
8.187558037899972
 21
-12.235868915
 31
0.0
  0
LINE
  5
AB
330
1E
100
AcDbEntity
  8
1
100
AcDbLine
 10
7.811910379999997
 20
12.24999999999999
 30
0.0
 11
7.811910379999996
 21
-12.25
 31
0.0
  0
LINE
  5
AC
330
1E
100
AcDbEntity
  8
1
100
AcDbLine
 10
0.2000000000000185
 20
12.25
 30
0.0
 11
0.2000000000000155
 21
-12.25
 31
0.0
  0
LINE
  5
AD
330
1E
100
AcDbEntity
  8
1
100
AcDbLine
 10
0.0000000000000015
 20
12.4999995019
 30
0.0
 11
-0.0000000000000015
 21
-12.499999502
 31
0.0
  0
LINE
  5
AE
330
1E
100
AcDbEntity
  8
SK1
100
AcDbLine
 10
-18.0
 20
6.782329983099999
 30
0.0
 11
-18.0
 21
-6.782329983200007
 31
0.0
  0
LINE
  5
AF
330
1E
100
AcDbEntity
  8
SK1
100
AcDbLine
 10
-30.0
 20
6.782329983100003
 30
0.0
 11
-30.0
 21
-6.782329983200005
 31
0.0
  0
LINE
  5
B0
330
1E
100
AcDbEntity
  8
SK1
100
AcDbLine
 10
-39.0
 20
6.782329983100003
 30
0.0
 11
-39.0
 21
-6.782329983200005
 31
0.0
  0
LINE
  5
B1
330
1E
100
AcDbEntity
  8
SK1
100
AcDbLine
 10
-54.8
 20
12.5
 30
0.0
 11
-56.0
 21
11.3
 31
0.0
  0
LINE
  5
B2
330
1E
100
AcDbEntity
  8
SK1
100
AcDbLine
 10
-54.8
 20
-12.49999999999999
 30
0.0
 11
-56.0
 21
-11.29999999999999
 31
0.0
  0
LINE
  5
B3
330
1E
100
AcDbEntity
  8
SK1
100
AcDbLine
 10
-54.8
 20
6.782329983100005
 30
0.0
 11
-54.8
 21
12.5
 31
0.0
  0
LINE
  5
B4
330
1E
100
AcDbEntity
  8
SK1
100
AcDbLine
 10
-54.8
 20
-6.782329983200003
 30
0.0
 11
-54.8
 21
-12.49999999999999
 31
0.0
  0
LINE
  5
B5
330
1E
100
AcDbEntity
  8
SK1
100
AcDbLine
 10
-56.0
 20
11.29999690809998
 30
0.0
 11
-56.0
 21
-11.29999690819998
 31
0.0
  0
CIRCLE
  5
B7
330
1E
100
AcDbEntity
  8
1
100
AcDbCircle
 10
117.014257
 20
4.002248062499981
 30
0.0
 40
2.45
  0
ARC
  5
B8
330
1E
100
AcDbEntity
  8
1
100
AcDbCircle
 10
117.014257
 20
4.002248062499981
 30
0.0
 40
3.991597085
100
AcDbArc
 50
294.5241151845997
 51
228.7289707691999
  0
ARC
  5
BA
330
1E
100
AcDbEntity
  8
1
100
AcDbCircle
 10
117.014257
 20
-4.002248062600001
 30
0.0
 40
3.991597085
100
AcDbArc
 50
223.4994590996
 51
34.59539428880002
  0
ARC
  5
BC
330
1E
100
AcDbEntity
  8
1
100
AcDbCircle
 10
114.014257
 20
11.00224806249997
 30
0.0
 40
10.0
100
AcDbArc
 50
205.1942503129999
 51
270.0
  0
ARC
  5
BD
330
1E
100
AcDbEntity
  8
1
100
AcDbCircle
 10
117.014257
 20
-4.002248062600001
 30
0.0
 40
3.649999999999999
100
AcDbArc
 50
221.7185766539
 51
226.4701021533999
  0
ARC
  5
BE
330
1E
100
AcDbEntity
  8
1
100
AcDbCircle
 10
116.5142569999999
 20
2.997751937399995
 30
0.0
 40
4.0
100
AcDbArc
 50
311.4509152001999
 51
341.1620767932999
  0
ARC
  5
BF
330
1E
100
AcDbEntity
  8
1
100
AcDbCircle
 10
0.2000000000000154
 20
-12.45
 30
0.0
 40
0.2
100
AcDbArc
 50
90.0
 51
180.0
  0
ARC
  5
C0
330
1E
100
AcDbEntity
  8
1
100
AcDbCircle
 10
116.5142569999999
 20
-2.997751937500011
 30
0.0
 40
4.0
100
AcDbArc
 50
18.83792320669994
 51
90.0
  0
ARC
  5
C1
330
1E
100
AcDbEntity
  8
1
100
AcDbCircle
 10
0.2000000000000185
 20
12.45
 30
0.0
 40
0.2
100
AcDbArc
 50
180.0
 51
270.0
  0
ARC
  5
C2
330
1E
100
AcDbEntity
  8
1
100
AcDbCircle
 10
117.014257
 20
4.002248062499981
 30
0.0
 40
4.349999999999996
100
AcDbArc
 50
140.8551454634998
 51
223.5605261526
  0
ARC
  5
C3
330
1E
100
AcDbEntity
  8
1
100
AcDbCircle
 10
116.8728356437
 20
-3.860826706400004
 30
0.0
 40
1.75
100
AcDbArc
 50
300.0539256510999
 51
222.5706928236999
  0
LWPOLYLINE
  5
22C
330
1E
100
AcDbEntity
  8
1
100
AcDbPolyline
 90
      156
 70
     0
 43
0.0
 10
114.8955319887999
 20
-6.461398118200022
 10
114.9365431676869
 20
-6.496757666433301
 10
114.978138308475
 20
-6.531440857804824
 10
115.0203049575519
 20
-6.565435200095044
 10
115.063030661303
 20
-6.598728201084441
 10
115.1063029661169
 20
-6.631307368553562
 10
115.150109645614
 20
-6.663160753947344
 10
115.1944393678989
 20
-6.694278548783831
 10
115.239281021137
 20
-6.724651471090414
 10
115.2781157561969
 20
-6.750085510870531
 10
115.3173114424589
 20
-6.774959632747642
 10
115.3568610177929
 20
-6.799268009321701
 10
115.396756754576
 20
-6.823004996665531
 10
115.4369905331769
 20
-6.846165058926513
 10
115.47755422892
 20
-6.868742661642531
 10
115.518439717129
 20
-6.890732270351461
 10
115.55963887313
 20
-6.9121283505912
 10
115.6011435081909
 20
-6.932925485928423
 10
115.6429451200539
 20
-6.953118837629624
 10
115.685035110685
 20
-6.972703743432072
 10
115.7274048820309
 20
-6.991675541116942
 10
115.770045836033
 20
-7.010029568465422
 10
115.8129493737539
 20
-7.027761164585012
 10
115.85610674094
 20
-7.044865901773722
 10
115.899508851325
 20
-7.061339850811822
 10
115.9431465758909
 20
-7.077179146673771
 10
115.9870107856169
 20
-7.092379924334043
 10
116.0310923514829
 20
-7.106938318767091
 10
116.075382134653
 20
-7.120850487062611
 10
116.1198708007048
 20
-7.134113026998299
 10
116.164548835051
 20
-7.146722942295312
 10
116.209406716376
 20
-7.158677251826411
 10
116.254434923366
 20
-7.169972974464362
 10
116.2996239347089
 20
-7.180607129081924
 10
116.344964197629
 20
-7.190576832949862
 10
116.390445969279
 20
-7.199879797833262
 10
116.436059435784
 20
-7.208513957637702
 10
116.4817947831489
 20
-7.216477246652712
 10
116.5276421973769
 20
-7.223767599167791
 10
116.5735918641899
 20
-7.230382950913642
 10
116.619633915507
 20
-7.236321510195391
 10
116.665758366265
 20
-7.241582078028682
 10
116.7119552160339
 20
-7.246163533287282
 10
116.7582144643829
 20
-7.250064754844942
 10
116.80452611088
 20
-7.253284621575421
 10
116.8508801530139
 20
-7.255822040423472
 10
116.897266551585
 20
-7.257676412839919
 10
116.9436752360309
 20
-7.258847563044084
 10
116.9900961347799
 20
-7.259335328868132
 10
117.03651917626
 20
-7.259139548144241
 10
117.082934288897
 20
-7.258260058704593
 10
117.129331405366
 20
-7.256696821367392
 10
117.175700480232
 20
-7.254450431324005
 10
117.2220314750999
 20
-7.25152168771148
 10
117.268314351579
 20
-7.247911389763251
 10
117.314539071278
 20
-7.243620336712732
 10
117.360695596289
 20
-7.238649330834169
 10
117.4067739382209
 20
-7.232999484892089
 10
117.4527642002719
 20
-7.226672486003921
 10
117.4986564955558
 20
-7.219670083444422
 10
117.544440937182
 20
-7.211994026488392
 10
117.5901076382629
 20
-7.203646064410603
 10
117.635646721799
 20
-7.194627982799852
 10
117.681048449308
 20
-7.184942075927672
 10
117.7263031843019
 20
-7.174591012637312
 10
117.771401292668
 20
-7.163577470473851
 10
117.816333140289
 20
-7.151904126982362
 10
117.8610890930489
 20
-7.139573659707901
 10
117.9056595700419
 20
-7.126588874266871
 10
117.950035235979
 20
-7.112953167437293
 10
117.9942068263869
 20
-7.098670106451335
 10
118.038165076802
 20
-7.083743258557281
 10
118.081900722759
 20
-7.068176191003392
 10
118.1254045012489
 20
-7.051972473749272
 10
118.168667298517
 20
-7.03513595457954
 10
118.2116802771839
 20
-7.017670995743572
 10
118.2544346298199
 20
-6.999582015239202
 10
118.296921548997
 20
-6.980873431064282
 10
118.339132227284
 20
-6.961549661216642
 10
118.3810578719759
 20
-6.941615144141962
 10
118.4226899763499
 20
-6.921074715454842
 10
118.4640202931559
 20
-6.899933571115192
 10
118.505040584546
 20
-6.878196920144143
 10
118.5457426126709
 20
-6.855869971562831
 10
118.586118139686
 20
-6.832957934392402
 10
118.626158979103
 20
-6.809466073224401
 10
118.6658573562839
 20
-6.785400098251612
 10
118.7052056946029
 20
-6.760765933910793
 10
118.7441964186979
 20
-6.735569506002643
 10
118.789223505834
 20
-6.705470940407782
 10
118.8337415043769
 20
-6.674624550937882
 10
118.8777387886029
 20
-6.643040085113301
 10
118.921204444724
 20
-6.610727885813401
 10
118.96412763254
 20
-6.577698357451411
 10
119.0064975118479
 20
-6.543961904440534
 10
119.0483032484449
 20
-6.509528935249264
 10
119.089534459284
 20
-6.474410163384602
 10
119.1301815188609
 20
-6.438616814549481
 10
119.170234874161
 20
-6.402160163454952
 10
119.2096849721648
 20
-6.365051484812092
 10
119.248522264381
 20
-6.327302055544673
 10
119.292145761445
 20
-6.283390038617812
 10
119.3296403690019
 20
-6.244306828061143
 10
119.366495569249
 20
-6.204619974472635
 10
119.4027032309589
 20
-6.164341447531664
 10
119.4382552315169
 20
-6.123483219838631
 10
119.4731439993899
 20
-6.082057450910192
 10
119.50736283759
 20
-6.040076596891802
 10
119.5409051267868
 20
-5.997553140270282
 10
119.573764247654
 20
-5.954499563532463
 10
119.605933583052
 20
-5.910928349582892
 10
119.637406966688
 20
-5.866852067418983
 10
119.6681792319
 20
-5.822283476924612
 10
119.698245346312
 20
-5.777235363627212
 10
119.727600277552
 20
-5.731720513054223
 10
119.756238993256
 20
-5.685751710733982
 10
119.7841567621088
 20
-5.639341765600632
 10
119.8113499368909
 20
-5.592503570874971
 10
119.837815114325
 20
-5.545250038743954
 10
119.8635488911349
 20
-5.497594081394503
 10
119.888547864046
 20
-5.449548611013542
 10
119.9128087597928
 20
-5.401126531344213
 10
119.936329357031
 20
-5.352340677812174
 10
119.959107944027
 20
-5.303203852746132
 10
119.981142812389
 20
-5.253728858257573
 10
120.0024322537269
 20
-5.203928496458023
 10
120.0229745778889
 20
-5.153815565915413
 10
120.0427688100569
 20
-5.103402726215403
 10
120.06181490833
 20
-5.052702455687462
 10
120.080112893525
 20
-5.001727220475422
 10
120.09766278646
 20
-4.950489486723123
 10
120.1144646079508
 20
-4.899001720574393
 10
120.130518595107
 20
-4.847276310973072
 10
120.145826134794
 20
-4.795325236485902
 10
120.160388994425
 20
-4.743160339851963
 10
120.1742089416589
 20
-4.690793463723183
 10
120.1872877441529
 20
-4.638236450751472
 10
120.199627175569
 20
-4.585501141145264
 10
120.211229590957
 20
-4.532599138473983
 10
120.2220984038769
 20
-4.479541615469683
 10
120.2322371401919
 20
-4.426339699153653
 10
120.2416493257639
 20
-4.373004516547172
 10
120.250338486459
 20
-4.319547194671525
 10
120.2583081875
 20
-4.265978824160055
 10
120.265562846222
 20
-4.212309707913154
 10
120.2721077035169
 20
-4.158549387493843
 10
120.2779480339259
 20
-4.104707373358293
 10
120.2830891119889
 20
-4.050793175962621
 10
120.2875362122459
 20
-3.996816305763001
 10
120.2912947036409
 20
-3.942786294452272
 10
120.2943709611989
 20
-3.88871290005124
 10
120.2967719681359
 20
-3.834606017398834
 10
120.298504716116
 20
-3.780475543234423
 10
120.299576196801
 20
-3.726331374297392
 10
120.2999934018559
 20
-3.672183407327101
 10
120.2999999999889
 20
-3.664458250500151
  0
LWPOLYLINE
  5
2CA
330
1E
100
AcDbEntity
  8
1
100
AcDbPolyline
 90
       68
 70
     0
 43
0.0
 10
114.2356565225999
 20
-6.749815931700041
 10
114.242650535622
 20
-6.749616630831092
 10
114.249644267267
 20
-6.749342558011511
 10
114.2563449612099
 20
-6.749007453243652
 10
114.2627516081069
 20
-6.748618529271332
 10
114.269154446616
 20
-6.748160802642102
 10
114.2752616480399
 20
-6.747657949356732
 10
114.281363351189
 20
-6.747089014188822
 10
114.287168478984
 20
-6.746484218899665
 10
114.2929668655789
 20
-6.745816551973253
 10
114.2984683094619
 20
-6.745122730223462
 10
114.303962163556
 20
-6.74436964854999
 10
114.3094476942399
 20
-6.743556080102862
 10
114.3146361701079
 20
-6.742728423930532
 10
114.319815893452
 20
-6.74184433620017
 10
114.3249862372919
 20
-6.740902772172514
 10
114.329859939407
 20
-6.739959689997602
 10
114.3347233790839
 20
-6.738963127929111
 10
114.339575408871
 20
-6.737911899205061
 10
114.344130574626
 20
-6.73687150691463
 10
114.348673660284
 20
-6.73578064952133
 10
114.353203709205
 20
-6.734638337614001
 10
114.3577197647519
 20
-6.733443581781466
 10
114.3619400072779
 20
-6.732274988585922
 10
114.366146321898
 20
-6.731058617247371
 10
114.3703379203659
 20
-6.729793652516135
 10
114.374514014436
 20
-6.728479279142513
 10
114.378397018453
 20
-6.727207233894206
 10
114.382265188894
 20
-6.725890775227282
 10
114.3861178848859
 20
-6.724529240313544
 10
114.3899544655549
 20
-6.723121966324804
 10
114.393774290028
 20
-6.721668290432875
 10
114.3975767159
 20
-6.720167550393134
 10
114.4010912577949
 20
-6.718731339540952
 10
114.4045891929009
 20
-6.717253650879291
 10
114.408069585546
 20
-6.715734114535832
 10
114.411531500054
 20
-6.714172360638222
 10
114.414974000753
 20
-6.712568019314152
 10
114.418396151968
 20
-6.710920720691262
 10
114.4217970180249
 20
-6.709230094897253
 10
114.42517566325
 20
-6.707495772059772
 10
114.428531151971
 20
-6.705717382306492
 10
114.431862548512
 20
-6.703894555765081
 10
114.434915491004
 20
-6.702172185842342
 10
114.4379463720559
 20
-6.70041134654875
 10
114.440954455734
 20
-6.698611746969704
 10
114.443939006105
 20
-6.696773096190571
 10
114.4468992872379
 20
-6.694895103296784
 10
114.4498345631979
 20
-6.692977477373701
 10
114.452744098053
 20
-6.691019927506753
 10
114.4556271558579
 20
-6.689022162894543
 10
114.4584829836079
 20
-6.686984048790513
 10
114.461310777405
 20
-6.684905916005182
 10
114.4641097239009
 20
-6.682788181783593
 10
114.4668790097489
 20
-6.680631263370802
 10
114.469617821602
 20
-6.67843557801186
 10
114.4725495353829
 20
-6.676013655379754
 10
114.475443495892
 20
-6.673547255602715
 10
114.478298669029
 20
-6.671036909171122
 10
114.481114020695
 20
-6.668483146575379
 10
114.4838885167899
 20
-6.665886498305852
 10
114.4866211232139
 20
-6.66324749485294
 10
114.4893108058689
 20
-6.660566666707012
 10
114.491956530654
 20
-6.657844544358451
 10
114.494358827982
 20
-6.655295623153964
 10
114.49672197561
 20
-6.652712385617232
 10
114.499045160192
 20
-6.650095248993312
 10
114.500375056844
 20
-6.648560682945682
  0
LWPOLYLINE
  5
310
330
1E
100
AcDbEntity
  8
1
100
AcDbPolyline
 90
       62
 70
     0
 43
0.0
 10
114.6404449571999
 20
-6.364014533400032
 10
114.6446291546069
 20
-6.364037786974245
 10
114.6488134481769
 20
-6.364107523131343
 10
114.6529972292759
 20
-6.364223705023044
 10
114.657179889267
 20
-6.364386295801043
 10
114.6613608195159
 20
-6.364595258617054
 10
114.6655394113849
 20
-6.364850556622772
 10
114.6697150562409
 20
-6.365152152969932
 10
114.6738871454469
 20
-6.365500010810213
 10
114.6780550703669
 20
-6.365894093295332
 10
114.6822182250079
 20
-6.366334362151962
 10
114.686376066341
 20
-6.366820745133134
 10
114.6905281155619
 20
-6.367353135339002
 10
114.694673896762
 20
-6.367931424308884
 10
114.6988129340289
 20
-6.368555503582062
 10
114.7029447514539
 20
-6.369225264697834
 10
114.707068873127
 20
-6.369940599195504
 10
114.711184823136
 20
-6.370701398614352
 10
114.7152921255709
 20
-6.371507554493692
 10
114.7193903045229
 20
-6.372358958372802
 10
114.7234788831029
 20
-6.373255491524212
 10
114.7275573802259
 20
-6.374196991100844
 10
114.731896121833
 20
-6.375250623476362
 10
114.736222259102
 20
-6.376355006869811
 10
114.740535206803
 20
-6.377509929264872
 10
114.7448343797089
 20
-6.378715178645221
 10
114.7491191925899
 20
-6.379970542994544
 10
114.753389060219
 20
-6.381275810296522
 10
114.757643397365
 20
-6.382630768534832
 10
114.761881626339
 20
-6.384035196501852
 10
114.7661032061989
 20
-6.385488828176232
 10
114.770307607186
 20
-6.38699138389916
 10
114.774494299546
 20
-6.388542584008592
 10
114.7786627535219
 20
-6.390142148842482
 10
114.7828124393609
 20
-6.391789798738794
 10
114.786942827306
 20
-6.393485254035472
 10
114.7913096271889
 20
-6.395338743004324
 10
114.7956534081149
 20
-6.397245548598852
 10
114.7999735468569
 20
-6.399205317030213
 10
114.804269452543
 20
-6.401217645833451
 10
114.8085405396169
 20
-6.403282124545204
 10
114.8127862225249
 20
-6.405398342702093
 10
114.817005915711
 20
-6.407565889840721
 10
114.82119903362
 20
-6.40978435549773
 10
114.8256091886419
 20
-6.412188362394454
 10
114.829988198372
 20
-6.414648506996121
 10
114.834335380583
 20
-6.417164298704942
 10
114.838650128666
 20
-6.419735227195902
 10
114.8429318635519
 20
-6.422360774958024
 10
114.8471800062129
 20
-6.425040424469901
 10
114.851393977623
 20
-6.427773658210172
 10
114.855804347158
 20
-6.430716298697842
 10
114.8601753170249
 20
-6.433717457323885
 10
114.864506206222
 20
-6.436776525410124
 10
114.8687963198159
 20
-6.439892853294884
 10
114.8730449201559
 20
-6.443065665649232
 10
114.8774714630619
 20
-6.44646561143395
 10
114.881850311636
 20
-6.449926325895376
 10
114.8861805959979
 20
-6.453446876729302
 10
114.890674175533
 20
-6.457206833885224
 10
114.895112246987
 20
-6.461030653517781
 10
114.8955244691679
 20
-6.461391526146111
  0
LWPOLYLINE
  5
350
330
1E
100
AcDbEntity
  8
1
100
AcDbPolyline
 90
      112
 70
     0
 43
0.0
 10
114.2898150226
 20
-6.431222313600032
 10
114.2893269952119
 20
-6.430664055323441
 10
114.2888492009459
 20
-6.430094308670797
 10
114.288383243544
 20
-6.429513020353452
 10
114.2879307267459
 20
-6.428920137082752
 10
114.2874932542959
 20
-6.428315605570032
 10
114.287072429934
 20
-6.427699372526662
 10
114.286669857403
 20
-6.427071384663982
 10
114.2862871404439
 20
-6.426431588693341
 10
114.2859258827989
 20
-6.425779931326092
 10
114.285697758181
 20
-6.425338877101102
 10
114.2854803589929
 20
-6.424892511671202
 10
114.285274160418
 20
-6.424440819247172
 10
114.2850796376378
 20
-6.423983784039792
 10
114.2848972658349
 20
-6.423521390259812
 10
114.284727520194
 20
-6.423053622118014
 10
114.2845708395439
 20
-6.422580544565214
 10
114.284427499774
 20
-6.422102584458332
 10
114.2842977311359
 20
-6.421620270013542
 10
114.2841817638819
 20
-6.421134129451941
 10
114.2840798282619
 20
-6.420644690994652
 10
114.283992154527
 20
-6.420152482862762
 10
114.283918972926
 20
-6.419658033277402
 10
114.2838605137119
 20
-6.419161870459665
 10
114.283817007134
 20
-6.418664522630652
 10
114.2837886834427
 20
-6.418166518011472
 10
114.2837757728899
 20
-6.417668384823253
 10
114.2837785057249
 20
-6.417170651287071
 10
114.283797112199
 20
-6.416673845624062
 10
114.283831822564
 20
-6.41617849605531
 10
114.283882867068
 20
-6.415685130801942
 10
114.283950475963
 20
-6.415194278085053
 10
114.2840347994819
 20
-6.414706431522412
 10
114.2841354819408
 20
-6.414221865953552
 10
114.284251970506
 20
-6.413740770961549
 10
114.2843837118979
 20
-6.413263335936481
 10
114.2845301528349
 20
-6.412789750268392
 10
114.2846907400379
 20
-6.412320203347343
 10
114.284864920226
 20
-6.411854884563402
 10
114.285052140119
 20
-6.411393983306621
 10
114.285251846436
 20
-6.410937688967062
 10
114.285463485897
 20
-6.410486190934791
 10
114.2856865052219
 20
-6.410039678599861
 10
114.28592035113
 20
-6.409598341352331
 10
114.2861644703409
 20
-6.409162368582264
 10
114.2865487012999
 20
-6.408518882113174
 10
114.2869529349889
 20
-6.407888531037464
 10
114.2873753119839
 20
-6.407271946692012
 10
114.287814384523
 20
-6.406669351046144
 10
114.2882693094829
 20
-6.406080364795862
 10
114.288739292031
 20
-6.405504560614312
 10
114.2892235373359
 20
-6.404941511174691
 10
114.289721250566
 20
-6.40439078915016
 10
114.290231636889
 20
-6.403851967213883
 10
114.290753901474
 20
-6.403324618039031
 10
114.291467357766
 20
-6.402638593734092
 10
114.2921986338869
 20
-6.401971192834472
 10
114.2929458457929
 20
-6.401321402417321
 10
114.293707109437
 20
-6.400688209559771
 10
114.2944805440169
 20
-6.400070602607244
 10
114.295264698293
 20
-6.399467737862021
 10
114.296058976023
 20
-6.398879105926995
 10
114.2968628821529
 20
-6.398304236969662
 10
114.2978805505709
 20
-6.397604289199962
 10
114.298911522944
 20
-6.396924194328085
 10
114.299954832371
 20
-6.396263034712442
 10
114.3010095119509
 20
-6.395619892711462
 10
114.3020745947838
 20
-6.394993850683561
 10
114.3031491139679
 20
-6.394383990987173
 10
114.3044496315779
 20
-6.393672227989741
 10
114.3057607017109
 20
-6.392980880656002
 10
114.307081252716
 20
-6.392308806231744
 10
114.3084107550589
 20
-6.391655262729922
 10
114.309972476679
 20
-6.390915247524691
 10
114.311544883451
 20
-6.390198313376343
 10
114.31312716843
 20
-6.389503307122362
 10
114.3147185246699
 20
-6.388829075600222
 10
114.316547290032
 20
-6.388082484460822
 10
114.318385645064
 20
-6.387359800154793
 10
114.3204637658499
 20
-6.386573223488182
 10
114.322551244572
 20
-6.385812832157161
 10
114.3248808990309
 20
-6.38499731099028
 10
114.3272205836449
 20
-6.384211298416705
 10
114.329804905294
 20
-6.383379045087956
 10
114.332399412689
 20
-6.382578831127302
 10
114.335240200503
 20
-6.381740154747642
 10
114.3383284889569
 20
-6.380869146316522
 10
114.341426497029
 20
-6.380034369538142
 10
114.3447727373208
 20
-6.379173831430881
 10
114.348368519743
 20
-6.378293972030554
 10
114.351974219675
 20
-6.377455430461232
 10
114.3558301127059
 20
-6.376603898890691
 10
114.359936778422
 20
-6.375744580606011
 10
114.3642944745829
 20
-6.374882143364552
 10
114.3689036739039
 20
-6.374021767119081
 10
114.373764987003
 20
-6.373168962062392
 10
114.378878822654
 20
-6.372328859540702
 10
114.384245345945
 20
-6.371506097452215
 10
114.3901089276988
 20
-6.370671171104122
 10
114.396225554199
 20
-6.369866655725282
 10
114.402595268806
 20
-6.369097232184522
 10
114.409463425861
 20
-6.368341588609821
 10
114.4165848183809
 20
-6.367634429931112
 10
114.4242047321298
 20
-6.366958336612124
 10
114.432323238429
 20
-6.366324445767642
 10
114.440694222059
 20
-6.365759913575134
 10
114.449563548665
 20
-6.365255585920052
 10
114.458930812305
 20
-6.364822137436891
 10
114.46854867025
 20
-6.364477584369232
 10
114.4786629155088
 20
-6.364220734551291
 10
114.4890258463719
 20
-6.364065339658463
 10
114.4993793817
 20
-6.364014533446651
  0
LWPOLYLINE
  5
3C2
330
1E
100
AcDbEntity
  8
1
100
AcDbPolyline
 90
        2
 70
     0
 43
0.0
 10
113.7304597708
 20
-6.750001979000032
 10
113.9040426972
 20
-6.749815931701101
  0
LWPOLYLINE
  5
3C6
330
1E
100
AcDbEntity
  8
1
100
AcDbPolyline
 90
        2
 70
     0
 43
0.0
 10
113.7304597862999
 20
6.750001978899954
 10
113.9040426972
 20
6.749815931601034
  0
LWPOLYLINE
  5
3CA
330
1E
100
AcDbEntity
  8
1
100
AcDbPolyline
 90
       79
 70
     0
 43
0.0
 10
117.7492616564
 20
-5.375546959300023
 10
117.7211478640829
 20
-5.384523797509872
 10
117.6929256936609
 20
-5.393165945301243
 10
117.664599721167
 20
-5.401471094647803
 10
117.6361745226349
 20
-5.409436937523231
 10
117.6076546740989
 20
-5.417061165901204
 10
117.5790447515939
 20
-5.424341471755403
 10
117.5503493311458
 20
-5.431275547067773
 10
117.523789234801
 20
-5.437367060634441
 10
117.4971633018319
 20
-5.443160497747063
 10
117.4704746661749
 20
-5.448654732871313
 10
117.4437264617669
 20
-5.453848640472861
 10
117.4169218225449
 20
-5.458741095017391
 10
117.3900638824439
 20
-5.463330970970573
 10
117.3631557754029
 20
-5.467617142798073
 10
117.336200648926
 20
-5.471598500485813
 10
117.309201856051
 20
-5.475274169100472
 10
117.282162909319
 20
-5.478643456144304
 10
117.255087325446
 20
-5.481705673898103
 10
117.227978621152
 20
-5.484460134642675
 10
117.200840313155
 20
-5.486906150658824
 10
117.173675918172
 20
-5.489043034227352
 10
117.146488952962
 20
-5.490870098413771
 10
117.1192829422849
 20
-5.492386813877343
 10
117.092061428543
 20
-5.493592998681521
 10
117.064827956492
 20
-5.494488517250441
 10
117.0375860708869
 20
-5.495073234008213
 10
117.010339316485
 20
-5.495347013378981
 10
116.983091238041
 20
-5.495309719786863
 10
116.955845380312
 20
-5.494961217655993
 10
116.928605286594
 20
-5.494301422788293
 10
116.9013744904519
 20
-5.493330593951332
 10
116.8741565214609
 20
-5.492049130343213
 10
116.8469549091868
 20
-5.490457431584792
 10
116.8197731831959
 20
-5.488555897296923
 10
116.792614873052
 20
-5.486344927100441
 10
116.7654835083199
 20
-5.483824920616211
 10
116.7383826163508
 20
-5.48099628629412
 10
116.7113156644739
 20
-5.477859671819481
 10
116.68428605448
 20
-5.474415986118353
 10
116.6572971848349
 20
-5.470666151357592
 10
116.6303524540069
 20
-5.466611089704071
 10
116.603455260464
 20
-5.462251723324652
 10
116.576609002674
 20
-5.457588974386181
 10
116.5498170790989
 20
-5.452623765064152
 10
116.5230828452199
 20
-5.447357110010254
 10
116.496409507346
 20
-5.441790344791443
 10
116.469800239454
 20
-5.435924874541342
 10
116.441049515002
 20
-5.429235164473452
 10
116.412381744234
 20
-5.422198326446044
 10
116.383800962583
 20
-5.414816146962891
 10
116.3553112054779
 20
-5.407090412527754
 10
116.326916458158
 20
-5.399022973189133
 10
116.298620435091
 20
-5.39061602180333
 10
116.270426759843
 20
-5.381871866310022
 10
116.242339055914
 20
-5.372792814733592
 10
116.214360946804
 20
-5.363381175098422
 10
116.1864960560139
 20
-5.353639255428912
 10
116.158748007043
 20
-5.343569363749443
 10
116.1311203717589
 20
-5.333173865312591
 10
116.1036164430729
 20
-5.322455434555831
 10
116.07413884346
 20
-5.310554546818415
 10
116.04481242001
 20
-5.298285826512231
 10
116.015641168275
 20
-5.285652743863184
 10
115.9866290838069
 20
-5.272658769097213
 10
115.957780161778
 20
-5.259307372542391
 10
115.929098177233
 20
-5.245602083824993
 10
115.900586315828
 20
-5.231546591338801
 10
115.8722476656229
 20
-5.217144609769123
 10
115.842080545916
 20
-5.201333638725881
 10
115.812119608736
 20
-5.185133745564794
 10
115.7823686522619
 20
-5.168549499186314
 10
115.752831480335
 20
-5.151585507107161
 10
115.723511977682
 20
-5.134246928140643
 10
115.694414089362
 20
-5.116539332323481
 10
115.6636250566559
 20
-5.097250778487413
 10
115.6330974516538
 20
-5.077555486053761
 10
115.602836063952
 20
-5.057460226932072
 10
115.5840682611249
 20
-5.044706245401002
  0
LWPOLYLINE
  5
41B
330
1E
100
AcDbEntity
  8
SK1
100
AcDbPolyline
 90
       52
 70
     0
 43
0.0
 10
-18.0
 20
-6.782329983200007
 10
-17.9152671520202
 20
-6.649317626079536
 10
-17.83221429040219
 20
-6.515238881154092
 10
-17.7508570720085
 20
-6.380119123624762
 10
-17.6712111504877
 20
-6.243983725371957
 10
-17.5932910587025
 20
-6.106856900337035
 10
-17.5205335521287
 20
-5.975057889817946
 10
-17.44936914769218
 20
-5.842393200013277
 10
-17.37980771960589
 20
-5.708881040463436
 10
-17.31185909948159
 20
-5.574540189603187
 10
-17.2455330436746
 20
-5.439390430833617
 10
-17.1808393008538
 20
-5.303451650199063
 10
-17.11778760515219
 20
-5.166743734836425
 10
-17.0563872032372
 20
-5.029286608522448
 10
-16.99945376582918
 20
-4.897696784192816
 10
-16.9440333966424
 20
-4.765462766872346
 10
-16.8901335241368
 20
-4.632601817552407
 10
-16.83776121377928
 20
-4.499131393712768
 10
-16.7869231862193
 20
-4.365069139482998
 10
-16.7376261484636
 20
-4.230432706377527
 10
-16.68987677708139
 20
-4.095239755655618
 10
-16.6436813107408
 20
-3.959508088774955
 10
-16.59904565975979
 20
-3.823255612317666
 10
-16.5559757265006
 20
-3.686500235413125
 10
-16.51447735554
 20
-3.549259885461578
 10
-16.4745559067239
 20
-3.411552643129116
 10
-16.43621649782819
 20
-3.273396665621187
 10
-16.399464244842
 20
-3.134810110708256
 10
-16.36602426615018
 20
-3.002770624703936
 10
-16.33402504574888
 20
-2.870374660412393
 10
-16.30347029221719
 20
-2.737637954312254
 10
-16.2743637141286
 20
-2.604576242883624
 10
-16.2467089012844
 20
-2.471205291244826
 10
-16.2205089931793
 20
-2.337540973091924
 10
-16.1957670226064
 20
-2.203599187848745
 10
-16.17248602219908
 20
-2.069395834949428
 10
-16.1506688703199
 20
-1.934946823751167
 10
-16.13031800328079
 20
-1.800268092044868
 10
-16.1114357787161
 20
-1.665375582682215
 10
-16.09402455271089
 20
-1.530285239320438
 10
-16.07808647340188
 20
-1.395013113755387
 10
-16.0636232735312
 20
-1.259575473798784
 10
-16.05063663646539
 20
-1.123988612938837
 10
-16.0391282388215
 20
-0.988268815214586
 10
-16.0290994815574
 20
-0.8524319787673595
 10
-16.0205513996748
 20
-0.7164934894324933
 10
-16.0134850029103
 20
-0.5804686976765236
 10
-16.00790128127728
 20
-0.4443730645053054
 10
-16.0038008775762
 20
-0.308223996887147
 10
-16.00118413789059
 20
-0.172040564747982
 10
-16.000051398758
 20
-0.0358418915135006
 10
-16.000000000004
 20
-0.0000100000000216
  0
LWPOLYLINE
  5
451
330
1E
100
AcDbEntity
  8
SK1
100
AcDbPolyline
 90
       52
 70
     0
 43
0.0
 10
-16.0
 20
0.000000000000002
 10
-16.0007421567174
 20
0.136199505400359
 10
-16.00296840252249
 20
0.272388801877842
 10
-16.00667840089499
 20
0.4085487660178623
 10
-16.0118718146942
 20
0.5446602778805071
 10
-16.0185481264159
 20
0.6807052284001742
 10
-16.0267063889483
 20
0.816667916305802
 10
-16.036345592589
 20
0.9525329911252068
 10
-16.04746472301159
 20
1.088285095912969
 10
-16.0600625110111
 20
1.223908516906041
 10
-16.0741373047719
 20
1.359387004704728
 10
-16.08968742097928
 20
1.494704265811769
 10
-16.1067111624878
 20
1.629844013922449
 10
-16.1252065101643
 20
1.76479013018337
 10
-16.1451711207125
 20
1.899526664323729
 10
-16.16660263657059
 20
2.034037673491531
 10
-16.189498672725
 20
2.16830721660012
 10
-16.21385647125859
 20
2.302319376542961
 10
-16.2396730054006
 20
2.436058253502548
 10
-16.266945242439
 20
2.569507948043439
 10
-16.29567010771399
 20
2.702652570843087
 10
-16.3258441217719
 20
2.835476330167931
 10
-16.3574635786205
 20
2.967963488898928
 10
-16.39052476978148
 20
3.10009831051645
 10
-16.4268794356231
 20
3.238789672118061
 10
-16.4648225349475
 20
3.377054996117961
 10
-16.5043489531868
 20
3.514876124407281
 10
-16.54545357445648
 20
3.652234899204397
 10
-16.5881311559259
 20
3.78911320286343
 10
-16.63237593061358
 20
3.925493083455711
 10
-16.6781819962777
 20
4.061356631816877
 10
-16.72554345030399
 20
4.19668593890185
 10
-16.7744541925911
 20
4.331463158888118
 10
-16.82490760137008
 20
4.465670612957558
 10
-16.87689696973119
 20
4.599290649548492
 10
-16.93041558925139
 20
4.73230561791858
 10
-16.9854565280047
 20
4.864697988309387
 10
-17.0420123963831
 20
4.996450478709597
 10
-17.10301835425859
 20
5.134083046219091
 10
-17.1656776867913
 20
5.270971155628139
 10
-17.2299813469434
 20
5.407094868119528
 10
-17.29591964111889
 20
5.542434293479638
 10
-17.363482820728
 20
5.676969545628907
 10
-17.4326611348942
 20
5.810680769020017
 10
-17.5034447741345
 20
5.943548890633612
 10
-17.57582386681069
 20
6.07555566736485
 10
-17.6497885382873
 20
6.20668289612871
 10
-17.7289650821475
 20
6.343090942830912
 10
-17.8098571358126
 20
6.47849021021349
 10
-17.892449102465
 20
6.612855385051431
 10
-17.97672532525199
 20
6.746161092094983
 10
-17.9999945741394
 20
6.782321583097797
  0
LWPOLYLINE
  5
487
330
1E
100
AcDbEntity
  8
SK1
100
AcDbPolyline
 90
       52
 70
     0
 43
0.0
 10
-30.0
 20
-6.782329983200005
 10
-30.0847328479811
 20
-6.649317626079434
 10
-30.16778570960089
 20
-6.515238881154166
 10
-30.249142927995
 20
-6.380119123624292
 10
-30.3287888495127
 20
-6.243983725369316
 10
-30.4067089412914
 20
-6.106856900330634
 10
-30.47946644786089
 20
-5.975057889808835
 10
-30.5506308523004
 20
-5.842393200004897
 10
-30.6201922804024
 20
-5.708881040461732
 10
-30.6881409005547
 20
-5.574540189613924
 10
-30.7544669563909
 20
-5.439390430857616
 10
-30.81916069923
 20
-5.303451650231643
 10
-30.8822123949273
 20
-5.166743734867643
 10
-30.94361279681628
 20
-5.029286608542514
 10
-31.0005462341944
 20
-4.897696784199414
 10
-31.0559666033613
 20
-4.765462766869023
 10
-31.1098664758711
 20
-4.632601817548656
 10
-31.1622387862553
 20
-4.499131393717804
 10
-31.2130768138481
 20
-4.365069139499865
 10
-31.26237385162539
 20
-4.230432706402834
 10
-31.3101232230023
 20
-4.095239755680022
 10
-31.3563186893144
 20
-3.959508088790044
 10
-31.40095434026199
 20
-3.823255612321005
 10
-31.4440242735017
 20
-3.686500235408406
 10
-31.48552264447229
 20
-3.549259885457753
 10
-31.5254440933203
 20
-3.411552643133193
 10
-31.5637835022502
 20
-3.273396665634613
 10
-31.6005357552532
 20
-3.134810110726883
 10
-31.63397573393178
 20
-3.002770624719893
 10
-31.66597495430189
 20
-2.870374660420656
 10
-31.69652970780111
 20
-2.737637954311904
 10
-31.7256362858725
 20
-2.604576242877826
 10
-31.75329109872639
 20
-2.471205291239602
 10
-31.7794910068599
 20
-2.337540973091575
 10
-31.8042329774669
 20
-2.203599187854731
 10
-31.8275139779014
 20
-2.069395834960404
 10
-31.84933112979219
 20
-1.934946823763864
 10
-31.86968199683089
 20
-1.800268092056823
 10
-31.8885642213888
 20
-1.665375582692214
 10
-31.9059754473865
 20
-1.530285239328545
 10
-31.92191352669119
 20
-1.395013113762414
 10
-31.93637672656139
 20
-1.259575473805365
 10
-31.9493633636303
 20
-1.123988612945284
 10
-31.960871761281
 20
-0.9882688152209199
 10
-31.9709005185531
 20
-0.8524319787733968
 10
-31.9794486004393
 20
-0.7164934894380041
 10
-31.98651499719719
 20
-0.5804686976812433
 10
-31.992098718808
 20
-0.4443730645089424
 10
-31.99619912247559
 20
-0.30822399688952
 10
-31.99881586212889
 20
-0.1720405647491431
 10
-31.9999486012429
 20
-0.0358418915137366
 10
-31.999999999996
 20
-0.0000100000000197
  0
LWPOLYLINE
  5
4BD
330
1E
100
AcDbEntity
  8
SK1
100
AcDbPolyline
 90
       52
 70
     0
 43
0.0
 10
-32.0
 20
0.0000000000000039
 10
-31.9992578432826
 20
0.1361995054005189
 10
-31.9970315974775
 20
0.2723888018781599
 10
-31.9933215991051
 20
0.4085487660183379
 10
-31.9881281853058
 20
0.5446602778811439
 10
-31.98145187358409
 20
0.680705228400973
 10
-31.9732936110517
 20
0.8166679163067628
 10
-31.96365440741089
 20
0.9525329911263249
 10
-31.9525352769883
 20
1.088285095914234
 10
-31.9399374889888
 20
1.223908516907448
 10
-31.9258626952278
 20
1.359387004706301
 10
-31.91031257902039
 20
1.494704265813498
 10
-31.89328883751199
 20
1.629844013924373
 10
-31.8747934898355
 20
1.764790130185479
 10
-31.8548288792874
 20
1.899526664326014
 10
-31.8333973634291
 20
2.034037673493929
 10
-31.81050132727428
 20
2.168307216602542
 10
-31.7861435287402
 20
2.302319376545378
 10
-31.76032699459799
 20
2.436058253505069
 10
-31.7330547575601
 20
2.569507948046271
 10
-31.7043298922864
 20
2.702652570846554
 10
-31.67415587823
 20
2.835476330172051
 10
-31.6425364213817
 20
2.967963488903331
 10
-31.6094752302186
 20
3.100098310520281
 10
-31.57312056437119
 20
3.238789672120069
 10
-31.53517746504081
 20
3.377054996118122
 10
-31.4956510468011
 20
3.514876124407463
 10
-31.4545464255421
 20
3.652234899208412
 10
-31.4118688440975
 20
3.789113202876031
 10
-31.3676240694403
 20
3.925493083478781
 10
-31.3218180038014
 20
4.061356631848381
 10
-31.2744565497837
 20
4.196685938935829
 10
-31.22554580748289
 20
4.331463158916672
 10
-31.1750923986767
 20
4.465670612975941
 10
-31.1231030302859
 20
4.599290649556048
 10
-31.0695844107445
 20
4.732305617918652
 10
-31.0145434719842
 20
4.864697988307361
 10
-30.95798760360819
 20
4.996450478708831
 10
-30.89698164573839
 20
5.134083046220481
 10
-30.83432231320769
 20
5.270971155629742
 10
-30.7700186530516
 20
5.407094868118771
 10
-30.70408035887211
 20
5.542434293476952
 10
-30.636517179265
 20
5.676969545627962
 10
-30.5673388651131
 20
5.810680769027582
 10
-30.4965552258975
 20
5.943548890655342
 10
-30.42417613324661
 20
6.075555667400776
 10
-30.3502114617857
 20
6.206682896173062
 10
-30.2710349179211
 20
6.343090942871972
 10
-30.190142864233
 20
6.478490210240602
 10
-30.1075508975532
 20
6.61285538506224
 10
-30.02327467474898
 20
6.746161092095682
 10
-30.0000054258606
 20
6.782321583097797
  0
LWPOLYLINE
  5
4F3
330
1E
100
AcDbEntity
  8
SK1
100
AcDbPolyline
 90
       52
 70
     0
 43
0.0
 10
-39.0
 20
-6.782329983200005
 10
-38.9152671520202
 20
-6.649317626079535
 10
-38.83221429040221
 20
-6.515238881154101
 10
-38.7508570720085
 20
-6.380119123624762
 10
-38.67121115048771
 20
-6.243983725371954
 10
-38.59329105870239
 20
-6.106856900337035
 10
-38.5205335521287
 20
-5.975057889817932
 10
-38.4493691476922
 20
-5.842393200013273
 10
-38.37980771960589
 20
-5.708881040463432
 10
-38.3118590994816
 20
-5.574540189603172
 10
-38.24553304367459
 20
-5.439390430833613
 10
-38.18083930085379
 20
-5.303451650199061
 10
-38.1177876051522
 20
-5.166743734836424
 10
-38.05638720323729
 20
-5.029286608522445
 10
-37.9994537658292
 20
-4.897696784192813
 10
-37.94403339664238
 20
-4.765462766872341
 10
-37.89013352413679
 20
-4.632601817552402
 10
-37.83776121377929
 20
-4.499131393712762
 10
-37.7869231862193
 20
-4.365069139482995
 10
-37.7376261484636
 20
-4.230432706377523
 10
-37.6898767770814
 20
-4.095239755655615
 10
-37.64368131074078
 20
-3.959508088774943
 10
-37.59904565975979
 20
-3.823255612317662
 10
-37.5559757265006
 20
-3.686500235413121
 10
-37.51447735554001
 20
-3.549259885461575
 10
-37.4745559067239
 20
-3.411552643129103
 10
-37.4362164978282
 20
-3.273396665621185
 10
-37.399464244842
 20
-3.134810110708252
 10
-37.36602426615021
 20
-3.002770624703932
 10
-37.3340250457489
 20
-2.870374660412393
 10
-37.3034702922172
 20
-2.737637954312253
 10
-37.2743637141286
 20
-2.60457624288362
 10
-37.24670890128439
 20
-2.471205291244833
 10
-37.22050899317927
 20
-2.337540973091924
 10
-37.19576702260638
 20
-2.203599187848744
 10
-37.1724860221992
 20
-2.069395834949425
 10
-37.15066887031989
 20
-1.934946823751164
 10
-37.1303180032808
 20
-1.800268092044863
 10
-37.111435778716
 20
-1.665375582682214
 10
-37.0940245527109
 20
-1.530285239320433
 10
-37.07808647340189
 20
-1.395013113755384
 10
-37.06362327353121
 20
-1.259575473798784
 10
-37.05063663646539
 20
-1.123988612938833
 10
-37.03912823882149
 20
-0.9882688152145814
 10
-37.02909948155738
 20
-0.8524319787673562
 10
-37.02055139967479
 20
-0.7164934894324895
 10
-37.01348500291028
 20
-0.5804686976765197
 10
-37.0079012812773
 20
-0.4443730645053025
 10
-37.00380087757618
 20
-0.3082239968871435
 10
-37.00118413789059
 20
-0.1720405647479785
 10
-37.00005139875801
 20
-0.0358418915134971
 10
-37.000000000004
 20
-0.0000100000000191
  0
LWPOLYLINE
  5
529
330
1E
100
AcDbEntity
  8
SK1
100
AcDbPolyline
 90
       52
 70
     0
 43
0.0
 10
-37.0
 20
0.0000000000000045
 10
-37.0007421567174
 20
0.1361995054003615
 10
-37.00296840252249
 20
0.2723888018778446
 10
-37.00667840089499
 20
0.4085487660178648
 10
-37.0118718146942
 20
0.5446602778805098
 10
-37.01854812641589
 20
0.6807052284001768
 10
-37.02670638894829
 20
0.8166679163058045
 10
-37.036345592589
 20
0.9525329911252091
 10
-37.0474647230116
 20
1.088285095912973
 10
-37.06006251101099
 20
1.223908516906043
 10
-37.07413730477191
 20
1.359387004704744
 10
-37.08968742097928
 20
1.494704265811773
 10
-37.10671116248779
 20
1.629844013922453
 10
-37.12520651016429
 20
1.764790130183373
 10
-37.14517112071249
 20
1.899526664323733
 10
-37.1666026365706
 20
2.034037673491534
 10
-37.189498672725
 20
2.168307216600124
 10
-37.2138564712586
 20
2.302319376542964
 10
-37.2396730054006
 20
2.436058253502553
 10
-37.266945242439
 20
2.569507948043443
 10
-37.295670107714
 20
2.702652570843091
 10
-37.3258441217719
 20
2.835476330167933
 10
-37.3574635786205
 20
2.967963488898931
 10
-37.3905247697814
 20
3.10009831051645
 10
-37.4268794356231
 20
3.238789672118064
 10
-37.4648225349475
 20
3.377054996117962
 10
-37.50434895318679
 20
3.514876124407283
 10
-37.5454535744565
 20
3.652234899204402
 10
-37.5881311559259
 20
3.789113202863433
 10
-37.63237593061349
 20
3.925493083455704
 10
-37.6781819962777
 20
4.061356631816882
 10
-37.725543450304
 20
4.196685938901843
 10
-37.7744541925911
 20
4.331463158888121
 10
-37.8249076013701
 20
4.465670612957549
 10
-37.87689696973117
 20
4.599290649548493
 10
-37.93041558925139
 20
4.732305617918583
 10
-37.98545652800469
 20
4.864697988309405
 10
-38.0420123963831
 20
4.996450478709612
 10
-38.1030183542586
 20
5.134083046219092
 10
-38.1656776867913
 20
5.270971155628143
 10
-38.22998134694339
 20
5.40709486811953
 10
-38.29591964111889
 20
5.542434293479641
 10
-38.363482820728
 20
5.676969545628912
 10
-38.4326611348942
 20
5.810680769020012
 10
-38.5034447741345
 20
5.943548890633612
 10
-38.5758238668108
 20
6.075555667364842
 10
-38.64978853828729
 20
6.206682896128714
 10
-38.7289650821475
 20
6.343090942830912
 10
-38.8098571358126
 20
6.478490210213495
 10
-38.892449102465
 20
6.612855385051433
 10
-38.97672532525199
 20
6.746161092094983
 10
-38.9999945741394
 20
6.782321583097801
  0
LWPOLYLINE
  5
55F
330
1E
100
AcDbEntity
  8
SK1
100
AcDbPolyline
 90
       14
 70
     0
 43
0.0
 10
-54.8
 20
-6.782329983200003
 10
-54.938214766052
 20
-6.524089762772829
 10
-55.06550474663459
 20
-6.279560137002889
 10
-55.1835212896033
 20
-6.046409335431969
 10
-55.29381399732701
 20
-5.822242597513801
 10
-55.396608116582
 20
-5.60720432562594
 10
-55.492140143816
 20
-5.401440708139633
 10
-55.5818203123976
 20
-5.202473974146522
 10
-55.6658177208575
 20
-5.010409473381798
 10
-55.74430795042379
 20
-4.82535230917503
 10
-55.8185521454037
 20
-4.644743733526548
 10
-55.8876053574789
 20
-4.47132554376876
 10
-55.9526798683381
 20
-4.302519610457538
 10
-55.9999965334696
 20
-4.1761319835343
  0
LWPOLYLINE
  5
56F
330
1E
100
AcDbEntity
  8
1
100
AcDbPolyline
 90
       45
 70
     0
 43
0.0
 10
104.9655592471999
 20
6.745363171099977
 10
104.9655363740328
 20
6.745537946473687
 10
104.965636090139
 20
6.745671309537204
 10
104.9658314122609
 20
6.745770909848196
 10
104.966095357143
 20
6.745844396964307
 10
104.966400941528
 20
6.745899420443186
 10
104.9667211821599
 20
6.745943629842487
 10
104.96703177299
 20
6.745983951248883
 10
104.967326354459
 20
6.746022461012297
 10
104.9676059432409
 20
6.746059242178455
 10
104.9678715786769
 20
6.746094371668168
 10
104.968124300107
 20
6.746127926402195
 10
104.9683651468729
 20
6.746159983301337
 10
104.968595158314
 20
6.746190619286375
 10
104.9688153737709
 20
6.746219911278088
 10
104.9690268325859
 20
6.746247936197272
 10
104.9692305740979
 20
6.746274770964705
 10
104.969427637649
 20
6.746300492501172
 10
104.969619062578
 20
6.746325177727452
 10
104.9698979011159
 20
6.746360430749517
 10
104.9701698990479
 20
6.746393784753092
 10
104.9709799269529
 20
6.746485048729367
 10
104.9712592562829
 20
6.746513379857661
 10
104.9715459880609
 20
6.746540913609377
 10
104.9718396958118
 20
6.746567675152107
 10
104.972139950186
 20
6.746593689482207
 10
104.9724463218359
 20
6.746618981596018
 10
104.972758381413
 20
6.746643576489876
 10
104.9730756995669
 20
6.746667499160136
 10
104.9735062283658
 20
6.746698393576214
 10
104.973944324746
 20
6.746728196616655
 10
104.974388970991
 20
6.746756967532047
 10
104.974952439121
 20
6.746791570015027
 10
104.975752031769
 20
6.746837680033896
 10
104.978745467251
 20
6.746990131468972
 10
104.979649818964
 20
6.747032575430456
 10
104.980655189575
 20
6.747078223781977
 10
104.981759470704
 20
6.747126483619696
 10
104.9831788806469
 20
6.747185626547384
 10
104.9857687253509
 20
6.747285346584106
 10
104.990619891156
 20
6.747446442588286
 10
104.995426068065
 20
6.747579408486047
 10
105.012748458624
 20
6.747922522628043
 10
105.0472096340169
 20
6.748258769003244
 10
105.074773911899
 20
6.748329761991034
  0
LWPOLYLINE
  5
59E
330
1E
100
AcDbEntity
  8
SK1
100
AcDbPolyline
 90
       14
 70
     0
 43
0.0
 10
-56.0
 20
4.176122603499986
 10
-55.93837994290339
 20
4.340093476837596
 10
-55.87289413665029
 20
4.508741360218585
 10
-55.8023482346647
 20
4.684655421717157
 10
-55.7276620399872
 20
4.865081000215025
 10
-55.6475914800278
 20
5.052586315390355
 10
-55.56195450111609
 20
5.247067153801284
 10
-55.4705769121319
 20
5.448417946796363
 10
-55.3732919952433
 20
5.656532874665292
 10
-55.26868544613019
 20
5.873886219622416
 10
-55.15652238817359
 20
6.100332358613075
 10
-55.03526341098678
 20
6.338278050177036
 10
-54.9046149243909
 20
6.587532322897044
 10
-54.80000476907878
 20
6.782321193567156
  0
LWPOLYLINE
  5
5AE
330
1E
100
AcDbEntity
  8
1
100
AcDbPolyline
 90
       35
 70
     0
 43
0.0
 10
113.6406038909
 20
6.748329761999984
 10
113.640724516332
 20
6.748457925027003
 10
113.640858511121
 20
6.748564651355161
 10
113.641004677277
 20
6.748651765144161
 10
113.6411618168049
 20
6.748721090553661
 10
113.6413287317139
 20
6.74877445174336
 10
113.641504224011
 20
6.748813672872933
 10
113.6416870957029
 20
6.748840578102065
 10
113.6418761487969
 20
6.748856991590432
 10
113.6420701853019
 20
6.748864737497723
 10
113.642268007224
 20
6.748865639983606
 10
113.642468416571
 20
6.748861523207786
 10
113.6427712614049
 20
6.748849927277636
 10
113.643173000733
 20
6.748833817025584
 10
113.643469581159
 20
6.748826146472704
 10
113.643858684026
 20
6.748822051126865
 10
113.6442410316179
 20
6.748824451325807
 10
113.6446171560949
 20
6.748832787955124
 10
113.6449875896158
 20
6.748846501900445
 10
113.6453528643396
 20
6.748865034047392
 10
113.6458030138989
 20
6.748894123051282
 10
113.6462469737109
 20
6.748928774858717
 10
113.646773018457
 20
6.748976162363732
 10
113.6475521084
 20
6.749055186899392
 10
113.649441117349
 20
6.749251744864626
 10
113.6501347961079
 20
6.749311620026313
 10
113.650834488662
 20
6.749362909862235
 10
113.6516281533509
 20
6.749411238037572
 10
113.652517178969
 20
6.749454489126136
 10
113.6535925302959
 20
6.749493777426511
 10
113.6548565328549
 20
6.749525269612485
 10
113.656765448509
 20
6.749551574938426
 10
113.6636720102659
 20
6.749609752987335
 10
113.690436594411
 20
6.749922759532831
 10
113.730449786298
 20
6.750001979324967
  0
LINE
  5
5D3
330
1E
100
AcDbEntity
  8
SK4
100
AcDbLine
 10
-24.0
 20
-3.435444191700035
 30
0.0
 11
-24.0
 21
8.983673652799984
 31
0.0
  0
DIMENSION
  5
5D4
330
1E
100
AcDbEntity
  8
SK2
100
AcDbDimension
  2
*D2
 10
121.0
 20
-33.68309480404333
 30
0.0
 11
48.49999999999999
 21
-33.68309480404333
 31
0.0
 70
   160
 71
     5
 42
145.0
  3
ISO-25
100
AcDbAlignedDimension
 13
-24.0
 23
0.0000000000000029
 33
0.0
 14
121.0
 24
-8.000000000000012
 34
0.0
 50
180.0
100
AcDbRotatedDimension
  0
LINE
  5
5D5
330
1E
100
AcDbEntity
  8
SK4
100
AcDbLine
 10
0.0
 20
0.0
 30
0.0
 11
-59.0
 21
0.0000000000000072
 31
0.0
  0
TEXT
  5
B67
330
1E
100
AcDbEntity
  8
6
100
AcDbText
 10
49.66689554696836
 20
-61.45251305457446
 30
0.0
 40
5.0
  1
15B1E016120W5R00
100
AcDbText
  0
LINE
  5
2944
330
1E
100
AcDbEntity
  8
SK4
100
AcDbLine
 10
117.014257
 20
-1.082941704543784
 30
0.0
 11
117.014257
 21
8.806107083472497
 31
0.0
  0
LINE
  5
2945
330
1E
100
AcDbEntity
  8
SK4
100
AcDbLine
 10
111.8514019241984
 20
4.002248062499981
 30
0.0
 11
122.328069490124
 21
4.002248062499981
 31
0.0
  0
TEXT
  5
2E92
330
1E
100
AcDbEntity
  8
6
100
AcDbText
 10
143.094150982384
 20
-5.542376772994997
 30
0.0
 40
3.5
  1
Z=2
 50
90.0
100
AcDbText
  0
TEXT
  5
2E93
330
1E
100
AcDbEntity
  8
6
100
AcDbText
 10
89.43593554371693
 20
16.19077860264048
 30
0.0
 40
2.5
  1
RHHW0802M0TN
100
AcDbText
  0
LINE
  5
30D4
330
1E
100
AcDbEntity
  8
NOCUT
100
AcDbLine
 10
0.0
 20
12.5
 30
0.0
 11
0.0
 21
0.0
 31
0.0
  0
LINE
  5
30DA
330
1E
100
AcDbEntity
  8
NOCUT
100
AcDbLine
 10
120.2999999999998
 20
0.0
 30
0.0
 11
0.0
 21
0.0
 31
0.0
  0
LINE
  5
30DE
330
1E
100
AcDbEntity
  8
NOCUT
100
AcDbLine
 10
114.6404449571999
 20
6.75
 30
0.0
 11
81.18808962000001
 21
6.75
 31
0.0
  0
LINE
  5
30E1
330
1E
100
AcDbEntity
  8
NOCUT
100
AcDbLine
 10
7.811910379999972
 20
12.25
 30
0.0
 11
0.2000000000000455
 21
12.25
 31
0.0
  0
LINE
  5
30E4
330
1E
100
AcDbEntity
  8
NOCUT
100
AcDbLine
 10
80.81244196209992
 20
6.76413108509999
 30
0.0
 11
81.18808962000001
 21
6.75
 31
0.0
  0
LINE
  5
30E5
330
1E
100
AcDbEntity
  8
NOCUT
100
AcDbLine
 10
8.18755803800002
 20
12.2358689149
 30
0.0
 11
7.811910379999972
 21
12.25
 31
0.0
  0
LINE
  5
30E6
330
1E
100
AcDbEntity
  8
NOCUT
100
AcDbLine
 10
80.81244196209992
 20
6.76413108509999
 30
0.0
 11
8.18755803800002
 21
12.2358689149
 31
0.0
  0
LINE
  5
30E7
330
1E
100
AcDbEntity
  8
NOCUT
100
AcDbLine
 10
120.2999999999998
 20
4.300000000000011
 30
0.0
 11
120.2999999999998
 21
0.0
 31
0.0
  0
ARC
  5
30F3
330
1E
100
AcDbEntity
  8
NOCUT
100
AcDbCircle
 10
114.6404449571999
 20
7.150000000000003
 30
0.0
 40
0.4
100
AcDbArc
 50
270.0
 51
309.6218349071997
  0
ARC
  5
30F5
330
1E
100
AcDbEntity
  8
NOCUT
100
AcDbCircle
 10
117.0
 20
4.300000000000011
 30
0.0
 40
3.299999999999998
100
AcDbArc
 50
0.0
 51
129.6218349071996
  0
ARC
  5
30F6
330
1E
100
AcDbEntity
  8
NOCUT
100
AcDbCircle
 10
0.2000000000000455
 20
12.44999999999998
 30
0.0
 40
0.2
100
AcDbArc
 50
180.0
 51
270.0
  0
SPLINE
  5
3117
330
1E
100
AcDbEntity
  8
CUT
100
AcDbSpline
210
0.0
220
0.0
230
1.0
 70
     8
 71
     3
 72
    36
 73
    32
 74
    30
 42
0.0000000001
 43
0.0000000001
 44
0.0000000001
 12
-0.9999657087988667
 22
0.0082813782898709
 32
0.0
 13
0.9999999740769959
 23
-0.0002276971834317
 33
0.0
 40
0.0
 40
0.0
 40
0.0
 40
0.0
 40
0.4315712002301413
 40
0.8583396446411601
 40
1.278075836552224
 40
1.694242322595969
 40
2.11171939213272
 40
2.532228936568991
 40
2.955519097745693
 40
3.380937425806449
 40
3.807919380106562
 40
4.236051793517468
 40
4.665046388460116
 40
5.094695463512064
 40
5.52485238131066
 40
5.955408681473605
 40
6.38628468147359
 40
6.817417560166476
 40
7.248760877542542
 40
7.680276978424065
 40
8.11193462502031
 40
8.543711158947337
 40
8.97558492194984
 40
9.40754030575008
 40
9.839561877231172
 40
10.2716382467829
 40
10.70375721010896
 40
11.13590964847881
 40
11.56808647663252
 40
12.00027828413586
 40
12.43247917467761
 40
12.43247917467761
 40
12.43247917467761
 40
12.43247917467761
 10
117.014257
 20
0.3139349999999865
 30
0.0
 10
116.8704048662882
 20
0.3151263347893596
 30
0.0
 10
116.5842980497783
 20
0.313337521449552
 30
0.0
 10
116.158234195176
 20
0.3240411082111302
 30
0.0
 10
115.7390199375067
 20
0.3723684197482658
 30
0.0
 10
115.3341848453491
 20
0.4825674729923409
 30
0.0
 10
114.9509577642991
 20
0.6532479421035557
 30
0.0
 10
114.592780385678
 20
0.8756365759487852
 30
0.0
 10
114.2630845865816
 20
1.142394698100575
 30
0.0
 10
113.9655499326641
 20
1.447515874860916
 30
0.0
 10
113.7036662683531
 20
1.785724957385192
 30
0.0
 10
113.4805281364577
 20
2.152029289661136
 30
0.0
 10
113.2987761869923
 20
2.541500296324922
 30
0.0
 10
113.1605576309764
 20
2.949165007612125
 30
0.0
 10
113.0674994703948
 20
3.369972820202916
 30
0.0
 10
113.0207028142723
 20
3.798807441599876
 30
0.0
 10
113.0207182705595
 20
4.230511043520822
 30
0.0
 10
113.0675482874686
 20
4.659929823925169
 30
0.0
 10
113.1606479699388
 20
5.081960065164039
 30
0.0
 10
113.2989221962791
 20
5.49160394316792
 30
0.0
 10
113.4807568756322
 20
5.88401776225435
 30
0.0
 10
113.7040150827991
 20
6.254572847675399
 30
0.0
 10
113.9660832823761
 20
6.59890034237689
 30
0.0
 10
114.2638881012346
 20
6.912944817296654
 30
0.0
 10
114.5939372559187
 20
7.193012211051271
 30
0.0
 10
114.9523633836632
 20
7.435803988951066
 30
0.0
 10
115.3349634628493
 20
7.638468560366462
 30
0.0
 10
115.7372478382664
 20
7.798620231300877
 30
0.0
 10
116.1545183540222
 20
7.914382154148233
 30
0.0
 10
116.581815739963
 20
7.984367331069923
 30
0.0
 10
116.8701900402207
 20
8.000032803641817
 30
0.0
 10
117.014257
 20
8.0
 30
0.0
 11
117.014257
 21
0.3139349999999865
 31
0.0
 11
116.5826889999999
 21
0.3155969999999968
 31
0.0
 11
116.1561819999999
 21
0.3305330000000026
 31
0.0
 11
115.7397339999999
 21
0.3829690000000028
 31
0.0
 11
115.3382289999999
 21
0.4924599999999943
 31
0.0
 11
114.9563739999999
 21
0.661202000000003
 31
0.0
 11
114.5986449999999
 21
0.8822409999999932
 31
0.0
 11
114.2692379999999
 21
1.148070999999985
 31
0.0
 11
113.9720129999999
 21
1.452436000000004
 31
0.0
 11
113.710456
 21
1.789929
 31
0.0
 11
113.4876329999999
 21
2.155507
 31
0.0
 11
113.3061559999999
 21
2.544226000000008
 31
0.0
 11
113.1681539999999
 21
2.951109000000002
 31
0.0
 11
113.075243
 21
3.371112000000008
 31
0.0
 11
113.0285139999999
 21
3.799125000000003
 31
0.0
 11
113.0285139999999
 21
4.230000999999987
 31
0.0
 11
113.075243
 21
4.658593999999993
 31
0.0
 11
113.1681539999999
 21
5.079812000000003
 31
0.0
 11
113.3061559999999
 21
5.488665999999994
 31
0.0
 11
113.4876329999999
 21
5.880322000000004
 31
0.0
 11
113.710456
 21
6.250160999999991
 31
0.0
 11
113.9720129999999
 21
6.593821999999986
 31
0.0
 11
114.2692379999999
 21
6.907259000000008
 31
0.0
 11
114.5986449999999
 21
7.186782999999991
 31
0.0
 11
114.9563739999999
 21
7.429104999999991
 31
0.0
 11
115.3382289999999
 21
7.631375999999987
 31
0.0
 11
115.7397339999999
 21
7.791217999999987
 31
0.0
 11
116.1561819999999
 21
7.906751000000013
 31
0.0
 11
116.5826889999999
 21
7.976618999999997
 31
0.0
 11
117.014257
 21
8.0
 31
0.0
  0
SPLINE
  5
3118
330
1E
100
AcDbEntity
  8
CUT
100
AcDbSpline
210
0.0
220
0.0
230
1.0
 70
     8
 71
     3
 72
    36
 73
    32
 74
    30
 42
0.0000000001
 43
0.0000000001
 44
0.0000000001
 12
0.9999657087988667
 22
0.0082813782898709
 32
0.0
 13
-0.9999999740769959
 23
-0.0002276971834317
 33
0.0
 40
0.0
 40
0.0
 40
0.0
 40
0.0
 40
0.4315712002300418
 40
0.8583396446410606
 40
1.278075836552026
 40
1.694242322595867
 40
2.11171939213254
 40
2.532228936568811
 40
2.955519097745579
 40
3.380937425806336
 40
3.807919380106518
 40
4.236051793517312
 40
4.665046388459961
 40
5.094695463511945
 40
5.524852381310537
 40
5.955408681473483
 40
6.386284681473467
 40
6.817417560166354
 40
7.248760877542417
 40
7.680276978423976
 40
8.111934625020222
 40
8.543711158947138
 40
8.97558492194971
 40
9.40754030574995
 40
9.839561877231107
 40
10.27163824678284
 40
10.70375721010882
 40
11.13590964847875
 40
11.56808647663238
 40
12.00027828413571
 40
12.43247917467736
 40
12.43247917467736
 40
12.43247917467736
 40
12.43247917467736
 10
117.014257
 20
0.3139349999999865
 30
0.0
 10
117.1581091337117
 20
0.3151263347893594
 30
0.0
 10
117.4442159502216
 20
0.3133375214495555
 30
0.0
 10
117.8702798048238
 20
0.3240411082111198
 30
0.0
 10
118.2894940624931
 20
0.3723684197482949
 30
0.0
 10
118.6943291546507
 20
0.4825674729923013
 30
0.0
 10
119.0775562357007
 20
0.6532479421035773
 30
0.0
 10
119.4357336143218
 20
0.8756365759488106
 30
0.0
 10
119.7654294134183
 20
1.142394698100538
 30
0.0
 10
120.0629640673357
 20
1.447515874860966
 30
0.0
 10
120.3248477316469
 20
1.785724957385087
 30
0.0
 10
120.547985863542
 20
2.152029289661207
 30
0.0
 10
120.7297378130074
 20
2.541500296324935
 30
0.0
 10
120.8679563690235
 20
2.949165007612102
 30
0.0
 10
120.961014529605
 20
3.369972820202921
 30
0.0
 10
121.0078111857276
 20
3.798807441599874
 30
0.0
 10
121.0077957294404
 20
4.230511043520825
 30
0.0
 10
120.9609657125313
 20
4.659929823925165
 30
0.0
 10
120.8678660300611
 20
5.081960065164063
 30
0.0
 10
120.7295918037207
 20
5.491603943167906
 30
0.0
 10
120.5477571243676
 20
5.884017762254281
 30
0.0
 10
120.3244989172008
 20
6.254572847675502
 30
0.0
 10
120.0624307176237
 20
6.598900342376841
 30
0.0
 10
119.7646258987653
 20
6.912944817296692
 30
0.0
 10
119.4345767440811
 20
7.193012211051246
 30
0.0
 10
119.0761506163366
 20
7.435803988951043
 30
0.0
 10
118.6935505371506
 20
7.638468560366511
 30
0.0
 10
118.2912661617334
 20
7.798620231300834
 30
0.0
 10
117.8739956459776
 20
7.914382154148256
 30
0.0
 10
117.4466982600369
 20
7.984367331069911
 30
0.0
 10
117.1583239597792
 20
8.000032803641817
 30
0.0
 10
117.014257
 20
8.0
 30
0.0
 11
117.014257
 21
0.3139349999999865
 31
0.0
 11
117.445825
 21
0.3155969999999968
 31
0.0
 11
117.872332
 21
0.3305330000000026
 31
0.0
 11
118.2887799999999
 21
0.3829690000000028
 31
0.0
 11
118.690285
 21
0.4924599999999943
 31
0.0
 11
119.0721399999999
 21
0.661202000000003
 31
0.0
 11
119.4298689999999
 21
0.8822409999999932
 31
0.0
 11
119.759276
 21
1.148070999999985
 31
0.0
 11
120.056501
 21
1.452436000000004
 31
0.0
 11
120.318058
 21
1.789929
 31
0.0
 11
120.5408809999999
 21
2.155507
 31
0.0
 11
120.7223579999999
 21
2.544226000000008
 31
0.0
 11
120.86036
 21
2.951109000000002
 31
0.0
 11
120.9532709999999
 21
3.371112000000008
 31
0.0
 11
121.0
 21
3.799125000000003
 31
0.0
 11
121.0
 21
4.230000999999987
 31
0.0
 11
120.9532709999999
 21
4.658593999999993
 31
0.0
 11
120.86036
 21
5.079812000000003
 31
0.0
 11
120.7223579999999
 21
5.488665999999994
 31
0.0
 11
120.5408809999999
 21
5.880322000000004
 31
0.0
 11
120.318058
 21
6.250160999999991
 31
0.0
 11
120.056501
 21
6.593821999999986
 31
0.0
 11
119.759276
 21
6.907259000000008
 31
0.0
 11
119.4298689999999
 21
7.186782999999991
 31
0.0
 11
119.0721399999999
 21
7.429104999999991
 31
0.0
 11
118.690285
 21
7.631375999999987
 31
0.0
 11
118.2887799999999
 21
7.791217999999987
 31
0.0
 11
117.872332
 21
7.906751000000013
 31
0.0
 11
117.445825
 21
7.976618999999997
 31
0.0
 11
117.014257
 21
8.0
 31
0.0
  0
LWPOLYLINE
  5
3289
330
1E
100
AcDbEntity
  8
1
100
AcDbPolyline
 90
        3
 70
     1
 43
0.0
 10
0.0
 20
-0.0000000000000142
 10
-2.950972054112583
 20
-0.0000000000000142
 42
0.4142135623730966
 10
0.0
 20
-2.950972054112596
  0
HATCH
  5
328A
330
1E
100
AcDbEntity
  8
1
100
AcDbHatch
 10
0.0
 20
0.0
 30
0.0
210
0.0
220
0.0
230
1.0
  2
SOLID
 70
     1
 71
     0
 91
        2
 92
        7
 72
     1
 73
     1
 93
        3
 10
0.0
 20
-0.0000000000000142
 42
0.0
 10
2.950972054112583
 20
-0.0000000000000142
 42
0.4142135623730966
 10
0.0
 20
2.950972054112596
 42
0.0
 97
        0
 92
        7
 72
     1
 73
     1
 93
        3
 10
0.0
 20
-2.950972054112511
 42
0.0
 10
0.0
 20
-0.0000000000000142
 42
0.0
 10
-2.950972054112583
 20
-0.0000000000000142
 42
0.4142135623730953
 97
        0
 75
     0
 76
     1
 47
0.1190009775223266
 98
        2
 10
0.7445530588119027
 20
0.9212244733764832
 10
-1.279464601852936
 20
-1.696796923046305
  0
CIRCLE
  5
328B
330
1E
100
AcDbEntity
  8
1
100
AcDbCircle
 10
0.0
 20
-0.0000000000000142
 30
0.0
 40
2.950972054112601
  0
LINE
  5
328C
330
1E
100
AcDbEntity
  8
1
100
AcDbLine
 10
0.0
 20
2.950972054112596
 30
0.0
 11
0.0
 21
-2.950972054112596
 31
0.0
  0
LINE
  5
328D
330
1E
100
AcDbEntity
  8
1
100
AcDbLine
 10
-2.950972054112837
 20
-0.0000000000000142
 30
0.0
 11
2.950972054112583
 21
-0.0000000000000142
 31
0.0
  0
LWPOLYLINE
  5
328E
330
1E
100
AcDbEntity
  8
1
100
AcDbPolyline
 90
        3
 70
     1
 43
0.0
 10
0.0
 20
2.950972054112596
 10
0.0
 20
-0.0000000000000142
 10
2.950972054112583
 20
-0.0000000000000142
 42
0.4142135623730966
  0
ENDSEC
  0
SECTION
  2
OBJECTS
  0
DICTIONARY
  5
C
330
0
100
AcDbDictionary
281
     1
  3
ACAD_COLOR
350
340E
  3
ACAD_GROUP
350
D
  3
ACAD_LAYOUT
350
19
  3
ACAD_MATERIAL
350
340D
  3
ACAD_MLINESTYLE
350
16
  3
ACAD_PLOTSETTINGS
350
18
  3
ACAD_PLOTSTYLENAME
350
2CE2
  3
ACAD_TABLESTYLE
350
340F
  3
ACDBHEADERROUNDTRIPXREC
350
3420
  3
AcDbVariableDictionary
350
341B
1001
ACAD
1000
TREAT_AS_HARD
1070
     0
1000
TREAT_AS_HARD
1070
     0
  0
DICTIONARY
  5
227E
330
1E
100
AcDbDictionary
281
     1
  3
ACAD_LAYOUTSELFREF
350
2948
1001
ACAD
1000
TREAT_AS_HARD
1070
     0
  0
DICTIONARY
  5
227C
330
1A
100
AcDbDictionary
281
     1
  3
ACAD_LAYOUTSELFREF
350
2947
1001
ACAD
1000
TREAT_AS_HARD
1070
     0
  0
DICTIONARY
  5
340E
102
{ACAD_REACTORS
330
C
102
}
330
C
100
AcDbDictionary
281
     1
  0
DICTIONARY
  5
D
102
{ACAD_REACTORS
330
C
102
}
330
C
100
AcDbDictionary
281
     1
1001
ACAD
1000
TREAT_AS_HARD
1070
     0
1000
TREAT_AS_HARD
1070
     0
  0
DICTIONARY
  5
19
102
{ACAD_REACTORS
330
C
102
}
330
C
100
AcDbDictionary
281
     1
  3
Layout1
350
2CE5
  3
Model
350
2CE4
1001
ACAD
1000
TREAT_AS_HARD
1070
     0
1000
TREAT_AS_HARD
1070
     0
  0
DICTIONARY
  5
340D
102
{ACAD_REACTORS
330
C
102
}
330
C
100
AcDbDictionary
281
     1
  0
DICTIONARY
  5
16
102
{ACAD_REACTORS
330
C
102
}
330
C
100
AcDbDictionary
281
     1
  3
STANDARD
350
17
1001
ACAD
1000
TREAT_AS_HARD
1070
     0
1000
TREAT_AS_HARD
1070
     0
  0
DICTIONARY
  5
18
102
{ACAD_REACTORS
330
C
102
}
330
C
100
AcDbDictionary
281
     1
1001
ACAD
1000
TREAT_AS_HARD
1070
     0
1000
TREAT_AS_HARD
1070
     0
  0
ACDBDICTIONARYWDFLT
  5
2CE2
102
{ACAD_REACTORS
330
C
102
}
330
C
100
AcDbDictionary
281
     1
  3
Normal
350
2CE3
100
AcDbDictionaryWithDefault
340
2CE3
  0
DICTIONARY
  5
340F
102
{ACAD_REACTORS
330
C
102
}
330
C
100
AcDbDictionary
281
     1
  3
Standard
350
3410
  0
DICTIONARY
  5
3420
102
{ACAD_REACTORS
330
C
102
}
330
C
100
AcDbDictionary
281
     1
  0
DICTIONARY
  5
341B
102
{ACAD_REACTORS
330
C
102
}
330
C
100
AcDbDictionary
281
     1
  3
CTABLESTYLE
350
341C
  3
DIMASSOC
350
341D
  3
PROJECTNAME
350
341E
  0
XRECORD
  5
2948
102
{ACAD_REACTORS
330
227E
102
}
330
227E
100
AcDbXrecord
280
     1
340
1E
  0
XRECORD
  5
2947
102
{ACAD_REACTORS
330
227C
102
}
330
227C
100
AcDbXrecord
280
     1
340
1A
  0
LAYOUT
  5
2CE5
102
{ACAD_XDICTIONARY
360
3423
102
}
102
{ACAD_REACTORS
330
19
102
}
330
19
100
AcDbPlotSettings
  1

  2
\\ingdom02\ITB2
  4

  6

 40
0.0
 41
0.0
 42
0.0
 43
0.0
 44
0.0
 45
0.0
 46
0.0
 47
0.0
 48
0.0
 49
0.0
140
0.0
141
0.0
142
1.0
143
1.0
 70
   688
 72
     0
 73
     0
 74
     5
  7

 75
    16
147
1.0
148
0.0
149
0.0
100
AcDbLayout
  1
Layout1
 70
     1
 71
     1
 10
0.0
 20
0.0
 11
12.0
 21
9.0
 12
0.0
 22
0.0
 32
0.0
 14
100.0
 24
100.0
 34
100.0
 15
-100.0
 25
-100.0
 35
-100.0
146
0.0
 13
0.0
 23
0.0
 33
0.0
 16
1.0
 26
0.0
 36
0.0
 17
0.0
 27
1.0
 37
0.0
 76
     0
330
1A
  0
LAYOUT
  5
2CE4
102
{ACAD_XDICTIONARY
360
3421
102
}
102
{ACAD_REACTORS
330
19
102
}
330
19
100
AcDbPlotSettings
  1

  2
\\ingdom02\ITB2
  4

  6

 40
0.0
 41
0.0
 42
0.0
 43
0.0
 44
0.0
 45
0.0
 46
0.0
 47
0.0
 48
0.0
 49
0.0
140
0.0
141
0.0
142
1.0
143
1.0
 70
  1712
 72
     0
 73
     0
 74
     0
  7

 75
     0
147
1.0
148
0.0
149
0.0
100
AcDbLayout
  1
Model
 70
     1
 71
     0
 10
0.0
 20
0.0
 11
12.0
 21
9.0
 12
0.0
 22
0.0
 32
0.0
 14
0.0
 24
0.0
 34
0.0
 15
0.0
 25
0.0
 35
0.0
146
0.0
 13
0.0
 23
0.0
 33
0.0
 16
1.0
 26
0.0
 36
0.0
 17
0.0
 27
1.0
 37
0.0
 76
     0
330
1E
  0
MLINESTYLE
  5
17
102
{ACAD_REACTORS
330
16
102
}
330
16
100
AcDbMlineStyle
  2
STANDARD
 70
     0
  3

 62
   256
 51
90.0
 52
90.0
 71
     2
 49
0.5
 62
   256
  6
BYLAYER
 49
-0.5
 62
   256
  6
BYLAYER
  0
ACDBPLACEHOLDER
  5
2CE3
102
{ACAD_REACTORS
330
2CE2
102
}
330
2CE2
  0
TABLESTYLE
  5
3410
102
{ACAD_REACTORS
330
340F
102
}
330
340F
100
AcDbTableStyle
  3
Standard
 70
     0
 71
     0
 40
0.06
 41
0.06
280
     0
281
     0
  7
STANDARD
140
0.18
170
     2
 62
     0
 63
     7
283
     0
274
    -2
284
     1
 64
     0
275
    -2
285
     1
 65
     0
276
    -2
286
     1
 66
     0
277
    -2
287
     1
 67
     0
278
    -2
288
     1
 68
     0
279
    -2
289
     1
 69
     0
  7
STANDARD
140
0.25
170
     5
 62
     0
 63
     7
283
     0
274
    -2
284
     1
 64
     0
275
    -2
285
     1
 65
     0
276
    -2
286
     1
 66
     0
277
    -2
287
     1
 67
     0
278
    -2
288
     1
 68
     0
279
    -2
289
     1
 69
     0
  7
STANDARD
140
0.18
170
     5
 62
     0
 63
     7
283
     0
274
    -2
284
     1
 64
     0
275
    -2
285
     1
 65
     0
276
    -2
286
     1
 66
     0
277
    -2
287
     1
 67
     0
278
    -2
288
     1
 68
     0
279
    -2
289
     1
 69
     0
  0
DICTIONARYVAR
  5
341C
102
{ACAD_REACTORS
330
341B
102
}
330
341B
100
DictionaryVariables
280
     0
  1
STANDARD
  0
DICTIONARYVAR
  5
341D
102
{ACAD_REACTORS
330
341B
102
}
330
341B
100
DictionaryVariables
280
     0
  1
1
  0
DICTIONARYVAR
  5
341E
102
{ACAD_REACTORS
330
341B
102
}
330
341B
100
DictionaryVariables
280
     0
  1

  0
DICTIONARY
  5
3423
330
2CE5
100
AcDbDictionary
280
     1
281
     1
  3
ACAD_XREC_ROUNDTRIP
360
3424
  0
DICTIONARY
  5
3421
330
2CE4
100
AcDbDictionary
280
     1
281
     1
  3
ACAD_XREC_ROUNDTRIP
360
3422
  0
XRECORD
  5
3424
102
{ACAD_REACTORS
330
3423
102
}
330
3423
100
AcDbXrecord
280
     1
102
SHADEPLOT
 70
     0
102
SHADEPLOTRESLEVEL
 70
     2
102
SHADEPLOTCUSTOMDPI
 70
   300
  0
XRECORD
  5
3422
102
{ACAD_REACTORS
330
3421
102
}
330
3421
100
AcDbXrecord
280
     1
102
SHADEPLOT
 70
     0
102
SHADEPLOTRESLEVEL
 70
     2
102
SHADEPLOTCUSTOMDPI
 70
   300
  0
ENDSEC
  0
EOF
