  0
SECTION
  2
HEADER
  9
$ACADVER
  1
AC1015
  9
$ACADMAINTVER
 70
    20
  9
$DWGCODEPAGE
  3
ANSI_1252
  9
$INSBASE
 10
0.0
 20
0.0
 30
0.0
  9
$EXTMIN
 10
-60.6552194118276
 20
-65.79535945214229
 30
-0.0015258207003583
  9
$EXTMAX
 10
123.8038011264821
 20
16.20185577725294
 30
0.0000000349246037
  9
$LIMMIN
 10
0.0
 20
0.0
  9
$LIMMAX
 10
594.0
 20
420.0
  9
$ORTHOMODE
 70
     0
  9
$REGENMODE
 70
     1
  9
$FILLMODE
 70
     1
  9
$QTEXTMODE
 70
     0
  9
$MIRRTEXT
 70
     1
  9
$LTSCALE
 40
10.0
  9
$ATTMODE
 70
     1
  9
$TEXTSIZE
 40
0.2
  9
$TRACEWID
 40
0.05
  9
$TEXTSTYLE
  7
STANDARD
  9
$CLAYER
  8
0
  9
$CELTYPE
  6
BYLAYER
  9
$CECOLOR
 62
   256
  9
$CELTSCALE
 40
1.0
  9
$DISPSILH
 70
     0
  9
$DIMSCALE
 40
1.0
  9
$DIMASZ
 40
2.5
  9
$DIMEXO
 40
3.712499999999999
  9
$DIMDLI
 40
22.572
  9
$DIMRND
 40
0.0
  9
$DIMDLE
 40
0.0
  9
$DIMEXE
 40
10.692
  9
$DIMTP
 40
0.01
  9
$DIMTM
 40
0.01
  9
$DIMTXT
 40
3.5
  9
$DIMCEN
 40
5.346
  9
$DIMTSZ
 40
0.0
  9
$DIMTOL
 70
     1
  9
$DIMLIM
 70
     0
  9
$DIMTIH
 70
     1
  9
$DIMTOH
 70
     1
  9
$DIMSE1
 70
     0
  9
$DIMSE2
 70
     0
  9
$DIMTAD
 70
     0
  9
$DIMZIN
 70
     0
  9
$DIMBLK
  1
_FILLED
  9
$DIMASO
 70
     1
  9
$DIMSHO
 70
     1
  9
$DIMPOST
  1

  9
$DIMAPOST
  1

  9
$DIMALT
 70
     0
  9
$DIMALTD
 70
     2
  9
$DIMALTF
 40
25.4
  9
$DIMLFAC
 40
1.0
  9
$DIMTOFL
 70
     0
  9
$DIMTVP
 40
0.0
  9
$DIMTIX
 70
     0
  9
$DIMSOXD
 70
     0
  9
$DIMSAH
 70
     0
  9
$DIMBLK1
  1

  9
$DIMBLK2
  1

  9
$DIMSTYLE
  2
STANDARD
  9
$DIMCLRD
 70
     0
  9
$DIMCLRE
 70
     0
  9
$DIMCLRT
 70
     0
  9
$DIMTFAC
 40
1.0
  9
$DIMGAP
 40
0.09
  9
$DIMJUST
 70
     0
  9
$DIMSD1
 70
     0
  9
$DIMSD2
 70
     0
  9
$DIMTOLJ
 70
     1
  9
$DIMTZIN
 70
     0
  9
$DIMALTZ
 70
     0
  9
$DIMALTTZ
 70
     0
  9
$DIMUPT
 70
     0
  9
$DIMDEC
 70
     4
  9
$DIMTDEC
 70
     4
  9
$DIMALTU
 70
     2
  9
$DIMALTTD
 70
     2
  9
$DIMTXSTY
  7
STANDARD
  9
$DIMAUNIT
 70
     0
  9
$DIMADEC
 70
     0
  9
$DIMALTRND
 40
0.0
  9
$DIMAZIN
 70
     0
  9
$DIMDSEP
 70
    46
  9
$DIMATFIT
 70
     3
  9
$DIMFRAC
 70
     0
  9
$DIMLDRBLK
  1
_FILLED
  9
$DIMLUNIT
 70
     2
  9
$DIMLWD
 70
    -2
  9
$DIMLWE
 70
    -2
  9
$DIMTMOVE
 70
     0
  9
$LUNITS
 70
     2
  9
$LUPREC
 70
     4
  9
$SKETCHINC
 40
0.1
  9
$FILLETRAD
 40
0.0
  9
$AUNITS
 70
     0
  9
$AUPREC
 70
     0
  9
$MENU
  1

  9
$ELEVATION
 40
0.0
  9
$PELEVATION
 40
0.0
  9
$THICKNESS
 40
0.0
  9
$LIMCHECK
 70
     0
  9
$CHAMFERA
 40
0.0
  9
$CHAMFERB
 40
0.0
  9
$CHAMFERC
 40
0.0
  9
$CHAMFERD
 40
0.0
  9
$SKPOLY
 70
     0
  9
$TDCREATE
 40
2453413.447594167
  9
$TDUCREATE
 40
2453413.364260833
  9
$TDUPDATE
 40
2453909.276676609
  9
$TDUUPDATE
 40
2453909.193343276
  9
$TDINDWG
 40
0.1559136574
  9
$TDUSRTIMER
 40
0.0306392477
  9
$USRTIMER
 70
     1
  9
$ANGBASE
 50
0.0
  9
$ANGDIR
 70
     0
  9
$PDMODE
 70
     0
  9
$PDSIZE
 40
0.3125
  9
$PLINEWID
 40
0.0
  9
$SPLFRAME
 70
     0
  9
$SPLINETYPE
 70
     6
  9
$SPLINESEGS
 70
     8
  9
$HANDSEED
  5
3860
  9
$SURFTAB1
 70
     6
  9
$SURFTAB2
 70
     6
  9
$SURFTYPE
 70
     6
  9
$SURFU
 70
     6
  9
$SURFV
 70
     6
  9
$UCSBASE
  2

  9
$UCSNAME
  2

  9
$UCSORG
 10
0.0
 20
0.0
 30
0.0
  9
$UCSXDIR
 10
1.0
 20
0.0
 30
0.0
  9
$UCSYDIR
 10
0.0
 20
1.0
 30
0.0
  9
$UCSORTHOREF
  2

  9
$UCSORTHOVIEW
 70
     0
  9
$UCSORGTOP
 10
0.0
 20
0.0
 30
0.0
  9
$UCSORGBOTTOM
 10
0.0
 20
0.0
 30
0.0
  9
$UCSORGLEFT
 10
0.0
 20
0.0
 30
0.0
  9
$UCSORGRIGHT
 10
0.0
 20
0.0
 30
0.0
  9
$UCSORGFRONT
 10
0.0
 20
0.0
 30
0.0
  9
$UCSORGBACK
 10
0.0
 20
0.0
 30
0.0
  9
$PUCSBASE
  2

  9
$PUCSNAME
  2

  9
$PUCSORG
 10
0.0
 20
0.0
 30
0.0
  9
$PUCSXDIR
 10
1.0
 20
0.0
 30
0.0
  9
$PUCSYDIR
 10
0.0
 20
1.0
 30
0.0
  9
$PUCSORTHOREF
  2

  9
$PUCSORTHOVIEW
 70
     0
  9
$PUCSORGTOP
 10
0.0
 20
0.0
 30
0.0
  9
$PUCSORGBOTTOM
 10
0.0
 20
0.0
 30
0.0
  9
$PUCSORGLEFT
 10
0.0
 20
0.0
 30
0.0
  9
$PUCSORGRIGHT
 10
0.0
 20
0.0
 30
0.0
  9
$PUCSORGFRONT
 10
0.0
 20
0.0
 30
0.0
  9
$PUCSORGBACK
 10
0.0
 20
0.0
 30
0.0
  9
$USERI1
 70
     0
  9
$USERI2
 70
     0
  9
$USERI3
 70
     0
  9
$USERI4
 70
     0
  9
$USERI5
 70
     0
  9
$USERR1
 40
0.0
  9
$USERR2
 40
0.0
  9
$USERR3
 40
0.0
  9
$USERR4
 40
0.0
  9
$USERR5
 40
0.0
  9
$WORLDVIEW
 70
     1
  9
$SHADEDGE
 70
     3
  9
$SHADEDIF
 70
    70
  9
$TILEMODE
 70
     1
  9
$MAXACTVP
 70
    64
  9
$PINSBASE
 10
0.0
 20
0.0
 30
0.0
  9
$PLIMCHECK
 70
     0
  9
$PEXTMIN
 10
100.0
 20
100.0
 30
100.0
  9
$PEXTMAX
 10
-100.0
 20
-100.0
 30
-100.0
  9
$PLIMMIN
 10
0.0
 20
0.0
  9
$PLIMMAX
 10
12.0
 20
9.0
  9
$UNITMODE
 70
     0
  9
$VISRETAIN
 70
     1
  9
$PLINEGEN
 70
     1
  9
$PSLTSCALE
 70
     1
  9
$TREEDEPTH
 70
  3020
  9
$CMLSTYLE
  2
STANDARD
  9
$CMLJUST
 70
     0
  9
$CMLSCALE
 40
1.0
  9
$PROXYGRAPHICS
 70
     1
  9
$MEASUREMENT
 70
     0
  9
$CELWEIGHT
370
    -1
  9
$ENDCAPS
280
     0
  9
$JOINSTYLE
280
     0
  9
$LWDISPLAY
290
     0
  9
$INSUNITS
 70
     0
  9
$HYPERLINKBASE
  1

  9
$STYLESHEET
  1

  9
$XEDIT
290
     1
  9
$CEPSNTYPE
380
     0
  9
$PSTYLEMODE
290
     1
  9
$FINGERPRINTGUID
  2
{F3ADBB39-A75A-4248-A416-B1229E890C89}
  9
$VERSIONGUID
  2
{5F848B5B-DB8D-48B1-B5FE-CBA350D40542}
  9
$EXTNAMES
290
     1
  9
$PSVPSCALE
 40
0.0
  9
$OLESTARTUP
290
     0
  0
ENDSEC
  0
SECTION
  2
CLASSES
  0
CLASS
  1
ACDBDICTIONARYWDFLT
  2
AcDbDictionaryWithDefault
  3
ObjectDBX Classes
 90
        0
280
     0
281
     0
  0
CLASS
  1
ACDBPLACEHOLDER
  2
AcDbPlaceHolder
  3
ObjectDBX Classes
 90
        0
280
     0
281
     0
  0
CLASS
  1
LAYOUT
  2
AcDbLayout
  3
ObjectDBX Classes
 90
        0
280
     0
281
     0
  0
CLASS
  1
TABLESTYLE
  2
AcDbTableStyle
  3
ObjectDBX Classes
 90
     2047
280
     0
281
     0
  0
CLASS
  1
DICTIONARYVAR
  2
AcDbDictionaryVar
  3
ObjectDBX Classes
 90
        0
280
     0
281
     0
  0
ENDSEC
  0
SECTION
  2
TABLES
  0
TABLE
  2
VPORT
  5
8
330
0
100
AcDbSymbolTable
 70
     2
  0
VPORT
  5
385A
330
8
100
AcDbSymbolTableRecord
100
AcDbViewportTableRecord
  2
*Active
 70
     0
 10
0.0
 20
0.0
 11
1.0
 21
1.0
 12
31.57429085732724
 22
-24.79675183744467
 13
0.0
 23
0.0
 14
1.0
 24
1.0
 15
0.0
 25
0.0
 16
0.0
 26
0.0
 36
1.0
 17
0.0
 27
0.0
 37
0.0
 40
120.9706199769055
 41
1.532401524777636
 42
50.0
 43
0.0
 44
0.0
 50
0.0
 51
0.0
 71
     0
 72
   100
 73
     1
 74
     1
 75
     0
 76
     0
 77
     0
 78
     0
281
     0
 65
     1
110
0.0
120
0.0
130
0.0
111
1.0
121
0.0
131
0.0
112
0.0
122
1.0
132
0.0
 79
     0
146
0.0
  0
ENDTAB
  0
TABLE
  2
LTYPE
  5
5
330
0
100
AcDbSymbolTable
 70
     2
  0
LTYPE
  5
13
330
5
100
AcDbSymbolTableRecord
100
AcDbLinetypeTableRecord
  2
BYBLOCK
 70
     0
  3

 72
    65
 73
     0
 40
0.0
  0
LTYPE
  5
14
330
5
100
AcDbSymbolTableRecord
100
AcDbLinetypeTableRecord
  2
BYLAYER
 70
     0
  3

 72
    65
 73
     0
 40
0.0
  0
LTYPE
  5
15
330
5
100
AcDbSymbolTableRecord
100
AcDbLinetypeTableRecord
  2
CONTINUOUS
 70
     0
  3
Solid line
 72
    65
 73
     0
 40
0.0
  0
LTYPE
  5
2E
330
5
100
AcDbSymbolTableRecord
100
AcDbLinetypeTableRecord
  2
CENTER
 70
     0
  3
____ _ ____ _ ____ _ ____ _ ____ _ ____ _ ____
 72
    65
 73
     4
 40
0.6
 49
0.375
 74
     0
 49
-0.075
 74
     0
 49
0.075
 74
     0
 49
-0.075
 74
     0
  0
ENDTAB
  0
TABLE
  2
LAYER
  5
2
330
0
100
AcDbSymbolTable
 70
    11
  0
LAYER
  5
10
330
2
100
AcDbSymbolTableRecord
100
AcDbLayerTableRecord
  2
1
 70
     0
 62
     4
  6
CONTINUOUS
370
    -3
390
3129
  0
LAYER
  5
31
330
2
100
AcDbSymbolTableRecord
100
AcDbLayerTableRecord
  2
2
 70
     0
 62
     7
  6
CONTINUOUS
370
    -3
390
3129
  0
LAYER
  5
33
330
2
100
AcDbSymbolTableRecord
100
AcDbLayerTableRecord
  2
4
 70
     0
 62
     2
  6
CENTER
370
    -3
390
3129
  0
LAYER
  5
36
330
2
100
AcDbSymbolTableRecord
100
AcDbLayerTableRecord
  2
0
 70
     0
 62
     7
  6
CONTINUOUS
370
    -3
390
3129
  0
LAYER
  5
37
330
2
100
AcDbSymbolTableRecord
100
AcDbLayerTableRecord
  2
DEFPOINTS
 70
     0
 62
     7
  6
CONTINUOUS
290
     0
370
    -3
390
3129
  0
LAYER
  5
593
330
2
100
AcDbSymbolTableRecord
100
AcDbLayerTableRecord
  2
SK1
 70
     0
 62
     4
  6
CONTINUOUS
370
    -3
390
3129
  0
LAYER
  5
594
330
2
100
AcDbSymbolTableRecord
100
AcDbLayerTableRecord
  2
SK4
 70
     0
 62
     2
  6
CENTER
370
    -3
390
3129
  0
LAYER
  5
596
330
2
100
AcDbSymbolTableRecord
100
AcDbLayerTableRecord
  2
SK2
 70
     0
 62
     7
  6
CONTINUOUS
370
    -3
390
3129
  0
LAYER
  5
3193
330
2
100
AcDbSymbolTableRecord
100
AcDbLayerTableRecord
  2
6
 70
     0
 62
     5
  6
CONTINUOUS
370
    -3
390
3129
  0
LAYER
  5
3194
330
2
100
AcDbSymbolTableRecord
100
AcDbLayerTableRecord
  2
CUT
 70
     0
 62
     1
  6
CONTINUOUS
370
    -3
390
3129
  0
LAYER
  5
3195
330
2
100
AcDbSymbolTableRecord
100
AcDbLayerTableRecord
  2
NOCUT
 70
     0
 62
     7
  6
CONTINUOUS
370
    -3
390
3129
  0
ENDTAB
  0
TABLE
  2
STYLE
  5
3
330
0
100
AcDbSymbolTable
 70
     1
  0
STYLE
  5
11
330
3
100
AcDbSymbolTableRecord
100
AcDbTextStyleTableRecord
  2
STANDARD
 70
     0
 40
0.0
 41
0.8
 50
0.0
 71
     0
 42
0.2
  3
isocp.shx
  4

  0
ENDTAB
  0
TABLE
  2
VIEW
  5
6
330
0
100
AcDbSymbolTable
 70
     0
  0
ENDTAB
  0
TABLE
  2
UCS
  5
7
330
0
100
AcDbSymbolTable
 70
     0
  0
ENDTAB
  0
TABLE
  2
APPID
  5
9
330
0
100
AcDbSymbolTable
 70
     1
  0
APPID
  5
12
330
9
100
AcDbSymbolTableRecord
100
AcDbRegAppTableRecord
  2
ACAD
 70
     0
  0
ENDTAB
  0
TABLE
  2
DIMSTYLE
  5
A
330
0
100
AcDbSymbolTable
 70
     2
100
AcDbDimStyleTable
 71
     0
  0
DIMSTYLE
105
30
330
A
100
AcDbSymbolTableRecord
100
AcDbDimStyleTableRecord
  2
STANDARD
 70
     0
340
11
  0
DIMSTYLE
105
597
102
{ACAD_REACTORS
330
90
330
553
330
91
330
8C
330
8D
102
}
330
A
100
AcDbSymbolTableRecord
100
AcDbDimStyleTableRecord
  2
ISO-25
 70
     0
 41
2.5
 42
0.625
 43
3.75
 44
1.25
 73
     0
 74
     0
 77
     1
 78
     8
140
2.5
141
2.5
143
0.03937007874016
147
0.625
171
     3
172
     1
271
     2
272
     2
274
     3
283
     0
284
     8
340
11
  0
ENDTAB
  0
TABLE
  2
BLOCK_RECORD
  5
1
330
0
100
AcDbSymbolTable
 70
     6
  0
BLOCK_RECORD
  5
1E
102
{ACAD_XDICTIONARY
360
27C6
102
}
330
1
100
AcDbSymbolTableRecord
100
AcDbBlockTableRecord
  2
*MODEL_SPACE
340
312A
  0
BLOCK_RECORD
  5
1A
102
{ACAD_XDICTIONARY
360
27C4
102
}
330
1
100
AcDbSymbolTableRecord
100
AcDbBlockTableRecord
  2
*PAPER_SPACE
340
312B
  0
BLOCK_RECORD
  5
23
330
1
100
AcDbSymbolTableRecord
100
AcDbBlockTableRecord
  2
_FILLED
340
0
  0
BLOCK_RECORD
  5
E24
330
1
100
AcDbSymbolTableRecord
100
AcDbBlockTableRecord
  2
*D1
340
0
  0
BLOCK_RECORD
  5
E32
330
1
100
AcDbSymbolTableRecord
100
AcDbBlockTableRecord
  2
*D2
340
0
  0
BLOCK_RECORD
  5
E3E
330
1
100
AcDbSymbolTableRecord
100
AcDbBlockTableRecord
  2
*D3
340
0
  0
BLOCK_RECORD
  5
E4A
330
1
100
AcDbSymbolTableRecord
100
AcDbBlockTableRecord
  2
*D4
340
0
  0
BLOCK_RECORD
  5
E56
330
1
100
AcDbSymbolTableRecord
100
AcDbBlockTableRecord
  2
*D5
340
0
  0
ENDTAB
  0
ENDSEC
  0
SECTION
  2
BLOCKS
  0
BLOCK
  5
3A
330
1E
100
AcDbEntity
  8
0
100
AcDbBlockBegin
  2
*MODEL_SPACE
 70
     0
 10
0.0
 20
0.0
 30
0.0
  3
*MODEL_SPACE
  1

  0
ENDBLK
  5
3B
330
1E
100
AcDbEntity
  8
0
100
AcDbBlockEnd
  0
BLOCK
  5
38
330
1A
100
AcDbEntity
 67
     1
  8
0
100
AcDbBlockBegin
  2
*PAPER_SPACE
 70
     0
 10
0.0
 20
0.0
 30
0.0
  3
*PAPER_SPACE
  1

  0
ENDBLK
  5
39
330
1A
100
AcDbEntity
 67
     1
  8
0
100
AcDbBlockEnd
  0
BLOCK
  5
3E
330
23
100
AcDbEntity
  8
0
100
AcDbBlockBegin
  2
_FILLED
 70
     0
 10
0.0
 20
0.0
 30
0.0
  3
_FILLED
  1

  0
SOLID
  5
3F
330
23
100
AcDbEntity
  8
0
  6
ByBlock
 62
     0
100
AcDbTrace
 10
0.0
 20
0.0
 30
0.0
 11
-1.0
 21
0.132
 31
0.0
 12
-1.0
 22
-0.132
 32
0.0
 13
-1.0
 23
-0.132
 33
0.0
  0
ENDBLK
  5
40
330
23
100
AcDbEntity
  8
0
100
AcDbBlockEnd
  0
BLOCK
  5
E30
330
E24
100
AcDbEntity
  8
0
100
AcDbBlockBegin
  2
*D1
 70
     1
 10
0.0
 20
0.0
 30
0.0
  3
*D1
  1

  0
LINE
  5
384C
330
E24
100
AcDbEntity
  8
SK2
 62
     0
370
    -2
100
AcDbLine
 10
-49.42499999999999
 20
-9.999999999999994
 30
0.0
 11
-58.74665536592033
 21
-9.999999999999992
 31
0.0
  0
LINE
  5
384D
330
E24
100
AcDbEntity
  8
SK2
 62
     0
370
    -2
100
AcDbLine
 10
-49.51558783732775
 20
10.0
 30
0.0
 11
-58.74665536592033
 21
10.0
 31
0.0
  0
LINE
  5
384E
330
E24
100
AcDbEntity
  8
SK2
 62
     0
370
    -2
100
AcDbLine
 10
-57.49665536592033
 20
-7.499999999999992
 30
0.0
 11
-57.49665536592033
 21
7.500000000000001
 31
0.0
  0
SOLID
  5
384F
330
E24
100
AcDbEntity
  8
SK2
 62
     0
100
AcDbTrace
 10
-57.913322032587
 20
-7.499999999999992
 30
0.0
 11
-57.07998869925367
 21
-7.499999999999992
 31
0.0
 12
-57.49665536592033
 22
-9.999999999999992
 32
0.0
 13
-57.49665536592033
 23
-9.999999999999992
 33
0.0
  0
SOLID
  5
3850
330
E24
100
AcDbEntity
  8
SK2
 62
     0
100
AcDbTrace
 10
-57.913322032587
 20
7.500000000000001
 30
0.0
 11
-57.07998869925367
 21
7.500000000000001
 31
0.0
 12
-57.49665536592033
 22
10.0
 32
0.0
 13
-57.49665536592033
 23
10.0
 33
0.0
  0
MTEXT
  5
3851
330
E24
100
AcDbEntity
  8
SK2
 62
     0
100
AcDbMText
 10
-59.37165536592033
 20
-0.1145583506003047
 30
0.0
 40
2.5
 41
0.0
 71
     5
 72
     1
  1
%%c20
 11
0.0000000000000001
 21
1.0
 31
0.0
 73
     1
 44
1.0
1001
ACAD
1000
MTEXTBEGIN
1070
    73
1070
     1
1070
    44
1040
1.0
1070
    74
1070
     0
1000
MTEXTEND
  0
POINT
  5
3852
330
E24
100
AcDbEntity
  8
DEFPOINTS
 62
     0
100
AcDbPoint
 10
-48.79999999999999
 20
-9.999999999999994
 30
0.0
  0
POINT
  5
3853
330
E24
100
AcDbEntity
  8
DEFPOINTS
 62
     0
100
AcDbPoint
 10
-48.89058783732775
 20
10.0
 30
0.0
  0
POINT
  5
3854
330
E24
100
AcDbEntity
  8
DEFPOINTS
 62
     0
100
AcDbPoint
 10
-57.49665536592033
 20
10.0
 30
0.0
  0
ENDBLK
  5
E31
330
E24
100
AcDbEntity
  8
0
100
AcDbBlockEnd
  0
BLOCK
  5
E3C
330
E32
100
AcDbEntity
  8
0
100
AcDbBlockBegin
  2
*D2
 70
     1
 10
0.0
 20
0.0
 30
0.0
  3
*D2
  1

  0
LINE
  5
312C
330
E32
100
AcDbEntity
  8
SK2
 62
     0
370
    -2
100
AcDbLine
 10
100.0
 20
-8.625000000000012
 30
0.0
 11
100.0
 21
-35.07699709233373
 31
0.0
  0
LINE
  5
312D
330
E32
100
AcDbEntity
  8
SK2
 62
     0
370
    -2
100
AcDbLine
 10
-25.0
 20
-0.6249999999999969
 30
0.0
 11
-25.0
 21
-35.07699709233373
 31
0.0
  0
LINE
  5
312E
330
E32
100
AcDbEntity
  8
SK2
 62
     0
370
    -2
100
AcDbLine
 10
97.5
 20
-33.82699709233373
 30
0.0
 11
-22.5
 21
-33.82699709233373
 31
0.0
  0
SOLID
  5
312F
330
E32
100
AcDbEntity
  8
SK2
 62
     0
100
AcDbTrace
 10
97.5
 20
-33.41033042566706
 30
0.0
 11
97.5
 21
-34.2436637590004
 31
0.0
 12
100.0
 22
-33.82699709233373
 32
0.0
 13
100.0
 23
-33.82699709233373
 33
0.0
  0
SOLID
  5
3130
330
E32
100
AcDbEntity
  8
SK2
 62
     0
100
AcDbTrace
 10
-22.5
 20
-33.41033042566706
 30
0.0
 11
-22.5
 21
-34.2436637590004
 31
0.0
 12
-25.0
 22
-33.82699709233373
 32
0.0
 13
-25.0
 23
-33.82699709233373
 33
0.0
  0
MTEXT
  5
3131
330
E32
100
AcDbEntity
  8
SK2
 62
     0
100
AcDbMText
 10
37.5
 20
-31.95199709233373
 30
0.0
 40
2.5
 41
0.0
 71
     5
 72
     1
  1
125
 73
     1
 44
1.0
1001
ACAD
1000
MTEXTBEGIN
1070
    73
1070
     1
1070
    44
1040
1.0
1070
    74
1070
     0
1000
MTEXTEND
  0
POINT
  5
3132
330
E32
100
AcDbEntity
  8
DEFPOINTS
 62
     0
100
AcDbPoint
 10
100.0
 20
-8.000000000000012
 30
0.0
  0
POINT
  5
3133
330
E32
100
AcDbEntity
  8
DEFPOINTS
 62
     0
100
AcDbPoint
 10
-25.0
 20
0.0000000000000031
 30
0.0
  0
POINT
  5
3134
330
E32
100
AcDbEntity
  8
DEFPOINTS
 62
     0
100
AcDbPoint
 10
-25.0
 20
-33.82699709233373
 30
0.0
  0
ENDBLK
  5
E3D
330
E32
100
AcDbEntity
  8
0
100
AcDbBlockEnd
  0
BLOCK
  5
E48
330
E3E
100
AcDbEntity
  8
0
100
AcDbBlockBegin
  2
*D3
 70
     1
 10
0.0
 20
0.0
 30
0.0
  3
*D3
  1

  0
LINE
  5
313E
330
E3E
100
AcDbEntity
  8
2
 62
     0
370
    -2
100
AcDbLine
 10
100.0
 20
-4.088601298543617
 30
0.0
 11
100.0
 21
-23.20649666546195
 31
0.0
  0
LINE
  5
313F
330
E3E
100
AcDbEntity
  8
2
 62
     0
370
    -2
100
AcDbLine
 10
60.0
 20
6.124999999999992
 30
0.0
 11
60.0
 21
-23.20649666546195
 31
0.0
  0
LINE
  5
3140
330
E3E
100
AcDbEntity
  8
2
 62
     0
370
    -2
100
AcDbLine
 10
97.5
 20
-21.95649666546195
 30
0.0
 11
62.5
 21
-21.95649666546195
 31
0.0
  0
SOLID
  5
3141
330
E3E
100
AcDbEntity
  8
2
 62
     0
100
AcDbTrace
 10
97.5
 20
-21.53982999879528
 30
0.0
 11
97.5
 21
-22.37316333212862
 31
0.0
 12
100.0
 22
-21.95649666546195
 32
0.0
 13
100.0
 23
-21.95649666546195
 33
0.0
  0
SOLID
  5
3142
330
E3E
100
AcDbEntity
  8
2
 62
     0
100
AcDbTrace
 10
62.5
 20
-21.53982999879528
 30
0.0
 11
62.5
 21
-22.37316333212862
 31
0.0
 12
60.0
 22
-21.95649666546195
 32
0.0
 13
60.0
 23
-21.95649666546195
 33
0.0
  0
MTEXT
  5
3143
330
E3E
100
AcDbEntity
  8
2
 62
     0
100
AcDbMText
 10
80.72877679738303
 20
-20.08149666546195
 30
0.0
 40
2.5
 41
0.0
 71
     5
 72
     1
  1
40
 73
     1
 44
1.0
1001
ACAD
1000
MTEXTBEGIN
1070
    73
1070
     1
1070
    44
1040
1.0
1070
    74
1070
     0
1000
MTEXTEND
  0
POINT
  5
3144
330
E3E
100
AcDbEntity
  8
DEFPOINTS
 62
     0
100
AcDbPoint
 10
100.0
 20
-3.46360129854362
 30
0.0
  0
POINT
  5
3145
330
E3E
100
AcDbEntity
  8
DEFPOINTS
 62
     0
100
AcDbPoint
 10
60.0
 20
6.749999999999992
 30
0.0
  0
POINT
  5
3146
330
E3E
100
AcDbEntity
  8
DEFPOINTS
 62
     0
100
AcDbPoint
 10
60.0
 20
-21.95649666546195
 30
0.0
  0
ENDBLK
  5
E49
330
E3E
100
AcDbEntity
  8
0
100
AcDbBlockEnd
  0
BLOCK
  5
E54
330
E4A
100
AcDbEntity
  8
0
100
AcDbBlockBegin
  2
*D4
 70
     1
 10
0.0
 20
0.0
 30
0.0
  3
*D4
  1

  0
LINE
  5
3135
330
E4A
100
AcDbEntity
  8
SK2
 62
     0
370
    -2
100
AcDbLine
 10
100.0
 20
-11.38878101360001
 30
0.0
 11
100.0
 21
-45.0601061444413
 31
0.0
  0
LINE
  5
3136
330
E4A
100
AcDbEntity
  8
SK2
 62
     0
370
    -2
100
AcDbLine
 10
-50.0
 20
-11.38878101359999
 30
0.0
 11
-50.0
 21
-45.0601061444413
 31
0.0
  0
LINE
  5
3137
330
E4A
100
AcDbEntity
  8
SK2
 62
     0
370
    -2
100
AcDbLine
 10
97.5
 20
-43.8101061444413
 30
0.0
 11
-47.5
 21
-43.8101061444413
 31
0.0
  0
SOLID
  5
3138
330
E4A
100
AcDbEntity
  8
SK2
 62
     0
100
AcDbTrace
 10
97.5
 20
-43.39343947777464
 30
0.0
 11
97.5
 21
-44.22677281110796
 31
0.0
 12
100.0
 22
-43.8101061444413
 32
0.0
 13
100.0
 23
-43.8101061444413
 33
0.0
  0
SOLID
  5
3139
330
E4A
100
AcDbEntity
  8
SK2
 62
     0
100
AcDbTrace
 10
-47.5
 20
-43.39343947777464
 30
0.0
 11
-47.5
 21
-44.22677281110796
 31
0.0
 12
-50.0
 22
-43.8101061444413
 32
0.0
 13
-50.0
 23
-43.8101061444413
 33
0.0
  0
MTEXT
  5
313A
330
E4A
100
AcDbEntity
  8
SK2
 62
     0
100
AcDbMText
 10
28.94684789749998
 20
-41.93510614444129
 30
0.0
 40
2.5
 41
0.0
 71
     5
 72
     1
  1
150
 73
     1
 44
1.0
1001
ACAD
1000
MTEXTBEGIN
1070
    73
1070
     1
1070
    44
1040
1.0
1070
    74
1070
     0
1000
MTEXTEND
  0
POINT
  5
313B
330
E4A
100
AcDbEntity
  8
DEFPOINTS
 62
     0
100
AcDbPoint
 10
100.0
 20
-10.76378101360001
 30
0.0
  0
POINT
  5
313C
330
E4A
100
AcDbEntity
  8
DEFPOINTS
 62
     0
100
AcDbPoint
 10
-50.0
 20
-10.76378101359999
 30
0.0
  0
POINT
  5
313D
330
E4A
100
AcDbEntity
  8
DEFPOINTS
 62
     0
100
AcDbPoint
 10
-50.0
 20
-43.8101061444413
 30
0.0
  0
ENDBLK
  5
E55
330
E4A
100
AcDbEntity
  8
0
100
AcDbBlockEnd
  0
BLOCK
  5
E60
330
E56
100
AcDbEntity
  8
0
100
AcDbBlockBegin
  2
*D5
 70
     1
 10
0.0
 20
0.0
 30
0.0
  3
*D5
  1

  0
LINE
  5
3147
330
E56
100
AcDbEntity
  8
2
 62
     0
370
    -2
100
AcDbLine
 10
100.625
 20
7.999999999999986
 30
0.0
 11
117.4858837410568
 21
7.999999999999982
 31
0.0
  0
LINE
  5
3148
330
E56
100
AcDbEntity
  8
2
 62
     0
370
    -2
100
AcDbLine
 10
100.625
 20
-8.000000000000012
 30
0.0
 11
117.4858837410568
 21
-8.000000000000017
 31
0.0
  0
LINE
  5
3149
330
E56
100
AcDbEntity
  8
2
 62
     0
370
    -2
100
AcDbLine
 10
116.2358837410568
 20
5.499999999999983
 30
0.0
 11
116.2358837410568
 21
-5.500000000000016
 31
0.0
  0
SOLID
  5
314A
330
E56
100
AcDbEntity
  8
2
 62
     0
100
AcDbTrace
 10
115.81921707439
 20
5.499999999999983
 30
0.0
 11
116.6525504077234
 21
5.499999999999983
 31
0.0
 12
116.2358837410568
 22
7.999999999999982
 32
0.0
 13
116.2358837410568
 23
7.999999999999982
 33
0.0
  0
SOLID
  5
314B
330
E56
100
AcDbEntity
  8
2
 62
     0
100
AcDbTrace
 10
115.81921707439
 20
-5.500000000000016
 30
0.0
 11
116.6525504077234
 21
-5.500000000000016
 31
0.0
 12
116.2358837410568
 22
-8.000000000000017
 32
0.0
 13
116.2358837410568
 23
-8.000000000000017
 33
0.0
  0
MTEXT
  5
314C
330
E56
100
AcDbEntity
  8
2
 62
     0
100
AcDbMText
 10
114.3608837410568
 20
-0.4458098729052295
 30
0.0
 40
2.5
 41
0.0
 71
     5
 72
     1
  1
%%c16
 11
0.0000000000000001
 21
1.0
 31
0.0
 73
     1
 44
1.0
1001
ACAD
1000
MTEXTBEGIN
1070
    73
1070
     1
1070
    44
1040
1.0
1070
    74
1070
     0
1000
MTEXTEND
  0
POINT
  5
314D
330
E56
100
AcDbEntity
  8
DEFPOINTS
 62
     0
100
AcDbPoint
 10
100.0
 20
7.999999999999986
 30
0.0
  0
POINT
  5
314E
330
E56
100
AcDbEntity
  8
DEFPOINTS
 62
     0
100
AcDbPoint
 10
100.0
 20
-8.000000000000012
 30
0.0
  0
POINT
  5
314F
330
E56
100
AcDbEntity
  8
DEFPOINTS
 62
     0
100
AcDbPoint
 10
116.2358837410568
 20
-8.000000000000017
 30
0.0
  0
ENDBLK
  5
E61
330
E56
100
AcDbEntity
  8
0
100
AcDbBlockEnd
  0
ENDSEC
  0
SECTION
  2
ENTITIES
  0
DIMENSION
  5
8C
330
1E
100
AcDbEntity
  8
SK2
100
AcDbDimension
  2
*D4
 10
-50.0
 20
-43.8101061444413
 30
0.0
 11
28.94684789749998
 21
-43.8101061444413
 31
0.0
 70
   160
 71
     5
 42
150.0
  3
ISO-25
100
AcDbAlignedDimension
 13
100.0
 23
-10.76378101360001
 33
0.0
 14
-50.0
 24
-10.76378101359999
 34
0.0
 50
180.0
100
AcDbRotatedDimension
  0
DIMENSION
  5
8D
330
1E
100
AcDbEntity
  8
2
100
AcDbDimension
  2
*D5
 10
116.2358837410568
 20
-8.000000000000017
 30
0.0
 11
116.2358837410568
 21
-0.4458098729052298
 31
0.0
 70
   160
  1
%%c<>
 71
     5
 42
16.0
  3
ISO-25
100
AcDbAlignedDimension
 13
100.0
 23
7.999999999999986
 33
0.0
 14
100.0
 24
-8.000000000000012
 34
0.0
 50
270.0
100
AcDbRotatedDimension
  0
DIMENSION
  5
90
330
1E
100
AcDbEntity
  8
SK2
100
AcDbDimension
  2
*D1
 10
-57.49665536592033
 20
10.0
 30
0.0
 11
-57.49665536592033
 21
-0.1145583506003049
 31
0.0
 70
   160
  1
%%c<>
 71
     5
 42
19.99999999999999
  3
ISO-25
100
AcDbAlignedDimension
 13
-48.79999999999999
 23
-9.999999999999994
 33
0.0
 14
-48.89058783732775
 24
10.0
 34
0.0
 50
89.99999999999998
100
AcDbRotatedDimension
  0
DIMENSION
  5
91
330
1E
100
AcDbEntity
  8
2
100
AcDbDimension
  2
*D3
 10
60.0
 20
-21.95649666546195
 30
0.0
 11
80.72877679738303
 21
-21.95649666546195
 31
0.0
 70
   160
 71
     5
 42
40.0
  3
ISO-25
100
AcDbAlignedDimension
 13
100.0
 23
-3.46360129854362
 33
0.0
 14
60.0
 24
6.749999999999992
 34
0.0
 50
180.0
100
AcDbRotatedDimension
  0
LINE
  5
92
330
1E
100
AcDbEntity
  8
1
100
AcDbLine
 10
99.29999999999999
 20
1.735955800399995
 30
0.0
 11
99.29999999999999
 21
1.706183147900036
 31
0.0
  0
LINE
  5
93
330
1E
100
AcDbEntity
  8
1
100
AcDbLine
 10
99.29999999999999
 20
-1.70618314799999
 30
0.0
 11
99.29999999999999
 21
-3.66444873249999
 31
0.0
  0
LINE
  5
95
330
1E
100
AcDbEntity
  8
1
100
AcDbLine
 10
93.64044495719999
 20
-6.364014533400007
 30
0.0
 11
93.64044495719999
 21
1.002248062600006
 31
0.0
  0
LINE
  5
96
330
1E
100
AcDbEntity
  8
1
100
AcDbLine
 10
60.1387818866
 20
-6.750000000000007
 30
0.0
 11
60.1387818866
 21
6.749999999999992
 31
0.0
  0
LINE
  5
97
330
1E
100
AcDbEntity
  8
1
100
AcDbLine
 10
59.86143178849999
 20
-6.757698233999977
 30
0.0
 11
59.86143178849999
 21
6.757698233899977
 31
0.0
  0
LINE
  5
98
330
1E
100
AcDbEntity
  8
SK1
100
AcDbLine
 10
0.0000000000000012
 20
10.0
 30
0.0
 11
-48.79999999999999
 21
10.0
 31
0.0
  0
LINE
  5
99
330
1E
100
AcDbEntity
  8
1
100
AcDbLine
 10
5.861218113399987
 20
9.75
 30
0.0
 11
0.2000000000000182
 21
9.75
 31
0.0
  0
LINE
  5
9A
330
1E
100
AcDbEntity
  8
1
100
AcDbLine
 10
92.64060389089999
 20
6.749999999999986
 30
0.0
 11
60.1387818866
 21
6.749999999999992
 31
0.0
  0
LINE
  5
9B
330
1E
100
AcDbEntity
  8
1
100
AcDbLine
 10
93.1188695842
 20
6.749815931599967
 30
0.0
 11
92.90405269719999
 21
6.749815931599967
 31
0.0
  0
LINE
  5
9C
330
1E
100
AcDbEntity
  8
1
100
AcDbLine
 10
92.64060389089999
 20
6.748329762000008
 30
0.0
 11
84.0747797641
 21
6.748329762000008
 31
0.0
  0
LINE
  5
9D
330
1E
100
AcDbEntity
  8
SK1
100
AcDbLine
 10
-19.5
 20
5.723635208500007
 30
0.0
 11
-30.5
 21
5.723635208500007
 31
0.0
  0
LINE
  5
9E
330
1E
100
AcDbEntity
  8
1
100
AcDbLine
 10
6.138568211499997
 20
9.742301766000027
 30
0.0
 11
5.861218113399987
 21
9.75
 31
0.0
  0
LINE
  5
9F
330
1E
100
AcDbEntity
  8
1
100
AcDbLine
 10
59.86143178849999
 20
6.757698233899977
 30
0.0
 11
60.1387818866
 21
6.749999999999992
 31
0.0
  0
LINE
  5
A0
330
1E
100
AcDbEntity
  8
1
100
AcDbLine
 10
59.86143178849999
 20
6.757698233899977
 30
0.0
 11
6.138568211499997
 21
9.742301766000027
 31
0.0
  0
LINE
  5
A1
330
1E
100
AcDbEntity
  8
1
100
AcDbLine
 10
95.51425700000001
 20
1.002248062600006
 30
0.0
 11
93.01425700000001
 21
1.002248062600006
 31
0.0
  0
LINE
  5
A2
330
1E
100
AcDbEntity
  8
4
100
AcDbLine
 10
101.6653865192123
 20
-0.0000000000000137
 30
0.0
 11
0.100606024199323
 21
0.0
 31
0.0
  0
LINE
  5
A3
330
1E
100
AcDbEntity
  8
1
100
AcDbLine
 10
59.86143178849999
 20
-6.757698233999977
 30
0.0
 11
6.138568211499996
 21
-9.742301766100007
 31
0.0
  0
LINE
  5
A4
330
1E
100
AcDbEntity
  8
1
100
AcDbLine
 10
59.86143178849999
 20
-6.757698233999977
 30
0.0
 11
60.1387818866
 21
-6.750000000000007
 31
0.0
  0
LINE
  5
A5
330
1E
100
AcDbEntity
  8
1
100
AcDbLine
 10
6.138568211499996
 20
-9.742301766100007
 30
0.0
 11
5.861218113399986
 21
-9.75
 31
0.0
  0
LINE
  5
A6
330
1E
100
AcDbEntity
  8
SK1
100
AcDbLine
 10
-19.5
 20
-5.723635208499952
 30
0.0
 11
-30.5
 21
-5.723635208499952
 31
0.0
  0
LINE
  5
A7
330
1E
100
AcDbEntity
  8
1
100
AcDbLine
 10
93.64044495719999
 20
-6.364014533400007
 30
0.0
 11
93.4993893817
 21
-6.364014533400007
 31
0.0
  0
LINE
  5
A8
330
1E
100
AcDbEntity
  8
1
100
AcDbLine
 10
93.23565652259999
 20
-6.749815931599991
 30
0.0
 11
92.90405269719999
 21
-6.749815931599991
 31
0.0
  0
LINE
  5
A9
330
1E
100
AcDbEntity
  8
1
100
AcDbLine
 10
92.73103662
 20
-6.750000000000011
 30
0.0
 11
60.1387818866
 21
-6.750000000000007
 31
0.0
  0
LINE
  5
AA
330
1E
100
AcDbEntity
  8
1
100
AcDbLine
 10
5.861218113399986
 20
-9.75
 30
0.0
 11
0.2000000000000158
 21
-9.75
 31
0.0
  0
LINE
  5
AB
330
1E
100
AcDbEntity
  8
SK1
100
AcDbLine
 10
-0.0000000000000012
 20
-10.0
 30
0.0
 11
-48.79999999999999
 21
-9.999999999999994
 31
0.0
  0
LINE
  5
AC
330
1E
100
AcDbEntity
  8
1
100
AcDbLine
 10
6.138568211499997
 20
9.742301766000027
 30
0.0
 11
6.138568211499996
 21
-9.742301766100007
 31
0.0
  0
LINE
  5
AD
330
1E
100
AcDbEntity
  8
1
100
AcDbLine
 10
5.861218113399987
 20
9.75
 30
0.0
 11
5.861218113399986
 21
-9.75
 31
0.0
  0
LINE
  5
AF
330
1E
100
AcDbEntity
  8
1
100
AcDbLine
 10
0.2000000000000182
 20
9.75
 30
0.0
 11
0.2000000000000158
 21
-9.75
 31
0.0
  0
LINE
  5
B0
330
1E
100
AcDbEntity
  8
1
100
AcDbLine
 10
0.0000000000000012
 20
9.999999469700007
 30
0.0
 11
-0.0000000000000012
 21
-9.999999469699961
 31
0.0
  0
LINE
  5
B2
330
1E
100
AcDbEntity
  8
SK1
100
AcDbLine
 10
-19.5
 20
5.723635208500007
 30
0.0
 11
-19.5
 21
-5.723635208499952
 31
0.0
  0
LINE
  5
B3
330
1E
100
AcDbEntity
  8
SK1
100
AcDbLine
 10
-30.5
 20
5.723635208500007
 30
0.0
 11
-30.5
 21
-5.723635208499952
 31
0.0
  0
LINE
  5
B4
330
1E
100
AcDbEntity
  8
SK1
100
AcDbLine
 10
-48.79999999999999
 20
10.0
 30
0.0
 11
-50.0
 21
8.800000000000011
 31
0.0
  0
LINE
  5
B5
330
1E
100
AcDbEntity
  8
SK1
100
AcDbLine
 10
-48.79999999999999
 20
-9.999999999999994
 30
0.0
 11
-50.0
 21
-8.800000000000002
 31
0.0
  0
LINE
  5
B6
330
1E
100
AcDbEntity
  8
SK1
100
AcDbLine
 10
-48.79999999999999
 20
10.0
 30
0.0
 11
-48.79999999999999
 21
-9.999999999999994
 31
0.0
  0
LINE
  5
B7
330
1E
100
AcDbEntity
  8
SK1
100
AcDbLine
 10
-50.0
 20
8.799999484200045
 30
0.0
 11
-50.0
 21
-8.799999484299965
 31
0.0
  0
CIRCLE
  5
BC
330
1E
100
AcDbEntity
  8
1
100
AcDbCircle
 10
96.014257
 20
4.002248062600008
 30
0.0
 40
2.45
  0
ARC
  5
BD
330
1E
100
AcDbEntity
  8
1
100
AcDbCircle
 10
96.014257
 20
4.002248062600008
 30
0.0
 40
3.991597085
100
AcDbArc
 50
294.5239544714998
 51
228.7289707691999
  0
ARC
  5
BF
330
1E
100
AcDbEntity
  8
1
100
AcDbCircle
 10
96.014257
 20
-4.002248062599968
 30
0.0
 40
3.991597085
100
AcDbArc
 50
223.4994590996
 51
34.59539428880002
  0
ARC
  5
C1
330
1E
100
AcDbEntity
  8
1
100
AcDbCircle
 10
93.01425700000001
 20
11.00224806259997
 30
0.0
 40
10.0
100
AcDbArc
 50
205.1942503129999
 51
270.0
  0
ARC
  5
C2
330
1E
100
AcDbEntity
  8
1
100
AcDbCircle
 10
95.51425700000001
 20
-2.997751937399988
 30
0.0
 40
4.0
100
AcDbArc
 50
18.83792320669994
 51
90.0
  0
ARC
  5
C3
330
1E
100
AcDbEntity
  8
1
100
AcDbCircle
 10
96.014257
 20
-4.002248062599968
 30
0.0
 40
3.649999999999999
100
AcDbArc
 50
221.7185766539
 51
226.4701021533999
  0
ARC
  5
C4
330
1E
100
AcDbEntity
  8
1
100
AcDbCircle
 10
95.51425700000001
 20
2.997751937400026
 30
0.0
 40
4.0
100
AcDbArc
 50
311.4526351935998
 51
341.1620767932999
  0
ARC
  5
C5
330
1E
100
AcDbEntity
  8
1
100
AcDbCircle
 10
0.2000000000000158
 20
-9.94999999999999
 30
0.0
 40
0.2
100
AcDbArc
 50
90.0
 51
180.0
  0
ARC
  5
C6
330
1E
100
AcDbEntity
  8
1
100
AcDbCircle
 10
0.2000000000000182
 20
9.950000000000015
 30
0.0
 40
0.2
100
AcDbArc
 50
180.0
 51
270.0
  0
ARC
  5
C7
330
1E
100
AcDbEntity
  8
1
100
AcDbCircle
 10
96.014257
 20
4.002248062600008
 30
0.0
 40
4.349999999999996
100
AcDbArc
 50
140.8551454634998
 51
223.5631238215999
  0
ARC
  5
C8
330
1E
100
AcDbEntity
  8
1
100
AcDbCircle
 10
95.87283564370002
 20
-3.860826706399969
 30
0.0
 40
1.75
100
AcDbArc
 50
300.0539256510999
 51
222.5706928236999
  0
LWPOLYLINE
  5
231
330
1E
100
AcDbEntity
  8
1
100
AcDbPolyline
 90
      156
 70
     0
 43
0.0
 10
93.89553198879999
 20
-6.461398118200015
 10
93.93654378027193
 20
-6.496758226517169
 10
93.97813923584541
 20
-6.531441740716641
 10
94.0203059163098
 20
-6.565436147774621
 10
94.063031382454
 20
-6.598728934667277
 10
94.1063031964958
 20
-6.631307591620561
 10
94.1501093008741
 20
-6.663160473910761
 10
94.19443852794259
 20
-6.694277961477776
 10
94.23927983718687
 20
-6.72465072350321
 10
94.27811445181708
 20
-6.750084705864227
 10
94.31731022566342
 20
-6.774958811765867
 10
94.35685994168041
 20
-6.799267230937767
 10
94.39675566230059
 20
-6.823004332129301
 10
94.43698932817587
 20
-6.846164514347196
 10
94.47755287995839
 20
-6.868742176598187
 10
94.51843825830009
 20
-6.890731717889018
 10
94.55963738872979
 20
-6.912127564025119
 10
94.60114194942487
 20
-6.932924579125331
 10
94.6429434167687
 20
-6.953117984893747
 10
94.68503326125079
 20
-6.97270301347758
 10
94.727402953361
 20
-6.991674897023997
 10
94.7700439635777
 20
-7.010028867696857
 10
94.81294766105801
 20
-7.027760305444181
 10
94.85610506678119
 20
-7.044865098055887
 10
94.89950712699499
 20
-7.061339242322777
 10
94.9431447879475
 20
-7.077178735035651
 10
94.98700899588667
 20
-7.092379572985297
 10
95.03109068611349
 20
-7.106937776144919
 10
95.07538059059781
 20
-7.120849795090951
 10
95.11986926172578
 20
-7.134112460710909
 10
95.16454724570939
 20
-7.146722616967657
 10
95.20940508876078
 20
-7.158677107824011
 10
95.25443333708251
 20
-7.16997277727046
 10
95.29962247772592
 20
-7.180606642556601
 10
95.3449627984175
 20
-7.190576304772317
 10
95.39044454494201
 20
-7.199879487857447
 10
95.43605796308472
 20
-7.208513915751848
 10
95.4817932986303
 20
-7.21647731239534
 10
95.5276407903799
 20
-7.22376743174167
 10
95.5735905653214
 20
-7.230382508264292
 10
95.61963266046841
 20
-7.236321163101841
 10
95.6657571102834
 20
-7.241582028357647
 10
95.71195394922879
 20
-7.246163736135057
 10
95.75821321174499
 20
-7.250064918756494
 10
95.80452491105793
 20
-7.253284420091485
 10
95.8508789995975
 20
-7.255821690251726
 10
95.8972654189716
 20
-7.25767628726362
 10
95.9436741107884
 20
-7.258847769153518
 10
95.99009501665571
 20
-7.259335693947832
 10
96.0365180778897
 20
-7.25913966235887
 10
96.08293323220401
 20
-7.258259801897661
 10
96.12933041488521
 20
-7.256696595050186
 10
96.17569956117399
 20
-7.254450530935931
 10
96.22203060631171
 20
-7.251522098674361
 10
96.2683134856576
 20
-7.247911788331339
 10
96.31453816602601
 20
-7.243620341293257
 10
96.36069468781592
 20
-7.238649086883947
 10
96.40677310193321
 20
-7.232999438374171
 10
96.45276345928351
 20
-7.226672809034679
 10
96.49865581077271
 20
-7.219670612136227
 10
96.54444021960648
 20
-7.211994316814831
 10
96.59010686866459
 20
-7.203645935747922
 10
96.63564600823669
 20
-7.194627787781287
 10
96.6810478893681
 20
-7.184942195191156
 10
96.72630276310378
 20
-7.174591480253735
 10
96.7714008812031
 20
-7.16357796720854
 10
96.8163325933148
 20
-7.15190424951344
 10
96.86108844573489
 20
-7.13957346144592
 10
96.9056590082912
 20
-7.12658880200199
 10
96.95003485081171
 20
-7.112953470177657
 10
96.99420654312431
 20
-7.098670664968949
 10
97.03816468327261
 20
-7.08374364482491
 10
97.08190011393821
 20
-7.068176183670687
 10
97.12540380336712
 20
-7.051972320007382
 10
97.16866672083099
 20
-7.035136094497747
 10
97.21167983560178
 20
-7.017671547804567
 10
97.25443411816678
 20
-6.999582722466707
 10
97.29692069698222
 20
-6.980873904832225
 10
97.33913101333941
 20
-6.961549864078809
 10
97.38105654532958
 20
-6.94161542618086
 10
97.42268877104358
 20
-6.921075417112757
 10
97.46401916857273
 20
-6.899934662848918
 10
97.5050392520278
 20
-6.878198034424407
 10
97.54574088477751
 20
-6.855870839793271
 10
97.58611612639029
 20
-6.832958632354139
 10
97.62615703861392
 20
-6.809466968232078
 10
97.66585568319619
 20
-6.785401403552162
 10
97.7052041223731
 20
-6.760767494908797
 10
97.7441945941757
 20
-6.735570967971441
 10
97.78922127756558
 20
-6.70547213500161
 10
97.8337392271187
 20
-6.674625738455111
 10
97.87773691427453
 20
-6.643041637167242
 10
97.92120281231721
 20
-6.610729691403962
 10
97.9641257369138
 20
-6.57770002693365
 10
98.0064952449851
 20
-6.54396334433459
 10
98.04830099033052
 20
-6.509530419309721
 10
98.08953262674913
 20
-6.474412027562003
 10
98.13017982085668
 20
-6.438618952304787
 10
98.17023277065857
 20
-6.402162288140281
 10
98.20968238426381
 20
-6.365053545784148
 10
98.24851961928509
 20
-6.327304264960832
 10
98.292143579847
 20
-6.283392700062267
 10
98.3296381974582
 20
-6.244309726429629
 10
98.36649296442493
 20
-6.204622898750369
 10
98.4027002216488
 20
-6.164344365530516
 10
98.4382523180016
 20
-6.123486278783841
 10
98.47314160235541
 20
-6.082060790524121
 10
98.50736053668892
 20
-6.040080086190469
 10
98.5409025000937
 20
-5.997556622247341
 10
98.57376131677973
 20
-5.954502986700553
 10
98.605930813899
 20
-5.910931768425442
 10
98.6374048186038
 20
-5.866855556297331
 10
98.6681772967638
 20
-5.822286962412588
 10
98.6982431943665
 20
-5.777238762937182
 10
98.72759787964701
 20
-5.731723804720347
 10
98.7562367224927
 20
-5.685754934887987
 10
98.78415509279108
 20
-5.639345000565987
 10
98.81134849250601
 20
-5.592506853895212
 10
98.83781342736909
 20
-5.545253385129941
 10
98.86354686405352
 20
-5.497597502026542
 10
98.8885457716541
 20
-5.449552112433339
 10
98.9128071192656
 20
-5.401130124198679
 10
98.93632796967793
 20
-5.352344435979558
 10
98.95910635212821
 20
-5.30320785162617
 10
98.98114086563079
 20
-5.253733119094491
 10
99.00243011655042
 20
-5.203932985619502
 10
99.0229727112513
 20
-5.153820198436171
 10
99.04276729750812
 20
-5.103407495926039
 10
99.0618133486638
 20
-5.052707439965832
 10
99.08011109875188
 20
-5.001732429798061
 10
99.09766081021359
 20
-4.95049485859179
 10
99.11446274549
 20
-4.899007119516087
 10
99.1305171707367
 20
-4.847281604370018
 10
99.14582486766693
 20
-4.795330514807201
 10
99.16038765695851
 20
-4.743165669294961
 10
99.1742074840917
 20
-4.690798840271646
 10
99.18728629454701
 20
-4.638241800175582
 10
99.1996260338047
 20
-4.585506321445058
 10
99.21122877954269
 20
-4.53260412083059
 10
99.22209767042168
 20
-4.479546468147169
 10
99.23223635560079
 20
-4.426344418163992
 10
99.24164848749891
 20
-4.37300902427705
 10
99.25033771853479
 20
-4.319551339882377
 10
99.25830770270961
 20
-4.265982416887891
 10
99.2655625494628
 20
-4.212312878824661
 10
99.27210745081843
 20
-4.158552330965801
 10
99.27794775616449
 20
-4.10471023057088
 10
99.28308881488881
 20
-4.0507960348995
 10
99.28753597637943
 20
-3.996819201211238
 10
99.2912946289933
 20
-3.942789196437607
 10
99.294370980273
 20
-3.888715690828481
 10
99.29677201627381
 20
-3.834608547857071
 10
99.29850475387841
 20
-3.780477638647917
 10
99.29957620996951
 20
-3.72633283432556
 10
99.29999340142991
 20
-3.672184006014509
 10
99.29999999998793
 20
-3.664458706200141
  0
LWPOLYLINE
  5
2CF
330
1E
100
AcDbEntity
  8
1
100
AcDbPolyline
 90
       68
 70
     0
 43
0.0
 10
93.23565652259999
 20
-6.749815931599991
 10
93.242654402921
 20
-6.749616242049057
 10
93.24965109883041
 20
-6.749341313502021
 10
93.25635393190978
 20
-6.74900509875145
 10
93.26276211211611
 20
-6.748614979585611
 10
93.2691661056817
 20
-6.748156052616401
 10
93.27527416827733
 20
-6.747652162201108
 10
93.28137660403358
 20
-6.747082405132547
 10
93.2871824065762
 20
-6.746477125447919
 10
93.29298153818442
 20
-6.74580935954011
 10
93.298773234358
 20
-6.745077769249588
 10
93.30426775953821
 20
-6.744322420122371
 10
93.3097540387506
 20
-6.743506964710588
 10
93.31494292854769
 20
-6.742677599190767
 10
93.3201224047332
 20
-6.741791599210517
 10
93.3252914764663
 20
-6.740847647601449
 10
93.3301629311247
 20
-6.73990173895044
 10
93.3350233867574
 20
-6.738901854385249
 10
93.339872008659
 20
-6.737846884295401
 10
93.3444238599076
 20
-6.73680265718034
 10
93.34896379338941
 20
-6.735707726586209
 10
93.35349111320521
 20
-6.734561167423541
 10
93.35800512345569
 20
-6.73336205460288
 10
93.3622243014258
 20
-6.732189334271459
 10
93.3664305788181
 20
-6.730968848283957
 10
93.37062308391478
 20
-6.729699824260891
 10
93.37480072046849
 20
-6.728381482198872
 10
93.3789623859428
 20
-6.727013041880981
 10
93.3828312249617
 20
-6.72568994287169
 10
93.38668429456131
 20
-6.72432188871417
 10
93.3905206983387
 20
-6.72290824506317
 10
93.39433953989113
 20
-6.721448377573437
 10
93.39813992281559
 20
-6.719941651899717
 10
93.4016515382749
 20
-6.71850003781379
 10
93.40514574724727
 20
-6.717016965644496
 10
93.40862183202252
 20
-6.715491927499537
 10
93.4120790748901
 20
-6.713924415486599
 10
93.41551675813979
 20
-6.71231392171334
 10
93.4189341635753
 20
-6.71065993880623
 10
93.42233049228431
 20
-6.708962045554437
 10
93.42570477515669
 20
-6.707220002429719
 10
93.4290560215124
 20
-6.705433592929511
 10
93.43238324067128
 20
-6.703602600551247
 10
93.43543233722478
 20
-6.70187269590392
 10
93.43845933757393
 20
-6.700104448718141
 10
93.44146346252179
 20
-6.69829768870879
 10
93.44444393287181
 20
-6.696452245590736
 10
93.4473999694271
 20
-6.694567949078846
 10
93.4503307929909
 20
-6.692644628887991
 10
93.45323562436639
 20
-6.69068211473303
 10
93.45611368435699
 20
-6.68868023632884
 10
93.45896419376579
 20
-6.686638823390278
 10
93.46178637339599
 20
-6.684557705632228
 10
93.46457944406107
 20
-6.68243671458925
 10
93.4673426277339
 20
-6.680275889102866
 10
93.47007514860139
 20
-6.678075663888987
 10
93.4727762311
 20
-6.675836518219369
 10
93.4754450996658
 20
-6.673558931365747
 10
93.4782991219037
 20
-6.67104872166765
 10
93.48111344124079
 20
-6.668494568799387
 10
93.483887071616
 20
-6.665897082112829
 10
93.48661902696809
 20
-6.663256870959847
 10
93.4893083212361
 20
-6.660574544692289
 10
93.49195396835879
 20
-6.657850712662037
 10
93.49435651133353
 20
-6.655300093715259
 10
93.49672024808331
 20
-6.652715107394298
 10
93.49904440304449
 20
-6.650096232970907
 10
93.50037505684559
 20
-6.648560682946261
  0
LWPOLYLINE
  5
315
330
1E
100
AcDbEntity
  8
1
100
AcDbPolyline
 90
       62
 70
     0
 43
0.0
 10
93.64044495719999
 20
-6.364014533400007
 10
93.64462954287031
 20
-6.36403778054678
 10
93.6488141364512
 20
-6.364107500529549
 10
93.65299812907101
 20
-6.364223661161976
 10
93.65718091185831
 20
-6.364386230257721
 10
93.66136187594179
 20
-6.36459517563042
 10
93.66554041244992
 20
-6.364850465093748
 10
93.6697159125112
 20
-6.365152066461378
 10
93.6738877672543
 20
-6.36549994754695
 10
93.6780553747195
 20
-6.365894072791799
 10
93.6822182083827
 20
-6.366334369831777
 10
93.68637578815139
 20
-6.366820743648331
 10
93.69052763461271
 20
-6.367353098891467
 10
93.69467326835328
 20
-6.3679313402112
 10
93.69881220996029
 20
-6.368555372257511
 10
93.70294398002071
 20
-6.369225099680421
 10
93.70706809912107
 20
-6.369940427129919
 10
93.7111840877602
 20
-6.370701258802542
 10
93.71529146197191
 20
-6.37150747602145
 10
93.71938973131719
 20
-6.372358926947107
 10
93.7234784048497
 20
-6.37325545713916
 10
93.72755699162279
 20
-6.374196912157271
 10
93.73189581317319
 20
-6.375250473974449
 10
93.73622200381772
 20
-6.376354787108226
 10
93.74053496772907
 20
-6.37750966412524
 10
93.7448341092428
 20
-6.37871491735321
 10
93.74911884749693
 20
-6.379970337375527
 10
93.7533886280711
 20
-6.38127567593411
 10
93.75764289928387
 20
-6.38263068074751
 10
93.7618811094542
 20
-6.384035099534266
 10
93.7661027069006
 20
-6.385488680012931
 10
93.77030713994159
 20
-6.38699116990204
 10
93.7744938568961
 20
-6.388542316920141
 10
93.77866230682993
 20
-6.390141867806811
 10
93.78281195784621
 20
-6.391789544359191
 10
93.7869422981751
 20
-6.393485042004967
 10
93.79130905464331
 20
-6.395338563887137
 10
93.7956528218136
 20
-6.397245359199088
 10
93.79997298699469
 20
-6.399205061100677
 10
93.8042689374952
 20
-6.40121730275178
 10
93.80854006062369
 20
-6.403281717312261
 10
93.8127857516139
 20
-6.405397927887428
 10
93.8170054379627
 20
-6.407565516650339
 10
93.82119855537608
 20
-6.409784055359266
 10
93.82560874041351
 20
-6.412188154102407
 10
93.82998783634208
 20
-6.414648384749011
 10
93.83433517331379
 20
-6.417164238952667
 10
93.83865008148069
 20
-6.41973520836705
 10
93.84293190339219
 20
-6.422360782458287
 10
93.8471800506922
 20
-6.425040438500907
 10
93.85139395895349
 20
-6.427773649547217
 10
93.8558042044521
 20
-6.430716223954648
 10
93.86017500824721
 20
-6.433717262339921
 10
93.86450570654492
 20
-6.436776144956381
 10
93.86879563551131
 20
-6.439892251961369
 10
93.8730441123438
 20
-6.443064918128367
 10
93.8774706062941
 20
-6.446464808355767
 10
93.88184949583269
 20
-6.449925565258197
 10
93.8861799179866
 20
-6.453446253636307
 10
93.89067375397109
 20
-6.457206454400551
 10
93.8951122042371
 20
-6.46103061594925
 10
93.89552446916843
 20
-6.461391526146226
  0
LWPOLYLINE
  5
355
330
1E
100
AcDbEntity
  8
1
100
AcDbPolyline
 90
      112
 70
     0
 43
0.0
 10
93.28981502259999
 20
-6.431222313600027
 10
93.28932699739089
 20
-6.430664056102896
 10
93.2888492116881
 20
-6.430094314526567
 10
93.28838326776921
 20
-6.429513034636007
 10
93.287930767912
 20
-6.428920162196197
 10
93.28749331439439
 20
-6.428315642972155
 10
93.28707250949399
 20
-6.427699422728847
 10
93.2866699554887
 20
-6.427071447231271
 10
93.2862872546562
 20
-6.426431662244405
 10
93.2859260092742
 20
-6.425780013533257
 10
93.2856978899627
 20
-6.425338963318496
 10
93.2854804932794
 20
-6.424892600163311
 10
93.28527429397331
 20
-6.424440907998048
 10
93.28507976679331
 20
-6.42398387075309
 10
93.2848973864886
 20
-6.423521472358789
 10
93.28472762780789
 20
-6.423053696745538
 10
93.28457092730131
 20
-6.422580613400137
 10
93.284427559788
 20
-6.422102654046212
 10
93.28429775729201
 20
-6.421620346258388
 10
93.2841817518369
 20
-6.421134217611927
 10
93.28407977544641
 20
-6.420644795682089
 10
93.2839920601442
 20
-6.420152608044128
 10
93.2839188379539
 20
-6.419658182273307
 10
93.28386034089929
 20
-6.419162045944871
 10
93.2838168010039
 20
-6.418664726634077
 10
93.28378845029147
 20
-6.41816675191619
 10
93.2837755207856
 20
-6.417668649366471
 10
93.2837782445101
 20
-6.417170946560157
 10
93.28379685348847
 20
-6.416674171072507
 10
93.28383157974448
 20
-6.416178850478797
 10
93.28388265530191
 20
-6.415685512354277
 10
93.28395031218411
 20
-6.415194684274191
 10
93.2840346916387
 20
-6.414706854952397
 10
93.2841354212241
 20
-6.414222293192168
 10
93.28425194800541
 20
-6.41374119052733
 10
93.28438371884979
 20
-6.413263738407041
 10
93.2845301806245
 20
-6.412790128280447
 10
93.28469078019656
 20
-6.412320551596709
 10
93.28486496443328
 20
-6.41185519980498
 10
93.28505218020193
 20
-6.411394264354401
 10
93.2852518743695
 20
-6.410937936694128
 10
93.28546349380319
 20
-6.410486408273311
 10
93.28568648537041
 20
-6.410039870541107
 10
93.28592029593821
 20
-6.409598514946657
 10
93.2861643723737
 20
-6.409162532939131
 10
93.28654852555107
 20
-6.408519054198309
 10
93.28695266555888
 20
-6.407888742929516
 10
93.28737493739529
 20
-6.407272233379838
 10
93.28781393197072
 20
-6.406669711155452
 10
93.2882688116773
 20
-6.406080786883437
 10
93.28873877632808
 20
-6.405505033540851
 10
93.28922302573641
 20
-6.40494202410474
 10
93.28972075971547
 20
-6.404391331552157
 10
93.29023117807828
 20
-6.403852528860157
 10
93.29075348063827
 20
-6.403325189005787
 10
93.29146698754142
 20
-6.402639162216347
 10
93.29219830261259
 20
-6.401971742450462
 10
93.29294552911258
 20
-6.401321917505566
 10
93.2937067703024
 20
-6.40068867517913
 10
93.294480135963
 20
-6.400071005785886
 10
93.2952642259149
 20
-6.399468088838307
 10
93.29605846258672
 20
-6.398879421446521
 10
93.29686234708722
 20
-6.398304531098219
 10
93.29788000994302
 20
-6.397604572287298
 10
93.298910993618
 20
-6.396924478930785
 10
93.29995432371587
 20
-6.396263328153107
 10
93.30100902584019
 20
-6.395620197078672
 10
93.30207412559479
 20
-6.394994162831909
 10
93.3031486485833
 20
-6.394384302537221
 10
93.3044491428882
 20
-6.39367252039154
 10
93.30576015911161
 20
-6.392981134104168
 10
93.30708067454072
 20
-6.392309036752127
 10
93.3084101624563
 20
-6.391655487422611
 10
93.30997188763751
 20
-6.390915480981011
 10
93.31154431275178
 20
-6.390198565497801
 10
93.3131266233128
 20
-6.389503580609281
 10
93.3147180048339
 20
-6.388829365951735
 10
93.31654678904801
 20
-6.388082779337269
 10
93.3183851414342
 20
-6.387360073522621
 10
93.3204632255188
 20
-6.386573435336361
 10
93.3225506780696
 20
-6.385813000475011
 10
93.32488032586788
 20
-6.384997462694371
 10
93.3272200201203
 20
-6.384211456190175
 10
93.3298043621842
 20
-6.383379222474918
 10
93.33239889053171
 20
-6.382579027339447
 10
93.33523969000591
 20
-6.381740353218467
 10
93.3383279632061
 20
-6.380869304080661
 10
93.34142595013892
 20
-6.38003447962957
 10
93.34477219087499
 20
-6.37917392871411
 10
93.34836799091048
 20
-6.378294082991057
 10
93.35197371581093
 20
-6.377455565081501
 10
93.3558296316254
 20
-6.376604048591177
 10
93.35993630308541
 20
-6.375744709868039
 10
93.3642939863801
 20
-6.374882217031209
 10
93.36890319084579
 20
-6.374021823629449
 10
93.37376452394648
 20
-6.373169031366481
 10
93.37887838595579
 20
-6.372328951519118
 10
93.38448906610741
 20
-6.371470131197138
 10
93.3903530154142
 20
-6.370637784269828
 10
93.39646998668213
 20
-6.36983583360038
 10
93.40284003695121
 20
-6.369068988978877
 10
93.40970851883628
 20
-6.36831599453163
 10
93.4168301956085
 20
-6.36761140800365
 10
93.42445034909749
 20
-6.366937859037289
 10
93.4325690847538
 20
-6.366306576855057
 10
93.44094028117806
 20
-6.365744634079907
 10
93.44980980077769
 20
-6.365242917988511
 10
93.4591772250396
 20
-6.364812057612928
 10
93.46879521204741
 20
-6.364470044024147
 10
93.47890956103519
 20
-6.364215777255526
 10
93.489272562089
 20
-6.364062929143457
 10
93.4993793816996
 20
-6.364014533446619
  0
LWPOLYLINE
  5
3C7
330
1E
100
AcDbEntity
  8
1
100
AcDbPolyline
 90
        2
 70
     0
 43
0.0
 10
92.7304995307
 20
-6.750001995900002
 10
92.90404269719999
 20
-6.749815931601056
  0
LWPOLYLINE
  5
3CB
330
1E
100
AcDbEntity
  8
1
100
AcDbPolyline
 90
        2
 70
     0
 43
0.0
 10
92.7304995475
 20
6.750001995700007
 10
92.90404269719999
 20
6.749815931601037
  0
LWPOLYLINE
  5
3CF
330
1E
100
AcDbEntity
  8
1
100
AcDbPolyline
 90
       79
 70
     0
 43
0.0
 10
96.7492616564
 20
-5.375546959199999
 10
96.72114675621019
 20
-5.38452418424212
 10
96.69292383973951
 20
-5.393166634360397
 10
96.66459746510179
 20
-5.40147198005892
 10
96.63617219041041
 20
-5.409437891841771
 10
96.60765257377899
 20
-5.417062040212999
 10
96.57904317332114
 20
-5.424342095676688
 10
96.55034852350402
 20
-5.4312757605785
 10
96.52378912733773
 20
-5.437367014066587
 10
96.49716378082942
 20
-5.443160352436597
 10
96.47047558825693
 20
-5.448654590915388
 10
96.443727653898
 20
-5.453848544729808
 10
96.41692308203062
 20
-5.458741029106738
 10
96.39006497693241
 20
-5.46333085927303
 10
96.363156479636
 20
-5.467616887927096
 10
96.33620097592853
 20
-5.471598217295318
 10
96.3092019515936
 20
-5.475274051551078
 10
96.2821628927125
 20
-5.478643595170987
 10
96.2550872853666
 20
-5.481706052631671
 10
96.227978615637
 20
-5.484460628409738
 10
96.20084036960578
 20
-5.486906526991631
 10
96.17367604200971
 20
-5.489043049463731
 10
96.14648915748801
 20
-5.490869830675191
 10
96.11928324713353
 20
-5.492386577507471
 10
96.09206184203891
 20
-5.493592996842049
 10
96.06482847329701
 20
-5.494488795560418
 10
96.0375866720005
 20
-5.495073680544061
 10
96.01033996932493
 20
-5.495347360618159
 10
95.98309190353779
 20
-5.495309711495871
 10
95.95584602534479
 20
-5.494960901554287
 10
95.92860588670973
 20
-5.494301128785211
 10
95.90137503959651
 20
-5.4933305911804
 10
95.87415703596921
 20
-5.492049486731661
 10
95.8469554277917
 20
-5.490458013430767
 10
95.81977376487527
 20
-5.48855638200123
 10
95.792615555458
 20
-5.486345049042898
 10
95.7654842701881
 20
-5.483824693470909
 10
95.73838337836081
 20
-5.480996002204878
 10
95.71131634927098
 20
-5.477859662164418
 10
95.68428665221388
 20
-5.474416360269162
 10
95.6572977564843
 20
-5.470666783438688
 10
95.63035311916641
 20
-5.466611652978289
 10
95.6034560960793
 20
-5.462251975349141
 10
95.5766099929545
 20
-5.45758889805728
 10
95.5498181151667
 20
-5.452623569612518
 10
95.52308376809092
 20
-5.447357138524669
 10
95.49641025710199
 20
-5.441790753303528
 10
95.4698008875748
 20
-5.435925562458909
 10
95.4410502434627
 20
-5.429235818557557
 10
95.41238267013421
 20
-5.422198705635518
 10
95.38380206435681
 20
-5.414816219291838
 10
95.35531232288819
 20
-5.407090355142821
 10
95.32691734248599
 20
-5.399023108804768
 10
95.29862101990792
 20
-5.390616475893988
 10
95.27042723877279
 20
-5.381872466605459
 10
95.2423396692704
 20
-5.372793327952681
 10
95.2143618082332
 20
-5.363381499304431
 10
95.18649714747828
 20
-5.353639425594789
 10
95.1587491788225
 20
-5.343569551757806
 10
95.1311213940828
 20
-5.333174322727561
 10
95.10361728492879
 20
-5.322456183587768
 10
95.074139674629
 20
-5.31055537163744
 10
95.04481334681932
 20
-5.298286521975366
 10
95.0156421603553
 20
-5.285653199160108
 10
94.98662997409269
 20
-5.272658967750216
 10
94.95778064688707
 20
-5.259307392304251
 10
94.92909803759321
 20
-5.245602037380987
 10
94.90058585378687
 20
-5.231546501014278
 10
94.87224723190969
 20
-5.217144507619101
 10
94.84208043362087
 20
-5.201333604409851
 10
94.81212001508621
 20
-5.185133909926221
 10
94.78236966824189
 20
-5.168550041712967
 10
94.7528330850416
 20
-5.151586617392879
 10
94.72351400239992
 20
-5.134248456925456
 10
94.69441629955799
 20
-5.11654102078067
 10
94.66362716205429
 20
-5.097252359895941
 10
94.63309909330853
 20
-5.077556682452329
 10
94.60283683538099
 20
-5.057460768888918
 10
94.58406826112527
 20
-5.044706245300917
  0
LWPOLYLINE
  5
420
330
1E
100
AcDbEntity
  8
SK1
100
AcDbPolyline
 90
       54
 70
     0
 43
0.0
 10
-19.5
 20
-5.723635208499952
 10
-19.42400916362298
 20
-5.613196144568575
 10
-19.3528549867111
 20
-5.506828614605034
 10
-19.28306520048689
 20
-5.399555771999006
 10
-19.21465359803417
 20
-5.291398342255286
 10
-19.14763335055839
 20
-5.182376467893643
 10
-19.08201510113268
 20
-5.072507921415165
 10
-19.02083412528869
 20
-4.967099764951955
 10
-18.96094251295039
 20
-4.860954058277744
 10
-18.9023488889048
 20
-4.754085826710254
 10
-18.84506180836739
 20
-4.646511040183955
 10
-18.7890898052968
 20
-4.538245957252197
 10
-18.7344414136463
 20
-4.429306836540396
 10
-18.681125062712
 20
-4.319709949271683
 10
-18.6291485408763
 20
-4.209471643816845
 10
-18.5785193940093
 20
-4.098608297738196
 10
-18.53167658300839
 20
-3.992724092024086
 10
-18.486063000427
 20
-3.886304641518626
 10
-18.44168465297719
 20
-3.779364248526856
 10
-18.39854736971339
 20
-3.671917315427255
 10
-18.35665697894139
 20
-3.563978245020245
 10
-18.3160192714067
 20
-3.455561453026353
 10
-18.2766396299453
 20
-3.346681495480966
 10
-18.2385231872532
 20
-3.237353014463935
 10
-18.20167507240509
 20
-3.127590653300693
 10
-18.16610038554548
 20
-3.017409064994846
 10
-18.1318038463006
 20
-2.906823029845296
 10
-18.09878990604019
 20
-2.795847417891125
 10
-18.06706301051979
 20
-2.684497101049606
 10
-18.0366275749858
 20
-2.572786959312026
 10
-18.00898895132898
 20
-2.466637959261016
 10
-17.98251623849989
 20
-2.360192259038606
 10
-17.95721263237069
 20
-2.253462658395525
 10
-17.9330813148016
 20
-2.146461960613347
 10
-17.9101251797067
 20
-2.039203041532946
 10
-17.8883468509252
 20
-1.931698845051044
 10
-17.86774894186339
 20
-1.823962317693395
 10
-17.8483340588643
 20
-1.716006406549906
 10
-17.83010456023339
 20
-1.607844078521804
 10
-17.8130624966333
 20
-1.499488325082426
 10
-17.7972098995691
 20
-1.390952139235295
 10
-17.78254879642969
 20
-1.282248516065317
 10
-17.7690809933315
 20
-1.173390562547625
 10
-17.75680796743189
 20
-1.064391552001344
 10
-17.74573116916728
 20
-0.9552647712574867
 10
-17.7358520461148
 20
-0.8460235033854795
 10
-17.72717184021487
 20
-0.7366807609238572
 10
-17.7196914533565
 20
-0.6272491090474152
 10
-17.71341175553559
 20
-0.5177410709732199
 10
-17.708333614423
 20
-0.408169182266944
 10
-17.7044577001082
 20
-0.2985470278302018
 10
-17.7017843373377
 20
-0.1888900266516798
 10
-17.7003138160598
 20
-0.0792137825287598
 10
-17.70000000000498
 20
-0.0000100000000291
  0
LWPOLYLINE
  5
458
330
1E
100
AcDbEntity
  8
SK1
100
AcDbPolyline
 90
       54
 70
     0
 43
0.0
 10
-17.7
 20
0.0000000000000022
 10
-17.700601622111
 20
0.1096804376678802
 10
-17.702406295137
 20
0.2193529019178332
 10
-17.70541372911757
 20
0.3290017889403761
 10
-17.70962363409219
 20
0.4386114949260213
 10
-17.7150356265637
 20
0.5481669128366625
 10
-17.72164893640889
 20
0.6576549890019133
 10
-17.7294626936244
 20
0.7670632002128924
 10
-17.73847602820669
 20
0.8763790232613832
 10
-17.7486879822694
 20
0.9855898193233148
 10
-17.7600972115258
 20
1.094682441237718
 10
-17.77270226552349
 20
1.203643602175842
 10
-17.78650169380719
 20
1.312460015304949
 10
-17.8014939683591
 20
1.421118433013831
 10
-17.817677176632
 20
1.529605802138521
 10
-17.83504928713449
 20
1.63790912966234
 10
-17.85360826834
 20
1.746015422586389
 10
-17.87335202702929
 20
1.853911692839501
 10
-17.8942780926527
 20
1.961584982490031
 10
-17.91638385204939
 20
2.069022344997561
 10
-17.9396666917923
 20
2.17621083384289
 10
-17.96412395699389
 20
2.283137512954291
 10
-17.98975263558439
 20
2.389789536264391
 10
-18.01654953313189
 20
2.496154103658336
 10
-18.04451145374298
 20
2.602218415389529
 10
-18.07528716198989
 20
2.713835312470352
 10
-18.1073531845123
 20
2.82508846456869
 10
-18.14070508184419
 20
2.935962998104978
 10
-18.1753384082147
 20
3.046444041168201
 10
-18.2112486894136
 20
3.156516731361116
 10
-18.2484310720242
 20
3.26616633314312
 10
-18.2868804327318
 20
3.375378201262961
 10
-18.3265916424397
 20
3.484137692403631
 10
-18.36755954961279
 20
3.592430170966668
 10
-18.40977863504059
 20
3.700241127829511
 10
-18.4532430792008
 20
3.807556157173261
 10
-18.4979470537782
 20
3.914360856203556
 10
-18.543884720429
 20
4.020640827775277
 10
-18.5910499522188
 20
4.126381837303163
 10
-18.64201665019979
 20
4.237090458506391
 10
-18.69432883678539
 20
4.347169944682852
 10
-18.74797895674729
 20
4.456603919399928
 10
-18.80295905126589
 20
4.565376054805941
 10
-18.8592606237214
 20
4.673470087785028
 10
-18.9168751401588
 20
4.780869759715423
 10
-18.97579406606499
 20
4.88755881955871
 10
-19.0360088291525
 20
4.993521529140178
 10
-19.0975107959926
 20
5.098742980409896
 10
-19.16346376152398
 20
5.208411495597339
 10
-19.23081633484169
 20
5.317229241945231
 10
-19.29955732730249
 20
5.4251779355081
 10
-19.3696732194845
 20
5.532237107319717
 10
-19.44115021830669
 20
5.638386031867977
 10
-19.49999427636889
 20
5.723627008497121
  0
LWPOLYLINE
  5
490
330
1E
100
AcDbEntity
  8
SK1
100
AcDbPolyline
 90
       54
 70
     0
 43
0.0
 10
-30.5
 20
-5.723635208499952
 10
-30.5759908375445
 20
-5.613196142846962
 10
-30.64714501552748
 20
-5.506828611210885
 10
-30.7169348027803
 20
-5.399555766904986
 10
-30.7853464062188
 20
-5.291398335435193
 10
-30.8523666546371
 20
-5.182376459322183
 10
-30.9179849049611
 20
-5.072507911067362
 10
-30.9791658816177
 20
-4.967099752889433
 10
-31.0390574947256
 20
-4.860954044478345
 10
-31.097651119497
 20
-4.754085811152465
 10
-31.1549382007186
 20
-4.646511022848335
 10
-31.2109102044352
 20
-4.538245938121695
 10
-31.2655585966966
 20
-4.429306815600403
 10
-31.3188749482089
 20
-4.319709926509531
 10
-31.370851470586
 20
-4.209471619219006
 10
-31.4214806179513
 20
-4.098608271289176
 10
-31.46832342937999
 20
-3.992724063800304
 10
-31.5139370123401
 20
-3.886304611503064
 10
-31.558315360121
 20
-3.779364216703815
 10
-31.6014526436718
 20
-3.671917281783461
 10
-31.6433430346909
 20
-3.563978209544861
 10
-31.68398074243579
 20
-3.455561415710774
 10
-31.7233603840693
 20
-3.346681456317011
 10
-31.761476826891
 20
-3.237352973442633
 10
-31.7983249418212
 20
-3.127590610412253
 10
-31.8338996287116
 20
-3.017409020228794
 10
-31.868196167937
 20
-2.906822983192346
 10
-31.9012101081323
 20
-2.795847369344354
 10
-31.9329370035466
 20
-2.684497050604516
 10
-31.96337243893831
 20
-2.572786906966423
 10
-31.99101106242979
 20
-2.466637905114184
 10
-32.0174837750657
 20
-2.360192203090333
 10
-32.04278738097569
 20
-2.253462600646126
 10
-32.06691869830101
 20
-2.146461901063616
 10
-32.0898748331227
 20
-2.039202980183373
 10
-32.11165316159029
 20
-1.931698781901044
 10
-32.1322510702864
 20
-1.823962252741246
 10
-32.15166595285689
 20
-1.716006339792794
 10
-32.1698954509983
 20
-1.607844009957624
 10
-32.18693751406469
 20
-1.499488254711885
 10
-32.20279011056919
 20
-1.390952067062064
 10
-32.2174512131403
 20
-1.282248442096034
 10
-32.2309190156628
 20
-1.173390486790215
 10
-32.243192040955
 20
-1.064391474462305
 10
-32.254268838554
 20
-0.9552646919416035
 10
-32.2641479608569
 20
-0.8460234222958698
 10
-32.272828165925
 20
-0.7366806780634004
 10
-32.28030855191679
 20
-0.62724902442207
 10
-32.28658824888781
 20
-0.5177409845924453
 10
-32.29166638921869
 20
-0.4081690941437654
 10
-32.2955423028686
 20
-0.2985469379802111
 10
-32.2982156651342
 20
-0.1888899350873041
 10
-32.29968618610929
 20
-0.0792136892581707
 10
-32.30000000209499
 20
-0.0000099055000035
  0
LWPOLYLINE
  5
4C8
330
1E
100
AcDbEntity
  8
SK1
100
AcDbPolyline
 90
       54
 70
     0
 43
0.0
 10
-32.30000000209996
 20
0.0000000945000278
 10
-32.29939837936349
 20
0.109680530457589
 10
-32.2975937048039
 20
0.2193529929788159
 10
-32.29458626889579
 20
0.3290018782602539
 10
-32.29037636211391
 20
0.4386115824984462
 10
-32.2849643683552
 20
0.5481669986599334
 10
-32.2783510576713
 20
0.6576550730732591
 10
-32.2705372998721
 20
0.7670632825269811
 10
-32.2615239647674
 20
0.8763791038103278
 10
-32.25131201008839
 20
0.9855898980974739
 10
-32.2399027801367
 20
1.094682518229231
 10
-32.22729772542598
 20
1.203643677379603
 10
-32.2134982964726
 20
1.3124600887186
 10
-32.1985060213443
 20
1.421118504637241
 10
-32.18232281258031
 20
1.529605871971094
 10
-32.1649507016466
 20
1.637909197702163
 10
-32.1463917200441
 20
1.746015488830253
 10
-32.12664796097007
 20
1.853911757283172
 10
-32.1057218949746
 20
1.961585045129893
 10
-32.0836161352271
 20
2.069022405831219
 10
-32.06033329516319
 20
2.176210892869173
 10
-32.03587602967898
 20
2.283137570173289
 10
-32.0102473508474
 20
2.389789591677561
 10
-31.9834504531017
 20
2.496154157268561
 10
-31.9554885323363
 20
2.602218467201144
 10
-31.92471282397519
 20
2.713835362389592
 10
-31.8926468013862
 20
2.825088512602031
 10
-31.85929490403049
 20
2.935963044257951
 10
-31.8246615776742
 20
3.046444085445401
 10
-31.7887512965229
 20
3.156516773766372
 10
-31.7515689139952
 20
3.266166373681761
 10
-31.713119553412
 20
3.375378239943431
 10
-31.6734083438763
 20
3.484137729237564
 10
-31.63244043692881
 20
3.592430205968633
 10
-31.5902213517781
 20
3.700241161013984
 10
-31.5467569079386
 20
3.807556188552103
 10
-31.5020529337167
 20
3.914360885785921
 10
-31.45611526744839
 20
4.020640855567751
 10
-31.4089500360672
 20
4.126381863312883
 10
-31.35798333855239
 20
4.237090482651801
 10
-31.30567115247909
 20
4.34716996698147
 10
-31.25202103308439
 20
4.456603939874248
 10
-31.19704093919029
 20
4.565376073480351
 10
-31.14073936740998
 20
4.6734701046817
 10
-31.08312485169109
 20
4.780869774854063
 10
-31.0242059265398
 20
4.887558832956541
 10
-30.96399116423929
 20
4.993521540813193
 10
-30.90248919821878
 20
5.09874299037483
 10
-30.83653623358369
 20
5.208411503787832
 10
-30.7691836612002
 20
5.317229248381861
 10
-30.70044266971339
 20
5.425177940213601
 10
-30.63032677854911
 20
5.532237110320981
 10
-30.5588497807925
 20
5.638386033196324
 10
-30.5000057236311
 20
5.723627008497122
  0
LWPOLYLINE
  5
500
330
1E
100
AcDbEntity
  8
1
100
AcDbPolyline
 90
       44
 70
     0
 43
0.0
 10
83.96555924720001
 20
6.745363171099977
 10
83.96553629314979
 20
6.745537957378785
 10
83.9656358142631
 20
6.745671345624878
 10
83.96583089891379
 20
6.745770973785057
 10
83.96609463547617
 20
6.745844479806127
 10
83.96640011232429
 20
6.745899501634907
 10
83.96672041783221
 20
6.745943677218197
 10
83.9670312368802
 20
6.745983941861357
 10
83.967326086001
 20
6.746022405439927
 10
83.9676059717825
 20
6.746059150942897
 10
83.9678719266242
 20
6.746094254374396
 10
83.9681249829255
 20
6.746127791738537
 10
83.96836617308609
 20
6.746159839039446
 10
83.9685965295054
 20
6.746190472281237
 10
83.96881708458289
 20
6.746219767468037
 10
83.96902887071821
 20
6.746247800603963
 10
83.96923292031081
 20
6.746274647693147
 10
83.96943026576018
 20
6.746300384739687
 10
83.9696219394659
 20
6.746325087747718
 10
83.96990107387891
 20
6.746360369696565
 10
83.9701732541158
 20
6.746393752581937
 10
83.97098291325381
 20
6.746485071996235
 10
83.97126181123049
 20
6.746513405473705
 10
83.97154811953598
 20
6.746540941489567
 10
83.97184141727191
 20
6.746567705393657
 10
83.9721412765663
 20
6.746593722123005
 10
83.97244726954721
 20
6.746619016614674
 10
83.9727589683428
 20
6.74664361380568
 10
83.9730759450809
 20
6.746667538633077
 10
83.97350605133281
 20
6.746698435605044
 10
83.97394376571758
 20
6.746728240706477
 10
83.97438807402009
 20
6.746757013047377
 10
83.9749511870019
 20
6.746791616204446
 10
83.9756356416256
 20
6.746831294391325
 10
83.97897138163349
 20
6.747000910722817
 10
83.97987345504489
 20
6.747042892545735
 10
83.98087659454061
 20
6.747088053629659
 10
83.9820884040494
 20
6.747140453209296
 10
83.9836129894498
 20
6.747203035197199
 10
83.99127232654429
 20
6.747465890243207
 10
83.9971833219584
 20
6.747622706418596
 10
84.0162444146726
 20
6.747973748520315
 10
84.0539931884631
 20
6.748289876029367
 10
84.0747739118996
 20
6.748329761991066
  0
LWPOLYLINE
  5
52E
330
1E
100
AcDbEntity
  8
1
100
AcDbPolyline
 90
       35
 70
     0
 43
0.0
 10
92.64060389089999
 20
6.748329762000008
 10
92.64072454986559
 20
6.748458008181036
 10
92.64085854933441
 20
6.748564854751507
 10
92.64100469785471
 20
6.748652116843667
 10
92.6411618039747
 20
6.748721609589797
 10
92.64132867624248
 20
6.748775148122137
 10
92.6415041232064
 20
6.748814547572967
 10
92.64168695341451
 20
6.748841623074526
 10
92.641875975415
 20
6.748858189759096
 10
92.64206999775607
 20
6.748866062758917
 10
92.64226782898608
 20
6.748867057206255
 10
92.64246827765301
 20
6.748862988233377
 10
92.64277125204699
 20
6.748851361462966
 10
92.64317331724207
 20
6.748834990660187
 10
92.6434701754554
 20
6.748827083963388
 10
92.6438596458045
 20
6.748822689468666
 10
92.6442423558074
 20
6.748824809497305
 10
92.64461883570721
 20
6.748832886052746
 10
92.64498961574672
 20
6.748846361138405
 10
92.64535522616899
 20
6.748864676757737
 10
92.6458057772148
 20
6.748893528209467
 10
92.64625011486911
 20
6.748927981288384
 10
92.64677657654571
 20
6.748975184640407
 10
92.64755620379141
 20
6.749054051917807
 10
92.64944595517581
 20
6.749250899954775
 10
92.65013972817021
 20
6.749311068655956
 10
92.65083952188168
 20
6.749362638308657
 10
92.65163331201073
 20
6.749411261332587
 10
92.6525224958841
 20
6.749454810608155
 10
92.65359807040301
 20
6.74949440842664
 10
92.6548623905476
 20
6.749526183225087
 10
92.65677192785892
 20
6.749552722637427
 10
92.66386284913901
 20
6.749612286635085
 10
92.69027787224031
 20
6.749923006501927
 10
92.7304895474985
 20
6.750001995928172
  0
DIMENSION
  5
553
330
1E
100
AcDbEntity
  8
SK2
100
AcDbDimension
  2
*D2
 10
-25.0
 20
-33.82699709233373
 30
0.0
 11
37.5
 21
-33.82699709233373
 31
0.0
 70
   160
 71
     5
 42
125.0
  3
ISO-25
100
AcDbAlignedDimension
 13
100.0
 23
-8.000000000000012
 33
0.0
 14
-25.0
 24
0.0000000000000031
 34
0.0
 50
180.0
100
AcDbRotatedDimension
  0
LINE
  5
554
330
1E
100
AcDbEntity
  8
SK4
100
AcDbLine
 10
0.0
 20
0.0
 30
0.0
 11
-53.0
 21
0.0000000000000065
 31
0.0
  0
LINE
  5
555
330
1E
100
AcDbEntity
  8
SK4
100
AcDbLine
 10
-25.0
 20
3.998444507900051
 30
0.0
 11
-25.0
 21
-3.712499999999995
 31
0.0
  0
LINE
  5
556
330
1E
100
AcDbEntity
  8
2
100
AcDbLine
 10
-50.0
 20
-0.0624999999999939
 30
0.0
 11
-50.0
 21
-25.84147459559988
 31
0.0
  0
TEXT
  5
5E9
330
1E
100
AcDbEntity
  8
6
100
AcDbText
 10
28.46743872613604
 20
-65.8078637751596
 30
0.0
 40
5.0
  1
15B1E016100W4R00
100
AcDbText
  0
LINE
  5
2E0B
330
1E
100
AcDbEntity
  8
SK4
100
AcDbLine
 10
96.014257
 20
-0.7310932493736125
 30
0.0
 11
96.014257
 21
8.576089052415213
 31
0.0
  0
LINE
  5
2E0C
330
1E
100
AcDbEntity
  8
SK4
100
AcDbLine
 10
90.22659612644169
 20
4.002248062600008
 30
0.0
 11
101.8821925525029
 21
4.002248062600006
 31
0.0
  0
TEXT
  5
32D8
330
1E
100
AcDbEntity
  8
6
100
AcDbText
 10
123.9564451394302
 20
-4.444861164630308
 30
0.0
 40
3.5
  1
Z=2
 50
90.0
100
AcDbText
  0
TEXT
  5
32D9
330
1E
100
AcDbEntity
  8
6
100
AcDbText
 10
70.91267601368008
 20
13.69037838494284
 30
0.0
 40
2.5
  1
RHHW0802M0TN
100
AcDbText
  0
LINE
  5
3519
330
1E
100
AcDbEntity
  8
NOCUT
100
AcDbLine
 10
0.0
 20
10.0
 30
0.0
 11
0.0
 21
0.0
 31
0.0
  0
LINE
  5
351F
330
1E
100
AcDbEntity
  8
NOCUT
100
AcDbLine
 10
99.29999999999997
 20
0.0
 30
0.0
 11
0.0
 21
0.0
 31
0.0
  0
LINE
  5
3523
330
1E
100
AcDbEntity
  8
NOCUT
100
AcDbLine
 10
93.64044495719999
 20
6.75
 30
0.0
 11
60.13878188660012
 21
6.75
 31
0.0
  0
LINE
  5
3525
330
1E
100
AcDbEntity
  8
NOCUT
100
AcDbLine
 10
5.861218113400012
 20
9.75
 30
0.0
 11
0.2000000000000455
 21
9.75
 31
0.0
  0
LINE
  5
3528
330
1E
100
AcDbEntity
  8
NOCUT
100
AcDbLine
 10
59.86143178849989
 20
6.757698233900014
 30
0.0
 11
60.13878188660012
 21
6.75
 31
0.0
  0
LINE
  5
3529
330
1E
100
AcDbEntity
  8
NOCUT
100
AcDbLine
 10
6.138568211499998
 20
9.742301765999997
 30
0.0
 11
5.861218113400012
 21
9.75
 31
0.0
  0
LINE
  5
352A
330
1E
100
AcDbEntity
  8
NOCUT
100
AcDbLine
 10
59.86143178849989
 20
6.757698233900014
 30
0.0
 11
6.138568211499998
 21
9.742301765999997
 31
0.0
  0
LINE
  5
352B
330
1E
100
AcDbEntity
  8
NOCUT
100
AcDbLine
 10
99.29999999999997
 20
4.299999999999982
 30
0.0
 11
99.29999999999997
 21
0.0
 31
0.0
  0
ARC
  5
3537
330
1E
100
AcDbEntity
  8
NOCUT
100
AcDbCircle
 10
93.64044495719999
 20
7.149999999999977
 30
0.0
 40
0.4
100
AcDbArc
 50
270.0
 51
309.6218349071997
  0
ARC
  5
3539
330
1E
100
AcDbEntity
  8
NOCUT
100
AcDbCircle
 10
96.0
 20
4.299999999999982
 30
0.0
 40
3.299999999999998
100
AcDbArc
 50
0.0
 51
129.6218349071996
  0
ARC
  5
353A
330
1E
100
AcDbEntity
  8
NOCUT
100
AcDbCircle
 10
0.2000000000000455
 20
9.949999999999988
 30
0.0
 40
0.2
100
AcDbArc
 50
180.0
 51
270.0
  0
SPLINE
  5
355B
330
1E
100
AcDbEntity
  8
CUT
100
AcDbSpline
210
0.0
220
0.0
230
1.0
 70
     8
 71
     3
 72
    36
 73
    32
 74
    30
 42
0.0000000001
 43
0.0000000001
 44
0.0000000001
 12
-0.9999657087988667
 22
0.0082813782898709
 32
0.0
 13
0.9999999740769959
 23
-0.0002276971834317
 33
0.0
 40
0.0
 40
0.0
 40
0.0
 40
0.0
 40
0.4315712002300845
 40
0.8583396446410606
 40
1.278075836552125
 40
1.694242322595911
 40
2.111719392132649
 40
2.53222893656892
 40
2.955519097745633
 40
3.380937425806369
 40
3.80791938010653
 40
4.236051793517413
 40
4.665046388460023
 40
5.094695463512008
 40
5.524852381310588
 40
5.955408681473551
 40
6.386284681473535
 40
6.817417560166411
 40
7.24876087754249
 40
7.680276978424021
 40
8.11193462502023
 40
8.543711158947258
 40
8.975584921949788
 40
9.407540305750009
 40
9.83956187723113
 40
10.27163824678286
 40
10.70375721010891
 40
11.13590964847879
 40
11.5680864766325
 40
12.0002782841358
 40
12.43247917467749
 40
12.43247917467749
 40
12.43247917467749
 40
12.43247917467749
 10
96.014257
 20
0.2514349999999865
 30
0.0
 10
95.87040486628826
 20
0.2526263347893595
 30
0.0
 10
95.58429804977844
 20
0.250837521449552
 30
0.0
 10
95.15823419517605
 20
0.2615411082111306
 30
0.0
 10
94.73901993750684
 20
0.3098684197482723
 30
0.0
 10
94.33418484534916
 20
0.420067472992329
 30
0.0
 10
93.95095776429911
 20
0.59074794210356
 30
0.0
 10
93.59278038567806
 20
0.8131365759487877
 30
0.0
 10
93.26308458658171
 20
1.07989469810057
 30
0.0
 10
92.96554993266409
 20
1.385015874860905
 30
0.0
 10
92.70366626835315
 20
1.723224957385164
 30
0.0
 10
92.48052813645784
 20
2.089529289661138
 30
0.0
 10
92.29877618699239
 20
2.479000296324918
 30
0.0
 10
92.16055763097651
 20
2.886665007612112
 30
0.0
 10
92.06749947039476
 20
3.307472820202892
 30
0.0
 10
92.02070281427245
 20
3.736307441599875
 30
0.0
 10
92.02071827055961
 20
4.168011043520815
 30
0.0
 10
92.06754828746857
 20
4.597429823925185
 30
0.0
 10
92.16064796993894
 20
5.019460065164034
 30
0.0
 10
92.29892219627915
 20
5.429103943167903
 30
0.0
 10
92.48075687563229
 20
5.821517762254325
 30
0.0
 10
92.70401508279917
 20
6.192072847675421
 30
0.0
 10
92.96608328237619
 20
6.536400342376875
 30
0.0
 10
93.2638881012347
 20
6.850444817296633
 30
0.0
 10
93.59393725591877
 20
7.130512211051271
 30
0.0
 10
93.95236338366329
 20
7.373303988951062
 30
0.0
 10
94.33496346284931
 20
7.575968560366472
 30
0.0
 10
94.73724783826654
 20
7.736120231300881
 30
0.0
 10
95.15451835402233
 20
7.851882154148186
 30
0.0
 10
95.58181573996298
 20
7.921867331069932
 30
0.0
 10
95.87019004022074
 20
7.937532803641818
 30
0.0
 10
96.014257
 20
7.9375
 30
0.0
 11
96.014257
 21
0.2514349999999865
 31
0.0
 11
95.58268899999996
 21
0.2530969999999968
 31
0.0
 11
95.156182
 21
0.2680330000000026
 31
0.0
 11
94.739734
 21
0.3204690000000028
 31
0.0
 11
94.33822899999995
 21
0.4299599999999943
 31
0.0
 11
93.95637399999998
 21
0.598702000000003
 31
0.0
 11
93.59864499999998
 21
0.8197409999999932
 31
0.0
 11
93.26923799999995
 21
1.085570999999986
 31
0.0
 11
92.97201299999995
 21
1.389935999999975
 31
0.0
 11
92.71045600000002
 21
1.727429
 31
0.0
 11
92.48763299999996
 21
2.093007
 31
0.0
 11
92.30615599999998
 21
2.48172599999998
 31
0.0
 11
92.16815399999996
 21
2.888609000000002
 31
0.0
 11
92.07524300000001
 21
3.308611999999981
 31
0.0
 11
92.02851399999998
 21
3.736625000000003
 31
0.0
 11
92.02851399999998
 21
4.167500999999987
 31
0.0
 11
92.07524300000001
 21
4.596093999999993
 31
0.0
 11
92.16815399999996
 21
5.017312000000003
 31
0.0
 11
92.30615599999998
 21
5.426165999999994
 31
0.0
 11
92.48763299999996
 21
5.817821999999977
 31
0.0
 11
92.71045600000002
 21
6.187660999999991
 31
0.0
 11
92.97201299999995
 21
6.531321999999986
 31
0.0
 11
93.26923799999995
 21
6.844758999999982
 31
0.0
 11
93.59864499999998
 21
7.124282999999991
 31
0.0
 11
93.95637399999998
 21
7.366604999999991
 31
0.0
 11
94.33822899999995
 21
7.568875999999987
 31
0.0
 11
94.739734
 21
7.728717999999987
 31
0.0
 11
95.156182
 21
7.844250999999985
 31
0.0
 11
95.58268899999996
 21
7.914118999999997
 31
0.0
 11
96.014257
 21
7.9375
 31
0.0
  0
SPLINE
  5
355C
330
1E
100
AcDbEntity
  8
CUT
100
AcDbSpline
210
0.0
220
0.0
230
1.0
 70
     8
 71
     3
 72
    36
 73
    32
 74
    30
 42
0.0000000001
 43
0.0000000001
 44
0.0000000001
 12
0.9999657087988667
 22
0.0082813782898709
 32
0.0
 13
-0.9999999740769959
 23
-0.0002276971834317
 33
0.0
 40
0.0
 40
0.0
 40
0.0
 40
0.0
 40
0.4315712002300561
 40
0.8583396446411033
 40
1.278075836552097
 40
1.694242322595883
 40
2.111719392132634
 40
2.532228936568893
 40
2.955519097745595
 40
3.38093742580635
 40
3.807919380106511
 40
4.23605179351738
 40
4.665046388460003
 40
5.094695463511983
 40
5.524852381310561
 40
5.955408681473527
 40
6.386284681473512
 40
6.817417560166392
 40
7.248760877542467
 40
7.680276978423994
 40
8.111934625020214
 40
8.543711158947228
 40
8.975584921949758
 40
9.407540305749998
 40
9.839561877231108
 40
10.27163824678283
 40
10.70375721010889
 40
11.13590964847877
 40
11.56808647663241
 40
12.00027828413578
 40
12.43247917467744
 40
12.43247917467744
 40
12.43247917467744
 40
12.43247917467744
 10
96.014257
 20
0.2514349999999865
 30
0.0
 10
96.15810913371175
 20
0.2526263347893594
 30
0.0
 10
96.4442159502216
 20
0.2508375214495548
 30
0.0
 10
96.8702798048239
 20
0.261541108211123
 30
0.0
 10
97.28949406249316
 20
0.3098684197482802
 30
0.0
 10
97.69432915465081
 20
0.4200674729923319
 30
0.0
 10
98.07755623570088
 20
0.5907479421035533
 30
0.0
 10
98.43573361432191
 20
0.8131365759487872
 30
0.0
 10
98.76542941341829
 20
1.079894698100583
 30
0.0
 10
99.06296406733584
 20
1.385015874860896
 30
0.0
 10
99.32484773164686
 20
1.723224957385156
 30
0.0
 10
99.54798586354213
 20
2.089529289661154
 30
0.0
 10
99.72973781300764
 20
2.479000296324906
 30
0.0
 10
99.86795636902344
 20
2.886665007612115
 30
0.0
 10
99.96101452960516
 20
3.307472820202894
 30
0.0
 10
100.0078111857275
 20
3.736307441599874
 30
0.0
 10
100.0077957294404
 20
4.168011043520817
 30
0.0
 10
99.9609657125314
 20
4.597429823925182
 30
0.0
 10
99.86786603006102
 20
5.019460065164031
 30
0.0
 10
99.72959180372086
 20
5.429103943167918
 30
0.0
 10
99.54775712436763
 20
5.821517762254307
 30
0.0
 10
99.32449891720082
 20
6.192072847675429
 30
0.0
 10
99.06243071762379
 20
6.536400342376884
 30
0.0
 10
98.76462589876528
 20
6.850444817296619
 30
0.0
 10
98.43457674408121
 20
7.13051221105127
 30
0.0
 10
98.07615061633672
 20
7.373303988951068
 30
0.0
 10
97.69355053715063
 20
7.575968560366471
 30
0.0
 10
97.29126616173351
 20
7.736120231300867
 30
0.0
 10
96.87399564597768
 20
7.851882154148206
 30
0.0
 10
96.44669826003699
 20
7.921867331069922
 30
0.0
 10
96.15832395977925
 20
7.937532803641818
 30
0.0
 10
96.014257
 20
7.9375
 30
0.0
 11
96.014257
 21
0.2514349999999865
 31
0.0
 11
96.44582500000002
 21
0.2530969999999968
 31
0.0
 11
96.87233200000004
 21
0.2680330000000026
 31
0.0
 11
97.28877999999998
 21
0.3204690000000028
 31
0.0
 11
97.69028500000002
 21
0.4299599999999943
 31
0.0
 11
98.07214000000001
 21
0.598702000000003
 31
0.0
 11
98.42986899999999
 21
0.8197409999999932
 31
0.0
 11
98.759276
 21
1.085570999999986
 31
0.0
 11
99.05650100000002
 21
1.389935999999975
 31
0.0
 11
99.31805799999997
 21
1.727429
 31
0.0
 11
99.54088099999999
 21
2.093007
 31
0.0
 11
99.72235799999999
 21
2.48172599999998
 31
0.0
 11
99.86036000000002
 21
2.888609000000002
 31
0.0
 11
99.95327099999997
 21
3.308611999999981
 31
0.0
 11
100.0
 21
3.736625000000003
 31
0.0
 11
100.0
 21
4.167500999999987
 31
0.0
 11
99.95327099999997
 21
4.596093999999993
 31
0.0
 11
99.86036000000002
 21
5.017312000000003
 31
0.0
 11
99.72235799999999
 21
5.426165999999994
 31
0.0
 11
99.54088099999999
 21
5.817821999999977
 31
0.0
 11
99.31805799999997
 21
6.187660999999991
 31
0.0
 11
99.05650100000002
 21
6.531321999999986
 31
0.0
 11
98.759276
 21
6.844758999999982
 31
0.0
 11
98.42986899999999
 21
7.124282999999991
 31
0.0
 11
98.07214000000001
 21
7.366604999999991
 31
0.0
 11
97.69028500000002
 21
7.568875999999987
 31
0.0
 11
97.28877999999998
 21
7.728717999999987
 31
0.0
 11
96.87233200000004
 21
7.844250999999985
 31
0.0
 11
96.44582500000002
 21
7.914118999999997
 31
0.0
 11
96.014257
 21
7.9375
 31
0.0
  0
LWPOLYLINE
  5
36C4
330
1E
100
AcDbEntity
  8
1
100
AcDbPolyline
 90
        3
 70
     1
 43
0.0
 10
0.0000000000001279
 20
0.0
 10
-2.950972054112455
 20
0.0
 42
0.4142135623730966
 10
0.0000000000001279
 20
-2.950972054112583
  0
HATCH
  5
36C5
330
1E
100
AcDbEntity
  8
1
100
AcDbHatch
 10
0.0
 20
0.0
 30
0.0
210
0.0
220
0.0
230
1.0
  2
SOLID
 70
     1
 71
     0
 91
        2
 92
        7
 72
     1
 73
     1
 93
        3
 10
0.0000000000001279
 20
0.0
 42
0.0
 10
2.950972054112709
 20
0.0
 42
0.4142135623730966
 10
0.0000000000001279
 20
2.950972054112611
 42
0.0
 97
        0
 92
        7
 72
     1
 73
     1
 93
        3
 10
0.0000000000001279
 20
-2.950972054112496
 42
0.0
 10
0.0000000000001279
 20
0.0
 42
0.0
 10
-2.950972054112455
 20
0.0
 42
0.4142135623730953
 97
        0
 75
     0
 76
     1
 47
0.1190009775223266
 98
        2
 10
0.7445530588120306
 20
0.9212244733764975
 10
-1.279464601852807
 20
-1.696796923046291
  0
CIRCLE
  5
36C6
330
1E
100
AcDbEntity
  8
1
100
AcDbCircle
 10
0.0000000000001279
 20
0.0
 30
0.0
 40
2.950972054112601
  0
LINE
  5
36C7
330
1E
100
AcDbEntity
  8
1
100
AcDbLine
 10
0.0000000000001279
 20
2.950972054112611
 30
0.0
 11
0.0000000000001279
 21
-2.950972054112583
 31
0.0
  0
LINE
  5
36C8
330
1E
100
AcDbEntity
  8
1
100
AcDbLine
 10
-2.950972054112709
 20
0.0
 30
0.0
 11
2.950972054112709
 21
0.0
 31
0.0
  0
LWPOLYLINE
  5
36C9
330
1E
100
AcDbEntity
  8
1
100
AcDbPolyline
 90
        3
 70
     1
 43
0.0
 10
0.0000000000001279
 20
2.950972054112611
 10
0.0000000000001279
 20
0.0
 10
2.950972054112709
 20
0.0
 42
0.4142135623730966
  0
ENDSEC
  0
SECTION
  2
OBJECTS
  0
DICTIONARY
  5
C
330
0
100
AcDbDictionary
281
     1
  3
ACAD_COLOR
350
3849
  3
ACAD_GROUP
350
D
  3
ACAD_LAYOUT
350
19
  3
ACAD_MATERIAL
350
3848
  3
ACAD_MLINESTYLE
350
16
  3
ACAD_PLOTSETTINGS
350
18
  3
ACAD_PLOTSTYLENAME
350
3128
  3
ACAD_TABLESTYLE
350
384A
  3
ACDBHEADERROUNDTRIPXREC
350
385B
  3
AcDbVariableDictionary
350
3856
1001
ACAD
1000
TREAT_AS_HARD
1070
     0
1000
TREAT_AS_HARD
1070
     0
  0
DICTIONARY
  5
27C6
330
1E
100
AcDbDictionary
281
     1
  3
ACAD_LAYOUTSELFREF
350
2E0F
1001
ACAD
1000
TREAT_AS_HARD
1070
     0
  0
DICTIONARY
  5
27C4
330
1A
100
AcDbDictionary
281
     1
  3
ACAD_LAYOUTSELFREF
350
2E0E
1001
ACAD
1000
TREAT_AS_HARD
1070
     0
  0
DICTIONARY
  5
3849
102
{ACAD_REACTORS
330
C
102
}
330
C
100
AcDbDictionary
281
     1
  0
DICTIONARY
  5
D
102
{ACAD_REACTORS
330
C
102
}
330
C
100
AcDbDictionary
281
     1
1001
ACAD
1000
TREAT_AS_HARD
1070
     0
1000
TREAT_AS_HARD
1070
     0
  0
DICTIONARY
  5
19
102
{ACAD_REACTORS
330
C
102
}
330
C
100
AcDbDictionary
281
     1
  3
Layout1
350
312B
  3
Model
350
312A
1001
ACAD
1000
TREAT_AS_HARD
1070
     0
1000
TREAT_AS_HARD
1070
     0
  0
DICTIONARY
  5
3848
102
{ACAD_REACTORS
330
C
102
}
330
C
100
AcDbDictionary
281
     1
  0
DICTIONARY
  5
16
102
{ACAD_REACTORS
330
C
102
}
330
C
100
AcDbDictionary
281
     1
  3
STANDARD
350
17
1001
ACAD
1000
TREAT_AS_HARD
1070
     0
1000
TREAT_AS_HARD
1070
     0
  0
DICTIONARY
  5
18
102
{ACAD_REACTORS
330
C
102
}
330
C
100
AcDbDictionary
281
     1
1001
ACAD
1000
TREAT_AS_HARD
1070
     0
1000
TREAT_AS_HARD
1070
     0
  0
ACDBDICTIONARYWDFLT
  5
3128
102
{ACAD_REACTORS
330
C
102
}
330
C
100
AcDbDictionary
281
     1
  3
Normal
350
3129
100
AcDbDictionaryWithDefault
340
3129
  0
DICTIONARY
  5
384A
102
{ACAD_REACTORS
330
C
102
}
330
C
100
AcDbDictionary
281
     1
  3
Standard
350
384B
  0
DICTIONARY
  5
385B
102
{ACAD_REACTORS
330
C
102
}
330
C
100
AcDbDictionary
281
     1
  0
DICTIONARY
  5
3856
102
{ACAD_REACTORS
330
C
102
}
330
C
100
AcDbDictionary
281
     1
  3
CTABLESTYLE
350
3857
  3
DIMASSOC
350
3858
  3
PROJECTNAME
350
3859
  0
XRECORD
  5
2E0F
102
{ACAD_REACTORS
330
27C6
102
}
330
27C6
100
AcDbXrecord
280
     1
340
1E
  0
XRECORD
  5
2E0E
102
{ACAD_REACTORS
330
27C4
102
}
330
27C4
100
AcDbXrecord
280
     1
340
1A
  0
LAYOUT
  5
312B
102
{ACAD_XDICTIONARY
360
385E
102
}
102
{ACAD_REACTORS
330
19
102
}
330
19
100
AcDbPlotSettings
  1

  2
\\ingdom02\ITB2
  4

  6

 40
0.0
 41
0.0
 42
0.0
 43
0.0
 44
0.0
 45
0.0
 46
0.0
 47
0.0
 48
0.0
 49
0.0
140
0.0
141
0.0
142
1.0
143
1.0
 70
   688
 72
     0
 73
     0
 74
     5
  7

 75
    16
147
1.0
148
0.0
149
0.0
100
AcDbLayout
  1
Layout1
 70
     1
 71
     1
 10
0.0
 20
0.0
 11
12.0
 21
9.0
 12
0.0
 22
0.0
 32
0.0
 14
100.0
 24
100.0
 34
100.0
 15
-100.0
 25
-100.0
 35
-100.0
146
0.0
 13
0.0
 23
0.0
 33
0.0
 16
1.0
 26
0.0
 36
0.0
 17
0.0
 27
1.0
 37
0.0
 76
     0
330
1A
  0
LAYOUT
  5
312A
102
{ACAD_XDICTIONARY
360
385C
102
}
102
{ACAD_REACTORS
330
19
102
}
330
19
100
AcDbPlotSettings
  1

  2
\\ingdom02\ITB2
  4

  6

 40
0.0
 41
0.0
 42
0.0
 43
0.0
 44
0.0
 45
0.0
 46
0.0
 47
0.0
 48
0.0
 49
0.0
140
0.0
141
0.0
142
1.0
143
1.0
 70
  1712
 72
     0
 73
     0
 74
     0
  7

 75
     0
147
1.0
148
0.0
149
0.0
100
AcDbLayout
  1
Model
 70
     1
 71
     0
 10
0.0
 20
0.0
 11
12.0
 21
9.0
 12
0.0
 22
0.0
 32
0.0
 14
0.0
 24
0.0
 34
0.0
 15
0.0
 25
0.0
 35
0.0
146
0.0
 13
0.0
 23
0.0
 33
0.0
 16
1.0
 26
0.0
 36
0.0
 17
0.0
 27
1.0
 37
0.0
 76
     0
330
1E
  0
MLINESTYLE
  5
17
102
{ACAD_REACTORS
330
16
102
}
330
16
100
AcDbMlineStyle
  2
STANDARD
 70
     0
  3

 62
   256
 51
90.0
 52
90.0
 71
     2
 49
0.5
 62
   256
  6
BYLAYER
 49
-0.5
 62
   256
  6
BYLAYER
  0
ACDBPLACEHOLDER
  5
3129
102
{ACAD_REACTORS
330
3128
102
}
330
3128
  0
TABLESTYLE
  5
384B
102
{ACAD_REACTORS
330
384A
102
}
330
384A
100
AcDbTableStyle
  3
Standard
 70
     0
 71
     0
 40
0.06
 41
0.06
280
     0
281
     0
  7
STANDARD
140
0.18
170
     2
 62
     0
 63
     7
283
     0
274
    -2
284
     1
 64
     0
275
    -2
285
     1
 65
     0
276
    -2
286
     1
 66
     0
277
    -2
287
     1
 67
     0
278
    -2
288
     1
 68
     0
279
    -2
289
     1
 69
     0
  7
STANDARD
140
0.25
170
     5
 62
     0
 63
     7
283
     0
274
    -2
284
     1
 64
     0
275
    -2
285
     1
 65
     0
276
    -2
286
     1
 66
     0
277
    -2
287
     1
 67
     0
278
    -2
288
     1
 68
     0
279
    -2
289
     1
 69
     0
  7
STANDARD
140
0.18
170
     5
 62
     0
 63
     7
283
     0
274
    -2
284
     1
 64
     0
275
    -2
285
     1
 65
     0
276
    -2
286
     1
 66
     0
277
    -2
287
     1
 67
     0
278
    -2
288
     1
 68
     0
279
    -2
289
     1
 69
     0
  0
DICTIONARYVAR
  5
3857
102
{ACAD_REACTORS
330
3856
102
}
330
3856
100
DictionaryVariables
280
     0
  1
STANDARD
  0
DICTIONARYVAR
  5
3858
102
{ACAD_REACTORS
330
3856
102
}
330
3856
100
DictionaryVariables
280
     0
  1
1
  0
DICTIONARYVAR
  5
3859
102
{ACAD_REACTORS
330
3856
102
}
330
3856
100
DictionaryVariables
280
     0
  1

  0
DICTIONARY
  5
385E
330
312B
100
AcDbDictionary
280
     1
281
     1
  3
ACAD_XREC_ROUNDTRIP
360
385F
  0
DICTIONARY
  5
385C
330
312A
100
AcDbDictionary
280
     1
281
     1
  3
ACAD_XREC_ROUNDTRIP
360
385D
  0
XRECORD
  5
385F
102
{ACAD_REACTORS
330
385E
102
}
330
385E
100
AcDbXrecord
280
     1
102
SHADEPLOT
 70
     0
102
SHADEPLOTRESLEVEL
 70
     2
102
SHADEPLOTCUSTOMDPI
 70
   300
  0
XRECORD
  5
385D
102
{ACAD_REACTORS
330
385C
102
}
330
385C
100
AcDbXrecord
280
     1
102
SHADEPLOT
 70
     0
102
SHADEPLOTRESLEVEL
 70
     2
102
SHADEPLOTCUSTOMDPI
 70
   300
  0
ENDSEC
  0
EOF
