  0
SECTION
  2
HEADER
  9
$ACADVER
  1
AC1015
  9
$ACADMAINTVER
 70
    20
  9
$DWGCODEPAGE
  3
ANSI_1252
  9
$INSBASE
 10
0.0
 20
0.0
 30
0.0
  9
$EXTMIN
 10
-68.26412883760872
 20
-62.53708090858686
 30
-0.0015258207003583
  9
$EXTMAX
 10
97.81220771418134
 20
16.26422255929242
 30
0.0000000349246037
  9
$LIMMIN
 10
0.0
 20
0.0
  9
$LIMMAX
 10
594.0
 20
420.0
  9
$ORTHOMODE
 70
     0
  9
$REGENMODE
 70
     1
  9
$FILLMODE
 70
     1
  9
$QTEXTMODE
 70
     0
  9
$MIRRTEXT
 70
     1
  9
$LTSCALE
 40
10.0
  9
$ATTMODE
 70
     1
  9
$TEXTSIZE
 40
0.2
  9
$TRACEWID
 40
0.05
  9
$TEXTSTYLE
  7
STANDARD
  9
$CLAYER
  8
0
  9
$CELTYPE
  6
BYLAYER
  9
$CECOLOR
 62
   256
  9
$CELTSCALE
 40
1.0
  9
$DISPSILH
 70
     0
  9
$DIMSCALE
 40
1.0
  9
$DIMASZ
 40
2.5
  9
$DIMEXO
 40
3.712499999999999
  9
$DIMDLI
 40
22.572
  9
$DIMRND
 40
0.0
  9
$DIMDLE
 40
0.0
  9
$DIMEXE
 40
10.692
  9
$DIMTP
 40
0.01
  9
$DIMTM
 40
0.01
  9
$DIMTXT
 40
3.5
  9
$DIMCEN
 40
5.346
  9
$DIMTSZ
 40
0.0
  9
$DIMTOL
 70
     1
  9
$DIMLIM
 70
     0
  9
$DIMTIH
 70
     1
  9
$DIMTOH
 70
     1
  9
$DIMSE1
 70
     0
  9
$DIMSE2
 70
     0
  9
$DIMTAD
 70
     0
  9
$DIMZIN
 70
     0
  9
$DIMBLK
  1
_FILLED
  9
$DIMASO
 70
     1
  9
$DIMSHO
 70
     1
  9
$DIMPOST
  1

  9
$DIMAPOST
  1

  9
$DIMALT
 70
     0
  9
$DIMALTD
 70
     2
  9
$DIMALTF
 40
25.4
  9
$DIMLFAC
 40
1.0
  9
$DIMTOFL
 70
     0
  9
$DIMTVP
 40
0.0
  9
$DIMTIX
 70
     0
  9
$DIMSOXD
 70
     0
  9
$DIMSAH
 70
     0
  9
$DIMBLK1
  1

  9
$DIMBLK2
  1

  9
$DIMSTYLE
  2
STANDARD
  9
$DIMCLRD
 70
     0
  9
$DIMCLRE
 70
     0
  9
$DIMCLRT
 70
     0
  9
$DIMTFAC
 40
1.0
  9
$DIMGAP
 40
0.09
  9
$DIMJUST
 70
     0
  9
$DIMSD1
 70
     0
  9
$DIMSD2
 70
     0
  9
$DIMTOLJ
 70
     1
  9
$DIMTZIN
 70
     0
  9
$DIMALTZ
 70
     0
  9
$DIMALTTZ
 70
     0
  9
$DIMUPT
 70
     0
  9
$DIMDEC
 70
     4
  9
$DIMTDEC
 70
     4
  9
$DIMALTU
 70
     2
  9
$DIMALTTD
 70
     2
  9
$DIMTXSTY
  7
STANDARD
  9
$DIMAUNIT
 70
     0
  9
$DIMADEC
 70
     0
  9
$DIMALTRND
 40
0.0
  9
$DIMAZIN
 70
     0
  9
$DIMDSEP
 70
    46
  9
$DIMATFIT
 70
     3
  9
$DIMFRAC
 70
     0
  9
$DIMLDRBLK
  1
_FILLED
  9
$DIMLUNIT
 70
     2
  9
$DIMLWD
 70
    -2
  9
$DIMLWE
 70
    -2
  9
$DIMTMOVE
 70
     0
  9
$LUNITS
 70
     2
  9
$LUPREC
 70
     4
  9
$SKETCHINC
 40
0.1
  9
$FILLETRAD
 40
0.0
  9
$AUNITS
 70
     0
  9
$AUPREC
 70
     0
  9
$MENU
  1

  9
$ELEVATION
 40
0.0
  9
$PELEVATION
 40
0.0
  9
$THICKNESS
 40
0.0
  9
$LIMCHECK
 70
     0
  9
$CHAMFERA
 40
0.0
  9
$CHAMFERB
 40
0.0
  9
$CHAMFERC
 40
0.0
  9
$CHAMFERD
 40
0.0
  9
$SKPOLY
 70
     0
  9
$TDCREATE
 40
2453413.435349826
  9
$TDUCREATE
 40
2453413.352016494
  9
$TDUPDATE
 40
2453909.276977361
  9
$TDUUPDATE
 40
2453909.193644028
  9
$TDINDWG
 40
0.1744540046
  9
$TDUSRTIMER
 40
0.0373088426
  9
$USRTIMER
 70
     1
  9
$ANGBASE
 50
0.0
  9
$ANGDIR
 70
     0
  9
$PDMODE
 70
     0
  9
$PDSIZE
 40
0.3125
  9
$PLINEWID
 40
0.0
  9
$SPLFRAME
 70
     0
  9
$SPLINETYPE
 70
     6
  9
$SPLINESEGS
 70
     8
  9
$HANDSEED
  5
36F5
  9
$SURFTAB1
 70
     6
  9
$SURFTAB2
 70
     6
  9
$SURFTYPE
 70
     6
  9
$SURFU
 70
     6
  9
$SURFV
 70
     6
  9
$UCSBASE
  2

  9
$UCSNAME
  2

  9
$UCSORG
 10
0.0
 20
0.0
 30
0.0
  9
$UCSXDIR
 10
1.0
 20
0.0
 30
0.0
  9
$UCSYDIR
 10
0.0
 20
1.0
 30
0.0
  9
$UCSORTHOREF
  2

  9
$UCSORTHOVIEW
 70
     0
  9
$UCSORGTOP
 10
0.0
 20
0.0
 30
0.0
  9
$UCSORGBOTTOM
 10
0.0
 20
0.0
 30
0.0
  9
$UCSORGLEFT
 10
0.0
 20
0.0
 30
0.0
  9
$UCSORGRIGHT
 10
0.0
 20
0.0
 30
0.0
  9
$UCSORGFRONT
 10
0.0
 20
0.0
 30
0.0
  9
$UCSORGBACK
 10
0.0
 20
0.0
 30
0.0
  9
$PUCSBASE
  2

  9
$PUCSNAME
  2

  9
$PUCSORG
 10
0.0
 20
0.0
 30
0.0
  9
$PUCSXDIR
 10
1.0
 20
0.0
 30
0.0
  9
$PUCSYDIR
 10
0.0
 20
1.0
 30
0.0
  9
$PUCSORTHOREF
  2

  9
$PUCSORTHOVIEW
 70
     0
  9
$PUCSORGTOP
 10
0.0
 20
0.0
 30
0.0
  9
$PUCSORGBOTTOM
 10
0.0
 20
0.0
 30
0.0
  9
$PUCSORGLEFT
 10
0.0
 20
0.0
 30
0.0
  9
$PUCSORGRIGHT
 10
0.0
 20
0.0
 30
0.0
  9
$PUCSORGFRONT
 10
0.0
 20
0.0
 30
0.0
  9
$PUCSORGBACK
 10
0.0
 20
0.0
 30
0.0
  9
$USERI1
 70
     0
  9
$USERI2
 70
     0
  9
$USERI3
 70
     0
  9
$USERI4
 70
     0
  9
$USERI5
 70
     0
  9
$USERR1
 40
0.0
  9
$USERR2
 40
0.0
  9
$USERR3
 40
0.0
  9
$USERR4
 40
0.0
  9
$USERR5
 40
0.0
  9
$WORLDVIEW
 70
     1
  9
$SHADEDGE
 70
     3
  9
$SHADEDIF
 70
    70
  9
$TILEMODE
 70
     1
  9
$MAXACTVP
 70
    64
  9
$PINSBASE
 10
0.0
 20
0.0
 30
0.0
  9
$PLIMCHECK
 70
     0
  9
$PEXTMIN
 10
100.0
 20
100.0
 30
100.0
  9
$PEXTMAX
 10
-100.0
 20
-100.0
 30
-100.0
  9
$PLIMMIN
 10
0.0
 20
0.0
  9
$PLIMMAX
 10
12.0
 20
9.0
  9
$UNITMODE
 70
     0
  9
$VISRETAIN
 70
     1
  9
$PLINEGEN
 70
     1
  9
$PSLTSCALE
 70
     1
  9
$TREEDEPTH
 70
  3020
  9
$CMLSTYLE
  2
STANDARD
  9
$CMLJUST
 70
     0
  9
$CMLSCALE
 40
1.0
  9
$PROXYGRAPHICS
 70
     1
  9
$MEASUREMENT
 70
     0
  9
$CELWEIGHT
370
    -1
  9
$ENDCAPS
280
     0
  9
$JOINSTYLE
280
     0
  9
$LWDISPLAY
290
     0
  9
$INSUNITS
 70
     0
  9
$HYPERLINKBASE
  1

  9
$STYLESHEET
  1

  9
$XEDIT
290
     1
  9
$CEPSNTYPE
380
     0
  9
$PSTYLEMODE
290
     1
  9
$FINGERPRINTGUID
  2
{1635DD97-3A40-48B5-87CB-E3D0B34740B8}
  9
$VERSIONGUID
  2
{D17714A0-2A36-4A57-A0B4-01A509D69B6E}
  9
$EXTNAMES
290
     1
  9
$PSVPSCALE
 40
0.0
  9
$OLESTARTUP
290
     0
  0
ENDSEC
  0
SECTION
  2
CLASSES
  0
CLASS
  1
ACDBDICTIONARYWDFLT
  2
AcDbDictionaryWithDefault
  3
ObjectDBX Classes
 90
        0
280
     0
281
     0
  0
CLASS
  1
ACDBPLACEHOLDER
  2
AcDbPlaceHolder
  3
ObjectDBX Classes
 90
        0
280
     0
281
     0
  0
CLASS
  1
LAYOUT
  2
AcDbLayout
  3
ObjectDBX Classes
 90
        0
280
     0
281
     0
  0
CLASS
  1
TABLESTYLE
  2
AcDbTableStyle
  3
ObjectDBX Classes
 90
     2047
280
     0
281
     0
  0
CLASS
  1
DICTIONARYVAR
  2
AcDbDictionaryVar
  3
ObjectDBX Classes
 90
        0
280
     0
281
     0
  0
ENDSEC
  0
SECTION
  2
TABLES
  0
TABLE
  2
VPORT
  5
8
330
0
100
AcDbSymbolTable
 70
     2
  0
VPORT
  5
36EF
330
8
100
AcDbSymbolTableRecord
100
AcDbViewportTableRecord
  2
*Active
 70
     0
 10
0.0
 20
0.0
 11
1.0
 21
1.0
 12
14.77403943828631
 22
-23.13642917464722
 13
0.0
 23
0.0
 14
1.0
 24
1.0
 15
0.0
 25
0.0
 16
0.0
 26
0.0
 36
1.0
 17
0.0
 27
0.0
 37
0.0
 40
108.9150172083384
 41
1.532401524777636
 42
50.0
 43
0.0
 44
0.0
 50
0.0
 51
0.0
 71
     0
 72
   100
 73
     1
 74
     1
 75
     0
 76
     0
 77
     0
 78
     0
281
     0
 65
     1
110
0.0
120
0.0
130
0.0
111
1.0
121
0.0
131
0.0
112
0.0
122
1.0
132
0.0
 79
     0
146
0.0
  0
ENDTAB
  0
TABLE
  2
LTYPE
  5
5
330
0
100
AcDbSymbolTable
 70
     2
  0
LTYPE
  5
13
330
5
100
AcDbSymbolTableRecord
100
AcDbLinetypeTableRecord
  2
BYBLOCK
 70
     0
  3

 72
    65
 73
     0
 40
0.0
  0
LTYPE
  5
14
330
5
100
AcDbSymbolTableRecord
100
AcDbLinetypeTableRecord
  2
BYLAYER
 70
     0
  3

 72
    65
 73
     0
 40
0.0
  0
LTYPE
  5
15
330
5
100
AcDbSymbolTableRecord
100
AcDbLinetypeTableRecord
  2
CONTINUOUS
 70
     0
  3
Solid line
 72
    65
 73
     0
 40
0.0
  0
LTYPE
  5
2E
330
5
100
AcDbSymbolTableRecord
100
AcDbLinetypeTableRecord
  2
CENTER
 70
     0
  3
____ _ ____ _ ____ _ ____ _ ____ _ ____ _ ____
 72
    65
 73
     4
 40
0.6
 49
0.375
 74
     0
 49
-0.075
 74
     0
 49
0.075
 74
     0
 49
-0.075
 74
     0
  0
ENDTAB
  0
TABLE
  2
LAYER
  5
2
330
0
100
AcDbSymbolTable
 70
    11
  0
LAYER
  5
10
330
2
100
AcDbSymbolTableRecord
100
AcDbLayerTableRecord
  2
1
 70
     0
 62
     4
  6
CONTINUOUS
370
    -3
390
2FC7
  0
LAYER
  5
31
330
2
100
AcDbSymbolTableRecord
100
AcDbLayerTableRecord
  2
2
 70
     0
 62
     7
  6
CONTINUOUS
370
    -3
390
2FC7
  0
LAYER
  5
33
330
2
100
AcDbSymbolTableRecord
100
AcDbLayerTableRecord
  2
4
 70
     0
 62
     2
  6
CENTER
370
    -3
390
2FC7
  0
LAYER
  5
36
330
2
100
AcDbSymbolTableRecord
100
AcDbLayerTableRecord
  2
0
 70
     0
 62
     7
  6
CONTINUOUS
370
    -3
390
2FC7
  0
LAYER
  5
37
330
2
100
AcDbSymbolTableRecord
100
AcDbLayerTableRecord
  2
DEFPOINTS
 70
     0
 62
     7
  6
CONTINUOUS
290
     0
370
    -3
390
2FC7
  0
LAYER
  5
A7B
330
2
100
AcDbSymbolTableRecord
100
AcDbLayerTableRecord
  2
SK1
 70
     0
 62
     4
  6
CONTINUOUS
370
    -3
390
2FC7
  0
LAYER
  5
A7C
330
2
100
AcDbSymbolTableRecord
100
AcDbLayerTableRecord
  2
SK4
 70
     0
 62
     2
  6
CENTER
370
    -3
390
2FC7
  0
LAYER
  5
A7E
330
2
100
AcDbSymbolTableRecord
100
AcDbLayerTableRecord
  2
SK2
 70
     0
 62
     7
  6
CONTINUOUS
370
    -3
390
2FC7
  0
LAYER
  5
3031
330
2
100
AcDbSymbolTableRecord
100
AcDbLayerTableRecord
  2
6
 70
     0
 62
     5
  6
CONTINUOUS
370
    -3
390
2FC7
  0
LAYER
  5
3032
330
2
100
AcDbSymbolTableRecord
100
AcDbLayerTableRecord
  2
CUT
 70
     0
 62
     1
  6
CONTINUOUS
370
    -3
390
2FC7
  0
LAYER
  5
3033
330
2
100
AcDbSymbolTableRecord
100
AcDbLayerTableRecord
  2
NOCUT
 70
     0
 62
     7
  6
CONTINUOUS
370
    -3
390
2FC7
  0
ENDTAB
  0
TABLE
  2
STYLE
  5
3
330
0
100
AcDbSymbolTable
 70
     1
  0
STYLE
  5
11
330
3
100
AcDbSymbolTableRecord
100
AcDbTextStyleTableRecord
  2
STANDARD
 70
     0
 40
0.0
 41
0.8
 50
0.0
 71
     0
 42
0.2
  3
isocp.shx
  4

  0
ENDTAB
  0
TABLE
  2
VIEW
  5
6
330
0
100
AcDbSymbolTable
 70
     0
  0
ENDTAB
  0
TABLE
  2
UCS
  5
7
330
0
100
AcDbSymbolTable
 70
     0
  0
ENDTAB
  0
TABLE
  2
APPID
  5
9
330
0
100
AcDbSymbolTable
 70
     1
  0
APPID
  5
12
330
9
100
AcDbSymbolTableRecord
100
AcDbRegAppTableRecord
  2
ACAD
 70
     0
  0
ENDTAB
  0
TABLE
  2
DIMSTYLE
  5
A
330
0
100
AcDbSymbolTable
 70
     2
100
AcDbDimStyleTable
 71
     1
340
30
  0
DIMSTYLE
105
30
330
A
100
AcDbSymbolTableRecord
100
AcDbDimStyleTableRecord
  2
STANDARD
 70
     0
340
11
  0
DIMSTYLE
105
A7F
102
{ACAD_REACTORS
330
551
330
550
330
8E
330
8F
330
92
102
}
330
A
100
AcDbSymbolTableRecord
100
AcDbDimStyleTableRecord
  2
ISO-25
 70
     0
 41
2.5
 42
0.625
 43
3.75
 44
1.25
 73
     0
 74
     0
 77
     1
 78
     8
140
2.5
141
2.5
143
0.03937007874016
147
0.625
171
     3
172
     1
271
     2
272
     2
274
     3
283
     0
284
     8
340
11
  0
ENDTAB
  0
TABLE
  2
BLOCK_RECORD
  5
1
330
0
100
AcDbSymbolTable
 70
     6
  0
BLOCK_RECORD
  5
1E
102
{ACAD_XDICTIONARY
360
234D
102
}
330
1
100
AcDbSymbolTableRecord
100
AcDbBlockTableRecord
  2
*MODEL_SPACE
340
2FC8
  0
BLOCK_RECORD
  5
1A
102
{ACAD_XDICTIONARY
360
234B
102
}
330
1
100
AcDbSymbolTableRecord
100
AcDbBlockTableRecord
  2
*PAPER_SPACE
340
2FC9
  0
BLOCK_RECORD
  5
23
330
1
100
AcDbSymbolTableRecord
100
AcDbBlockTableRecord
  2
_FILLED
340
0
  0
BLOCK_RECORD
  5
9CC
330
1
100
AcDbSymbolTableRecord
100
AcDbBlockTableRecord
  2
*D1
340
0
  0
BLOCK_RECORD
  5
9D9
330
1
100
AcDbSymbolTableRecord
100
AcDbBlockTableRecord
  2
*D2
340
0
  0
BLOCK_RECORD
  5
9E6
330
1
100
AcDbSymbolTableRecord
100
AcDbBlockTableRecord
  2
*D3
340
0
  0
BLOCK_RECORD
  5
9F3
330
1
100
AcDbSymbolTableRecord
100
AcDbBlockTableRecord
  2
*D4
340
0
  0
BLOCK_RECORD
  5
A00
330
1
100
AcDbSymbolTableRecord
100
AcDbBlockTableRecord
  2
*D5
340
0
  0
ENDTAB
  0
ENDSEC
  0
SECTION
  2
BLOCKS
  0
BLOCK
  5
3A
330
1E
100
AcDbEntity
  8
0
100
AcDbBlockBegin
  2
*MODEL_SPACE
 70
     0
 10
0.0
 20
0.0
 30
0.0
  3
*MODEL_SPACE
  1

  0
ENDBLK
  5
3B
330
1E
100
AcDbEntity
  8
0
100
AcDbBlockEnd
  0
BLOCK
  5
38
330
1A
100
AcDbEntity
 67
     1
  8
0
100
AcDbBlockBegin
  2
*PAPER_SPACE
 70
     0
 10
0.0
 20
0.0
 30
0.0
  3
*PAPER_SPACE
  1

  0
ENDBLK
  5
39
330
1A
100
AcDbEntity
 67
     1
  8
0
100
AcDbBlockEnd
  0
BLOCK
  5
3E
330
23
100
AcDbEntity
  8
0
100
AcDbBlockBegin
  2
_FILLED
 70
     0
 10
0.0
 20
0.0
 30
0.0
  3
_FILLED
  1

  0
SOLID
  5
3F
330
23
100
AcDbEntity
  8
0
  6
ByBlock
 62
     0
100
AcDbTrace
 10
0.0
 20
0.0
 30
0.0
 11
-1.0
 21
0.132
 31
0.0
 12
-1.0
 22
-0.132
 32
0.0
 13
-1.0
 23
-0.132
 33
0.0
  0
ENDBLK
  5
40
330
23
100
AcDbEntity
  8
0
100
AcDbBlockEnd
  0
BLOCK
  5
9D7
330
9CC
100
AcDbEntity
  8
0
100
AcDbBlockBegin
  2
*D1
 70
     1
 10
0.0
 20
0.0
 30
0.0
  3
*D1
  1

  0
LINE
  5
2FE5
330
9CC
100
AcDbEntity
  8
2
 62
     0
370
    -2
100
AcDbLine
 10
80.625
 20
7.999999999999957
 30
0.0
 11
90.70248475159996
 21
7.999999999999952
 31
0.0
  0
LINE
  5
2FE6
330
9CC
100
AcDbEntity
  8
2
 62
     0
370
    -2
100
AcDbLine
 10
80.625
 20
-8.00000000000004
 30
0.0
 11
90.70248475159996
 21
-8.000000000000042
 31
0.0
  0
LINE
  5
2FE7
330
9CC
100
AcDbEntity
  8
2
 62
     0
370
    -2
100
AcDbLine
 10
89.45248475159996
 20
5.499999999999953
 30
0.0
 11
89.45248475159996
 21
-5.50000000000004
 31
0.0
  0
SOLID
  5
2FE8
330
9CC
100
AcDbEntity
  8
2
 62
     0
100
AcDbTrace
 10
89.03581808493328
 20
5.499999999999953
 30
0.0
 11
89.86915141826662
 21
5.499999999999953
 31
0.0
 12
89.45248475159996
 22
7.999999999999952
 32
0.0
 13
89.45248475159996
 23
7.999999999999952
 33
0.0
  0
SOLID
  5
2FE9
330
9CC
100
AcDbEntity
  8
2
 62
     0
100
AcDbTrace
 10
89.03581808493328
 20
-5.50000000000004
 30
0.0
 11
89.86915141826662
 21
-5.50000000000004
 31
0.0
 12
89.45248475159996
 22
-8.000000000000042
 32
0.0
 13
89.45248475159996
 23
-8.000000000000042
 33
0.0
  0
MTEXT
  5
2FEA
330
9CC
100
AcDbEntity
  8
2
 62
     0
100
AcDbMText
 10
87.57748475159996
 20
0.2552002300007991
 30
0.0
 40
2.5
 41
0.0
 71
     5
 72
     1
  1
%%c16
 11
0.0000000000000001
 21
1.0
 31
0.0
 73
     1
 44
1.0
1001
ACAD
1000
MTEXTBEGIN
1070
    73
1070
     1
1070
    44
1040
1.0
1070
    74
1070
     0
1000
MTEXTEND
  0
POINT
  5
2FEB
330
9CC
100
AcDbEntity
  8
DEFPOINTS
 62
     0
100
AcDbPoint
 10
80.0
 20
7.999999999999957
 30
0.0
  0
POINT
  5
2FEC
330
9CC
100
AcDbEntity
  8
DEFPOINTS
 62
     0
100
AcDbPoint
 10
80.0
 20
-8.00000000000004
 30
0.0
  0
POINT
  5
2FED
330
9CC
100
AcDbEntity
  8
DEFPOINTS
 62
     0
100
AcDbPoint
 10
89.45248475159996
 20
-8.000000000000042
 30
0.0
  0
ENDBLK
  5
9D8
330
9CC
100
AcDbEntity
  8
0
100
AcDbBlockEnd
  0
BLOCK
  5
9E4
330
9D9
100
AcDbEntity
  8
0
100
AcDbBlockBegin
  2
*D2
 70
     1
 10
0.0
 20
0.0
 30
0.0
  3
*D2
  1

  0
LINE
  5
2FD3
330
9D9
100
AcDbEntity
  8
SK2
 62
     0
370
    -2
100
AcDbLine
 10
-25.0
 20
-0.6250000000000254
 30
0.0
 11
-25.0
 21
-35.91978340989781
 31
0.0
  0
LINE
  5
2FD4
330
9D9
100
AcDbEntity
  8
SK2
 62
     0
370
    -2
100
AcDbLine
 10
80.00585408499999
 20
-4.627248062599996
 30
0.0
 11
80.00585408499999
 21
-35.91978340989781
 31
0.0
  0
LINE
  5
2FD5
330
9D9
100
AcDbEntity
  8
SK2
 62
     0
370
    -2
100
AcDbLine
 10
-22.5
 20
-34.66978340989781
 30
0.0
 11
77.50585408499998
 21
-34.66978340989781
 31
0.0
  0
SOLID
  5
2FD6
330
9D9
100
AcDbEntity
  8
SK2
 62
     0
100
AcDbTrace
 10
-22.5
 20
-34.25311674323114
 30
0.0
 11
-22.5
 21
-35.08645007656448
 31
0.0
 12
-25.0
 22
-34.66978340989781
 32
0.0
 13
-25.0
 23
-34.66978340989781
 33
0.0
  0
SOLID
  5
2FD7
330
9D9
100
AcDbEntity
  8
SK2
 62
     0
100
AcDbTrace
 10
77.50585408499998
 20
-34.25311674323114
 30
0.0
 11
77.50585408499998
 21
-35.08645007656448
 31
0.0
 12
80.00585408499999
 22
-34.66978340989781
 32
0.0
 13
80.00585408499999
 23
-34.66978340989781
 33
0.0
  0
MTEXT
  5
2FD8
330
9D9
100
AcDbEntity
  8
SK2
 62
     0
100
AcDbMText
 10
27.5029270425
 20
-32.79478340989781
 30
0.0
 40
2.5
 41
0.0
 71
     5
 72
     1
  1
105
 73
     1
 44
1.0
1001
ACAD
1000
MTEXTBEGIN
1070
    73
1070
     1
1070
    44
1040
1.0
1070
    74
1070
     0
1000
MTEXTEND
  0
POINT
  5
2FD9
330
9D9
100
AcDbEntity
  8
DEFPOINTS
 62
     0
100
AcDbPoint
 10
-25.0
 20
-0.0000000000000253
 30
0.0
  0
POINT
  5
2FDA
330
9D9
100
AcDbEntity
  8
DEFPOINTS
 62
     0
100
AcDbPoint
 10
80.00585408499999
 20
-4.002248062599996
 30
0.0
  0
POINT
  5
2FDB
330
9D9
100
AcDbEntity
  8
DEFPOINTS
 62
     0
100
AcDbPoint
 10
80.00585408499999
 20
-34.66978340989781
 30
0.0
  0
ENDBLK
  5
9E5
330
9D9
100
AcDbEntity
  8
0
100
AcDbBlockEnd
  0
BLOCK
  5
9F1
330
9E6
100
AcDbEntity
  8
0
100
AcDbBlockBegin
  2
*D3
 70
     1
 10
0.0
 20
0.0
 30
0.0
  3
*D3
  1

  0
LINE
  5
2FDC
330
9E6
100
AcDbEntity
  8
2
 62
     0
370
    -2
100
AcDbLine
 10
40.22016055289999
 20
-0.6250000000000333
 30
0.0
 11
40.22016055289999
 21
-25.92399650696359
 31
0.0
  0
LINE
  5
2FDD
330
9E6
100
AcDbEntity
  8
2
 62
     0
370
    -2
100
AcDbLine
 10
80.00585408499999
 20
-4.627248062599996
 30
0.0
 11
80.00585408499999
 21
-25.92399650696359
 31
0.0
  0
LINE
  5
2FDE
330
9E6
100
AcDbEntity
  8
2
 62
     0
370
    -2
100
AcDbLine
 10
42.72016055289999
 20
-24.67399650696359
 30
0.0
 11
77.50585408499998
 21
-24.67399650696359
 31
0.0
  0
SOLID
  5
2FDF
330
9E6
100
AcDbEntity
  8
2
 62
     0
100
AcDbTrace
 10
42.72016055289999
 20
-24.25732984029693
 30
0.0
 11
42.72016055289999
 21
-25.09066317363026
 31
0.0
 12
40.22016055289999
 22
-24.67399650696359
 32
0.0
 13
40.22016055289999
 23
-24.67399650696359
 33
0.0
  0
SOLID
  5
2FE0
330
9E6
100
AcDbEntity
  8
2
 62
     0
100
AcDbTrace
 10
77.50585408499998
 20
-24.25732984029693
 30
0.0
 11
77.50585408499998
 21
-25.09066317363026
 31
0.0
 12
80.00585408499999
 22
-24.67399650696359
 32
0.0
 13
80.00585408499999
 23
-24.67399650696359
 33
0.0
  0
MTEXT
  5
2FE1
330
9E6
100
AcDbEntity
  8
2
 62
     0
100
AcDbMText
 10
60.11300731895
 20
-22.79899650696357
 30
0.0
 40
2.5
 41
0.0
 71
     5
 72
     1
  1
40
 73
     1
 44
1.0
1001
ACAD
1000
MTEXTBEGIN
1070
    73
1070
     1
1070
    44
1040
1.0
1070
    74
1070
     0
1000
MTEXTEND
  0
POINT
  5
2FE2
330
9E6
100
AcDbEntity
  8
DEFPOINTS
 62
     0
100
AcDbPoint
 10
40.22016055289999
 20
-0.0000000000000333
 30
0.0
  0
POINT
  5
2FE3
330
9E6
100
AcDbEntity
  8
DEFPOINTS
 62
     0
100
AcDbPoint
 10
80.00585408499999
 20
-4.002248062599996
 30
0.0
  0
POINT
  5
2FE4
330
9E6
100
AcDbEntity
  8
DEFPOINTS
 62
     0
100
AcDbPoint
 10
80.00585408499999
 20
-24.67399650696359
 30
0.0
  0
ENDBLK
  5
9F2
330
9E6
100
AcDbEntity
  8
0
100
AcDbBlockEnd
  0
BLOCK
  5
9FE
330
9F3
100
AcDbEntity
  8
0
100
AcDbBlockBegin
  2
*D4
 70
     1
 10
0.0
 20
0.0
 30
0.0
  3
*D4
  1

  0
LINE
  5
2FCA
330
9F3
100
AcDbEntity
  8
SK2
 62
     0
370
    -2
100
AcDbLine
 10
80.0
 20
-11.29077098110001
 30
0.0
 11
80.0
 21
-46.09406621110349
 31
0.0
  0
LINE
  5
2FCB
330
9F3
100
AcDbEntity
  8
SK2
 62
     0
370
    -2
100
AcDbLine
 10
-50.0
 20
-11.29077098109998
 30
0.0
 11
-50.0
 21
-46.09406621110349
 31
0.0
  0
LINE
  5
2FCC
330
9F3
100
AcDbEntity
  8
SK2
 62
     0
370
    -2
100
AcDbLine
 10
77.5
 20
-44.84406621110349
 30
0.0
 11
-47.5
 21
-44.84406621110349
 31
0.0
  0
SOLID
  5
2FCD
330
9F3
100
AcDbEntity
  8
SK2
 62
     0
100
AcDbTrace
 10
77.5
 20
-44.42739954443681
 30
0.0
 11
77.5
 21
-45.26073287777014
 31
0.0
 12
80.0
 22
-44.84406621110349
 32
0.0
 13
80.0
 23
-44.84406621110349
 33
0.0
  0
SOLID
  5
2FCE
330
9F3
100
AcDbEntity
  8
SK2
 62
     0
100
AcDbTrace
 10
-47.5
 20
-44.42739954443681
 30
0.0
 11
-47.5
 21
-45.26073287777014
 31
0.0
 12
-50.0
 22
-44.84406621110349
 32
0.0
 13
-50.0
 23
-44.84406621110349
 33
0.0
  0
MTEXT
  5
2FCF
330
9F3
100
AcDbEntity
  8
SK2
 62
     0
100
AcDbMText
 10
18.97460784363053
 20
-42.96906621110349
 30
0.0
 40
2.5
 41
0.0
 71
     5
 72
     1
  1
130
 73
     1
 44
1.0
1001
ACAD
1000
MTEXTBEGIN
1070
    73
1070
     1
1070
    44
1040
1.0
1070
    74
1070
     0
1000
MTEXTEND
  0
POINT
  5
2FD0
330
9F3
100
AcDbEntity
  8
DEFPOINTS
 62
     0
100
AcDbPoint
 10
80.0
 20
-10.66577098110001
 30
0.0
  0
POINT
  5
2FD1
330
9F3
100
AcDbEntity
  8
DEFPOINTS
 62
     0
100
AcDbPoint
 10
-50.0
 20
-10.66577098109999
 30
0.0
  0
POINT
  5
2FD2
330
9F3
100
AcDbEntity
  8
DEFPOINTS
 62
     0
100
AcDbPoint
 10
-50.0
 20
-44.84406621110349
 30
0.0
  0
ENDBLK
  5
9FF
330
9F3
100
AcDbEntity
  8
0
100
AcDbBlockEnd
  0
BLOCK
  5
A0B
330
A00
100
AcDbEntity
  8
0
100
AcDbBlockBegin
  2
*D5
 70
     1
 10
0.0
 20
0.0
 30
0.0
  3
*D5
  1

  0
LINE
  5
2FEE
330
A00
100
AcDbEntity
  8
SK2
 62
     0
370
    -2
100
AcDbLine
 10
-49.42499999999999
 20
-9.999999999999994
 30
0.0
 11
-66.36892029891646
 21
-9.999999999999987
 31
0.0
  0
LINE
  5
2FEF
330
A00
100
AcDbEntity
  8
SK2
 62
     0
370
    -2
100
AcDbLine
 10
-49.424920687
 20
9.999999999999973
 30
0.0
 11
-66.36892029891646
 21
9.999999999999976
 31
0.0
  0
LINE
  5
2FF0
330
A00
100
AcDbEntity
  8
SK2
 62
     0
370
    -2
100
AcDbLine
 10
-65.11892029891646
 20
-7.499999999999986
 30
0.0
 11
-65.11892029891646
 21
7.499999999999976
 31
0.0
  0
SOLID
  5
2FF1
330
A00
100
AcDbEntity
  8
SK2
 62
     0
100
AcDbTrace
 10
-65.53558696558313
 20
-7.499999999999986
 30
0.0
 11
-64.70225363224978
 21
-7.499999999999986
 31
0.0
 12
-65.11892029891646
 22
-9.999999999999987
 32
0.0
 13
-65.11892029891646
 23
-9.999999999999987
 33
0.0
  0
SOLID
  5
2FF2
330
A00
100
AcDbEntity
  8
SK2
 62
     0
100
AcDbTrace
 10
-65.53558696558313
 20
7.499999999999976
 30
0.0
 11
-64.70225363224978
 21
7.499999999999976
 31
0.0
 12
-65.11892029891646
 22
9.999999999999976
 32
0.0
 13
-65.11892029891646
 23
9.999999999999976
 33
0.0
  0
MTEXT
  5
2FF3
330
A00
100
AcDbEntity
  8
SK2
 62
     0
100
AcDbMText
 10
-66.99392029891646
 20
0.8139607513685486
 30
0.0
 40
2.5
 41
0.0
 71
     5
 72
     1
  1
%%c20
 11
0.0000000000000001
 21
1.0
 31
0.0
 73
     1
 44
1.0
1001
ACAD
1000
MTEXTBEGIN
1070
    73
1070
     1
1070
    44
1040
1.0
1070
    74
1070
     0
1000
MTEXTEND
  0
POINT
  5
2FF4
330
A00
100
AcDbEntity
  8
DEFPOINTS
 62
     0
100
AcDbPoint
 10
-48.79999999999999
 20
-9.999999999999994
 30
0.0
  0
POINT
  5
2FF5
330
A00
100
AcDbEntity
  8
DEFPOINTS
 62
     0
100
AcDbPoint
 10
-48.799920687
 20
9.999999999999973
 30
0.0
  0
POINT
  5
2FF6
330
A00
100
AcDbEntity
  8
DEFPOINTS
 62
     0
100
AcDbPoint
 10
-65.11892029891646
 20
9.999999999999976
 30
0.0
  0
ENDBLK
  5
A0C
330
A00
100
AcDbEntity
  8
0
100
AcDbBlockEnd
  0
ENDSEC
  0
SECTION
  2
ENTITIES
  0
DIMENSION
  5
8E
330
1E
100
AcDbEntity
  8
SK2
100
AcDbDimension
  2
*D4
 10
-50.0
 20
-44.84406621110349
 30
0.0
 11
18.97460784363053
 21
-44.84406621110349
 31
0.0
 70
   160
 71
     5
 42
130.0
  3
ISO-25
100
AcDbAlignedDimension
 13
80.0
 23
-10.66577098110001
 33
0.0
 14
-50.0
 24
-10.66577098109999
 34
0.0
 50
180.0
100
AcDbRotatedDimension
  0
DIMENSION
  5
8F
330
1E
100
AcDbEntity
  8
2
100
AcDbDimension
  2
*D1
 10
89.45248475159996
 20
-8.000000000000042
 30
0.0
 11
89.45248475159996
 21
0.2552002300007989
 31
0.0
 70
   160
  1
%%c<>
 71
     5
 42
16.0
  3
ISO-25
100
AcDbAlignedDimension
 13
80.0
 23
7.999999999999957
 33
0.0
 14
80.0
 24
-8.00000000000004
 34
0.0
 50
270.0
100
AcDbRotatedDimension
  0
DIMENSION
  5
92
330
1E
100
AcDbEntity
  8
SK2
100
AcDbDimension
  2
*D5
 10
-65.11892029891646
 20
9.999999999999976
 30
0.0
 11
-65.11892029891646
 21
0.8139607513685485
 31
0.0
 70
   160
  1
%%c<>
 71
     5
 42
19.99999999999996
  3
ISO-25
100
AcDbAlignedDimension
 13
-48.79999999999999
 23
-9.999999999999994
 33
0.0
 14
-48.799920687
 24
9.999999999999973
 34
0.0
 50
89.99999999999998
100
AcDbRotatedDimension
  0
LINE
  5
93
330
1E
100
AcDbEntity
  8
1
100
AcDbLine
 10
79.29999999999998
 20
-3.664448250500027
 30
0.0
 11
79.29999999999998
 21
-1.706183148000015
 31
0.0
  0
LINE
  5
94
330
1E
100
AcDbEntity
  8
1
100
AcDbLine
 10
79.29999999999998
 20
1.735955800399999
 30
0.0
 11
79.29999999999998
 21
1.70618314789998
 31
0.0
  0
LINE
  5
96
330
1E
100
AcDbEntity
  8
1
100
AcDbLine
 10
73.6404449572
 20
-6.364014533400027
 30
0.0
 11
73.6404449572
 21
1.002248062599949
 31
0.0
  0
LINE
  5
97
330
1E
100
AcDbEntity
  8
1
100
AcDbLine
 10
40.22016055289999
 20
-6.750000000000034
 30
0.0
 11
40.22016055289999
 21
6.749999999999962
 31
0.0
  0
LINE
  5
98
330
1E
100
AcDbEntity
  8
1
100
AcDbLine
 10
39.78069150139999
 20
-6.769350749900045
 30
0.0
 11
39.78069150139999
 21
6.769350749799963
 31
0.0
  0
LINE
  5
99
330
1E
100
AcDbEntity
  8
SK1
100
AcDbLine
 10
0.0000000000000012
 20
9.999999999999966
 30
0.0
 11
-48.79999999999999
 21
9.999999999999973
 31
0.0
  0
LINE
  5
9A
330
1E
100
AcDbEntity
  8
1
100
AcDbLine
 10
5.779839447100017
 20
9.749999999999966
 30
0.0
 11
0.1999999999999902
 21
9.749999999999966
 31
0.0
  0
LINE
  5
9B
330
1E
100
AcDbEntity
  8
1
100
AcDbLine
 10
39.78069150139999
 20
6.769350749799963
 30
0.0
 11
6.219308498500001
 21
9.730649250099959
 31
0.0
  0
LINE
  5
9C
330
1E
100
AcDbEntity
  8
1
100
AcDbLine
 10
72.64060389089998
 20
6.749999999999959
 30
0.0
 11
40.22016055289999
 21
6.749999999999962
 31
0.0
  0
LINE
  5
9D
330
1E
100
AcDbEntity
  8
1
100
AcDbLine
 10
73.1188695842
 20
6.749815931599972
 30
0.0
 11
72.9040526972
 21
6.749815931599972
 31
0.0
  0
LINE
  5
9E
330
1E
100
AcDbEntity
  8
1
100
AcDbLine
 10
72.64060389089998
 20
6.748329761999992
 30
0.0
 11
64.0747800563
 21
6.748329761999992
 31
0.0
  0
LINE
  5
9F
330
1E
100
AcDbEntity
  8
SK1
100
AcDbLine
 10
-19.5
 20
5.723635208499961
 30
0.0
 11
-30.5
 21
5.723635208499961
 31
0.0
  0
LINE
  5
A0
330
1E
100
AcDbEntity
  8
1
100
AcDbLine
 10
75.514257
 20
1.002248062599949
 30
0.0
 11
73.014257
 21
1.002248062599949
 31
0.0
  0
LINE
  5
A1
330
1E
100
AcDbEntity
  8
4
100
AcDbLine
 10
81.30250233905668
 20
-0.0000000000000401
 30
0.0
 11
0.114537950690362
 21
0.0
 31
0.0
  0
LINE
  5
A2
330
1E
100
AcDbEntity
  8
1
100
AcDbLine
 10
6.219308498500001
 20
9.730649250099959
 30
0.0
 11
6.219308498499999
 21
-9.730649250200027
 31
0.0
  0
LINE
  5
A3
330
1E
100
AcDbEntity
  8
1
100
AcDbLine
 10
5.779839447100017
 20
9.749999999999966
 30
0.0
 11
5.779839447100017
 21
-9.75000000000003
 31
0.0
  0
LINE
  5
A4
330
1E
100
AcDbEntity
  8
1
100
AcDbLine
 10
39.78069150139999
 20
-6.769350749900045
 30
0.0
 11
6.219308498499999
 21
-9.730649250200027
 31
0.0
  0
LINE
  5
A5
330
1E
100
AcDbEntity
  8
SK1
100
AcDbLine
 10
-19.5
 20
-5.723635208500002
 30
0.0
 11
-30.5
 21
-5.723635208500002
 31
0.0
  0
LINE
  5
A6
330
1E
100
AcDbEntity
  8
1
100
AcDbLine
 10
73.6404449572
 20
-6.364014533400027
 30
0.0
 11
73.4993893817
 21
-6.364014533400027
 31
0.0
  0
LINE
  5
A7
330
1E
100
AcDbEntity
  8
1
100
AcDbLine
 10
73.2356565226
 20
-6.749815931600017
 30
0.0
 11
72.9040526972
 21
-6.749815931600017
 31
0.0
  0
LINE
  5
A8
330
1E
100
AcDbEntity
  8
1
100
AcDbLine
 10
72.7310390471
 20
-6.750000000000039
 30
0.0
 11
40.22016055289999
 21
-6.750000000000034
 31
0.0
  0
LINE
  5
A9
330
1E
100
AcDbEntity
  8
1
100
AcDbLine
 10
5.779839447100017
 20
-9.75000000000003
 30
0.0
 11
0.1999999999999878
 21
-9.75000000000003
 31
0.0
  0
LINE
  5
AA
330
1E
100
AcDbEntity
  8
SK1
100
AcDbLine
 10
-0.0000000000000012
 20
-10.0
 30
0.0
 11
-48.79999999999999
 21
-9.999999999999994
 31
0.0
  0
LINE
  5
AB
330
1E
100
AcDbEntity
  8
1
100
AcDbLine
 10
0.1999999999999902
 20
9.749999999999966
 30
0.0
 11
0.1999999999999878
 21
-9.75000000000003
 31
0.0
  0
LINE
  5
AC
330
1E
100
AcDbEntity
  8
1
100
AcDbLine
 10
0.0000000000000012
 20
9.999999469699988
 30
0.0
 11
-0.0000000000000012
 21
-9.999999469700007
 31
0.0
  0
LINE
  5
AF
330
1E
100
AcDbEntity
  8
SK1
100
AcDbLine
 10
-19.5
 20
5.723635208499961
 30
0.0
 11
-19.5
 21
-5.723635208500002
 31
0.0
  0
LINE
  5
B0
330
1E
100
AcDbEntity
  8
SK1
100
AcDbLine
 10
-30.5
 20
5.723635208499961
 30
0.0
 11
-30.5
 21
-5.723635208500002
 31
0.0
  0
LINE
  5
B1
330
1E
100
AcDbEntity
  8
SK1
100
AcDbLine
 10
-48.79999999999999
 20
9.999999999999973
 30
0.0
 11
-50.0
 21
8.799999999999984
 31
0.0
  0
LINE
  5
B2
330
1E
100
AcDbEntity
  8
SK1
100
AcDbLine
 10
-48.79999999999999
 20
-9.999999999999994
 30
0.0
 11
-50.0
 21
-8.800000000000002
 31
0.0
  0
LINE
  5
B3
330
1E
100
AcDbEntity
  8
SK1
100
AcDbLine
 10
-48.79999999999999
 20
9.999999999999973
 30
0.0
 11
-48.79999999999999
 21
-9.999999999999994
 31
0.0
  0
LINE
  5
B4
330
1E
100
AcDbEntity
  8
SK1
100
AcDbLine
 10
-50.0
 20
8.799999484200011
 30
0.0
 11
-50.0
 21
-8.799999484300023
 31
0.0
  0
CIRCLE
  5
B9
330
1E
100
AcDbEntity
  8
1
100
AcDbCircle
 10
76.014257
 20
4.002248062599949
 30
0.0
 40
2.45
  0
ARC
  5
BA
330
1E
100
AcDbEntity
  8
1
100
AcDbCircle
 10
76.014257
 20
4.002248062599949
 30
0.0
 40
3.991597085
100
AcDbArc
 50
294.5200549483999
 51
228.7289707691999
  0
ARC
  5
BC
330
1E
100
AcDbEntity
  8
1
100
AcDbCircle
 10
76.014257
 20
-4.002248062599996
 30
0.0
 40
3.991597085
100
AcDbArc
 50
223.4994590996
 51
34.59539428880002
  0
ARC
  5
BE
330
1E
100
AcDbEntity
  8
1
100
AcDbCircle
 10
73.014257
 20
11.00224806259997
 30
0.0
 40
10.0
100
AcDbArc
 50
205.1942503129999
 51
270.0
  0
ARC
  5
BF
330
1E
100
AcDbEntity
  8
1
100
AcDbCircle
 10
76.014257
 20
-4.002248062599996
 30
0.0
 40
3.649999999999999
100
AcDbArc
 50
221.7185766539
 51
226.4701021533999
  0
ARC
  5
C0
330
1E
100
AcDbEntity
  8
1
100
AcDbCircle
 10
5.779839447100017
 20
4.749999999999966
 30
0.0
 40
5.0
100
AcDbArc
 50
84.9575489307999
 51
90.0
  0
ARC
  5
C1
330
1E
100
AcDbEntity
  8
1
100
AcDbCircle
 10
5.779839447100017
 20
-4.750000000000031
 30
0.0
 40
5.0
100
AcDbArc
 50
270.0
 51
275.0424510691999
  0
ARC
  5
C2
330
1E
100
AcDbEntity
  8
1
100
AcDbCircle
 10
40.22016055289999
 20
11.74999999999999
 30
0.0
 40
5.0
100
AcDbArc
 50
264.9575489309999
 51
270.0
  0
ARC
  5
C3
330
1E
100
AcDbEntity
  8
1
100
AcDbCircle
 10
40.22016055289999
 20
-11.75
 30
0.0
 40
5.0
100
AcDbArc
 50
90.0
 51
95.04245106900008
  0
ARC
  5
C4
330
1E
100
AcDbEntity
  8
1
100
AcDbCircle
 10
75.514257
 20
2.997751937399998
 30
0.0
 40
4.0
100
AcDbArc
 50
311.4511329363998
 51
341.1620767932999
  0
ARC
  5
C5
330
1E
100
AcDbEntity
  8
1
100
AcDbCircle
 10
0.1999999999999877
 20
-9.950000000000015
 30
0.0
 40
0.2
100
AcDbArc
 50
90.0
 51
180.0
  0
ARC
  5
C6
330
1E
100
AcDbEntity
  8
1
100
AcDbCircle
 10
75.514257
 20
-2.997751937400048
 30
0.0
 40
4.0
100
AcDbArc
 50
18.83792320669994
 51
90.0
  0
ARC
  5
C7
330
1E
100
AcDbEntity
  8
1
100
AcDbCircle
 10
0.1999999999999902
 20
9.94999999999999
 30
0.0
 40
0.2
100
AcDbArc
 50
180.0
 51
270.0
  0
ARC
  5
C8
330
1E
100
AcDbEntity
  8
1
100
AcDbCircle
 10
76.014257
 20
4.002248062599949
 30
0.0
 40
4.349999999999996
100
AcDbArc
 50
140.8551454634998
 51
223.5646426349997
  0
ARC
  5
C9
330
1E
100
AcDbEntity
  8
1
100
AcDbCircle
 10
75.8728356437
 20
-3.860826706400029
 30
0.0
 40
1.75
100
AcDbArc
 50
300.0539256510999
 51
222.5706928236999
  0
LWPOLYLINE
  5
232
330
1E
100
AcDbEntity
  8
1
100
AcDbPolyline
 90
      155
 70
     0
 43
0.0
 10
73.8955319888
 20
-6.461398118200015
 10
73.93654433585098
 20
-6.496758732867207
 10
73.9781400834155
 20
-6.531442540011505
 10
74.02030681344091
 20
-6.565437013793894
 10
74.063032107875
 20
-6.598729628375378
 10
74.10630355791351
 20
-6.631307878249026
 10
74.1501092897935
 20
-6.663160434184128
 10
74.19443824784631
 20
-6.694277765512596
 10
74.239279445482
 20
-6.724650493434107
 10
74.28462189611071
 20
-6.754269239148317
 10
74.32387743098679
 20
-6.779049529649745
 10
74.3634855213769
 20
-6.803263242861337
 10
74.4034381675377
 20
-6.826904720643947
 10
74.44372736234931
 20
-6.849968306550857
 10
74.484345098692
 20
-6.872448344135377
 10
74.52528336770519
 20
-6.894339179978826
 10
74.56653400518391
 20
-6.915635430882867
 10
74.6080885711511
 20
-6.936332193351137
 10
74.64993859728799
 20
-6.956424613188437
 10
74.69207561527539
 20
-6.975907836199587
 10
74.7344911567943
 20
-6.994777008189369
 10
74.7771766838174
 20
-7.013027373712333
 10
74.82012331572409
 20
-7.030654662646496
 10
74.8633220668203
 20
-7.047654753718996
 10
74.90676395138409
 20
-7.064023525696137
 10
74.95043998369358
 20
-7.079756857344257
 10
74.9943411631333
 20
-7.094850657349335
 10
75.0384582703322
 20
-7.109301273856837
 10
75.0827819195911
 20
-7.123105389149666
 10
75.12730272105009
 20
-7.136259693869075
 10
75.1720112848494
 20
-7.148760878656289
 10
75.21689821989039
 20
-7.160605637560697
 10
75.2619540302727
 20
-7.171790952968088
 10
75.30716903717742
 20
-7.182314310521245
 10
75.3525335433871
 20
-7.192173246481178
 10
75.39803785168451
 20
-7.201365297108885
 10
75.44367226485229
 20
-7.209887998665355
 10
75.48942704868149
 20
-7.217739028897574
 10
75.5352923168295
 20
-7.224916647434214
 10
75.5812581438491
 20
-7.231419263470387
 10
75.6273146042932
 20
-7.237245286201306
 10
75.67345177271469
 20
-7.242393124822209
 10
75.71965971720139
 20
-7.246861238604204
 10
75.7659284380242
 20
-7.250648612086219
 10
75.812247894953
 20
-7.253754543507257
 10
75.8586080472145
 20
-7.256178335311394
 10
75.9049988540357
 20
-7.257919289942747
 10
75.9514102742468
 20
-7.258976720157367
 10
75.99783225210579
 20
-7.259350317641227
 10
76.0442547134156
 20
-7.259040253989428
 10
76.09066758279189
 20
-7.258046731658917
 10
76.1370607848508
 20
-7.256369953106648
 10
76.18342424423059
 20
-7.254010121050987
 10
76.2297479035097
 20
-7.250967647698879
 10
76.2760217554935
 20
-7.24724353174824
 10
76.32223580170969
 20
-7.242838873753217
 10
76.3683800436865
 20
-7.237754774267957
 10
76.41444448295169
 20
-7.231992333846616
 10
76.4604191366668
 20
-7.225552738092257
 10
76.5062941263098
 20
-7.218437740107868
 10
76.55205961605641
 20
-7.210649325278687
 10
76.5977057702103
 20
-7.202189479687826
 10
76.64322275307561
 20
-7.193060189418387
 10
76.6886007357113
 20
-7.183263462580955
 10
76.73383002164718
 20
-7.172801739239509
 10
76.7789010352858
 20
-7.161677853594378
 10
76.82380420545929
 20
-7.149894654290027
 10
76.86852996099979
 20
-7.137454989970947
 10
76.91306873145309
 20
-7.124361710945537
 10
76.95741105351939
 20
-7.110617917412079
 10
77.00154768427061
 20
-7.096227223486327
 10
77.0454694078974
 20
-7.081193306526547
 10
77.08916700859039
 20
-7.06551984389099
 10
77.1326312705403
 20
-7.04921051293792
 10
77.1758530334135
 20
-7.032269089895367
 10
77.21882342814961
 20
-7.014699870104599
 10
77.26153368095269
 20
-6.996507318688707
 10
77.30397501808099
 20
-6.97769590086737
 10
77.34613866579259
 20
-6.958270081860217
 10
77.38801586689139
 20
-6.938234349523695
 10
77.4295981430224
 20
-6.917593573207794
 10
77.4708772476917
 20
-6.896352939480457
 10
77.5118449414543
 20
-6.874517644553889
 10
77.55249298486551
 20
-6.852092884640348
 10
77.59281313944588
 20
-6.829083857029329
 10
77.632797342486
 20
-6.805495955125151
 10
77.6724379101084
 20
-6.781334995013287
 10
77.71172720768952
 20
-6.756606847734017
 10
77.75065760060559
 20
-6.731317384327566
 10
77.79561259133348
 20
-6.701111401720877
 10
77.84005673602639
 20
-6.670158873199
 10
77.88397882091828
 20
-6.638469905912348
 10
77.92736781999059
 20
-6.606054768842317
 10
77.97021270722471
 20
-6.572923730970418
 10
78.01250246492998
 20
-6.539087067134929
 10
78.0542265263482
 20
-6.50455536930549
 10
78.0953749969962
 20
-6.469339702248737
 10
78.1359380372126
 20
-6.433451169286106
 10
78.17590580733579
 20
-6.39690087373907
 10
78.2152685323405
 20
-6.359699952494956
 10
78.2540171860342
 20
-6.321859931313107
 10
78.29753847749059
 20
-6.277846727965409
 10
78.33494250227102
 20
-6.238676865913276
 10
78.37170561956098
 20
-6.198904923211099
 10
78.40781959376659
 20
-6.158542798904037
 10
78.443277090708
 20
-6.117602748411386
 10
78.47807094451352
 20
-6.076097093692897
 10
78.5121939893112
 20
-6.034038156708349
 10
78.54563906828059
 20
-5.991438261658537
 10
78.57839956518239
 20
-5.948309866589005
 10
78.6104697002484
 20
-5.904665636650557
 10
78.64184376549819
 20
-5.860518254768177
 10
78.6725160529512
 20
-5.815880403866849
 10
78.70248089011848
 20
-5.770764771654286
 10
78.731733345288
 20
-5.725184145662717
 10
78.76026918784591
 20
-5.679151407901927
 10
78.78808421472648
 20
-5.632679444094008
 10
78.81517422286409
 20
-5.585781139961015
 10
78.8415350782749
 20
-5.538469381239198
 10
78.86716352440579
 20
-5.490757053844379
 10
78.89205690822089
 20
-5.44265704381593
 10
78.91621258856639
 20
-5.394182237195637
 10
78.9396279242886
 20
-5.3453455200253
 10
78.9623003650035
 20
-5.296159767338117
 10
78.98422829675749
 20
-5.246637740596217
 10
79.00541065775001
 20
-5.196792134296117
 10
79.0258463933059
 20
-5.146635642070219
 10
79.04553444874991
 20
-5.096180957550896
 10
79.0644738514237
 20
-5.045440754674799
 10
79.08266455849259
 20
-4.994427484088538
 10
79.1001071159785
 20
-4.943153455029436
 10
79.11680207923329
 20
-4.8916309744942
 10
79.13275000360909
 20
-4.8398723494795
 10
79.14795148479059
 20
-4.787889871226258
 10
79.16240792873859
 20
-4.735695514443148
 10
79.1761214913964
 20
-4.683300960860358
 10
79.1890943569582
 20
-4.630717881171887
 10
79.20132870961829
 20
-4.577957946071728
 10
79.2128267375843
 20
-4.525032824477126
 10
79.223591141043
 20
-4.471953958666299
 10
79.23362562900511
 20
-4.4187323443382
 10
79.2429340284367
 20
-4.365378924976274
 10
79.25152016630359
 20
-4.311904644063996
 10
79.259387869572
 20
-4.258320445084796
 10
79.2665411380014
 20
-4.204637105487949
 10
79.2729850253002
 20
-4.15086439000392
 10
79.27872498249609
 20
-4.097011681586718
 10
79.28376646134509
 20
-4.0430883624903
 10
79.28811491360349
 20
-3.989103814968606
 10
79.2917758119773
 20
-3.935067427227167
 10
79.2947553220779
 20
-3.880988784315506
 10
79.29706044502579
 20
-3.826877708638818
 10
79.29869823172571
 20
-3.772744036745236
 10
79.29967573308219
 20
-3.718597605182897
 10
79.299999999989
 20
-3.664458250500138
  0
LWPOLYLINE
  5
2CF
330
1E
100
AcDbEntity
  8
1
100
AcDbPolyline
 90
       68
 70
     0
 43
0.0
 10
73.2356565226
 20
-6.749815931600017
 10
73.2426544035689
 20
-6.749616241921216
 10
73.24965109923841
 20
-6.749341313092807
 10
73.2563539315721
 20
-6.749005097990437
 10
73.262762110875
 20
-6.748614978467919
 10
73.26916610361969
 20
-6.748156051174607
 10
73.27527416575129
 20
-6.74765216052766
 10
73.2813766015893
 20
-6.747082403348834
 10
73.28718240492719
 20
-6.746477123713066
 10
73.2929815382324
 20
-6.745809358043565
 10
73.29877323720309
 20
-6.745077768219507
 10
73.3042677662085
 20
-6.744322419757619
 10
73.3097540500232
 20
-6.743506964897926
 10
73.3149429446697
 20
-6.742677599659637
 10
73.32012242606978
 20
-6.741791599685647
 10
73.325291503273
 20
-6.740847647768028
 10
73.33016296323409
 20
-6.739901738500927
 10
73.3350234242082
 20
-6.738901852970275
 10
73.339872051398
 20
-6.737846881532289
 10
73.34442390749258
 20
-6.736802652768989
 10
73.34896384561499
 20
-6.735707720130369
 10
73.35349116978919
 20
-6.734561158499177
 10
73.3580051840392
 20
-6.733362042758199
 10
73.3622243653648
 20
-6.732189319253957
 10
73.36643064615429
 20
-6.730968829669286
 10
73.37062315660729
 20
-6.729699801728648
 10
73.3748008003025
 20
-6.728381455507147
 10
73.3789624742684
 20
-6.727013010858817
 10
73.38283132204729
 20
-6.725689907716128
 10
73.38668440085029
 20
-6.724321849395775
 10
73.3905208139209
 20
-6.722908201610199
 10
73.3943396645025
 20
-6.721448330071816
 10
73.39814005583839
 20
-6.719941600493058
 10
73.401651678246
 20
-6.718499982960039
 10
73.40514589304589
 20
-6.717016907563428
 10
73.40862198224448
 20
-6.715491866457075
 10
73.41207922784838
 20
-6.713924351794855
 10
73.41551691186379
 20
-6.712313855730648
 10
73.41893431589991
 20
-6.710659870843797
 10
73.4223306433655
 20
-6.708961973410509
 10
73.42570492609198
 20
-6.707219923345316
 10
73.42905617313768
 20
-6.705433504936737
 10
73.43238339356068
 20
-6.703602502473286
 10
73.43543249156438
 20
-6.701872588156168
 10
73.4384594934243
 20
-6.700104331594138
 10
73.44146361973781
 20
-6.698297563124268
 10
73.4444440911022
 20
-6.696452113083624
 10
73.44740012811509
 20
-6.694567811809307
 10
73.45033095137392
 20
-6.692644489638365
 10
73.45323578147598
 20
-6.690681976907877
 10
73.45611383901879
 20
-6.688680103954927
 10
73.45896434459991
 20
-6.686638701116589
 10
73.46178651881659
 20
-6.684557598729925
 10
73.4645795822761
 20
-6.682436628642276
 10
73.4673427568829
 20
-6.680275823346757
 10
73.4700752671257
 20
-6.678075615041548
 10
73.4727763377993
 20
-6.675836483278597
 10
73.47544519369851
 20
-6.673558907609857
 10
73.4782992016807
 20
-6.671048707282227
 10
73.4811135066512
 20
-6.668494561275219
 10
73.4838871230049
 20
-6.665897079296954
 10
73.48661906513648
 20
-6.663256871055557
 10
73.48930834744109
 20
-6.660574546259137
 10
73.4919539843133
 20
-6.657850714615825
 10
73.4943565197408
 20
-6.655300095372027
 10
73.49672025115009
 20
-6.652715108413985
 10
73.499044403336
 20
-6.650096233293679
 10
73.5003750568456
 20
-6.648560682946285
  0
LWPOLYLINE
  5
315
330
1E
100
AcDbEntity
  8
1
100
AcDbPolyline
 90
       62
 70
     0
 43
0.0
 10
73.6404449572
 20
-6.364014533400027
 10
73.6446295428467
 20
-6.364037780541477
 10
73.64881413634591
 20
-6.364107500510076
 10
73.6529981288329
 20
-6.364223661122228
 10
73.6571809114427
 20
-6.364386230194329
 10
73.6613618753104
 20
-6.364595175542794
 10
73.6655404115712
 20
-6.364850464984008
 10
73.6697159113603
 20
-6.365152066334379
 10
73.67388776581268
 20
-6.365499947410308
 10
73.67805537299339
 20
-6.365894072646867
 10
73.6822182064332
 20
-6.366334369657017
 10
73.68637578603539
 20
-6.366820743426949
 10
73.69052763237871
 20
-6.367353098613387
 10
73.6946732660417
 20
-6.367931339873048
 10
73.69881220760309
 20
-6.368555371862647
 10
73.70294397764159
 20
-6.369225099238917
 10
73.70706809673579
 20
-6.369940426658565
 10
73.71118408537518
 20
-6.370701258321656
 10
73.71529145958071
 20
-6.371507475521219
 10
73.7193897289083
 20
-6.372358926411949
 10
73.7234784024087
 20
-6.373255456557735
 10
73.72755698913259
 20
-6.374196911522477
 10
73.73189581060819
 20
-6.375250473279659
 10
73.7362220011517
 20
-6.376354786355299
 10
73.74053496493229
 20
-6.377509663321156
 10
73.7448341062838
 20
-6.378714916507504
 10
73.7491188443726
 20
-6.379970336458467
 10
73.75338862478638
 20
-6.381275674910424
 10
73.7576428958403
 20
-6.382630679594058
 10
73.7618811058493
 20
-6.384035098239985
 10
73.76610270312841
 20
-6.385488678578886
 10
73.77030713599269
 20
-6.386991168341396
 10
73.77449385275709
 20
-6.388542315258186
 10
73.7786623024911
 20
-6.390141866071489
 10
73.7828119533392
 20
-6.391789542528838
 10
73.78694229353249
 20
-6.393485040058396
 10
73.79130904988411
 20
-6.395338561806767
 10
73.79565281695708
 20
-6.397245356987887
 10
73.7999729820512
 20
-6.399205058775477
 10
73.8042689324659
 20
-6.401217300343267
 10
73.80854005550091
 20
-6.403281714864987
 10
73.81278574642329
 20
-6.405397925404106
 10
73.81700543275958
 20
-6.407565514090546
 10
73.82119855019891
 20
-6.409784052696156
 10
73.82560873528729
 20
-6.412188151315717
 10
73.82998783127168
 20
-6.414648381839968
 10
73.83433516828421
 20
-6.417164235938637
 10
73.83865007645709
 20
-6.419735205281495
 10
73.8429318983941
 20
-6.422360779338017
 10
73.84718004583668
 20
-6.425040435380257
 10
73.8513939543484
 20
-6.427773646477477
 10
73.85580420021679
 20
-6.430716221013216
 10
73.8601750044781
 20
-6.433717259623187
 10
73.8645057033263
 20
-6.436776142580907
 10
73.8687956329145
 20
-6.439892250061626
 10
73.87304411037168
 20
-6.443064916723398
 10
73.8774706049262
 20
-6.446464807405548
 10
73.88184949498898
 20
-6.449925564685317
 10
73.88617991756182
 20
-6.453446253353526
 10
73.8906737538447
 20
-6.457206454317747
 10
73.89511220423542
 20
-6.461030615948065
 10
73.89552446916839
 20
-6.461391526146226
  0
LWPOLYLINE
  5
355
330
1E
100
AcDbEntity
  8
1
100
AcDbPolyline
 90
      112
 70
     0
 43
0.0
 10
73.28981502259998
 20
-6.431222313600025
 10
73.28932699783391
 20
-6.430664056004567
 10
73.28884921434059
 20
-6.430094315291547
 10
73.2883832739885
 20
-6.429513037022432
 10
73.28793077864559
 20
-6.428920166758677
 10
73.28749333018048
 20
-6.428315650061726
 10
73.2870725304612
 20
-6.427699432493056
 10
73.28666998135609
 20
-6.427071459614117
 10
73.2862872847334
 20
-6.426431676986356
 10
73.2859260424615
 20
-6.425780030171249
 10
73.2856979244101
 20
-6.425338980862735
 10
73.28548052819471
 20
-6.424892618257226
 10
73.28527432844309
 20
-6.424440926224777
 10
73.2850797997828
 20
-6.423983888635445
 10
73.2848974168415
 20
-6.423521489359289
 10
73.28472765424689
 20
-6.423053712266368
 10
73.2845709479503
 20
-6.422580628049209
 10
73.28442757254079
 20
-6.422102669634687
 10
73.2842977605318
 20
-6.421620364403847
 10
73.2841817444363
 20
-6.421134239737987
 10
73.28407975676738
 20
-6.420644823018369
 10
73.2839920300384
 20
-6.420152641626286
 10
73.28391879676229
 20
-6.419658222943025
 10
73.28386028945221
 20
-6.419162094349879
 10
73.2838167406213
 20
-6.418664783228106
 10
73.2837883827827
 20
-6.418166816959017
 10
73.28377544844959
 20
-6.417668722923878
 10
73.28377817013509
 20
-6.417171028503976
 10
73.28379678035229
 20
-6.416674261080607
 10
73.28383151161429
 20
-6.416178948035057
 10
73.28388259643429
 20
-6.415685616748588
 10
73.28395026732541
 20
-6.415194794602505
 10
73.2840346628262
 20
-6.414706968876656
 10
73.28413540586919
 20
-6.414222406827986
 10
73.28425194347049
 20
-6.413741300645249
 10
73.28438372249609
 20
-6.413263842453087
 10
73.2845301898117
 20
-6.412790224376177
 10
73.2846907922834
 20
-6.412320638539187
 10
73.2848649767772
 20
-6.411855277066758
 10
73.28505219015879
 20
-6.411394332083567
 10
73.28525187929429
 20
-6.410937995714267
 10
73.2854634910495
 20
-6.410486460083513
 10
73.28568647229049
 20
-6.410039917315986
 10
73.285920269883
 20
-6.409598559536329
 10
73.2861643306931
 20
-6.409162578869207
 10
73.2865484554604
 20
-6.408519110227227
 10
73.2869525610879
 20
-6.407888820789668
 10
73.2873747943528
 20
-6.407272345237287
 10
73.28781376086429
 20
-6.406669854851545
 10
73.2882686246462
 20
-6.406080956941059
 10
73.2887385834844
 20
-6.405505224716177
 10
73.28922283516511
 20
-6.404942231387257
 10
73.2897205774741
 20
-6.404391550164643
 10
73.29023100819739
 20
-6.403852754258696
 10
73.290753325121
 20
-6.403325416879777
 10
73.2914668507882
 20
-6.402639387088787
 10
73.29219817977548
 20
-6.401971957625817
 10
73.2929454105389
 20
-6.401322116841329
 10
73.29370664153379
 20
-6.400688853085787
 10
73.29447997942938
 20
-6.400071157863687
 10
73.29526404451859
 20
-6.399468219913647
 10
73.29605826541559
 20
-6.398879538374017
 10
73.2968621417141
 20
-6.398304639639567
 10
73.29787980265759
 20
-6.39760467678333
 10
73.2989107909248
 20
-6.396924584541799
 10
73.2999541291594
 20
-6.396263437904766
 10
73.30100884000529
 20
-6.395620311862048
 10
73.3020739461064
 20
-6.394994281403405
 10
73.3031484701063
 20
-6.394384421518656
 10
73.30444895441541
 20
-6.393672632400098
 10
73.30575994917359
 20
-6.392981231619637
 10
73.3070804509473
 20
-6.392309126292027
 10
73.30840993352598
 20
-6.391655575499547
 10
73.30997166045641
 20
-6.390915573195967
 10
73.3115440930317
 20
-6.390198665439879
 10
73.3131264137441
 20
-6.389503689027026
 10
73.3147178050859
 20
-6.388829480753186
 10
73.31654659624319
 20
-6.388082895228917
 10
73.318384946685
 20
-6.387360179821857
 10
73.32046301537861
 20
-6.386573516421977
 10
73.32255045759911
 20
-6.385813064623699
 10
73.32488010290401
 20
-6.384997520749016
 10
73.32721980115829
 20
-6.384211517168576
 10
73.32980415146839
 20
-6.383379291681267
 10
73.3323986881334
 20
-6.382579104180527
 10
73.3352394919698
 20
-6.381740430630576
 10
73.3383277584342
 20
-6.380869364247215
 10
73.3414257373575
 20
-6.380034521286907
 10
73.3447719785984
 20
-6.379173965406817
 10
73.34836778589459
 20
-6.37829412498787
 10
73.35197352090259
 20
-6.377455616216956
 10
73.35582944590659
 20
-6.376604105456067
 10
73.3599361197479
 20
-6.375744758544446
 10
73.36429379872959
 20
-6.374882245357128
 10
73.36890300569689
 20
-6.374021846479895
 10
73.37376434659519
 20
-6.373169059624457
 10
73.37887821846429
 20
-6.372328988260775
 10
73.38448890633009
 20
-6.371470168585879
 10
73.39035285572709
 20
-6.370637802123375
 10
73.3964698309245
 20
-6.369835839943744
 10
73.4028398912446
 20
-6.369068997117087
 10
73.40970838668908
 20
-6.368316010014726
 10
73.41683007582609
 20
-6.367611425197927
 10
73.42445023743171
 20
-6.366937863920917
 10
73.4325689842362
 20
-6.366306576455648
 10
73.4409401947277
 20
-6.365744635551584
 10
73.4498097300166
 20
-6.365242922773918
 10
73.45917716938591
 20
-6.364812059825696
 10
73.4687951707737
 20
-6.364470042728463
 10
73.47890953438128
 20
-6.364215775461579
 10
73.4892725495325
 20
-6.364062928402407
 10
73.4993793816996
 20
-6.364014533446637
  0
LWPOLYLINE
  5
3C7
330
1E
100
AcDbEntity
  8
1
100
AcDbPolyline
 90
        2
 70
     0
 43
0.0
 10
72.7305003818
 20
-6.750001992800017
 10
72.90404269719998
 20
-6.749815931601084
  0
LWPOLYLINE
  5
3CB
330
1E
100
AcDbEntity
  8
1
100
AcDbPolyline
 90
        2
 70
     0
 43
0.0
 10
72.73050039600001
 20
6.750001992699977
 10
72.90404269719998
 20
6.749815931601037
  0
LWPOLYLINE
  5
3CF
330
1E
100
AcDbEntity
  8
1
100
AcDbPolyline
 90
       79
 70
     0
 43
0.0
 10
76.74926165639998
 20
-5.375546959199998
 10
76.7211467565989
 20
-5.384524184193764
 10
76.6929238411861
 20
-5.393166634164241
 10
76.6645974682034
 20
-5.401471979583628
 10
76.63617219569229
 20
-5.409437890924177
 10
76.60765258169469
 20
-5.417062038658119
 10
76.5790431842522
 20
-5.424342093257669
 10
76.55034853765079
 20
-5.431275757184277
 10
76.5237891442192
 20
-5.437367010119539
 10
76.49716380018479
 20
-5.443160348220058
 10
76.4704756098288
 20
-5.448654586612017
 10
76.4437276774321
 20
-5.453848540421629
 10
76.41692310727591
 20
-5.458741024775078
 10
76.39006500364121
 20
-5.463330854798548
 10
76.36315650780691
 20
-5.46761688334358
 10
76.3362010059397
 20
-5.471598212964698
 10
76.3092019837117
 20
-5.475274047678198
 10
76.28216292708192
 20
-5.478643591793249
 10
76.2550873220097
 20
-5.48170604961899
 10
76.227978654454
 20
-5.484460625464568
 10
76.20084041037531
 20
-5.486906523650858
 10
76.17367608449921
 20
-5.489043045905169
 10
76.14648920156948
 20
-5.490869827519106
 10
76.11928329274991
 20
-5.492386575127659
 10
76.09206188920399
 20
-5.493592995365776
 10
76.06482852209589
 20
-5.494488794868426
 10
76.037586722589
 20
-5.495073680270579
 10
76.01034002193239
 20
-5.495347360227793
 10
75.9830919584501
 20
-5.495309711480686
 10
75.95584608274818
 20
-5.494960902549498
 10
75.9286059466595
 20
-5.494301131098333
 10
75.90137510201678
 20
-5.493330594791316
 10
75.87415710065309
 20
-5.492049491292544
 10
75.84695549440109
 20
-5.490458018266138
 10
75.8197738328907
 20
-5.488556386458045
 10
75.79261562410311
 20
-5.486345053916016
 10
75.765484338842
 20
-5.483824699443918
 10
75.73838344660579
 20
-5.480996009596846
 10
75.71131641689269
 20
-5.477859670929887
 10
75.68428671920091
 20
-5.474416369998158
 10
75.6572978230288
 20
-5.470666793356728
 10
75.6303531854342
 20
-5.466611662619889
 10
75.6034561619584
 20
-5.462251985496918
 10
75.57661005860508
 20
-5.457588909303336
 10
75.54981818104351
 20
-5.452623582297299
 10
75.52308383494279
 20
-5.447357152736937
 10
75.4964103259724
 20
-5.441790768880418
 10
75.4698009598015
 20
-5.435925578985886
 10
75.4410503204293
 20
-5.429235836518675
 10
75.4123827521958
 20
-5.422198726357065
 10
75.38380215182248
 20
-5.414816243502459
 10
75.35531241602391
 20
-5.407090382969386
 10
75.32691744151398
 20
-5.399023139772388
 10
75.2986211250071
 20
-5.390616508925965
 10
75.27042734957639
 20
-5.381872500619999
 10
75.24233978356249
 20
-5.372793363931518
 10
75.2143619243958
 20
-5.363381538072346
 10
75.18649726477431
 20
-5.353639467519608
 10
75.15874929739542
 20
-5.343569596750427
 10
75.1311215149569
 20
-5.333174370241925
 10
75.10361740997478
 20
-5.322456232655768
 10
75.07413980443641
 20
-5.310555423404498
 10
75.0448134805647
 20
-5.298286578243708
 10
75.015642297645
 20
-5.285653260801477
 10
74.9866301149628
 20
-5.272659034705855
 10
74.9577807918036
 20
-5.259307463584936
 10
74.9290981874488
 20
-5.245602111067636
 10
74.900586005245
 20
-5.231546575397335
 10
74.87224737835401
 20
-5.217144581386738
 10
74.84208056870619
 20
-5.201333675493438
 10
74.8121201340529
 20
-5.185133975629018
 10
74.7823697677972
 20
-5.168550098722277
 10
74.7528331633642
 20
-5.151586661801728
 10
74.72351405983999
 20
-5.134248488086606
 10
74.69441633804621
 20
-5.116541040825527
 10
74.66362718347309
 20
-5.097252370609306
 10
74.6330991019797
 20
-5.077556686627846
 10
74.60283683672279
 20
-5.057460769510456
 10
74.58406826112541
 20
-5.044706245300965
  0
LWPOLYLINE
  5
420
330
1E
100
AcDbEntity
  8
SK1
100
AcDbPolyline
 90
       54
 70
     0
 43
0.0
 10
-19.5
 20
-5.723635208500002
 10
-19.4240091636097
 20
-5.613196144537123
 10
-19.3528549866555
 20
-5.506828614485671
 10
-19.2830652003618
 20
-5.399555771752936
 10
-19.2146535978143
 20
-5.291398341861076
 10
-19.147633350254
 20
-5.182376467375867
 10
-19.0820151007822
 20
-5.072507920825454
 10
-19.02083412492089
 20
-4.967099764330686
 10
-18.9609425125822
 20
-4.860954057650356
 10
-18.90234888854589
 20
-4.754085826077504
 10
-18.8450618080218
 20
-4.646511039529504
 10
-18.7890898049618
 20
-4.538245956568146
 10
-18.7344414133122
 20
-4.429306835827334
 10
-18.681125062374
 20
-4.319709948536466
 10
-18.629148540543
 20
-4.209471643066255
 10
-18.5785193936843
 20
-4.098608296979187
 10
-18.5316765826892
 20
-3.992724091263736
 10
-18.4860630001141
 20
-3.886304640759816
 10
-18.44168465267819
 20
-3.779364247766825
 10
-18.39854736942848
 20
-3.671917314666397
 10
-18.35665697866289
 20
-3.563978244262377
 10
-18.316019271125
 20
-3.455561452276584
 10
-18.2766396296647
 20
-3.346681494740075
 10
-18.2385231869786
 20
-3.237353013732835
 10
-18.201675072141
 20
-3.127590652580797
 10
-18.1661003852997
 20
-3.017409064286685
 10
-18.1318038460898
 20
-2.906823029146115
 10
-18.09878990587019
 20
-2.795847417200923
 10
-18.0670630103839
 20
-2.684497100371686
 10
-18.03662757486959
 20
-2.572786958651698
 10
-18.0089889512264
 20
-2.466637958619946
 10
-17.98251623840548
 20
-2.360192258419175
 10
-17.95721263227759
 20
-2.253462657800255
 10
-17.9330813147035
 20
-2.146461960044367
 10
-17.91012517960719
 20
-2.039203040989796
 10
-17.8883468508274
 20
-1.931698844533386
 10
-17.8677489417681
 20
-1.823962317201504
 10
-17.84833405877098
 20
-1.716006406084544
 10
-17.83010456014778
 20
-1.607844078083575
 10
-17.81306249655878
 20
-1.499488324672336
 10
-17.7972098995043
 20
-1.390952138854925
 10
-17.78254879636909
 20
-1.282248515716565
 10
-17.76908099327439
 20
-1.173390562229114
 10
-17.75680796738069
 20
-1.064391551710685
 10
-17.7457311691254
 20
-0.9552647709923324
 10
-17.73585204608728
 20
-0.8460235031439285
 10
-17.7271718402093
 20
-0.7366807607101809
 10
-17.7196914533748
 20
-0.6272491088678878
 10
-17.7134117555719
 20
-0.5177410708340439
 10
-17.70833361446369
 20
-0.408169182173554
 10
-17.7044577001398
 20
-0.2985470277761958
 10
-17.7017843373543
 20
-0.1888900266264808
 10
-17.70031381606337
 20
-0.0792137825218706
 10
-17.70000000000498
 20
-0.0000100000000575
  0
LWPOLYLINE
  5
458
330
1E
100
AcDbEntity
  8
SK1
100
AcDbPolyline
 90
       54
 70
     0
 43
0.0
 10
-17.7
 20
-0.0000000000000262
 10
-17.700601622097
 20
0.1096804373877452
 10
-17.70240629508789
 20
0.2193529010071002
 10
-17.7054137290223
 20
0.3290017870668931
 10
-17.70962363394978
 20
0.4386114917759845
 10
-17.71503562633789
 20
0.5481669083815996
 10
-17.7216489360481
 20
0.6576549834863932
 10
-17.7294626931217
 20
0.7670631938634073
 10
-17.73847602759969
 20
0.8763790162863209
 10
-17.7486879815492
 20
0.9855898117954239
 10
-17.7600972106287
 20
1.094682433096912
 10
-17.7727022644378
 20
1.203643593371831
 10
-17.7865016925728
 20
1.312460005797399
 10
-17.8014939669518
 20
1.42111842282973
 10
-17.8176771749516
 20
1.52960579137223
 10
-17.8350492851711
 20
1.637909118389821
 10
-17.8536082661745
 20
1.74601541086481
 10
-17.87335202470559
 20
1.853911680716499
 10
-17.89427809008507
 20
1.96158497000535
 10
-17.91638384922817
 20
2.069022332164359
 10
-17.9396666887875
 20
2.176210820647491
 10
-17.96412395384728
 20
2.283137499385551
 10
-17.98975263217188
 20
2.38978952236782
 10
-18.0165495294257
 20
2.496154089479948
 10
-18.0445114498231
 20
2.60221840097295
 10
-18.07528715795969
 20
2.713835297868877
 10
-18.10735318026369
 20
2.825088449908261
 10
-18.14070507735019
 20
2.93596298346599
 10
-18.17533840356286
 20
3.046444026576061
 10
-18.2112486847133
 20
3.156516716818171
 10
-18.24843106715499
 20
3.266166318721591
 10
-18.2868804276568
 20
3.375378187006598
 10
-18.32659163723769
 20
3.484137678317091
 10
-18.367559544401
 20
3.592430157042298
 10
-18.40977862970539
 20
3.700241114142401
 10
-18.45324307370109
 20
3.80755614377893
 10
-18.49794704818739
 20
3.914360843123768
 10
-18.54388471489328
 20
4.02064081502066
 10
-18.5910499466953
 20
4.126381825007212
 10
-18.64201664468398
 20
4.237090446815337
 10
-18.6943288313801
 20
4.347169933661128
 10
-18.7479789516283
 20
4.456603909054789
 10
-18.80295904634905
 20
4.565376045132683
 10
-18.8592606189138
 20
4.673470078743862
 10
-18.916875135447
 20
4.78086975122129
 10
-18.9757940615129
 20
4.887558811507537
 10
-19.03600882487348
 20
4.993521521763971
 10
-19.09751079216287
 20
5.098742974041058
 10
-19.1634637584342
 20
5.208411490623078
 10
-19.23081633282598
 20
5.317229238668581
 10
-19.2995573262536
 20
5.425177933735951
 10
-19.36967321909169
 20
5.532237106620431
 10
-19.4411502182578
 20
5.638386031764976
 10
-19.49999427636889
 20
5.723627008497057
  0
LWPOLYLINE
  5
490
330
1E
100
AcDbEntity
  8
SK1
100
AcDbPolyline
 90
       54
 70
     0
 43
0.0
 10
-30.5
 20
-5.723635208500002
 10
-30.57599083639059
 20
-5.613196144536396
 10
-30.64714501334488
 20
-5.506828614484174
 10
-30.7169347996389
 20
-5.399555771750776
 10
-30.7853464021873
 20
-5.291398341858523
 10
-30.8523666497492
 20
-5.182376467373224
 10
-30.91798489922239
 20
-5.072507920822665
 10
-30.979165875084
 20
-4.967099764327245
 10
-31.0390574874209
 20
-4.860954057645303
 10
-31.0976511114531
 20
-4.754085826069744
 10
-31.1549381919732
 20
-4.646511039519165
 10
-31.2109101950332
 20
-4.538245956556965
 10
-31.26555858668989
 20
-4.429306835818695
 10
-31.3188749376451
 20
-4.319709948534915
 10
-31.3708514594996
 20
-4.209471643074774
 10
-31.42148060638261
 20
-4.098608296998115
 10
-31.46832341739611
 20
-3.992724091290486
 10
-31.5139369999812
 20
-3.886304640790386
 10
-31.55831534741929
 20
-3.779364247797646
 10
-31.6014526306665
 20
-3.671917314695372
 10
-31.6433430214283
 20
-3.563978244288843
 10
-31.6839807289639
 20
-3.455561452301253
 10
-31.723360370424
 20
-3.346681494763926
 10
-31.7614768131113
 20
-3.237353013756476
 10
-31.79832492795069
 20
-3.127590652604446
 10
-31.8338996147936
 20
-3.017409064310203
 10
-31.86819615400469
 20
-2.906823029169243
 10
-31.9012100942247
 20
-2.795847417223435
 10
-31.9329369897106
 20
-2.684497100393405
 10
-31.96337242522349
 20
-2.572786958672505
 10
-31.9910110488653
 20
-2.466637958639923
 10
-32.0174837616859
 20
-2.360192258438502
 10
-32.04278736781589
 20
-2.253462657819305
 10
-32.06691868539561
 20
-2.146461960063655
 10
-32.089874820499
 20
-2.039203041009504
 10
-32.11165314928261
 20
-1.931698844553024
 10
-32.13225105833739
 20
-1.823962317219814
 10
-32.1516659413169
 20
-1.716006406099596
 10
-32.1698954399111
 20
-1.607844078093634
 10
-32.1869375034693
 20
-1.499488324677054
 10
-32.20279010050129
 20
-1.390952138855386
 10
-32.2174512036323
 20
-1.282248515715274
 10
-32.23091900674361
 20
-1.173390562228926
 10
-32.24319203266658
 20
-1.064391551713274
 10
-32.2542688309544
 20
-0.9552647709980266
 10
-32.2641479540192
 20
-0.846023503151733
 10
-32.2728281599121
 20
-0.7366807607184363
 10
-32.28030854674919
 20
-0.627249108875358
 10
-32.2865882445424
 20
-0.5177410708400251
 10
-32.29166638562841
 20
-0.4081691821778663
 10
-32.29554229992089
 20
-0.298547027779014
 10
-32.2982156626746
 20
-0.188890026628041
 10
-32.29968618394249
 20
-0.0792137825224339
 10
-32.29999999999499
 20
-0.0000100000000557
  0
LWPOLYLINE
  5
4C8
330
1E
100
AcDbEntity
  8
SK1
100
AcDbPolyline
 90
       54
 70
     0
 43
0.0
 10
-32.29999999999999
 20
-0.0000000000000244
 10
-32.299398377915
 20
0.109680437388527
 10
-32.2975937049525
 20
0.219352901009045
 10
-32.29458627105119
 20
0.329001787070057
 10
-32.2903763661498
 20
0.4386114917800894
 10
-32.2849643737724
 20
0.5481669083861519
 10
-32.27835106406109
 20
0.6576549834911573
 10
-32.2705373069816
 20
0.7670631938685199
 10
-32.2615239724998
 20
0.8763790162922967
 10
-32.25131201855349
 20
0.9855898118029507
 10
-32.23990278947979
 20
1.094682433105953
 10
-32.2272977356722
 20
1.203643593381383
 10
-32.2134983075274
 20
1.312460005805494
 10
-32.1985060331231
 20
1.421118422833823
 10
-32.1823228250902
 20
1.529605791371301
 10
-32.1649507148421
 20
1.637909118384913
 10
-32.1463917338263
 20
1.746015410859113
 10
-32.1266479753079
 20
1.853911680714753
 10
-32.10572190995829
 20
1.961584970010533
 10
-32.08361615084728
 20
2.069022332176389
 10
-32.0603333113076
 20
2.176210820663261
 10
-32.0358760462424
 20
2.283137499399359
 10
-32.01024736789188
 20
2.389789522375299
 10
-31.98345047060569
 20
2.496154089480024
 10
-31.9554885501833
 20
2.602218400967863
 10
-31.92471284204259
 20
2.713835297864211
 10
-31.89264681975719
 20
2.825088449909861
 10
-31.8592949227013
 20
2.935962983476933
 10
-31.8246615965199
 20
3.046444026596551
 10
-31.78875131539109
 20
3.156516716845703
 10
-31.75156893295778
 20
3.266166318752551
 10
-31.71311957245328
 20
3.375378187037513
 10
-31.67340836286019
 20
3.484137678344563
 10
-31.6324404556777
 20
3.592430157063131
 10
-31.5902213703498
 20
3.700241114154454
 10
-31.5467569263303
 20
3.807556143781789
 10
-31.502052951824
 20
3.914360843118841
 10
-31.4561152851057
 20
4.020640815011049
 10
-31.4089500532995
 20
4.126381824996412
 10
-31.35798335531239
 20
4.237090446805761
 10
-31.3056711686204
 20
4.347169933653903
 10
-31.25202104837569
 20
4.456603909049581
 10
-31.19704095365589
 20
4.565376045128488
 10
-31.1407393810906
 20
4.673470078740002
 10
-31.0831248645561
 20
4.780869751217441
 10
-31.0242059384889
 20
4.887558811503762
 10
-30.96399117512778
 20
4.993521521760521
 10
-30.9024892078382
 20
5.098742974038122
 10
-30.836536241567
 20
5.208411490620783
 10
-30.76918366717511
 20
5.317229238666893
 10
-30.70044267374739
 20
5.425177933734781
 10
-30.630326780909
 20
5.532237106619723
 10
-30.55884978174248
 20
5.6383860317647
 10
-30.5000057236311
 20
5.723627008497061
  0
LWPOLYLINE
  5
500
330
1E
100
AcDbEntity
  8
1
100
AcDbPolyline
 90
       40
 70
     0
 43
0.0
 10
63.96555924720001
 20
6.745363171099982
 10
63.9655494069438
 20
6.745536367225992
 10
63.96567974501319
 20
6.745666317861087
 10
63.965910540887
 20
6.74576270753291
 10
63.96620207404438
 20
6.745835220769079
 10
63.9665146239641
 20
6.745893542097229
 10
63.96681492001629
 20
6.745945880942207
 10
63.967097142179
 20
6.745994168720772
 10
63.9673627719196
 20
6.746038666984682
 10
63.96761329076571
 20
6.746079637271852
 10
63.96785018024551
 20
6.746117341120187
 10
63.96807492188679
 20
6.746152040067607
 10
63.9682889972176
 20
6.746183995652009
 10
63.96849388776559
 20
6.746213469411307
 10
63.9686910750589
 20
6.746240722883419
 10
63.9688820406254
 20
6.746266017606232
 10
63.9691600640796
 20
6.746300859149718
 10
63.9697041152722
 20
6.746362616821643
 10
63.9699801431374
 20
6.746391298301261
 10
63.9702643967475
 20
6.746419515255491
 10
63.97055704161568
 20
6.74644738096261
 10
63.9708574618961
 20
6.746474884351112
 10
63.971165041743
 20
6.746502014349486
 10
63.9714791653107
 20
6.746528759886253
 10
63.97179921675331
 20
6.746555109889861
 10
63.9721245802252
 20
6.74658105328883
 10
63.97256559691928
 20
6.746614992855402
 10
63.9730135026015
 20
6.746648163643023
 10
63.973580848456
 20
6.746688506051682
 10
63.9759920073867
 20
6.746843222906798
 10
63.976783981776
 20
6.746889171952998
 10
63.9776778371416
 20
6.74693842329959
 10
63.97867126825239
 20
6.746990043974607
 10
63.97998019569659
 20
6.747053373871991
 10
63.985372157133
 20
6.747271744105391
 10
63.9890806668593
 20
6.747397253646338
 10
64.000709556109
 20
6.747703089162682
 10
64.02313218173329
 20
6.748061300923103
 10
64.06646697437929
 20
6.74832349171096
 10
64.0747739119001
 20
6.748329761991031
  0
LWPOLYLINE
  5
52A
330
1E
100
AcDbEntity
  8
1
100
AcDbPolyline
 90
       35
 70
     0
 43
0.0
 10
72.64060389089998
 20
6.748329761999992
 10
72.64072456200501
 20
6.74845799423811
 10
72.6408585930879
 20
6.748564799963667
 10
72.64100478878659
 20
6.748651999834141
 10
72.6411619537392
 20
6.748721414507008
 10
72.64132889258359
 20
6.74877486463974
 10
72.6415044099579
 20
6.748814170889819
 10
72.6416873105
 20
6.748841153914722
 10
72.64187639884799
 20
6.748857634371907
 10
72.64207047963989
 20
6.748865432918877
 10
72.64226835751358
 20
6.748866370213102
 10
72.6424688371072
 20
6.748862266912039
 10
72.6427718198679
 20
6.748850643532561
 10
72.64317381170568
 20
6.748834398251648
 10
72.64347059564498
 20
6.748826609559837
 10
72.643859967765
 20
6.748822365087191
 10
72.6442425813595
 20
6.748824626239837
 10
72.6446189676565
 20
6.748832834437931
 10
72.6449896578839
 20
6.748846431101558
 10
72.6453551832697
 20
6.748864857650878
 10
72.64580563623621
 20
6.748893831902731
 10
72.646249886736
 20
6.748928389093576
 10
72.646776260957
 20
6.748975691107409
 10
72.64755579898291
 20
6.749054648536871
 10
72.64944560899739
 20
6.749251386411692
 10
72.65013949107078
 20
6.749311420311298
 10
72.6508393929323
 20
6.749362858945417
 10
72.65163330165091
 20
6.749411341222818
 10
72.65252261089258
 20
6.749454745152647
 10
72.65359832285668
 20
6.749494188333192
 10
72.65486277885891
 20
6.749525817095061
 10
72.6567724531603
 20
6.749552225595619
 10
72.6637728490769
 20
6.749611013377667
 10
72.69045862835651
 20
6.749923521576388
 10
72.7304903959985
 20
6.750001992961536
  0
LINE
  5
54F
330
1E
100
AcDbEntity
  8
SK4
100
AcDbLine
 10
-25.0
 20
8.799999484200011
 30
0.0
 11
-25.0
 21
-8.799999484300025
 31
0.0
  0
DIMENSION
  5
550
330
1E
100
AcDbEntity
  8
2
100
AcDbDimension
  2
*D3
 10
80.00585408499999
 20
-24.67399650696359
 30
0.0
 11
60.11300731895
 21
-24.67399650696359
 31
0.0
 70
   160
 71
     5
 42
39.78569353209999
  3
ISO-25
100
AcDbAlignedDimension
 13
40.22016055289999
 23
-0.0000000000000333
 33
0.0
 14
80.00585408499999
 24
-4.002248062599996
 34
0.0
 50
180.0
100
AcDbRotatedDimension
1001
ACAD
1000
DSTYLE
1002
{
1070
   271
1070
     0
1002
}
  0
DIMENSION
  5
551
330
1E
100
AcDbEntity
  8
SK2
100
AcDbDimension
  2
*D2
 10
80.00585408499999
 20
-34.66978340989781
 30
0.0
 11
27.5029270425
 21
-34.66978340989781
 31
0.0
 70
   160
 71
     5
 42
105.0058540849999
  3
ISO-25
100
AcDbAlignedDimension
 13
-25.0
 23
-0.0000000000000253
 33
0.0
 14
80.00585408499999
 24
-4.002248062599996
 34
0.0
 50
180.0
100
AcDbRotatedDimension
1001
ACAD
1000
DSTYLE
1002
{
1070
   271
1070
     0
1002
}
  0
LINE
  5
552
330
1E
100
AcDbEntity
  8
SK4
100
AcDbLine
 10
0.0
 20
0.0
 30
0.0
 11
-53.0
 21
-0.0000000000000219
 31
0.0
  0
TEXT
  5
1957
330
1E
100
AcDbEntity
  8
6
100
AcDbText
 10
-5.967291030797468
 20
-62.54523681072271
 30
0.0
 40
5.0
  1
15B1E016080W4R00
 41
1.199999999999999
100
AcDbText
  0
LINE
  5
2CAE
330
1E
100
AcDbEntity
  8
SK4
100
AcDbLine
 10
76.014257
 20
-1.044390029584101
 30
0.0
 11
76.014257
 21
9.035534072298494
 31
0.0
  0
LINE
  5
2CAF
330
1E
100
AcDbEntity
  8
SK4
100
AcDbLine
 10
70.28793120671656
 20
4.002248062599949
 30
0.0
 11
81.51766882184569
 21
4.002248062599948
 31
0.0
  0
TEXT
  5
3176
330
1E
100
AcDbEntity
  8
6
100
AcDbText
 10
97.96467078942715
 20
-5.584312576420186
 30
0.0
 40
3.5
  1
Z=2
 50
90.0
100
AcDbText
  0
TEXT
  5
3177
330
1E
100
AcDbEntity
  8
6
100
AcDbText
 10
44.7756200290811
 20
13.7368426882025
 30
0.0
 40
2.5
  1
RHHW0802M0TN
100
AcDbText
  0
LINE
  5
33B7
330
1E
100
AcDbEntity
  8
NOCUT
100
AcDbLine
 10
0.0
 20
10.0
 30
0.0
 11
0.0
 21
0.0
 31
0.0
  0
LINE
  5
33BB
330
1E
100
AcDbEntity
  8
NOCUT
100
AcDbLine
 10
79.30000000000003
 20
0.0
 30
0.0
 11
0.0
 21
0.0
 31
0.0
  0
LINE
  5
33BF
330
1E
100
AcDbEntity
  8
NOCUT
100
AcDbLine
 10
73.64044495719999
 20
6.75
 30
0.0
 11
40.22016055289998
 21
6.75
 31
0.0
  0
LINE
  5
33C1
330
1E
100
AcDbEntity
  8
NOCUT
100
AcDbLine
 10
39.78069150139997
 20
6.769350749899982
 30
0.0
 11
6.219308498599957
 21
9.730649250099999
 31
0.0
  0
LINE
  5
33C2
330
1E
100
AcDbEntity
  8
NOCUT
100
AcDbLine
 10
5.779839447100017
 20
9.75
 30
0.0
 11
0.1999999999999886
 21
9.75
 31
0.0
  0
LINE
  5
33C5
330
1E
100
AcDbEntity
  8
NOCUT
100
AcDbLine
 10
79.30000000000003
 20
4.299999999999997
 30
0.0
 11
79.30000000000003
 21
0.0
 31
0.0
  0
ARC
  5
33D1
330
1E
100
AcDbEntity
  8
NOCUT
100
AcDbCircle
 10
5.779839447100017
 20
4.75
 30
0.0
 40
5.0
100
AcDbArc
 50
84.95754893080004
 51
90.0
  0
ARC
  5
33D3
330
1E
100
AcDbEntity
  8
NOCUT
100
AcDbCircle
 10
40.22016055289998
 20
11.75
 30
0.0
 40
5.0
100
AcDbArc
 50
264.9575489308
 51
270.0
  0
ARC
  5
33D5
330
1E
100
AcDbEntity
  8
NOCUT
100
AcDbCircle
 10
73.64044495719999
 20
7.149999999999991
 30
0.0
 40
0.4
100
AcDbArc
 50
270.0
 51
309.6218349071997
  0
ARC
  5
33D7
330
1E
100
AcDbEntity
  8
NOCUT
100
AcDbCircle
 10
76.0
 20
4.299999999999997
 30
0.0
 40
3.299999999999998
100
AcDbArc
 50
0.0
 51
129.6218349071996
  0
ARC
  5
33D8
330
1E
100
AcDbEntity
  8
NOCUT
100
AcDbCircle
 10
0.1999999999999886
 20
9.949999999999988
 30
0.0
 40
0.2
100
AcDbArc
 50
180.0
 51
270.0
  0
SPLINE
  5
33F9
330
1E
100
AcDbEntity
  8
CUT
100
AcDbSpline
210
0.0
220
0.0
230
1.0
 70
     8
 71
     3
 72
    36
 73
    32
 74
    30
 42
0.0000000001
 43
0.0000000001
 44
0.0000000001
 12
-0.9999657087988667
 22
0.0082813782898709
 32
0.0
 13
0.9999999740769959
 23
-0.0002276971834317
 33
0.0
 40
0.0
 40
0.0
 40
0.0
 40
0.0
 40
0.4315712002300133
 40
0.8583396446410457
 40
1.27807583655211
 40
1.694242322595845
 40
2.111719392132564
 40
2.532228936568903
 40
2.955519097745572
 40
3.380937425806318
 40
3.807919380106537
 40
4.23605179351736
 40
4.665046388459985
 40
5.094695463511942
 40
5.524852381310562
 40
5.955408681473494
 40
6.38628468147349
 40
6.817417560166362
 40
7.248760877542439
 40
7.680276978423983
 40
8.111934625020207
 40
8.543711158947164
 40
8.975584921949764
 40
9.407540305749993
 40
9.83956187723106
 40
10.27163824678285
 40
10.70375721010889
 40
11.13590964847872
 40
11.56808647663243
 40
12.00027828413578
 40
12.43247917467741
 40
12.43247917467741
 40
12.43247917467741
 40
12.43247917467741
 10
76.01425699999999
 20
0.3139349999999794
 30
0.0
 10
75.87040486628826
 20
0.3151263347893522
 30
0.0
 10
75.58429804977842
 20
0.3133375214495304
 30
0.0
 10
75.15823419517609
 20
0.3240411082110923
 30
0.0
 10
74.73901993750684
 20
0.3723684197482249
 30
0.0
 10
74.33418484534922
 20
0.4825674729923211
 30
0.0
 10
73.95095776429918
 20
0.6532479421035431
 30
0.0
 10
73.59278038567808
 20
0.8756365759487305
 30
0.0
 10
73.26308458658172
 20
1.142394698100563
 30
0.0
 10
72.9655499326642
 20
1.447515874860937
 30
0.0
 10
72.70366626835304
 20
1.78572495738507
 30
0.0
 10
72.48052813645792
 20
2.152029289661161
 30
0.0
 10
72.29877618699241
 20
2.541500296324891
 30
0.0
 10
72.16055763097663
 20
2.949165007612103
 30
0.0
 10
72.06749947039472
 20
3.369972820202855
 30
0.0
 10
72.02070281427251
 20
3.798807441599858
 30
0.0
 10
72.02071827055966
 20
4.230511043520782
 30
0.0
 10
72.06754828746854
 20
4.659929823925171
 30
0.0
 10
72.16064796993902
 20
5.081960065163995
 30
0.0
 10
72.29892219627918
 20
5.491603943167888
 30
0.0
 10
72.4807568756324
 20
5.884017762254273
 30
0.0
 10
72.70401508279909
 20
6.254572847675474
 30
0.0
 10
72.96608328237628
 20
6.598900342376817
 30
0.0
 10
73.26388810123472
 20
6.91294481729661
 30
0.0
 10
73.59393725591878
 20
7.193012211051287
 30
0.0
 10
73.95236338366331
 20
7.435803988951015
 30
0.0
 10
74.33496346284939
 20
7.638468560366445
 30
0.0
 10
74.73724783826651
 20
7.79862023130088
 30
0.0
 10
75.15451835402237
 20
7.91438215414819
 30
0.0
 10
75.58181573996304
 20
7.984367331069901
 30
0.0
 10
75.87019004022076
 20
8.000032803641794
 30
0.0
 10
76.01425699999999
 20
7.999999999999976
 30
0.0
 11
76.01425699999999
 21
0.3139349999999794
 31
0.0
 11
75.58268900000001
 21
0.3155969999999755
 31
0.0
 11
75.156182
 21
0.3305329999999671
 31
0.0
 11
74.739734
 21
0.3829689999999672
 31
0.0
 11
74.33822900000001
 21
0.4924599999999728
 31
0.0
 11
73.95637400000005
 21
0.6612019999999676
 31
0.0
 11
73.59864499999997
 21
0.8822409999999718
 31
0.0
 11
73.26923800000002
 21
1.148070999999965
 31
0.0
 11
72.97201300000001
 21
1.452435999999968
 31
0.0
 11
72.71045599999997
 21
1.789928999999979
 31
0.0
 11
72.48763300000002
 21
2.155506999999976
 31
0.0
 11
72.30615600000004
 21
2.544225999999973
 31
0.0
 11
72.16815400000001
 21
2.951108999999966
 31
0.0
 11
72.075243
 21
3.371111999999973
 31
0.0
 11
72.02851400000003
 21
3.799124999999968
 31
0.0
 11
72.02851400000003
 21
4.230000999999965
 31
0.0
 11
72.075243
 21
4.658593999999971
 31
0.0
 11
72.16815400000001
 21
5.079811999999966
 31
0.0
 11
72.30615600000004
 21
5.48866599999997
 31
0.0
 11
72.48763300000002
 21
5.880321999999971
 31
0.0
 11
72.71045599999997
 21
6.25016099999997
 31
0.0
 11
72.97201300000001
 21
6.593821999999967
 31
0.0
 11
73.26923800000002
 21
6.907258999999974
 31
0.0
 11
73.59864499999997
 21
7.186782999999969
 31
0.0
 11
73.95637400000005
 21
7.429104999999971
 31
0.0
 11
74.33822900000001
 21
7.631375999999967
 31
0.0
 11
74.739734
 21
7.791217999999977
 31
0.0
 11
75.156182
 21
7.906750999999977
 31
0.0
 11
75.58268900000001
 21
7.976618999999977
 31
0.0
 11
76.01425699999999
 21
7.999999999999976
 31
0.0
  0
SPLINE
  5
33FA
330
1E
100
AcDbEntity
  8
CUT
100
AcDbSpline
210
0.0
220
0.0
230
1.0
 70
     8
 71
     3
 72
    36
 73
    32
 74
    30
 42
0.0000000001
 43
0.0000000001
 44
0.0000000001
 12
0.9999657087988667
 22
0.0082813782898709
 32
0.0
 13
-0.9999999740769959
 23
-0.0002276971834317
 33
0.0
 40
0.0
 40
0.0
 40
0.0
 40
0.0
 40
0.4315712002300702
 40
0.8583396446410459
 40
1.278075836552167
 40
1.694242322595901
 40
2.111719392132686
 40
2.532228936568904
 40
2.955519097745617
 40
3.380937425806344
 40
3.807919380106563
 40
4.236051793517408
 40
4.665046388460057
 40
5.094695463511995
 40
5.524852381310616
 40
5.955408681473548
 40
6.386284681473544
 40
6.817417560166416
 40
7.248760877542492
 40
7.680276978424019
 40
8.111934625020266
 40
8.543711158947244
 40
8.975584921949844
 40
9.407540305750053
 40
9.839561877231165
 40
10.27163824678284
 40
10.70375721010893
 40
11.13590964847877
 40
11.56808647663253
 40
12.00027828413583
 40
12.43247917467751
 40
12.43247917467751
 40
12.43247917467751
 40
12.43247917467751
 10
76.01425699999999
 20
0.3139349999999794
 30
0.0
 10
76.15810913371173
 20
0.3151263347893524
 30
0.0
 10
76.44421595022155
 20
0.3133375214495278
 30
0.0
 10
76.87027980482392
 20
0.3240411082110998
 30
0.0
 10
77.28949406249317
 20
0.3723684197482134
 30
0.0
 10
77.69432915465083
 20
0.4825674729923451
 30
0.0
 10
78.0775562357009
 20
0.6532479421034787
 30
0.0
 10
78.43573361432191
 20
0.8756365759488003
 30
0.0
 10
78.76542941341828
 20
1.142394698100527
 30
0.0
 10
79.06296406733578
 20
1.44751587486095
 30
0.0
 10
79.32484773164691
 20
1.785724957385077
 30
0.0
 10
79.54798586354212
 20
2.152029289661165
 30
0.0
 10
79.72973781300769
 20
2.541500296324865
 30
0.0
 10
79.8679563690234
 20
2.949165007612117
 30
0.0
 10
79.96101452960528
 20
3.369972820202853
 30
0.0
 10
80.00781118572751
 20
3.798807441599858
 30
0.0
 10
80.00779572944034
 20
4.230511043520781
 30
0.0
 10
79.96096571253153
 20
4.659929823925174
 30
0.0
 10
79.86786603006098
 20
5.081960065163981
 30
0.0
 10
79.72959180372092
 20
5.491603943167914
 30
0.0
 10
79.54775712436762
 20
5.884017762254267
 30
0.0
 10
79.32449891720091
 20
6.254572847675465
 30
0.0
 10
79.06243071762372
 20
6.598900342376805
 30
0.0
 10
78.76462589876529
 20
6.912944817296644
 30
0.0
 10
78.43457674408118
 20
7.193012211051216
 30
0.0
 10
78.07615061633677
 20
7.435803988951086
 30
0.0
 10
77.69355053715066
 20
7.638468560366417
 30
0.0
 10
77.29126616173347
 20
7.798620231300897
 30
0.0
 10
76.87399564597767
 20
7.914382154148169
 30
0.0
 10
76.44669826003696
 20
7.984367331069914
 30
0.0
 10
76.15832395977924
 20
8.000032803641794
 30
0.0
 10
76.01425699999999
 20
7.999999999999976
 30
0.0
 11
76.01425699999999
 21
0.3139349999999794
 31
0.0
 11
76.44582500000002
 21
0.3155969999999755
 31
0.0
 11
76.87233199999997
 21
0.3305329999999671
 31
0.0
 11
77.28878000000003
 21
0.3829689999999672
 31
0.0
 11
77.69028500000001
 21
0.4924599999999728
 31
0.0
 11
78.07214000000005
 21
0.6612019999999676
 31
0.0
 11
78.42986899999998
 21
0.8822409999999718
 31
0.0
 11
78.759276
 21
1.148070999999965
 31
0.0
 11
79.05650099999997
 21
1.452435999999968
 31
0.0
 11
79.31805800000002
 21
1.789928999999979
 31
0.0
 11
79.54088100000001
 21
2.155506999999976
 31
0.0
 11
79.72235800000004
 21
2.544225999999973
 31
0.0
 11
79.86036000000002
 21
2.951108999999966
 31
0.0
 11
79.95327100000003
 21
3.371111999999973
 31
0.0
 11
80.0
 21
3.799124999999968
 31
0.0
 11
80.0
 21
4.230000999999965
 31
0.0
 11
79.95327100000003
 21
4.658593999999971
 31
0.0
 11
79.86036000000002
 21
5.079811999999966
 31
0.0
 11
79.72235800000004
 21
5.48866599999997
 31
0.0
 11
79.54088100000001
 21
5.880321999999971
 31
0.0
 11
79.31805800000002
 21
6.25016099999997
 31
0.0
 11
79.05650099999997
 21
6.593821999999967
 31
0.0
 11
78.759276
 21
6.907258999999974
 31
0.0
 11
78.42986899999998
 21
7.186782999999969
 31
0.0
 11
78.07214000000005
 21
7.429104999999971
 31
0.0
 11
77.69028500000001
 21
7.631375999999967
 31
0.0
 11
77.28878000000003
 21
7.791217999999977
 31
0.0
 11
76.87233199999997
 21
7.906750999999977
 31
0.0
 11
76.44582500000002
 21
7.976618999999977
 31
0.0
 11
76.01425699999999
 21
7.999999999999976
 31
0.0
  0
LWPOLYLINE
  5
3562
330
1E
100
AcDbEntity
  8
1
100
AcDbPolyline
 90
        3
 70
     1
 43
0.0
 10
0.0
 20
0.0
 10
-2.950972054112583
 20
0.0
 42
0.4142135623730966
 10
0.0
 20
-2.950972054112583
  0
HATCH
  5
3563
330
1E
100
AcDbEntity
  8
1
100
AcDbHatch
 10
0.0
 20
0.0
 30
0.0
210
0.0
220
0.0
230
1.0
  2
SOLID
 70
     1
 71
     0
 91
        2
 92
        7
 72
     1
 73
     1
 93
        3
 10
0.0
 20
0.0
 42
0.0
 10
2.950972054112583
 20
0.0
 42
0.4142135623730966
 10
0.0
 20
2.950972054112611
 42
0.0
 97
        0
 92
        7
 72
     1
 73
     1
 93
        3
 10
0.0
 20
-2.950972054112496
 42
0.0
 10
0.0
 20
0.0
 42
0.0
 10
-2.950972054112583
 20
0.0
 42
0.4142135623730953
 97
        0
 75
     0
 76
     1
 47
0.1190009775223266
 98
        2
 10
0.7445530588119027
 20
0.9212244733764975
 10
-1.279464601852936
 20
-1.696796923046291
  0
CIRCLE
  5
3564
330
1E
100
AcDbEntity
  8
1
100
AcDbCircle
 10
0.0
 20
0.0
 30
0.0
 40
2.950972054112601
  0
LINE
  5
3565
330
1E
100
AcDbEntity
  8
1
100
AcDbLine
 10
0.0
 20
2.950972054112611
 30
0.0
 11
0.0
 21
-2.950972054112583
 31
0.0
  0
LINE
  5
3566
330
1E
100
AcDbEntity
  8
1
100
AcDbLine
 10
-2.950972054112837
 20
0.0
 30
0.0
 11
2.950972054112583
 21
0.0
 31
0.0
  0
LWPOLYLINE
  5
3567
330
1E
100
AcDbEntity
  8
1
100
AcDbPolyline
 90
        3
 70
     1
 43
0.0
 10
0.0
 20
2.950972054112611
 10
0.0
 20
0.0
 10
2.950972054112583
 20
0.0
 42
0.4142135623730966
  0
ENDSEC
  0
SECTION
  2
OBJECTS
  0
DICTIONARY
  5
C
330
0
100
AcDbDictionary
281
     1
  3
ACAD_COLOR
350
36E7
  3
ACAD_GROUP
350
D
  3
ACAD_LAYOUT
350
19
  3
ACAD_MATERIAL
350
36E6
  3
ACAD_MLINESTYLE
350
16
  3
ACAD_PLOTSETTINGS
350
18
  3
ACAD_PLOTSTYLENAME
350
2FC6
  3
ACAD_TABLESTYLE
350
36E8
  3
ACDBHEADERROUNDTRIPXREC
350
36F0
  3
AcDbVariableDictionary
350
36EB
1001
ACAD
1000
TREAT_AS_HARD
1070
     0
1000
TREAT_AS_HARD
1070
     0
  0
DICTIONARY
  5
234D
330
1E
100
AcDbDictionary
281
     1
  3
ACAD_LAYOUTSELFREF
350
2CB2
1001
ACAD
1000
TREAT_AS_HARD
1070
     0
  0
DICTIONARY
  5
234B
330
1A
100
AcDbDictionary
281
     1
  3
ACAD_LAYOUTSELFREF
350
2CB1
1001
ACAD
1000
TREAT_AS_HARD
1070
     0
  0
DICTIONARY
  5
36E7
102
{ACAD_REACTORS
330
C
102
}
330
C
100
AcDbDictionary
281
     1
  0
DICTIONARY
  5
D
102
{ACAD_REACTORS
330
C
102
}
330
C
100
AcDbDictionary
281
     1
1001
ACAD
1000
TREAT_AS_HARD
1070
     0
1000
TREAT_AS_HARD
1070
     0
  0
DICTIONARY
  5
19
102
{ACAD_REACTORS
330
C
102
}
330
C
100
AcDbDictionary
281
     1
  3
Layout1
350
2FC9
  3
Model
350
2FC8
1001
ACAD
1000
TREAT_AS_HARD
1070
     0
1000
TREAT_AS_HARD
1070
     0
  0
DICTIONARY
  5
36E6
102
{ACAD_REACTORS
330
C
102
}
330
C
100
AcDbDictionary
281
     1
  0
DICTIONARY
  5
16
102
{ACAD_REACTORS
330
C
102
}
330
C
100
AcDbDictionary
281
     1
  3
STANDARD
350
17
1001
ACAD
1000
TREAT_AS_HARD
1070
     0
1000
TREAT_AS_HARD
1070
     0
  0
DICTIONARY
  5
18
102
{ACAD_REACTORS
330
C
102
}
330
C
100
AcDbDictionary
281
     1
1001
ACAD
1000
TREAT_AS_HARD
1070
     0
1000
TREAT_AS_HARD
1070
     0
  0
ACDBDICTIONARYWDFLT
  5
2FC6
102
{ACAD_REACTORS
330
C
102
}
330
C
100
AcDbDictionary
281
     1
  3
Normal
350
2FC7
100
AcDbDictionaryWithDefault
340
2FC7
  0
DICTIONARY
  5
36E8
102
{ACAD_REACTORS
330
C
102
}
330
C
100
AcDbDictionary
281
     1
  3
Standard
350
36E9
  0
DICTIONARY
  5
36F0
102
{ACAD_REACTORS
330
C
102
}
330
C
100
AcDbDictionary
281
     1
  0
DICTIONARY
  5
36EB
102
{ACAD_REACTORS
330
C
102
}
330
C
100
AcDbDictionary
281
     1
  3
CTABLESTYLE
350
36EC
  3
DIMASSOC
350
36ED
  3
PROJECTNAME
350
36EE
  0
XRECORD
  5
2CB2
102
{ACAD_REACTORS
330
234D
102
}
330
234D
100
AcDbXrecord
280
     1
340
1E
  0
XRECORD
  5
2CB1
102
{ACAD_REACTORS
330
234B
102
}
330
234B
100
AcDbXrecord
280
     1
340
1A
  0
LAYOUT
  5
2FC9
102
{ACAD_XDICTIONARY
360
36F3
102
}
102
{ACAD_REACTORS
330
19
102
}
330
19
100
AcDbPlotSettings
  1

  2
\\ingdom02\ITB2
  4

  6

 40
0.0
 41
0.0
 42
0.0
 43
0.0
 44
0.0
 45
0.0
 46
0.0
 47
0.0
 48
0.0
 49
0.0
140
0.0
141
0.0
142
1.0
143
1.0
 70
   688
 72
     0
 73
     0
 74
     5
  7

 75
    16
147
1.0
148
0.0
149
0.0
100
AcDbLayout
  1
Layout1
 70
     1
 71
     1
 10
0.0
 20
0.0
 11
12.0
 21
9.0
 12
0.0
 22
0.0
 32
0.0
 14
100.0
 24
100.0
 34
100.0
 15
-100.0
 25
-100.0
 35
-100.0
146
0.0
 13
0.0
 23
0.0
 33
0.0
 16
1.0
 26
0.0
 36
0.0
 17
0.0
 27
1.0
 37
0.0
 76
     0
330
1A
  0
LAYOUT
  5
2FC8
102
{ACAD_XDICTIONARY
360
36F1
102
}
102
{ACAD_REACTORS
330
19
102
}
330
19
100
AcDbPlotSettings
  1

  2
\\ingdom02\ITB2
  4

  6

 40
0.0
 41
0.0
 42
0.0
 43
0.0
 44
0.0
 45
0.0
 46
0.0
 47
0.0
 48
0.0
 49
0.0
140
0.0
141
0.0
142
1.0
143
1.0
 70
  1712
 72
     0
 73
     0
 74
     0
  7

 75
     0
147
1.0
148
0.0
149
0.0
100
AcDbLayout
  1
Model
 70
     1
 71
     0
 10
0.0
 20
0.0
 11
12.0
 21
9.0
 12
0.0
 22
0.0
 32
0.0
 14
0.0
 24
0.0
 34
0.0
 15
0.0
 25
0.0
 35
0.0
146
0.0
 13
0.0
 23
0.0
 33
0.0
 16
1.0
 26
0.0
 36
0.0
 17
0.0
 27
1.0
 37
0.0
 76
     0
330
1E
  0
MLINESTYLE
  5
17
102
{ACAD_REACTORS
330
16
102
}
330
16
100
AcDbMlineStyle
  2
STANDARD
 70
     0
  3

 62
   256
 51
90.0
 52
90.0
 71
     2
 49
0.5
 62
   256
  6
BYLAYER
 49
-0.5
 62
   256
  6
BYLAYER
  0
ACDBPLACEHOLDER
  5
2FC7
102
{ACAD_REACTORS
330
2FC6
102
}
330
2FC6
  0
TABLESTYLE
  5
36E9
102
{ACAD_REACTORS
330
36E8
102
}
330
36E8
100
AcDbTableStyle
  3
Standard
 70
     0
 71
     0
 40
0.06
 41
0.06
280
     0
281
     0
  7
STANDARD
140
0.18
170
     2
 62
     0
 63
     7
283
     0
274
    -2
284
     1
 64
     0
275
    -2
285
     1
 65
     0
276
    -2
286
     1
 66
     0
277
    -2
287
     1
 67
     0
278
    -2
288
     1
 68
     0
279
    -2
289
     1
 69
     0
  7
STANDARD
140
0.25
170
     5
 62
     0
 63
     7
283
     0
274
    -2
284
     1
 64
     0
275
    -2
285
     1
 65
     0
276
    -2
286
     1
 66
     0
277
    -2
287
     1
 67
     0
278
    -2
288
     1
 68
     0
279
    -2
289
     1
 69
     0
  7
STANDARD
140
0.18
170
     5
 62
     0
 63
     7
283
     0
274
    -2
284
     1
 64
     0
275
    -2
285
     1
 65
     0
276
    -2
286
     1
 66
     0
277
    -2
287
     1
 67
     0
278
    -2
288
     1
 68
     0
279
    -2
289
     1
 69
     0
  0
DICTIONARYVAR
  5
36EC
102
{ACAD_REACTORS
330
36EB
102
}
330
36EB
100
DictionaryVariables
280
     0
  1
STANDARD
  0
DICTIONARYVAR
  5
36ED
102
{ACAD_REACTORS
330
36EB
102
}
330
36EB
100
DictionaryVariables
280
     0
  1
1
  0
DICTIONARYVAR
  5
36EE
102
{ACAD_REACTORS
330
36EB
102
}
330
36EB
100
DictionaryVariables
280
     0
  1

  0
DICTIONARY
  5
36F3
330
2FC9
100
AcDbDictionary
280
     1
281
     1
  3
ACAD_XREC_ROUNDTRIP
360
36F4
  0
DICTIONARY
  5
36F1
330
2FC8
100
AcDbDictionary
280
     1
281
     1
  3
ACAD_XREC_ROUNDTRIP
360
36F2
  0
XRECORD
  5
36F4
102
{ACAD_REACTORS
330
36F3
102
}
330
36F3
100
AcDbXrecord
280
     1
102
SHADEPLOT
 70
     0
102
SHADEPLOTRESLEVEL
 70
     2
102
SHADEPLOTCUSTOMDPI
 70
   300
  0
XRECORD
  5
36F2
102
{ACAD_REACTORS
330
36F1
102
}
330
36F1
100
AcDbXrecord
280
     1
102
SHADEPLOT
 70
     0
102
SHADEPLOTRESLEVEL
 70
     2
102
SHADEPLOTCUSTOMDPI
 70
   300
  0
ENDSEC
  0
EOF
