  0
SECTION
  2
HEADER
  9
$ACADVER
  1
AC1015
  9
$ACADMAINTVER
 70
    20
  9
$DWGCODEPAGE
  3
ANSI_1252
  9
$INSBASE
 10
0.0
 20
0.0
 30
0.0
  9
$EXTMIN
 10
-62.63749646313886
 20
-60.77178817314325
 30
-0.0015258207003583
  9
$EXTMAX
 10
82.49043114204051
 20
16.73892362593562
 30
0.0000000349246037
  9
$LIMMIN
 10
0.0
 20
0.0
  9
$LIMMAX
 10
594.0
 20
420.0
  9
$ORTHOMODE
 70
     0
  9
$REGENMODE
 70
     1
  9
$FILLMODE
 70
     1
  9
$QTEXTMODE
 70
     0
  9
$MIRRTEXT
 70
     1
  9
$LTSCALE
 40
10.0
  9
$ATTMODE
 70
     1
  9
$TEXTSIZE
 40
0.2
  9
$TRACEWID
 40
0.05
  9
$TEXTSTYLE
  7
STANDARD
  9
$CLAYER
  8
0
  9
$CELTYPE
  6
BYLAYER
  9
$CECOLOR
 62
   256
  9
$CELTSCALE
 40
1.0
  9
$DISPSILH
 70
     0
  9
$DIMSCALE
 40
1.0
  9
$DIMASZ
 40
2.5
  9
$DIMEXO
 40
3.712499999999999
  9
$DIMDLI
 40
22.572
  9
$DIMRND
 40
0.0
  9
$DIMDLE
 40
0.0
  9
$DIMEXE
 40
10.692
  9
$DIMTP
 40
0.01
  9
$DIMTM
 40
0.01
  9
$DIMTXT
 40
3.5
  9
$DIMCEN
 40
5.346
  9
$DIMTSZ
 40
0.0
  9
$DIMTOL
 70
     1
  9
$DIMLIM
 70
     0
  9
$DIMTIH
 70
     1
  9
$DIMTOH
 70
     1
  9
$DIMSE1
 70
     0
  9
$DIMSE2
 70
     0
  9
$DIMTAD
 70
     0
  9
$DIMZIN
 70
     0
  9
$DIMBLK
  1
_FILLED
  9
$DIMASO
 70
     1
  9
$DIMSHO
 70
     1
  9
$DIMPOST
  1

  9
$DIMAPOST
  1

  9
$DIMALT
 70
     0
  9
$DIMALTD
 70
     2
  9
$DIMALTF
 40
25.4
  9
$DIMLFAC
 40
1.0
  9
$DIMTOFL
 70
     0
  9
$DIMTVP
 40
0.0
  9
$DIMTIX
 70
     0
  9
$DIMSOXD
 70
     0
  9
$DIMSAH
 70
     0
  9
$DIMBLK1
  1

  9
$DIMBLK2
  1

  9
$DIMSTYLE
  2
STANDARD
  9
$DIMCLRD
 70
     0
  9
$DIMCLRE
 70
     0
  9
$DIMCLRT
 70
     0
  9
$DIMTFAC
 40
1.0
  9
$DIMGAP
 40
0.09
  9
$DIMJUST
 70
     0
  9
$DIMSD1
 70
     0
  9
$DIMSD2
 70
     0
  9
$DIMTOLJ
 70
     1
  9
$DIMTZIN
 70
     0
  9
$DIMALTZ
 70
     0
  9
$DIMALTTZ
 70
     0
  9
$DIMUPT
 70
     0
  9
$DIMDEC
 70
     4
  9
$DIMTDEC
 70
     4
  9
$DIMALTU
 70
     2
  9
$DIMALTTD
 70
     2
  9
$DIMTXSTY
  7
STANDARD
  9
$DIMAUNIT
 70
     0
  9
$DIMADEC
 70
     0
  9
$DIMALTRND
 40
0.0
  9
$DIMAZIN
 70
     0
  9
$DIMDSEP
 70
    46
  9
$DIMATFIT
 70
     3
  9
$DIMFRAC
 70
     0
  9
$DIMLDRBLK
  1
_FILLED
  9
$DIMLUNIT
 70
     2
  9
$DIMLWD
 70
    -2
  9
$DIMLWE
 70
    -2
  9
$DIMTMOVE
 70
     0
  9
$LUNITS
 70
     2
  9
$LUPREC
 70
     4
  9
$SKETCHINC
 40
0.1
  9
$FILLETRAD
 40
0.0
  9
$AUNITS
 70
     0
  9
$AUPREC
 70
     0
  9
$MENU
  1

  9
$ELEVATION
 40
0.0
  9
$PELEVATION
 40
0.0
  9
$THICKNESS
 40
0.0
  9
$LIMCHECK
 70
     0
  9
$CHAMFERA
 40
0.0
  9
$CHAMFERB
 40
0.0
  9
$CHAMFERC
 40
0.0
  9
$CHAMFERD
 40
0.0
  9
$SKPOLY
 70
     0
  9
$TDCREATE
 40
2453413.429440232
  9
$TDUCREATE
 40
2453413.346106898
  9
$TDUPDATE
 40
2453909.277536898
  9
$TDUUPDATE
 40
2453909.194203565
  9
$TDINDWG
 40
0.1806936921
  9
$TDUSRTIMER
 40
0.0380242940
  9
$USRTIMER
 70
     1
  9
$ANGBASE
 50
0.0
  9
$ANGDIR
 70
     0
  9
$PDMODE
 70
     0
  9
$PDSIZE
 40
0.3125
  9
$PLINEWID
 40
0.0
  9
$SPLFRAME
 70
     0
  9
$SPLINETYPE
 70
     6
  9
$SPLINESEGS
 70
     8
  9
$HANDSEED
  5
29B5
  9
$SURFTAB1
 70
     6
  9
$SURFTAB2
 70
     6
  9
$SURFTYPE
 70
     6
  9
$SURFU
 70
     6
  9
$SURFV
 70
     6
  9
$UCSBASE
  2

  9
$UCSNAME
  2

  9
$UCSORG
 10
0.0
 20
0.0
 30
0.0
  9
$UCSXDIR
 10
1.0
 20
0.0
 30
0.0
  9
$UCSYDIR
 10
0.0
 20
1.0
 30
0.0
  9
$UCSORTHOREF
  2

  9
$UCSORTHOVIEW
 70
     0
  9
$UCSORGTOP
 10
0.0
 20
0.0
 30
0.0
  9
$UCSORGBOTTOM
 10
0.0
 20
0.0
 30
0.0
  9
$UCSORGLEFT
 10
0.0
 20
0.0
 30
0.0
  9
$UCSORGRIGHT
 10
0.0
 20
0.0
 30
0.0
  9
$UCSORGFRONT
 10
0.0
 20
0.0
 30
0.0
  9
$UCSORGBACK
 10
0.0
 20
0.0
 30
0.0
  9
$PUCSBASE
  2

  9
$PUCSNAME
  2

  9
$PUCSORG
 10
0.0
 20
0.0
 30
0.0
  9
$PUCSXDIR
 10
1.0
 20
0.0
 30
0.0
  9
$PUCSYDIR
 10
0.0
 20
1.0
 30
0.0
  9
$PUCSORTHOREF
  2

  9
$PUCSORTHOVIEW
 70
     0
  9
$PUCSORGTOP
 10
0.0
 20
0.0
 30
0.0
  9
$PUCSORGBOTTOM
 10
0.0
 20
0.0
 30
0.0
  9
$PUCSORGLEFT
 10
0.0
 20
0.0
 30
0.0
  9
$PUCSORGRIGHT
 10
0.0
 20
0.0
 30
0.0
  9
$PUCSORGFRONT
 10
0.0
 20
0.0
 30
0.0
  9
$PUCSORGBACK
 10
0.0
 20
0.0
 30
0.0
  9
$USERI1
 70
     0
  9
$USERI2
 70
     0
  9
$USERI3
 70
     0
  9
$USERI4
 70
     0
  9
$USERI5
 70
     0
  9
$USERR1
 40
0.0
  9
$USERR2
 40
0.0
  9
$USERR3
 40
0.0
  9
$USERR4
 40
0.0
  9
$USERR5
 40
0.0
  9
$WORLDVIEW
 70
     1
  9
$SHADEDGE
 70
     3
  9
$SHADEDIF
 70
    70
  9
$TILEMODE
 70
     1
  9
$MAXACTVP
 70
    64
  9
$PINSBASE
 10
0.0
 20
0.0
 30
0.0
  9
$PLIMCHECK
 70
     0
  9
$PEXTMIN
 10
100.0
 20
100.0
 30
100.0
  9
$PEXTMAX
 10
-100.0
 20
-100.0
 30
-100.0
  9
$PLIMMIN
 10
0.0
 20
0.0
  9
$PLIMMAX
 10
12.0
 20
9.0
  9
$UNITMODE
 70
     0
  9
$VISRETAIN
 70
     1
  9
$PLINEGEN
 70
     1
  9
$PSLTSCALE
 70
     1
  9
$TREEDEPTH
 70
  3020
  9
$CMLSTYLE
  2
STANDARD
  9
$CMLJUST
 70
     0
  9
$CMLSCALE
 40
1.0
  9
$PROXYGRAPHICS
 70
     1
  9
$MEASUREMENT
 70
     0
  9
$CELWEIGHT
370
    -1
  9
$ENDCAPS
280
     0
  9
$JOINSTYLE
280
     0
  9
$LWDISPLAY
290
     0
  9
$INSUNITS
 70
     0
  9
$HYPERLINKBASE
  1

  9
$STYLESHEET
  1

  9
$XEDIT
290
     1
  9
$CEPSNTYPE
380
     0
  9
$PSTYLEMODE
290
     1
  9
$FINGERPRINTGUID
  2
{AF60B5EF-CAA9-4AE9-AE03-6B9CD6941852}
  9
$VERSIONGUID
  2
{7698D2C8-D9E1-4C50-98BC-F1A91861829F}
  9
$EXTNAMES
290
     1
  9
$PSVPSCALE
 40
0.0
  9
$OLESTARTUP
290
     0
  0
ENDSEC
  0
SECTION
  2
CLASSES
  0
CLASS
  1
ACDBDICTIONARYWDFLT
  2
AcDbDictionaryWithDefault
  3
ObjectDBX Classes
 90
        0
280
     0
281
     0
  0
CLASS
  1
ACDBPLACEHOLDER
  2
AcDbPlaceHolder
  3
ObjectDBX Classes
 90
        0
280
     0
281
     0
  0
CLASS
  1
LAYOUT
  2
AcDbLayout
  3
ObjectDBX Classes
 90
        0
280
     0
281
     0
  0
CLASS
  1
TABLESTYLE
  2
AcDbTableStyle
  3
ObjectDBX Classes
 90
     2047
280
     0
281
     0
  0
CLASS
  1
DICTIONARYVAR
  2
AcDbDictionaryVar
  3
ObjectDBX Classes
 90
        0
280
     0
281
     0
  0
ENDSEC
  0
SECTION
  2
TABLES
  0
TABLE
  2
VPORT
  5
8
330
0
100
AcDbSymbolTable
 70
     3
  0
VPORT
  5
29AF
330
8
100
AcDbSymbolTableRecord
100
AcDbViewportTableRecord
  2
*Active
 70
     0
 10
0.0
 20
0.0
 11
1.0
 21
1.0
 12
9.92646733945083
 22
-22.01643227360381
 13
0.0
 23
0.0
 14
1.0
 24
1.0
 15
0.0
 25
0.0
 16
0.0
 26
0.0
 36
1.0
 17
0.0
 27
0.0
 37
0.0
 40
95.17677870741929
 41
1.532401524777636
 42
50.0
 43
0.0
 44
0.0
 50
0.0
 51
0.0
 71
     0
 72
   100
 73
     1
 74
     1
 75
     0
 76
     0
 77
     0
 78
     0
281
     0
 65
     1
110
0.0
120
0.0
130
0.0
111
1.0
121
0.0
131
0.0
112
0.0
122
1.0
132
0.0
 79
     0
146
0.0
  0
ENDTAB
  0
TABLE
  2
LTYPE
  5
5
330
0
100
AcDbSymbolTable
 70
     2
  0
LTYPE
  5
13
330
5
100
AcDbSymbolTableRecord
100
AcDbLinetypeTableRecord
  2
BYBLOCK
 70
     0
  3

 72
    65
 73
     0
 40
0.0
  0
LTYPE
  5
14
330
5
100
AcDbSymbolTableRecord
100
AcDbLinetypeTableRecord
  2
BYLAYER
 70
     0
  3

 72
    65
 73
     0
 40
0.0
  0
LTYPE
  5
15
330
5
100
AcDbSymbolTableRecord
100
AcDbLinetypeTableRecord
  2
CONTINUOUS
 70
     0
  3
Solid line
 72
    65
 73
     0
 40
0.0
  0
LTYPE
  5
3E
330
5
100
AcDbSymbolTableRecord
100
AcDbLinetypeTableRecord
  2
CENTER
 70
     0
  3
____ _ ____ _ ____ _ ____ _ ____ _ ____ _ ____
 72
    65
 73
     4
 40
0.6
 49
0.375
 74
     0
 49
-0.075
 74
     0
 49
0.075
 74
     0
 49
-0.075
 74
     0
  0
ENDTAB
  0
TABLE
  2
LAYER
  5
2
330
0
100
AcDbSymbolTable
 70
    11
  0
LAYER
  5
10
330
2
100
AcDbSymbolTableRecord
100
AcDbLayerTableRecord
  2
1
 70
     0
 62
     4
  6
CONTINUOUS
370
    -3
390
2281
  0
LAYER
  5
45
330
2
100
AcDbSymbolTableRecord
100
AcDbLayerTableRecord
  2
2
 70
     0
 62
     7
  6
CONTINUOUS
370
    -3
390
2281
  0
LAYER
  5
47
330
2
100
AcDbSymbolTableRecord
100
AcDbLayerTableRecord
  2
4
 70
     0
 62
     2
  6
CENTER
370
    -3
390
2281
  0
LAYER
  5
4A
330
2
100
AcDbSymbolTableRecord
100
AcDbLayerTableRecord
  2
0
 70
     0
 62
     7
  6
CONTINUOUS
370
    -3
390
2281
  0
LAYER
  5
4B
330
2
100
AcDbSymbolTableRecord
100
AcDbLayerTableRecord
  2
DEFPOINTS
 70
     0
 62
     7
  6
CONTINUOUS
290
     0
370
    -3
390
2281
  0
LAYER
  5
B42
330
2
100
AcDbSymbolTableRecord
100
AcDbLayerTableRecord
  2
SK1
 70
     0
 62
     4
  6
CONTINUOUS
370
    -3
390
2281
  0
LAYER
  5
B43
330
2
100
AcDbSymbolTableRecord
100
AcDbLayerTableRecord
  2
SK4
 70
     0
 62
     2
  6
CENTER
370
    -3
390
2281
  0
LAYER
  5
B44
330
2
100
AcDbSymbolTableRecord
100
AcDbLayerTableRecord
  2
SK2
 70
     0
 62
     7
  6
CONTINUOUS
370
    -3
390
2281
  0
LAYER
  5
22EB
330
2
100
AcDbSymbolTableRecord
100
AcDbLayerTableRecord
  2
6
 70
     0
 62
     5
  6
CONTINUOUS
370
    -3
390
2281
  0
LAYER
  5
22EC
330
2
100
AcDbSymbolTableRecord
100
AcDbLayerTableRecord
  2
CUT
 70
     0
 62
     1
  6
CONTINUOUS
370
    -3
390
2281
  0
LAYER
  5
22ED
330
2
100
AcDbSymbolTableRecord
100
AcDbLayerTableRecord
  2
NOCUT
 70
     0
 62
     7
  6
CONTINUOUS
370
    -3
390
2281
  0
ENDTAB
  0
TABLE
  2
STYLE
  5
3
330
0
100
AcDbSymbolTable
 70
     1
  0
STYLE
  5
11
330
3
100
AcDbSymbolTableRecord
100
AcDbTextStyleTableRecord
  2
STANDARD
 70
     0
 40
0.0
 41
0.8
 50
0.0
 71
     0
 42
0.2
  3
isocp.shx
  4

  0
ENDTAB
  0
TABLE
  2
VIEW
  5
6
330
0
100
AcDbSymbolTable
 70
     0
  0
ENDTAB
  0
TABLE
  2
UCS
  5
7
330
0
100
AcDbSymbolTable
 70
     0
  0
ENDTAB
  0
TABLE
  2
APPID
  5
9
330
0
100
AcDbSymbolTable
 70
     1
  0
APPID
  5
12
330
9
100
AcDbSymbolTableRecord
100
AcDbRegAppTableRecord
  2
ACAD
 70
     0
  0
ENDTAB
  0
TABLE
  2
DIMSTYLE
  5
A
330
0
100
AcDbSymbolTable
 70
     2
100
AcDbDimStyleTable
 71
     0
  0
DIMSTYLE
105
44
330
A
100
AcDbSymbolTableRecord
100
AcDbDimStyleTableRecord
  2
STANDARD
 70
     0
340
11
  0
DIMSTYLE
105
A55
102
{ACAD_REACTORS
330
578
330
575
330
A4D
330
A49
330
A4A
102
}
330
A
100
AcDbSymbolTableRecord
100
AcDbDimStyleTableRecord
  2
ISO-25
 70
     0
 41
2.5
 42
0.625
 43
3.75
 44
1.25
 73
     0
 74
     0
 77
     1
 78
     8
140
2.5
141
2.5
143
0.03937007874016
147
0.625
171
     3
172
     1
271
     2
272
     2
274
     3
283
     0
284
     8
340
11
  0
ENDTAB
  0
TABLE
  2
BLOCK_RECORD
  5
1
330
0
100
AcDbSymbolTable
 70
     6
  0
BLOCK_RECORD
  5
1E
102
{ACAD_XDICTIONARY
360
1900
102
}
330
1
100
AcDbSymbolTableRecord
100
AcDbBlockTableRecord
  2
*MODEL_SPACE
340
2282
  0
BLOCK_RECORD
  5
1A
102
{ACAD_XDICTIONARY
360
18FE
102
}
330
1
100
AcDbSymbolTableRecord
100
AcDbBlockTableRecord
  2
*PAPER_SPACE
340
2283
  0
BLOCK_RECORD
  5
23
330
1
100
AcDbSymbolTableRecord
100
AcDbBlockTableRecord
  2
_FILLED
340
0
  0
BLOCK_RECORD
  5
A5C
330
1
100
AcDbSymbolTableRecord
100
AcDbBlockTableRecord
  2
*D1
340
0
  0
BLOCK_RECORD
  5
A6A
330
1
100
AcDbSymbolTableRecord
100
AcDbBlockTableRecord
  2
*D2
340
0
  0
BLOCK_RECORD
  5
A76
330
1
100
AcDbSymbolTableRecord
100
AcDbBlockTableRecord
  2
*D3
340
0
  0
BLOCK_RECORD
  5
A82
330
1
100
AcDbSymbolTableRecord
100
AcDbBlockTableRecord
  2
*D4
340
0
  0
BLOCK_RECORD
  5
A8E
330
1
100
AcDbSymbolTableRecord
100
AcDbBlockTableRecord
  2
*D5
340
0
  0
ENDTAB
  0
ENDSEC
  0
SECTION
  2
BLOCKS
  0
BLOCK
  5
4E
330
1E
100
AcDbEntity
  8
0
100
AcDbBlockBegin
  2
*MODEL_SPACE
 70
     0
 10
0.0
 20
0.0
 30
0.0
  3
*MODEL_SPACE
  1

  0
ENDBLK
  5
4F
330
1E
100
AcDbEntity
  8
0
100
AcDbBlockEnd
  0
BLOCK
  5
4C
330
1A
100
AcDbEntity
 67
     1
  8
0
100
AcDbBlockBegin
  2
*PAPER_SPACE
 70
     0
 10
0.0
 20
0.0
 30
0.0
  3
*PAPER_SPACE
  1

  0
ENDBLK
  5
4D
330
1A
100
AcDbEntity
 67
     1
  8
0
100
AcDbBlockEnd
  0
BLOCK
  5
52
330
23
100
AcDbEntity
  8
0
100
AcDbBlockBegin
  2
_FILLED
 70
     0
 10
0.0
 20
0.0
 30
0.0
  3
_FILLED
  1

  0
SOLID
  5
53
330
23
100
AcDbEntity
  8
0
  6
ByBlock
 62
     0
100
AcDbTrace
 10
0.0
 20
0.0
 30
0.0
 11
-1.0
 21
0.132
 31
0.0
 12
-1.0
 22
-0.132
 32
0.0
 13
-1.0
 23
-0.132
 33
0.0
  0
ENDBLK
  5
54
330
23
100
AcDbEntity
  8
0
100
AcDbBlockEnd
  0
BLOCK
  5
A68
330
A5C
100
AcDbEntity
  8
0
100
AcDbBlockBegin
  2
*D1
 70
     1
 10
0.0
 20
0.0
 30
0.0
  3
*D1
  1

  0
LINE
  5
228D
330
A5C
100
AcDbEntity
  8
SK2
 62
     0
370
    -2
100
AcDbLine
 10
-47.92499999999999
 20
-7.999999999999992
 30
0.0
 11
-60.74245961729999
 21
-7.99999999999999
 31
0.0
  0
LINE
  5
228E
330
A5C
100
AcDbEntity
  8
SK2
 62
     0
370
    -2
100
AcDbLine
 10
-47.42492068699998
 20
8.000000000000005
 30
0.0
 11
-60.74245961729999
 21
8.000000000000008
 31
0.0
  0
LINE
  5
228F
330
A5C
100
AcDbEntity
  8
SK2
 62
     0
370
    -2
100
AcDbLine
 10
-59.49245961729999
 20
-5.49999999999999
 30
0.0
 11
-59.49245961729999
 21
5.500000000000007
 31
0.0
  0
SOLID
  5
2290
330
A5C
100
AcDbEntity
  8
SK2
 62
     0
100
AcDbTrace
 10
-59.90912628396666
 20
-5.49999999999999
 30
0.0
 11
-59.07579295063333
 21
-5.49999999999999
 31
0.0
 12
-59.49245961729999
 22
-7.99999999999999
 32
0.0
 13
-59.49245961729999
 23
-7.99999999999999
 33
0.0
  0
SOLID
  5
2291
330
A5C
100
AcDbEntity
  8
SK2
 62
     0
100
AcDbTrace
 10
-59.90912628396666
 20
5.500000000000007
 30
0.0
 11
-59.07579295063333
 21
5.500000000000007
 31
0.0
 12
-59.49245961729999
 22
8.000000000000008
 32
0.0
 13
-59.49245961729999
 23
8.000000000000008
 33
0.0
  0
MTEXT
  5
2292
330
A5C
100
AcDbEntity
  8
SK2
 62
     0
100
AcDbMText
 10
-61.36745961729999
 20
-0.0318919392262767
 30
0.0
 40
2.5
 41
0.0
 71
     5
 72
     1
  1
%%c16
 11
0.0000000000000001
 21
1.0
 31
0.0
 73
     1
 44
1.0
1001
ACAD
1000
MTEXTBEGIN
1070
    73
1070
     1
1070
    44
1040
1.0
1070
    74
1070
     0
1000
MTEXTEND
  0
POINT
  5
2293
330
A5C
100
AcDbEntity
  8
DEFPOINTS
 62
     0
100
AcDbPoint
 10
-47.29999999999999
 20
-7.999999999999992
 30
0.0
  0
POINT
  5
2294
330
A5C
100
AcDbEntity
  8
DEFPOINTS
 62
     0
100
AcDbPoint
 10
-46.79992068699998
 20
8.000000000000005
 30
0.0
  0
POINT
  5
2295
330
A5C
100
AcDbEntity
  8
DEFPOINTS
 62
     0
100
AcDbPoint
 10
-59.49245961729999
 20
8.000000000000008
 30
0.0
  0
ENDBLK
  5
A69
330
A5C
100
AcDbEntity
  8
0
100
AcDbBlockEnd
  0
BLOCK
  5
A74
330
A6A
100
AcDbEntity
  8
0
100
AcDbBlockBegin
  2
*D2
 70
     1
 10
0.0
 20
0.0
 30
0.0
  3
*D2
  1

  0
LINE
  5
22A8
330
A6A
100
AcDbEntity
  8
2
 62
     0
370
    -2
100
AcDbLine
 10
62.125
 20
7.999999999999992
 30
0.0
 11
77.31057341378869
 21
7.999999999999986
 31
0.0
  0
LINE
  5
22A9
330
A6A
100
AcDbEntity
  8
2
 62
     0
370
    -2
100
AcDbLine
 10
62.125
 20
-8.000000000000008
 30
0.0
 11
77.31057341378869
 21
-8.000000000000012
 31
0.0
  0
LINE
  5
22AA
330
A6A
100
AcDbEntity
  8
2
 62
     0
370
    -2
100
AcDbLine
 10
76.06057341378869
 20
5.499999999999988
 30
0.0
 11
76.06057341378869
 21
-5.500000000000011
 31
0.0
  0
SOLID
  5
22AB
330
A6A
100
AcDbEntity
  8
2
 62
     0
100
AcDbTrace
 10
75.64390674712202
 20
5.499999999999988
 30
0.0
 11
76.47724008045535
 21
5.499999999999988
 31
0.0
 12
76.06057341378869
 22
7.999999999999986
 32
0.0
 13
76.06057341378869
 23
7.999999999999986
 33
0.0
  0
SOLID
  5
22AC
330
A6A
100
AcDbEntity
  8
2
 62
     0
100
AcDbTrace
 10
75.64390674712202
 20
-5.500000000000011
 30
0.0
 11
76.47724008045535
 21
-5.500000000000011
 31
0.0
 12
76.06057341378869
 22
-8.000000000000012
 32
0.0
 13
76.06057341378869
 23
-8.000000000000012
 33
0.0
  0
MTEXT
  5
22AD
330
A6A
100
AcDbEntity
  8
2
 62
     0
100
AcDbMText
 10
74.18557341378869
 20
0.4157789073999449
 30
0.0
 40
2.5
 41
0.0
 71
     5
 72
     1
  1
%%c16
 11
0.0000000000000001
 21
1.0
 31
0.0
 73
     1
 44
1.0
1001
ACAD
1000
MTEXTBEGIN
1070
    73
1070
     1
1070
    44
1040
1.0
1070
    74
1070
     0
1000
MTEXTEND
  0
POINT
  5
22AE
330
A6A
100
AcDbEntity
  8
DEFPOINTS
 62
     0
100
AcDbPoint
 10
61.5
 20
7.999999999999992
 30
0.0
  0
POINT
  5
22AF
330
A6A
100
AcDbEntity
  8
DEFPOINTS
 62
     0
100
AcDbPoint
 10
61.5
 20
-8.000000000000008
 30
0.0
  0
POINT
  5
22B0
330
A6A
100
AcDbEntity
  8
DEFPOINTS
 62
     0
100
AcDbPoint
 10
76.06057341378869
 20
-8.000000000000012
 30
0.0
  0
ENDBLK
  5
A75
330
A6A
100
AcDbEntity
  8
0
100
AcDbBlockEnd
  0
BLOCK
  5
A80
330
A76
100
AcDbEntity
  8
0
100
AcDbBlockBegin
  2
*D3
 70
     1
 10
0.0
 20
0.0
 30
0.0
  3
*D3
  1

  0
LINE
  5
2296
330
A76
100
AcDbEntity
  8
SK2
 62
     0
370
    -2
100
AcDbLine
 10
-24.0
 20
-0.6249999999999975
 30
0.0
 11
-24.0
 21
-34.05596121270832
 31
0.0
  0
LINE
  5
2297
330
A76
100
AcDbEntity
  8
SK2
 62
     0
370
    -2
100
AcDbLine
 10
61.005854085
 20
-4.627248062600027
 30
0.0
 11
61.005854085
 21
-34.05596121270832
 31
0.0
  0
LINE
  5
2298
330
A76
100
AcDbEntity
  8
SK2
 62
     0
370
    -2
100
AcDbLine
 10
-21.49999999999999
 20
-32.80596121270832
 30
0.0
 11
58.505854085
 21
-32.80596121270832
 31
0.0
  0
SOLID
  5
2299
330
A76
100
AcDbEntity
  8
SK2
 62
     0
100
AcDbTrace
 10
-21.49999999999999
 20
-32.38929454604166
 30
0.0
 11
-21.49999999999999
 21
-33.22262787937499
 31
0.0
 12
-24.0
 22
-32.80596121270832
 32
0.0
 13
-24.0
 23
-32.80596121270832
 33
0.0
  0
SOLID
  5
229A
330
A76
100
AcDbEntity
  8
SK2
 62
     0
100
AcDbTrace
 10
58.505854085
 20
-32.38929454604166
 30
0.0
 11
58.505854085
 21
-33.22262787937499
 31
0.0
 12
61.005854085
 22
-32.80596121270832
 32
0.0
 13
61.005854085
 23
-32.80596121270832
 33
0.0
  0
MTEXT
  5
229B
330
A76
100
AcDbEntity
  8
SK2
 62
     0
100
AcDbMText
 10
18.50292704249998
 20
-30.93096121270832
 30
0.0
 40
2.5
 41
0.0
 71
     5
 72
     1
  1
85
 73
     1
 44
1.0
1001
ACAD
1000
MTEXTBEGIN
1070
    73
1070
     1
1070
    44
1040
1.0
1070
    74
1070
     0
1000
MTEXTEND
  0
POINT
  5
229C
330
A76
100
AcDbEntity
  8
DEFPOINTS
 62
     0
100
AcDbPoint
 10
-24.0
 20
0.0000000000000029
 30
0.0
  0
POINT
  5
229D
330
A76
100
AcDbEntity
  8
DEFPOINTS
 62
     0
100
AcDbPoint
 10
61.005854085
 20
-4.002248062600026
 30
0.0
  0
POINT
  5
229E
330
A76
100
AcDbEntity
  8
DEFPOINTS
 62
     0
100
AcDbPoint
 10
61.005854085
 20
-32.80596121270832
 30
0.0
  0
ENDBLK
  5
A81
330
A76
100
AcDbEntity
  8
0
100
AcDbBlockEnd
  0
BLOCK
  5
A8C
330
A82
100
AcDbEntity
  8
0
100
AcDbBlockBegin
  2
*D4
 70
     1
 10
0.0
 20
0.0
 30
0.0
  3
*D4
  1

  0
LINE
  5
2284
330
A82
100
AcDbEntity
  8
SK2
 62
     0
370
    -2
100
AcDbLine
 10
-48.0
 20
-0.6249999999999945
 30
0.0
 11
-48.0
 21
-44.11530725993848
 31
0.0
  0
LINE
  5
2285
330
A82
100
AcDbEntity
  8
SK2
 62
     0
370
    -2
100
AcDbLine
 10
61.005854085
 20
-4.627248062600027
 30
0.0
 11
61.005854085
 21
-44.11530725993848
 31
0.0
  0
LINE
  5
2286
330
A82
100
AcDbEntity
  8
SK2
 62
     0
370
    -2
100
AcDbLine
 10
-45.49999999999999
 20
-42.8653072599385
 30
0.0
 11
58.505854085
 21
-42.8653072599385
 31
0.0
  0
SOLID
  5
2287
330
A82
100
AcDbEntity
  8
SK2
 62
     0
100
AcDbTrace
 10
-45.49999999999999
 20
-42.44864059327182
 30
0.0
 11
-45.49999999999999
 21
-43.28197392660515
 31
0.0
 12
-48.0
 22
-42.8653072599385
 32
0.0
 13
-48.0
 23
-42.8653072599385
 33
0.0
  0
SOLID
  5
2288
330
A82
100
AcDbEntity
  8
SK2
 62
     0
100
AcDbTrace
 10
58.505854085
 20
-42.44864059327182
 30
0.0
 11
58.505854085
 21
-43.28197392660515
 31
0.0
 12
61.005854085
 22
-42.8653072599385
 32
0.0
 13
61.005854085
 23
-42.8653072599385
 33
0.0
  0
MTEXT
  5
2289
330
A82
100
AcDbEntity
  8
SK2
 62
     0
100
AcDbMText
 10
6.502927042499996
 20
-40.9903072599385
 30
0.0
 40
2.5
 41
0.0
 71
     5
 72
     1
  1
109
 73
     1
 44
1.0
1001
ACAD
1000
MTEXTBEGIN
1070
    73
1070
     1
1070
    44
1040
1.0
1070
    74
1070
     0
1000
MTEXTEND
  0
POINT
  5
228A
330
A82
100
AcDbEntity
  8
DEFPOINTS
 62
     0
100
AcDbPoint
 10
-48.0
 20
0.0000000000000059
 30
0.0
  0
POINT
  5
228B
330
A82
100
AcDbEntity
  8
DEFPOINTS
 62
     0
100
AcDbPoint
 10
61.005854085
 20
-4.002248062600026
 30
0.0
  0
POINT
  5
228C
330
A82
100
AcDbEntity
  8
DEFPOINTS
 62
     0
100
AcDbPoint
 10
61.005854085
 20
-42.8653072599385
 30
0.0
  0
ENDBLK
  5
A8D
330
A82
100
AcDbEntity
  8
0
100
AcDbBlockEnd
  0
BLOCK
  5
A98
330
A8E
100
AcDbEntity
  8
0
100
AcDbBlockBegin
  2
*D5
 70
     1
 10
0.0
 20
0.0
 30
0.0
  3
*D5
  1

  0
LINE
  5
229F
330
A8E
100
AcDbEntity
  8
2
 62
     0
370
    -2
100
AcDbLine
 10
21.192024052
 20
-7.375000000000002
 30
0.0
 11
21.192024052
 21
-24.01751608790867
 31
0.0
  0
LINE
  5
22A0
330
A8E
100
AcDbEntity
  8
2
 62
     0
370
    -2
100
AcDbLine
 10
61.005854085
 20
-4.627248062600027
 30
0.0
 11
61.005854085
 21
-24.01751608790867
 31
0.0
  0
LINE
  5
22A1
330
A8E
100
AcDbEntity
  8
2
 62
     0
370
    -2
100
AcDbLine
 10
23.69202405199998
 20
-22.76751608790867
 30
0.0
 11
58.505854085
 21
-22.76751608790867
 31
0.0
  0
SOLID
  5
22A2
330
A8E
100
AcDbEntity
  8
2
 62
     0
100
AcDbTrace
 10
23.69202405199998
 20
-22.350849421242
 30
0.0
 11
23.69202405199998
 21
-23.18418275457533
 31
0.0
 12
21.192024052
 22
-22.76751608790867
 32
0.0
 13
21.192024052
 23
-22.76751608790867
 33
0.0
  0
SOLID
  5
22A3
330
A8E
100
AcDbEntity
  8
2
 62
     0
100
AcDbTrace
 10
58.505854085
 20
-22.350849421242
 30
0.0
 11
58.505854085
 21
-23.18418275457533
 31
0.0
 12
61.005854085
 22
-22.76751608790867
 32
0.0
 13
61.005854085
 23
-22.76751608790867
 33
0.0
  0
MTEXT
  5
22A4
330
A8E
100
AcDbEntity
  8
2
 62
     0
100
AcDbMText
 10
41.0989390685
 20
-20.89251608790867
 30
0.0
 40
2.5
 41
0.0
 71
     5
 72
     1
  1
40
 73
     1
 44
1.0
1001
ACAD
1000
MTEXTBEGIN
1070
    73
1070
     1
1070
    44
1040
1.0
1070
    74
1070
     0
1000
MTEXTEND
  0
POINT
  5
22A5
330
A8E
100
AcDbEntity
  8
DEFPOINTS
 62
     0
100
AcDbPoint
 10
21.192024052
 20
-6.750000000000002
 30
0.0
  0
POINT
  5
22A6
330
A8E
100
AcDbEntity
  8
DEFPOINTS
 62
     0
100
AcDbPoint
 10
61.005854085
 20
-4.002248062600026
 30
0.0
  0
POINT
  5
22A7
330
A8E
100
AcDbEntity
  8
DEFPOINTS
 62
     0
100
AcDbPoint
 10
61.005854085
 20
-22.76751608790867
 30
0.0
  0
ENDBLK
  5
A99
330
A8E
100
AcDbEntity
  8
0
100
AcDbBlockEnd
  0
ENDSEC
  0
SECTION
  2
ENTITIES
  0
DIMENSION
  5
575
330
1E
100
AcDbEntity
  8
2
100
AcDbDimension
  2
*D2
 10
76.06057341378869
 20
-8.000000000000012
 30
0.0
 11
76.06057341378869
 21
0.4157789073999448
 31
0.0
 70
   160
  1
%%c<>
 71
     5
 42
16.0
  3
ISO-25
100
AcDbAlignedDimension
 13
61.5
 23
7.999999999999992
 33
0.0
 14
61.5
 24
-8.000000000000008
 34
0.0
 50
270.0
100
AcDbRotatedDimension
  0
DIMENSION
  5
578
330
1E
100
AcDbEntity
  8
SK2
100
AcDbDimension
  2
*D1
 10
-59.49245961729999
 20
8.000000000000008
 30
0.0
 11
-59.49245961729999
 21
-0.0318919392262769
 31
0.0
 70
   160
  1
%%c<>
 71
     5
 42
15.99999999999999
  3
ISO-25
100
AcDbAlignedDimension
 13
-47.29999999999999
 23
-7.999999999999992
 33
0.0
 14
-46.79992068699998
 24
8.000000000000005
 34
0.0
 50
89.99999999999998
100
AcDbRotatedDimension
  0
LINE
  5
579
330
1E
100
AcDbEntity
  8
1
100
AcDbLine
 10
60.3
 20
-3.664448250500076
 30
0.0
 11
60.3
 21
-1.706183147900055
 31
0.0
  0
LINE
  5
57A
330
1E
100
AcDbEntity
  8
1
100
AcDbLine
 10
60.3
 20
1.735955800399938
 30
0.0
 11
60.3
 21
1.706183147899929
 31
0.0
  0
LINE
  5
57C
330
1E
100
AcDbEntity
  8
1
100
AcDbLine
 10
54.6404449572
 20
-6.364014533300067
 30
0.0
 11
54.6404449572
 21
1.002248062599952
 31
0.0
  0
LINE
  5
57D
330
1E
100
AcDbEntity
  8
1
100
AcDbLine
 10
21.192024052
 20
-6.750000000000002
 30
0.0
 11
21.192024052
 21
6.749999999999997
 31
0.0
  0
LINE
  5
57E
330
1E
100
AcDbEntity
  8
1
100
AcDbLine
 10
20.80854155759998
 20
-6.764727572500017
 30
0.0
 11
20.80854155759998
 21
6.764727572499953
 31
0.0
  0
LINE
  5
57F
330
1E
100
AcDbEntity
  8
SK1
100
AcDbLine
 10
0.000000000000001
 20
8.0
 30
0.0
 11
-46.79999999999998
 21
8.000000000000005
 31
0.0
  0
LINE
  5
580
330
1E
100
AcDbEntity
  8
1
100
AcDbLine
 10
7.807975947999977
 20
7.749999999999999
 30
0.0
 11
0.1999999999999899
 21
7.75
 31
0.0
  0
LINE
  5
581
330
1E
100
AcDbEntity
  8
1
100
AcDbLine
 10
20.80854155759998
 20
6.764727572499953
 30
0.0
 11
8.191458442399982
 21
7.735272427499976
 31
0.0
  0
LINE
  5
582
330
1E
100
AcDbEntity
  8
1
100
AcDbLine
 10
53.6406038909
 20
6.749999999999992
 30
0.0
 11
21.192024052
 21
6.749999999999997
 31
0.0
  0
LINE
  5
583
330
1E
100
AcDbEntity
  8
1
100
AcDbLine
 10
54.1188695842
 20
6.749815931599972
 30
0.0
 11
53.9040526972
 21
6.749815931599972
 31
0.0
  0
LINE
  5
584
330
1E
100
AcDbEntity
  8
1
100
AcDbLine
 10
53.6406038909
 20
6.74832976199996
 30
0.0
 11
45.074780362
 21
6.748329761999962
 31
0.0
  0
LINE
  5
585
330
1E
100
AcDbEntity
  8
SK1
100
AcDbLine
 10
-19.0
 20
5.055689863900002
 30
0.0
 11
-29.0
 21
5.055689863900003
 31
0.0
  0
LINE
  5
586
330
1E
100
AcDbEntity
  8
1
100
AcDbLine
 10
8.191458442399982
 20
7.735272427499976
 30
0.0
 11
8.191458442399977
 21
-7.735272427500031
 31
0.0
  0
LINE
  5
587
330
1E
100
AcDbEntity
  8
1
100
AcDbLine
 10
7.807975947999977
 20
7.749999999999999
 30
0.0
 11
7.807975947999977
 21
-7.75
 31
0.0
  0
LINE
  5
588
330
1E
100
AcDbEntity
  8
1
100
AcDbLine
 10
56.51425699999999
 20
1.002248062599952
 30
0.0
 11
54.01425699999999
 21
1.002248062599952
 31
0.0
  0
LINE
  5
589
330
1E
100
AcDbEntity
  8
4
100
AcDbLine
 10
62.30326616048228
 20
-0.0000000000000098
 30
0.0
 11
0.0873024919548584
 21
0.0
 31
0.0
  0
LINE
  5
58A
330
1E
100
AcDbEntity
  8
1
100
AcDbLine
 10
0.1999999999999899
 20
7.75
 30
0.0
 11
0.199999999999988
 21
-7.75
 31
0.0
  0
LINE
  5
58B
330
1E
100
AcDbEntity
  8
1
100
AcDbLine
 10
0.000000000000001
 20
7.99999948049998
 30
0.0
 11
-0.000000000000001
 21
-7.999999480500037
 31
0.0
  0
LINE
  5
58C
330
1E
100
AcDbEntity
  8
SK1
100
AcDbLine
 10
-19.0
 20
-5.055689863900056
 30
0.0
 11
-29.0
 21
-5.055689863900052
 31
0.0
  0
LINE
  5
58D
330
1E
100
AcDbEntity
  8
1
100
AcDbLine
 10
54.6404449572
 20
-6.364014533300067
 30
0.0
 11
54.49938938169999
 21
-6.364014533300067
 31
0.0
  0
LINE
  5
58E
330
1E
100
AcDbEntity
  8
1
100
AcDbLine
 10
54.2356565226
 20
-6.749815931600042
 30
0.0
 11
53.9040526972
 21
-6.749815931600042
 31
0.0
  0
LINE
  5
58F
330
1E
100
AcDbEntity
  8
1
100
AcDbLine
 10
53.73104150020001
 20
-6.750000000000006
 30
0.0
 11
21.192024052
 21
-6.750000000000002
 31
0.0
  0
LINE
  5
590
330
1E
100
AcDbEntity
  8
1
100
AcDbLine
 10
7.807975947999977
 20
-7.75
 30
0.0
 11
0.199999999999988
 21
-7.75
 31
0.0
  0
LINE
  5
591
330
1E
100
AcDbEntity
  8
1
100
AcDbLine
 10
20.80854155759998
 20
-6.764727572500017
 30
0.0
 11
8.191458442399977
 21
-7.735272427500031
 31
0.0
  0
LINE
  5
592
330
1E
100
AcDbEntity
  8
SK1
100
AcDbLine
 10
-0.000000000000001
 20
-8.0
 30
0.0
 11
-46.79999999999998
 21
-7.999999999999992
 31
0.0
  0
LINE
  5
594
330
1E
100
AcDbEntity
  8
SK1
100
AcDbLine
 10
-19.0
 20
5.055689863900002
 30
0.0
 11
-19.0
 21
-5.055689863900056
 31
0.0
  0
LINE
  5
596
330
1E
100
AcDbEntity
  8
SK1
100
AcDbLine
 10
-29.0
 20
5.055689863900003
 30
0.0
 11
-29.0
 21
-5.055689863900052
 31
0.0
  0
LINE
  5
597
330
1E
100
AcDbEntity
  8
SK1
100
AcDbLine
 10
-46.79999999999998
 20
8.000000000000005
 30
0.0
 11
-48.0
 21
6.799999999999956
 31
0.0
  0
LINE
  5
598
330
1E
100
AcDbEntity
  8
SK1
100
AcDbLine
 10
-46.79999999999998
 20
-7.999999999999992
 30
0.0
 11
-48.0
 21
-6.800000000000002
 31
0.0
  0
LINE
  5
599
330
1E
100
AcDbEntity
  8
SK1
100
AcDbLine
 10
-46.79999999999998
 20
8.000000000000005
 30
0.0
 11
-46.79999999999998
 21
-7.999999999999992
 31
0.0
  0
LINE
  5
59A
330
1E
100
AcDbEntity
  8
SK1
100
AcDbLine
 10
-48.0
 20
6.799999999999956
 30
0.0
 11
-48.0
 21
-6.800000000000002
 31
0.0
  0
CIRCLE
  5
59F
330
1E
100
AcDbEntity
  8
1
100
AcDbCircle
 10
57.01425699999999
 20
4.00224806259995
 30
0.0
 40
2.45
  0
ARC
  5
5A0
330
1E
100
AcDbEntity
  8
1
100
AcDbCircle
 10
57.01425699999999
 20
4.00224806259995
 30
0.0
 40
3.991597085
100
AcDbArc
 50
294.5230461401998
 51
228.7289707691999
  0
ARC
  5
5A2
330
1E
100
AcDbEntity
  8
1
100
AcDbCircle
 10
57.01425699999999
 20
-4.002248062600026
 30
0.0
 40
3.991597085
100
AcDbArc
 50
223.4994590996
 51
34.59539428880002
  0
ARC
  5
5A4
330
1E
100
AcDbEntity
  8
1
100
AcDbCircle
 10
54.01425699999999
 20
11.00224806259997
 30
0.0
 40
10.0
100
AcDbArc
 50
205.1942503129999
 51
270.0
  0
ARC
  5
5A5
330
1E
100
AcDbEntity
  8
1
100
AcDbCircle
 10
7.80797594789999
 20
2.749999999999998
 30
0.0
 40
5.0
100
AcDbArc
 50
85.60129464500006
 51
90.0
  0
ARC
  5
5A6
330
1E
100
AcDbEntity
  8
1
100
AcDbCircle
 10
57.01425699999999
 20
-4.002248062600026
 30
0.0
 40
3.649999999999999
100
AcDbArc
 50
221.7185766539
 51
226.4701021533999
  0
ARC
  5
5A7
330
1E
100
AcDbEntity
  8
1
100
AcDbCircle
 10
7.80797594789999
 20
-2.75
 30
0.0
 40
5.0
100
AcDbArc
 50
270.0
 51
274.398705355
  0
ARC
  5
5A8
330
1E
100
AcDbEntity
  8
1
100
AcDbCircle
 10
21.192024052
 20
11.74999999999999
 30
0.0
 40
5.0
100
AcDbArc
 50
265.601294645
 51
270.0
  0
ARC
  5
5A9
330
1E
100
AcDbEntity
  8
1
100
AcDbCircle
 10
21.192024052
 20
-11.75
 30
0.0
 40
5.0
100
AcDbArc
 50
90.0
 51
94.39870535499997
  0
ARC
  5
5AA
330
1E
100
AcDbEntity
  8
1
100
AcDbCircle
 10
56.51425699999999
 20
2.997751937399971
 30
0.0
 40
4.0
100
AcDbArc
 50
311.4528222097999
 51
341.1620767932999
  0
ARC
  5
5AB
330
1E
100
AcDbEntity
  8
1
100
AcDbCircle
 10
0.199999999999988
 20
-7.95000000000004
 30
0.0
 40
0.2
100
AcDbArc
 50
90.0
 51
180.0
  0
ARC
  5
5AC
330
1E
100
AcDbEntity
  8
1
100
AcDbCircle
 10
56.51425699999999
 20
-2.997751937400046
 30
0.0
 40
4.0
100
AcDbArc
 50
18.83792320669994
 51
90.0
  0
ARC
  5
5AD
330
1E
100
AcDbEntity
  8
1
100
AcDbCircle
 10
0.1999999999999899
 20
7.94999999999999
 30
0.0
 40
0.2
100
AcDbArc
 50
180.0
 51
270.0
  0
ARC
  5
5AE
330
1E
100
AcDbEntity
  8
1
100
AcDbCircle
 10
57.01425699999999
 20
4.00224806259995
 30
0.0
 40
4.349999999999996
100
AcDbArc
 50
140.8551454634998
 51
223.5654639309998
  0
ARC
  5
5AF
330
1E
100
AcDbEntity
  8
1
100
AcDbCircle
 10
56.8728356437
 20
-3.860826706400086
 30
0.0
 40
1.75
100
AcDbArc
 50
300.0539256510999
 51
222.5706928236999
  0
LWPOLYLINE
  5
718
330
1E
100
AcDbEntity
  8
1
100
AcDbPolyline
 90
      155
 70
     0
 43
0.0
 10
54.8955319888
 20
-6.461398118100025
 10
54.93654527139909
 20
-6.496759588195224
 10
54.9781414621422
 20
-6.531443850514405
 10
55.02030818265609
 20
-6.565438355300305
 10
55.06303305456761
 20
-6.598730552795647
 10
55.1063037617735
 20
-6.631308021696846
 10
55.1501088175061
 20
-6.663160051482916
 10
55.19443732478729
 20
-6.694277148273757
 10
55.239278399249
 20
-6.724649844201036
 10
55.2846211500924
 20
-6.754268672634767
 10
55.32387700989001
 20
-6.779049122732237
 10
55.36348519805859
 20
-6.803263062180222
 10
55.4034378063211
 20
-6.826904731665305
 10
55.4437269264001
 20
-6.849968371874065
 10
55.4843446481725
 20
-6.872448226613895
 10
55.5252829100328
 20
-6.894338795780383
 10
55.5665333885785
 20
-6.915635021849918
 10
55.60808773440601
 20
-6.936331891254916
 10
55.6499375981118
 20
-6.956424390427787
 10
55.69207462859999
 20
-6.975907508056362
 10
55.73449030825289
 20
-6.994776454759166
 10
55.77717581480911
 20
-7.013026847165947
 10
55.82012229349
 20
-7.030654345243647
 10
55.86332088951699
 20
-7.047654608959207
 10
55.9067627467155
 20
-7.064023300862888
 10
55.95043887504459
 20
-7.079756331231996
 10
55.9943400414687
 20
-7.094850060018274
 10
56.03845698726811
 20
-7.109300894703933
 10
56.0827804537228
 20
-7.123105242771167
 10
56.12730118081969
 20
-7.136259514816757
 10
56.1720097983045
 20
-7.148760386920884
 10
56.216896743047
 20
-7.160604999648575
 10
56.26195243245749
 20
-7.171790540426907
 10
56.30716728394659
 20
-7.182314196682952
 10
56.3525317136198
 20
-7.192173160126347
 10
56.39803604910621
 20
-7.201364912826265
 10
56.44367047469859
 20
-7.209887407249244
 10
56.4894251616059
 20
-7.217738638800402
 10
56.535290281037
 20
-7.224916602884875
 10
56.581256003004
 20
-7.231419300973855
 10
56.6273124348006
 20
-7.237245052432767
 10
56.6734495914018
 20
-7.242392644553902
 10
56.71965748038711
 20
-7.246860902115124
 10
56.7659261093357
 20
-7.250648649894316
 10
56.81224548510821
 20
-7.253754721188267
 10
56.85860558546441
 20
-7.256178294110741
 10
56.9049963496816
 20
-7.257919002761962
 10
56.9514077143956
 20
-7.258976512540627
 10
56.9978296162426
 20
-7.259350488845466
 10
57.04425199187078
 20
-7.259040609045236
 10
57.090664778323
 20
-7.258046922730724
 10
57.1370579131028
 20
-7.256369915147145
 10
57.1834213337402
 20
-7.254010096294715
 10
57.22974497776521
 20
-7.250967976173693
 10
57.27601878462639
 20
-7.247244080378825
 10
57.3222327419953
 20
-7.242839326421772
 10
57.36837688815429
 20
-7.237755043140472
 10
57.41444126378278
 20
-7.231992578852117
 10
57.46041590955989
 20
-7.225553281873897
 10
57.5062908702813
 20
-7.218438520447602
 10
57.5520562751821
 20
-7.210650071537896
 10
57.59770233261479
 20
-7.202190095067275
 10
57.64321925398188
 20
-7.193060765723085
 10
57.68859725068598
 20
-7.183264258192596
 10
57.7338265418739
 20
-7.172802770332552
 10
57.7788974846003
 20
-7.161678912600815
 10
57.8238005546158
 20
-7.149895650574584
 10
57.868526231545
 20
-7.137455961422996
 10
57.91306499501271
 20
-7.124362822315152
 10
57.9574073359391
 20
-7.110619236085275
 10
58.001543925428
 20
-7.096228614982415
 10
58.0454655792362
 20
-7.081194699935717
 10
58.08916311720139
 20
-7.065521241147894
 10
58.1326273591616
 20
-7.049211988821673
 10
58.1758491398154
 20
-7.032270719133067
 10
58.21881951963451
 20
-7.014701602857225
 10
58.2615297346521
 20
-6.996509117610584
 10
58.3039710255203
 20
-6.977697749082515
 10
58.3461346328914
 20
-6.958271982962345
 10
58.38801181468848
 20
-6.938236328588887
 10
58.4295940959965
 20
-6.917595661128824
 10
58.4708732121235
 20
-6.896355143609902
 10
58.5118409040553
 20
-6.874519946834616
 10
58.5524889127778
 20
-6.852095241605445
 10
58.592808996658
 20
-6.829086218462362
 10
58.6327932069289
 20
-6.805498400510517
 10
58.6724338383147
 20
-6.781337587353097
 10
58.71172319294061
 20
-6.756609586997392
 10
58.75065357293181
 20
-6.731320207450718
 10
58.79560841060509
 20
-6.701114189741061
 10
58.8400525539295
 20
-6.670161742520845
 10
58.88397478371451
 20
-6.638472978580915
 10
58.9273638924205
 20
-6.606058021031047
 10
58.9702086751305
 20
-6.572926994914553
 10
59.01249826637219
 20
-6.539090275529128
 10
59.0542224721608
 20
-6.504558733224512
 10
59.0953711773969
 20
-6.469343296508355
 10
59.13593426698088
 20
-6.433454893888287
 10
59.17590175469051
 20
-6.396904526110513
 10
59.21526443237739
 20
-6.359703630049945
 10
59.2540133824337
 20
-6.321863805436244
 10
59.2975349547073
 20
-6.277850810577508
 10
59.33493879235239
 20
-6.238680934279264
 10
59.3717016475169
 20
-6.198908921707886
 10
59.40781585327929
 20
-6.158546916713417
 10
59.4432737563212
 20
-6.117607069063427
 10
59.4780677040903
 20
-6.076101528759057
 10
59.5121903805146
 20
-6.034042548393924
 10
59.54563533217498
 20
-5.991442643583922
 10
59.5783962419585
 20
-5.948314371504457
 10
59.61046679275209
 20
-5.904670289330946
 10
59.6418407344111
 20
-5.860522966251025
 10
59.67251261332029
 20
-5.815885114326914
 10
59.70247749844361
 20
-5.770769539356547
 10
59.7317304678536
 20
-5.725189048771666
 10
59.7602666001001
 20
-5.679156450036008
 10
59.78808131325401
 20
-5.632684573338385
 10
59.81517096088129
 20
-5.585786311483165
 10
59.8415320562883
 20
-5.538474567966543
 10
59.86716111278099
 20
-5.490762246284721
 10
59.8920546801377
 20
-5.442662248291436
 10
59.916210040709
 20
-5.394187442850457
 10
59.9396251548206
 20
-5.345350668294195
 10
59.9622980083312
 20
-5.296164761805297
 10
59.98422658709928
 20
-5.246642560566355
 10
60.00540903169639
 20
-5.196796875981495
 10
60.02584445524512
 20
-5.146640357406956
 10
60.04553234786428
 20
-5.096185591383337
 10
60.06447220049871
 20
-5.045445164313615
 10
60.0826635042317
 20
-4.994431662561653
 10
60.1001060710155
 20
-4.943157581868915
 10
60.11680071894709
 20
-4.891635133813146
 10
60.13274846281309
 20
-4.839876474421425
 10
60.1479503174001
 20
-4.787893759720825
 10
60.1624072999367
 20
-4.735699144694375
 10
60.1761208728071
 20
-4.683304593989134
 10
60.18909345815259
 20
-4.630721661887606
 10
60.2013276029455
 20
-4.577961849298023
 10
60.21282585415828
 20
-4.525036657128617
 10
60.2235907619945
 20
-4.471957584777735
 10
60.2336253436819
 20
-4.418735913405836
 10
60.24293356757209
 20
-4.365382479718457
 10
60.25151951771089
 20
-4.311908066357886
 10
60.25938727814398
 20
-4.258323455966404
 10
60.26654093443291
 20
-4.204639429670506
 10
60.2729849832994
 20
-4.150866357366004
 10
60.27872488745629
 20
-4.097013642793216
 10
60.2837662482075
 20
-4.043090551077765
 10
60.288114666857
 20
-3.989106347345287
 10
60.29177574489589
 20
-3.935070296787615
 10
60.2947554071008
 20
-3.880991778772587
 10
60.29706056482579
 20
-3.826880521102255
 10
60.2986983169589
 20
-3.772746317810676
 10
60.29967576238771
 20
-3.718598962931904
 10
60.29999999998899
 20
-3.664458250500186
  0
LWPOLYLINE
  5
7B5
330
1E
100
AcDbEntity
  8
1
100
AcDbPolyline
 90
       68
 70
     0
 43
0.0
 10
54.2356565226
 20
-6.749815931600042
 10
54.2426544043373
 20
-6.749616241769876
 10
54.24965109971
 20
-6.749341312603338
 10
54.25635393114159
 20
-6.749005097076034
 10
54.26276210935609
 20
-6.748614977120904
 10
54.26916610111438
 20
-6.748156049432273
 10
54.27527416269179
 20
-6.747652158499644
 10
54.2813765986349
 20
-6.747082401179401
 10
54.28718240293861
 20
-6.746477121592372
 10
54.2929815382973
 20
-6.745809356197842
 10
54.2987732406482
 20
-6.745077766921513
 10
54.3042677742726
 20
-6.744322419246006
 10
54.3097540636523
 20
-6.743506965042046
 10
54.31494296417029
 20
-6.742677600140532
 10
54.3201224518881
 20
-6.741791600176383
 10
54.3252915357212
 20
-6.740847647892372
 10
54.3301630021093
 20
-6.739901737889331
 10
54.3350234695557
 20
-6.738901851201652
 10
54.33987210314999
 20
-6.737846878144026
 10
54.3444239651091
 20
-6.736802647396562
 10
54.3489639088414
 20
-6.735707712292574
 10
54.35349123827659
 20
-6.734561147680213
 10
54.35800525734429
 20
-6.733362028407616
 10
54.36222444270001
 20
-6.732189301061792
 10
54.36643072755209
 20
-6.730968807116582
 10
54.3706232444464
 20
-6.729699774422716
 10
54.3748008967607
 20
-6.728381423152441
 10
54.3789625809943
 20
-6.727012973247584
 10
54.3828314393769
 20
-6.725689865088795
 10
54.38668452932839
 20
-6.724321801719206
 10
54.390520953662
 20
-6.722908148922603
 10
54.39433981519059
 20
-6.721448272482803
 10
54.39814021672749
 20
-6.719941538183594
 10
54.4016518475634
 20
-6.718499916491712
 10
54.4051460694326
 20
-6.717016837210967
 10
54.4086221639972
 20
-6.715491792552336
 10
54.41207941291899
 20
-6.713924274726835
 10
54.41551709786009
 20
-6.712313775945496
 10
54.41893450017679
 20
-6.710659788747394
 10
54.42233082604889
 20
-6.708961886389298
 10
54.42570510851068
 20
-6.707219828035545
 10
54.4290563563057
 20
-6.705433398931798
 10
54.4323835781772
 20
-6.703602384323697
 10
54.43543267786647
 20
-6.701872458337374
 10
54.4384596814919
 20
-6.700104190439436
 10
54.44146380940328
 20
-6.698297411719787
 10
54.44444428195059
 20
-6.696451953268317
 10
54.44740031948359
 20
-6.694567646174892
 10
54.45033114235219
 20
-6.692644321529437
 10
54.4532359709063
 20
-6.690681810421806
 10
54.45611402549561
 20
-6.688679943941909
 10
54.45896452647018
 20
-6.68663855317961
 10
54.46178669417979
 20
-6.684557469224834
 10
54.46457974898319
 20
-6.682436524353294
 10
54.46734291268789
 20
-6.680275743501756
 10
54.4700754101396
 20
-6.678075555673097
 10
54.4727764665666
 20
-6.675836440757595
 10
54.4754453071973
 20
-6.673558878645547
 10
54.4782992979879
 20
-6.671048689683235
 10
54.4811135856275
 20
-6.668494552006737
 10
54.4838871850618
 20
-6.665897075754354
 10
54.486619111237
 20
-6.663256871064397
 10
54.4893083790991
 20
-6.660574548075135
 10
54.491954003594
 20
-6.657850716924878
 10
54.4943565299058
 20
-6.655300097341852
 10
54.49672025486229
 20
-6.652715109629784
 10
54.4990444036917
 20
-6.650096233678943
 10
54.5003750568456
 20
-6.648560682946316
  0
LWPOLYLINE
  5
7FB
330
1E
100
AcDbEntity
  8
1
100
AcDbPolyline
 90
       62
 70
     0
 43
0.0
 10
54.6404449572
 20
-6.364014533300067
 10
54.6446295428349
 20
-6.364037780437686
 10
54.6488141362854
 20
-6.364107500396187
 10
54.6529981286886
 20
-6.364223660994037
 10
54.65718091118169
 20
-6.364386230049722
 10
54.6613618749021
 20
-6.364595175381727
 10
54.6655404109869
 20
-6.364850464808516
 10
54.6697159105733
 20
-6.365152066148562
 10
54.6738877647986
 20
-6.365499947220355
 10
54.67805537174321
 20
-6.365894072454512
 10
54.68221820497809
 20
-6.366334369447213
 10
54.6863757844065
 20
-6.366820743187557
 10
54.69052763060389
 20
-6.367353098336584
 10
54.69467326414569
 20
-6.367931339555367
 10
54.6988122056074
 20
-6.368555371504935
 10
54.7029439755645
 20
-6.369225098846351
 10
54.7070680945924
 20
-6.369940426240685
 10
54.7111840831771
 20
-6.370701257889397
 10
54.7152914573291
 20
-6.371507475057857
 10
54.71938972659838
 20
-6.372358925897667
 10
54.72347840003109
 20
-6.373255455978882
 10
54.72755698667341
 20
-6.374196910871584
 10
54.7318958080419
 20
-6.375250472550678
 10
54.7362219984519
 20
-6.376354785554245
 10
54.7405349620673
 20
-6.377509662461585
 10
54.7448341032185
 20
-6.378714915607724
 10
54.74911884109999
 20
-6.379970335496577
 10
54.7533886213089
 20
-6.381275673855767
 10
54.7576428921576
 20
-6.382630678424956
 10
54.7618811019585
 20
-6.384035096943817
 10
54.7661026990239
 20
-6.385488677152014
 10
54.7703071316663
 20
-6.386991166789224
 10
54.77449384819809
 20
-6.388542313595092
 10
54.77866229769361
 20
-6.390141864310725
 10
54.78281194834259
 20
-6.391789540629787
 10
54.7869422883755
 20
-6.393485037985245
 10
54.7913090445882
 20
-6.395338559528516
 10
54.7956528115437
 20
-6.397245354503826
 10
54.7999729765297
 20
-6.399205056105362
 10
54.80426892683428
 20
-6.401217297527294
 10
54.80854004974538
 20
-6.403281711963805
 10
54.81278574056729
 20
-6.405397922434275
 10
54.81700542685921
 20
-6.407565511018263
 10
54.8211985442918
 20
-6.409784049499827
 10
54.82560872939361
 20
-6.412188147978064
 10
54.8299878253908
 20
-6.414648378364915
 10
54.8343351623934
 20
-6.417164232344624
 10
54.83865007051189
 20
-6.419735201601412
 10
54.842931892416
 20
-6.422360775605142
 10
54.8471800399654
 20
-6.425040431627086
 10
54.85139394871679
 20
-6.427773642760477
 10
54.8558041949737
 20
-6.430716217422447
 10
54.86017499975339
 20
-6.433717256277025
 10
54.8645056992405
 20
-6.436776139626226
 10
54.8687956295774
 20
-6.439892247670897
 10
54.87304410781
 20
-6.443064914925817
 10
54.87747060313227
 20
-6.446464806155144
 10
54.88184949387449
 20
-6.449925563890485
 10
54.8861799169981
 20
-6.453446252910013
 10
54.89067375367771
 20
-6.457206454117056
 10
54.8951122042334
 20
-6.461030615846642
 10
54.89552446916839
 20
-6.461391526046232
  0
LWPOLYLINE
  5
83B
330
1E
100
AcDbEntity
  8
1
100
AcDbPolyline
 90
      112
 70
     0
 43
0.0
 10
54.2898150226
 20
-6.431222313600024
 10
54.28932714490979
 20
-6.430664099842542
 10
54.2888499181464
 20
-6.430094656297755
 10
54.28838484530778
 20
-6.429513871783174
 10
54.28793342939229
 20
-6.428921635116325
 10
54.2874971733981
 20
-6.428317835114722
 10
54.2870775803232
 20
-6.427702360595914
 10
54.286676153166
 20
-6.427075100377383
 10
54.2862943949245
 20
-6.426435943276683
 10
54.28593380859688
 20
-6.425784778111326
 10
54.2857059221076
 20
-6.425343941949125
 10
54.28548855868978
 20
-6.424897686511916
 10
54.2852821636762
 20
-6.424445978856722
 10
54.2850871823998
 20
-6.423988786040612
 10
54.2849040597334
 20
-6.423526077387503
 10
54.2847332048165
 20
-6.423057998358784
 10
54.2845749661323
 20
-6.422584993404182
 10
54.284429686278
 20
-6.422107535988238
 10
54.2842977078502
 20
-6.421626099575447
 10
54.2841793734461
 20
-6.421141157630352
 10
54.28407502566249
 20
-6.420653183617491
 10
54.2839850070964
 20
-6.420162651001382
 10
54.28390966034481
 20
-6.419670033246543
 10
54.2838493280045
 20
-6.419175803817513
 10
54.2838043526725
 20
-6.418680436178813
 10
54.2837750769458
 20
-6.418184403794974
 10
54.2837618434213
 20
-6.417688180130514
 10
54.2837649946959
 20
-6.417192238649976
 10
54.28378487336662
 20
-6.416697052817866
 10
54.283821818855
 20
-6.416203095536307
 10
54.28387588505178
 20
-6.415710789135874
 10
54.28394661775691
 20
-6.415220465956974
 10
54.2840335103936
 20
-6.414732449063356
 10
54.28413605638509
 20
-6.414247061518782
 10
54.28425374915438
 20
-6.413764626387012
 10
54.2843860821249
 20
-6.413285466731802
 10
54.2845325487197
 20
-6.4128099056169
 10
54.28469264236209
 20
-6.412338266106082
 10
54.2848658564752
 20
-6.411870871263084
 10
54.28505168448221
 20
-6.411408044151662
 10
54.2852496198063
 20
-6.410950107835586
 10
54.28545915587079
 20
-6.410497385378613
 10
54.2856797860988
 20
-6.410050199844482
 10
54.2859110039135
 20
-6.409608874296973
 10
54.28627658495638
 20
-6.408958552959455
 10
54.28666343060122
 20
-6.408322493913842
 10
54.28707039687568
 20
-6.407700354115692
 10
54.287496353316
 20
-6.407091756293763
 10
54.2879401694584
 20
-6.406496323176832
 10
54.288400714839
 20
-6.405913677493652
 10
54.28887685899421
 20
-6.405343441973004
 10
54.2893674714602
 20
-6.404785239343656
 10
54.2898714217731
 20
-6.404238692334362
 10
54.29038757946917
 20
-6.403703423673913
 10
54.2910928251054
 20
-6.403006624151084
 10
54.29181508652519
 20
-6.402328310477384
 10
54.2925522394526
 20
-6.401667665077371
 10
54.29330334377111
 20
-6.401024033917481
 10
54.2940676124099
 20
-6.400396784100922
 10
54.2948442582979
 20
-6.399785282730915
 10
54.29563249436418
 20
-6.399188896910656
 10
54.2964315335376
 20
-6.398606993743348
 10
54.2972405887473
 20
-6.398038940332212
 10
54.29826479375689
 20
-6.397347385609188
 10
54.2993018817765
 20
-6.396675246102395
 10
54.30035031555821
 20
-6.396021285685286
 10
54.3014087228156
 20
-6.395384368974784
 10
54.30247642168339
 20
-6.394763782234164
 10
54.30355291089679
 20
-6.394158922020696
 10
54.30485559542849
 20
-6.393452999133476
 10
54.30616935005178
 20
-6.392767810739852
 10
54.30749330858168
 20
-6.392102314091402
 10
54.3088266048332
 20
-6.391455466439665
 10
54.31039276338739
 20
-6.390722989969852
 10
54.3119690771745
 20
-6.390012821714285
 10
54.3137813771375
 20
-6.389226518681193
 10
54.3156042206496
 20
-6.388465828363256
 10
54.3174369206596
 20
-6.387729621732492
 10
54.3192787913377
 20
-6.387016770961344
 10
54.3213610037263
 20
-6.386241327117246
 10
54.3234529782345
 20
-6.385492409793585
 10
54.3257876560542
 20
-6.384689437646206
 10
54.32813184306009
 20
-6.383915032116786
 10
54.3307201648423
 20
-6.383094010402706
 10
54.3333179269928
 20
-6.382303808404344
 10
54.3361618000075
 20
-6.381475244226112
 10
54.3392533622811
 20
-6.380614961426032
 10
54.34235493547529
 20
-6.379791207023016
 10
54.34570497203278
 20
-6.378942238698636
 10
54.34930418317229
 20
-6.378073452554586
 10
54.3531535357639
 20
-6.377190797183722
 10
54.3570125310214
 20
-6.376351407447475
 10
54.3611222742157
 20
-6.375504444367521
 10
54.36548332926021
 20
-6.374655126636742
 10
54.3703389594428
 20
-6.373764885696521
 10
54.37544725771129
 20
-6.372886876121052
 10
54.3808086114491
 20
-6.372026320782902
 10
54.38642323547989
 20
-6.371188087807625
 10
54.3922910923329
 20
-6.370376493576456
 10
54.39865687163079
 20
-6.369565313149945
 10
54.40527599060761
 20
-6.368793696307974
 10
54.4121483405594
 20
-6.368066082688954
 10
54.4195194458754
 20
-6.367364310338784
 10
54.42738942299829
 20
-6.366699420421847
 10
54.43551194833371
 20
-6.366099205470995
 10
54.44413296807939
 20
-6.365553278420094
 10
54.45300581137649
 20
-6.365084702033882
 10
54.46237630083451
 20
-6.364687258259122
 10
54.4722437700416
 20
-6.364371537019675
 10
54.48236067865829
 20
-6.364153079023852
 10
54.49297267066889
 20
-6.364033918343687
 10
54.49937938169959
 20
-6.364014533346737
  0
LWPOLYLINE
  5
8AD
330
1E
100
AcDbEntity
  8
1
100
AcDbPolyline
 90
        2
 70
     0
 43
0.0
 10
53.73050115089998
 20
-6.750001989000049
 10
53.90404269720001
 20
-6.749815931601105
  0
LWPOLYLINE
  5
8B1
330
1E
100
AcDbEntity
  8
1
100
AcDbPolyline
 90
        2
 70
     0
 43
0.0
 10
53.7305011635
 20
6.750001988899942
 10
53.90404269720001
 20
6.749815931601042
  0
LWPOLYLINE
  5
8B5
330
1E
100
AcDbEntity
  8
1
100
AcDbPolyline
 90
       79
 70
     0
 43
0.0
 10
57.7492616564
 20
-5.375546959200053
 10
57.7211459063396
 20
-5.384524481110655
 10
57.69292244467649
 20
-5.393167153152131
 10
57.66459581342498
 20
-5.401472627836317
 10
57.6361705546
 20
-5.409438557675017
 10
57.60765121021599
 20
-5.417062595180055
 10
57.5790423221711
 20
-5.424342393007877
 10
57.55034829229749
 20
-5.431275777574707
 10
57.52378937826421
 20
-5.437366917294125
 10
57.4971643963796
 20
-5.443160237012013
 10
57.47047642579859
 20
-5.448654502286997
 10
57.4437285456759
 20
-5.453848478677686
 10
57.41692383516629
 20
-5.458740931742717
 10
57.39006541614199
 20
-5.463330666606655
 10
57.36315665654879
 20
-5.467616716313027
 10
57.3362010122632
 20
-5.471598195348494
 10
57.3092019392714
 20
-5.475274218301684
 10
57.2821628935597
 20
-5.478643899761205
 10
57.2550873311146
 20
-5.481706354315685
 10
57.2279787101153
 20
-5.484460714293865
 10
57.20084051978679
 20
-5.486906363188722
 10
57.17367627238179
 20
-5.489042870786707
 10
57.146489480697
 20
-5.490869811276095
 10
57.119283657529
 20
-5.492386758845186
 10
57.0920623156746
 20
-5.493593287682275
 10
57.06482896831978
 20
-5.494488975746262
 10
57.0375871470321
 20
-5.495073579033165
 10
57.0103404093271
 20
-5.495347104860867
 10
56.98309231467939
 20
-5.495309579523126
 10
56.9558464225637
 20
-5.494961029313699
 10
56.9286062924548
 20
-5.494301480526355
 10
56.9013754838069
 20
-5.493330959652066
 10
56.874157544546
 20
-5.492049604205422
 10
56.84695599187222
 20
-5.490457847612796
 10
56.81977433792241
 20
-5.488556172064153
 10
56.79261609483329
 20
-5.486345059749464
 10
56.76548477474149
 20
-5.483824992858705
 10
56.73838388978388
 20
-5.480996453581842
 10
56.7113169382868
 20
-5.477859977510735
 10
56.68428734388459
 20
-5.474416389053925
 10
56.6572985050764
 20
-5.470666609812754
 10
56.6303538203425
 20
-5.466611561461794
 10
56.6034566881631
 20
-5.462252165675586
 10
56.5766105070182
 20
-5.457589344128695
 10
56.54981866777429
 20
-5.452624035108126
 10
56.5230844576031
 20
-5.447357403148067
 10
56.49641108878149
 20
-5.441790776192797
 10
56.4698017719244
 20
-5.435925485813126
 10
56.4410510165894
 20
-5.429235932237618
 10
56.412383283379
 20
-5.422199119670237
 10
56.3838026474911
 20
-5.414816751314694
 10
56.3553130327754
 20
-5.407090757481245
 10
56.32691821469119
 20
-5.399023291149124
 10
56.2986219624726
 20
-5.390616514638464
 10
56.27042804535378
 20
-5.381872590269431
 10
56.24234023256899
 20
-5.372793680362157
 10
56.2143622782706
 20
-5.363381962253004
 10
56.18649772203969
 20
-5.353639826918198
 10
56.1587499437768
 20
-5.343569824321197
 10
56.1311223195802
 20
-5.333174508211157
 10
56.10361822554811
 20
-5.322456432337236
 10
56.0741404535417
 20
-5.310555862100707
 10
56.0448140486271
 20
-5.298287147364303
 10
56.0156429097647
 20
-5.285653778035376
 10
55.98663077981689
 20
-5.272659391586007
 10
55.95778140008389
 20
-5.259307626964956
 10
55.9290985118657
 20
-5.245602123120985
 10
55.90058585639689
 20
-5.231546519014724
 10
55.8722470052675
 20
-5.217144484210827
 10
55.84208026514971
 20
-5.201333580188355
 10
55.8121201314637
 20
-5.185133967567197
 10
55.7823702065587
 20
-5.168550302367706
 10
55.7528340927841
 20
-5.151587240610247
 10
55.72351540392951
 20
-5.134249477602503
 10
55.6944179054154
 20
-5.116542229360454
 10
55.6636287382788
 20
-5.097253536048997
 10
55.6331003461044
 20
-5.077557592927706
 10
55.6028374319119
 20
-5.057461187703966
 10
55.58406826112531
 20
-5.044706245301016
  0
LWPOLYLINE
  5
906
330
1E
100
AcDbEntity
  8
SK1
100
AcDbPolyline
 90
       59
 70
     0
 43
0.0
 10
-19.0
 20
-5.055689863900056
 10
-18.93141539859269
 20
-4.970396770372456
 10
-18.86399952892669
 20
-4.884167542241825
 10
-18.7977673530548
 20
-4.797021375551625
 10
-18.732733824081
 20
-4.708977459110625
 10
-18.6720747662136
 20
-4.624520808917305
 10
-18.6125195902788
 20
-4.539284303831686
 10
-18.55407773867407
 20
-4.453281664848726
 10
-18.49675865386639
 20
-4.366526625568127
 10
-18.4405717813734
 20
-4.279033474784247
 10
-18.38552657089719
 20
-4.190817262663906
 10
-18.3316324724425
 20
-4.101893094507714
 10
-18.2816452741618
 20
-4.017009794445903
 10
-18.2327072575737
 20
-3.931517590571555
 10
-18.1848256681085
 20
-3.845429480621476
 10
-18.13800774049159
 20
-3.758758464422427
 10
-18.0922606823425
 20
-3.671517559967046
 10
-18.0475913707464
 20
-3.583720006767013
 10
-18.00400646197839
 20
-3.495379192317865
 10
-17.9615126082778
 20
-3.406508506819585
 10
-17.92011640325879
 20
-3.317121365814037
 10
-17.8798240295332
 20
-3.227231362506207
 10
-17.84278908315728
 20
-3.141885833913366
 10
-17.8067491445978
 20
-3.056115472645616
 10
-17.7717092007282
 20
-2.969931824857686
 10
-17.73767388637989
 20
-2.883346585055654
 10
-17.7046477301055
 20
-2.796371492531704
 10
-17.6726352604346
 20
-2.709018286587614
 10
-17.64164091123737
 20
-2.621298740275884
 10
-17.611668759672
 20
-2.533224753834546
 10
-17.58272279888549
 20
-2.444808257455595
 10
-17.5548070216223
 20
-2.356061181456766
 10
-17.52792528134289
 20
-2.266995499652816
 10
-17.5020810888046
 20
-2.177623292881126
 10
-17.47727790300269
 20
-2.087956658143836
 10
-17.45351917857199
 20
-1.998007693553745
 10
-17.43080816080238
 20
-1.907788550545086
 10
-17.4091477974546
 20
-1.817311456334764
 10
-17.38972396013769
 20
-1.731931862716735
 10
-17.37123582517829
 20
-1.646344810051096
 10
-17.3536855998225
 20
-1.560560553347965
 10
-17.33707528601938
 20
-1.474589397549543
 10
-17.3214068779
 20
-1.388441649499567
 10
-17.3066823549055
 20
-1.302127617045043
 10
-17.29290346153339
 20
-1.215657624079495
 10
-17.28007175334969
 20
-1.129042007400277
 10
-17.26818878057029
 20
-1.042291104170175
 10
-17.2572560708536
 20
-0.9554152631971815
 10
-17.2472748958608
 20
-0.8684249654455975
 10
-17.23824636500729
 20
-0.7813307756378568
 10
-17.2301715851323
 20
-0.6941432598263081
 10
-17.2230516268414
 20
-0.606872934121766
 10
-17.2168872831238
 20
-0.5195299319903251
 10
-17.21167921858759
 20
-0.432124209947941
 10
-17.20742809714568
 20
-0.3446657235522769
 10
-17.2041345250056
 20
-0.2571647474308049
 10
-17.2017988159139
 20
-0.1696331733016079
 10
-17.2004211911869
 20
-0.0820834039559745
 10
-17.20000000000618
 20
-0.0000100000000356
  0
LWPOLYLINE
  5
943
330
1E
100
AcDbEntity
  8
SK1
100
AcDbPolyline
 90
       59
 70
     0
 43
0.0
 10
-17.19999999999999
 20
0.0000000000000021
 10
-17.20047921966028
 20
0.0875555627521656
 10
-17.20191673112308
 20
0.1751045579000571
 10
-17.20431231311128
 20
0.2626345824587701
 10
-17.20766574413989
 20
0.350133234592644
 10
-17.21197669390878
 20
0.4375887141668023
 10
-17.21724454525249
 20
0.5249908072856894
 10
-17.2234686342878
 20
0.6123295583841794
 10
-17.23064829561369
 20
0.6995950098058003
 10
-17.238782717277
 20
0.7867770019038673
 10
-17.2478708207214
 20
0.8738650075790841
 10
-17.2579114991339
 20
0.9608484607863687
 10
-17.2689036413338
 20
1.047716797735358
 10
-17.2808459553627
 20
1.134459547956629
 10
-17.2937369078677
 20
1.221066365593352
 10
-17.3075749486864
 20
1.307526913466209
 10
-17.32235851949528
 20
1.393830854953491
 10
-17.33808585497159
 20
1.47996786757686
 10
-17.3547549714684
 20
1.565927643775149
 10
-17.3723638749106
 20
1.6516998766997
 10
-17.390910559839
 20
1.7372742622707
 10
-17.4103927980588
 20
1.822640550582829
 10
-17.4321150453376
 20
1.913102809526399
 10
-17.4548877750391
 20
2.00330639771644
 10
-17.4787080324998
 20
2.093239089705707
 10
-17.5035725495729
 20
2.18288873986812
 10
-17.52947786989849
 20
2.272243250501581
 10
-17.5564205345542
 20
2.361290524556518
 10
-17.5843970209893
 20
2.450018484859852
 10
-17.6134034562442
 20
2.53841516370055
 10
-17.64343584738019
 20
2.626468630847329
 10
-17.67449020134719
 20
2.714166956103881
 10
-17.70656242485809
 20
2.80149824500484
 10
-17.7396480685235
 20
2.888450730023078
 10
-17.77374260391018
 20
2.97501267180781
 10
-17.80884150242198
 20
3.061172331076981
 10
-17.84494011086769
 20
3.14691802105454
 10
-17.8820334294471
 20
3.232238201030221
 10
-17.92238728465719
 20
3.322100626324318
 10
-17.96384463678789
 20
3.411459430233128
 10
-18.0063992791401
 20
3.500301029963861
 10
-18.05004460692669
 20
3.588612014807631
 10
-18.09477396801959
 20
3.676378994519901
 10
-18.1405807039595
 20
3.76358858309872
 10
-18.1874579137708
 20
3.850227557057801
 10
-18.23539838350869
 20
3.936282902638531
 10
-18.2843948785188
 20
4.021741619960177
 10
-18.334440148707
 20
4.106590712156721
 10
-18.3883950677773
 20
4.195477996568231
 10
-18.44350060142859
 20
4.283656529895171
 10
-18.49974729973979
 20
4.371111206800797
 10
-18.557125713175
 20
4.4578269924325
 10
-18.61562639656519
 20
4.543789651324611
 10
-18.67523990750769
 20
4.628985454408381
 10
-18.73595680364378
 20
4.713400680645277
 10
-18.8010506171376
 20
4.801400163395387
 10
-18.8673423336646
 20
4.888500939914611
 10
-18.934816995596
 20
4.974683817706512
 10
-18.99999368039249
 20
5.055682113896011
  0
LWPOLYLINE
  5
980
330
1E
100
AcDbEntity
  8
SK1
100
AcDbPolyline
 90
       59
 70
     0
 43
0.0
 10
-29.0
 20
-5.055689863900052
 10
-29.0685846014156
 20
-4.970396770378056
 10
-29.1360004711006
 20
-4.884167542261454
 10
-29.2022326469952
 20
-4.797021375587953
 10
-29.2672661759882
 20
-4.708977459160592
 10
-29.3279252338661
 20
-4.624520808973923
 10
-29.38748040980339
 20
-4.539284303888925
 10
-29.4459222614025
 20
-4.453281664901131
 10
-29.5032413461967
 20
-4.366526625610832
 10
-29.5594282186701
 20
-4.279033474813833
 10
-29.6144734291254
 20
-4.190817262679711
 10
-29.66836752756229
 20
-4.101893094511903
 10
-29.7183547258333
 20
-4.017009794443495
 10
-29.7672927424189
 20
-3.931517590567016
 10
-29.8151743318863
 20
-3.845429480617641
 10
-29.86199225950759
 20
-3.758758464420443
 10
-29.90773931766061
 20
-3.671517559966456
 10
-29.95240862925879
 20
-3.583720006766696
 10
-29.99599353802679
 20
-3.495379192316721
 10
-30.0384873917247
 20
-3.406508506816545
 10
-30.0798835967384
 20
-3.317121365808185
 10
-30.1201759704593
 20
-3.227231362497892
 10
-30.15721091683539
 20
-3.141885833904574
 10
-30.1932508554037
 20
-3.056115472639596
 10
-30.2282907992929
 20
-2.969931824858593
 10
-30.26232611366719
 20
-2.883346585065903
 10
-30.2953522699671
 20
-2.796371492551176
 10
-30.3273647396563
 20
-2.709018286613673
 10
-30.35835908885998
 20
-2.621298740304164
 10
-30.38833124042399
 20
-2.533224753861943
 10
-30.4172772012072
 20
-2.444808257480975
 10
-30.44519297847069
 20
-2.356061181480963
 10
-30.4720747187566
 20
-2.266995499677614
 10
-30.497918911301
 20
-2.177623292906766
 10
-30.5227220971007
 20
-2.087956658168605
 10
-30.54648082151329
 20
-1.998007693574043
 10
-30.56919183925
 20
-1.907788550557464
 10
-30.5908522025646
 20
-1.817311456338794
 10
-30.6102760398632
 20
-1.731931862715434
 10
-30.62876417482931
 20
-1.646344810049563
 10
-30.6463144002139
 20
-1.560560553350914
 10
-30.66292471405169
 20
-1.474589397558655
 10
-30.6785931221949
 20
-1.388441649513314
 10
-30.6933176451865
 20
-1.302127617058955
 10
-30.70709653853139
 20
-1.215657624089184
 10
-30.71992824667999
 20
-1.129042007404024
 10
-30.7318112194336
 20
-1.042291104168943
 10
-30.7427439291492
 20
-0.955415263194402
 10
-30.7527251041644
 20
-0.8684249654446157
 10
-30.761753635052
 20
-0.7813307756402894
 10
-30.7698284149611
 20
-0.6941432598320202
 10
-30.77694837327511
 20
-0.6068729341290702
 10
-30.7831127170016
 20
-0.5195299319974877
 10
-30.7883207815328
 20
-0.4321242099538785
 10
-30.7925719029561
 20
-0.3446657235565612
 10
-30.79586547506599
 20
-0.2571647474335782
 10
-30.79820118412369
 20
-0.1696331733031502
 10
-30.79957880882339
 20
-0.082083403956568
 10
-30.7999999999937
 20
-0.0000100000000339
  0
LWPOLYLINE
  5
9BD
330
1E
100
AcDbEntity
  8
SK1
100
AcDbPolyline
 90
       59
 70
     0
 43
0.0
 10
-30.8
 20
0.0000000000000038
 10
-30.799520780356
 20
0.0875555627532302
 10
-30.7980832689286
 20
0.1751045579026978
 10
-30.7956876869749
 20
0.2626345824626978
 10
-30.79233425595989
 20
0.3501332345967678
 10
-30.788023306173
 20
0.437588714169694
 10
-30.78275545479411
 20
0.5249908072868063
 10
-30.7765313657252
 20
0.6123295583840628
 10
-30.7693517043855
 20
0.699595009806068
 10
-30.7612172827363
 20
0.7867770019065488
 10
-30.7521291793232
 20
0.8738650075854215
 10
-30.7420885009462
 20
0.9608484607966786
 10
-30.7310963587736
 20
1.047716797749042
 10
-30.7191540447571
 20
1.134459547972491
 10
-30.7062630922512
 20
1.221066365609942
 10
-30.6924250514208
 20
1.307526913481892
 10
-30.67764148059159
 20
1.393830854966448
 10
-30.6619141450893
 20
1.47996786758564
 10
-30.6452450285653
 20
1.565927643779159
 10
-30.6276361250989
 20
1.651699876699259
 10
-30.60908944015331
 20
1.737274262267023
 10
-30.5896072019252
 20
1.822640550577673
 10
-30.5678849546471
 20
1.913102809521831
 10
-30.5451122249559
 20
2.003306397714929
 10
-30.5212919675145
 20
2.093239089709903
 10
-30.4964274504667
 20
2.182888739879899
 10
-30.47052213016749
 20
2.272243250521589
 10
-30.4435794655349
 20
2.361290524584131
 10
-30.41560297911519
 20
2.450018484893173
 10
-30.386596543866
 20
2.53841516373673
 10
-30.356564152725
 20
2.626468630882602
 10
-30.3255097987412
 20
2.714166956133551
 10
-30.29343757520249
 20
2.801498245024292
 10
-30.2603519315068
 20
2.888450730031142
 10
-30.226257396097
 20
2.975012671807521
 10
-30.1911584975792
 20
3.061172331075613
 10
-30.1550598891494
 20
3.146918021061261
 10
-30.1179665705973
 20
3.232238201049743
 10
-30.0776127154147
 20
3.322100626356353
 10
-30.03615536329539
 20
3.411459430270111
 10
-29.9936007209312
 20
3.50030102999522
 10
-29.9499553931185
 20
3.588612014826871
 10
-29.905226031996
 20
3.676378994525451
 10
-29.85941929603369
 20
3.763588583093853
 10
-29.8125420862123
 20
3.85022755704833
 10
-29.764601616475
 20
3.936282902629751
 10
-29.7156051214738
 20
4.021741619956662
 10
-29.66555985130039
 20
4.106590712162351
 10
-29.6116049322495
 20
4.195477996586321
 10
-29.5564993986183
 20
4.283656529926611
 10
-29.5002527003246
 20
4.371111206844378
 10
-29.4428742869014
 20
4.457826992484998
 10
-29.3843736035162
 20
4.543789651381572
 10
-29.3247600925711
 20
4.628985454464573
 10
-29.26404319642458
 20
4.713400680694721
 10
-29.1989493829114
 20
4.801400163431021
 10
-29.1326576663617
 20
4.888500939933543
 10
-29.0651830044116
 20
4.974683817711652
 10
-29.0000063196075
 20
5.055682113896011
  0
LWPOLYLINE
  5
9FA
330
1E
100
AcDbEntity
  8
1
100
AcDbPolyline
 90
       40
 70
     0
 43
0.0
 10
44.96555924719999
 20
6.745363171099931
 10
44.96554926451699
 20
6.745536380416021
 10
44.96567927948301
 20
6.745666356709945
 10
44.96590972807009
 20
6.745762763158012
 10
44.9662010462505
 20
6.745835262936544
 10
44.9665136699961
 20
6.745893519221842
 10
44.96681425098328
 20
6.745945770902923
 10
44.9670967615975
 20
6.745993996509661
 10
44.9673626784294
 20
6.746038455033223
 10
44.9676134782813
 20
6.746079405416172
 10
44.96785063795559
 20
6.746117106601121
 10
44.9680756342548
 20
6.746151817530662
 10
44.96828994398138
 20
6.746183797147382
 10
44.96849504393759
 20
6.746213304393882
 10
44.96869241092599
 20
6.746240598212741
 10
44.968883521749
 20
6.746265937546549
 10
44.9691616881787
 20
6.746300848324755
 10
44.9697056971706
 20
6.746362720694611
 10
44.969981508121
 20
6.746391430144331
 10
44.97026547961428
 20
6.746419658761054
 10
44.97055784679438
 20
6.746447530136742
 10
44.97085799630818
 20
6.746475033803124
 10
44.97116531480259
 20
6.746502159291901
 10
44.9714791889244
 20
6.746528896134813
 10
44.97179900532047
 20
6.746555233863571
 10
44.9721241506377
 20
6.746581162009902
 10
44.97256490704359
 20
6.746615077650115
 10
44.9730125928074
 20
6.746648221719802
 10
44.97357972953529
 20
6.746688528983732
 10
44.9759910544243
 20
6.746843137792343
 10
44.9767833516721
 20
6.746889078860242
 10
44.9776775313754
 20
6.746938332633942
 10
44.97867126863789
 20
6.746989967378352
 10
44.9799805039576
 20
6.747053327981624
 10
44.985372483059
 20
6.747271782373601
 10
44.9890807158631
 20
6.747397278150794
 10
45.00070961192498
 20
6.747703080351882
 10
45.0231322258159
 20
6.748061301461043
 10
45.0664669811455
 20
6.748323491683012
 10
45.0747739119001
 20
6.748329761991
  0
LWPOLYLINE
  5
A24
330
1E
100
AcDbEntity
  8
1
100
AcDbPolyline
 90
       35
 70
     0
 43
0.0
 10
53.6406038909
 20
6.74832976199996
 10
53.64072457540849
 20
6.748457978299724
 10
53.6408586417653
 20
6.748564737900704
 10
53.64100489020328
 20
6.748651867681172
 10
53.64116212095549
 20
6.74872119451941
 10
53.6413291342547
 20
6.748774545293722
 10
53.6415047303339
 20
6.748813746882362
 10
53.6416877094261
 20
6.74884062616362
 10
53.6418768717641
 20
6.748857010015782
 10
53.6420710175809
 20
6.74886472531713
 10
53.64226894710939
 20
6.748865598945942
 10
53.6424694605825
 20
6.748861457780503
 10
53.6427724511979
 20
6.748849839589342
 10
53.64317435867288
 20
6.748833736897099
 10
53.64347105844089
 20
6.748826080815932
 10
53.64386031917129
 20
6.748822005004923
 10
53.64424282336599
 20
6.748824424884992
 10
53.6446191033778
 20
6.74883278120316
 10
53.6449896915599
 20
6.74884651470642
 10
53.6453551202652
 20
6.748865066141772
 10
53.6458054616391
 20
6.748894178665992
 10
53.646249612884
 20
6.748928853085292
 10
53.64677588737819
 20
6.748976266144222
 10
53.64755532336371
 20
6.749055324803593
 10
53.64944519808759
 20
6.74925193581958
 10
53.65013920209289
 20
6.749311817535102
 10
53.6508392245253
 20
6.74936310858111
 10
53.65163326512429
 20
6.749411432618829
 10
53.6525227133877
 20
6.749454673472628
 10
53.65359857720921
 20
6.749493943558891
 10
53.65486318248489
 20
6.749525409358767
 10
53.65677300524779
 20
6.74955167275691
 10
53.663773101714
 20
6.749610956637652
 10
53.690098792411
 20
6.74992205100963
 10
53.7304911634985
 20
6.750001989197912
  0
DIMENSION
  5
A49
330
1E
100
AcDbEntity
  8
SK2
100
AcDbDimension
  2
*D4
 10
61.005854085
 20
-42.8653072599385
 30
0.0
 11
6.502927042499996
 21
-42.8653072599385
 31
0.0
 70
   160
 71
     5
 42
109.005854085
  3
ISO-25
100
AcDbAlignedDimension
 13
-48.0
 23
0.0000000000000059
 33
0.0
 14
61.005854085
 24
-4.002248062600026
 34
0.0
 50
180.0
100
AcDbRotatedDimension
1001
ACAD
1000
DSTYLE
1002
{
1070
   271
1070
     0
1002
}
  0
DIMENSION
  5
A4A
330
1E
100
AcDbEntity
  8
2
100
AcDbDimension
  2
*D5
 10
61.005854085
 20
-22.76751608790867
 30
0.0
 11
41.0989390685
 21
-22.76751608790867
 31
0.0
 70
   160
 71
     5
 42
39.813830033
  3
ISO-25
100
AcDbAlignedDimension
 13
21.192024052
 23
-6.750000000000002
 33
0.0
 14
61.005854085
 24
-4.002248062600026
 34
0.0
 50
180.0
100
AcDbRotatedDimension
1001
ACAD
1000
DSTYLE
1002
{
1070
   271
1070
     0
1002
}
  0
LINE
  5
A4B
330
1E
100
AcDbEntity
  8
SK4
100
AcDbLine
 10
-24.0
 20
6.799999999999952
 30
0.0
 11
-24.0
 21
-6.800000000000006
 31
0.0
  0
LINE
  5
A4C
330
1E
100
AcDbEntity
  8
SK4
100
AcDbLine
 10
0.0
 20
0.0
 30
0.0
 11
-51.0
 21
0.0000000000000062
 31
0.0
  0
DIMENSION
  5
A4D
330
1E
100
AcDbEntity
  8
SK2
100
AcDbDimension
  2
*D3
 10
61.005854085
 20
-32.80596121270832
 30
0.0
 11
18.50292704249998
 21
-32.80596121270832
 31
0.0
 70
   160
 71
     5
 42
85.00585408499999
  3
ISO-25
100
AcDbAlignedDimension
 13
-24.0
 23
0.0000000000000029
 33
0.0
 14
61.005854085
 24
-4.002248062600026
 34
0.0
 50
180.0
100
AcDbRotatedDimension
1001
ACAD
1000
DSTYLE
1002
{
1070
   271
1070
     0
1002
}
  0
TEXT
  5
A5B
330
1E
100
AcDbEntity
  8
6
100
AcDbText
 10
-24.10912629450792
 20
-60.80185143874911
 30
0.0
 40
5.0
  1
15B1E016060W3R00
 41
1.199999999999999
100
AcDbText
  0
LINE
  5
1F54
330
1E
100
AcDbEntity
  8
SK4
100
AcDbLine
 10
57.01425699999999
 20
-0.7095183389386434
 30
0.0
 11
57.01425699999999
 21
8.728594654069969
 31
0.0
  0
LINE
  5
1F55
330
1E
100
AcDbEntity
  8
SK4
100
AcDbLine
 10
52.16604498651673
 20
4.00224806259995
 30
0.0
 11
61.96425168649803
 21
4.002248062599949
 31
0.0
  0
TEXT
  5
2430
330
1E
100
AcDbEntity
  8
6
100
AcDbText
 10
29.42362663460034
 20
14.2212872555018
 30
0.0
 40
2.5
  1
RHHW0802M0TN
100
AcDbText
  0
TEXT
  5
2530
330
1E
100
AcDbEntity
  8
6
100
AcDbText
 10
82.64862369513867
 20
-4.997632715220786
 30
0.0
 40
3.5
  1
Z=2
 50
90.0
100
AcDbText
  0
LINE
  5
2674
330
1E
100
AcDbEntity
  8
NOCUT
100
AcDbLine
 10
0.0
 20
8.0
 30
0.0
 11
0.0
 21
0.0
 31
0.0
  0
LINE
  5
2675
330
1E
100
AcDbEntity
  8
NOCUT
100
AcDbLine
 10
60.30000000000001
 20
0.0
 30
0.0
 11
0.0
 21
0.0
 31
0.0
  0
LINE
  5
267A
330
1E
100
AcDbEntity
  8
NOCUT
100
AcDbLine
 10
54.64044495720003
 20
6.75
 30
0.0
 11
21.19202405200002
 21
6.75
 31
0.0
  0
LINE
  5
267B
330
1E
100
AcDbEntity
  8
NOCUT
100
AcDbLine
 10
7.80797594789999
 20
7.75
 30
0.0
 11
0.1999999999999886
 21
7.75
 31
0.0
  0
LINE
  5
267E
330
1E
100
AcDbEntity
  8
NOCUT
100
AcDbLine
 10
20.80854155759998
 20
6.764727572499992
 30
0.0
 11
8.191458442400005
 21
7.735272427499991
 31
0.0
  0
LINE
  5
267F
330
1E
100
AcDbEntity
  8
NOCUT
100
AcDbLine
 10
60.30000000000001
 20
4.299999999999997
 30
0.0
 11
60.30000000000001
 21
0.0
 31
0.0
  0
ARC
  5
268B
330
1E
100
AcDbEntity
  8
NOCUT
100
AcDbCircle
 10
7.80797594789999
 20
2.75
 30
0.0
 40
5.0
100
AcDbArc
 50
85.60129464500006
 51
90.0
  0
ARC
  5
268D
330
1E
100
AcDbEntity
  8
NOCUT
100
AcDbCircle
 10
21.19202405200002
 20
11.75
 30
0.0
 40
5.0
100
AcDbArc
 50
265.601294645
 51
270.0
  0
ARC
  5
268F
330
1E
100
AcDbEntity
  8
NOCUT
100
AcDbCircle
 10
54.64044495720003
 20
7.150000000000003
 30
0.0
 40
0.4
100
AcDbArc
 50
270.0
 51
309.6218349071997
  0
ARC
  5
2691
330
1E
100
AcDbEntity
  8
NOCUT
100
AcDbCircle
 10
57.0
 20
4.299999999999997
 30
0.0
 40
3.299999999999998
100
AcDbArc
 50
0.0
 51
129.6218349071996
  0
ARC
  5
2692
330
1E
100
AcDbEntity
  8
NOCUT
100
AcDbCircle
 10
0.1999999999999886
 20
7.950000000000001
 30
0.0
 40
0.2
100
AcDbArc
 50
180.0
 51
270.0
  0
SPLINE
  5
26B3
330
1E
100
AcDbEntity
  8
CUT
100
AcDbSpline
210
0.0
220
0.0
230
1.0
 70
     8
 71
     3
 72
    36
 73
    32
 74
    30
 42
0.0000000001
 43
0.0000000001
 44
0.0000000001
 12
-0.9999657087988667
 22
0.0082813782898709
 32
0.0
 13
0.9999999740769959
 23
-0.0002276971834317
 33
0.0
 40
0.0
 40
0.0
 40
0.0
 40
0.0
 40
0.4315712002300773
 40
0.8583396446410464
 40
1.278075836552181
 40
1.694242322595905
 40
2.111719392132695
 40
2.53222893656893
 40
2.95551909774563
 40
3.380937425806396
 40
3.80791938010656
 40
4.236051793517417
 40
4.665046388460065
 40
5.094695463512015
 40
5.524852381310621
 40
5.955408681473566
 40
6.386284681473566
 40
6.817417560166423
 40
7.248760877542517
 40
7.680276978424026
 40
8.111934625020269
 40
8.543711158947273
 40
8.975584921949828
 40
9.407540305750066
 40
9.839561877231165
 40
10.27163824678285
 40
10.70375721010895
 40
11.13590964847878
 40
11.56808647663256
 40
12.00027828413584
 40
12.43247917467753
 40
12.43247917467753
 40
12.43247917467753
 40
12.43247917467753
 10
57.01425700000005
 20
0.3139350000000078
 30
0.0
 10
56.87040486628831
 20
0.3151263347893807
 30
0.0
 10
56.58429804977848
 20
0.3133375214495508
 30
0.0
 10
56.1582341951761
 20
0.3240411082111469
 30
0.0
 10
55.73901993750688
 20
0.3723684197482587
 30
0.0
 10
55.33418484534919
 20
0.4825674729923645
 30
0.0
 10
54.95095776429914
 20
0.6532479421035394
 30
0.0
 10
54.59278038567809
 20
0.8756365759488007
 30
0.0
 10
54.26308458658176
 20
1.142394698100606
 30
0.0
 10
53.96554993266419
 20
1.447515874860943
 30
0.0
 10
53.70366626835313
 20
1.785724957385141
 30
0.0
 10
53.48052813645791
 20
2.152029289661183
 30
0.0
 10
53.29877618699233
 20
2.541500296324896
 30
0.0
 10
53.16055763097665
 20
2.949165007612154
 30
0.0
 10
53.06749947039474
 20
3.36997282020289
 30
0.0
 10
53.0207028142725
 20
3.798807441599895
 30
0.0
 10
53.02071827055966
 20
4.23051104352082
 30
0.0
 10
53.06754828746854
 20
4.659929823925211
 30
0.0
 10
53.16064796993903
 20
5.081960065164015
 30
0.0
 10
53.2989221962791
 20
5.491603943167949
 30
0.0
 10
53.48075687563238
 20
5.884017762254309
 30
0.0
 10
53.70401508279915
 20
6.254572847675472
 30
0.0
 10
53.96608328237624
 20
6.598900342376891
 30
0.0
 10
54.26388810123474
 20
6.912944817296637
 30
0.0
 10
54.59393725591882
 20
7.193012211051291
 30
0.0
 10
54.95236338366328
 20
7.435803988951091
 30
0.0
 10
55.33496346284937
 20
7.638468560366464
 30
0.0
 10
55.73724783826653
 20
7.79862023130093
 30
0.0
 10
56.15451835402239
 20
7.914382154148196
 30
0.0
 10
56.58181573996307
 20
7.984367331069938
 30
0.0
 10
56.8701900402208
 20
8.000032803641826
 30
0.0
 10
57.01425700000005
 20
8.000000000000008
 30
0.0
 11
57.01425700000005
 21
0.3139350000000078
 31
0.0
 11
56.58268900000002
 21
0.3155970000000039
 31
0.0
 11
56.15618200000007
 21
0.3305330000000097
 31
0.0
 11
55.73973399999999
 21
0.3829690000000099
 31
0.0
 11
55.33822900000001
 21
0.4924600000000014
 31
0.0
 11
54.95637399999998
 21
0.6612020000000101
 31
0.0
 11
54.59864500000001
 21
0.8822410000000003
 31
0.0
 11
54.26923800000003
 21
1.148071000000008
 31
0.0
 11
53.972013
 21
1.45243600000001
 31
0.0
 11
53.71045600000002
 21
1.789929000000005
 31
0.0
 11
53.48763300000001
 21
2.155507000000005
 31
0.0
 11
53.30615599999998
 21
2.544225999999999
 31
0.0
 11
53.16815400000002
 21
2.951109000000009
 31
0.0
 11
53.075243
 21
3.371112000000001
 31
0.0
 11
53.02851400000003
 21
3.799125000000008
 31
0.0
 11
53.02851400000003
 21
4.230001000000008
 31
0.0
 11
53.075243
 21
4.658593999999999
 31
0.0
 11
53.16815400000002
 21
5.079812000000011
 31
0.0
 11
53.30615599999998
 21
5.488666000000002
 31
0.0
 11
53.48763300000001
 21
5.880321999999997
 31
0.0
 11
53.71045600000002
 21
6.250161000000012
 31
0.0
 11
53.972013
 21
6.593822000000008
 31
0.0
 11
54.26923800000003
 21
6.907259000000002
 31
0.0
 11
54.59864500000001
 21
7.186783000000013
 31
0.0
 11
54.95637399999998
 21
7.429104999999997
 31
0.0
 11
55.33822900000001
 21
7.631376000000008
 31
0.0
 11
55.73973399999999
 21
7.791218000000008
 31
0.0
 11
56.15618200000007
 21
7.906751000000006
 31
0.0
 11
56.58268900000002
 21
7.976619000000004
 31
0.0
 11
57.01425700000005
 21
8.000000000000008
 31
0.0
  0
SPLINE
  5
26B4
330
1E
100
AcDbEntity
  8
CUT
100
AcDbSpline
210
0.0
220
0.0
230
1.0
 70
     8
 71
     3
 72
    36
 73
    32
 74
    30
 42
0.0000000001
 43
0.0000000001
 44
0.0000000001
 12
0.9999657087988667
 22
0.0082813782898709
 32
0.0
 13
-0.9999999740769959
 23
-0.0002276971834317
 33
0.0
 40
0.0
 40
0.0
 40
0.0
 40
0.0
 40
0.431571200229992
 40
0.8583396446410322
 40
1.278075836552047
 40
1.694242322595833
 40
2.111719392132571
 40
2.532228936568878
 40
2.955519097745556
 40
3.380937425806322
 40
3.807919380106477
 40
4.236051793517338
 40
4.665046388459956
 40
5.094695463511929
 40
5.524852381310537
 40
5.955408681473482
 40
6.386284681473481
 40
6.817417560166338
 40
7.248760877542435
 40
7.680276978423965
 40
8.111934625020179
 40
8.543711158947186
 40
8.975584921949733
 40
9.407540305749972
 40
9.83956187723105
 40
10.27163824678281
 40
10.70375721010886
 40
11.13590964847874
 40
11.56808647663241
 40
12.00027828413576
 40
12.43247917467737
 40
12.43247917467737
 40
12.43247917467737
 40
12.43247917467737
 10
57.01425700000005
 20
0.3139350000000078
 30
0.0
 10
57.15810913371177
 20
0.3151263347893805
 30
0.0
 10
57.4442159502216
 20
0.3133375214495554
 30
0.0
 10
57.87027980482392
 20
0.3240411082111332
 30
0.0
 10
58.28949406249316
 20
0.3723684197482858
 30
0.0
 10
58.69432915465081
 20
0.4825674729923328
 30
0.0
 10
59.07755623570086
 20
0.6532479421035833
 30
0.0
 10
59.43573361432193
 20
0.8756365759487607
 30
0.0
 10
59.76542941341828
 20
1.142394698100621
 30
0.0
 10
60.06296406733587
 20
1.447515874860936
 30
0.0
 10
60.32484773164687
 20
1.785724957385152
 30
0.0
 10
60.54798586354213
 20
2.152029289661159
 30
0.0
 10
60.7297378130076
 20
2.54150029632493
 30
0.0
 10
60.8679563690234
 20
2.949165007612138
 30
0.0
 10
60.96101452960531
 20
3.36997282020289
 30
0.0
 10
61.00781118572753
 20
3.798807441599895
 30
0.0
 10
61.00779572944033
 20
4.23051104352082
 30
0.0
 10
60.96096571253152
 20
4.65992982392521
 30
0.0
 10
60.86786603006099
 20
5.081960065164031
 30
0.0
 10
60.7295918037208
 20
5.491603943167915
 30
0.0
 10
60.54775712436768
 20
5.884017762254335
 30
0.0
 10
60.32449891720084
 20
6.25457284767546
 30
0.0
 10
60.0624307176238
 20
6.5989003423769
 30
0.0
 10
59.76462589876528
 20
6.91294481729662
 30
0.0
 10
59.43457674408126
 20
7.193012211051334
 30
0.0
 10
59.07615061633669
 20
7.435803988951041
 30
0.0
 10
58.69355053715065
 20
7.638468560366504
 30
0.0
 10
58.29126616173347
 20
7.798620231300889
 30
0.0
 10
57.87399564597766
 20
7.914382154148228
 30
0.0
 10
57.44669826003697
 20
7.984367331069924
 30
0.0
 10
57.15832395977926
 20
8.000032803641826
 30
0.0
 10
57.01425700000005
 20
8.000000000000008
 30
0.0
 11
57.01425700000005
 21
0.3139350000000078
 31
0.0
 11
57.44582499999999
 21
0.3155970000000039
 31
0.0
 11
57.87233200000002
 21
0.3305330000000097
 31
0.0
 11
58.28877999999997
 21
0.3829690000000099
 31
0.0
 11
58.69028500000002
 21
0.4924600000000014
 31
0.0
 11
59.07213999999999
 21
0.6612020000000101
 31
0.0
 11
59.42986900000004
 21
0.8822410000000003
 31
0.0
 11
59.759276
 21
1.148071000000008
 31
0.0
 11
60.05650100000003
 21
1.45243600000001
 31
0.0
 11
60.31805799999999
 21
1.789929000000005
 31
0.0
 11
60.54088100000001
 21
2.155507000000005
 31
0.0
 11
60.72235799999997
 21
2.544225999999999
 31
0.0
 11
60.86036
 21
2.951109000000009
 31
0.0
 11
60.95327100000003
 21
3.371112000000001
 31
0.0
 11
61.0
 21
3.799125000000008
 31
0.0
 11
61.0
 21
4.230001000000008
 31
0.0
 11
60.95327100000003
 21
4.658593999999999
 31
0.0
 11
60.86036
 21
5.079812000000011
 31
0.0
 11
60.72235799999997
 21
5.488666000000002
 31
0.0
 11
60.54088100000001
 21
5.880321999999997
 31
0.0
 11
60.31805799999999
 21
6.250161000000012
 31
0.0
 11
60.05650100000003
 21
6.593822000000008
 31
0.0
 11
59.759276
 21
6.907259000000002
 31
0.0
 11
59.42986900000004
 21
7.186783000000013
 31
0.0
 11
59.07213999999999
 21
7.429104999999997
 31
0.0
 11
58.69028500000002
 21
7.631376000000008
 31
0.0
 11
58.28877999999997
 21
7.791218000000008
 31
0.0
 11
57.87233200000002
 21
7.906751000000006
 31
0.0
 11
57.44582499999999
 21
7.976619000000004
 31
0.0
 11
57.01425700000005
 21
8.000000000000008
 31
0.0
  0
LWPOLYLINE
  5
281C
330
1E
100
AcDbEntity
  8
1
100
AcDbPolyline
 90
        3
 70
     1
 43
0.0
 10
0.0000000000001279
 20
0.0
 10
-2.950972054112455
 20
0.0
 42
0.4142135623730966
 10
0.0000000000001279
 20
-2.950972054112583
  0
HATCH
  5
281D
330
1E
100
AcDbEntity
  8
1
100
AcDbHatch
 10
0.0
 20
0.0
 30
0.0
210
0.0
220
0.0
230
1.0
  2
SOLID
 70
     1
 71
     0
 91
        2
 92
        7
 72
     1
 73
     1
 93
        3
 10
0.0000000000001279
 20
0.0
 42
0.0
 10
2.950972054112709
 20
0.0
 42
0.4142135623730966
 10
0.0000000000001279
 20
2.950972054112611
 42
0.0
 97
        0
 92
        7
 72
     1
 73
     1
 93
        3
 10
0.0000000000001279
 20
-2.950972054112496
 42
0.0
 10
0.0000000000001279
 20
0.0
 42
0.0
 10
-2.950972054112455
 20
0.0
 42
0.4142135623730953
 97
        0
 75
     0
 76
     1
 47
0.1190009775223266
 98
        2
 10
0.7445530588120306
 20
0.9212244733764975
 10
-1.279464601852807
 20
-1.696796923046291
  0
CIRCLE
  5
281E
330
1E
100
AcDbEntity
  8
1
100
AcDbCircle
 10
0.0000000000001279
 20
0.0
 30
0.0
 40
2.950972054112601
  0
LINE
  5
281F
330
1E
100
AcDbEntity
  8
1
100
AcDbLine
 10
0.0000000000001279
 20
2.950972054112611
 30
0.0
 11
0.0000000000001279
 21
-2.950972054112583
 31
0.0
  0
LINE
  5
2820
330
1E
100
AcDbEntity
  8
1
100
AcDbLine
 10
-2.950972054112709
 20
0.0
 30
0.0
 11
2.950972054112709
 21
0.0
 31
0.0
  0
LWPOLYLINE
  5
2821
330
1E
100
AcDbEntity
  8
1
100
AcDbPolyline
 90
        3
 70
     1
 43
0.0
 10
0.0000000000001279
 20
2.950972054112611
 10
0.0000000000001279
 20
0.0
 10
2.950972054112709
 20
0.0
 42
0.4142135623730966
  0
ENDSEC
  0
SECTION
  2
OBJECTS
  0
DICTIONARY
  5
C
330
0
100
AcDbDictionary
281
     1
  3
ACAD_COLOR
350
29A1
  3
ACAD_GROUP
350
D
  3
ACAD_LAYOUT
350
19
  3
ACAD_MATERIAL
350
29A0
  3
ACAD_MLINESTYLE
350
16
  3
ACAD_PLOTSETTINGS
350
18
  3
ACAD_PLOTSTYLENAME
350
2280
  3
ACAD_TABLESTYLE
350
29A2
  3
ACDBHEADERROUNDTRIPXREC
350
29B0
  3
AcDbVariableDictionary
350
29A5
1001
ACAD
1000
TREAT_AS_HARD
1070
     0
1000
TREAT_AS_HARD
1070
     0
  0
DICTIONARY
  5
1900
330
1E
100
AcDbDictionary
281
     1
  3
ACAD_LAYOUTSELFREF
350
1F58
1001
ACAD
1000
TREAT_AS_HARD
1070
     0
  0
DICTIONARY
  5
18FE
330
1A
100
AcDbDictionary
281
     1
  3
ACAD_LAYOUTSELFREF
350
1F57
1001
ACAD
1000
TREAT_AS_HARD
1070
     0
  0
DICTIONARY
  5
29A1
102
{ACAD_REACTORS
330
C
102
}
330
C
100
AcDbDictionary
281
     1
  0
DICTIONARY
  5
D
102
{ACAD_REACTORS
330
C
102
}
330
C
100
AcDbDictionary
281
     1
1001
ACAD
1000
TREAT_AS_HARD
1070
     0
1000
TREAT_AS_HARD
1070
     0
  0
DICTIONARY
  5
19
102
{ACAD_REACTORS
330
C
102
}
330
C
100
AcDbDictionary
281
     1
  3
Layout1
350
2283
  3
Model
350
2282
1001
ACAD
1000
TREAT_AS_HARD
1070
     0
1000
TREAT_AS_HARD
1070
     0
  0
DICTIONARY
  5
29A0
102
{ACAD_REACTORS
330
C
102
}
330
C
100
AcDbDictionary
281
     1
  0
DICTIONARY
  5
16
102
{ACAD_REACTORS
330
C
102
}
330
C
100
AcDbDictionary
281
     1
  3
STANDARD
350
17
1001
ACAD
1000
TREAT_AS_HARD
1070
     0
1000
TREAT_AS_HARD
1070
     0
  0
DICTIONARY
  5
18
102
{ACAD_REACTORS
330
C
102
}
330
C
100
AcDbDictionary
281
     1
1001
ACAD
1000
TREAT_AS_HARD
1070
     0
1000
TREAT_AS_HARD
1070
     0
  0
ACDBDICTIONARYWDFLT
  5
2280
102
{ACAD_REACTORS
330
C
102
}
330
C
100
AcDbDictionary
281
     1
  3
Normal
350
2281
100
AcDbDictionaryWithDefault
340
2281
  0
DICTIONARY
  5
29A2
102
{ACAD_REACTORS
330
C
102
}
330
C
100
AcDbDictionary
281
     1
  3
Standard
350
29A3
  0
DICTIONARY
  5
29B0
102
{ACAD_REACTORS
330
C
102
}
330
C
100
AcDbDictionary
281
     1
  0
DICTIONARY
  5
29A5
102
{ACAD_REACTORS
330
C
102
}
330
C
100
AcDbDictionary
281
     1
  3
CTABLESTYLE
350
29A6
  3
DIMASSOC
350
29A7
  3
PROJECTNAME
350
29A8
  0
XRECORD
  5
1F58
102
{ACAD_REACTORS
330
1900
102
}
330
1900
100
AcDbXrecord
280
     1
340
1E
  0
XRECORD
  5
1F57
102
{ACAD_REACTORS
330
18FE
102
}
330
18FE
100
AcDbXrecord
280
     1
340
1A
  0
LAYOUT
  5
2283
102
{ACAD_XDICTIONARY
360
29B3
102
}
102
{ACAD_REACTORS
330
19
102
}
330
19
100
AcDbPlotSettings
  1

  2
\\ingdom02\ITB2
  4

  6

 40
0.0
 41
0.0
 42
0.0
 43
0.0
 44
0.0
 45
0.0
 46
0.0
 47
0.0
 48
0.0
 49
0.0
140
0.0
141
0.0
142
1.0
143
1.0
 70
   688
 72
     0
 73
     0
 74
     5
  7

 75
    16
147
1.0
148
0.0
149
0.0
100
AcDbLayout
  1
Layout1
 70
     1
 71
     1
 10
0.0
 20
0.0
 11
12.0
 21
9.0
 12
0.0
 22
0.0
 32
0.0
 14
100.0
 24
100.0
 34
100.0
 15
-100.0
 25
-100.0
 35
-100.0
146
0.0
 13
0.0
 23
0.0
 33
0.0
 16
1.0
 26
0.0
 36
0.0
 17
0.0
 27
1.0
 37
0.0
 76
     0
330
1A
  0
LAYOUT
  5
2282
102
{ACAD_XDICTIONARY
360
29B1
102
}
102
{ACAD_REACTORS
330
19
102
}
330
19
100
AcDbPlotSettings
  1

  2
\\ingdom02\ITB2
  4

  6

 40
0.0
 41
0.0
 42
0.0
 43
0.0
 44
0.0
 45
0.0
 46
0.0
 47
0.0
 48
0.0
 49
0.0
140
0.0
141
0.0
142
1.0
143
1.0
 70
  1712
 72
     0
 73
     0
 74
     0
  7

 75
     0
147
1.0
148
0.0
149
0.0
100
AcDbLayout
  1
Model
 70
     1
 71
     0
 10
0.0
 20
0.0
 11
12.0
 21
9.0
 12
0.0
 22
0.0
 32
0.0
 14
0.0
 24
0.0
 34
0.0
 15
0.0
 25
0.0
 35
0.0
146
0.0
 13
0.0
 23
0.0
 33
0.0
 16
1.0
 26
0.0
 36
0.0
 17
0.0
 27
1.0
 37
0.0
 76
     0
330
1E
  0
MLINESTYLE
  5
17
102
{ACAD_REACTORS
330
16
102
}
330
16
100
AcDbMlineStyle
  2
STANDARD
 70
     0
  3

 62
   256
 51
90.0
 52
90.0
 71
     2
 49
0.5
 62
   256
  6
BYLAYER
 49
-0.5
 62
   256
  6
BYLAYER
  0
ACDBPLACEHOLDER
  5
2281
102
{ACAD_REACTORS
330
2280
102
}
330
2280
  0
TABLESTYLE
  5
29A3
102
{ACAD_REACTORS
330
29A2
102
}
330
29A2
100
AcDbTableStyle
  3
Standard
 70
     0
 71
     0
 40
0.06
 41
0.06
280
     0
281
     0
  7
STANDARD
140
0.18
170
     2
 62
     0
 63
     7
283
     0
274
    -2
284
     1
 64
     0
275
    -2
285
     1
 65
     0
276
    -2
286
     1
 66
     0
277
    -2
287
     1
 67
     0
278
    -2
288
     1
 68
     0
279
    -2
289
     1
 69
     0
  7
STANDARD
140
0.25
170
     5
 62
     0
 63
     7
283
     0
274
    -2
284
     1
 64
     0
275
    -2
285
     1
 65
     0
276
    -2
286
     1
 66
     0
277
    -2
287
     1
 67
     0
278
    -2
288
     1
 68
     0
279
    -2
289
     1
 69
     0
  7
STANDARD
140
0.18
170
     5
 62
     0
 63
     7
283
     0
274
    -2
284
     1
 64
     0
275
    -2
285
     1
 65
     0
276
    -2
286
     1
 66
     0
277
    -2
287
     1
 67
     0
278
    -2
288
     1
 68
     0
279
    -2
289
     1
 69
     0
  0
DICTIONARYVAR
  5
29A6
102
{ACAD_REACTORS
330
29A5
102
}
330
29A5
100
DictionaryVariables
280
     0
  1
STANDARD
  0
DICTIONARYVAR
  5
29A7
102
{ACAD_REACTORS
330
29A5
102
}
330
29A5
100
DictionaryVariables
280
     0
  1
1
  0
DICTIONARYVAR
  5
29A8
102
{ACAD_REACTORS
330
29A5
102
}
330
29A5
100
DictionaryVariables
280
     0
  1

  0
DICTIONARY
  5
29B3
330
2283
100
AcDbDictionary
280
     1
281
     1
  3
ACAD_XREC_ROUNDTRIP
360
29B4
  0
DICTIONARY
  5
29B1
330
2282
100
AcDbDictionary
280
     1
281
     1
  3
ACAD_XREC_ROUNDTRIP
360
29B2
  0
XRECORD
  5
29B4
102
{ACAD_REACTORS
330
29B3
102
}
330
29B3
100
AcDbXrecord
280
     1
102
SHADEPLOT
 70
     0
102
SHADEPLOTRESLEVEL
 70
     2
102
SHADEPLOTCUSTOMDPI
 70
   300
  0
XRECORD
  5
29B2
102
{ACAD_REACTORS
330
29B1
102
}
330
29B1
100
AcDbXrecord
280
     1
102
SHADEPLOT
 70
     0
102
SHADEPLOTRESLEVEL
 70
     2
102
SHADEPLOTCUSTOMDPI
 70
   300
  0
ENDSEC
  0
EOF
