  0
SECTION
  2
HEADER
  9
$ACADVER
  1
AC1015
  9
$ACADMAINTVER
 70
    20
  9
$DWGCODEPAGE
  3
ANSI_1252
  9
$INSBASE
 10
0.0
 20
0.0
 30
0.0
  9
$EXTMIN
 10
-66.2202309430204
 20
-62.64686859992434
 30
-0.0015258207003583
  9
$EXTMAX
 10
63.88359068773889
 20
17.57821716517003
 30
0.0000000349246037
  9
$LIMMIN
 10
0.0
 20
0.0
  9
$LIMMAX
 10
594.0
 20
420.0
  9
$ORTHOMODE
 70
     0
  9
$REGENMODE
 70
     1
  9
$FILLMODE
 70
     1
  9
$QTEXTMODE
 70
     0
  9
$MIRRTEXT
 70
     1
  9
$LTSCALE
 40
10.0
  9
$ATTMODE
 70
     1
  9
$TEXTSIZE
 40
0.2
  9
$TRACEWID
 40
0.05
  9
$TEXTSTYLE
  7
STANDARD
  9
$CLAYER
  8
0
  9
$CELTYPE
  6
BYLAYER
  9
$CECOLOR
 62
   256
  9
$CELTSCALE
 40
1.0
  9
$DISPSILH
 70
     0
  9
$DIMSCALE
 40
1.0
  9
$DIMASZ
 40
2.5
  9
$DIMEXO
 40
3.712499999999999
  9
$DIMDLI
 40
22.572
  9
$DIMRND
 40
0.0
  9
$DIMDLE
 40
0.0
  9
$DIMEXE
 40
10.692
  9
$DIMTP
 40
0.01
  9
$DIMTM
 40
0.01
  9
$DIMTXT
 40
3.5
  9
$DIMCEN
 40
5.346
  9
$DIMTSZ
 40
0.0
  9
$DIMTOL
 70
     1
  9
$DIMLIM
 70
     0
  9
$DIMTIH
 70
     1
  9
$DIMTOH
 70
     1
  9
$DIMSE1
 70
     0
  9
$DIMSE2
 70
     0
  9
$DIMTAD
 70
     0
  9
$DIMZIN
 70
     0
  9
$DIMBLK
  1
_FILLED
  9
$DIMASO
 70
     1
  9
$DIMSHO
 70
     1
  9
$DIMPOST
  1

  9
$DIMAPOST
  1

  9
$DIMALT
 70
     0
  9
$DIMALTD
 70
     2
  9
$DIMALTF
 40
25.4
  9
$DIMLFAC
 40
1.0
  9
$DIMTOFL
 70
     0
  9
$DIMTVP
 40
0.0
  9
$DIMTIX
 70
     0
  9
$DIMSOXD
 70
     0
  9
$DIMSAH
 70
     0
  9
$DIMBLK1
  1

  9
$DIMBLK2
  1

  9
$DIMSTYLE
  2
STANDARD
  9
$DIMCLRD
 70
     0
  9
$DIMCLRE
 70
     0
  9
$DIMCLRT
 70
     0
  9
$DIMTFAC
 40
1.0
  9
$DIMGAP
 40
0.09
  9
$DIMJUST
 70
     0
  9
$DIMSD1
 70
     0
  9
$DIMSD2
 70
     0
  9
$DIMTOLJ
 70
     1
  9
$DIMTZIN
 70
     0
  9
$DIMALTZ
 70
     0
  9
$DIMALTTZ
 70
     0
  9
$DIMUPT
 70
     0
  9
$DIMDEC
 70
     4
  9
$DIMTDEC
 70
     4
  9
$DIMALTU
 70
     2
  9
$DIMALTTD
 70
     2
  9
$DIMTXSTY
  7
STANDARD
  9
$DIMAUNIT
 70
     0
  9
$DIMADEC
 70
     0
  9
$DIMALTRND
 40
0.0
  9
$DIMAZIN
 70
     0
  9
$DIMDSEP
 70
    46
  9
$DIMATFIT
 70
     3
  9
$DIMFRAC
 70
     0
  9
$DIMLDRBLK
  1
_FILLED
  9
$DIMLUNIT
 70
     2
  9
$DIMLWD
 70
    -2
  9
$DIMLWE
 70
    -2
  9
$DIMTMOVE
 70
     0
  9
$LUNITS
 70
     2
  9
$LUPREC
 70
     4
  9
$SKETCHINC
 40
0.1
  9
$FILLETRAD
 40
0.0
  9
$AUNITS
 70
     0
  9
$AUPREC
 70
     0
  9
$MENU
  1

  9
$ELEVATION
 40
0.0
  9
$PELEVATION
 40
0.0
  9
$THICKNESS
 40
0.0
  9
$LIMCHECK
 70
     0
  9
$CHAMFERA
 40
0.0
  9
$CHAMFERB
 40
0.0
  9
$CHAMFERC
 40
0.0
  9
$CHAMFERD
 40
0.0
  9
$SKPOLY
 70
     0
  9
$TDCREATE
 40
2453413.418579827
  9
$TDUCREATE
 40
2453413.335246493
  9
$TDUPDATE
 40
2453909.277953252
  9
$TDUUPDATE
 40
2453909.194619919
  9
$TDINDWG
 40
0.2091885069
  9
$TDUSRTIMER
 40
0.0560878241
  9
$USRTIMER
 70
     1
  9
$ANGBASE
 50
0.0
  9
$ANGDIR
 70
     0
  9
$PDMODE
 70
     0
  9
$PDSIZE
 40
0.3125
  9
$PLINEWID
 40
0.0
  9
$SPLFRAME
 70
     0
  9
$SPLINETYPE
 70
     6
  9
$SPLINESEGS
 70
     8
  9
$HANDSEED
  5
7ABE
  9
$SURFTAB1
 70
     6
  9
$SURFTAB2
 70
     6
  9
$SURFTYPE
 70
     6
  9
$SURFU
 70
     6
  9
$SURFV
 70
     6
  9
$UCSBASE
  2

  9
$UCSNAME
  2

  9
$UCSORG
 10
0.0
 20
0.0
 30
0.0
  9
$UCSXDIR
 10
1.0
 20
0.0
 30
0.0
  9
$UCSYDIR
 10
0.0
 20
1.0
 30
0.0
  9
$UCSORTHOREF
  2

  9
$UCSORTHOVIEW
 70
     0
  9
$UCSORGTOP
 10
0.0
 20
0.0
 30
0.0
  9
$UCSORGBOTTOM
 10
0.0
 20
0.0
 30
0.0
  9
$UCSORGLEFT
 10
0.0
 20
0.0
 30
0.0
  9
$UCSORGRIGHT
 10
0.0
 20
0.0
 30
0.0
  9
$UCSORGFRONT
 10
0.0
 20
0.0
 30
0.0
  9
$UCSORGBACK
 10
0.0
 20
0.0
 30
0.0
  9
$PUCSBASE
  2

  9
$PUCSNAME
  2

  9
$PUCSORG
 10
0.0
 20
0.0
 30
0.0
  9
$PUCSXDIR
 10
1.0
 20
0.0
 30
0.0
  9
$PUCSYDIR
 10
0.0
 20
1.0
 30
0.0
  9
$PUCSORTHOREF
  2

  9
$PUCSORTHOVIEW
 70
     0
  9
$PUCSORGTOP
 10
0.0
 20
0.0
 30
0.0
  9
$PUCSORGBOTTOM
 10
0.0
 20
0.0
 30
0.0
  9
$PUCSORGLEFT
 10
0.0
 20
0.0
 30
0.0
  9
$PUCSORGRIGHT
 10
0.0
 20
0.0
 30
0.0
  9
$PUCSORGFRONT
 10
0.0
 20
0.0
 30
0.0
  9
$PUCSORGBACK
 10
0.0
 20
0.0
 30
0.0
  9
$USERI1
 70
     0
  9
$USERI2
 70
     0
  9
$USERI3
 70
     0
  9
$USERI4
 70
     0
  9
$USERI5
 70
     0
  9
$USERR1
 40
0.0
  9
$USERR2
 40
0.0
  9
$USERR3
 40
0.0
  9
$USERR4
 40
0.0
  9
$USERR5
 40
0.0
  9
$WORLDVIEW
 70
     1
  9
$SHADEDGE
 70
     3
  9
$SHADEDIF
 70
    70
  9
$TILEMODE
 70
     1
  9
$MAXACTVP
 70
    64
  9
$PINSBASE
 10
0.0
 20
0.0
 30
0.0
  9
$PLIMCHECK
 70
     0
  9
$PEXTMIN
 10
100.0
 20
100.0
 30
100.0
  9
$PEXTMAX
 10
-100.0
 20
-100.0
 30
-100.0
  9
$PLIMMIN
 10
0.0
 20
0.0
  9
$PLIMMAX
 10
12.0
 20
9.0
  9
$UNITMODE
 70
     0
  9
$VISRETAIN
 70
     1
  9
$PLINEGEN
 70
     1
  9
$PSLTSCALE
 70
     1
  9
$TREEDEPTH
 70
  3020
  9
$CMLSTYLE
  2
STANDARD
  9
$CMLJUST
 70
     0
  9
$CMLSCALE
 40
1.0
  9
$PROXYGRAPHICS
 70
     1
  9
$MEASUREMENT
 70
     0
  9
$CELWEIGHT
370
    -1
  9
$ENDCAPS
280
     0
  9
$JOINSTYLE
280
     0
  9
$LWDISPLAY
290
     0
  9
$INSUNITS
 70
     0
  9
$HYPERLINKBASE
  1

  9
$STYLESHEET
  1

  9
$XEDIT
290
     1
  9
$CEPSNTYPE
380
     0
  9
$PSTYLEMODE
290
     1
  9
$FINGERPRINTGUID
  2
{7CA7D08C-D925-4FF1-A5F2-786C11FD4160}
  9
$VERSIONGUID
  2
{F5716157-3E22-45F7-9CAB-A2AD6991021C}
  9
$EXTNAMES
290
     1
  9
$PSVPSCALE
 40
0.0
  9
$OLESTARTUP
290
     0
  0
ENDSEC
  0
SECTION
  2
CLASSES
  0
CLASS
  1
ACDBDICTIONARYWDFLT
  2
AcDbDictionaryWithDefault
  3
ObjectDBX Classes
 90
        0
280
     0
281
     0
  0
CLASS
  1
ACDBPLACEHOLDER
  2
AcDbPlaceHolder
  3
ObjectDBX Classes
 90
        0
280
     0
281
     0
  0
CLASS
  1
LAYOUT
  2
AcDbLayout
  3
ObjectDBX Classes
 90
        0
280
     0
281
     0
  0
CLASS
  1
TABLESTYLE
  2
AcDbTableStyle
  3
ObjectDBX Classes
 90
     2047
280
     0
281
     0
  0
CLASS
  1
DICTIONARYVAR
  2
AcDbDictionaryVar
  3
ObjectDBX Classes
 90
        0
280
     0
281
     0
  0
ENDSEC
  0
SECTION
  2
TABLES
  0
TABLE
  2
VPORT
  5
8
330
0
100
AcDbSymbolTable
 70
     2
  0
VPORT
  5
7AB8
330
8
100
AcDbSymbolTableRecord
100
AcDbViewportTableRecord
  2
*Active
 70
     0
 10
0.0
 20
0.0
 11
1.0
 21
1.0
 12
-1.168320127640754
 22
-22.53432571737716
 13
0.0
 23
0.0
 14
1.0
 24
1.0
 15
0.0
 25
0.0
 16
0.0
 26
0.0
 36
1.0
 17
0.0
 27
0.0
 37
0.0
 40
85.32377499407221
 41
1.532401524777636
 42
50.0
 43
0.0
 44
0.0
 50
0.0
 51
0.0
 71
     0
 72
   100
 73
     1
 74
     1
 75
     0
 76
     0
 77
     0
 78
     0
281
     0
 65
     1
110
0.0
120
0.0
130
0.0
111
1.0
121
0.0
131
0.0
112
0.0
122
1.0
132
0.0
 79
     0
146
0.0
  0
ENDTAB
  0
TABLE
  2
LTYPE
  5
5
330
0
100
AcDbSymbolTable
 70
     2
  0
LTYPE
  5
13
330
5
100
AcDbSymbolTableRecord
100
AcDbLinetypeTableRecord
  2
BYBLOCK
 70
     0
  3

 72
    65
 73
     0
 40
0.0
  0
LTYPE
  5
14
330
5
100
AcDbSymbolTableRecord
100
AcDbLinetypeTableRecord
  2
BYLAYER
 70
     0
  3

 72
    65
 73
     0
 40
0.0
  0
LTYPE
  5
15
330
5
100
AcDbSymbolTableRecord
100
AcDbLinetypeTableRecord
  2
CONTINUOUS
 70
     0
  3
Solid line
 72
    65
 73
     0
 40
0.0
  0
LTYPE
  5
30
330
5
100
AcDbSymbolTableRecord
100
AcDbLinetypeTableRecord
  2
CENTER
 70
     0
  3
____ _ ____ _ ____ _ ____ _ ____ _ ____ _ ____
 72
    65
 73
     4
 40
0.6
 49
0.375
 74
     0
 49
-0.075
 74
     0
 49
0.075
 74
     0
 49
-0.075
 74
     0
  0
ENDTAB
  0
TABLE
  2
LAYER
  5
2
330
0
100
AcDbSymbolTable
 70
    11
  0
LAYER
  5
10
330
2
100
AcDbSymbolTableRecord
100
AcDbLayerTableRecord
  2
1
 70
     0
 62
     4
  6
CONTINUOUS
370
    -3
390
736A
  0
LAYER
  5
33
330
2
100
AcDbSymbolTableRecord
100
AcDbLayerTableRecord
  2
2
 70
     0
 62
     7
  6
CONTINUOUS
370
    -3
390
736A
  0
LAYER
  5
35
330
2
100
AcDbSymbolTableRecord
100
AcDbLayerTableRecord
  2
4
 70
     0
 62
     2
  6
CENTER
370
    -3
390
736A
  0
LAYER
  5
38
330
2
100
AcDbSymbolTableRecord
100
AcDbLayerTableRecord
  2
0
 70
     0
 62
     7
  6
CONTINUOUS
370
    -3
390
736A
  0
LAYER
  5
39
330
2
100
AcDbSymbolTableRecord
100
AcDbLayerTableRecord
  2
DEFPOINTS
 70
     0
 62
     7
  6
CONTINUOUS
290
     0
370
    -3
390
736A
  0
LAYER
  5
5A3
330
2
100
AcDbSymbolTableRecord
100
AcDbLayerTableRecord
  2
SK1
 70
     0
 62
     4
  6
CONTINUOUS
370
    -3
390
736A
  0
LAYER
  5
5A4
330
2
100
AcDbSymbolTableRecord
100
AcDbLayerTableRecord
  2
SK4
 70
     0
 62
     2
  6
CENTER
370
    -3
390
736A
  0
LAYER
  5
5A6
330
2
100
AcDbSymbolTableRecord
100
AcDbLayerTableRecord
  2
SK2
 70
     0
 62
     7
  6
CONTINUOUS
370
    -3
390
736A
  0
LAYER
  5
73EF
330
2
100
AcDbSymbolTableRecord
100
AcDbLayerTableRecord
  2
6
 70
     0
 62
     5
  6
CONTINUOUS
370
    -3
390
736A
  0
LAYER
  5
73F0
330
2
100
AcDbSymbolTableRecord
100
AcDbLayerTableRecord
  2
CUT
 70
     0
 62
     1
  6
CONTINUOUS
370
    -3
390
736A
  0
LAYER
  5
73F1
330
2
100
AcDbSymbolTableRecord
100
AcDbLayerTableRecord
  2
NOCUT
 70
     0
 62
     7
  6
CONTINUOUS
370
    -3
390
736A
  0
ENDTAB
  0
TABLE
  2
STYLE
  5
3
330
0
100
AcDbSymbolTable
 70
     1
  0
STYLE
  5
11
330
3
100
AcDbSymbolTableRecord
100
AcDbTextStyleTableRecord
  2
STANDARD
 70
     0
 40
0.0
 41
0.8
 50
0.0
 71
     0
 42
0.2
  3
isocp.shx
  4

  0
ENDTAB
  0
TABLE
  2
VIEW
  5
6
330
0
100
AcDbSymbolTable
 70
     0
  0
ENDTAB
  0
TABLE
  2
UCS
  5
7
330
0
100
AcDbSymbolTable
 70
     0
  0
ENDTAB
  0
TABLE
  2
APPID
  5
9
330
0
100
AcDbSymbolTable
 70
     1
  0
APPID
  5
12
330
9
100
AcDbSymbolTableRecord
100
AcDbRegAppTableRecord
  2
ACAD
 70
     0
  0
ENDTAB
  0
TABLE
  2
DIMSTYLE
  5
A
330
0
100
AcDbSymbolTable
 70
     2
100
AcDbDimStyleTable
 71
     1
340
32
  0
DIMSTYLE
105
32
330
A
100
AcDbSymbolTableRecord
100
AcDbDimStyleTableRecord
  2
STANDARD
 70
     0
340
11
  0
DIMSTYLE
105
5A8
102
{ACAD_REACTORS
330
55F
330
563
330
560
330
561
330
9D
102
}
330
A
100
AcDbSymbolTableRecord
100
AcDbDimStyleTableRecord
  2
ISO-25
 70
     0
 41
2.5
 42
0.625
 43
3.75
 44
1.25
 73
     0
 74
     0
 77
     1
 78
     8
140
2.5
141
2.5
143
0.03937007874016
147
0.625
171
     3
172
     1
271
     2
272
     2
274
     3
283
     0
284
     8
340
11
  0
ENDTAB
  0
TABLE
  2
BLOCK_RECORD
  5
1
330
0
100
AcDbSymbolTable
 70
     6
  0
BLOCK_RECORD
  5
1E
102
{ACAD_XDICTIONARY
360
4E67
102
}
330
1
100
AcDbSymbolTableRecord
100
AcDbBlockTableRecord
  2
*MODEL_SPACE
340
736B
  0
BLOCK_RECORD
  5
1A
102
{ACAD_XDICTIONARY
360
4E65
102
}
330
1
100
AcDbSymbolTableRecord
100
AcDbBlockTableRecord
  2
*PAPER_SPACE
340
736C
  0
BLOCK_RECORD
  5
23
330
1
100
AcDbSymbolTableRecord
100
AcDbBlockTableRecord
  2
_FILLED
340
0
  0
BLOCK_RECORD
  5
884
330
1
100
AcDbSymbolTableRecord
100
AcDbBlockTableRecord
  2
*D1
340
0
  0
BLOCK_RECORD
  5
890
330
1
100
AcDbSymbolTableRecord
100
AcDbBlockTableRecord
  2
*D2
340
0
  0
BLOCK_RECORD
  5
89C
330
1
100
AcDbSymbolTableRecord
100
AcDbBlockTableRecord
  2
*D3
340
0
  0
BLOCK_RECORD
  5
8B4
330
1
100
AcDbSymbolTableRecord
100
AcDbBlockTableRecord
  2
*D4
340
0
  0
BLOCK_RECORD
  5
8C0
330
1
100
AcDbSymbolTableRecord
100
AcDbBlockTableRecord
  2
*D5
340
0
  0
ENDTAB
  0
ENDSEC
  0
SECTION
  2
BLOCKS
  0
BLOCK
  5
3C
330
1E
100
AcDbEntity
  8
0
100
AcDbBlockBegin
  2
*MODEL_SPACE
 70
     0
 10
0.0
 20
0.0
 30
0.0
  3
*MODEL_SPACE
  1

  0
ENDBLK
  5
3D
330
1E
100
AcDbEntity
  8
0
100
AcDbBlockEnd
  0
BLOCK
  5
3A
330
1A
100
AcDbEntity
 67
     1
  8
0
100
AcDbBlockBegin
  2
*PAPER_SPACE
 70
     0
 10
0.0
 20
0.0
 30
0.0
  3
*PAPER_SPACE
  1

  0
ENDBLK
  5
3B
330
1A
100
AcDbEntity
 67
     1
  8
0
100
AcDbBlockEnd
  0
BLOCK
  5
40
330
23
100
AcDbEntity
  8
0
100
AcDbBlockBegin
  2
_FILLED
 70
     0
 10
0.0
 20
0.0
 30
0.0
  3
_FILLED
  1

  0
SOLID
  5
41
330
23
100
AcDbEntity
  8
0
  6
ByBlock
 62
     0
100
AcDbTrace
 10
0.0
 20
0.0
 30
0.0
 11
-1.0
 21
0.132
 31
0.0
 12
-1.0
 22
-0.132
 32
0.0
 13
-1.0
 23
-0.132
 33
0.0
  0
ENDBLK
  5
42
330
23
100
AcDbEntity
  8
0
100
AcDbBlockEnd
  0
BLOCK
  5
88E
330
884
100
AcDbEntity
  8
0
100
AcDbBlockBegin
  2
*D1
 70
     1
 10
0.0
 20
0.0
 30
0.0
  3
*D1
  1

  0
LINE
  5
736D
330
884
100
AcDbEntity
  8
SK2
 62
     0
370
    -2
100
AcDbLine
 10
-47.49797518909999
 20
-7.999999999999962
 30
0.0
 11
-64.32508477247984
 21
-7.999999999999957
 31
0.0
  0
LINE
  5
736E
330
884
100
AcDbEntity
  8
SK2
 62
     0
370
    -2
100
AcDbLine
 10
-47.49797518909999
 20
8.00000000000003
 30
0.0
 11
-64.32508477247984
 21
8.00000000000004
 31
0.0
  0
LINE
  5
736F
330
884
100
AcDbEntity
  8
SK2
 62
     0
370
    -2
100
AcDbLine
 10
-63.07508477247984
 20
-5.499999999999958
 30
0.0
 11
-63.07508477247984
 21
5.50000000000004
 31
0.0
  0
SOLID
  5
7370
330
884
100
AcDbEntity
  8
SK2
 62
     0
100
AcDbTrace
 10
-63.49175143914649
 20
-5.499999999999958
 30
0.0
 11
-62.65841810581317
 21
-5.499999999999958
 31
0.0
 12
-63.07508477247984
 22
-7.999999999999957
 32
0.0
 13
-63.07508477247984
 23
-7.999999999999957
 33
0.0
  0
SOLID
  5
7371
330
884
100
AcDbEntity
  8
SK2
 62
     0
100
AcDbTrace
 10
-63.49175143914649
 20
5.50000000000004
 30
0.0
 11
-62.65841810581317
 21
5.50000000000004
 31
0.0
 12
-63.07508477247984
 22
8.00000000000004
 32
0.0
 13
-63.07508477247984
 23
8.00000000000004
 33
0.0
  0
MTEXT
  5
7372
330
884
100
AcDbEntity
  8
SK2
 62
     0
100
AcDbMText
 10
-64.95008477247984
 20
0.0000000000000325
 30
0.0
 40
2.5
 41
0.0
 71
     5
 72
     1
  1
%%c16
 11
0.0000000000000001
 21
1.0
 31
0.0
 73
     1
 44
1.0
1001
ACAD
1000
MTEXTBEGIN
1070
    73
1070
     1
1070
    44
1040
1.0
1070
    74
1070
     0
1000
MTEXTEND
  0
POINT
  5
7373
330
884
100
AcDbEntity
  8
DEFPOINTS
 62
     0
100
AcDbPoint
 10
-46.87297518909999
 20
-7.999999999999962
 30
0.0
  0
POINT
  5
7374
330
884
100
AcDbEntity
  8
DEFPOINTS
 62
     0
100
AcDbPoint
 10
-46.87297518909999
 20
8.00000000000003
 30
0.0
  0
POINT
  5
7375
330
884
100
AcDbEntity
  8
DEFPOINTS
 62
     0
100
AcDbPoint
 10
-63.07508477247984
 20
8.00000000000004
 30
0.0
  0
ENDBLK
  5
88F
330
884
100
AcDbEntity
  8
0
100
AcDbBlockEnd
  0
BLOCK
  5
89A
330
890
100
AcDbEntity
  8
0
100
AcDbBlockBegin
  2
*D2
 70
     1
 10
0.0
 20
0.0
 30
0.0
  3
*D2
  1

  0
LINE
  5
7376
330
890
100
AcDbEntity
  8
SK2
 62
     0
370
    -2
100
AcDbLine
 10
-48.0729751891
 20
-7.424999999999974
 30
0.0
 11
-48.0729751891
 21
-44.24999999999997
 31
0.0
  0
LINE
  5
7377
330
890
100
AcDbEntity
  8
SK2
 62
     0
370
    -2
100
AcDbLine
 10
40.9328788959
 20
-4.627248062599993
 30
0.0
 11
40.9328788959
 21
-44.24999999999997
 31
0.0
  0
LINE
  5
7378
330
890
100
AcDbEntity
  8
SK2
 62
     0
370
    -2
100
AcDbLine
 10
-45.5729751891
 20
-42.99999999999997
 30
0.0
 11
38.4328788959
 21
-42.99999999999997
 31
0.0
  0
SOLID
  5
7379
330
890
100
AcDbEntity
  8
SK2
 62
     0
100
AcDbTrace
 10
-45.5729751891
 20
-42.58333333333331
 30
0.0
 11
-45.5729751891
 21
-43.41666666666664
 31
0.0
 12
-48.0729751891
 22
-42.99999999999997
 32
0.0
 13
-48.0729751891
 23
-42.99999999999997
 33
0.0
  0
SOLID
  5
737A
330
890
100
AcDbEntity
  8
SK2
 62
     0
100
AcDbTrace
 10
38.4328788959
 20
-42.58333333333331
 30
0.0
 11
38.4328788959
 21
-43.41666666666664
 31
0.0
 12
40.9328788959
 22
-42.99999999999997
 32
0.0
 13
40.9328788959
 23
-42.99999999999997
 33
0.0
  0
MTEXT
  5
737B
330
890
100
AcDbEntity
  8
SK2
 62
     0
100
AcDbMText
 10
-3.570048146600004
 20
-41.12499999999996
 30
0.0
 40
2.5
 41
0.0
 71
     5
 72
     1
  1
89
 73
     1
 44
1.0
1001
ACAD
1000
MTEXTBEGIN
1070
    73
1070
     1
1070
    44
1040
1.0
1070
    74
1070
     0
1000
MTEXTEND
  0
POINT
  5
737C
330
890
100
AcDbEntity
  8
DEFPOINTS
 62
     0
100
AcDbPoint
 10
-48.0729751891
 20
-6.799999999999974
 30
0.0
  0
POINT
  5
737D
330
890
100
AcDbEntity
  8
DEFPOINTS
 62
     0
100
AcDbPoint
 10
40.9328788959
 20
-4.002248062599993
 30
0.0
  0
POINT
  5
737E
330
890
100
AcDbEntity
  8
DEFPOINTS
 62
     0
100
AcDbPoint
 10
40.9328788959
 20
-42.99999999999997
 30
0.0
  0
ENDBLK
  5
89B
330
890
100
AcDbEntity
  8
0
100
AcDbBlockEnd
  0
BLOCK
  5
8A6
330
89C
100
AcDbEntity
  8
0
100
AcDbBlockBegin
  2
*D3
 70
     1
 10
0.0
 20
0.0
 30
0.0
  3
*D3
  1

  0
LINE
  5
7388
330
89C
100
AcDbEntity
  8
SK2
 62
     0
370
    -2
100
AcDbLine
 10
-24.0729751891
 20
-0.624999999999969
 30
0.0
 11
-24.0729751891
 21
-34.24999999999997
 31
0.0
  0
LINE
  5
7389
330
89C
100
AcDbEntity
  8
SK2
 62
     0
370
    -2
100
AcDbLine
 10
40.9328788959
 20
-4.627248062599993
 30
0.0
 11
40.9328788959
 21
-34.24999999999997
 31
0.0
  0
LINE
  5
738A
330
89C
100
AcDbEntity
  8
SK2
 62
     0
370
    -2
100
AcDbLine
 10
-21.5729751891
 20
-32.99999999999997
 30
0.0
 11
38.4328788959
 21
-32.99999999999997
 31
0.0
  0
SOLID
  5
738B
330
89C
100
AcDbEntity
  8
SK2
 62
     0
100
AcDbTrace
 10
-21.5729751891
 20
-32.5833333333333
 30
0.0
 11
-21.5729751891
 21
-33.41666666666663
 31
0.0
 12
-24.0729751891
 22
-32.99999999999997
 32
0.0
 13
-24.0729751891
 23
-32.99999999999997
 33
0.0
  0
SOLID
  5
738C
330
89C
100
AcDbEntity
  8
SK2
 62
     0
100
AcDbTrace
 10
38.4328788959
 20
-32.5833333333333
 30
0.0
 11
38.4328788959
 21
-33.41666666666663
 31
0.0
 12
40.9328788959
 22
-32.99999999999997
 32
0.0
 13
40.9328788959
 23
-32.99999999999997
 33
0.0
  0
MTEXT
  5
738D
330
89C
100
AcDbEntity
  8
SK2
 62
     0
100
AcDbMText
 10
8.429951853399991
 20
-31.12499999999996
 30
0.0
 40
2.5
 41
0.0
 71
     5
 72
     1
  1
65
 73
     1
 44
1.0
1001
ACAD
1000
MTEXTBEGIN
1070
    73
1070
     1
1070
    44
1040
1.0
1070
    74
1070
     0
1000
MTEXTEND
  0
POINT
  5
738E
330
89C
100
AcDbEntity
  8
DEFPOINTS
 62
     0
100
AcDbPoint
 10
-24.0729751891
 20
0.0000000000000313
 30
0.0
  0
POINT
  5
738F
330
89C
100
AcDbEntity
  8
DEFPOINTS
 62
     0
100
AcDbPoint
 10
40.9328788959
 20
-4.002248062599993
 30
0.0
  0
POINT
  5
7390
330
89C
100
AcDbEntity
  8
DEFPOINTS
 62
     0
100
AcDbPoint
 10
40.9328788959
 20
-32.99999999999997
 30
0.0
  0
ENDBLK
  5
8A7
330
89C
100
AcDbEntity
  8
0
100
AcDbBlockEnd
  0
BLOCK
  5
8BE
330
8B4
100
AcDbEntity
  8
0
100
AcDbBlockBegin
  2
*D4
 70
     1
 10
0.0
 20
0.0
 30
0.0
  3
*D4
  1

  0
LINE
  5
737F
330
8B4
100
AcDbEntity
  8
2
 62
     0
370
    -2
100
AcDbLine
 10
0.9270248108999783
 20
-7.374999999999968
 30
0.0
 11
0.9270248108999773
 21
-24.24999999999996
 31
0.0
  0
LINE
  5
7380
330
8B4
100
AcDbEntity
  8
2
 62
     0
370
    -2
100
AcDbLine
 10
40.9328788959
 20
-4.627248062599993
 30
0.0
 11
40.9328788959
 21
-24.24999999999996
 31
0.0
  0
LINE
  5
7381
330
8B4
100
AcDbEntity
  8
2
 62
     0
370
    -2
100
AcDbLine
 10
3.427024810899977
 20
-22.99999999999996
 30
0.0
 11
38.4328788959
 21
-22.99999999999996
 31
0.0
  0
SOLID
  5
7382
330
8B4
100
AcDbEntity
  8
2
 62
     0
100
AcDbTrace
 10
3.427024810899977
 20
-22.58333333333328
 30
0.0
 11
3.427024810899977
 21
-23.41666666666662
 31
0.0
 12
0.9270248108999775
 22
-22.99999999999996
 32
0.0
 13
0.9270248108999775
 23
-22.99999999999996
 33
0.0
  0
SOLID
  5
7383
330
8B4
100
AcDbEntity
  8
2
 62
     0
100
AcDbTrace
 10
38.4328788959
 20
-22.58333333333328
 30
0.0
 11
38.4328788959
 21
-23.41666666666662
 31
0.0
 12
40.9328788959
 22
-22.99999999999996
 32
0.0
 13
40.9328788959
 23
-22.99999999999996
 33
0.0
  0
MTEXT
  5
7384
330
8B4
100
AcDbEntity
  8
2
 62
     0
100
AcDbMText
 10
20.92995185339998
 20
-21.12499999999996
 30
0.0
 40
2.5
 41
0.0
 71
     5
 72
     1
  1
40
 73
     1
 44
1.0
1001
ACAD
1000
MTEXTBEGIN
1070
    73
1070
     1
1070
    44
1040
1.0
1070
    74
1070
     0
1000
MTEXTEND
  0
POINT
  5
7385
330
8B4
100
AcDbEntity
  8
DEFPOINTS
 62
     0
100
AcDbPoint
 10
0.9270248108999783
 20
-6.749999999999968
 30
0.0
  0
POINT
  5
7386
330
8B4
100
AcDbEntity
  8
DEFPOINTS
 62
     0
100
AcDbPoint
 10
40.9328788959
 20
-4.002248062599993
 30
0.0
  0
POINT
  5
7387
330
8B4
100
AcDbEntity
  8
DEFPOINTS
 62
     0
100
AcDbPoint
 10
40.9328788959
 20
-22.99999999999996
 30
0.0
  0
ENDBLK
  5
8BF
330
8B4
100
AcDbEntity
  8
0
100
AcDbBlockEnd
  0
BLOCK
  5
8CA
330
8C0
100
AcDbEntity
  8
0
100
AcDbBlockBegin
  2
*D5
 70
     1
 10
0.0
 20
0.0
 30
0.0
  3
*D5
  1

  0
LINE
  5
7391
330
8C0
100
AcDbEntity
  8
2
 62
     0
370
    -2
100
AcDbLine
 10
41.55202481089999
 20
8.000000000000023
 30
0.0
 11
57.16386053282599
 21
8.000000000000019
 31
0.0
  0
LINE
  5
7392
330
8C0
100
AcDbEntity
  8
2
 62
     0
370
    -2
100
AcDbLine
 10
41.55202481089999
 20
-7.999999999999972
 30
0.0
 11
57.16386053282599
 21
-7.999999999999976
 31
0.0
  0
LINE
  5
7393
330
8C0
100
AcDbEntity
  8
2
 62
     0
370
    -2
100
AcDbLine
 10
55.91386053282599
 20
5.500000000000018
 30
0.0
 11
55.91386053282599
 21
-5.499999999999976
 31
0.0
  0
SOLID
  5
7394
330
8C0
100
AcDbEntity
  8
2
 62
     0
100
AcDbTrace
 10
55.49719386615932
 20
5.500000000000018
 30
0.0
 11
56.33052719949264
 21
5.500000000000018
 31
0.0
 12
55.91386053282599
 22
8.000000000000019
 32
0.0
 13
55.91386053282599
 23
8.000000000000019
 33
0.0
  0
SOLID
  5
7395
330
8C0
100
AcDbEntity
  8
2
 62
     0
100
AcDbTrace
 10
55.49719386615932
 20
-5.499999999999976
 30
0.0
 11
56.33052719949264
 21
-5.499999999999976
 31
0.0
 12
55.91386053282599
 22
-7.999999999999976
 32
0.0
 13
55.91386053282599
 23
-7.999999999999976
 33
0.0
  0
MTEXT
  5
7396
330
8C0
100
AcDbEntity
  8
2
 62
     0
100
AcDbMText
 10
54.03886053282599
 20
0.3068691709999806
 30
0.0
 40
2.5
 41
0.0
 71
     5
 72
     1
  1
%%c16
 11
0.0000000000000001
 21
1.0
 31
0.0
 73
     1
 44
1.0
1001
ACAD
1000
MTEXTBEGIN
1070
    73
1070
     1
1070
    44
1040
1.0
1070
    74
1070
     0
1000
MTEXTEND
  0
POINT
  5
7397
330
8C0
100
AcDbEntity
  8
DEFPOINTS
 62
     0
100
AcDbPoint
 10
40.92702481089999
 20
8.000000000000023
 30
0.0
  0
POINT
  5
7398
330
8C0
100
AcDbEntity
  8
DEFPOINTS
 62
     0
100
AcDbPoint
 10
40.92702481089999
 20
-7.999999999999972
 30
0.0
  0
POINT
  5
7399
330
8C0
100
AcDbEntity
  8
DEFPOINTS
 62
     0
100
AcDbPoint
 10
55.91386053282599
 20
-7.999999999999976
 30
0.0
  0
ENDBLK
  5
8CB
330
8C0
100
AcDbEntity
  8
0
100
AcDbBlockEnd
  0
ENDSEC
  0
SECTION
  2
ENTITIES
  0
DIMENSION
  5
9D
330
1E
100
AcDbEntity
  8
2
100
AcDbDimension
  2
*D5
 10
55.91386053282599
 20
-7.999999999999976
 30
0.0
 11
55.91386053282599
 21
0.3068691709999803
 31
0.0
 70
   160
  1
%%c<>
 71
     5
 42
15.99999999999999
  3
ISO-25
100
AcDbAlignedDimension
 13
40.92702481089999
 23
8.000000000000023
 33
0.0
 14
40.92702481089999
 24
-7.999999999999972
 34
0.0
 50
270.0
100
AcDbRotatedDimension
  0
LINE
  5
9E
330
1E
100
AcDbEntity
  8
1
100
AcDbLine
 10
40.22702481089999
 20
-3.664448250499991
 30
0.0
 11
40.22702481089999
 21
-1.706183148000014
 31
0.0
  0
LINE
  5
9F
330
1E
100
AcDbEntity
  8
1
100
AcDbLine
 10
40.22702481089999
 20
1.735955800399973
 30
0.0
 11
40.22702481089999
 21
1.706183147899984
 31
0.0
  0
LINE
  5
A0
330
1E
100
AcDbEntity
  8
1
100
AcDbLine
 10
34.82255679979999
 20
1.002248062599983
 30
0.0
 11
34.82255679979999
 21
-6.461398118199982
 31
0.0
  0
LINE
  5
A1
330
1E
100
AcDbEntity
  8
1
100
AcDbLine
 10
34.56746976809998
 20
-6.364014533399974
 30
0.0
 11
34.56746976809998
 21
1.002248062599983
 31
0.0
  0
LINE
  5
A2
330
1E
100
AcDbEntity
  8
SK1
100
AcDbLine
 10
-0.9270248108999782
 20
8.00000000000003
 30
0.0
 11
-46.87297518909999
 21
8.00000000000003
 31
0.0
  0
LINE
  5
A3
330
1E
100
AcDbEntity
  8
1
100
AcDbLine
 10
33.56762870189998
 20
6.750000000000023
 30
0.0
 11
0.9270248108999799
 21
6.75000000000003
 31
0.0
  0
LINE
  5
A4
330
1E
100
AcDbEntity
  8
1
100
AcDbLine
 10
34.0458943951
 20
6.749815931600004
 30
0.0
 11
33.8310775081
 21
6.749815931600004
 31
0.0
  0
LINE
  5
A5
330
1E
100
AcDbEntity
  8
1
100
AcDbLine
 10
33.56762870189998
 20
6.748329761999995
 30
0.0
 11
25.00180658610001
 21
6.748329761999995
 31
0.0
  0
LINE
  5
A6
330
1E
100
AcDbEntity
  8
1
100
AcDbLine
 10
0.9270248108999799
 20
6.75000000000003
 30
0.0
 11
0.9270248108999783
 21
-6.749999999999968
 31
0.0
  0
LINE
  5
A7
330
1E
100
AcDbEntity
  8
1
100
AcDbLine
 10
0.0000000000000009
 20
7.37500000000003
 30
0.0
 11
-0.0000000000000009
 21
-7.374999999999968
 31
0.0
  0
LINE
  5
A8
330
1E
100
AcDbEntity
  8
SK1
100
AcDbLine
 10
-0.9270248108999782
 20
8.00000000000003
 30
0.0
 11
-0.9270248108999799
 21
-7.999999999999968
 31
0.0
  0
LINE
  5
A9
330
1E
100
AcDbEntity
  8
SK1
100
AcDbLine
 10
-19.0729751891
 20
5.055689863900002
 30
0.0
 11
-29.0729751891
 21
5.055689863900003
 31
0.0
  0
LINE
  5
AA
330
1E
100
AcDbEntity
  8
1
100
AcDbLine
 10
36.4412818109
 20
1.002248062599983
 30
0.0
 11
33.9412818109
 21
1.002248062599983
 31
0.0
  0
LINE
  5
AB
330
1E
100
AcDbEntity
  8
4
100
AcDbLine
 10
43.36204038299478
 20
0.0000000000000216
 30
0.0
 11
0.4510223848546961
 21
-0.0000000000000001
 31
0.0
  0
LINE
  5
AC
330
1E
100
AcDbEntity
  8
SK1
100
AcDbLine
 10
-19.0729751891
 20
-5.055689863900025
 30
0.0
 11
-29.0729751891
 21
-5.055689863900023
 31
0.0
  0
LINE
  5
AD
330
1E
100
AcDbEntity
  8
1
100
AcDbLine
 10
34.56746976809998
 20
-6.364014533399974
 30
0.0
 11
34.4264141926
 21
-6.364014533399974
 31
0.0
  0
LINE
  5
AE
330
1E
100
AcDbEntity
  8
1
100
AcDbLine
 10
34.1626813335
 20
-6.749815931599954
 30
0.0
 11
33.8310775081
 21
-6.749815931599954
 31
0.0
  0
LINE
  5
AF
330
1E
100
AcDbEntity
  8
1
100
AcDbLine
 10
33.6571182496
 20
-6.749999999999972
 30
0.0
 11
0.9270248108999783
 21
-6.749999999999968
 31
0.0
  0
LINE
  5
B0
330
1E
100
AcDbEntity
  8
SK1
100
AcDbLine
 10
-0.9270248108999799
 20
-7.999999999999968
 30
0.0
 11
-46.87297518909999
 21
-7.999999999999962
 31
0.0
  0
LINE
  5
B1
330
1E
100
AcDbEntity
  8
SK1
100
AcDbLine
 10
-19.0729751891
 20
5.055689863900002
 30
0.0
 11
-19.0729751891
 21
-5.055689863900025
 31
0.0
  0
LINE
  5
B2
330
1E
100
AcDbEntity
  8
SK1
100
AcDbLine
 10
-29.0729751891
 20
5.055689863900003
 30
0.0
 11
-29.0729751891
 21
-5.055689863900023
 31
0.0
  0
LINE
  5
B3
330
1E
100
AcDbEntity
  8
SK1
100
AcDbLine
 10
-46.87297518909999
 20
8.00000000000003
 30
0.0
 11
-48.0729751891
 21
6.800000000000013
 31
0.0
  0
LINE
  5
B4
330
1E
100
AcDbEntity
  8
SK1
100
AcDbLine
 10
-46.87297518909999
 20
-7.999999999999962
 30
0.0
 11
-48.0729751891
 21
-6.799999999999974
 31
0.0
  0
LINE
  5
B5
330
1E
100
AcDbEntity
  8
SK1
100
AcDbLine
 10
-46.87297518909999
 20
8.00000000000003
 30
0.0
 11
-46.87297518909999
 21
-7.999999999999962
 31
0.0
  0
LINE
  5
B6
330
1E
100
AcDbEntity
  8
SK1
100
AcDbLine
 10
-48.0729751891
 20
6.800000000000013
 30
0.0
 11
-48.0729751891
 21
-6.799999999999974
 31
0.0
  0
CIRCLE
  5
B9
330
1E
100
AcDbEntity
  8
1
100
AcDbCircle
 10
36.9412818109
 20
4.002248062599981
 30
0.0
 40
2.45
  0
ARC
  5
BA
330
1E
100
AcDbEntity
  8
1
100
AcDbCircle
 10
36.9412818109
 20
4.002248062599981
 30
0.0
 40
3.991597085
100
AcDbArc
 50
294.5212495916998
 51
228.7289707691999
  0
ARC
  5
BC
330
1E
100
AcDbEntity
  8
1
100
AcDbCircle
 10
36.9412818109
 20
-4.00224806259999
 30
0.0
 40
3.991597085
100
AcDbArc
 50
223.4994590996
 51
34.59539428880002
  0
ARC
  5
BE
330
1E
100
AcDbEntity
  8
1
100
AcDbCircle
 10
33.9412818109
 20
11.00224806259997
 30
0.0
 40
10.0
100
AcDbArc
 50
205.1942503129999
 51
270.0
  0
ARC
  5
BF
330
1E
100
AcDbEntity
  8
1
100
AcDbCircle
 10
36.9412818109
 20
-4.00224806259999
 30
0.0
 40
3.649999999999999
100
AcDbArc
 50
221.7185766539
 51
226.4701021533999
  0
ARC
  5
C0
330
1E
100
AcDbEntity
  8
SK1
100
AcDbCircle
 10
-0.9270248108999783
 20
7.00000000000003
 30
0.0
 40
1.0
100
AcDbArc
 50
22.02431283689996
 51
90.0
  0
ARC
  5
C1
330
1E
100
AcDbEntity
  8
SK1
100
AcDbCircle
 10
-0.9270248108999799
 20
-6.999999999999968
 30
0.0
 40
1.0
100
AcDbArc
 50
270.0
 51
337.9756871630998
  0
ARC
  5
C2
330
1E
100
AcDbEntity
  8
1
100
AcDbCircle
 10
36.4412818109
 20
2.997751937399973
 30
0.0
 40
4.0
100
AcDbArc
 50
311.4525788057998
 51
341.1620767932999
  0
ARC
  5
C3
330
1E
100
AcDbEntity
  8
1
100
AcDbCircle
 10
0.9270248108999782
 20
-7.749999999999968
 30
0.0
 40
1.0
100
AcDbArc
 50
90.0
 51
157.9756871627999
  0
ARC
  5
C4
330
1E
100
AcDbEntity
  8
1
100
AcDbCircle
 10
36.4412818109
 20
-2.997751937400013
 30
0.0
 40
4.0
100
AcDbArc
 50
18.83792320669994
 51
90.0
  0
ARC
  5
C5
330
1E
100
AcDbEntity
  8
1
100
AcDbCircle
 10
0.9270248108999799
 20
7.75000000000003
 30
0.0
 40
1.0
100
AcDbArc
 50
202.0243128371999
 51
270.0
  0
ARC
  5
C6
330
1E
100
AcDbEntity
  8
1
100
AcDbCircle
 10
36.9412818109
 20
4.002248062599981
 30
0.0
 40
4.349999999999996
100
AcDbArc
 50
140.8551454634998
 51
223.5676617584998
  0
ARC
  5
C7
330
1E
100
AcDbEntity
  8
1
100
AcDbCircle
 10
36.7998604547
 20
-3.860826706399993
 30
0.0
 40
1.75
100
AcDbArc
 50
300.0539256510999
 51
222.5706928236999
  0
LWPOLYLINE
  5
230
330
1E
100
AcDbEntity
  8
1
100
AcDbPolyline
 90
      155
 70
     0
 43
0.0
 10
34.82255679979999
 20
-6.461398118199982
 10
34.8635704808327
 20
-6.496759953071753
 10
34.9051668424691
 20
-6.531444393817454
 10
34.94733352284139
 20
-6.565438878394664
 10
34.9900581600821
 20
-6.598730844760972
 10
35.03332850685238
 20
-6.631307959684052
 10
35.0771332613032
 20
-6.663159778860761
 10
35.1214615874755
 20
-6.694276788758692
 10
35.1663026526776
 20
-6.724649482373202
 10
35.21164557671918
 20
-6.754268360837214
 10
35.250901514438
 20
-6.779048901030173
 10
35.29050970024979
 20
-6.803262934706562
 10
35.3304622699991
 20
-6.826904653534232
 10
35.3707513595301
 20
-6.849968249181034
 10
35.41136907305939
 20
-6.872447967046142
 10
35.4523072520512
 20
-6.894338498912932
 10
35.49355760781129
 20
-6.915634757687736
 10
35.535111850714
 20
-6.936331657859553
 10
35.5769616911334
 20
-6.956424113917405
 10
35.61909877833819
 20
-6.975907118399282
 10
35.661514430575
 20
-6.994776086650992
 10
35.7041998545201
 20
-7.013026576525162
 10
35.7471462567644
 20
-7.030654145983278
 10
35.7903448438877
 20
-7.047654353006615
 10
35.8337867442919
 20
-7.064022896248371
 10
35.8774628209404
 20
-7.079755951984763
 10
35.9213638805142
 20
-7.094849797765172
 10
35.9654807296944
 20
-7.109300711138962
 10
36.009804174557
 20
-7.123104971035061
 10
36.0543249235332
 20
-7.136259078995741
 10
36.09903348060679
 20
-7.148760002670263
 10
36.14392032406399
 20
-7.160604768293751
 10
36.18897593219071
 20
-7.171790402101312
 10
36.23419078039869
 20
-7.182313938930288
 10
36.27955523554339
 20
-7.192172738468022
 10
36.325059525283
 20
-7.201364576944582
 10
36.37069386815389
 20
-7.209887257886822
 10
36.4164484826925
 20
-7.217738584821602
 10
36.46231358149579
 20
-7.224916389082861
 10
36.50827928582749
 20
-7.231418929619001
 10
36.5543356453607
 20
-7.237244800559735
 10
36.6004727078511
 20
-7.242392605010762
 10
36.6466805210544
 20
-7.246860946077798
 10
36.692949124167
 20
-7.250648493666142
 10
36.7392684911402
 20
-7.253754426872782
 10
36.78562856588639
 20
-7.25617815922599
 10
36.83201929215849
 20
-7.257919105499662
 10
36.87843061370918
 20
-7.258976680467642
 10
36.9248524726205
 20
-7.259350430228651
 10
36.9712748040405
 20
-7.259040445912181
 10
37.0176875413185
 20
-7.258046960022173
 10
37.06408061780379
 20
-7.256370205062832
 10
37.1104439669085
 20
-7.254010414456142
 10
37.1567675374459
 20
-7.250968046513373
 10
37.2030413136712
 20
-7.247244077079342
 10
37.2492552848073
 20
-7.242839554536592
 10
37.29539944007699
 20
-7.23775552726769
 10
37.34146377012349
 20
-7.231993051290161
 10
37.38743832614709
 20
-7.225553508136101
 10
37.43331324125078
 20
-7.218438719592032
 10
37.4790786543494
 20
-7.210650538685222
 10
37.5247247043579
 20
-7.202190818442963
 10
37.57024153713171
 20
-7.193061437427092
 10
37.6156194115216
 20
-7.183264689909324
 10
37.6608486782896
 20
-7.17280320830215
 10
37.70591969086469
 20
-7.16167963483107
 10
37.7508228026761
 20
-7.149896611721582
 10
37.79554838966109
 20
-7.137456837381101
 10
37.8400870158111
 20
-7.124363479613262
 10
37.88442933871539
 20
-7.110619939849303
 10
37.92856601664579
 20
-7.096229621223206
 10
37.97248770787378
 20
-7.081195926868941
 10
38.0161851212629
 20
-7.065522360751392
 10
38.0596492091179
 20
-7.049212912018433
 10
38.1028709968742
 20
-7.032271715569454
 10
38.1458415099816
 20
-7.014702906332168
 10
38.1885517739607
 20
-6.996510619342762
 10
38.2309929134432
 20
-6.977699140972664
 10
38.27315634911659
 20
-6.958273209650584
 10
38.3150335567071
 20
-6.938237647845731
 10
38.35661601194121
 20
-6.917597278027324
 10
38.39789519177529
 20
-6.896356924224152
 10
38.4388627314132
 20
-6.874521611102892
 10
38.4795105785927
 20
-6.852096759583991
 10
38.51983071769527
 20
-6.829087837047683
 10
38.5598151331026
 20
-6.805500310874172
 10
38.59945581398338
 20
-6.781339653262342
 10
38.63874497808078
 20
-6.756611566484906
 10
38.67767516727589
 20
-6.731322079079463
 10
38.72263009989818
 20
-6.701116204872452
 10
38.76707450589571
 20
-6.670164053761422
 10
38.810996677445
 20
-6.638475318437872
 10
38.8543855524925
 20
-6.60606022969165
 10
38.897230334553
 20
-6.572929239601812
 10
38.9395202279601
 20
-6.539092800929384
 10
38.9812444783244
 20
-6.504561393538744
 10
39.02239293138929
 20
-6.469345891351911
 10
39.0629558860943
 20
-6.433457465867084
 10
39.1029236525399
 20
-6.396907295911122
 10
39.1422865496715
 20
-6.359706564944874
 10
39.18103535019628
 20
-6.321866694164074
 10
39.2245567545698
 20
-6.277853605222692
 10
39.2619608568365
 20
-6.238683810408402
 10
39.298724058253
 20
-6.198911921163982
 10
39.3348382066155
 20
-6.158549874913584
 10
39.3702959374842
 20
-6.117609918977542
 10
39.40508999115921
 20
-6.076104341879571
 10
39.4392131079407
 20
-6.034045432143352
 10
39.4726581699105
 20
-5.991445516680451
 10
39.5054189151045
 20
-5.948317154154932
 10
39.5374894011705
 20
-5.904672989766862
 10
39.5688636863057
 20
-5.860525668865132
 10
39.5995358543664
 20
-5.815887840513882
 10
39.629500631431
 20
-5.770772246767661
 10
39.6587534161364
 20
-5.725191727063842
 10
39.6872896388489
 20
-5.679159125434132
 10
39.71510473000789
 20
-5.632687285913132
 10
39.742194403809
 20
-5.585789063985111
 10
39.76855530131389
 20
-5.538477352533501
 10
39.79418425252429
 20
-5.490765052065492
 10
39.81907808744161
 20
-5.4426650630883
 10
39.84323368719289
 20
-5.394190282686041
 10
39.8666487030459
 20
-5.345353556378311
 10
39.8893213817729
 20
-5.296167689812822
 10
39.9112499856186
 20
-5.246645487601373
 10
39.9324327768535
 20
-5.196799754350924
 10
39.9528682978951
 20
-5.146643242363443
 10
39.9725560634891
 20
-5.096188522401893
 10
39.991495799191
 20
-5.045448125869863
 10
40.0096872305565
 20
-4.994434584170945
 10
40.027130099775
 20
-4.943160423720643
 10
40.04382476970399
 20
-4.891637984813542
 10
40.05977239475418
 20
-4.839879370379242
 10
40.074974180783
 20
-4.78789666792009
 10
40.08943133364759
 20
-4.735701964938433
 10
40.10314513419479
 20
-4.683307315545761
 10
40.1161177203579
 20
-4.630724392216393
 10
40.128351776143
 20
-4.577964624273363
 10
40.13984999435288
 20
-4.525039437122755
 10
40.1506150677904
 20
-4.471960256170663
 10
40.16064983073937
 20
-4.418738440181893
 10
40.1699580723084
 20
-4.365384898173923
 10
40.17854397644249
 20
-4.311910353185963
 10
40.18641172834
 20
-4.258325527666773
 10
40.1935655131994
 20
-4.204641144065162
 10
40.2000096986237
 20
-4.150867739476312
 10
40.2057496254657
 20
-4.097014862009153
 10
40.21079095786819
 20
-4.043091731255701
 10
40.2151393601891
 20
-3.989107566589553
 10
40.21880049678588
 20
-3.935071587384273
 10
40.2217802375577
 20
-3.880993090703674
 10
40.22408541898459
 20
-3.826881738959095
 10
40.2257231614219
 20
-3.772747301860641
 10
40.2267005852626
 20
-3.718599549132763
 10
40.227024810889
 20
-3.664458250500095
  0
LWPOLYLINE
  5
2CD
330
1E
100
AcDbEntity
  8
1
100
AcDbPolyline
 90
       68
 70
     0
 43
0.0
 10
34.1626813335
 20
-6.749815931599954
 10
34.16967534612489
 20
-6.749616630692882
 10
34.1766690771054
 20
-6.749342557768382
 10
34.183369770206
 20
-6.749007452863852
 10
34.189776416151
 20
-6.748618528751331
 10
34.19617925360459
 20
-6.748160801995092
 10
34.2022864539599
 20
-6.747657948621082
 10
34.2083881560149
 20
-6.747089013415902
 10
34.214193282775
 20
-6.746484218156578
 10
34.2199916683711
 20
-6.745816551340652
 10
34.2254931113648
 20
-6.745122729785602
 10
34.2309869646543
 20
-6.744369648408872
 10
34.23647249464279
 20
-6.743556080374692
 10
34.2416609699751
 20
-6.742728424713681
 10
34.24684069292398
 20
-6.741844337623828
 10
34.25201103650361
 20
-6.740902774363843
 10
34.2568847381133
 20
-6.739959692837683
 10
34.26174817695169
 20
-6.738963131290642
 10
34.26660020563339
 20
-6.737911902980824
 10
34.2711553701653
 20
-6.736871511000282
 10
34.2756984544788
 20
-6.735780653856452
 10
34.2802285019912
 20
-6.734638342154883
 10
34.28474455611989
 20
-6.733443586501152
 10
34.2889647973588
 20
-6.732274993463642
 10
34.29317111077899
 20
-6.731058622287945
 10
34.29736270818089
 20
-6.729793657738174
 10
34.3015388013645
 20
-6.728479284578432
 10
34.30542180475721
 20
-6.727207239571162
 10
34.30928997480789
 20
-6.725890781196738
 10
34.313142670681
 20
-6.724529246638196
 10
34.3169792515409
 20
-6.723121973078542
 10
34.32079907655189
 20
-6.721668297700812
 10
34.3246015033179
 20
-6.720167558281706
 10
34.328116045907
 20
-6.718731348272691
 10
34.33161398141979
 20
-6.717253660723414
 10
34.33509437422328
 20
-6.715734125694653
 10
34.3385562886845
 20
-6.714172373247195
 10
34.3419987891704
 20
-6.712568033441802
 10
34.3454209400479
 20
-6.710920736339271
 10
34.34882180568409
 20
-6.709230112000372
 10
34.3522004504457
 20
-6.707495790485888
 10
34.3555559386999
 20
-6.705717401856615
 10
34.35888733481351
 20
-6.703894576173302
 10
34.3619402769809
 20
-6.702172206748802
 10
34.36497115780738
 20
-6.700411367617292
 10
34.3679792413922
 20
-6.69861176781153
 10
34.37096379183468
 20
-6.696773116364332
 10
34.3739240732341
 20
-6.694895122308462
 10
34.3768593496897
 20
-6.692977494676702
 10
34.37976888530069
 20
-6.691019942501852
 10
34.3826519441535
 20
-6.689022174935802
 10
34.385507773185
 20
-6.686984057883543
 10
34.38833556842119
 20
-6.684905922600632
 10
34.3911345164845
 20
-6.682788186297972
 10
34.39390380399728
 20
-6.680631266186423
 10
34.3966426175816
 20
-6.678435579476871
 10
34.39957433327919
 20
-6.676013655734842
 10
34.4024682957085
 20
-6.673547255172901
 10
34.40532347073161
 20
-6.671036908237992
 10
34.40813882421009
 20
-6.668483145377052
 10
34.41091332200588
 20
-6.665886497037012
 10
34.4136459299808
 20
-6.663247493664798
 10
34.4163356139965
 20
-6.660566665707352
 10
34.418981339915
 20
-6.657844543611608
 10
34.42138363805359
 20
-6.655295622660001
 10
34.42374678623511
 20
-6.652712385359762
 10
34.4260699710819
 20
-6.650095248921768
 10
34.4273998677436
 20
-6.648560682945661
  0
LWPOLYLINE
  5
313
330
1E
100
AcDbEntity
  8
1
100
AcDbPolyline
 90
       62
 70
     0
 43
0.0
 10
34.56746976809998
 20
-6.364014533399974
 10
34.5716543530863
 20
-6.364037780221862
 10
34.5758389430561
 20
-6.364107499295704
 10
34.5800229285538
 20
-6.364223658533752
 10
34.5842057001241
 20
-6.364386225848262
 10
34.58838664831139
 20
-6.364595169151488
 10
34.59256516366009
 20
-6.364850456355704
 10
34.5967406367148
 20
-6.365152055373142
 10
34.6009124580201
 20
-6.365499934116072
 10
34.6050800268438
 20
-6.365894056314922
 10
34.6092428216306
 20
-6.366334347745502
 10
34.6134003630112
 20
-6.366820713960612
 10
34.61755217201019
 20
-6.367353060324552
 10
34.6216977696519
 20
-6.367931292201572
 10
34.6258366769605
 20
-6.368555314955964
 10
34.6299684149606
 20
-6.369225033951982
 10
34.63409250467629
 20
-6.369940354553931
 10
34.6382084668707
 20
-6.370701180895402
 10
34.64231581634779
 20
-6.371507389049892
 10
34.6464140619811
 20
-6.372358827166192
 10
34.65050271238879
 20
-6.373255342189582
 10
34.6545812761888
 20
-6.374196781065293
 10
34.6589200729112
 20
-6.375250326151832
 10
34.66324623787639
 20
-6.376354624705173
 10
34.6675591747287
 20
-6.377509490973552
 10
34.67185828799289
 20
-6.378714737905221
 10
34.67614300297199
 20
-6.379970147773668
 10
34.68041276604298
 20
-6.381275471740244
 10
34.68466702452281
 20
-6.38263045957886
 10
34.6889052257282
 20
-6.384034861063462
 10
34.69312681697628
 20
-6.385488425967968
 10
34.69733124558379
 20
-6.386990904066322
 10
34.70151795886769
 20
-6.388542045132442
 10
34.70568640674311
 20
-6.390141595449971
 10
34.7098360633845
 20
-6.391789268715013
 10
34.7139664161904
 20
-6.393484760859641
 10
34.7183331915627
 20
-6.395338276249842
 10
34.7226769814992
 20
-6.397245066273195
 10
34.7269971713134
 20
-6.399204765996923
 10
34.73129314631861
 20
-6.401217010488282
 10
34.73556429189319
 20
-6.403281434731664
 10
34.73981000720849
 20
-6.405397656128242
 10
34.7440297222178
 20
-6.407565252839368
 10
34.7482228710402
 20
-6.409783797715512
 10
34.7526330905667
 20
-6.412187902261172
 10
34.75701222040338
 20
-6.414648139234503
 10
34.7613595888189
 20
-6.417164001585612
 10
34.7656745240817
 20
-6.419734982264622
 10
34.7699563729442
 20
-6.422360570742001
 10
34.77420455268758
 20
-6.425040243211013
 10
34.77841849741289
 20
-6.427773472698603
 10
34.7828287841105
 20
-6.430716068734223
 10
34.78719963015961
 20
-6.433717130943962
 10
34.7915303700077
 20
-6.436776039556161
 10
34.7958203380134
 20
-6.439892174580485
 10
34.8000688479852
 20
-6.443064865510401
 10
34.8044953694988
 20
-6.446464775754374
 10
34.80887427970859
 20
-6.449925547184061
 10
34.8132047162676
 20
-6.453446245327723
 10
34.81769856131839
 20
-6.457206452017111
 10
34.82213701515699
 20
-6.461030615885633
 10
34.8225492801685
 20
-6.461391526146192
  0
LWPOLYLINE
  5
353
330
1E
100
AcDbEntity
  8
1
100
AcDbPolyline
 90
      112
 70
     0
 43
0.0
 10
34.21683983359999
 20
-6.431222313599992
 10
34.21635195585469
 20
-6.430664099979362
 10
34.21587472947499
 20
-6.430094657374882
 10
34.21540965738159
 20
-6.429513874387762
 10
34.21495824249531
 20
-6.428921639619224
 10
34.2145219877367
 20
-6.428317841670491
 10
34.21410239602659
 20
-6.427702369142783
 10
34.2137009702857
 20
-6.427075110637322
 10
34.2133192134347
 20
-6.42643595475531
 10
34.21295862839428
 20
-6.425784790097992
 10
34.21273074266739
 20
-6.425343953772852
 10
34.2125133799087
 20
-6.424897697696612
 10
34.2123069854281
 20
-6.424445988862253
 10
34.21211200453539
 20
-6.423988794262691
 10
34.211928882067
 20
-6.423526083226562
 10
34.2117580269535
 20
-6.423058002221043
 10
34.2115997876683
 20
-6.422584995975262
 10
34.2114545068791
 20
-6.422107537859893
 10
34.2113225272537
 20
-6.421626101245578
 10
34.2112041914597
 20
-6.421141159502986
 10
34.2110998421649
 20
-6.42065318600275
 10
34.211009822037
 20
-6.420162654115532
 10
34.2109344737438
 20
-6.419670037211986
 10
34.2108741399529
 20
-6.419175808662792
 10
34.2108291633322
 20
-6.418680441838562
 10
34.21079988654931
 20
-6.418184410109982
 10
34.210786652272
 20
-6.417688186847683
 10
34.2107898031681
 20
-6.417192245422342
 10
34.21080968190507
 20
-6.416697059204602
 10
34.21084662790919
 20
-6.416203100992423
 10
34.2109006939831
 20
-6.415710792947562
 10
34.2109714255877
 20
-6.415220467602464
 10
34.21105831623448
 20
-6.414732448311932
 10
34.21116085943499
 20
-6.414247058430738
 10
34.21127854870039
 20
-6.413764621313688
 10
34.21141087754239
 20
-6.413285460315562
 10
34.2115573394721
 20
-6.412809898791143
 10
34.2117174280012
 20
-6.412338260095222
 10
34.211890636641
 20
-6.411870867582592
 10
34.2120764589029
 20
-6.411408044608041
 10
34.21227438829829
 20
-6.410950114526352
 10
34.2124839183387
 20
-6.410497400692322
 10
34.2127045425355
 20
-6.410050226460735
 10
34.2129357544
 20
-6.409608915186374
 10
34.2133013275169
 20
-6.408958619724042
 10
34.2136881701611
 20
-6.408322581946704
 10
34.2140951379251
 20
-6.407700457514492
 10
34.2145210991098
 20
-6.407091869795534
 10
34.214964922016
 20
-6.406496442157962
 10
34.21542547494439
 20
-6.405913797969912
 10
34.215901626196
 20
-6.405343560599522
 10
34.2163922440716
 20
-6.404785353414914
 10
34.2168961968719
 20
-6.404238799784232
 10
34.21741235289771
 20
-6.403703523075601
 10
34.21811758770429
 20
-6.403006711707532
 10
34.2188398263902
 20
-6.402328386383882
 10
34.2195769589419
 20
-6.401667732666293
 10
34.22032805114069
 20
-6.401024096957312
 10
34.22109231433498
 20
-6.400396845572111
 10
34.2218689598733
 20
-6.399785344825883
 10
34.222657199104
 20
-6.399188961033781
 10
34.2234562433756
 20
-6.398607060510972
 10
34.22426530403661
 20
-6.398039009572652
 10
34.225289513949
 20
-6.397347456498682
 10
34.22632660186678
 20
-6.39667531560223
 10
34.22737502745469
 20
-6.396021349217632
 10
34.22843342430101
 20
-6.395384425804692
 10
34.2295011179812
 20
-6.394763836064592
 10
34.23057760614639
 20
-6.394158975696682
 10
34.2318802933576
 20
-6.393453055171142
 10
34.23319405318599
 20
-6.392767870517072
 10
34.23451801757289
 20
-6.392102377502945
 10
34.23585131845928
 20
-6.391455531897213
 10
34.23741747837659
 20
-6.390723053828382
 10
34.2389937863374
 20
-6.390012877438204
 10
34.240806074946
 20
-6.389226561742312
 10
34.2426289134075
 20
-6.388465866134898
 10
34.244461613221
 20
-6.387729659697402
 10
34.24630348680131
 20
-6.387016812410142
 10
34.2483857039729
 20
-6.386241373689322
 10
34.2504776824645
 20
-6.385492459758054
 10
34.2528123607323
 20
-6.384689485553712
 10
34.255156541264
 20
-6.383915068495118
 10
34.25774485800769
 20
-6.383094037383624
 10
34.2603426203905
 20
-6.382303833509392
 10
34.2631864974364
 20
-6.381475272481912
 10
34.26627806574141
 20
-6.380614994999332
 10
34.2693796436414
 20
-6.379791243266328
 10
34.27272968018579
 20
-6.378942269408673
 10
34.27632888776539
 20
-6.378073472377172
 10
34.2801782413187
 20
-6.377190814717312
 10
34.28403724047039
 20
-6.376351428274293
 10
34.2881469885367
 20
-6.375504469815822
 10
34.29250804666699
 20
-6.374655152401584
 10
34.29736367493561
 20
-6.373764900661282
 10
34.30247197368331
 20
-6.372886885359022
 10
34.3078333318895
 20
-6.372026332285232
 10
34.3134479620676
 20
-6.371188103979942
 10
34.31931582368068
 20
-6.370376509453502
 10
34.32568160441999
 20
-6.369565318892792
 10
34.3323007277015
 20
-6.368793698621681
 10
34.3391730844387
 20
-6.368066087131652
 10
34.34654419736229
 20
-6.367364317444093
 10
34.35441418042251
 20
-6.366699424073326
 10
34.3625367117887
 20
-6.366099205751754
 10
34.3711577389484
 20
-6.365553278582998
 10
34.3800305901147
 20
-6.365084703299271
 10
34.38940108718981
 20
-6.364687259280872
 10
34.3992685635464
 20
-6.364371537283451
 10
34.40938547893178
 20
-6.364153079054384
 10
34.4199974776351
 20
-6.364033918413801
 10
34.4264041925996
 20
-6.364014533446632
  0
LWPOLYLINE
  5
3C5
330
1E
100
AcDbEntity
  8
1
100
AcDbPolyline
 90
        2
 70
     0
 43
0.0
 10
33.6570642418
 20
-6.749999929200012
 10
33.8310675081
 20
-6.749815931601014
  0
LWPOLYLINE
  5
3C9
330
1E
100
AcDbEntity
  8
1
100
AcDbPolyline
 90
        2
 70
     0
 43
0.0
 10
33.657064282
 20
6.749999928999971
 10
33.8310675081
 20
6.749815931601062
  0
LWPOLYLINE
  5
3CD
330
1E
100
AcDbEntity
  8
1
100
AcDbPolyline
 90
       79
 70
     0
 43
0.0
 10
37.6762864673
 20
-5.375546959200023
 10
37.6481707190393
 20
-5.384524480821193
 10
37.61994726297828
 20
-5.393167151833844
 10
37.59162064151517
 20
-5.401472624485373
 10
37.56319539704839
 20
-5.409438551023193
 10
37.5346760719761
 20
-5.417062583694703
 10
37.5060672085544
 20
-5.424342374922801
 10
37.4773732057468
 20
-5.431275753946222
 10
37.4508143154439
 20
-5.437366890746214
 10
37.42418935404247
 20
-5.443160208995293
 10
37.39750139870869
 20
-5.44865447361088
 10
37.3707535266082
 20
-5.453848449510362
 10
37.3439488149071
 20
-5.458740901611152
 10
37.3170903861182
 20
-5.463330636310971
 10
37.2901816127355
 20
-5.467616688673794
 10
37.2632259529284
 20
-5.471598172133483
 10
37.23622686494199
 20
-5.475274200193543
 10
37.20918780702179
 20
-5.478643886357462
 10
37.182112237413
 20
-5.481706344128761
 10
37.1550036164722
 20
-5.484460705499572
 10
37.12786543351128
 20
-5.486906356039123
 10
37.100701198858
 20
-5.489042865357035
 10
37.07351442331129
 20
-5.490869807194783
 10
37.04630861767059
 20
-5.492386755293905
 10
37.0190872927349
 20
-5.493593283395874
 10
36.9918539597582
 20
-5.494488969484049
 10
36.9646121495079
 20
-5.495073573644933
 10
36.93736541922179
 20
-5.495347102985864
 10
36.9101173280241
 20
-5.495309582219122
 10
36.8828714350392
 20
-5.494961036057002
 10
36.85563129939121
 20
-5.494301489211783
 10
36.8284004801775
 20
-5.493330966671551
 10
36.80118252520041
 20
-5.492049609227048
 10
36.7739809535195
 20
-5.490457852347669
 10
36.7467992796902
 20
-5.488556177686402
 10
36.71964101826739
 20
-5.486345066896213
 10
36.6925096838064
 20
-5.483825001630072
 10
36.6654087908623
 20
-5.480996463540971
 10
36.6383418393235
 20
-5.477859989042561
 10
36.6113122515983
 20
-5.474416403836221
 10
36.5843234246036
 20
-5.470666628799575
 10
36.55737875524089
 20
-5.466611584867734
 10
36.5304816404117
 20
-5.462252192975821
 10
36.5036354770175
 20
-5.457589374058962
 10
36.4768436538814
 20
-5.452624066824271
 10
36.45010945570859
 20
-5.447357439023583
 10
36.4234360948469
 20
-5.4417908175865
 10
36.39682678218211
 20
-5.435925532658591
 10
36.3680760274514
 20
-5.429235983261153
 10
36.3394082910863
 20
-5.422199171309075
 10
36.3108276480117
 20
-5.414816799238224
 10
36.28233801983
 20
-5.407090801993471
 10
36.25394318402801
 20
-5.399023333064971
 10
36.2256469125031
 20
-5.390616554419588
 10
36.1974529771525
 20
-5.381872628024169
 10
36.1693651498734
 20
-5.372793715845582
 10
36.1413871867036
 20
-5.363381995507891
 10
36.1135226255441
 20
-5.35363985998744
 10
36.08577484566878
 20
-5.343569858863164
 10
36.05814722277379
 20
-5.333174545246193
 10
36.03064313255511
 20
-5.32245647224765
 10
36.00116536700307
 20
-5.310555904803411
 10
35.9718389694173
 20
-5.298287192796521
 10
35.94266783586721
 20
-5.285653827791822
 10
35.91365570930171
 20
-5.272659446198002
 10
35.8848063312564
 20
-5.259307685760572
 10
35.8561234432667
 20
-5.245602184225051
 10
35.8276107867741
 20
-5.231546579354183
 10
35.79927192932309
 20
-5.217144540733523
 10
35.7691051750866
 20
-5.201333630276902
 10
35.73914502248779
 20
-5.185134009424943
 10
35.70939507674459
 20
-5.168550334841301
 10
35.67985894307461
 20
-5.151587263189612
 10
35.65054023814929
 20
-5.134249490974791
 10
35.6214427285996
 20
-5.116542236336983
 10
35.590653554249
 20
-5.097253538881953
 10
35.56012515841239
 20
-5.077557593690412
 10
35.529862242933
 20
-5.057461187763292
 10
35.51109307202529
 20
-5.044706245300933
  0
LWPOLYLINE
  5
41E
330
1E
100
AcDbEntity
  8
SK1
100
AcDbPolyline
 90
       59
 70
     0
 43
0.0
 10
-19.0729751891
 20
-5.055689863900025
 10
-19.0043905875915
 20
-4.970396770209084
 10
-18.93697471747358
 20
-4.884167541434063
 10
-18.8707425408022
 20
-4.797021373666884
 10
-18.80570901070679
 20
-4.708977455782436
 10
-18.7450499519385
 20
-4.624520804306785
 10
-18.6854947754076
 20
-4.539284298218773
 10
-18.6270529234447
 20
-4.453281658537327
 10
-18.56973383844889
 20
-4.366526618849404
 10
-18.51354696585789
 20
-4.279033467607133
 10
-18.45850175527957
 20
-4.190817254929286
 10
-18.40460765662457
 20
-4.101893086168455
 10
-18.35462045804569
 20
-4.017009785524712
 10
-18.30568244128469
 20
-3.931517581052196
 10
-18.2578008517261
 20
-3.845429470540635
 10
-18.21098292401019
 20
-3.758758453877586
 10
-18.16523586574889
 20
-3.671517549062876
 10
-18.12056655418869
 20
-3.583719995482546
 10
-18.07698164550307
 20
-3.495379180669194
 10
-18.03448779180746
 20
-3.406508494874767
 10
-17.9930915867462
 20
-3.317121353626636
 10
-17.95279921311139
 20
-3.227231350051384
 10
-17.9157642668452
 20
-3.141885821225805
 10
-17.8797243283177
 20
-3.056115459788206
 10
-17.84468438448989
 20
-2.969931811858896
 10
-17.81064907032298
 20
-2.883346571898006
 10
-17.77762291425689
 20
-2.796371479255637
 10
-17.74561044470798
 20
-2.709018273291856
 10
-17.71461609566198
 20
-2.621298727027404
 10
-17.68464394436637
 20
-2.533224740645685
 10
-17.65569798384169
 20
-2.444808244353556
 10
-17.6277822067117
 20
-2.356061168481816
 10
-17.60090046659248
 20
-2.266995486784095
 10
-17.5750562742886
 20
-2.177623280100735
 10
-17.5502530886938
 20
-2.087956645487694
 10
-17.5264943643692
 20
-1.998007681104235
 10
-17.5037833468049
 20
-1.907788538346514
 10
-17.4821229837337
 20
-1.817311444430354
 10
-17.4626991466415
 20
-1.731931851145555
 10
-17.44421101182349
 20
-1.646344798872254
 10
-17.42666078668968
 20
-1.560560542570485
 10
-17.41005047314369
 20
-1.474589387180495
 10
-17.3943820652335
 20
-1.388441639553053
 10
-17.3796575423667
 20
-1.302127607539407
 10
-17.3658786491824
 20
-1.215657615033916
 10
-17.3530469412084
 20
-1.129041998854094
 10
-17.34116396859739
 20
-1.042291096184714
 10
-17.3302312589974
 20
-0.9554152558271486
 10
-17.3202500841759
 20
-0.8684249586628139
 10
-17.31122155350118
 20
-0.7813307694001731
 10
-17.30314677375308
 20
-0.6941432540838322
 10
-17.2960268155309
 20
-0.6068729288878723
 10
-17.28986247189849
 20
-0.5195299274339409
 10
-17.28465440744529
 20
-0.4321242062559509
 10
-17.2804032860619
 20
-0.3446657209245789
 10
-17.27710971396939
 20
-0.2571647458770119
 10
-17.2747740049398
 20
-0.1696331725540429
 10
-17.27339638026609
 20
-0.0820834037324284
 10
-17.2729751891063
 20
-0.0000100000000072
  0
LWPOLYLINE
  5
45B
330
1E
100
AcDbEntity
  8
SK1
100
AcDbPolyline
 90
       59
 70
     0
 43
0.0
 10
-17.27297518909999
 20
0.0000000000000305
 10
-17.2734544087584
 20
0.087555562740818
 10
-17.2748919202165
 20
0.1751045578667391
 10
-17.2772875021986
 20
0.2626345823927791
 10
-17.2806409332212
 20
0.3501332344833371
 10
-17.2849518829839
 20
0.4375887140141642
 10
-17.290219734323
 20
0.5249908070959896
 10
-17.2964438233578
 20
0.6123295581636122
 10
-17.3036234846901
 20
0.6995950095601601
 10
-17.31175790636227
 20
0.7867770016330591
 10
-17.3208460098117
 20
0.8738650072814401
 10
-17.3308866882203
 20
0.9608484604609978
 10
-17.3418788304014
 20
1.047716797382481
 10
-17.35382114439278
 20
1.134459547579589
 10
-17.366712096854
 20
1.221066365194322
 10
-17.3805501376371
 20
1.307526913045218
 10
-17.3953337084314
 20
1.393830854508572
 10
-17.4110610439104
 20
1.47996786710583
 10
-17.4277301604209
 20
1.565927643276448
 10
-17.44533906388279
 20
1.65169987617235
 10
-17.4638857488303
 20
1.73727426171481
 10
-17.48336798705678
 20
1.822640550001321
 10
-17.50509023433108
 20
1.913102808921022
 10
-17.5278629640202
 20
2.003306397090339
 10
-17.55168322146019
 20
2.093239089062741
 10
-17.5765477384986
 20
2.182888739213459
 10
-17.6024530587847
 20
2.272243249837509
 10
-17.6293957234059
 20
2.361290523882166
 10
-17.6573722098127
 20
2.45001848417397
 10
-17.6863786450408
 20
2.53841516300362
 10
-17.71641103615839
 20
2.626468630137801
 10
-17.7474653901224
 20
2.714166955378181
 10
-17.77953761363908
 20
2.80149824426222
 10
-17.8126232573085
 20
2.888450729266161
 10
-17.8467177926965
 20
2.97501267103903
 10
-17.88181669120589
 20
3.061172330298681
 10
-17.9179152996332
 20
3.14691802027397
 10
-17.9550086181804
 20
3.232238200254111
 10
-17.9953624733562
 20
3.3221006255548
 10
-18.0368198254666
 20
3.411459429466671
 10
-18.07937446780539
 20
3.500301029200311
 10
-18.12301979558268
 20
3.588612014046951
 10
-18.16774915667489
 20
3.676378993758832
 10
-18.21355589262569
 20
3.763588582332118
 10
-18.26043310244509
 20
3.850227556291108
 10
-18.3083735721886
 20
3.936282901879491
 10
-18.35737006720648
 20
4.021741619215891
 10
-18.40741533740569
 20
4.106590711434233
 10
-18.4613702564701
 20
4.195477995875391
 10
-18.51647579010009
 20
4.283656529227497
 10
-18.57272248838248
 20
4.371111206141081
 10
-18.6301009017897
 20
4.457826991763561
 10
-18.6886015851696
 20
4.543789650670833
 10
-18.7482150961415
 20
4.628985453813418
 10
-18.8089319923686
 20
4.713400680169561
 10
-18.87402580600889
 20
4.801400163095419
 10
-18.94031752265848
 20
4.888500939770637
 10
-19.00779218467119
 20
4.974683817671141
 10
-19.07296886949248
 20
5.055682113896011
  0
LWPOLYLINE
  5
498
330
1E
100
AcDbEntity
  8
SK1
100
AcDbPolyline
 90
       59
 70
     0
 43
0.0
 10
-29.0729751891
 20
-5.055689863900023
 10
-29.1415597906084
 20
-4.970396770209221
 10
-29.2089756607263
 20
-4.884167541434356
 10
-29.27520783739748
 20
-4.797021373667293
 10
-29.3402413674928
 20
-4.708977455782946
 10
-29.4009004262608
 20
-4.624520804307374
 10
-29.4604556027915
 20
-4.539284298219461
 10
-29.5188974547545
 20
-4.453281658538195
 10
-29.5762165397505
 20
-4.366526618850555
 10
-29.632403412342
 20
-4.279033467608654
 10
-29.68744862292039
 20
-4.190817254931053
 10
-29.74134272157499
 20
-4.101893086170181
 10
-29.79132992015239
 20
-4.017009785525984
 10
-29.8402679369116
 20
-3.931517581052873
 10
-29.8881495264694
 20
-3.845429470541176
 10
-29.9349674541872
 20
-3.758758453879051
 10
-29.9807145124539
 20
-3.671517549066835
 10
-30.02538382402029
 20
-3.583719995489323
 10
-30.0689687327075
 20
-3.495379180676794
 10
-30.1114625863944
 20
-3.406508494878834
 10
-30.15285879143279
 20
-3.317121353621096
 10
-30.19315116503749
 20
-3.227231350033064
 10
-30.2301861112793
 20
-3.141885821196903
 10
-30.2662260497963
 20
-3.056115459754336
 10
-30.30126599363439
 20
-2.969931811828645
 10
-30.3353013078262
 20
-2.883346571877412
 10
-30.3683274639212
 20
-2.796371479246555
 10
-30.40033993349239
 20
-2.709018273291905
 10
-30.4313342825466
 20
-2.621298727031173
 10
-30.4613064338403
 20
-2.533224740649146
 10
-30.49025239436
 20
-2.444808244355095
 10
-30.5181681714885
 20
-2.356061168482225
 10
-30.5450499116126
 20
-2.266995486785443
 10
-30.5708941039219
 20
-2.177623280103516
 10
-30.59569728951461
 20
-2.087956645490403
 10
-30.6194560138222
 20
-1.998007681103413
 10
-30.6421670313554
 20
-1.907788538338724
 10
-30.6638273943939
 20
-1.817311444414985
 10
-30.68325123146581
 20
-1.731931851125205
 10
-30.70173936628469
 20
-1.646344798851485
 10
-30.7192895914399
 20
-1.560560542553814
 10
-30.73589990501719
 20
-1.474589387170165
 10
-30.7515683129575
 20
-1.388441639548945
 10
-30.7662928358422
 20
-1.302127607539105
 10
-30.7800717290307
 20
-1.215657615034634
 10
-30.79290343700061
 20
-1.129041998854114
 10
-30.80478640960469
 20
-1.042291096183475
 10
-30.8157191192002
 20
-0.9554152558251422
 10
-30.82570029402079
 20
-0.8684249586607711
 10
-30.83472882469669
 20
-0.7813307693985223
 10
-30.84280360444669
 20
-0.6941432540826942
 10
-30.84992356266989
 20
-0.6068729288870892
 10
-30.8560879063024
 20
-0.5195299274333254
 10
-30.8612959707552
 20
-0.4321242062554014
 10
-30.8655470921381
 20
-0.3446657209240762
 10
-30.86884066423039
 20
-0.2571647458766082
 10
-30.87117637326
 20
-0.1696331725537842
 10
-30.8725539979339
 20
-0.0820834037323339
 10
-30.8729751890937
 20
-0.0000100000000055
  0
LWPOLYLINE
  5
4D5
330
1E
100
AcDbEntity
  8
SK1
100
AcDbPolyline
 90
       59
 70
     0
 43
0.0
 10
-30.8729751891
 20
0.0000000000000322
 10
-30.8724959694416
 20
0.0875555627407516
 10
-30.87105845798349
 20
0.1751045578666047
 10
-30.86866287600139
 20
0.2626345823925757
 10
-30.8653094449788
 20
0.3501332344830659
 10
-30.8609984952161
 20
0.4375887140138249
 10
-30.85573064387709
 20
0.524990807095583
 10
-30.8495065548423
 20
0.6123295581631388
 10
-30.84232689350999
 20
0.699595009559619
 10
-30.8341924718378
 20
0.7867770016324509
 10
-30.8251043683883
 20
0.8738650072807633
 10
-30.8150636899798
 20
0.9608484604602546
 10
-30.80407154779869
 20
1.047716797381673
 10
-30.7921292338073
 20
1.134459547578712
 10
-30.77923828134609
 20
1.221066365193383
 10
-30.7654002405631
 20
1.307526913044219
 10
-30.7506166697688
 20
1.393830854507501
 10
-30.7348893342898
 20
1.479967867104682
 10
-30.7182202177793
 20
1.565927643275243
 10
-30.7006113143174
 20
1.651699876171089
 10
-30.68206462937001
 20
1.737274261713493
 10
-30.66258239114361
 20
1.82264054999996
 10
-30.6408601438693
 20
1.9131028089196
 10
-30.6180874141803
 20
2.003306397088838
 10
-30.5942671567402
 20
2.093239089061122
 10
-30.5694026397017
 20
2.182888739211731
 10
-30.5434973194156
 20
2.272243249835703
 10
-30.5165546547946
 20
2.36129052388037
 10
-30.4885781683882
 20
2.450018484172291
 10
-30.4595717331605
 20
2.538415163002029
 10
-30.4295393420429
 20
2.626468630136149
 10
-30.39848498807828
 20
2.714166955376123
 10
-30.36641276456029
 20
2.801498244259393
 10
-30.33332712088979
 20
2.888450729262691
 10
-30.299232585502
 20
2.975012671035621
 10
-30.2641336869955
 20
3.061172330296662
 10
-30.22803507857361
 20
3.146918020274592
 10
-30.1909417600306
 20
3.232238200256791
 10
-30.1505879048533
 20
3.322100625556612
 10
-30.1091305527303
 20
3.411459429461981
 10
-30.0665759103674
 20
3.500301029183301
 10
-30.0229305825634
 20
3.588612014016382
 10
-29.97820122145149
 20
3.676378993718564
 10
-29.9323944854979
 20
3.763588582291031
 10
-29.88551727569399
 20
3.850227556258861
 10
-29.8375768059757
 20
3.93628290186106
 10
-29.7885803109831
 20
4.021741619211222
 10
-29.7385350408002
 20
4.106590711438379
 10
-29.68458012174069
 20
4.195477995882032
 10
-29.62947458810729
 20
4.283656529232263
 10
-29.5732278898189
 20
4.371111206142451
 10
-29.51584947640769
 20
4.45782699176271
 10
-29.4573487930271
 20
4.543789650669511
 10
-29.39773528205638
 20
4.628985453812632
 10
-29.33701838583099
 20
4.713400680169582
 10
-29.2719245721916
 20
4.801400163095862
 10
-29.205632855542
 20
4.888500939771001
 10
-29.1381581935291
 20
4.974683817671233
 10
-29.07298150870749
 20
5.055682113896011
  0
LWPOLYLINE
  5
512
330
1E
100
AcDbEntity
  8
1
100
AcDbPolyline
 90
       40
 70
     0
 43
0.0
 10
24.8925840582
 20
6.745363171099985
 10
24.89257403938029
 20
6.745536383087302
 10
24.89270397318048
 20
6.745666364573085
 10
24.89293433650039
 20
6.745762774371007
 10
24.89322560623969
 20
6.745835271294745
 10
24.8935382592983
 20
6.745893514157971
 10
24.89383893391289
 20
6.745945748914512
 10
24.8941215526964
 20
6.745993964921667
 10
24.8943875882621
 20
6.746038420241665
 10
24.89463851348929
 20
6.746079372875755
 10
24.8948758012571
 20
6.746117080825206
 10
24.89510092444461
 20
6.746151802091275
 10
24.895315355931
 20
6.746183794675217
 10
24.8955205685956
 20
6.746213316578295
 10
24.8957180353173
 20
6.746240625801762
 10
24.8959092289756
 20
6.746265980346882
 10
24.89618747939189
 20
6.746300911520415
 10
24.8967314628487
 20
6.746362804314105
 10
24.89700713782089
 20
6.746391507442346
 10
24.8972909256369
 20
6.746419722855497
 10
24.8975831065335
 20
6.746447580886522
 10
24.8978830696083
 20
6.746475071204065
 10
24.8981902039591
 20
6.746502183476767
 10
24.8985038986833
 20
6.746528907373265
 10
24.89882354287869
 20
6.746555232562204
 10
24.8991485256428
 20
6.746581148712227
 10
24.8995890845547
 20
6.746615049439487
 10
24.90003660014199
 20
6.746648180130423
 10
24.9006035714145
 20
6.746688473322855
 10
24.90301501919861
 20
6.746843068920414
 10
24.90380758275128
 20
6.746889020937625
 10
24.9047020320963
 20
6.746938289584534
 10
24.90569602629639
 20
6.746989942650306
 10
24.9068969581704
 20
6.747048262884335
 10
24.9120724752845
 20
6.747260007681831
 10
24.91544855200769
 20
6.747376208049867
 10
24.92674997125289
 20
6.747681447617916
 10
24.94807724134011
 20
6.748036570636513
 10
24.9898804941502
 20
6.748316797646877
 10
25.0017987229001
 20
6.748329761991034
  0
LWPOLYLINE
  5
53C
330
1E
100
AcDbEntity
  8
1
100
AcDbPolyline
 90
       32
 70
     0
 43
0.0
 10
33.56762870189998
 20
6.748329761999995
 10
33.5677498599383
 20
6.748455858779902
 10
33.56788622511889
 20
6.748558072578365
 10
33.56803617429739
 20
6.748638810865762
 10
33.5681980843296
 20
6.748700481112482
 10
33.56837033207099
 20
6.748745490788905
 10
33.5685512943774
 20
6.748776247365423
 10
33.5687393481045
 20
6.748795158312412
 10
33.5689328701078
 20
6.748804631100275
 10
33.5691302372432
 20
6.748807073199372
 10
33.56942994694048
 20
6.748802820148084
 10
33.5698279875039
 20
6.748794838365713
 10
33.5701211796566
 20
6.748793365793804
 10
33.5704097738531
 20
6.748795956768034
 10
33.57069407511259
 20
6.748802312919672
 10
33.5710669927506
 20
6.748816129032054
 10
33.5714335437659
 20
6.748835401115331
 10
33.5717944511674
 20
6.748859421925081
 10
33.57223875054589
 20
6.748895048391102
 10
33.5727637493262
 20
6.748944190784715
 10
33.5734539062961
 20
6.749016639376013
 10
33.57499383381131
 20
6.749181004450552
 10
33.57559819734468
 20
6.749235338220963
 10
33.5762953996012
 20
6.749288349551432
 10
33.5769988174805
 20
6.749332582042304
 10
33.5777966571732
 20
6.749373035077392
 10
33.57877962735348
 20
6.749411001174794
 10
33.5800402325561
 20
6.749444750071252
 10
33.5826690584922
 20
6.749483602514882
 10
33.58673299144
 20
6.749540204717574
 10
33.6060357222183
 20
6.749846618055262
 10
33.6570542820006
 20
6.749999929962942
  0
LINE
  5
55E
330
1E
100
AcDbEntity
  8
SK4
100
AcDbLine
 10
-24.0729751891
 20
6.800000000000013
 30
0.0
 11
-24.0729751891
 21
-6.799999999999977
 31
0.0
  0
DIMENSION
  5
55F
330
1E
100
AcDbEntity
  8
SK2
100
AcDbDimension
  2
*D1
 10
-63.07508477247984
 20
8.00000000000004
 30
0.0
 11
-63.07508477247984
 21
0.0000000000000322
 31
0.0
 70
   160
  1
%%c<>
 71
     5
 42
15.99999999999999
  3
ISO-25
100
AcDbAlignedDimension
 13
-46.87297518909999
 23
-7.999999999999962
 33
0.0
 14
-46.87297518909999
 24
8.00000000000003
 34
0.0
 50
270.0
100
AcDbRotatedDimension
  0
DIMENSION
  5
560
330
1E
100
AcDbEntity
  8
SK2
100
AcDbDimension
  2
*D3
 10
40.9328788959
 20
-32.99999999999997
 30
0.0
 11
8.429951853399991
 21
-32.99999999999997
 31
0.0
 70
   160
 71
     5
 42
65.005854085
  3
ISO-25
100
AcDbAlignedDimension
 13
-24.0729751891
 23
0.0000000000000313
 33
0.0
 14
40.9328788959
 24
-4.002248062599993
 34
0.0
 50
180.0
100
AcDbRotatedDimension
1001
ACAD
1000
DSTYLE
1002
{
1070
   271
1070
     0
1002
}
  0
DIMENSION
  5
561
330
1E
100
AcDbEntity
  8
2
100
AcDbDimension
  2
*D4
 10
40.9328788959
 20
-22.99999999999996
 30
0.0
 11
20.92995185339998
 21
-22.99999999999996
 31
0.0
 70
   160
 71
     5
 42
40.00585408500002
  3
ISO-25
100
AcDbAlignedDimension
 13
0.9270248108999783
 23
-6.749999999999968
 33
0.0
 14
40.9328788959
 24
-4.002248062599993
 34
0.0
 50
180.0
100
AcDbRotatedDimension
1001
ACAD
1000
DSTYLE
1002
{
1070
   271
1070
     0
1002
}
  0
LINE
  5
562
330
1E
100
AcDbEntity
  8
SK4
100
AcDbLine
 10
0.0
 20
0.0
 30
0.0
 11
-51.0729751891
 21
0.0000000000000347
 31
0.0
  0
DIMENSION
  5
563
330
1E
100
AcDbEntity
  8
SK2
100
AcDbDimension
  2
*D2
 10
40.9328788959
 20
-42.99999999999997
 30
0.0
 11
-3.570048146600004
 21
-42.99999999999997
 31
0.0
 70
   160
 71
     5
 42
89.00585408500004
  3
ISO-25
100
AcDbAlignedDimension
 13
-48.0729751891
 23
-6.799999999999974
 33
0.0
 14
40.9328788959
 24
-4.002248062599993
 34
0.0
 50
180.0
100
AcDbRotatedDimension
1001
ACAD
1000
DSTYLE
1002
{
1070
   271
1070
     0
1002
}
  0
TEXT
  5
94D
330
1E
100
AcDbEntity
  8
6
100
AcDbText
 10
-31.01298830729212
 20
-62.67587323622786
 30
0.0
 40
5.0
  1
15B1E016040W3R00
100
AcDbText
  0
LINE
  5
7040
330
1E
100
AcDbEntity
  8
SK4
100
AcDbLine
 10
36.9412818109
 20
-0.6565692826748136
 30
0.0
 11
36.9412818109
 21
8.861152190437161
 31
0.0
  0
LINE
  5
7041
330
1E
100
AcDbEntity
  8
SK4
100
AcDbLine
 10
31.3596769275702
 20
4.002248062599981
 30
0.0
 11
42.26250254706394
 21
4.002248062599981
 31
0.0
  0
TEXT
  5
7534
330
1E
100
AcDbEntity
  8
6
100
AcDbText
 10
13.05627675264952
 20
15.04974099075701
 30
0.0
 40
2.5
  1
RHHW0802M0TN
100
AcDbText
  0
TEXT
  5
7634
330
1E
100
AcDbEntity
  8
6
100
AcDbText
 10
64.04526547502917
 20
-5.559761903573843
 30
0.0
 40
3.5
  1
Z=2
 50
90.0
100
AcDbText
  0
LINE
  5
7737
330
1E
100
AcDbEntity
  8
NOCUT
100
AcDbLine
 10
-0.0000000000120899
 20
7.374999999997728
 30
0.0
 11
0.0
 21
0.0
 31
0.0
  0
LINE
  5
776D
330
1E
100
AcDbEntity
  8
NOCUT
100
AcDbLine
 10
40.30000000000001
 20
0.0
 30
0.0
 11
0.0
 21
0.0
 31
0.0
  0
LINE
  5
7772
330
1E
100
AcDbEntity
  8
NOCUT
100
AcDbLine
 10
34.64044495719996
 20
6.75
 30
0.0
 11
0.9270248108999799
 21
6.75000000000003
 31
0.0
  0
LINE
  5
7775
330
1E
100
AcDbEntity
  8
NOCUT
100
AcDbLine
 10
40.30000000000001
 20
4.299999999999997
 30
0.0
 11
40.30000000000001
 21
0.0
 31
0.0
  0
ARC
  5
7781
330
1E
100
AcDbEntity
  8
NOCUT
100
AcDbCircle
 10
34.64044495719996
 20
7.149999999999991
 30
0.0
 40
0.4
100
AcDbArc
 50
270.0
 51
309.6218349071997
  0
ARC
  5
7783
330
1E
100
AcDbEntity
  8
NOCUT
100
AcDbCircle
 10
37.0
 20
4.299999999999997
 30
0.0
 40
3.299999999999998
100
AcDbArc
 50
0.0
 51
129.6218349071996
  0
SPLINE
  5
77A5
330
1E
100
AcDbEntity
  8
CUT
100
AcDbSpline
210
0.0
220
0.0
230
1.0
 70
     8
 71
     3
 72
    36
 73
    32
 74
    30
 42
0.0000000001
 43
0.0000000001
 44
0.0000000001
 12
-0.9999657087988667
 22
0.0082813782898709
 32
0.0
 13
0.9999999740769959
 23
-0.0002276971834317
 33
0.0
 40
0.0
 40
0.0
 40
0.0
 40
0.0
 40
0.4315712002300631
 40
0.8583396446410317
 40
1.278075836552103
 40
1.694242322595899
 40
2.111719392132619
 40
2.532228936568849
 40
2.955519097745605
 40
3.380937425806321
 40
3.807919380106496
 40
4.236051793517383
 40
4.665046388460005
 40
5.094695463511963
 40
5.524852381310569
 40
5.955408681473507
 40
6.386284681473519
 40
6.817417560166383
 40
7.248760877542448
 40
7.680276978423994
 40
8.111934625020213
 40
8.543711158947232
 40
8.97558492194979
 40
9.407540305749998
 40
9.839561877231142
 40
10.27163824678283
 40
10.70375721010886
 40
11.13590964847875
 40
11.56808647663247
 40
12.00027828413576
 40
12.43247917467743
 40
12.43247917467743
 40
12.43247917467743
 40
12.43247917467743
 10
36.94128181089995
 20
0.3139350000000292
 30
0.0
 10
36.79742967718821
 20
0.3151263347894022
 30
0.0
 10
36.51132286067839
 20
0.313337521449579
 30
0.0
 10
36.08525900607605
 20
0.3240411082111437
 30
0.0
 10
35.6660447484068
 20
0.3723684197482814
 30
0.0
 10
35.26120965624914
 20
0.4825674729923648
 30
0.0
 10
34.87798257519909
 20
0.6532479421035527
 30
0.0
 10
34.51980519657811
 20
0.8756365759488533
 30
0.0
 10
34.19010939748168
 20
1.142394698100583
 30
0.0
 10
33.89257474356416
 20
1.447515874860975
 30
0.0
 10
33.63069107925314
 20
1.78572495738518
 30
0.0
 10
33.40755294735779
 20
2.152029289661168
 30
0.0
 10
33.22580099789237
 20
2.54150029632495
 30
0.0
 10
33.08758244187649
 20
2.94916500761214
 30
0.0
 10
32.99452428129477
 20
3.369972820202919
 30
0.0
 10
32.9477276251724
 20
3.798807441599906
 30
0.0
 10
32.94774308145958
 20
4.230511043520843
 30
0.0
 10
32.99457309836855
 20
4.659929823925212
 30
0.0
 10
33.0876727808389
 20
5.081960065164057
 30
0.0
 10
33.22594700717913
 20
5.491603943167933
 30
0.0
 10
33.40778168653227
 20
5.884017762254362
 30
0.0
 10
33.63103989369915
 20
6.254572847675464
 30
0.0
 10
33.89310809327624
 20
6.598900342376881
 30
0.0
 10
34.19091291213466
 20
6.912944817296702
 30
0.0
 10
34.5209620668188
 20
7.193012211051262
 30
0.0
 10
34.87938819456323
 20
7.435803988951105
 30
0.0
 10
35.26198827374932
 20
7.638468560366504
 30
0.0
 10
35.66427264916648
 20
7.798620231300921
 30
0.0
 10
36.08154316492231
 20
7.914382154148229
 30
0.0
 10
36.508840550863
 20
7.98436733106996
 30
0.0
 10
36.79721485112071
 20
8.000032803641843
 30
0.0
 10
36.94128181089995
 20
8.000000000000026
 30
0.0
 11
36.94128181089995
 21
0.3139350000000292
 31
0.0
 11
36.50971381089993
 21
0.3155970000000252
 31
0.0
 11
36.08320681089998
 21
0.3305330000000168
 31
0.0
 11
35.66675881089997
 21
0.382969000000017
 31
0.0
 11
35.26525381089992
 21
0.4924600000000228
 31
0.0
 11
34.88339881089996
 21
0.6612020000000172
 31
0.0
 11
34.52566981090001
 21
0.8822410000000218
 31
0.0
 11
34.19626281089995
 21
1.14807100000003
 31
0.0
 11
33.89903781089998
 21
1.45243600000002
 31
0.0
 11
33.6374808109
 21
1.789929000000029
 31
0.0
 11
33.41465781089993
 21
2.155507000000028
 31
0.0
 11
33.23318081089996
 21
2.544226000000021
 31
0.0
 11
33.09517881089993
 21
2.951109000000016
 31
0.0
 11
33.00226781089998
 21
3.371112000000023
 31
0.0
 11
32.95553881089996
 21
3.799125000000017
 31
0.0
 11
32.95553881089996
 21
4.230001000000028
 31
0.0
 11
33.00226781089998
 21
4.658594000000021
 31
0.0
 11
33.09517881089993
 21
5.079812000000018
 31
0.0
 11
33.23318081089996
 21
5.488666000000024
 31
0.0
 11
33.41465781089993
 21
5.880322000000019
 31
0.0
 11
33.6374808109
 21
6.250161000000018
 31
0.0
 11
33.89903781089998
 21
6.593822000000018
 31
0.0
 11
34.19626281089995
 21
6.907259000000022
 31
0.0
 11
34.52566981090001
 21
7.186783000000017
 31
0.0
 11
34.88339881089996
 21
7.429105000000021
 31
0.0
 11
35.26525381089992
 21
7.631376000000018
 31
0.0
 11
35.66675881089997
 21
7.791218000000027
 31
0.0
 11
36.08320681089998
 21
7.906751000000027
 31
0.0
 11
36.50971381089993
 21
7.976619000000026
 31
0.0
 11
36.94128181089995
 21
8.000000000000026
 31
0.0
  0
SPLINE
  5
77A6
330
1E
100
AcDbEntity
  8
CUT
100
AcDbSpline
210
0.0
220
0.0
230
1.0
 70
     8
 71
     3
 72
    36
 73
    32
 74
    30
 42
0.0000000001
 43
0.0000000001
 44
0.0000000001
 12
0.9999657087988667
 22
0.0082813782898709
 32
0.0
 13
-0.9999999740769959
 23
-0.0002276971834317
 33
0.0
 40
0.0
 40
0.0
 40
0.0
 40
0.0
 40
0.4315712002300844
 40
0.8583396446411097
 40
1.278075836552125
 40
1.694242322595921
 40
2.111719392132647
 40
2.532228936568913
 40
2.955519097745619
 40
3.38093742580638
 40
3.807919380106568
 40
4.236051793517417
 40
4.665046388460037
 40
5.094695463511998
 40
5.524852381310606
 40
5.955408681473543
 40
6.386284681473554
 40
6.817417560166418
 40
7.248760877542484
 40
7.680276978424033
 40
8.111934625020248
 40
8.54371115894723
 40
8.975584921949803
 40
9.407540305750055
 40
9.839561877231149
 40
10.27163824678287
 40
10.70375721010891
 40
11.1359096484788
 40
11.56808647663247
 40
12.00027828413581
 40
12.43247917467751
 40
12.43247917467751
 40
12.43247917467751
 40
12.43247917467751
 10
36.94128181089995
 20
0.3139350000000292
 30
0.0
 10
37.08513394461171
 20
0.3151263347894022
 30
0.0
 10
37.37124076112157
 20
0.3133375214495808
 30
0.0
 10
37.79730461572389
 20
0.3240411082111374
 30
0.0
 10
38.21651887339314
 20
0.3723684197482886
 30
0.0
 10
38.6213539655508
 20
0.482567472992363
 30
0.0
 10
39.00458104660084
 20
0.653247942103567
 30
0.0
 10
39.36275842522188
 20
0.8756365759488158
 30
0.0
 10
39.69245422431823
 20
1.142394698100628
 30
0.0
 10
39.98998887823584
 20
1.447515874860958
 30
0.0
 10
40.25187254254688
 20
1.785724957385155
 30
0.0
 10
40.47501067444211
 20
2.15202928966119
 30
0.0
 10
40.65676262390756
 20
2.541500296324949
 30
0.0
 10
40.79498117992343
 20
2.949165007612141
 30
0.0
 10
40.88803934050517
 20
3.369972820202918
 30
0.0
 10
40.93483599662751
 20
3.798807441599904
 30
0.0
 10
40.93482054034035
 20
4.230511043520843
 30
0.0
 10
40.88799052343138
 20
4.659929823925212
 30
0.0
 10
40.79489084096102
 20
5.081960065164058
 30
0.0
 10
40.65661661462079
 20
5.491603943167931
 30
0.0
 10
40.47478193526763
 20
5.884017762254341
 30
0.0
 10
40.25152372810086
 20
6.25457284767549
 30
0.0
 10
39.98945552852375
 20
6.598900342376894
 30
0.0
 10
39.69165070966524
 20
6.912944817296658
 30
0.0
 10
39.36160155498118
 20
7.193012211051299
 30
0.0
 10
39.0031754272367
 20
7.435803988951092
 30
0.0
 10
38.6205753480506
 20
7.638468560366506
 30
0.0
 10
38.21829097263347
 20
7.798620231300909
 30
0.0
 10
37.80102045687764
 20
7.914382154148246
 30
0.0
 10
37.37372307093694
 20
7.984367331069951
 30
0.0
 10
37.08534877067921
 20
8.000032803641843
 30
0.0
 10
36.94128181089995
 20
8.000000000000026
 30
0.0
 11
36.94128181089995
 21
0.3139350000000292
 31
0.0
 11
37.37284981089999
 21
0.3155970000000252
 31
0.0
 11
37.7993568109
 21
0.3305330000000168
 31
0.0
 11
38.21580481089995
 21
0.382969000000017
 31
0.0
 11
38.6173098109
 21
0.4924600000000228
 31
0.0
 11
38.99916481089997
 21
0.6612020000000172
 31
0.0
 11
39.35689381089996
 21
0.8822410000000218
 31
0.0
 11
39.68630081089996
 21
1.14807100000003
 31
0.0
 11
39.98352581089999
 21
1.45243600000002
 31
0.0
 11
40.24508281089999
 21
1.789929000000029
 31
0.0
 11
40.46790581089999
 21
2.155507000000028
 31
0.0
 11
40.64938281089996
 21
2.544226000000021
 31
0.0
 11
40.78738481089999
 21
2.951109000000016
 31
0.0
 11
40.88029581089995
 21
3.371112000000023
 31
0.0
 11
40.92702481089998
 21
3.799125000000017
 31
0.0
 11
40.92702481089998
 21
4.230001000000028
 31
0.0
 11
40.88029581089995
 21
4.658594000000021
 31
0.0
 11
40.78738481089999
 21
5.079812000000018
 31
0.0
 11
40.64938281089996
 21
5.488666000000024
 31
0.0
 11
40.46790581089999
 21
5.880322000000019
 31
0.0
 11
40.24508281089999
 21
6.250161000000018
 31
0.0
 11
39.98352581089999
 21
6.593822000000018
 31
0.0
 11
39.68630081089996
 21
6.907259000000022
 31
0.0
 11
39.35689381089996
 21
7.186783000000017
 31
0.0
 11
38.99916481089997
 21
7.429105000000021
 31
0.0
 11
38.6173098109
 21
7.631376000000018
 31
0.0
 11
38.21580481089995
 21
7.791218000000027
 31
0.0
 11
37.7993568109
 21
7.906751000000027
 31
0.0
 11
37.37284981089999
 21
7.976619000000026
 31
0.0
 11
36.94128181089995
 21
8.000000000000026
 31
0.0
  0
ARC
  5
77C1
330
1E
100
AcDbEntity
  8
NOCUT
100
AcDbCircle
 10
0.9270248108999799
 20
7.75000000000003
 30
0.0
 40
1.0
100
AcDbArc
 50
202.0243128371998
 51
270.0
  0
LWPOLYLINE
  5
792B
330
1E
100
AcDbEntity
  8
1
100
AcDbPolyline
 90
        3
 70
     1
 43
0.0
 10
0.0
 20
-0.0000000000000284
 10
-2.950972054112583
 20
-0.0000000000000284
 42
0.4142135623730966
 10
0.0
 20
-2.950972054112611
  0
HATCH
  5
792C
330
1E
100
AcDbEntity
  8
1
100
AcDbHatch
 10
0.0
 20
0.0
 30
0.0
210
0.0
220
0.0
230
1.0
  2
SOLID
 70
     1
 71
     0
 91
        2
 92
        7
 72
     1
 73
     1
 93
        3
 10
0.0
 20
-0.0000000000000284
 42
0.0
 10
2.950972054112583
 20
-0.0000000000000284
 42
0.4142135623730966
 10
0.0
 20
2.950972054112583
 42
0.0
 97
        0
 92
        7
 72
     1
 73
     1
 93
        3
 10
0.0
 20
-2.950972054112526
 42
0.0
 10
0.0
 20
-0.0000000000000284
 42
0.0
 10
-2.950972054112583
 20
-0.0000000000000284
 42
0.4142135623730953
 97
        0
 75
     0
 76
     1
 47
0.1190009775223266
 98
        2
 10
0.7445530588119027
 20
0.9212244733764691
 10
-1.279464601852936
 20
-1.69679692304632
  0
CIRCLE
  5
792D
330
1E
100
AcDbEntity
  8
1
100
AcDbCircle
 10
0.0
 20
-0.0000000000000284
 30
0.0
 40
2.950972054112601
  0
LINE
  5
792E
330
1E
100
AcDbEntity
  8
1
100
AcDbLine
 10
0.0
 20
2.950972054112583
 30
0.0
 11
0.0
 21
-2.950972054112611
 31
0.0
  0
LINE
  5
792F
330
1E
100
AcDbEntity
  8
1
100
AcDbLine
 10
-2.950972054112837
 20
-0.0000000000000284
 30
0.0
 11
2.950972054112583
 21
-0.0000000000000284
 31
0.0
  0
LWPOLYLINE
  5
7930
330
1E
100
AcDbEntity
  8
1
100
AcDbPolyline
 90
        3
 70
     1
 43
0.0
 10
0.0
 20
2.950972054112583
 10
0.0
 20
-0.0000000000000284
 10
2.950972054112583
 20
-0.0000000000000284
 42
0.4142135623730966
  0
ENDSEC
  0
SECTION
  2
OBJECTS
  0
DICTIONARY
  5
C
330
0
100
AcDbDictionary
281
     1
  3
ACAD_COLOR
350
7AB0
  3
ACAD_GROUP
350
D
  3
ACAD_LAYOUT
350
19
  3
ACAD_MATERIAL
350
7AAF
  3
ACAD_MLINESTYLE
350
16
  3
ACAD_PLOTSETTINGS
350
18
  3
ACAD_PLOTSTYLENAME
350
7369
  3
ACAD_TABLESTYLE
350
7AB1
  3
ACDBHEADERROUNDTRIPXREC
350
7AB9
  3
AcDbVariableDictionary
350
7AB4
1001
ACAD
1000
TREAT_AS_HARD
1070
     0
1000
TREAT_AS_HARD
1070
     0
  0
DICTIONARY
  5
4E67
330
1E
100
AcDbDictionary
280
     1
281
     1
  3
ACAD_LAYOUTSELFREF
360
7044
1001
ACAD
1000
TREAT_AS_HARD
1070
     0
  0
DICTIONARY
  5
4E65
330
1A
100
AcDbDictionary
280
     1
281
     1
  3
ACAD_LAYOUTSELFREF
360
7043
1001
ACAD
1000
TREAT_AS_HARD
1070
     0
  0
DICTIONARY
  5
7AB0
102
{ACAD_REACTORS
330
C
102
}
330
C
100
AcDbDictionary
281
     1
  0
DICTIONARY
  5
D
102
{ACAD_REACTORS
330
C
102
}
330
C
100
AcDbDictionary
281
     1
1001
ACAD
1000
TREAT_AS_HARD
1070
     0
1000
TREAT_AS_HARD
1070
     0
  0
DICTIONARY
  5
19
102
{ACAD_REACTORS
330
C
102
}
330
C
100
AcDbDictionary
281
     1
  3
Layout1
350
736C
  3
Model
350
736B
1001
ACAD
1000
TREAT_AS_HARD
1070
     0
1000
TREAT_AS_HARD
1070
     0
  0
DICTIONARY
  5
7AAF
102
{ACAD_REACTORS
330
C
102
}
330
C
100
AcDbDictionary
281
     1
  0
DICTIONARY
  5
16
102
{ACAD_REACTORS
330
C
102
}
330
C
100
AcDbDictionary
281
     1
  3
STANDARD
350
17
1001
ACAD
1000
TREAT_AS_HARD
1070
     0
1000
TREAT_AS_HARD
1070
     0
  0
DICTIONARY
  5
18
102
{ACAD_REACTORS
330
C
102
}
330
C
100
AcDbDictionary
281
     1
1001
ACAD
1000
TREAT_AS_HARD
1070
     0
1000
TREAT_AS_HARD
1070
     0
  0
ACDBDICTIONARYWDFLT
  5
7369
102
{ACAD_REACTORS
330
C
102
}
330
C
100
AcDbDictionary
281
     1
  3
Normal
350
736A
100
AcDbDictionaryWithDefault
340
736A
  0
DICTIONARY
  5
7AB1
102
{ACAD_REACTORS
330
C
102
}
330
C
100
AcDbDictionary
281
     1
  3
Standard
350
7AB2
  0
DICTIONARY
  5
7AB9
102
{ACAD_REACTORS
330
C
102
}
330
C
100
AcDbDictionary
281
     1
  0
DICTIONARY
  5
7AB4
102
{ACAD_REACTORS
330
C
102
}
330
C
100
AcDbDictionary
281
     1
  3
CTABLESTYLE
350
7AB5
  3
DIMASSOC
350
7AB6
  3
PROJECTNAME
350
7AB7
  0
XRECORD
  5
7044
102
{ACAD_REACTORS
330
4E67
102
}
330
4E67
100
AcDbXrecord
280
     1
340
1E
  0
XRECORD
  5
7043
102
{ACAD_REACTORS
330
4E65
102
}
330
4E65
100
AcDbXrecord
280
     1
340
1A
  0
LAYOUT
  5
736C
102
{ACAD_XDICTIONARY
360
7ABC
102
}
102
{ACAD_REACTORS
330
19
102
}
330
19
100
AcDbPlotSettings
  1

  2
\\ingdom02\ITB2
  4

  6

 40
0.0
 41
0.0
 42
0.0
 43
0.0
 44
0.0
 45
0.0
 46
0.0
 47
0.0
 48
0.0
 49
0.0
140
0.0
141
0.0
142
1.0
143
1.0
 70
   688
 72
     0
 73
     0
 74
     5
  7

 75
    16
147
1.0
148
0.0
149
0.0
100
AcDbLayout
  1
Layout1
 70
     1
 71
     1
 10
0.0
 20
0.0
 11
12.0
 21
9.0
 12
0.0
 22
0.0
 32
0.0
 14
100.0
 24
100.0
 34
100.0
 15
-100.0
 25
-100.0
 35
-100.0
146
0.0
 13
0.0
 23
0.0
 33
0.0
 16
1.0
 26
0.0
 36
0.0
 17
0.0
 27
1.0
 37
0.0
 76
     0
330
1A
  0
LAYOUT
  5
736B
102
{ACAD_XDICTIONARY
360
7ABA
102
}
102
{ACAD_REACTORS
330
19
102
}
330
19
100
AcDbPlotSettings
  1

  2
\\ingdom02\ITB2
  4

  6

 40
0.0
 41
0.0
 42
0.0
 43
0.0
 44
0.0
 45
0.0
 46
0.0
 47
0.0
 48
0.0
 49
0.0
140
0.0
141
0.0
142
1.0
143
1.0
 70
  1712
 72
     0
 73
     0
 74
     0
  7

 75
     0
147
1.0
148
0.0
149
0.0
100
AcDbLayout
  1
Model
 70
     1
 71
     0
 10
0.0
 20
0.0
 11
12.0
 21
9.0
 12
0.0
 22
0.0
 32
0.0
 14
0.0
 24
0.0
 34
0.0
 15
0.0
 25
0.0
 35
0.0
146
0.0
 13
0.0
 23
0.0
 33
0.0
 16
1.0
 26
0.0
 36
0.0
 17
0.0
 27
1.0
 37
0.0
 76
     0
330
1E
  0
MLINESTYLE
  5
17
102
{ACAD_REACTORS
330
16
102
}
330
16
100
AcDbMlineStyle
  2
STANDARD
 70
     0
  3

 62
   256
 51
90.0
 52
90.0
 71
     2
 49
0.5
 62
   256
  6
BYLAYER
 49
-0.5
 62
   256
  6
BYLAYER
  0
ACDBPLACEHOLDER
  5
736A
102
{ACAD_REACTORS
330
7369
102
}
330
7369
  0
TABLESTYLE
  5
7AB2
102
{ACAD_REACTORS
330
7AB1
102
}
330
7AB1
100
AcDbTableStyle
  3
Standard
 70
     0
 71
     0
 40
0.06
 41
0.06
280
     0
281
     0
  7
STANDARD
140
0.18
170
     2
 62
     0
 63
     7
283
     0
274
    -2
284
     1
 64
     0
275
    -2
285
     1
 65
     0
276
    -2
286
     1
 66
     0
277
    -2
287
     1
 67
     0
278
    -2
288
     1
 68
     0
279
    -2
289
     1
 69
     0
  7
STANDARD
140
0.25
170
     5
 62
     0
 63
     7
283
     0
274
    -2
284
     1
 64
     0
275
    -2
285
     1
 65
     0
276
    -2
286
     1
 66
     0
277
    -2
287
     1
 67
     0
278
    -2
288
     1
 68
     0
279
    -2
289
     1
 69
     0
  7
STANDARD
140
0.18
170
     5
 62
     0
 63
     7
283
     0
274
    -2
284
     1
 64
     0
275
    -2
285
     1
 65
     0
276
    -2
286
     1
 66
     0
277
    -2
287
     1
 67
     0
278
    -2
288
     1
 68
     0
279
    -2
289
     1
 69
     0
  0
DICTIONARYVAR
  5
7AB5
102
{ACAD_REACTORS
330
7AB4
102
}
330
7AB4
100
DictionaryVariables
280
     0
  1
STANDARD
  0
DICTIONARYVAR
  5
7AB6
102
{ACAD_REACTORS
330
7AB4
102
}
330
7AB4
100
DictionaryVariables
280
     0
  1
1
  0
DICTIONARYVAR
  5
7AB7
102
{ACAD_REACTORS
330
7AB4
102
}
330
7AB4
100
DictionaryVariables
280
     0
  1

  0
DICTIONARY
  5
7ABC
330
736C
100
AcDbDictionary
280
     1
281
     1
  3
ACAD_XREC_ROUNDTRIP
360
7ABD
  0
DICTIONARY
  5
7ABA
330
736B
100
AcDbDictionary
280
     1
281
     1
  3
ACAD_XREC_ROUNDTRIP
360
7ABB
  0
XRECORD
  5
7ABD
102
{ACAD_REACTORS
330
7ABC
102
}
330
7ABC
100
AcDbXrecord
280
     1
102
SHADEPLOT
 70
     0
102
SHADEPLOTRESLEVEL
 70
     2
102
SHADEPLOTCUSTOMDPI
 70
   300
  0
XRECORD
  5
7ABB
102
{ACAD_REACTORS
330
7ABA
102
}
330
7ABA
100
AcDbXrecord
280
     1
102
SHADEPLOT
 70
     0
102
SHADEPLOTRESLEVEL
 70
     2
102
SHADEPLOTCUSTOMDPI
 70
   300
  0
ENDSEC
  0
EOF
