  0
SECTION
  2
HEADER
  9
$ACADVER
  1
AC1015
  9
$ACADMAINTVER
 70
    20
  9
$DWGCODEPAGE
  3
ANSI_1252
  9
$INSBASE
 10
0.0
 20
0.0
 30
0.0
  9
$EXTMIN
 10
-50.44846181591561
 20
-39.98887754393729
 30
-0.0000000349181948
  9
$EXTMAX
 10
57.66760540072642
 20
21.81273320569323
 30
0.0000000814935747
  9
$LIMMIN
 10
0.0
 20
0.0
  9
$LIMMAX
 10
594.0
 20
420.0
  9
$ORTHOMODE
 70
     0
  9
$REGENMODE
 70
     1
  9
$FILLMODE
 70
     1
  9
$QTEXTMODE
 70
     0
  9
$MIRRTEXT
 70
     1
  9
$LTSCALE
 40
10.0
  9
$ATTMODE
 70
     1
  9
$TEXTSIZE
 40
0.2
  9
$TRACEWID
 40
0.05
  9
$TEXTSTYLE
  7
STANDARD
  9
$CLAYER
  8
0
  9
$CELTYPE
  6
BYLAYER
  9
$CECOLOR
 62
   256
  9
$CELTSCALE
 40
1.0
  9
$DISPSILH
 70
     0
  9
$DIMSCALE
 40
1.0
  9
$DIMASZ
 40
2.5
  9
$DIMEXO
 40
3.712499999999999
  9
$DIMDLI
 40
22.572
  9
$DIMRND
 40
0.0
  9
$DIMDLE
 40
0.0
  9
$DIMEXE
 40
10.692
  9
$DIMTP
 40
0.01
  9
$DIMTM
 40
0.01
  9
$DIMTXT
 40
3.5
  9
$DIMCEN
 40
5.346
  9
$DIMTSZ
 40
0.0
  9
$DIMTOL
 70
     1
  9
$DIMLIM
 70
     0
  9
$DIMTIH
 70
     1
  9
$DIMTOH
 70
     1
  9
$DIMSE1
 70
     0
  9
$DIMSE2
 70
     0
  9
$DIMTAD
 70
     0
  9
$DIMZIN
 70
     0
  9
$DIMBLK
  1
_FILLED
  9
$DIMASO
 70
     1
  9
$DIMSHO
 70
     1
  9
$DIMPOST
  1

  9
$DIMAPOST
  1

  9
$DIMALT
 70
     0
  9
$DIMALTD
 70
     2
  9
$DIMALTF
 40
25.4
  9
$DIMLFAC
 40
1.0
  9
$DIMTOFL
 70
     0
  9
$DIMTVP
 40
0.0
  9
$DIMTIX
 70
     0
  9
$DIMSOXD
 70
     0
  9
$DIMSAH
 70
     0
  9
$DIMBLK1
  1

  9
$DIMBLK2
  1

  9
$DIMSTYLE
  2
STANDARD
  9
$DIMCLRD
 70
     0
  9
$DIMCLRE
 70
     0
  9
$DIMCLRT
 70
     0
  9
$DIMTFAC
 40
1.0
  9
$DIMGAP
 40
0.09
  9
$DIMJUST
 70
     0
  9
$DIMSD1
 70
     0
  9
$DIMSD2
 70
     0
  9
$DIMTOLJ
 70
     1
  9
$DIMTZIN
 70
     0
  9
$DIMALTZ
 70
     0
  9
$DIMALTTZ
 70
     0
  9
$DIMUPT
 70
     0
  9
$DIMDEC
 70
     4
  9
$DIMTDEC
 70
     4
  9
$DIMALTU
 70
     2
  9
$DIMALTTD
 70
     2
  9
$DIMTXSTY
  7
STANDARD
  9
$DIMAUNIT
 70
     0
  9
$DIMADEC
 70
     0
  9
$DIMALTRND
 40
0.0
  9
$DIMAZIN
 70
     0
  9
$DIMDSEP
 70
    46
  9
$DIMATFIT
 70
     3
  9
$DIMFRAC
 70
     0
  9
$DIMLDRBLK
  1
_FILLED
  9
$DIMLUNIT
 70
     2
  9
$DIMLWD
 70
    -2
  9
$DIMLWE
 70
    -2
  9
$DIMTMOVE
 70
     0
  9
$LUNITS
 70
     2
  9
$LUPREC
 70
     4
  9
$SKETCHINC
 40
0.1
  9
$FILLETRAD
 40
0.0
  9
$AUNITS
 70
     0
  9
$AUPREC
 70
     0
  9
$MENU
  1

  9
$ELEVATION
 40
0.0
  9
$PELEVATION
 40
0.0
  9
$THICKNESS
 40
0.0
  9
$LIMCHECK
 70
     0
  9
$CHAMFERA
 40
0.0
  9
$CHAMFERB
 40
0.0
  9
$CHAMFERC
 40
0.0
  9
$CHAMFERD
 40
0.0
  9
$SKPOLY
 70
     0
  9
$TDCREATE
 40
2453432.360839444
  9
$TDUCREATE
 40
2453432.277506111
  9
$TDUPDATE
 40
2453909.272285243
  9
$TDUUPDATE
 40
2453909.188951910
  9
$TDINDWG
 40
0.1085133333
  9
$TDUSRTIMER
 40
0.1023826273
  9
$USRTIMER
 70
     1
  9
$ANGBASE
 50
0.0
  9
$ANGDIR
 70
     0
  9
$PDMODE
 70
     0
  9
$PDSIZE
 40
0.3125
  9
$PLINEWID
 40
0.0
  9
$SPLFRAME
 70
     0
  9
$SPLINETYPE
 70
     6
  9
$SPLINESEGS
 70
     8
  9
$HANDSEED
  5
27D1
  9
$SURFTAB1
 70
     6
  9
$SURFTAB2
 70
     6
  9
$SURFTYPE
 70
     6
  9
$SURFU
 70
     6
  9
$SURFV
 70
     6
  9
$UCSBASE
  2

  9
$UCSNAME
  2

  9
$UCSORG
 10
0.0
 20
0.0
 30
0.0
  9
$UCSXDIR
 10
1.0
 20
0.0
 30
0.0
  9
$UCSYDIR
 10
0.0
 20
1.0
 30
0.0
  9
$UCSORTHOREF
  2

  9
$UCSORTHOVIEW
 70
     0
  9
$UCSORGTOP
 10
0.0
 20
0.0
 30
0.0
  9
$UCSORGBOTTOM
 10
0.0
 20
0.0
 30
0.0
  9
$UCSORGLEFT
 10
0.0
 20
0.0
 30
0.0
  9
$UCSORGRIGHT
 10
0.0
 20
0.0
 30
0.0
  9
$UCSORGFRONT
 10
0.0
 20
0.0
 30
0.0
  9
$UCSORGBACK
 10
0.0
 20
0.0
 30
0.0
  9
$PUCSBASE
  2

  9
$PUCSNAME
  2

  9
$PUCSORG
 10
0.0
 20
0.0
 30
0.0
  9
$PUCSXDIR
 10
1.0
 20
0.0
 30
0.0
  9
$PUCSYDIR
 10
0.0
 20
1.0
 30
0.0
  9
$PUCSORTHOREF
  2

  9
$PUCSORTHOVIEW
 70
     0
  9
$PUCSORGTOP
 10
0.0
 20
0.0
 30
0.0
  9
$PUCSORGBOTTOM
 10
0.0
 20
0.0
 30
0.0
  9
$PUCSORGLEFT
 10
0.0
 20
0.0
 30
0.0
  9
$PUCSORGRIGHT
 10
0.0
 20
0.0
 30
0.0
  9
$PUCSORGFRONT
 10
0.0
 20
0.0
 30
0.0
  9
$PUCSORGBACK
 10
0.0
 20
0.0
 30
0.0
  9
$USERI1
 70
     0
  9
$USERI2
 70
     0
  9
$USERI3
 70
     0
  9
$USERI4
 70
     0
  9
$USERI5
 70
     0
  9
$USERR1
 40
0.0
  9
$USERR2
 40
0.0
  9
$USERR3
 40
0.0
  9
$USERR4
 40
0.0
  9
$USERR5
 40
0.0
  9
$WORLDVIEW
 70
     1
  9
$SHADEDGE
 70
     3
  9
$SHADEDIF
 70
    70
  9
$TILEMODE
 70
     1
  9
$MAXACTVP
 70
    64
  9
$PINSBASE
 10
0.0
 20
0.0
 30
0.0
  9
$PLIMCHECK
 70
     0
  9
$PEXTMIN
 10
100.0
 20
100.0
 30
100.0
  9
$PEXTMAX
 10
-100.0
 20
-100.0
 30
-100.0
  9
$PLIMMIN
 10
0.0
 20
0.0
  9
$PLIMMAX
 10
12.0
 20
9.0
  9
$UNITMODE
 70
     0
  9
$VISRETAIN
 70
     1
  9
$PLINEGEN
 70
     1
  9
$PSLTSCALE
 70
     1
  9
$TREEDEPTH
 70
  3020
  9
$CMLSTYLE
  2
STANDARD
  9
$CMLJUST
 70
     0
  9
$CMLSCALE
 40
1.0
  9
$PROXYGRAPHICS
 70
     1
  9
$MEASUREMENT
 70
     0
  9
$CELWEIGHT
370
    -1
  9
$ENDCAPS
280
     0
  9
$JOINSTYLE
280
     0
  9
$LWDISPLAY
290
     0
  9
$INSUNITS
 70
     0
  9
$HYPERLINKBASE
  1

  9
$STYLESHEET
  1

  9
$XEDIT
290
     1
  9
$CEPSNTYPE
380
     0
  9
$PSTYLEMODE
290
     1
  9
$FINGERPRINTGUID
  2
{58A34252-055C-4548-B7B7-5FBA8E5CFA5C}
  9
$VERSIONGUID
  2
{9F3B8A32-C585-4E89-B1A9-9E39E18D2013}
  9
$EXTNAMES
290
     1
  9
$PSVPSCALE
 40
0.0
  9
$OLESTARTUP
290
     0
  0
ENDSEC
  0
SECTION
  2
CLASSES
  0
CLASS
  1
ACDBDICTIONARYWDFLT
  2
AcDbDictionaryWithDefault
  3
ObjectDBX Classes
 90
        0
280
     0
281
     0
  0
CLASS
  1
ACDBPLACEHOLDER
  2
AcDbPlaceHolder
  3
ObjectDBX Classes
 90
        0
280
     0
281
     0
  0
CLASS
  1
LAYOUT
  2
AcDbLayout
  3
ObjectDBX Classes
 90
        0
280
     0
281
     0
  0
CLASS
  1
TABLESTYLE
  2
AcDbTableStyle
  3
ObjectDBX Classes
 90
     2047
280
     0
281
     0
  0
CLASS
  1
DICTIONARYVAR
  2
AcDbDictionaryVar
  3
ObjectDBX Classes
 90
        0
280
     0
281
     0
  0
ENDSEC
  0
SECTION
  2
TABLES
  0
TABLE
  2
VPORT
  5
8
330
0
100
AcDbSymbolTable
 70
     2
  0
VPORT
  5
27CB
330
8
100
AcDbSymbolTableRecord
100
AcDbViewportTableRecord
  2
*Active
 70
     0
 10
0.0
 20
0.0
 11
1.0
 21
1.0
 12
3.609571792405404
 22
-9.088072169122028
 13
0.0
 23
0.0
 14
1.0
 24
1.0
 15
0.0
 25
0.0
 16
0.0
 26
0.0
 36
1.0
 17
0.0
 27
0.0
 37
0.0
 40
70.90392024469017
 41
1.532401524777636
 42
50.0
 43
0.0
 44
0.0
 50
0.0
 51
0.0
 71
     0
 72
  1000
 73
     1
 74
     1
 75
     0
 76
     0
 77
     0
 78
     0
281
     0
 65
     1
110
0.0
120
0.0
130
0.0
111
1.0
121
0.0
131
0.0
112
0.0
122
1.0
132
0.0
 79
     0
146
0.0
  0
ENDTAB
  0
TABLE
  2
LTYPE
  5
5
330
0
100
AcDbSymbolTable
 70
     2
  0
LTYPE
  5
13
330
5
100
AcDbSymbolTableRecord
100
AcDbLinetypeTableRecord
  2
BYBLOCK
 70
     0
  3

 72
    65
 73
     0
 40
0.0
  0
LTYPE
  5
14
330
5
100
AcDbSymbolTableRecord
100
AcDbLinetypeTableRecord
  2
BYLAYER
 70
     0
  3

 72
    65
 73
     0
 40
0.0
  0
LTYPE
  5
15
330
5
100
AcDbSymbolTableRecord
100
AcDbLinetypeTableRecord
  2
CONTINUOUS
 70
     0
  3
Solid line
 72
    65
 73
     0
 40
0.0
  0
LTYPE
  5
2A
330
5
100
AcDbSymbolTableRecord
100
AcDbLinetypeTableRecord
  2
CENTER
 70
     0
  3
____ _ ____ _ ____ _ ____ _ ____ _ ____ _ ____
 72
    65
 73
     4
 40
0.6
 49
0.375
 74
     0
 49
-0.075
 74
     0
 49
0.075
 74
     0
 49
-0.075
 74
     0
  0
ENDTAB
  0
TABLE
  2
LAYER
  5
2
330
0
100
AcDbSymbolTable
 70
    11
  0
LAYER
  5
10
330
2
100
AcDbSymbolTableRecord
100
AcDbLayerTableRecord
  2
1
 70
     0
 62
     4
  6
CONTINUOUS
370
    -3
390
242E
  0
LAYER
  5
2D
330
2
100
AcDbSymbolTableRecord
100
AcDbLayerTableRecord
  2
2
 70
     0
 62
     7
  6
CONTINUOUS
370
    -3
390
242E
  0
LAYER
  5
2F
330
2
100
AcDbSymbolTableRecord
100
AcDbLayerTableRecord
  2
4
 70
     0
 62
     2
  6
CENTER
370
    -3
390
242E
  0
LAYER
  5
32
330
2
100
AcDbSymbolTableRecord
100
AcDbLayerTableRecord
  2
0
 70
     0
 62
     7
  6
CONTINUOUS
370
    -3
390
242E
  0
LAYER
  5
33
330
2
100
AcDbSymbolTableRecord
100
AcDbLayerTableRecord
  2
DEFPOINTS
 70
     0
 62
     7
  6
CONTINUOUS
290
     0
370
    -3
390
242E
  0
LAYER
  5
7AD
330
2
100
AcDbSymbolTableRecord
100
AcDbLayerTableRecord
  2
SK1
 70
     0
 62
     4
  6
CONTINUOUS
370
    -3
390
242E
  0
LAYER
  5
7AE
330
2
100
AcDbSymbolTableRecord
100
AcDbLayerTableRecord
  2
SK4
 70
     0
 62
     2
  6
CENTER
370
    -3
390
242E
  0
LAYER
  5
7AF
330
2
100
AcDbSymbolTableRecord
100
AcDbLayerTableRecord
  2
SK2
 70
     0
 62
     7
  6
CONTINUOUS
370
    -3
390
242E
  0
LAYER
  5
2456
330
2
100
AcDbSymbolTableRecord
100
AcDbLayerTableRecord
  2
CUT
 70
     0
 62
     1
  6
CONTINUOUS
370
    -3
390
242E
  0
LAYER
  5
248E
330
2
100
AcDbSymbolTableRecord
100
AcDbLayerTableRecord
  2
NOCUT
 70
     0
 62
     7
  6
CONTINUOUS
370
    -3
390
242E
  0
LAYER
  5
24B3
330
2
100
AcDbSymbolTableRecord
100
AcDbLayerTableRecord
  2
6
 70
     0
 62
     5
  6
CONTINUOUS
370
    -3
390
242E
  0
ENDTAB
  0
TABLE
  2
STYLE
  5
3
330
0
100
AcDbSymbolTable
 70
     1
  0
STYLE
  5
11
330
3
100
AcDbSymbolTableRecord
100
AcDbTextStyleTableRecord
  2
STANDARD
 70
     0
 40
0.0
 41
0.8
 50
0.0
 71
     0
 42
0.2
  3
ISOCP
  4

  0
ENDTAB
  0
TABLE
  2
VIEW
  5
6
330
0
100
AcDbSymbolTable
 70
     0
  0
ENDTAB
  0
TABLE
  2
UCS
  5
7
330
0
100
AcDbSymbolTable
 70
     0
  0
ENDTAB
  0
TABLE
  2
APPID
  5
9
330
0
100
AcDbSymbolTable
 70
     1
  0
APPID
  5
12
330
9
100
AcDbSymbolTableRecord
100
AcDbRegAppTableRecord
  2
ACAD
 70
     0
  0
ENDTAB
  0
TABLE
  2
DIMSTYLE
  5
A
330
0
100
AcDbSymbolTable
 70
     2
100
AcDbDimStyleTable
 71
     0
  0
DIMSTYLE
105
2C
330
A
100
AcDbSymbolTableRecord
100
AcDbDimStyleTableRecord
  2
STANDARD
 70
     0
340
11
  0
DIMSTYLE
105
7B0
102
{ACAD_REACTORS
330
71
330
70
330
6E
330
6F
102
}
330
A
100
AcDbSymbolTableRecord
100
AcDbDimStyleTableRecord
  2
ISO-25
 70
     0
 41
2.5
 42
0.625
 43
3.75
 44
1.25
 73
     0
 74
     0
 77
     1
 78
     8
140
2.5
141
2.5
143
0.03937007874016
147
0.625
171
     3
172
     1
271
     2
272
     2
274
     3
283
     0
284
     8
340
11
  0
ENDTAB
  0
TABLE
  2
BLOCK_RECORD
  5
1
330
0
100
AcDbSymbolTable
 70
     5
  0
BLOCK_RECORD
  5
1E
102
{ACAD_XDICTIONARY
360
1B49
102
}
330
1
100
AcDbSymbolTableRecord
100
AcDbBlockTableRecord
  2
*MODEL_SPACE
340
242F
  0
BLOCK_RECORD
  5
1A
102
{ACAD_XDICTIONARY
360
1B47
102
}
330
1
100
AcDbSymbolTableRecord
100
AcDbBlockTableRecord
  2
*PAPER_SPACE
340
2430
  0
BLOCK_RECORD
  5
23
330
1
100
AcDbSymbolTableRecord
100
AcDbBlockTableRecord
  2
_FILLED
340
0
  0
BLOCK_RECORD
  5
8BD
330
1
100
AcDbSymbolTableRecord
100
AcDbBlockTableRecord
  2
*D1
340
0
  0
BLOCK_RECORD
  5
8C9
330
1
100
AcDbSymbolTableRecord
100
AcDbBlockTableRecord
  2
*D2
340
0
  0
BLOCK_RECORD
  5
8D5
330
1
100
AcDbSymbolTableRecord
100
AcDbBlockTableRecord
  2
*D3
340
0
  0
BLOCK_RECORD
  5
8E1
330
1
100
AcDbSymbolTableRecord
100
AcDbBlockTableRecord
  2
*D4
340
0
  0
ENDTAB
  0
ENDSEC
  0
SECTION
  2
BLOCKS
  0
BLOCK
  5
36
330
1E
100
AcDbEntity
  8
0
100
AcDbBlockBegin
  2
*MODEL_SPACE
 70
     0
 10
0.0
 20
0.0
 30
0.0
  3
*MODEL_SPACE
  1

  0
ENDBLK
  5
37
330
1E
100
AcDbEntity
  8
0
100
AcDbBlockEnd
  0
BLOCK
  5
34
330
1A
100
AcDbEntity
 67
     1
  8
0
100
AcDbBlockBegin
  2
*PAPER_SPACE
 70
     0
 10
0.0
 20
0.0
 30
0.0
  3
*PAPER_SPACE
  1

  0
ENDBLK
  5
35
330
1A
100
AcDbEntity
 67
     1
  8
0
100
AcDbBlockEnd
  0
BLOCK
  5
3A
330
23
100
AcDbEntity
  8
0
100
AcDbBlockBegin
  2
_FILLED
 70
     0
 10
0.0
 20
0.0
 30
0.0
  3
_FILLED
  1

  0
SOLID
  5
3B
330
23
100
AcDbEntity
  8
0
  6
ByBlock
 62
     0
100
AcDbTrace
 10
0.0
 20
0.0
 30
0.0
 11
-1.0
 21
0.132
 31
0.0
 12
-1.0
 22
-0.132
 32
0.0
 13
-1.0
 23
-0.132
 33
0.0
  0
ENDBLK
  5
3C
330
23
100
AcDbEntity
  8
0
100
AcDbBlockEnd
  0
BLOCK
  5
8C7
330
8BD
100
AcDbEntity
  8
0
100
AcDbBlockBegin
  2
*D1
 70
     1
 10
0.0
 20
0.0
 30
0.0
  3
*D1
  1

  0
LINE
  5
24BC
330
8BD
100
AcDbEntity
  8
SK2
 62
     0
370
    -2
100
AcDbLine
 10
-0.6250000000000016
 20
-10.5
 30
0.0
 11
-48.53364047849094
 21
-10.49999999999998
 31
0.0
  0
LINE
  5
24BD
330
8BD
100
AcDbEntity
  8
SK2
 62
     0
370
    -2
100
AcDbLine
 10
-0.6249999999999987
 20
10.5
 30
0.0
 11
-48.53364047849094
 21
10.5
 31
0.0
  0
LINE
  5
24BE
330
8BD
100
AcDbEntity
  8
SK2
 62
     0
370
    -2
100
AcDbLine
 10
-47.28364047849093
 20
-7.999999999999985
 30
0.0
 11
-47.28364047849093
 21
8.000000000000012
 31
0.0
  0
SOLID
  5
24BF
330
8BD
100
AcDbEntity
  8
SK2
 62
     0
100
AcDbTrace
 10
-47.7003071451576
 20
-7.999999999999985
 30
0.0
 11
-46.86697381182427
 21
-7.999999999999985
 31
0.0
 12
-47.28364047849093
 22
-10.49999999999998
 32
0.0
 13
-47.28364047849093
 23
-10.49999999999998
 33
0.0
  0
SOLID
  5
24C0
330
8BD
100
AcDbEntity
  8
SK2
 62
     0
100
AcDbTrace
 10
-47.7003071451576
 20
8.000000000000012
 30
0.0
 11
-46.86697381182427
 21
8.000000000000012
 31
0.0
 12
-47.28364047849093
 22
10.5
 32
0.0
 13
-47.28364047849093
 23
10.5
 33
0.0
  0
MTEXT
  5
24C1
330
8BD
100
AcDbEntity
  8
SK2
 62
     0
100
AcDbMText
 10
-49.15888654148306
 20
-0.0972536183999975
 30
0.0
 40
2.5
 41
0.0
 71
     5
 72
     1
  1
%%c21
 11
0.0000000000000001
 21
1.0
 31
0.0
 73
     1
 44
1.0
1001
ACAD
1000
MTEXTBEGIN
1070
    73
1070
     1
1070
    44
1040
1.0
1070
    74
1070
     0
1000
MTEXTEND
  0
POINT
  5
24C2
330
8BD
100
AcDbEntity
  8
DEFPOINTS
 62
     0
100
AcDbPoint
 10
-0.0000000000000013
 20
-10.5
 30
0.0
  0
POINT
  5
24C3
330
8BD
100
AcDbEntity
  8
DEFPOINTS
 62
     0
100
AcDbPoint
 10
0.0000000000000013
 20
10.5
 30
0.0
  0
POINT
  5
24C4
330
8BD
100
AcDbEntity
  8
DEFPOINTS
 62
     0
100
AcDbPoint
 10
-47.28364047849093
 20
10.5
 30
0.0
  0
ENDBLK
  5
8C8
330
8BD
100
AcDbEntity
  8
0
100
AcDbBlockEnd
  0
BLOCK
  5
8D3
330
8C9
100
AcDbEntity
  8
0
100
AcDbBlockBegin
  2
*D2
 70
     1
 10
0.0
 20
0.0
 30
0.0
  3
*D2
  1

  0
LINE
  5
24C5
330
8C9
100
AcDbEntity
  8
SK2
 62
     0
370
    -2
100
AcDbLine
 10
-21.375
 20
-5.999999999999997
 30
0.0
 11
-38.26487735648242
 21
-5.999999999999992
 31
0.0
  0
LINE
  5
24C6
330
8C9
100
AcDbEntity
  8
SK2
 62
     0
370
    -2
100
AcDbLine
 10
-21.375
 20
6.000000000000002
 30
0.0
 11
-38.26487735648242
 21
6.000000000000007
 31
0.0
  0
LINE
  5
24C7
330
8C9
100
AcDbEntity
  8
SK2
 62
     0
370
    -2
100
AcDbLine
 10
-37.01487735648242
 20
-3.499999999999991
 30
0.0
 11
-37.01487735648242
 21
3.500000000000006
 31
0.0
  0
SOLID
  5
24C8
330
8C9
100
AcDbEntity
  8
SK2
 62
     0
100
AcDbTrace
 10
-37.43154402314909
 20
-3.499999999999991
 30
0.0
 11
-36.59821068981575
 21
-3.499999999999991
 31
0.0
 12
-37.01487735648242
 22
-5.999999999999992
 32
0.0
 13
-37.01487735648242
 23
-5.999999999999992
 33
0.0
  0
SOLID
  5
24C9
330
8C9
100
AcDbEntity
  8
SK2
 62
     0
100
AcDbTrace
 10
-37.43154402314909
 20
3.500000000000006
 30
0.0
 11
-36.59821068981575
 21
3.500000000000006
 31
0.0
 12
-37.01487735648242
 22
6.000000000000007
 32
0.0
 13
-37.01487735648242
 23
6.000000000000007
 33
0.0
  0
MTEXT
  5
24CA
330
8C9
100
AcDbEntity
  8
SK2
 62
     0
100
AcDbMText
 10
-38.89012341947454
 20
0.4950097903000076
 30
0.0
 40
2.5
 41
0.0
 71
     5
 72
     1
  1
M12
 11
0.0000000000000001
 21
1.0
 31
0.0
 73
     1
 44
1.0
1001
ACAD
1000
MTEXTBEGIN
1070
    73
1070
     1
1070
    44
1040
1.0
1070
    74
1070
     0
1000
MTEXTEND
  0
POINT
  5
24CB
330
8C9
100
AcDbEntity
  8
DEFPOINTS
 62
     0
100
AcDbPoint
 10
-20.75
 20
-5.999999999999997
 30
0.0
  0
POINT
  5
24CC
330
8C9
100
AcDbEntity
  8
DEFPOINTS
 62
     0
100
AcDbPoint
 10
-20.75
 20
6.000000000000002
 30
0.0
  0
POINT
  5
24CD
330
8C9
100
AcDbEntity
  8
DEFPOINTS
 62
     0
100
AcDbPoint
 10
-37.01487735648242
 20
6.000000000000007
 30
0.0
  0
ENDBLK
  5
8D4
330
8C9
100
AcDbEntity
  8
0
100
AcDbBlockEnd
  0
BLOCK
  5
8DF
330
8D5
100
AcDbEntity
  8
0
100
AcDbBlockBegin
  2
*D3
 70
     1
 10
0.0
 20
0.0
 30
0.0
  3
*D3
  1

  0
LINE
  5
2432
330
8D5
100
AcDbEntity
  8
2
 62
     0
370
    -2
100
AcDbLine
 10
35.0
 20
-11.85330060961251
 30
0.0
 11
35.0
 21
-28.76529657516174
 31
0.0
  0
LINE
  5
2433
330
8D5
100
AcDbEntity
  8
2
 62
     0
370
    -2
100
AcDbLine
 10
-0.0000000000000013
 20
-10.625
 30
0.0
 11
-0.0000000000000024
 21
-28.76529657516174
 31
0.0
  0
LINE
  5
2434
330
8D5
100
AcDbEntity
  8
2
 62
     0
370
    -2
100
AcDbLine
 10
32.5
 20
-27.51529657516174
 30
0.0
 11
2.499999999999996
 21
-27.51529657516174
 31
0.0
  0
SOLID
  5
2435
330
8D5
100
AcDbEntity
  8
2
 62
     0
100
AcDbTrace
 10
32.5
 20
-27.09862990849507
 30
0.0
 11
32.5
 21
-27.93196324182842
 31
0.0
 12
35.0
 22
-27.51529657516174
 32
0.0
 13
35.0
 23
-27.51529657516174
 33
0.0
  0
SOLID
  5
2436
330
8D5
100
AcDbEntity
  8
2
 62
     0
100
AcDbTrace
 10
2.499999999999996
 20
-27.09862990849507
 30
0.0
 11
2.499999999999996
 21
-27.93196324182842
 31
0.0
 12
-0.0000000000000023
 22
-27.51529657516174
 32
0.0
 13
-0.0000000000000023
 23
-27.51529657516174
 33
0.0
  0
MTEXT
  5
2437
330
8D5
100
AcDbEntity
  8
2
 62
     0
100
AcDbMText
 10
18.33091534679995
 20
-25.64029657516174
 30
0.0
 40
2.5
 41
0.0
 71
     5
 72
     1
  1
35
 73
     1
 44
1.0
1001
ACAD
1000
MTEXTBEGIN
1070
    73
1070
     1
1070
    44
1040
1.0
1070
    74
1070
     0
1000
MTEXTEND
  0
POINT
  5
2438
330
8D5
100
AcDbEntity
  8
DEFPOINTS
 62
     0
100
AcDbPoint
 10
35.0
 20
-11.22830060961251
 30
0.0
  0
POINT
  5
2439
330
8D5
100
AcDbEntity
  8
DEFPOINTS
 62
     0
100
AcDbPoint
 10
-0.0000000000000012
 20
-10.0
 30
0.0
  0
POINT
  5
243A
330
8D5
100
AcDbEntity
  8
DEFPOINTS
 62
     0
100
AcDbPoint
 10
-0.0000000000000023
 20
-27.51529657516174
 30
0.0
  0
ENDBLK
  5
8E0
330
8D5
100
AcDbEntity
  8
0
100
AcDbBlockEnd
  0
BLOCK
  5
8EB
330
8E1
100
AcDbEntity
  8
0
100
AcDbBlockBegin
  2
*D4
 70
     1
 10
0.0
 20
0.0
 30
0.0
  3
*D4
  1

  0
LINE
  5
243B
330
8E1
100
AcDbEntity
  8
2
 62
     0
370
    -2
100
AcDbLine
 10
34.19183641379528
 20
12.49999999999999
 30
0.0
 11
51.25269912486988
 21
12.49999999999999
 31
0.0
  0
LINE
  5
243C
330
8E1
100
AcDbEntity
  8
2
 62
     0
370
    -2
100
AcDbLine
 10
33.91798362711556
 20
-12.5
 30
0.0
 11
51.25269912486988
 21
-12.5
 31
0.0
  0
LINE
  5
243D
330
8E1
100
AcDbEntity
  8
2
 62
     0
370
    -2
100
AcDbLine
 10
50.00269912486988
 20
9.999999999999991
 30
0.0
 11
50.00269912486988
 21
-10.0
 31
0.0
  0
SOLID
  5
243E
330
8E1
100
AcDbEntity
  8
2
 62
     0
100
AcDbTrace
 10
49.58603245820321
 20
9.999999999999991
 30
0.0
 11
50.41936579153654
 21
9.999999999999991
 31
0.0
 12
50.00269912486988
 22
12.49999999999999
 32
0.0
 13
50.00269912486988
 23
12.49999999999999
 33
0.0
  0
SOLID
  5
243F
330
8E1
100
AcDbEntity
  8
2
 62
     0
100
AcDbTrace
 10
49.58603245820321
 20
-10.0
 30
0.0
 11
50.41936579153654
 21
-10.0
 31
0.0
 12
50.00269912486988
 22
-12.5
 32
0.0
 13
50.00269912486988
 23
-12.5
 33
0.0
  0
MTEXT
  5
2440
330
8E1
100
AcDbEntity
  8
2
 62
     0
100
AcDbMText
 10
48.12745306187775
 20
-1.246373020300017
 30
0.0
 40
2.5
 41
0.0
 71
     5
 72
     1
  1
%%c25
 11
0.0000000000000001
 21
1.0
 31
0.0
 73
     1
 44
1.0
1001
ACAD
1000
MTEXTBEGIN
1070
    73
1070
     1
1070
    44
1040
1.0
1070
    74
1070
     0
1000
MTEXTEND
  0
POINT
  5
2441
330
8E1
100
AcDbEntity
  8
DEFPOINTS
 62
     0
100
AcDbPoint
 10
33.56683641379528
 20
12.49999999999999
 30
0.0
  0
POINT
  5
2442
330
8E1
100
AcDbEntity
  8
DEFPOINTS
 62
     0
100
AcDbPoint
 10
33.29298362711556
 20
-12.5
 30
0.0
  0
POINT
  5
2443
330
8E1
100
AcDbEntity
  8
DEFPOINTS
 62
     0
100
AcDbPoint
 10
50.00269912486988
 20
-12.5
 30
0.0
  0
ENDBLK
  5
8EC
330
8E1
100
AcDbEntity
  8
0
100
AcDbBlockEnd
  0
ENDSEC
  0
SECTION
  2
ENTITIES
  0
DIMENSION
  5
6E
330
1E
100
AcDbEntity
  8
2
100
AcDbDimension
  2
*D3
 10
-0.0000000000000023
 20
-27.51529657516174
 30
0.0
 11
18.33091534679995
 21
-27.51529657516174
 31
0.0
 70
   160
 71
     5
 42
35.0
  3
ISO-25
100
AcDbAlignedDimension
 13
35.0
 23
-11.22830060961251
 33
0.0
 14
-0.0000000000000012
 24
-10.0
 34
0.0
 50
180.0
100
AcDbRotatedDimension
  0
DIMENSION
  5
6F
330
1E
100
AcDbEntity
  8
2
100
AcDbDimension
  2
*D4
 10
50.00269912486988
 20
-12.5
 30
0.0
 11
50.00269912486988
 21
-1.246373020300018
 31
0.0
 70
   160
  1
%%c<>
 71
     5
 42
25.0
  3
ISO-25
100
AcDbAlignedDimension
 13
33.56683641379528
 23
12.49999999999999
 33
0.0
 14
33.29298362711556
 24
-12.5
 34
0.0
 50
270.0
100
AcDbRotatedDimension
  0
DIMENSION
  5
70
330
1E
100
AcDbEntity
  8
SK2
100
AcDbDimension
  2
*D2
 10
-37.01487735648242
 20
6.000000000000007
 30
0.0
 11
-37.01487735648242
 21
0.4950097903000076
 31
0.0
 70
   160
  1
M<>
 71
     5
 42
12.0
  3
ISO-25
100
AcDbAlignedDimension
 13
-20.75
 23
-5.999999999999997
 33
0.0
 14
-20.75
 24
6.000000000000002
 34
0.0
 50
89.99999999999998
100
AcDbRotatedDimension
  0
DIMENSION
  5
71
330
1E
100
AcDbEntity
  8
SK2
100
AcDbDimension
  2
*D1
 10
-47.28364047849093
 20
10.5
 30
0.0
 11
-47.28364047849093
 21
-0.0972536183999977
 31
0.0
 70
   160
  1
%%c<>
 71
     5
 42
21.0
  3
ISO-25
100
AcDbAlignedDimension
 13
-0.0000000000000013
 23
-10.5
 33
0.0
 14
0.0000000000000013
 24
10.5
 34
0.0
 50
89.99999999999998
100
AcDbRotatedDimension
  0
LINE
  5
72
330
1E
100
AcDbEntity
  8
1
100
AcDbLine
 10
34.5
 20
-9.44112706690001
 30
0.0
 11
34.5
 21
-8.597317225200017
 31
0.0
  0
LINE
  5
73
330
1E
100
AcDbEntity
  8
1
100
AcDbLine
 10
34.5
 20
-8.597317225200017
 30
0.0
 11
34.5
 21
-7.178853188700005
 31
0.0
  0
LINE
  5
74
330
1E
100
AcDbEntity
  8
1
100
AcDbLine
 10
34.5
 20
1.992670617796983
 30
0.0
 11
34.5
 21
6.447446148899982
 31
0.0
  0
LINE
  5
75
330
1E
100
AcDbEntity
  8
1
100
AcDbLine
 10
34.5
 20
7.841687604822287
 30
0.0
 11
34.5
 21
7.185255577699988
 31
0.0
  0
LINE
  5
76
330
1E
100
AcDbEntity
  8
1
100
AcDbLine
 10
34.5
 20
-1.992670617697998
 30
0.0
 11
34.5
 21
-6.448074657700008
 31
0.0
  0
LINE
  5
77
330
1E
100
AcDbEntity
  8
1
100
AcDbLine
 10
35.004407
 20
-0.0000000000000043
 30
0.0
 11
34.5576789809
 21
-1.934991636700008
 31
0.0
  0
LINE
  5
78
330
1E
100
AcDbEntity
  8
1
100
AcDbLine
 10
35.004407
 20
-0.0000000000000043
 30
0.0
 11
34.5576789809
 21
1.934991636799985
 31
0.0
  0
LINE
  5
79
330
1E
100
AcDbEntity
  8
1
100
AcDbLine
 10
32.5
 20
-0.8006495971999964
 30
0.0
 11
32.5
 21
-0.000000000000004
 31
0.0
  0
LINE
  5
7A
330
1E
100
AcDbEntity
  8
SK4
100
AcDbLine
 10
32.004407
 20
6.418804461692981
 30
0.0
 11
32.004407
 21
13.49308972922698
 31
0.0
  0
LINE
  5
7B
330
1E
100
AcDbEntity
  8
SK4
100
AcDbLine
 10
32.004407
 20
-7.075019811781007
 30
0.0
 11
32.004407
 21
-13.022878198596
 31
0.0
  0
LINE
  5
7C
330
1E
100
AcDbEntity
  8
1
100
AcDbLine
 10
29.004407
 20
-0.0000000000000036
 30
0.0
 11
29.0505806382
 21
0.199999999999985
 31
0.0
  0
LINE
  5
7D
330
1E
100
AcDbEntity
  8
1
100
AcDbLine
 10
34.5576789809
 20
-1.934991636700008
 30
0.0
 11
34.5
 21
-1.992670617697998
 31
0.0
  0
LINE
  5
7E
330
1E
100
AcDbEntity
  8
1
100
AcDbLine
 10
34.5576789809
 20
1.934991636799985
 30
0.0
 11
34.5
 21
1.992670617796983
 31
0.0
  0
LINE
  5
7F
330
1E
100
AcDbEntity
  8
1
100
AcDbLine
 10
29.20714366329999
 20
10.99818166789997
 30
0.0
 11
24.369940295
 21
10.99818166789997
 31
0.0
  0
LINE
  5
80
330
1E
100
AcDbEntity
  8
1
100
AcDbLine
 10
17.56339057089999
 20
10.49999999999999
 30
0.0
 11
0.5000000000000016
 21
10.5
 31
0.0
  0
LINE
  5
81
330
1E
100
AcDbEntity
  8
1
100
AcDbLine
 10
21.33958830360001
 20
10.79217611739998
 30
0.0
 11
18.4349479999
 21
10.53805301929999
 31
0.0
  0
LINE
  5
82
330
1E
100
AcDbEntity
  8
1
100
AcDbLine
 10
17.56339057089999
 20
10.49999999999999
 30
0.0
 11
18.4349479999
 21
10.53805301929999
 31
0.0
  0
LINE
  5
83
330
1E
100
AcDbEntity
  8
SK4
100
AcDbLine
 10
28.19266308004399
 20
9.499999999999996
 30
0.0
 11
35.65119268645339
 21
9.499999999999996
 31
0.0
  0
LINE
  5
84
330
1E
100
AcDbEntity
  8
1
100
AcDbLine
 10
13.0
 20
-6.164414002900004
 30
0.0
 11
13.0
 21
6.164414002999987
 31
0.0
  0
LINE
  5
85
330
1E
100
AcDbEntity
  8
1
100
AcDbLine
 10
31.02461110290001
 20
7.199999999999982
 30
0.0
 11
29.0044069017
 21
7.199999999999982
 31
0.0
  0
LINE
  5
86
330
1E
100
AcDbEntity
  8
SK1
100
AcDbLine
 10
-1.999999999999999
 20
6.25
 30
0.0
 11
-5.199999999999985
 21
6.25
 31
0.0
  0
LINE
  5
87
330
1E
100
AcDbEntity
  8
1
100
AcDbLine
 10
13.0
 20
6.164414002999987
 30
0.0
 11
3.0
 21
6.16441400299999
 31
0.0
  0
LINE
  5
88
330
1E
100
AcDbEntity
  8
SK1
100
AcDbLine
 10
-0.4999999999999993
 20
6.050000000000013
 30
0.0
 11
-1.174598339999987
 21
6.050000000000013
 31
0.0
  0
LINE
  5
89
330
1E
100
AcDbEntity
  8
SK1
100
AcDbLine
 10
-10.29999999999998
 20
6.0
 30
0.0
 11
-20.24999999999999
 21
6.000000000000002
 31
0.0
  0
LINE
  5
8A
330
1E
100
AcDbEntity
  8
SK1
100
AcDbLine
 10
-21.14999999999997
 20
5.099999999999996
 30
0.0
 11
-8.74115427320001
 21
5.099999999999995
 31
0.0
  0
LINE
  5
8B
330
1E
100
AcDbEntity
  8
SK1
100
AcDbLine
 10
-6.999999999999999
 20
4.699999999999987
 30
0.0
 11
-7.780384757799991
 21
4.699999999999987
 31
0.0
  0
LINE
  5
8C
330
1E
100
AcDbEntity
  8
SK1
100
AcDbLine
 10
-1.329889766999995
 20
6.070444504299985
 30
0.0
 11
-1.174598339999987
 21
6.050000000000013
 31
0.0
  0
LINE
  5
8D
330
1E
100
AcDbEntity
  8
1
100
AcDbLine
 10
34.5576789809
 20
1.934991636799985
 30
0.0
 11
29.7748807948
 21
1.934991636799988
 31
0.0
  0
LINE
  5
8E
330
1E
100
AcDbEntity
  8
SK1
100
AcDbLine
 10
-1.329889766999995
 20
6.070444504299985
 30
0.0
 11
-1.999999999999999
 21
6.25
 31
0.0
  0
LINE
  5
8F
330
1E
100
AcDbEntity
  8
1
100
AcDbLine
 10
29.48419023640001
 20
0.3000000000000078
 30
0.0
 11
29.4039727538
 21
0.3000000000000078
 31
0.0
  0
LINE
  5
90
330
1E
100
AcDbEntity
  8
1
100
AcDbLine
 10
29.20714366329999
 20
0.199999999999985
 30
0.0
 11
22.32226989199998
 21
0.1999999999999859
 31
0.0
  0
LINE
  5
91
330
1E
100
AcDbEntity
  8
4
100
AcDbLine
 10
38.0
 20
-0.0000000000000047
 30
0.0
 11
0.2310068399483498
 21
0.0
 31
0.0
  0
LINE
  5
92
330
1E
100
AcDbEntity
  8
1
100
AcDbLine
 10
35.004407
 20
-0.0000000000000043
 30
0.0
 11
29.004407
 21
-0.0000000000000036
 31
0.0
  0
LINE
  5
93
330
1E
100
AcDbEntity
  8
1
100
AcDbLine
 10
32.5
 20
-0.3000000000000154
 30
0.0
 11
29.72073879860001
 21
-0.3000000000000151
 31
0.0
  0
LINE
  5
94
330
1E
100
AcDbEntity
  8
1
100
AcDbLine
 10
32.58406676559999
 20
-1.000000000000001
 30
0.0
 11
31.02461110290001
 21
-1.000000000000001
 31
0.0
  0
LINE
  5
95
330
1E
100
AcDbEntity
  8
1
100
AcDbLine
 10
34.5576789809
 20
-1.934991636700008
 30
0.0
 11
33.08951123380001
 21
-1.934991636700008
 31
0.0
  0
LINE
  5
96
330
1E
100
AcDbEntity
  8
1
100
AcDbLine
 10
2.999999999999998
 20
-6.164414002900003
 30
0.0
 11
3.0
 21
6.16441400299999
 31
0.0
  0
LINE
  5
97
330
1E
100
AcDbEntity
  8
SK1
100
AcDbLine
 10
-8.280384757799993
 20
-4.833974596199992
 30
0.0
 11
-10.29999999999998
 21
-5.999999999999999
 31
0.0
  0
LINE
  5
98
330
1E
100
AcDbEntity
  8
SK1
100
AcDbLine
 10
-1.329889766999995
 20
-6.070444504199997
 30
0.0
 11
-2.0
 21
-6.25
 31
0.0
  0
LINE
  5
99
330
1E
100
AcDbEntity
  8
SK1
100
AcDbLine
 10
-8.280384757799993
 20
4.833974596300008
 30
0.0
 11
-10.29999999999998
 21
6.0
 31
0.0
  0
LINE
  5
9A
330
1E
100
AcDbEntity
  8
1
100
AcDbLine
 10
-0.0000000000000012
 20
-10.0
 30
0.0
 11
0.0000000000000012
 21
10.0
 31
0.0
  0
LINE
  5
9B
330
1E
100
AcDbEntity
  8
SK1
100
AcDbLine
 10
-1.329889766999995
 20
-6.070444504199997
 30
0.0
 11
-1.174598339999987
 21
-6.050000000000013
 31
0.0
  0
LINE
  5
9C
330
1E
100
AcDbEntity
  8
SK1
100
AcDbLine
 10
-7.0
 20
-4.699999999999985
 30
0.0
 11
-7.780384757799992
 21
-4.699999999999985
 31
0.0
  0
LINE
  5
9D
330
1E
100
AcDbEntity
  8
SK1
100
AcDbLine
 10
-21.14999999999997
 20
-5.09999999999999
 30
0.0
 11
-8.74115427320001
 21
-5.099999999999993
 31
0.0
  0
LINE
  5
9E
330
1E
100
AcDbEntity
  8
SK1
100
AcDbLine
 10
-10.29999999999998
 20
-5.999999999999999
 30
0.0
 11
-20.24999999999999
 21
-5.999999999999997
 31
0.0
  0
LINE
  5
9F
330
1E
100
AcDbEntity
  8
SK1
100
AcDbLine
 10
-0.5000000000000008
 20
-6.050000000000013
 30
0.0
 11
-1.174598339999987
 21
-6.050000000000013
 31
0.0
  0
LINE
  5
A0
330
1E
100
AcDbEntity
  8
1
100
AcDbLine
 10
13.0
 20
-6.164414002900004
 30
0.0
 11
2.999999999999998
 21
-6.164414002900003
 31
0.0
  0
LINE
  5
A1
330
1E
100
AcDbEntity
  8
SK1
100
AcDbLine
 10
-2.0
 20
-6.25
 30
0.0
 11
-5.199999999999987
 21
-6.249999999999999
 31
0.0
  0
LINE
  5
A2
330
1E
100
AcDbEntity
  8
SK1
100
AcDbLine
 10
-1.999999999999999
 20
6.25
 30
0.0
 11
-2.0
 21
-6.25
 31
0.0
  0
LINE
  5
A3
330
1E
100
AcDbEntity
  8
1
100
AcDbLine
 10
29.687533784
 20
-8.316249154500015
 30
0.0
 11
29.00440689199998
 21
-8.316249154500015
 31
0.0
  0
LINE
  5
A4
330
1E
100
AcDbEntity
  8
SK4
100
AcDbLine
 10
28.843670316361
 20
-9.500000000000003
 30
0.0
 11
35.38264348107271
 21
-9.500000000000003
 31
0.0
  0
LINE
  5
A5
330
1E
100
AcDbEntity
  8
1
100
AcDbLine
 10
17.56339057089999
 20
-10.5
 30
0.0
 11
0.4999999999999988
 21
-10.5
 31
0.0
  0
LINE
  5
A6
330
1E
100
AcDbEntity
  8
1
100
AcDbLine
 10
17.56339057089999
 20
-10.5
 30
0.0
 11
18.4349479999
 21
-10.53805301919999
 31
0.0
  0
LINE
  5
A7
330
1E
100
AcDbEntity
  8
1
100
AcDbLine
 10
21.66664021199999
 20
-10.82078945170001
 30
0.0
 11
18.4349479999
 21
-10.53805301919999
 31
0.0
  0
LINE
  5
A8
330
1E
100
AcDbEntity
  8
SK1
100
AcDbLine
 10
-5.199999999999985
 20
6.25
 30
0.0
 11
-5.199999999999987
 21
-6.249999999999999
 31
0.0
  0
LINE
  5
A9
330
1E
100
AcDbEntity
  8
SK1
100
AcDbLine
 10
-5.999999999999999
 20
5.7881197847
 30
0.0
 11
-6.0
 21
-5.788119784600012
 31
0.0
  0
LINE
  5
AA
330
1E
100
AcDbEntity
  8
SK1
100
AcDbLine
 10
-5.199999999999985
 20
6.25
 30
0.0
 11
-5.999999999999999
 21
5.7881197847
 31
0.0
  0
LINE
  5
AB
330
1E
100
AcDbEntity
  8
1
100
AcDbLine
 10
29.48419023640001
 20
-10.99590832989997
 30
0.0
 11
29.4039727538
 21
-10.99590832989997
 31
0.0
  0
LINE
  5
AC
330
1E
100
AcDbEntity
  8
1
100
AcDbLine
 10
29.20714366329999
 20
-10.99818166789998
 30
0.0
 11
24.369940295
 21
-10.99818166789998
 31
0.0
  0
LINE
  5
AD
330
1E
100
AcDbEntity
  8
SK1
100
AcDbLine
 10
-5.199999999999987
 20
-6.249999999999999
 30
0.0
 11
-6.0
 21
-5.788119784600012
 31
0.0
  0
LINE
  5
AE
330
1E
100
AcDbEntity
  8
SK1
100
AcDbLine
 10
-8.741154670699984
 20
5.099999999999995
 30
0.0
 11
-8.741154670699984
 21
-5.099999999999993
 31
0.0
  0
LINE
  5
AF
330
1E
100
AcDbEntity
  8
SK1
100
AcDbLine
 10
-10.29999999999998
 20
6.0
 30
0.0
 11
-10.29999999999998
 21
-5.999999999999999
 31
0.0
  0
LINE
  5
B0
330
1E
100
AcDbEntity
  8
SK1
100
AcDbLine
 10
-20.24999999999999
 20
6.000000000000002
 30
0.0
 11
-22.0
 21
4.25
 31
0.0
  0
LINE
  5
B1
330
1E
100
AcDbEntity
  8
SK1
100
AcDbLine
 10
-20.24999999999999
 20
-5.999999999999997
 30
0.0
 11
-22.0
 21
-4.249999999999997
 31
0.0
  0
LINE
  5
B2
330
1E
100
AcDbEntity
  8
SK1
100
AcDbLine
 10
-20.24999999999999
 20
6.000000000000002
 30
0.0
 11
-20.24999999999999
 21
-5.999999999999997
 31
0.0
  0
LINE
  5
B3
330
1E
100
AcDbEntity
  8
SK1
100
AcDbLine
 10
-21.14999961859998
 20
5.099999999999996
 30
0.0
 11
-21.14999961859998
 21
-5.09999999999999
 31
0.0
  0
LINE
  5
B4
330
1E
100
AcDbEntity
  8
SK1
100
AcDbLine
 10
-22.0
 20
4.249884157499993
 30
0.0
 11
-22.0
 21
-4.2498841574
 31
0.0
  0
ARC
  5
B5
330
1E
100
AcDbEntity
  8
1
100
AcDbCircle
 10
32.00000000000001
 20
9.499999999999996
 30
0.0
 40
3.0
100
AcDbArc
 50
302.8975545006538
 51
229.8584886378234
  0
CIRCLE
  5
B6
330
1E
100
AcDbEntity
  8
1
100
AcDbCircle
 10
32.004407
 20
9.499999999999996
 30
0.0
 40
1.9
  0
ARC
  5
B7
330
1E
100
AcDbEntity
  8
1
100
AcDbCircle
 10
32.00000658117744
 20
-9.500001441471351
 30
0.0
 40
2.999995312492623
100
AcDbArc
 50
209.9102077919098
 51
33.557402182236
  0
ARC
  5
B8
330
1E
100
AcDbEntity
  8
1
100
AcDbCircle
 10
32.004407
 20
-9.500000000000003
 30
0.0
 40
2.553271980999999
100
AcDbArc
 50
211.9671803229999
 51
12.19986738989996
  0
ARC
  5
B9
330
1E
100
AcDbEntity
  8
1
100
AcDbCircle
 10
32.004407
 20
-9.500000000000003
 30
0.0
 40
2.488263617699999
100
AcDbArc
 50
215.5716667206998
 51
352.4082235822
  0
ARC
  5
BA
330
1E
100
AcDbEntity
  8
1
100
AcDbCircle
 10
32.504407
 20
-4.199999999999991
 30
0.0
 40
3.0
100
AcDbArc
 50
310.4947037533999
 51
311.6749746582998
  0
ARC
  5
BB
330
1E
100
AcDbEntity
  8
1
100
AcDbCircle
 10
29.004407
 20
17.19999999999997
 30
0.0
 40
10.0
100
AcDbArc
 50
219.9739201304999
 51
269.9999994369
  0
ARC
  5
BC
330
1E
100
AcDbEntity
  8
1
100
AcDbCircle
 10
32.004407
 20
-9.500000000000003
 30
0.0
 40
2.6536977133
100
AcDbArc
 50
210.9862239774
 51
211.9035908839999
  0
ARC
  5
BD
330
1E
100
AcDbEntity
  8
1
100
AcDbCircle
 10
32.004407
 20
9.499999999999996
 30
0.0
 40
3.2
100
AcDbArc
 50
216.1414496506
 51
224.4676308372999
  0
ARC
  5
BE
330
1E
100
AcDbEntity
  8
1
100
AcDbCircle
 10
0.4999999999999988
 20
-10.0
 30
0.0
 40
0.5
100
AcDbArc
 50
180.0
 51
270.0
  0
ARC
  5
BF
330
1E
100
AcDbEntity
  8
1
100
AcDbCircle
 10
0.5000000000000016
 20
10.0
 30
0.0
 40
0.5
100
AcDbArc
 50
90.0
 51
180.0
  0
ARC
  5
C0
330
1E
100
AcDbEntity
  8
1
100
AcDbCircle
 10
32.504407
 20
4.199999999999984
 30
0.0
 40
3.0
100
AcDbArc
 50
48.30864983039997
 51
82.13228833409997
  0
ARC
  5
C1
330
1E
100
AcDbEntity
  8
SK1
100
AcDbCircle
 10
-0.5000000000000008
 20
-6.650000000000002
 30
0.0
 40
0.6
100
AcDbArc
 50
33.34498802279995
 51
90.0
  0
ARC
  5
C2
330
1E
100
AcDbEntity
  8
1
100
AcDbCircle
 10
32.004407
 20
9.499999999999996
 30
0.0
 40
2.5
100
AcDbArc
 50
246.9260819343999
 51
291.3622705272
  0
ARC
  5
C3
330
1E
100
AcDbEntity
  8
SK1
100
AcDbCircle
 10
-7.0
 20
-5.699999999999985
 30
0.0
 40
1.0
100
AcDbArc
 50
0.0
 51
90.0
  0
ARC
  5
C4
330
1E
100
AcDbEntity
  8
SK1
100
AcDbCircle
 10
-7.780384757799992
 20
-5.699999999999985
 30
0.0
 40
1.0
100
AcDbArc
 50
90.0
 51
119.9999999999999
  0
ARC
  5
C5
330
1E
100
AcDbEntity
  8
1
100
AcDbCircle
 10
31.8629856437
 20
-9.358578643700015
 30
0.0
 40
1.05
100
AcDbArc
 50
182.9749715134985
 51
345.6742043135578
  0
ARC
  5
C6
330
1E
100
AcDbEntity
  8
SK1
100
AcDbCircle
 10
-0.4999999999999992
 20
6.650000000000002
 30
0.0
 40
0.6
100
AcDbArc
 50
270.0
 51
326.6550119771999
  0
ARC
  5
C7
330
1E
100
AcDbEntity
  8
SK1
100
AcDbCircle
 10
-6.999999999999999
 20
5.699999999999986
 30
0.0
 40
1.0
100
AcDbArc
 50
270.0
 51
0.0
  0
ARC
  5
C8
330
1E
100
AcDbEntity
  8
SK1
100
AcDbCircle
 10
-7.780384757799991
 20
5.699999999999986
 30
0.0
 40
1.0
100
AcDbArc
 50
239.9999999999999
 51
270.0
  0
ARC
  5
C9
330
1E
100
AcDbEntity
  8
1
100
AcDbCircle
 10
32.004407
 20
9.499999999999996
 30
0.0
 40
3.173205080799998
100
AcDbArc
 50
151.8270165380999
 51
208.2102344791998
  0
LWPOLYLINE
  5
CA
330
1E
100
AcDbEntity
  8
1
100
AcDbPolyline
 90
        4
 70
     0
 43
0.0
 10
29.20714366329999
 20
10.99818166789997
 10
29.249848580423
 20
10.99721634204299
 10
29.328187187322
 20
10.99620884481998
 10
29.39957576234291
 20
10.99592572817152
  0
LWPOLYLINE
  5
D0
330
1E
100
AcDbEntity
  8
1
100
AcDbPolyline
 90
       79
 70
     0
 43
0.0
 10
29.20714366329999
 20
0.199999999999985
 10
29.208524018599
 20
0.2021085162949951
 10
29.20993284402401
 20
0.2041996315880076
 10
29.211369729706
 20
0.2062730948109923
 10
29.21296876234901
 20
0.2085146275599889
 10
29.21460016912202
 20
0.2107345281420087
 10
29.216263417904
 20
0.2129324706029898
 10
29.21795797657599
 20
0.2151081289889837
 10
29.21968331301802
 20
0.2172611773459855
 10
29.221586542193
 20
0.219567753560991
 10
29.22352459145598
 20
0.2218469974299885
 10
29.225496784263
 20
0.2240984945300077
 10
29.22750244407199
 20
0.2263218304389873
 10
29.229540894338
 20
0.2285165907360031
 10
29.231772043449
 20
0.2308477460559821
 10
29.23403959211301
 20
0.2331447621939979
 10
29.236342695343
 20
0.235407121548004
 10
29.238680508154
 20
0.2376343065139927
 10
29.24105218555898
 20
0.2398257994900028
 10
29.24345688257199
 20
0.2419810828719981
 10
29.245893754206
 20
0.244099639057989
 10
29.24818463440498
 20
0.2460335315390089
 10
29.25050185187901
 20
0.247934895458993
 10
29.25284473008399
 20
0.2498033163969886
 10
29.255212592476
 20
0.2516383799309913
 10
29.257604788704
 20
0.2534397261869933
 10
29.260020790796
 20
0.2552072501630071
 10
29.262460106491
 20
0.2569409212329922
 10
29.264922243534
 20
0.2586407087819928
 10
29.26740670966999
 20
0.2603065821940013
 10
29.269913012642
 20
0.2619385108529819
 10
29.272440660196
 20
0.263536464141989
 10
29.274989160076
 20
0.2651004114449868
 10
29.27755802002601
 20
0.266630322146991
 10
29.28014674779102
 20
0.2681261656300044
 10
29.282754851115
 20
0.269587911281004
 10
29.285381837743
 20
0.2710155284809978
 10
29.28802721542
 20
0.2724089866150016
 10
29.29069049188901
 20
0.2737682550670079
 10
29.293371174895
 20
0.275093303219986
 10
29.296068772184
 20
0.2763841004600031
 10
29.298782791498
 20
0.2776406161690054
 10
29.301512740584
 20
0.2788628197320086
 10
29.304258127184
 20
0.2800506805330051
 10
29.30701845904499
 20
0.281204167953998
 10
29.309793243909
 20
0.2823232513809976
 10
29.312581989522
 20
0.2834079001979965
 10
29.31538420362901
 20
0.2844580837879924
 10
29.31819939397298
 20
0.2854737715339829
 10
29.32102706829899
 20
0.2864549328220071
 10
29.323866734369
 20
0.287401537308991
 10
29.32671790134
 20
0.2883135764529889
 10
29.329580080753
 20
0.2891910790210054
 10
29.332452784385
 20
0.290034077440989
 10
29.335335524012
 20
0.2908426041369942
 10
29.33822781141099
 20
0.2916166915369977
 10
29.341129158356
 20
0.2923563720669868
 10
29.34403907662501
 20
0.2930616781519823
 10
29.346957077994
 20
0.2937326422189947
 10
29.349882674239
 20
0.2943692966950059
 10
29.352815377137
 20
0.2949716740050085
 10
29.35575469846201
 20
0.2955398065759844
 10
29.35870014999199
 20
0.2960737268340061
 10
29.361651243504
 20
0.2965734672050039
 10
29.364607490772
 20
0.2970390601149936
 10
29.367568403573
 20
0.2974705379909856
 10
29.37053349368401
 20
0.2978679332589955
 10
29.37350227288
 20
0.298231278344982
 10
29.37647425293802
 20
0.2985606056749894
 10
29.37944894563401
 20
0.2988559476759995
 10
29.38242586274501
 20
0.2991173367739996
 10
29.385404516046
 20
0.2993448053939822
 10
29.388384417313
 20
0.2995383859640092
 10
29.391365078324
 20
0.2996981109089881
 10
29.394346010853
 20
0.2998240126559856
 10
29.39732672667799
 20
0.2999161236309895
 10
29.400306737574
 20
0.2999744762599867
 10
29.40328555531801
 20
0.299999102968993
 10
29.40396275378999
 20
0.2999999998100086
  0
LWPOLYLINE
  5
121
330
1E
100
AcDbEntity
  8
1
100
AcDbPolyline
 90
        6
 70
     0
 43
0.0
 10
29.48419023640001
 20
0.3000000000000078
 10
29.537494915492
 20
0.5159601126229881
 10
29.585842155598
 20
0.7209282173959899
 10
29.63026552581201
 20
0.9183817056770031
 10
29.671310029297
 20
1.110041351140008
 10
29.687531782842
 20
1.188598403177987
  0
LWPOLYLINE
  5
129
330
1E
100
AcDbEntity
  8
1
100
AcDbPolyline
 90
        4
 70
     0
 43
0.0
 10
29.20714366329999
 20
-10.99818166789998
 10
29.24984857841899
 20
-10.997216224086
 10
29.328384031084
 20
-10.99620726032497
 10
29.4039627538
 20
-10.99590832990497
  0
LWPOLYLINE
  5
12F
330
1E
100
AcDbEntity
  8
1
100
AcDbPolyline
 90
       36
 70
     0
 43
0.0
 10
29.48419023640001
 20
-10.99590832989997
 10
29.49117814042001
 20
-10.99511538729301
 10
29.498159409441
 20
-10.99424802246
 10
29.504921604415
 20
-10.99333504916097
 10
29.511675240773
 20
-10.99235049178201
 10
29.518208586723
 20
-10.99132769312899
 10
29.52473179066299
 20
-10.99023625554099
 10
29.531243814364
 20
-10.98907546112001
 10
29.537743619598
 20
-10.98784459196798
 10
29.54402114218201
 20
-10.98658603160902
 10
29.55028530858401
 20
-10.98526052158
 10
29.55653517784201
 20
-10.98386741123897
 10
29.56256224339701
 20
-10.98245586845796
 10
29.568574219821
 20
-10.98097996123198
 10
29.57457025714798
 20
-10.97943910183897
 10
29.58054950540999
 20
-10.97783270255501
 10
29.586305844813
 20
-10.97621895622802
 10
29.59204497565901
 20
-10.97454303518899
 10
29.597766108606
 20
-10.97280445298497
 10
29.60346828675101
 20
-10.97100301647498
 10
29.60915048255698
 20
-10.96913865615396
 10
29.61481166824001
 20
-10.967211302949
 10
29.620450816016
 20
-10.96522088778698
 10
29.62606689810201
 20
-10.96316734159698
 10
29.631658886713
 20
-10.961050595307
 10
29.63722575406601
 20
-10.95887057984401
 10
29.642766472377
 20
-10.95662722613599
 10
29.648280013862
 20
-10.95432046511098
 10
29.653765350737
 20
-10.95195022769797
 10
29.65922145521798
 20
-10.94951644482301
 10
29.664647299522
 20
-10.94701904741401
 10
29.670041855864
 20
-10.94445796640098
 10
29.67540409646101
 20
-10.941833132709
 10
29.680732993529
 20
-10.93914447726797
 10
29.68602751928401
 20
-10.936391931005
 10
29.687524956116
 20
-10.93559844221198
  0
LWPOLYLINE
  5
155
330
1E
100
AcDbEntity
  8
1
100
AcDbPolyline
 90
       34
 70
     0
 43
0.0
 10
32.9150660043
 20
-1.483018250700014
 10
33.456227009432
 20
-2.898354645442001
 10
33.60085511368602
 20
-3.294692924657998
 10
33.71545908694101
 20
-3.619734526553006
 10
33.811206474479
 20
-3.901001121495001
 10
33.894608982639
 20
-4.155068652185011
 10
33.966270465242
 20
-4.381705928761991
 10
34.030251826546
 20
-4.592060890456995
 10
34.08690710636701
 20
-4.786001219860001
 10
34.13660717175599
 20
-4.963390357028008
 10
34.18126041507
 20
-5.129839911582
 10
34.22111311397201
 20
-5.285265202186995
 10
34.25642275130801
 20
-5.429580498424003
 10
34.287444213018
 20
-5.562699782938016
 10
34.315707824895
 20
-5.690350006112995
 10
34.341318219043
 20
-5.812493470301007
 10
34.363270068916
 20
-5.923256501410012
 10
34.38292456729801
 20
-6.028411552257018
 10
34.40039596300099
 20
-6.127921864779017
 10
34.41581174684801
 20
-6.221752934075002
 10
34.43017529672101
 20
-6.315752376002992
 10
34.44263708394902
 20
-6.404029184582017
 10
34.453344479772
 20
-6.486551038291995
 10
34.46243895264998
 20
-6.563284476566995
 10
34.47066977839799
 20
-6.640113482391003
 10
34.47746132530201
 20
-6.711111899505995
 10
34.483441975266
 20
-6.782181347785017
 10
34.48818113738099
 20
-6.847386477765017
 10
34.492180508103
 20
-6.912643037365002
 10
34.495404427786
 20
-6.977943151798997
 10
34.497626965906
 20
-7.037335326684999
 10
34.49914212256199
 20
-7.096745861866994
 10
34.49987470810801
 20
-7.150224066854011
 10
34.500014467989
 20
-7.179925388810007
  0
LWPOLYLINE
  5
179
330
1E
100
AcDbEntity
  8
1
100
AcDbPolyline
 90
        2
 70
     0
 43
0.0
 10
32.77586206889999
 20
-1.476469746600004
 10
32.91505601718201
 20
-1.483017743289994
  0
LWPOLYLINE
  5
17D
330
1E
100
AcDbEntity
  8
1
100
AcDbPolyline
 90
      119
 70
     0
 43
0.0
 10
32.004407
 20
-11.9846586827
 10
32.036005996609
 20
-11.984396435685
 10
32.06761179056099
 20
-11.98372608828299
 10
32.09921827055399
 20
-11.98264830377399
 10
32.130819325287
 20
-11.98116374543499
 10
32.162408843459
 20
-11.97927307654599
 10
32.193980713768
 20
-11.97697696038599
 10
32.22552882491299
 20
-11.974276060233
 10
32.25704706559401
 20
-11.971171039365
 10
32.28852932450701
 20
-11.96766256106297
 10
32.31996949035298
 20
-11.96375128860398
 10
32.35136145183
 20
-11.95943788526699
 10
32.382699097636
 20
-11.95472301433198
 10
32.413976316471
 20
-11.949607339076
 10
32.44518699703299
 20
-11.94409152277899
 10
32.47632502802
 20
-11.93817622871897
 10
32.507384298131
 20
-11.93186212017599
 10
32.53835869606501
 20
-11.92514986042698
 10
32.569242110521
 20
-11.91804011275297
 10
32.60002845522699
 20
-11.910533561787
 10
32.63071233383
 20
-11.90263148086301
 10
32.661289110058
 20
-11.89433579187402
 10
32.69175418673901
 20
-11.885648450078
 10
32.722102966703
 20
-11.87657141073401
 10
32.75233085277901
 20
-11.86710662909898
 10
32.782433247796
 20
-11.85725606043297
 10
32.812405554582
 20
-11.847021659993
 10
32.842243175968
 20
-11.83640538303802
 10
32.871941514781
 20
-11.82540918482698
 10
32.901495973852
 20
-11.814035020618
 10
32.930901956008
 20
-11.80228484566798
 10
32.96015486408001
 20
-11.79016061523799
 10
32.989250100896
 20
-11.77766428458397
 10
33.018183069285
 20
-11.764797808966
 10
33.04694917207601
 20
-11.75156314364101
 10
33.075543812099
 20
-11.73796224386899
 10
33.10396239218199
 20
-11.72399706490699
 10
33.13220031515402
 20
-11.70966956201402
 10
33.163746330757
 20
-11.693120512721
 10
33.195051687071
 20
-11.67611907251199
 10
33.226110434617
 20
-11.65866959230797
 10
33.25691663232601
 20
-11.640776445134
 10
33.28746433912601
 20
-11.62244400401299
 10
33.31774761394999
 20
-11.60367664197099
 10
33.347760515727
 20
-11.584478732031
 10
33.377497103387
 20
-11.56485464721799
 10
33.40695143586002
 20
-11.544808760556
 10
33.43611757207799
 20
-11.52434544507001
 10
33.46498957096901
 20
-11.50346907378499
 10
33.493561491465
 20
-11.48218401972399
 10
33.52182739249499
 20
-11.460494655913
 10
33.55286781148299
 20
-11.43592649115402
 10
33.583514944393
 20
-11.41087057601197
 10
33.613760641609
 20
-11.38533290914802
 10
33.64359675790398
 20
-11.35931949269399
 10
33.673015764732
 20
-11.332836816211
 10
33.70201138023499
 20
-11.30589235465401
 10
33.730577472879
 20
-11.27849370179598
 10
33.75870791112699
 20
-11.25064845140701
 10
33.786396563444
 20
-11.22236419726098
 10
33.813637298295
 20
-11.19364853312798
 10
33.840423984145
 20
-11.16450905278099
 10
33.86675048945701
 20
-11.13495334999099
 10
33.89261068269699
 20
-11.104989018531
 10
33.91799843232998
 20
-11.07462365217201
 10
33.94290760681899
 20
-11.04386484468498
 10
33.96733207463
 20
-11.012720189844
 10
33.99126570422601
 20
-10.98119728141898
 10
34.012381236476
 20
-10.95250953327502
 10
34.03308975722301
 20
-10.92352708835898
 10
34.053387257812
 20
-10.89425569812098
 10
34.07327061114
 20
-10.86470152606801
 10
34.092736790464
 20
-10.83487078261998
 10
34.111782769038
 20
-10.80476967819197
 10
34.13040552011799
 20
-10.77440442320301
 10
34.148602016961
 20
-10.74378122806899
 10
34.166369232822
 20
-10.71290630320899
 10
34.18370414095699
 20
-10.68178585904002
 10
34.20060371462101
 20
-10.650426105979
 10
34.217064927071
 20
-10.618833254443
 10
34.23308475156101
 20
-10.58701351485199
 10
34.24866016134901
 20
-10.55497309761999
 10
34.26378812968801
 20
-10.52271821316699
 10
34.27846562983599
 20
-10.49025507190998
 10
34.29268963504799
 20
-10.45758988426598
 10
34.30495003657798
 20
-10.428389563311
 10
34.316847609641
 20
-10.39903887244
 10
34.32838062273098
 20
-10.369542370668
 10
34.3395479709
 20
-10.33990493045799
 10
34.350348606056
 20
-10.31013145271397
 10
34.36078148011
 20
-10.28022683834501
 10
34.370845544972
 20
-10.25019598825499
 10
34.380539752553
 20
-10.22004380335099
 10
34.38986305476102
 20
-10.189775184539
 10
34.39881440350699
 20
-10.15939503272597
 10
34.40739275069999
 20
-10.12890824881599
 10
34.41559704825201
 20
-10.098319733717
 10
34.42342624807101
 20
-10.06763438833499
 10
34.430879302068
 20
-10.03685711357599
 10
34.437955162152
 20
-10.005992810346
 10
34.444652780234
 20
-9.975046379551004
 10
34.45097110822401
 20
-9.944022722097999
 10
34.45690909803099
 20
-9.912926738891998
 10
34.46246570156502
 20
-9.881763330839993
 10
34.467639870737
 20
-9.850537398846999
 10
34.47243055829101
 20
-9.819253843792015
 10
34.476837027601
 20
-9.787917555805
 10
34.48085931623099
 20
-9.756533398230008
 10
34.484497580352
 20
-9.725106230311011
 10
34.48775197613699
 20
-9.693640911290007
 10
34.49062265975501
 20
-9.662142300408993
 10
34.49310978737801
 20
-9.630615256909011
 10
34.495213515177
 20
-9.599064640034015
 10
34.496933999323
 20
-9.567495309024995
 10
34.498271395988
 20
-9.535912123125999
 10
34.499225861341
 20
-9.504319941576998
 10
34.49979755155499
 20
-9.472723623620996
 10
34.4999866228
 20
-9.441128028500006
 10
34.499986623473
 20
-9.441138028500008
  0
LWPOLYLINE
  5
1F6
330
1E
100
AcDbEntity
  8
1
100
AcDbPolyline
 90
       75
 70
     0
 43
0.0
 10
30.00649464140002
 20
-10.97838474460002
 10
30.02744673775799
 20
-11.00612077085997
 10
30.048786489495
 20
-11.03357428466398
 10
30.07050897215
 20
-11.06073916579697
 10
30.09260926126199
 20
-11.08760929404201
 10
30.116593781184
 20
-11.11593898524398
 10
30.14099658148099
 20
-11.14391892204098
 10
30.165811685681
 20
-11.17154167675801
 10
30.191033117312
 20
-11.19879982172101
 10
30.21665489990201
 20
-11.22568592925398
 10
30.24431002483499
 20
-11.25383646785399
 10
30.272403193033
 20
-11.281549716706
 10
30.299237552136
 20
-11.30722533358498
 10
30.326447608427
 20
-11.33249831458499
 10
30.354027361837
 20
-11.357362398465
 10
30.381970787173
 20
-11.38181256621197
 10
30.41027185794401
 20
-11.40584386289498
 10
30.43712356724197
 20
-11.42798837719601
 10
30.464279350953
 20
-11.44975630544502
 10
30.491734243401
 20
-11.47114356490601
 10
30.51948327891102
 20
-11.49214607284199
 10
30.54752149180799
 20
-11.51275974651599
 10
30.575843916416
 20
-11.53298050319101
 10
30.60444558706
 20
-11.55280426013097
 10
30.63138804105701
 20
-11.57094464961198
 10
30.65856538644498
 20
-11.58873233227802
 10
30.68597358483601
 20
-11.606163989386
 10
30.71360832791198
 20
-11.62323646536498
 10
30.741464687342
 20
-11.63994697944997
 10
30.769537648081
 20
-11.65629280329498
 10
30.797822195082
 20
-11.67227120855602
 10
30.8263133133
 20
-11.68787946688598
 10
30.855005987688
 20
-11.70311484994101
 10
30.88389520320101
 20
-11.71797462937502
 10
30.91089250425101
 20
-11.73143429262802
 10
30.938050932358
 20
-11.74456555660799
 10
30.965366472195
 20
-11.75736623684997
 10
30.992835108437
 20
-11.76983414888598
 10
31.02045282575601
 20
-11.78196710825101
 10
31.048215608826
 20
-11.79376293048
 10
31.076119442319
 20
-11.80521943110599
 10
31.10416031085398
 20
-11.81633442627799
 10
31.13233417800501
 20
-11.82710595963499
 10
31.160636954954
 20
-11.83753264129899
 10
31.189064544863
 20
-11.847613168093
 10
31.217612850896
 20
-11.85734623684098
 10
31.24627777621399
 20
-11.86673054436397
 10
31.27505522397997
 20
-11.87576478748798
 10
31.303941097356
 20
-11.88444766303399
 10
31.332931299506
 20
-11.89277786782702
 10
31.362021733591
 20
-11.90075409868802
 10
31.39120830277301
 20
-11.90837505244201
 10
31.41823153525101
 20
-11.91509331726501
 10
31.44532996858699
 20
-11.92150672538201
 10
31.47250038050998
 20
-11.92761425180998
 10
31.49973954874401
 20
-11.933414871564
 10
31.52704425101799
 20
-11.938907559661
 10
31.55441126371099
 20
-11.94409129208497
 10
31.58183709259001
 20
-11.94896523997998
 10
31.60931764653101
 20
-11.95352900493401
 10
31.636848754706
 20
-11.95778224601201
 10
31.66442624628698
 20
-11.961724622284
 10
31.69204595044701
 20
-11.96535579281601
 10
31.71970369635801
 20
-11.968675416675
 10
31.74739531319301
 20
-11.97168315292799
 10
31.77511663012301
 20
-11.97437866064399
 10
31.80286347632101
 20
-11.97676159888902
 10
31.83063168096001
 20
-11.97883162673001
 10
31.858417073211
 20
-11.98058840323499
 10
31.88621548224702
 20
-11.982031587471
 10
31.91402273724099
 20
-11.983160838505
 10
31.941834667364
 20
-11.98397581540499
 10
31.969647101789
 20
-11.98447617723701
 10
31.997455869689
 20
-11.98466158306999
 10
32.004397000016
 20
-11.98465870102998
  0
LWPOLYLINE
  5
243
330
1E
100
AcDbEntity
  8
1
100
AcDbPolyline
 90
        2
 70
     0
 43
0.0
 10
34.4527138908
 20
6.481434935799986
 10
34.45655440695301
 20
6.512796059382987
  0
LWPOLYLINE
  5
247
330
1E
100
AcDbEntity
  8
1
100
AcDbPolyline
 90
       13
 70
     0
 43
0.0
 10
34.45655560050001
 20
6.512805987900004
 10
34.464659260654
 20
6.583228449968992
 10
34.471760641139
 20
6.651045750849982
 10
34.47791389512
 20
6.716248942125981
 10
34.48317613366398
 20
6.778829255194008
 10
34.487602312652
 20
6.83877410417599
 10
34.491245601555
 20
6.896067966039987
 10
34.494195191893
 20
6.951372228762004
 10
34.49649019404601
 20
7.004676756011997
 10
34.498172275312
 20
7.055972994986002
 10
34.49928521406301
 20
7.105253840823986
 10
34.49987942754399
 20
7.153188651388001
 10
34.500000819536
 20
7.18626038989998
  0
LWPOLYLINE
  5
256
330
1E
100
AcDbEntity
  8
1
100
AcDbPolyline
 90
       10
 70
     0
 43
0.0
 10
23.06260415380001
 20
-10.94109265299999
 10
23.21393177263
 20
-10.95356267665499
 10
23.36538146982998
 20
-10.96450027095897
 10
23.51693462099599
 20
-10.97390405668602
 10
23.66857369812001
 20
-10.98177283666899
 10
23.82028418909999
 20
-10.988105914544
 10
23.97205208329999
 20
-10.99290268028499
 10
24.123861887618
 20
-10.996162638621
 10
24.275695251939
 20
-10.997885515434
 10
24.36993029499999
 20
-10.99818166789702
  0
LWPOLYLINE
  5
262
330
1E
100
AcDbEntity
  8
1
100
AcDbPolyline
 90
       10
 70
     0
 43
0.0
 10
23.06260415380001
 20
10.94109265309997
 10
23.213931772631
 20
10.95356267672697
 10
23.365381469835
 20
10.96450027098199
 10
23.516934621002
 20
10.97390405668698
 10
23.668573698124
 20
10.98177283670297
 10
23.82028418910199
 20
10.98810591462697
 10
23.97205208329999
 20
10.99290268038298
 10
24.12386188761701
 20
10.99616263867999
 10
24.275695251939
 20
10.99788551544697
 10
24.36993029499999
 20
10.99818166789699
  0
LWPOLYLINE
  5
26E
330
1E
100
AcDbEntity
  8
1
100
AcDbPolyline
 90
        2
 70
     0
 43
0.0
 10
29.687533784
 20
1.188608200900002
 10
29.75157863400301
 20
1.499990208460977
  0
LWPOLYLINE
  5
272
330
1E
100
AcDbEntity
  8
1
100
AcDbPolyline
 90
      121
 70
     0
 43
0.0
 10
29.7216576017
 20
1.800000000000006
 10
29.72143019917301
 20
1.802362283992005
 10
29.72123713425899
 20
1.804729832187998
 10
29.721078469802
 20
1.807102003723993
 10
29.72095426864699
 20
1.809478157737
 10
29.72086459363699
 20
1.811857653363001
 10
29.720809507618
 20
1.814239849736988
 10
29.720789073434
 20
1.816624105995994
 10
29.72080335392798
 20
1.819009781274979
 10
29.720852411946
 20
1.821396234712004
 10
29.720936310331
 20
1.823782825440981
 10
29.721055111928
 20
1.82616891259999
 10
29.721208879581
 20
1.828553855323004
 10
29.721397676134
 20
1.830937012747991
 10
29.721621564433
 20
1.833317744009004
 10
29.72188060732
 20
1.835695408243988
 10
29.722174867641
 20
1.838069364588985
 10
29.722504408239
 20
1.840438972177985
 10
29.722869291959
 20
1.842803590148999
 10
29.72326958164599
 20
1.845162577637998
 10
29.723705340143
 20
1.847515293779984
 10
29.72417663029499
 20
1.849861097711988
 10
29.724596559664
 20
1.851810191808989
 10
29.725041243803
 20
1.853753669845981
 10
29.72551071908201
 20
1.855691160952
 10
29.72600502186701
 20
1.857622294255999
 10
29.72652418852701
 20
1.859546698888004
 10
29.72706825542998
 20
1.861464003977995
 10
29.727637258946
 20
1.863373838655998
 10
29.728231214595
 20
1.865275841380988
 10
29.728849991662
 20
1.86716971606898
 10
29.72962501619401
 20
1.869431259261995
 10
29.730435170712
 20
1.871680249039993
 10
29.73128012074699
 20
1.873916222373988
 10
29.732159531827
 20
1.876138716232981
 10
29.733073069482
 20
1.878347267586998
 10
29.734020399242
 20
1.880541413407991
 10
29.73500118663599
 20
1.882720690663995
 10
29.73601509719399
 20
1.884884636326001
 10
29.73706179644599
 20
1.887032787363006
 10
29.73814094992
 20
1.889164680746995
 10
29.739252223147
 20
1.891279853446004
 10
29.74039528165599
 20
1.893377842431984
 10
29.741569790976
 20
1.895458184673994
 10
29.74277541663798
 20
1.897520417141004
 10
29.74401182417
 20
1.899564076805002
 10
29.74527867910301
 20
1.901588700636006
 10
29.74657564696499
 20
1.903593825601996
 10
29.74790239328698
 20
1.905578988674985
 10
29.74925858359799
 20
1.907543726824993
 10
29.75064388342699
 20
1.909487577020992
 10
29.75205795830401
 20
1.911410076234
 10
29.753743634572
 20
1.913625388980983
 10
29.75546749050001
 20
1.915810275156981
 10
29.75722899496
 20
1.917963999488985
 10
29.759027615699
 20
1.920085829079988
 10
29.76086271153199
 20
1.922175260642001
 10
29.76273344313201
 20
1.924232208547006
 10
29.764638950176
 20
1.926256631432004
 10
29.76657837233601
 20
1.928248487932985
 10
29.768550849288
 20
1.930207736684987
 10
29.770555520707
 20
1.932134336322998
 10
29.772591526268
 20
1.934028245484991
 10
29.77465800564401
 20
1.935889422804985
 10
29.77675409850998
 20
1.937717826919989
 10
29.778878944542
 20
1.939513416464984
 10
29.781031683413
 20
1.941276150076983
 10
29.78321145480001
 20
1.94300598639
 10
29.78541739837498
 20
1.944702884040988
 10
29.787648653814
 20
1.946366801665984
 10
29.78990436079199
 20
1.947997697900003
 10
29.79218365898301
 20
1.949595531378998
 10
29.79448568806201
 20
1.951160260738983
 10
29.796809587703
 20
1.952691844615993
 10
29.799154497582
 20
1.954190241645985
 10
29.80151955737198
 20
1.955655410463998
 10
29.803903906749
 20
1.957087309706988
 10
29.80630668538799
 20
1.958485898009991
 10
29.808727035459
 20
1.959851137498981
 10
29.811164230789
 20
1.961183174344989
 10
29.813617739447
 20
1.962482426260003
 10
29.816441062517
 20
1.963927704611986
 10
29.81928424770599
 20
1.965331392019004
 10
29.822146524301
 20
1.966694144579999
 10
29.82502712159
 20
1.968016618397991
 10
29.82792526885999
 20
1.969299469572003
 10
29.8308401954
 20
1.970543354204004
 10
29.83377113049501
 20
1.971748928394983
 10
29.836717303434
 20
1.972916848245995
 10
29.839677943504
 20
1.974047769857004
 10
29.843024996698
 20
1.975276649135988
 10
29.84638828705901
 20
1.976460467071003
 10
29.84976671722501
 20
1.977600157836998
 10
29.85315918983399
 20
1.978696655610004
 10
29.85656460752299
 20
1.979750894564995
 10
29.859981872931
 20
1.980763808876982
 10
29.863791441288
 20
1.981841937391999
 10
29.86761336107601
 20
1.982871471472004
 10
29.87144696449799
 20
1.983853676651984
 10
29.87529158795
 20
1.984789818389994
 10
29.87914656782701
 20
1.985681162144
 10
29.88339821535101
 20
1.986611408923004
 10
29.887660707929
 20
1.987490665666992
 10
29.89193316230501
 20
1.988320616700003
 10
29.89660434513401
 20
1.989171764040003
 10
29.901285185468
 20
1.989968424702989
 10
29.906365664079
 20
1.990772523238003
 10
29.91145467311401
 20
1.991518022158994
 10
29.91694302894798
 20
1.992258512413993
 10
29.92243833224398
 20
1.992937429577003
 10
29.92833313454699
 20
1.993599730768004
 10
29.93462805330898
 20
1.994235758027993
 10
29.94132347177099
 20
1.994836480563004
 10
29.948419485659
 20
1.995393740749983
 10
29.955915846555
 20
1.995900515518991
 10
29.96420681224899
 20
1.996371642056
 10
29.972896882013
 20
1.996773203593984
 10
29.981590228805
 20
1.997082920073004
 10
29.99068122706999
 20
1.997309441510988
 10
29.999773738076
 20
1.997437492126005
 10
30.00648464140299
 20
1.997469414659995
  0
LWPOLYLINE
  5
2ED
330
1E
100
AcDbEntity
  8
1
100
AcDbPolyline
 90
        2
 70
     0
 43
0.0
 10
29.7515806652
 20
1.499999999999995
 10
29.72165863265299
 20
1.799990053284995
  0
LWPOLYLINE
  5
2F1
330
1E
100
AcDbEntity
  8
1
100
AcDbPolyline
 90
        4
 70
     0
 43
0.0
 10
29.687533784
 20
-10.93559374450001
 10
29.72052176828801
 20
-10.91826855252202
 10
29.74551280950299
 20
-10.90549995255098
 10
29.74755801163201
 20
-10.90447152430897
  0
LWPOLYLINE
  5
2F7
330
1E
100
AcDbEntity
  8
1
100
AcDbPolyline
 90
        2
 70
     0
 43
0.0
 10
29.7475669481
 20
-10.90446703660001
 10
29.751571719129
 20
-10.90246126253598
  0
LWPOLYLINE
  5
2FB
330
1E
100
AcDbEntity
  8
1
100
AcDbPolyline
 90
      144
 70
     0
 43
0.0
 10
29.7216576017
 20
-10.85320609590002
 10
29.72161970170501
 20
-10.85314077681897
 10
29.72158334055601
 20
-10.85307529807801
 10
29.721548507556
 20
-10.85300966283199
 10
29.72151519201
 20
-10.85294387423799
 10
29.72148338322099
 20
-10.852877935452
 10
29.72145307049499
 20
-10.85281184963003
 10
29.721424243136
 20
-10.852745619929
 10
29.72139689044701
 20
-10.85267924950396
 10
29.72137100173299
 20
-10.85261274151297
 10
29.721346566299
 20
-10.852546099111
 10
29.721323573449
 20
-10.85247932545396
 10
29.72130201248599
 20
-10.85241242369999
 10
29.721281872716
 20
-10.85234539700297
 10
29.721263143441
 20
-10.85227824852097
 10
29.721245813968
 20
-10.85221098140999
 10
29.7212298736
 20
-10.85214359882501
 10
29.721215311641
 20
-10.85207610392399
 10
29.721202117395
 20
-10.85200849986103
 10
29.72119028016701
 20
-10.85194078979498
 10
29.72117978926201
 20
-10.85187297688098
 10
29.72117063398199
 20
-10.851805064274
 10
29.72116280363399
 20
-10.85173705513199
 10
29.72115628752
 20
-10.85166895261101
 10
29.721151074945
 20
-10.85160075986698
 10
29.72114715521399
 20
-10.85153248005598
 10
29.72114451763001
 20
-10.85146411633502
 10
29.721143151499
 20
-10.85139567185898
 10
29.721143046123
 20
-10.85132714978499
 10
29.721144190808
 20
-10.85125855326902
 10
29.721146574858
 20
-10.85118988546797
 10
29.72115018757702
 20
-10.85112114953799
 10
29.72115501827001
 20
-10.85105234863497
 10
29.72116105623998
 20
-10.85098348591498
 10
29.721168290791
 20
-10.85091456453499
 10
29.721176711229
 20
-10.85084558764995
 10
29.721186306858
 20
-10.85077655841797
 10
29.721197066981
 20
-10.85070747999401
 10
29.721208980903
 20
-10.85063835553398
 10
29.721222037928
 20
-10.85056918819498
 10
29.721241206969
 20
-10.85047690383101
 10
29.72126236382599
 20
-10.85038455633002
 10
29.721285483146
 20
-10.85029215317399
 10
29.72131053957697
 20
-10.85019970184299
 10
29.72133750776499
 20
-10.85010720982097
 10
29.72136636235799
 20
-10.85001468458699
 10
29.721397078003
 20
-10.849922133623
 10
29.721429629347
 20
-10.84982956441199
 10
29.72146399103698
 20
-10.84973698443399
 10
29.72150013771999
 20
-10.84964440117198
 10
29.72153804404401
 20
-10.84955182210598
 10
29.721577684655
 20
-10.84945925471697
 10
29.721619034202
 20
-10.84936670648897
 10
29.72166206733
 20
-10.849274184902
 10
29.72170675868698
 20
-10.849181697437
 10
29.72175308292099
 20
-10.84908925157598
 10
29.72180101467801
 20
-10.84899685480001
 10
29.72185052860599
 20
-10.84890451459199
 10
29.721901599351
 20
-10.84881223843199
 10
29.721954201562
 20
-10.84872003380297
 10
29.722008309884
 20
-10.84862790818499
 10
29.722063898966
 20
-10.84853586906001
 10
29.72212094345501
 20
-10.84844392390897
 10
29.722179417997
 20
-10.84835208021502
 10
29.722239297239
 20
-10.848260345458
 10
29.72230055582999
 20
-10.84816872712099
 10
29.72237903015301
 20
-10.84805437931098
 10
29.72245957057499
 20
-10.84794023970798
 10
29.722542127581
 20
-10.84782632292399
 10
29.722626651652
 20
-10.84771264357198
 10
29.722713093271
 20
-10.847599216263
 10
29.722801402922
 20
-10.84748605561099
 10
29.722891531086
 20
-10.84737317622801
 10
29.72298342824601
 20
-10.84726059272497
 10
29.72307704488599
 20
-10.84714831971598
 10
29.723172331488
 20
-10.84703637181201
 10
29.723269238534
 20
-10.84692476362499
 10
29.72338759625699
 20
-10.84679130280301
 10
29.723508130549
 20
-10.846658377467
 10
29.723630755845
 20
-10.84652601286598
 10
29.723755386578
 20
-10.84639423424998
 10
29.723881937184
 20
-10.84626306686999
 10
29.72403189190901
 20
-10.84611084448101
 10
29.72418420745301
 20
-10.84595952851498
 10
29.724338747942
 20
-10.84580915906899
 10
29.724517915763
 20
-10.84563851871399
 10
29.724699609341
 20
-10.845469226852
 10
29.724906781147
 20
-10.845280459901
 10
29.72514006890399
 20
-10.84507291300796
 10
29.72539999303199
 20
-10.84484741408402
 10
29.725662870975
 20
-10.84462500215602
 10
29.72592817547401
 20
-10.84440583281399
 10
29.726171023396
 20
-10.84420953269898
 10
29.726415044847
 20
-10.84401615789499
 10
29.72665984368799
 20
-10.84382582529997
 10
29.726880499905
 20
-10.84365722367101
 10
29.727101176151
 20
-10.84349126613699
 10
29.727321583642
 20
-10.84332803791897
 10
29.727541433593
 20
-10.84316762423494
 10
29.727736154256
 20
-10.84302746600502
 10
29.727930037189
 20
-10.84288964631997
 10
29.72812306712699
 20
-10.84275415581902
 10
29.728339241622
 20
-10.84260448137598
 10
29.728554413042
 20
-10.84245768625697
 10
29.728768621886
 20
-10.84231373416997
 10
29.72898190865601
 20
-10.84217258882398
 10
29.72919431385101
 20
-10.84203421392601
 10
29.729405877973
 20
-10.84189857318299
 10
29.72961664152201
 20
-10.84176563030399
 10
29.729826644999
 20
-10.84163534899601
 10
29.730035928904
 20
-10.84150769296597
 10
29.73024453373799
 20
-10.84138262592299
 10
29.730475569706
 20
-10.841246654867
 10
29.730705872872
 20
-10.84111378550102
 10
29.730935498792
 20
-10.84098396804097
 10
29.73116450302301
 20
-10.840857152706
 10
29.73139294112201
 20
-10.84073328970998
 10
29.731620868644
 20
-10.84061232927001
 10
29.731848341146
 20
-10.840494221602
 10
29.732098101657
 20
-10.84036753870299
 10
29.732347452763
 20
-10.84024418115899
 10
29.73259646840899
 20
-10.84012408270597
 10
29.732845222541
 20
-10.84000717708397
 10
29.73309378910498
 20
-10.83989339803002
 10
29.733364825598
 20
-10.839772763403
 10
29.733635822873
 20
-10.83965568476598
 10
29.73390687693001
 20
-10.83954207609399
 10
29.73417808377099
 20
-10.83943185136098
 10
29.734472174939
 20
-10.83931616014
 10
29.734766680141
 20
-10.83920423001097
 10
29.735061721437
 20
-10.83909595160003
 10
29.735380197753
 20
-10.83898330249797
 10
29.73569958981499
 20
-10.83887462506999
 10
29.736042984989
 20
-10.83876243710798
 10
29.736387793907
 20
-10.83865448362699
 10
29.736757359607
 20
-10.83854381127399
 10
29.73712897472998
 20
-10.83843756173502
 10
29.737526315887
 20
-10.83832928960697
 10
29.737950135145
 20
-10.83821956793701
 10
29.73840131631
 20
-10.83810892507
 10
29.73890500147799
 20
-10.83799241418597
 10
29.73939004913098
 20
-10.83788668422897
 10
29.739856088384
 20
-10.83779060052597
 10
29.74006892667
 20
-10.83774839127799
  0
LWPOLYLINE
  5
38D
330
1E
100
AcDbEntity
  8
1
100
AcDbPolyline
 90
       80
 70
     0
 43
0.0
 10
29.7400787392
 20
-10.8377464695
 10
29.74100218241799
 20
-10.83757957803697
 10
29.74192830452199
 20
-10.83743888871401
 10
29.742856943673
 20
-10.83732292683902
 10
29.743787938035
 20
-10.83723021772101
 10
29.744721125771
 20
-10.83715928666697
 10
29.745656345043
 20
-10.83710865898501
 10
29.746593434014
 20
-10.83707685998501
 10
29.747532230847
 20
-10.83706241497297
 10
29.748472573705
 20
-10.83706384925699
 10
29.74972848939099
 20
-10.83708791391501
 10
29.75098648224001
 20
-10.837134091194
 10
29.752246168639
 20
-10.83719888552598
 10
29.75382257377999
 20
-10.83730073339899
 10
29.756347209176
 20
-10.83749579394799
 10
29.77928738588099
 20
-10.83930752018898
 10
29.78521395697301
 20
-10.83983757268202
 10
29.78956698808799
 20
-10.84027883164299
 10
29.79328812254698
 20
-10.84070145305797
 10
29.796381632448
 20
-10.84109067872798
 10
29.79915977136001
 20
-10.841473610686
 10
29.80193200123599
 20
-10.841890738127
 10
29.804391084407
 20
-10.84229278535701
 10
29.80684520241799
 20
-10.84272657732702
 10
29.808988373114
 20
-10.843133885518
 10
29.811127542937
 20
-10.84356757217602
 10
29.81356729131801
 20
-10.844094808571
 10
29.81600155642698
 20
-10.844654906723
 10
29.818430200876
 20
-10.84524699110801
 10
29.820853087275
 20
-10.84587018620197
 10
29.82327007823199
 20
-10.84652361647999
 10
29.825681036358
 20
-10.84720640641899
 10
29.82838598206601
 20
-10.84800854893899
 10
29.83108292296801
 20
-10.84884549509899
 10
29.83377166344498
 20
-10.84971599830299
 10
29.836749297153
 20
-10.85072106490497
 10
29.839716297035
 20
-10.85176431093997
 10
29.84267239474899
 20
-10.85284402640201
 10
29.84591118996799
 20
-10.85407179470297
 10
29.849136111714
 20
-10.85533934587897
 10
29.85263796584098
 20
-10.85676482673199
 10
29.85641199195999
 20
-10.85835604129198
 10
29.86045281495501
 20
-10.86012005454102
 10
29.86475443572899
 20
-10.86206342012798
 10
29.86902670484001
 20
-10.86406058168
 10
29.87326915950699
 20
-10.86611153803602
 10
29.877481337278
 20
-10.86821629232598
 10
29.8816627757
 20
-10.870374847677
 10
29.885813012321
 20
-10.872587207219
 10
29.889931584688
 20
-10.87485337407997
 10
29.894018030349
 20
-10.87717335138899
 10
29.898071886853
 20
-10.87954714227401
 10
29.902092691746
 20
-10.88197474986498
 10
29.90607998257699
 20
-10.88445617729002
 10
29.910033296893
 20
-10.88699142767801
 10
29.91395217224101
 20
-10.88958050415601
 10
29.917836156666
 20
-10.89222331190097
 10
29.921684864655
 20
-10.89491913601897
 10
29.92549793661599
 20
-10.897667019707
 10
29.929275013017
 20
-10.90046600561299
 10
29.93326381431499
 20
-10.90350683791301
 10
29.937210815257
 20
-10.90660356205302
 10
29.941115579506
 20
-10.90975501615996
 10
29.945217624585
 20
-10.91316210435599
 10
29.94927097243698
 20
-10.91662827228702
 10
29.95327509969099
 20
-10.92015212632901
 10
29.95746053344999
 20
-10.92394459298498
 10
29.961589577609
 20
-10.92779851525196
 10
29.965886149597
 20
-10.93193139807401
 10
29.97011842732099
 20
-10.936129295248
 10
29.97428559276499
 20
-10.94039094289098
 10
29.978386825274
 20
-10.94471509768299
 10
29.982210640699
 20
-10.94886819756998
 10
29.985973846541
 20
-10.95307522501502
 10
29.98967574502399
 20
-10.95733512286301
 10
29.993315638373
 20
-10.96164683396
 10
29.996892828809
 20
-10.96600930114902
 10
30.000213083172
 20
-10.97017506108102
 10
30.00347619786499
 20
-10.97438426066901
 10
30.006488668919
 20
-10.97837672403102
  0
LWPOLYLINE
  5
3DF
330
1E
100
AcDbEntity
  8
1
100
AcDbPolyline
 90
       84
 70
     0
 43
0.0
 10
32.58406676559999
 20
-1.000000000000001
 10
32.58840226665
 20
-1.031338794450991
 10
32.59266733834699
 20
-1.05997965005699
 10
32.596892563314
 20
-1.086456595351994
 10
32.601034745784
 20
-1.110773448837991
 10
32.605050462048
 20
-1.132934517915004
 10
32.608995584322
 20
-1.15347234307001
 10
32.61283600667598
 20
-1.172391463074007
 10
32.616653605268
 20
-1.190219812395018
 10
32.620308595496
 20
-1.206436757428011
 10
32.62401496885699
 20
-1.222091765376009
 10
32.62750296951899
 20
-1.236144814835999
 10
32.631009780949
 20
-1.249639743326018
 10
32.634385640626
 20
-1.262059520044998
 10
32.63775435331599
 20
-1.273924726693995
 10
32.640951077937
 20
-1.284723506075013
 10
32.644110126057
 20
-1.294973772956014
 10
32.647222257373
 20
-1.304676610168004
 10
32.650276867348
 20
-1.313833993081008
 10
32.653262204876
 20
-1.322448686879998
 10
32.65616564872201
 20
-1.330524101629013
 10
32.65897421876501
 20
-1.338063973300994
 10
32.661676728122
 20
-1.345070847349008
 10
32.66426203114601
 20
-1.351547400815011
 10
32.666925551068
 20
-1.357991917617
 10
32.66945798883298
 20
-1.363909474882009
 10
32.67206537324
 20
-1.369794443459003
 10
32.674524716893
 20
-1.375158200590991
 10
32.67705345313102
 20
-1.380490483798016
 10
32.679415194491
 20
-1.385308859486005
 10
32.68183982871301
 20
-1.390096627090005
 10
32.684078334847
 20
-1.394376821003991
 10
32.68637255486499
 20
-1.398627330328001
 10
32.68872474864001
 20
-1.402845837602997
 10
32.69113717604101
 20
-1.407030025374012
 10
32.69333394936302
 20
-1.410718618492015
 10
32.695581687442
 20
-1.414376636262008
 10
32.697881977457
 20
-1.418002451061003
 10
32.70023640658701
 20
-1.421594435262993
 10
32.70264657352601
 20
-1.425150947126014
 10
32.70480360241499
 20
-1.42823109129799
 10
32.70701001275
 20
-1.431276309493996
 10
32.70894397889598
 20
-1.433854624888998
 10
32.710920441927
 20
-1.436399948259009
 10
32.71294227106101
 20
-1.438908895546008
 10
32.71466385333499
 20
-1.440969456234999
 10
32.71642059278699
 20
-1.443000447348
 10
32.71821414984501
 20
-1.444999910518989
 10
32.72004618493602
 20
-1.446965887381995
 10
32.721918358487
 20
-1.448896419568004
 10
32.723832330926
 20
-1.450789548713008
 10
32.725789762679
 20
-1.452643316449014
 10
32.727388114595
 20
-1.454096674401004
 10
32.729016193285
 20
-1.455522585013004
 10
32.730674848888
 20
-1.456920045601013
 10
32.732364931541
 20
-1.458288053481995
 10
32.73408729138299
 20
-1.459625605969993
 10
32.735842396565
 20
-1.460931423428009
 10
32.73762927013
 20
-1.462203178463998
 10
32.73944659343702
 20
-1.46343829595
 10
32.741293047847
 20
-1.464634200761994
 10
32.74316731471901
 20
-1.465788317772993
 10
32.744590473557
 20
-1.466624933188998
 10
32.746027978867
 20
-1.467435508078014
 10
32.747479274349
 20
-1.468218956058993
 10
32.74894380370201
 20
-1.468974190751
 10
32.750421010623
 20
-1.469700125771997
 10
32.75191033881201
 20
-1.470395674742011
 10
32.753411231966
 20
-1.471059751279998
 10
32.75492313378499
 20
-1.471691269003005
 10
32.75644548796801
 20
-1.472289141532006
 10
32.75797773821199
 20
-1.47285228248501
 10
32.75951932821701
 20
-1.473379605480008
 10
32.76106970168
 20
-1.473870024137001
 10
32.76262830230101
 20
-1.474322452075004
 10
32.76419457377699
 20
-1.474735802912991
 10
32.76576795980899
 20
-1.475108990268014
 10
32.767347904093
 20
-1.475440927761014
 10
32.76893385033
 20
-1.47573052901001
 10
32.77052524221601
 20
-1.475976707633011
 10
32.772121523452
 20
-1.476178377250992
 10
32.77372213773499
 20
-1.476334451480998
 10
32.77532652876399
 20
-1.47644384394201
 10
32.775852078351
 20
-1.476469312347009
  0
LWPOLYLINE
  5
435
330
1E
100
AcDbEntity
  8
1
100
AcDbPolyline
 90
       69
 70
     0
 43
0.0
 10
32.5
 20
-0.8006495971999964
 10
32.500017839517
 20
-0.8039820893450022
 10
32.500071470484
 20
-0.8073156836599974
 10
32.500161061522
 20
-0.8106498499250033
 10
32.500286781256
 20
-0.8139840579239926
 10
32.50044879830699
 20
-0.8173177774390051
 10
32.50064728129902
 20
-0.8206504782530185
 10
32.50088239885398
 20
-0.8239816301469925
 10
32.50115431959498
 20
-0.8273107029040186
 10
32.50146321214499
 20
-0.8306371663070175
 10
32.501809245127
 20
-0.833960490138001
 10
32.50219258716301
 20
-0.8372801441790084
 10
32.502613406876
 20
-0.8405955982119943
 10
32.50307187288902
 20
-0.8439063220210169
 10
32.50356815382398
 20
-0.847211785387007
 10
32.504102418305
 20
-0.8505114580929994
 10
32.50467483495401
 20
-0.8538048099200107
 10
32.50528557239501
 20
-0.8570913106530081
 10
32.505890316629
 20
-0.8601520623820173
 10
32.50652872651602
 20
-0.8632059530810105
 10
32.507200939152
 20
-0.866252551663994
 10
32.50790709163401
 20
-0.8692914270420184
 10
32.50864732105799
 20
-0.8723221481299997
 10
32.509421755763
 20
-0.8753442835460173
 10
32.51023043940701
 20
-0.8783573990450046
 10
32.511073368183
 20
-0.8813610587780015
 10
32.51195053775997
 20
-0.8843548268779994
 10
32.512861943809
 20
-0.8873382674810027
 10
32.513807581998
 20
-0.8903109447180137
 10
32.51478744799702
 20
-0.8932724227250087
 10
32.515801537475
 20
-0.8962222656340127
 10
32.51684984610298
 20
-0.899160037580007
 10
32.517932369549
 20
-0.9020853026950176
 10
32.519049103484
 20
-0.9049976251139963
 10
32.52020004357599
 20
-0.9078965689710155
 10
32.521385185496
 20
-0.9107816983990099
 10
32.52260452491199
 20
-0.9136525775309999
 10
32.52385805749401
 20
-0.9165087705019951
 10
32.525145778913
 20
-0.9193498414439924
 10
32.526467684836
 20
-0.9221753544929963
 10
32.527823770935
 20
-0.9249848737810035
 10
32.529214032877
 20
-0.9277779634410061
 10
32.53063846633398
 20
-0.9305541876090083
 10
32.53209706697401
 20
-0.9333131104170075
 10
32.533589830467
 20
-0.9360542960000127
 10
32.535116752482
 20
-0.9387773084899928
 10
32.53667782863399
 20
-0.9414817120130047
 10
32.538272978511
 20
-0.9441670593380175
 10
32.539901894944
 20
-0.9468328693579943
 10
32.54168423629899
 20
-0.9496668602160166
 10
32.54350450978098
 20
-0.9524772640640192
 10
32.545362285823
 20
-0.9552634814299988
 10
32.547257134855
 20
-0.9580249128410155
 10
32.54918862730701
 20
-0.9607609588229916
 10
32.55115633360999
 20
-0.9634710199040096
 10
32.55329465204101
 20
-0.9663324351520016
 10
32.55547316369499
 20
-0.9691628757520087
 10
32.557691347232
 20
-0.9719616141650003
 10
32.559948681316
 20
-0.9747279228540191
 10
32.562244644607
 20
-0.9774610742809992
 10
32.564725848615
 20
-0.9803279033820087
 10
32.56724944750898
 20
-0.9831556070639958
 10
32.56981481596401
 20
-0.9859433126740139
 10
32.57242132865398
 20
-0.9886901475549944
 10
32.57506836025299
 20
-0.9913952390529951
 10
32.577596137892
 20
-0.9939022936239931
 10
32.58015873245402
 20
-0.9963708708089919
 10
32.582755622601
 20
-0.9988002430710062
 10
32.584059363444
 20
-0.9999932762910116
  0
LWPOLYLINE
  5
47C
330
1E
100
AcDbEntity
  8
1
100
AcDbPolyline
 90
        2
 70
     0
 43
0.0
 10
23.06260415380001
 20
10.94109265309997
 10
22.322279853934
 20
10.87631178460397
  0
LWPOLYLINE
  5
480
330
1E
100
AcDbEntity
  8
1
100
AcDbPolyline
 90
       12
 70
     0
 43
0.0
 10
30.1111550337
 20
7.203623793199991
 10
30.08776358559199
 20
7.205068362886004
 10
30.06412697870699
 20
7.206768796488002
 10
30.04024821304402
 20
7.208730583485982
 10
30.016130459543
 20
7.21095913851499
 10
29.99177706461598
 20
7.213459796927987
 10
29.967191556934
 20
7.216237912296004
 10
29.942635990596
 20
7.219266934343007
 10
29.918113229531
 20
7.222546556375982
 10
29.89362613812799
 20
7.226076492840004
 10
29.868920442697
 20
7.229897576062991
 10
29.852483162943
 20
7.232585016435987
  0
LWPOLYLINE
  5
48E
330
1E
100
AcDbEntity
  8
1
100
AcDbPolyline
 90
        7
 70
     0
 43
0.0
 10
29.85247329959998
 20
7.232586663999991
 10
29.82813113837498
 20
7.236780897549003
 10
29.803830980602
 20
7.241224448134001
 10
29.77957671596701
 20
7.245916896132992
 10
29.755240831181
 20
7.250885352899981
 10
29.73095922526001
 20
7.256104569145999
 10
29.72074855482299
 20
7.258377956732995
  0
LWPOLYLINE
  5
497
330
1E
100
AcDbEntity
  8
1
100
AcDbPolyline
 90
        2
 70
     0
 43
0.0
 10
22.32226989199998
 20
-10.87631091280002
 10
23.06259419186598
 20
-10.94109178129798
  0
LWPOLYLINE
  5
49B
330
1E
100
AcDbEntity
  8
1
100
AcDbPolyline
 90
        2
 70
     0
 43
0.0
 10
21.663244366
 20
-10.82053480059999
 10
22.32225993006601
 20
-10.87631004109698
  0
LWPOLYLINE
  5
49F
330
1E
100
AcDbEntity
  8
1
100
AcDbPolyline
 90
        7
 70
     0
 43
0.0
 10
34.3722592806
 20
-1.988384439500013
 10
34.34458382183199
 20
-1.987986089629008
 10
34.313142647417
 20
-1.987197310454011
 10
34.27290828406599
 20
-1.985764348948013
 10
34.201259927163
 20
-1.982429564663991
 10
34.000145864383
 20
-1.972892090620011
 10
33.11498086259899
 20
-1.940698354933998
  0
LWPOLYLINE
  5
4A8
330
1E
100
AcDbEntity
  8
1
100
AcDbPolyline
 90
        2
 70
     0
 43
0.0
 10
33.1149708675
 20
-1.940698041899995
 10
33.091418206964
 20
-1.939966662735004
  0
LWPOLYLINE
  5
4AC
330
1E
100
AcDbEntity
  8
1
100
AcDbPolyline
 90
        2
 70
     0
 43
0.0
 10
21.663244366
 20
10.82053480069997
 10
22.32225993006601
 20
10.87631004119699
  0
LWPOLYLINE
  5
4B0
330
1E
100
AcDbEntity
  8
1
100
AcDbPolyline
 90
        2
 70
     0
 43
0.0
 10
30.00649464140002
 20
1.997469422800004
 10
33.720987957001
 20
1.998458731769995
  0
LWPOLYLINE
  5
4B4
330
1E
100
AcDbEntity
  8
1
100
AcDbPolyline
 90
        2
 70
     0
 43
0.0
 10
33.720997957
 20
1.998458735099995
 10
34.49999000000099
 20
1.998466543035983
  0
LWPOLYLINE
  5
4B8
330
1E
100
AcDbEntity
  8
1
100
AcDbPolyline
 90
       82
 70
     0
 43
0.0
 10
30.00649464140002
 20
-8.524952533299995
 10
30.00306388352401
 20
-8.519103762421
 10
29.999558500787
 20
-8.513297506025001
 10
29.99597845209902
 20
-8.507535453445997
 10
29.99232369637299
 20
-8.501819294014016
 10
29.988594192519
 20
-8.496150717061995
 10
29.98478989944699
 20
-8.490531411922008
 10
29.98091077607099
 20
-8.484963067926999
 10
29.976956781299
 20
-8.479447374408014
 10
29.972927874044
 20
-8.473986020697996
 10
29.96882401321601
 20
-8.468580696129011
 10
29.964645163985
 20
-8.463233106639986
 10
29.960391338381
 20
-8.45794508256
 10
29.95606256968901
 20
-8.452718510618016
 10
29.951658891297
 20
-8.44755527782701
 10
29.94718033659399
 20
-8.442457271197017
 10
29.942626938967
 20
-8.43742637773801
 10
29.937998731806
 20
-8.432464484461011
 10
29.93329574849999
 20
-8.427573478378011
 10
29.92851802243601
 20
-8.422755246500003
 10
29.92366558700402
 20
-8.418011675836
 10
29.91903041932001
 20
-8.413617078372002
 10
29.91432949225702
 20
-8.409292222802013
 10
29.909563242698
 20
-8.405039090825997
 10
29.90503594624899
 20
-8.401118681577004
 10
29.90045198159199
 20
-8.397264685425001
 10
29.89581170879398
 20
-8.393478735329013
 10
29.89143030270401
 20
-8.390008015121001
 10
29.88700045237701
 20
-8.38659932073401
 10
29.88252245056099
 20
-8.383253979822999
 10
29.87832144667001
 20
-8.380205479543011
 10
29.87407941121701
 20
-8.377213813236012
 10
29.869796588349
 20
-8.374280046008014
 10
29.86547341776299
 20
-8.371405285300998
 10
29.861110519896
 20
-8.368590677681995
 10
29.857048511089
 20
-8.366046961494991
 10
29.852953679588
 20
-8.363556381181016
 10
29.848826518721
 20
-8.361119839702016
 10
29.84466752181998
 20
-8.358738240019992
 10
29.840477182212
 20
-8.356412485096004
 10
29.836255993229
 20
-8.354143477891996
 10
29.832359891014
 20
-8.352114177112012
 10
29.828438661277
 20
-8.350134014430015
 10
29.82449268400801
 20
-8.348203685356994
 10
29.82052233919798
 20
-8.34632388540399
 10
29.816528006835
 20
-8.344495310081017
 10
29.812510075316
 20
-8.342718651185011
 10
29.808469064866
 20
-8.340994542272003
 10
29.804405600359
 20
-8.339323570668002
 10
29.80069258503201
 20
-8.33785110960699
 10
29.79696200308301
 20
-8.336423488325012
 10
29.79321432615501
 20
-8.335041147130992
 10
29.789450025893
 20
-8.333704526334004
 10
29.785669573938
 20
-8.332414066242991
 10
29.78187344193298
 20
-8.331170207166
 10
29.778062101523
 20
-8.329973389412005
 10
29.77423602434901
 20
-8.328824053289995
 10
29.77039568205599
 20
-8.327722639109001
 10
29.766541546285
 20
-8.326669587178006
 10
29.76267408867899
 20
-8.325665337804995
 10
29.75879378088301
 20
-8.324710331299007
 10
29.755290906766
 20
-8.323893292010016
 10
29.751778350345
 20
-8.323116816690006
 10
29.748256529304
 20
-8.322381168041006
 10
29.744726011877
 20
-8.32168648995699
 10
29.74118738477901
 20
-8.321032911747012
 10
29.73764123472498
 20
-8.320420562723002
 10
29.73408814843
 20
-8.319849572193991
 10
29.73052871261001
 20
-8.319320069469997
 10
29.726963513978
 20
-8.318832183862017
 10
29.72339313925099
 20
-8.318386044678991
 10
29.71981817514299
 20
-8.317981781231996
 10
29.71623920836901
 20
-8.317619522830996
 10
29.712656825644
 20
-8.317299398787016
 10
29.709071613683
 20
-8.317021538408003
 10
29.705484159201
 20
-8.316786071005994
 10
29.701895048913
 20
-8.316593125890991
 10
29.698304869534
 20
-8.316442832373015
 10
29.694714207779
 20
-8.316335319761012
 10
29.69112365036301
 20
-8.316270717366991
 10
29.687533784
 20
-8.316249154500015
 10
29.68754378400499
 20
-8.316249154668017
  0
LWPOLYLINE
  5
50C
330
1E
100
AcDbEntity
  8
1
100
AcDbPolyline
 90
       35
 70
     0
 43
0.0
 10
30.81440072729999
 20
-9.413073350199995
 10
30.78946486970699
 20
-9.395925423416004
 10
30.764748526523
 20
-9.378454643752013
 10
30.73927969723401
 20
-9.359948460462991
 10
30.71405508224199
 20
-9.341105210339007
 10
30.68907814184901
 20
-9.321931077730003
 10
30.663406406057
 20
-9.301675891521004
 10
30.638009369854
 20
-9.281077475801996
 10
30.61196597195499
 20
-9.25936101870201
 10
30.58531169288199
 20
-9.236495446927992
 10
30.55898417743501
 20
-9.213257141875006
 10
30.53209462256001
 20
-9.188833142818996
 10
30.505558736688
 20
-9.164026340954992
 10
30.478512020648
 20
-9.13799917483101
 10
30.45099357471499
 20
-9.110722404721004
 10
30.423884599507
 20
-9.083038920066998
 10
30.397186867452
 20
-9.05495856535899
 10
30.371716962168
 20
-9.027386515062007
 10
30.34663565017799
 20
-8.999460129291007
 10
30.321944234511
 20
-8.971188322963005
 10
30.297644018195
 20
-8.942580010996014
 10
30.273736296427
 20
-8.913644102542011
 10
30.250221833691
 20
-8.884389116314
 10
30.227100534944
 20
-8.854822938665991
 10
30.20437222671202
 20
-8.824953398256015
 10
30.18203673552199
 20
-8.794788323737012
 10
30.160093887902
 20
-8.764335543767005
 10
30.13854351037799
 20
-8.733602886999992
 10
30.117385404863
 20
-8.702598212276003
 10
30.096619221859
 20
-8.671329564095005
 10
30.076244554333
 20
-8.639805057508002
 10
30.056260995143
 20
-8.608032807700002
 10
30.036668137145
 20
-8.576020929858005
 10
30.01746557319802
 20
-8.543777539166002
 10
30.006499646636
 20
-8.524961190529015
  0
LWPOLYLINE
  5
531
330
1E
100
AcDbEntity
  8
1
100
AcDbPolyline
 90
       91
 70
     0
 43
0.0
 10
34.5000144823
 20
-7.179935388800008
 10
34.499821266637
 20
-7.228308411574007
 10
34.49909164129199
 20
-7.276676893940991
 10
34.497904938325
 20
-7.322016231015994
 10
34.496217081043
 20
-7.367347763922996
 10
34.494176472595
 20
-7.409647677669997
 10
34.491671635402
 20
-7.451931076550012
 10
34.48868694007001
 20
-7.494188934515991
 10
34.48547210583299
 20
-7.533397612934012
 10
34.481817524227
 20
-7.572569255583007
 10
34.47771068051901
 20
-7.611696633862012
 10
34.473507508861
 20
-7.647768674502008
 10
34.46889847116199
 20
-7.683791153985001
 10
34.46387372424499
 20
-7.719758386821014
 10
34.458423424933
 20
-7.755664687520012
 10
34.45304507450998
 20
-7.788520413496004
 10
34.447293289111
 20
-7.821315782884997
 10
34.44116048698598
 20
-7.854046416411992
 10
34.43463915323199
 20
-7.886707761112009
 10
34.42772262970999
 20
-7.919293037966017
 10
34.42040485135999
 20
-7.951793927013002
 10
34.413399035652
 20
-7.981259933734012
 10
34.40605205388701
 20
-8.010643022914994
 10
34.39835935820998
 20
-8.039936920484992
 10
34.390316400767
 20
-8.069135352372004
 10
34.38191863370199
 20
-8.098232044505012
 10
34.37316150915901
 20
-8.12722072281301
 10
34.364040479284
 20
-8.15609511322299
 10
34.354550996221
 20
-8.184848941664002
 10
34.34468851211601
 20
-8.213475934064009
 10
34.33548960172601
 20
-8.239126596890006
 10
34.325981561343
 20
-8.264664866728001
 10
34.31616107557899
 20
-8.290086169777994
 10
34.306024829049
 20
-8.315385932243005
 10
34.29556967021901
 20
-8.340559561097991
 10
34.28479482010799
 20
-8.365602184913003
 10
34.273701286443
 20
-8.390508722599012
 10
34.262290120677
 20
-8.415274087937012
 10
34.250562374265
 20
-8.439893194706005
 10
34.23851909865899
 20
-8.464360956686991
 10
34.22616134531399
 20
-8.488672287660991
 10
34.21349016568299
 20
-8.512822101407012
 10
34.200506611219
 20
-8.536805311704997
 10
34.18721173337699
 20
-8.560616832335997
 10
34.17360658361001
 20
-8.584251577080014
 10
34.159692213371
 20
-8.607704459717016
 10
34.14546967411499
 20
-8.630970394027999
 10
34.13094001729499
 20
-8.654044293792001
 10
34.11443703340899
 20
-8.679450548237017
 10
34.09755763245
 20
-8.704606466728991
 10
34.080303256742
 20
-8.729505072287
 10
34.06267569857201
 20
-8.754139676493
 10
34.04467990915501
 20
-8.778506195630997
 10
34.026322515369
 20
-8.802601927657011
 10
34.007610159476
 20
-8.826424183215014
 10
33.988549483737
 20
-8.849970272944007
 10
33.96914713041601
 20
-8.873237507488997
 10
33.947417831695
 20
-8.898506177998998
 10
33.92529198108598
 20
-8.923430600075992
 10
33.90277841944
 20
-8.948007194182991
 10
33.879885987608
 20
-8.972232380784992
 10
33.854490714227
 20
-8.998254872115014
 10
33.828666553184
 20
-9.023850252318002
 10
33.80242498231
 20
-9.049013874183007
 10
33.77801332893799
 20
-9.071697270809014
 10
33.75326941939199
 20
-9.094010413408003
 10
33.728201998068
 20
-9.115951632572008
 10
33.702819654607
 20
-9.137522323586015
 10
33.677130964435
 20
-9.158724163259993
 10
33.65114450297399
 20
-9.179558828404994
 10
33.62246610561101
 20
-9.20187076332701
 10
33.59345467450499
 20
-9.223749902711007
 10
33.56412134288902
 20
-9.245198423509011
 10
33.534477243996
 20
-9.266218502678015
 10
33.504533511061
 20
-9.28681231717201
 10
33.47430127731701
 20
-9.306982043945
 10
33.443791675998
 20
-9.326729859951999
 10
33.41301584033701
 20
-9.346057942149004
 10
33.38198490356801
 20
-9.364968467489008
 10
33.35070993516301
 20
-9.383463640755994
 10
33.31920051015099
 20
-9.401546318957006
 10
33.28746469344101
 20
-9.419220018167012
 10
33.25551048304101
 20
-9.436488283658011
 10
33.22334587696001
 20
-9.453354660703014
 10
33.19097887320801
 20
-9.469822694573995
 10
33.155695495235
 20
-9.487217657266999
 10
33.12019413642399
 20
-9.50415378825701
 10
33.08448496554101
 20
-9.520635595046003
 10
33.048578151351
 20
-9.536667585135008
 10
33.01248386262
 20
-9.552254266026015
 10
32.98460708119501
 20
-9.563940007345996
  0
LWPOLYLINE
  5
58E
330
1E
100
AcDbEntity
  8
1
100
AcDbPolyline
 90
        4
 70
     0
 43
0.0
 10
32.98459784100001
 20
-9.563943830800015
 10
32.951300502276
 20
-9.577510343876015
 10
32.91757978731499
 20
-9.590826486277991
 10
32.91507532780999
 20
-9.591798830155005
  0
LWPOLYLINE
  5
594
330
1E
100
AcDbEntity
  8
1
100
AcDbPolyline
 90
        3
 70
     0
 43
0.0
 10
32.9150660043
 20
-9.591802445700016
 10
32.89569145749899
 20
-9.606786683212991
 10
32.88034330454399
 20
-9.618379677482014
  0
LWPOLYLINE
  5
599
330
1E
100
AcDbEntity
  8
1
100
AcDbPolyline
 90
       79
 70
     0
 43
0.0
 10
21.34103752440001
 20
-0.5999999999999971
 10
21.340770808061
 20
-0.592937410259995
 10
21.340584551595
 20
-0.5858693645120098
 10
21.34047865247301
 20
-0.5787969352689998
 10
21.340453008169
 20
-0.5717211950409961
 10
21.340507516158
 20
-0.5646432163410139
 10
21.34064207391098
 20
-0.5575640716799937
 10
21.340856578903
 20
-0.5504848335700131
 10
21.341150928607
 20
-0.5434065745230071
 10
21.34152502049599
 20
-0.5363303670509964
 10
21.341978752043
 20
-0.5292572836660013
 10
21.342512020723
 20
-0.5221883968789911
 10
21.34312472400698
 20
-0.5151247792020142
 10
21.34381675937
 20
-0.5080675031460116
 10
21.344588024285
 20
-0.5010176412239985
 10
21.34543841622498
 20
-0.4939762659479951
 10
21.34636783266298
 20
-0.4869444498289992
 10
21.347376171074
 20
-0.4799232653790026
 10
21.34846332893001
 20
-0.4729137851090028
 10
21.34962920370397
 20
-0.4659170815330099
 10
21.35087369287
 20
-0.458934227160003
 10
21.35233330820998
 20
-0.4512703632240145
 10
21.35388778644399
 20
-0.4436259820780064
 10
21.355536990949
 20
-0.4360025110879943
 10
21.357280646039
 20
-0.4284012509650123
 10
21.359118082913
 20
-0.4208231443680034
 10
21.36104856379
 20
-0.41326907113299
 10
21.363071350889
 20
-0.4057399110930104
 10
21.365185706431
 20
-0.3982365440830077
 10
21.367390892635
 20
-0.390759849937015
 10
21.36968617172
 20
-0.3833107084900033
 10
21.372070805906
 20
-0.3758899995750111
 10
21.37454405741201
 20
-0.3684986030280041
 10
21.377105188457
 20
-0.3611373986830157
 10
21.379753461262
 20
-0.3538072663729989
 10
21.382488138046
 20
-0.3465090859340049
 10
21.385569098257
 20
-0.3385849093770074
 10
21.388751050484
 20
-0.3307009475269948
 10
21.392033036888
 20
-0.3228583426470121
 10
21.395414099628
 20
-0.3150582370030034
 10
21.39889328086501
 20
-0.3073017728569907
 10
21.402469622759
 20
-0.2995900924759977
 10
21.406142167471
 20
-0.2919243381219897
 10
21.40990995716002
 20
-0.284305652060996
 10
21.413772033412
 20
-0.2767351748680111
 10
21.4177273744
 20
-0.2692138611830072
 10
21.422116249129
 20
-0.2611219490470117
 10
21.426611771756
 20
-0.2530891601259978
 10
21.431212473645
 20
-0.2451162112180069
 10
21.43591688616401
 20
-0.2372038191190055
 10
21.44072354067799
 20
-0.2293527006270066
 10
21.44563096855399
 20
-0.2215635725370105
 10
21.451026905537
 20
-0.2132454294730079
 10
21.45653617821199
 20
-0.2050009071809908
 10
21.462156952293
 20
-0.1968309009220119
 10
21.46788739349099
 20
-0.1887363059599946
 10
21.47372566751899
 20
-0.1807180175549971
 10
21.480098538589
 20
-0.1722126883049978
 10
21.48659083556399
 20
-0.1637970847260161
 10
21.493200302351
 20
-0.155472307951018
 10
21.49992468285501
 20
-0.1472394591129981
 10
21.507221473869
 20
-0.1385603193650153
 10
21.51464370617099
 20
-0.1299883618150117
 10
21.522188645272
 20
-0.1215247017109985
 10
21.53033654468901
 20
-0.1126513529910111
 10
21.538616624094
 20
-0.1039014720010156
 10
21.54752420722798
 20
-0.0947721055840161
 10
21.55657243621702
 20
-0.085782484604013
 10
21.565757432272
 20
-0.0769332904239972
 10
21.57507531660399
 20
-0.0682252044040039
 10
21.58452221042499
 20
-0.0596589079050061
 10
21.594094234945
 20
-0.0512350822870103
 10
21.60324588098301
 20
-0.0434106791990159
 10
21.61250241315798
 20
-0.0357145383690094
 10
21.62186056389699
 20
-0.0281472337910059
 10
21.63131706562698
 20
-0.0207093394570022
 10
21.64086865077401
 20
-0.0134014293589955
 10
21.65051205176401
 20
-0.0062240774919955
 10
21.659086447231
 20
-0.0000058239409979
  0
LWPOLYLINE
  5
5EA
330
1E
100
AcDbEntity
  8
1
100
AcDbPolyline
 90
       54
 70
     0
 43
0.0
 10
23.06260415380001
 20
-5.991886154300005
 10
23.006728811117
 20
-5.91882807313499
 10
22.95186918019101
 20
-5.844985347617011
 10
22.898029455194
 20
-5.770380132615002
 10
22.84521383030098
 20
-5.695034582995987
 10
22.793426499686
 20
-5.618970853628011
 10
22.74267165752398
 20
-5.542211099377001
 10
22.692953497988
 20
-5.464777475112016
 10
22.64427596528701
 20
-5.386692058688
 10
22.596638184666
 20
-5.307975443289993
 10
22.55003492871697
 20
-5.228646881094991
 10
22.504460813635
 20
-5.148725576097008
 10
22.459910455613
 20
-5.068230732291
 10
22.41637847084298
 20
-4.987181553667995
 10
22.37385947551798
 20
-4.905597244222008
 10
22.332348085834
 20
-4.823497007947
 10
22.29183829443099
 20
-4.740899787775988
 10
22.25232156222797
 20
-4.657823466687005
 10
22.21141286250098
 20
-4.569049624952016
 10
22.17160385550099
 20
-4.479775935097991
 10
22.13288352831401
 20
-4.390023524469
 10
22.09524086802602
 20
-4.299813520405993
 10
22.05866486172201
 20
-4.209167050253997
 10
22.023144381917
 20
-4.118105006794991
 10
21.986671157535
 20
-4.02125371243301
 10
21.951351744901
 20
-3.923976831853993
 10
21.917170480338
 20
-3.826294140395988
 10
21.88411170016898
 20
-3.728225413399997
 10
21.852159740717
 20
-3.629790426209013
 10
21.819616128397
 20
-3.525511332617015
 10
21.788269938775
 20
-3.420868942529013
 10
21.75810340722298
 20
-3.315882403143008
 10
21.72909902175099
 20
-3.210569281961001
 10
21.69980434424398
 20
-3.099379852390003
 10
21.67175753665798
 20
-2.987868499391995
 10
21.64493817511401
 20
-2.876055705048004
 10
21.61807657895499
 20
-2.758350191517993
 10
21.59252382945
 20
-2.640355961919
 10
21.56826016311498
 20
-2.522090802536015
 10
21.54420233189501
 20
-2.397922515575006
 10
21.521515192294
 20
-2.273496349160013
 10
21.500176189468
 20
-2.148832495974005
 10
21.47928435246901
 20
-2.018269740808988
 10
21.459819338404
 20
-1.887488858934004
 10
21.441762402246
 20
-1.756506423812995
 10
21.42440150377999
 20
-1.619631992749988
 10
21.408532400767
 20
-1.48257467925899
 10
21.394133960049
 20
-1.345353161568995
 10
21.381186651331
 20
-1.207985994992014
 10
21.36922851778499
 20
-1.064759815980012
 10
21.35881689405001
 20
-0.9214155389310032
 10
21.34993826651899
 20
-0.777973480052995
 10
21.34257912158799
 20
-0.6344539555530018
 10
21.34103795883997
 20
-0.6000099905589905
  0
LWPOLYLINE
  5
622
330
1E
100
AcDbEntity
  8
1
100
AcDbPolyline
 90
       16
 70
     0
 43
0.0
 10
29.4202040288
 20
7.612701665400004
 10
29.414262999279
 20
7.620949997828001
 10
29.40817603027401
 20
7.629637997805982
 10
29.40195267774298
 20
7.638770674297002
 10
29.395601898171
 20
7.648352133069006
 10
29.389131926414
 20
7.658385440544004
 10
29.38231740403201
 20
7.669248467737982
 10
29.375178410995
 20
7.680949960883985
 10
29.367733226885
 20
7.693496293388982
 10
29.359777781592
 20
7.707277828037997
 10
29.351121522956
 20
7.722693457962999
 10
29.34116526022
 20
7.74092540410299
 10
29.328938442842
 20
7.763957918240002
 10
29.311918117298
 20
7.796950576661988
 10
29.22736123650899
 20
7.963680793055996
 10
29.20812302867
 20
7.999991187803995
  0
LWPOLYLINE
  5
634
330
1E
100
AcDbEntity
  8
1
100
AcDbPolyline
 90
       55
 70
     0
 43
0.0
 10
21.6590945763
 20
-0.0000000000000027
 10
21.66943313326
 20
0.0073003574049979
 10
21.67987255078899
 20
0.014461458910998
 10
21.69040993380098
 20
0.0214833088770066
 10
21.70104238721398
 20
0.0283659116610098
 10
21.71176701594301
 20
0.0351092716199988
 10
21.72258092490499
 20
0.041713393111988
 10
21.73348121901701
 20
0.0481782804959865
 10
21.74446500319401
 20
0.0545039381289857
 10
21.75552938235199
 20
0.0606903703689996
 10
21.76667146140898
 20
0.0667375815750093
 10
21.77788834527999
 20
0.0726455761040059
 10
21.789177138881
 20
0.0784143583149985
 10
21.80053494712999
 20
0.0840439325639838
 10
21.811958886451
 20
0.0895343084260079
 10
21.82344650957098
 20
0.094885693185998
 10
21.834995929627
 20
0.1000985480789866
 10
21.84660529657701
 20
0.1051733510279833
 10
21.85827276038
 20
0.110110579954008
 10
21.86999647099197
 20
0.1149107127789905
 10
21.881774578372
 20
0.1195742274240077
 10
21.893605232477
 20
0.124101601813007
 10
21.905486583265
 20
0.1284933138649906
 10
21.917416780695
 20
0.1327498415039913
 10
21.92939397472299
 20
0.1368716626500061
 10
21.94208550969098
 20
0.14107686203499
 10
21.954825171012
 20
0.1451330663599863
 10
21.967610782855
 20
0.1490408377090064
 10
21.980440188965
 20
0.1528007319620004
 10
21.993311488582
 20
0.1564132240530087
 10
22.00622296010398
 20
0.1598787321559855
 10
22.01917288563099
 20
0.1631976732709832
 10
22.03215954726398
 20
0.1663704643960075
 10
22.0451812271
 20
0.1693975225340098
 10
22.05823620724101
 20
0.172279264682996
 10
22.071322769784
 20
0.1750161078450078
 10
22.08443919683098
 20
0.1776084690179944
 10
22.09758377048
 20
0.1800567652049922
 10
22.110754772831
 20
0.182361413402984
 10
22.12395048598299
 20
0.1845228306150064
 10
22.137169192037
 20
0.1865414338390083
 10
22.150409172988
 20
0.1884176395059826
 10
22.16366870407396
 20
0.1901518266230057
 10
22.17694604971498
 20
0.1917443142839916
 10
22.19023947335599
 20
0.1931954162000097
 10
22.204248011489
 20
0.1945704931549956
 10
22.21827041499101
 20
0.1957896235030007
 10
22.232304658431
 20
0.1968531731409912
 10
22.246348716377
 20
0.1977615079640004
 10
22.2604005634
 20
0.1985149938699892
 10
22.274458174067
 20
0.1991139967549857
 10
22.28851952294899
 20
0.1995588825159844
 10
22.302582584614
 20
0.1998500170489849
 10
22.316645333631
 20
0.1999877662509819
 10
22.32225989199901
 20
0.1999999999609912
  0
LWPOLYLINE
  5
66D
330
1E
100
AcDbEntity
  8
1
100
AcDbPolyline
 90
      103
 70
     0
 43
0.0
 10
21.34103752440001
 20
10.77561144689999
 10
21.34066265658197
 20
10.776104530915
 10
21.34037605591298
 20
10.77658211130598
 10
21.34017480983299
 20
10.77704457963901
 10
21.340056005781
 20
10.77749232748199
 10
21.34001673120001
 20
10.77792574640098
 10
21.340054073529
 20
10.77834522796399
 10
21.34016512020698
 20
10.77875116373798
 10
21.340346958677
 20
10.77914394528898
 10
21.34059667637798
 20
10.77952396418497
 10
21.340911360751
 20
10.77989161199197
 10
21.34128809923601
 20
10.78024728027799
 10
21.34172397927299
 20
10.78059136061098
 10
21.342216088303
 20
10.78092424455598
 10
21.34276151376599
 20
10.78124632367998
 10
21.34335734310301
 20
10.78155798955198
 10
21.34400066375496
 20
10.78185963373697
 10
21.34468856315999
 20
10.78215164780399
 10
21.34541812876098
 20
10.78243442331896
 10
21.346186447996
 20
10.78270835184797
 10
21.34699060830701
 20
10.78297382496
 10
21.347827697135
 20
10.78323123421998
 10
21.34869480191901
 20
10.78348097119699
 10
21.34958901009901
 20
10.78372342745699
 10
21.350507409118
 20
10.783958994567
 10
21.351447086413
 20
10.78418806409398
 10
21.35240512942699
 20
10.784411027606
 10
21.353378625599
 20
10.78462827666898
 10
21.35486147330599
 20
10.78494429222499
 10
21.356865505746
 20
10.78534930035398
 10
21.359381015623
 20
10.78583369537698
 10
21.360878429833
 20
10.786115020385
 10
21.36235570817999
 20
10.78639087895898
 10
21.363810169716
 20
10.78666171704399
 10
21.36524217071797
 20
10.78692760858998
 10
21.366652086379
 20
10.78718862522997
 10
21.368040291891
 20
10.78744483859698
 10
21.36940716244398
 20
10.78769632032397
 10
21.370753073232
 20
10.78794314204398
 10
21.37207839944399
 20
10.78818537539199
 10
21.373383516274
 20
10.78842309199898
 10
21.374668798913
 20
10.78865636349797
 10
21.375934622553
 20
10.78888526152399
 10
21.377181362385
 20
10.78910985770898
 10
21.378409393601
 20
10.78933022368498
 10
21.379619091393
 20
10.78954643108797
 10
21.380810830953
 20
10.78975855154798
 10
21.381984987471
 20
10.78996665670099
 10
21.383141936141
 20
10.79017081817799
 10
21.384282052154
 20
10.79037110761299
 10
21.38540571070099
 20
10.79056759663898
 10
21.386513286974
 20
10.79076035688997
 10
21.38760515616501
 20
10.79094945999699
 10
21.38868169346598
 20
10.79113497759498
 10
21.38974327406898
 20
10.791316981317
 10
21.391136097375
 20
10.791554310727
 10
21.392503887347
 20
10.79178569038898
 10
21.393847533326
 20
10.79201129010298
 10
21.395167924656
 20
10.79223127966397
 10
21.39646595068001
 20
10.79244582886999
 10
21.39774250074299
 20
10.79265510751697
 10
21.398998464186
 20
10.79285928540399
 10
21.40023473035398
 20
10.79305853232598
 10
21.40145218859
 20
10.79325301808099
 10
21.402651728237
 20
10.79344291246598
 10
21.404127309639
 20
10.79367408250899
 10
21.405578019844
 20
10.79389867547899
 10
21.40700559585
 20
10.794117023011
 10
21.40841177465698
 20
10.79432945674098
 10
21.41007339061498
 20
10.794577037938
 10
21.41170969741799
 20
10.79481715387798
 10
21.413590738421
 20
10.79508861841599
 10
21.415972275053
 20
10.79542532436598
 10
21.41909934576099
 20
10.79585582585598
 10
21.430726194556
 20
10.79735737250299
 10
21.43310696812299
 20
10.79765048612999
 10
21.434987007258
 20
10.79787977897898
 10
21.437168151304
 20
10.79814371072899
 10
21.43938306891099
 20
10.79840957342595
 10
21.441630753019
 20
10.79867727849898
 10
21.443910196566
 20
10.79894673737898
 10
21.446220392493
 20
10.79921786149496
 10
21.448854867707
 20
10.79952475632298
 10
21.45152555545899
 20
10.79983352051097
 10
21.45423102186899
 20
10.80014402795099
 10
21.457276141443
 20
10.80049092738899
 10
21.460360460494
 20
10.80083965031301
 10
21.463796139332
 20
10.80122514519299
 10
21.467274251604
 20
10.80161240692699
 10
21.47111387480499
 20
10.80203661881099
 10
21.475322995771
 20
10.80249789861196
 10
21.479908668793
 20
10.80299623336298
 10
21.48487663206398
 20
10.80353144562299
 10
21.49056724627099
 20
10.804138901491
 10
21.497671353737
 20
10.80488936253498
 10
21.50758535570698
 20
10.805923047692
 10
21.54922962214099
 20
10.81011315889798
 10
21.55701062921
 20
10.81087089615697
 10
21.56538011192298
 20
10.81167734849499
 10
21.574987580081
 20
10.81259225298599
 10
21.586461349347
 20
10.81367006660197
 10
21.60235560363898
 20
10.815137660341
 10
21.66323440316201
 20
10.820533939823
  0
LWPOLYLINE
  5
6D6
330
1E
100
AcDbEntity
  8
1
100
AcDbPolyline
 90
       19
 70
     0
 43
0.0
 10
25.12062617720002
 20
7.984998832299987
 10
25.140833034988
 20
7.97663322098398
 10
25.163174777415
 20
7.967711284256007
 10
25.18766929534598
 20
7.958281658604985
 10
25.216384954226
 20
7.947634083134002
 10
25.249353158977
 20
7.935862212694982
 10
25.292803120966
 20
7.920917183012982
 10
25.35093790986
 20
7.901630383791992
 10
25.425937824611
 20
7.877668914706982
 10
25.549281047989
 20
7.839779884035007
 10
26.76457835496802
 20
7.476235506041996
 10
26.86343683624401
 20
7.448065878530992
 10
26.937279532497
 20
7.427890671098986
 10
26.998642238071
 20
7.411840647669999
 10
27.051690024902
 20
7.398579874217002
 10
27.10062561487999
 20
7.386920253364987
 10
27.14542245005098
 20
7.376780653393009
 10
27.186053188293
 20
7.368063500816982
 10
27.216043962084
 20
7.361940894508986
  0
LWPOLYLINE
  5
6EB
330
1E
100
AcDbEntity
  8
1
100
AcDbPolyline
 90
       29
 70
     0
 43
0.0
 10
24.369940295
 20
-7.173926204800012
 10
24.32319315398101
 20
-7.145111094219997
 10
24.27679520280499
 20
-7.115717879887997
 10
24.229273639115
 20
-7.084778174306991
 10
24.182138103113
 20
-7.053238917628986
 10
24.135395678536
 20
-7.021108466038016
 10
24.08761178019001
 20
-6.987363585116018
 10
24.040261248825
 20
-6.953008033175991
 10
23.991937324903
 20
-6.916982376629986
 10
23.94409017403198
 20
-6.880328229008996
 10
23.89534269367497
 20
-6.841950099766989
 10
23.847116350168
 20
-6.802927514348001
 10
23.79805926646901
 20
-6.762129158123999
 10
23.74822105592197
 20
-6.719511565118012
 10
23.698975866454
 20
-6.676211408054995
 10
23.649020697912
 20
-6.631044037967996
 10
23.598409188719
 20
-6.583968228244005
 10
23.54719690997701
 20
-6.534943579000016
 10
23.496694820587
 20
-6.485183933384012
 10
23.445671801838
 20
-6.433434632808999
 10
23.39540274477499
 20
-6.380949466667002
 10
23.345889433181
 20
-6.327749051815008
 10
23.297133592601
 20
-6.273854064656007
 10
23.249136948577
 20
-6.219285181592995
 10
23.20190122665198
 20
-6.164063079025994
 10
23.15655255473
 20
-6.109578105583012
 10
23.111931384151
 20
-6.054510268603992
 10
23.068039317255
 20
-5.998878768183006
 10
23.06261028438397
 20
-5.991894054676007
  0
LWPOLYLINE
  5
70A
330
1E
100
AcDbEntity
  8
1
100
AcDbPolyline
 90
        5
 70
     0
 43
0.0
 10
30.23805482670001
 20
-0.5999999999999981
 10
30.11707538158001
 20
-0.5273108025780041
 10
29.966853088044
 20
-0.4394425066690001
 10
29.79381733160799
 20
-0.3408591380249995
 10
29.720747538252
 20
-0.3000048598850107
  0
LWPOLYLINE
  5
711
330
1E
100
AcDbEntity
  8
1
100
AcDbPolyline
 90
       31
 70
     0
 43
0.0
 10
29.72073879860001
 20
-0.3000000000000151
 10
29.716992871925
 20
-0.2907183757990063
 10
29.71300354828199
 20
-0.28114868487501
 10
29.70890406113401
 20
-0.2716242610110023
 10
29.704695799868
 20
-0.2621462022810059
 10
29.700229439994
 20
-0.2523912736419938
 10
29.69564969999101
 20
-0.2426883536020093
 10
29.69095811798899
 20
-0.2330386577899937
 10
29.685994287534
 20
-0.2231245117380106
 10
29.680914374181
 20
-0.2132698366409933
 10
29.675550544074
 20
-0.2031609633330085
 10
29.670066210947
 20
-0.1931177718369988
 10
29.664462775469
 20
-0.1831411684700051
 10
29.65856097149501
 20
-0.1729234973390171
 10
29.652535530671
 20
-0.1627785989350095
 10
29.64619981014701
 20
-0.1524034434630189
 10
29.639736156788
 20
-0.142107680225994
 10
29.63314624749299
 20
-0.1318923977850126
 10
29.62623218735499
 20
-0.1214619818879932
 10
29.619187148403
 20
-0.111119560992993
 10
29.61201235203898
 20
-0.100866605705992
 10
29.60449847646498
 20
-0.0904155940469915
 10
29.59684994414899
 20
-0.0800623894790001
 10
29.589068084203
 20
-0.0698085922950079
 10
29.580932512906
 20
-0.0593752660639986
 10
29.57265869197501
 20
-0.0490509760350087
 10
29.564247603382
 20
-0.038838530562007
 10
29.555467328504
 20
-0.0284694613420165
 10
29.54654434863501
 20
-0.0182244073430163
 10
29.53747971906599
 20
-0.0081064305120187
 10
29.529987486604
 20
0.0000441643769839
  0
LWPOLYLINE
  5
732
330
1E
100
AcDbEntity
  8
1
100
AcDbPolyline
 90
       17
 70
     0
 43
0.0
 10
31.02461110290001
 20
-1.000000000000001
 10
30.98604521034499
 20
-0.9846359806360036
 10
30.946831905748
 20
-0.9685082618690083
 10
30.90616929067699
 20
-0.951255074961015
 10
30.864078319097
 20
-0.9328386898400006
 10
30.82058045366598
 20
-0.9132234268500138
 10
30.774898226717
 20
-0.8919992645159917
 10
30.727861864862
 20
-0.8694948375270181
 10
30.67791310183599
 20
-0.8448940186050075
 10
30.625888775601
 20
-0.8185253153789952
 10
30.571044225803
 20
-0.7899283446849987
 10
30.51420378033502
 20
-0.7594476861050092
 10
30.45462878572
 20
-0.7266061220869953
 10
30.39159956204199
 20
-0.6908968036360117
 10
30.324415865966
 20
-0.6517854492370001
 10
30.251641867553
 20
-0.6082558973859912
 10
30.238063367205
 20
-0.6000052019020111
  0
LWPOLYLINE
  5
745
330
1E
100
AcDbEntity
  8
1
100
AcDbPolyline
 90
       50
 70
     0
 43
0.0
 10
29.00440678399998
 20
-8.316249154500015
 10
28.88364916851799
 20
-8.315618694734016
 10
28.76289728278099
 20
-8.313724995135006
 10
28.64216689357201
 20
-8.310564571865002
 10
28.52147376767402
 20
-8.306133941082013
 10
28.40083367186901
 20
-8.300429618946996
 10
28.28026223687301
 20
-8.293447485109
 10
28.159774152652
 20
-8.285179018463995
 10
28.039383711635
 20
-8.275613838264009
 10
27.919105204838
 20
-8.264741557154991
 10
27.80375641175
 20
-8.253064804627996
 10
27.68853673218
 20
-8.240164444096992
 10
27.573460984842
 20
-8.226027869766996
 10
27.45854552003901
 20
-8.210640070489006
 10
27.348583767784
 20
-8.19470537521801
 10
27.23879869347701
 20
-8.177594447549012
 10
27.129204723389
 20
-8.159294020617014
 10
27.01981731497399
 20
-8.13978964126599
 10
26.915395779014
 20
-8.119990665373991
 10
26.81119583439599
 20
-8.099058607655994
 10
26.707233594546
 20
-8.076977844638012
 10
26.60823345792399
 20
-8.054814827949995
 10
26.509478647288
 20
-8.031577309945991
 10
26.41098496651101
 20
-8.00725060152499
 10
26.31277052599199
 20
-7.981818594738004
 10
26.219509289404
 20
-7.956555207338992
 10
26.12653368296899
 20
-7.930260584520002
 10
26.033859487666
 20
-7.902920727635009
 10
25.941502501417
 20
-7.874521636374995
 10
25.854072984146
 20
-7.846548492919994
 10
25.766962833716
 20
-7.817594231985
 10
25.68018970787401
 20
-7.787646445504011
 10
25.593771264367
 20
-7.756692725409013
 10
25.50772516094399
 20
-7.724720663634006
 10
25.42656726274099
 20
-7.693480740355003
 10
25.34577459577199
 20
-7.661305219375011
 10
25.265363965597
 20
-7.62818408846499
 10
25.185352973755
 20
-7.594107574394002
 10
25.10575922757598
 20
-7.559065905669997
 10
25.03098634310501
 20
-7.52507597565699
 10
24.95661616955299
 20
-7.490208203884011
 10
24.882663539706
 20
-7.454454358638005
 10
24.809143838509
 20
-7.417806751033995
 10
24.736075661145
 20
-7.380260848158005
 10
24.66347875996
 20
-7.341813254706012
 10
24.59137288885
 20
-7.302460576892005
 10
24.51977780171
 20
-7.262199420931012
 10
24.448713252436
 20
-7.221026393037986
 10
24.378198994922
 20
-7.178938099430014
 10
24.369948839919
 20
-7.173931399448007
  0
TEXT
  5
81F
330
1E
100
AcDbEntity
  8
6
100
AcDbText
 10
-6.590457122430223
 20
-39.93573609907824
 30
0.0
 40
5.0
  1
15B1D025035X7R00
100
AcDbText
  0
LINE
  5
8ED
330
1E
100
AcDbEntity
  8
SK4
100
AcDbLine
 10
0.0
 20
0.0
 30
0.0
 11
-25.0
 21
0.0000000000000031
 31
0.0
  0
SPLINE
  5
248C
330
1E
100
AcDbEntity
  8
CUT
100
AcDbSpline
210
0.0
220
0.0
230
1.0
 70
     8
 71
     3
 72
    36
 73
    32
 74
    30
 42
0.0000000001
 43
0.0000000001
 44
0.0000000001
 12
0.9999999742042511
 22
0.0002271376172764
 32
0.0
 13
-0.9999999742042511
 23
0.0002271376172764
 33
0.0
 40
0.0
 40
0.0
 40
0.0
 40
0.0
 40
0.3247982782789772
 40
0.649620919484911
 40
0.9744617783758567
 40
1.299313044410009
 40
1.624169624226415
 40
1.949025583502213
 40
2.273873401166104
 40
2.598708037048729
 40
2.923523647586474
 40
3.248316318847697
 40
3.57312342163487
 40
3.897953033071376
 40
4.222797173478746
 40
4.547651599146618
 40
4.872507599146615
 40
5.197362024814473
 40
5.522206165221845
 40
5.847035776658357
 40
6.17184287944553
 40
6.496635550706752
 40
6.821451161244506
 40
7.146285797127125
 40
7.471133614791028
 40
7.795989574066818
 40
8.120846153883219
 40
8.445697419917372
 40
8.770538278808318
 40
9.095360920014252
 40
9.420159198293228
 40
9.420159198293228
 40
9.420159198293228
 40
9.420159198293228
 10
32.004407
 20
12.5
 30
0.0
 10
32.11267308996685
 20
12.50002459130234
 30
0.0
 10
32.32939653814729
 20
12.48824319081612
 30
0.0
 10
32.65053497000251
 20
12.43560702974998
 30
0.0
 10
32.96415449296672
 20
12.34853130287421
 30
0.0
 10
33.26652159333892
 20
12.22805971662146
 30
0.0
 10
33.55409743788341
 20
12.07559743260105
 30
0.0
 10
33.82350073122054
 20
11.89293599450784
 30
0.0
 10
34.07156897951851
 20
11.68222105810836
 30
0.0
 10
34.29539256794767
 20
11.44593130898087
 30
0.0
 10
34.49234433180287
 20
11.18684085241257
 30
0.0
 10
34.66012669245615
 20
10.90798453377879
 30
0.0
 10
34.79677988591096
 20
10.61261898899152
 30
0.0
 10
34.90070278679284
 20
10.30419372366999
 30
0.0
 10
34.97067317993718
 20
9.986324956344551
 30
0.0
 10
35.0058654780908
 20
9.662745494873229
 30
0.0
 10
35.0058654780908
 20
9.337254505126763
 30
0.0
 10
34.97067317993717
 20
9.013675043655442
 30
0.0
 10
34.90070278679284
 20
8.695806276330008
 30
0.0
 10
34.79677988591095
 20
8.387381011008477
 30
0.0
 10
34.66012669245616
 20
8.0920154662212
 30
0.0
 10
34.49234433180286
 20
7.813159147587422
 30
0.0
 10
34.29539256794768
 20
7.55406869101911
 30
0.0
 10
34.0715689795185
 20
7.31777894189163
 30
0.0
 10
33.82350073122055
 20
7.107064005492127
 30
0.0
 10
33.5540974378834
 20
6.924402567398939
 30
0.0
 10
33.26652159333891
 20
6.771940283378536
 30
0.0
 10
32.96415449296673
 20
6.651468697125782
 30
0.0
 10
32.65053497000251
 20
6.564392970250011
 30
0.0
 10
32.32939653814729
 20
6.511756809183868
 30
0.0
 10
32.11267308996685
 20
6.499975408697658
 30
0.0
 10
32.004407
 20
6.5
 30
0.0
 11
32.004407
 21
12.5
 31
0.0
 11
32.32872899999998
 21
12.48241699999999
 31
0.0
 11
32.64927299999998
 21
12.42986899999999
 31
0.0
 11
32.96227399999999
 21
12.342967
 31
0.0
 11
33.26405399999998
 21
12.222729
 31
0.0
 11
33.551069
 21
12.07056399999999
 31
0.0
 11
33.81994799999999
 21
11.88825799999998
 31
0.0
 11
34.06753299999998
 21
11.67795399999999
 31
0.0
 11
34.29091999999998
 21
11.44212399999999
 31
0.0
 11
34.487488
 21
11.18353899999999
 31
0.0
 11
34.654936
 21
10.90523799999999
 31
0.0
 11
34.79132099999999
 21
10.61045199999999
 31
0.0
 11
34.89504199999998
 21
10.302627
 31
0.0
 11
34.96487599999999
 21
9.985377999999997
 31
0.0
 11
34.99999999999998
 21
9.662427999999991
 31
0.0
 11
34.99999999999998
 21
9.337571999999994
 31
0.0
 11
34.96487599999999
 21
9.014622000000002
 31
0.0
 11
34.89504199999998
 21
8.697372999999997
 31
0.0
 11
34.79132099999999
 21
8.389548000000003
 31
0.0
 11
34.654936
 21
8.094762000000002
 31
0.0
 11
34.487488
 21
7.816461000000002
 31
0.0
 11
34.29091999999998
 21
7.557875999999991
 31
0.0
 11
34.06753299999998
 21
7.322046
 31
0.0
 11
33.81994799999999
 21
7.111741999999991
 31
0.0
 11
33.551069
 21
6.929435999999995
 31
0.0
 11
33.26405399999998
 21
6.777270999999998
 31
0.0
 11
32.96227399999999
 21
6.657032999999997
 31
0.0
 11
32.64927299999998
 21
6.570131000000002
 31
0.0
 11
32.32872899999998
 21
6.517583000000001
 31
0.0
 11
32.004407
 21
6.5
 31
0.0
  0
SPLINE
  5
248D
330
1E
100
AcDbEntity
  8
CUT
100
AcDbSpline
210
0.0
220
0.0
230
1.0
 70
     8
 71
     3
 72
    36
 73
    32
 74
    30
 42
0.0000000001
 43
0.0000000001
 44
0.0000000001
 12
-0.9999999742042511
 22
0.0002271376172764
 32
0.0
 13
0.9999999742042511
 23
0.0002271376172764
 33
0.0
 40
0.0
 40
0.0
 40
0.0
 40
0.0
 40
0.3247982782789985
 40
0.6496209194849429
 40
0.9744617783758817
 40
1.299313044410031
 40
1.624169624226418
 40
1.949025583502228
 40
2.27387340116613
 40
2.598708037048765
 40
2.923523647586484
 40
3.248316318847712
 40
3.573123421634885
 40
3.897953033071395
 40
4.222797173478771
 40
4.547651599146641
 40
4.872507599146638
 40
5.197362024814494
 40
5.522206165221873
 40
5.847035776658388
 40
6.171842879445561
 40
6.496635550706789
 40
6.821451161244517
 40
7.146285797127147
 40
7.471133614791061
 40
7.795989574066863
 40
8.120846153883245
 40
8.445697419917395
 40
8.770538278808336
 40
9.095360920014281
 40
9.420159198293278
 40
9.420159198293278
 40
9.420159198293278
 40
9.420159198293278
 10
32.004407
 20
12.5
 30
0.0
 10
31.89614091003314
 20
12.50002459130234
 30
0.0
 10
31.6794174618527
 20
12.48824319081612
 30
0.0
 10
31.35827902999748
 20
12.43560702974999
 30
0.0
 10
31.04465950703325
 20
12.34853130287421
 30
0.0
 10
30.74229240666108
 20
12.22805971662147
 30
0.0
 10
30.4547165621166
 20
12.07559743260104
 30
0.0
 10
30.18531326877945
 20
11.89293599450784
 30
0.0
 10
29.93724502048146
 20
11.68222105810836
 30
0.0
 10
29.71342143205228
 20
11.44593130898089
 30
0.0
 10
29.51646966819715
 20
11.18684085241255
 30
0.0
 10
29.34868730754383
 20
10.90798453377879
 30
0.0
 10
29.21203411408903
 20
10.61261898899151
 30
0.0
 10
29.10811121320715
 20
10.30419372366998
 30
0.0
 10
29.03814082006276
 20
9.986324956344557
 30
0.0
 10
29.00294852190918
 20
9.662745494873226
 30
0.0
 10
29.00294852190917
 20
9.337254505126765
 30
0.0
 10
29.03814082006276
 20
9.013675043655435
 30
0.0
 10
29.10811121320715
 20
8.695806276330012
 30
0.0
 10
29.21203411408905
 20
8.387381011008478
 30
0.0
 10
29.34868730754383
 20
8.092015466221194
 30
0.0
 10
29.51646966819715
 20
7.813159147587442
 30
0.0
 10
29.71342143205227
 20
7.554068691019089
 30
0.0
 10
29.93724502048147
 20
7.317778941891632
 30
0.0
 10
30.18531326877944
 20
7.107064005492125
 30
0.0
 10
30.4547165621166
 20
6.924402567398948
 30
0.0
 10
30.74229240666108
 20
6.771940283378528
 30
0.0
 10
31.04465950703325
 20
6.651468697125783
 30
0.0
 10
31.35827902999748
 20
6.56439297025001
 30
0.0
 10
31.67941746185269
 20
6.511756809183868
 30
0.0
 10
31.89614091003314
 20
6.499975408697658
 30
0.0
 10
32.004407
 20
6.5
 30
0.0
 11
32.004407
 21
12.5
 31
0.0
 11
31.680085
 21
12.48241699999999
 31
0.0
 11
31.35954099999999
 21
12.42986899999999
 31
0.0
 11
31.04653999999998
 21
12.342967
 31
0.0
 11
30.74476
 21
12.222729
 31
0.0
 11
30.457745
 21
12.07056399999999
 31
0.0
 11
30.188866
 21
11.88825799999998
 31
0.0
 11
29.94128099999999
 21
11.67795399999999
 31
0.0
 11
29.71789399999998
 21
11.44212399999999
 31
0.0
 11
29.521326
 21
11.18353899999999
 31
0.0
 11
29.35387799999999
 21
10.90523799999999
 31
0.0
 11
29.217493
 21
10.61045199999999
 31
0.0
 11
29.113772
 21
10.302627
 31
0.0
 11
29.04393799999996
 21
9.985377999999997
 31
0.0
 11
29.00881399999999
 21
9.662427999999991
 31
0.0
 11
29.00881399999999
 21
9.337571999999994
 31
0.0
 11
29.04393799999996
 21
9.014622000000002
 31
0.0
 11
29.113772
 21
8.697372999999997
 31
0.0
 11
29.217493
 21
8.389548000000003
 31
0.0
 11
29.35387799999999
 21
8.094762000000002
 31
0.0
 11
29.521326
 21
7.816461000000002
 31
0.0
 11
29.71789399999998
 21
7.557875999999991
 31
0.0
 11
29.94128099999999
 21
7.322046
 31
0.0
 11
30.188866
 21
7.111741999999991
 31
0.0
 11
30.457745
 21
6.929435999999995
 31
0.0
 11
30.74476
 21
6.777270999999998
 31
0.0
 11
31.04653999999998
 21
6.657032999999997
 31
0.0
 11
31.35954099999999
 21
6.570131000000002
 31
0.0
 11
31.680085
 21
6.517583000000001
 31
0.0
 11
32.004407
 21
6.5
 31
0.0
  0
LINE
  5
24A3
330
1E
100
AcDbEntity
  8
NOCUT
100
AcDbLine
 10
29.68753378400009
 20
11.0
 30
0.0
 11
24.36994029500008
 21
11.0
 31
0.0
  0
LINE
  5
24A4
330
1E
100
AcDbEntity
  8
NOCUT
100
AcDbLine
 10
34.50000000000005
 20
0.0000000000000142
 30
0.0
 11
0.0
 21
0.0
 31
0.0
  0
LINE
  5
24A5
330
1E
100
AcDbEntity
  8
NOCUT
100
AcDbLine
 10
13.00000000000008
 20
10.5
 30
0.0
 11
0.5000000000000853
 21
10.5
 31
0.0
  0
LINE
  5
24A6
330
1E
100
AcDbEntity
  8
NOCUT
100
AcDbLine
 10
0.0
 20
0.0000000000000142
 30
0.0
 11
0.0000000000000853
 21
10.0
 31
0.0
  0
ARC
  5
24A7
330
1E
100
AcDbEntity
  8
NOCUT
100
AcDbCircle
 10
0.5000000000000853
 20
10.0
 30
0.0
 40
0.5
100
AcDbArc
 50
90.0
 51
180.0
  0
LINE
  5
24A8
330
1E
100
AcDbEntity
  8
NOCUT
100
AcDbLine
 10
17.56339057090007
 20
10.5
 30
0.0
 11
13.00000000000008
 21
10.5
 31
0.0
  0
LINE
  5
24AC
330
1E
100
AcDbEntity
  8
NOCUT
100
AcDbLine
 10
23.06260415380009
 20
10.9429204714
 30
0.0
 11
18.43494799840007
 21
10.53805301909999
 31
0.0
  0
ARC
  5
24AD
330
1E
100
AcDbEntity
  8
NOCUT
100
AcDbCircle
 10
17.56339057090007
 20
20.5
 30
0.0
 40
10.0
100
AcDbArc
 50
270.0
 51
274.9999999999997
  0
LINE
  5
24AE
330
1E
100
AcDbEntity
  8
NOCUT
100
AcDbLine
 10
17.56339057090007
 20
10.5
 30
0.0
 11
18.43494799840007
 21
10.53805301909999
 31
0.0
  0
ARC
  5
24AF
330
1E
100
AcDbEntity
  8
NOCUT
100
AcDbCircle
 10
24.36994029500008
 20
-3.999999999999984
 30
0.0
 40
15.0
100
AcDbArc
 50
90.0
 51
94.99999999999978
  0
LINE
  5
24B0
330
1E
100
AcDbEntity
  8
NOCUT
100
AcDbLine
 10
34.50000000000008
 20
9.650000000000003
 30
0.0
 11
34.50000000000005
 21
0.0000000000000142
 31
0.0
  0
ARC
  5
24B1
330
1E
100
AcDbEntity
  8
NOCUT
100
AcDbCircle
 10
32.00000000000008
 20
9.650000000000003
 30
0.0
 40
2.5
100
AcDbArc
 50
0.0
 51
142.8827365334998
  0
ARC
  5
24B2
330
1E
100
AcDbEntity
  8
NOCUT
100
AcDbCircle
 10
29.68753378400009
 20
11.4
 30
0.0
 40
0.4
100
AcDbArc
 50
270.0
 51
322.8827365386996
  0
TEXT
  5
24BA
330
1E
100
AcDbEntity
  8
6
100
AcDbText
 10
57.67814460411536
 20
-4.864237055053877
 30
0.0
 40
3.5
  1
Z=5
 50
90.0
100
AcDbText
  0
TEXT
  5
24BB
330
1E
100
AcDbEntity
  8
6
100
AcDbText
 10
25.13715686490826
 20
19.2846055668179
 30
0.0
 40
2.5
  1
RHHW0602M0TN
100
AcDbText
  0
LWPOLYLINE
  5
2653
330
1E
100
AcDbEntity
  8
1
100
AcDbPolyline
 90
        3
 70
     1
 43
0.0
 10
0.0
 20
-0.0000000000000284
 10
-2.950972054112583
 20
-0.0000000000000284
 42
0.4142135623730966
 10
0.0
 20
-2.950972054112611
  0
HATCH
  5
2654
330
1E
100
AcDbEntity
  8
1
100
AcDbHatch
 10
0.0
 20
0.0
 30
0.0
210
0.0
220
0.0
230
1.0
  2
SOLID
 70
     1
 71
     0
 91
        2
 92
        7
 72
     1
 73
     1
 93
        3
 10
0.0
 20
-0.0000000000000284
 42
0.0
 10
2.950972054112583
 20
-0.0000000000000284
 42
0.4142135623730966
 10
0.0
 20
2.950972054112583
 42
0.0
 97
        0
 92
        7
 72
     1
 73
     1
 93
        3
 10
0.0
 20
-2.950972054112526
 42
0.0
 10
0.0
 20
-0.0000000000000284
 42
0.0
 10
-2.950972054112583
 20
-0.0000000000000284
 42
0.4142135623730953
 97
        0
 75
     0
 76
     1
 47
0.1190009775223266
 98
        2
 10
0.7445530588119027
 20
0.9212244733764691
 10
-1.279464601852936
 20
-1.69679692304632
  0
CIRCLE
  5
2655
330
1E
100
AcDbEntity
  8
1
100
AcDbCircle
 10
0.0
 20
-0.0000000000000284
 30
0.0
 40
2.950972054112601
  0
LINE
  5
2656
330
1E
100
AcDbEntity
  8
1
100
AcDbLine
 10
0.0
 20
2.950972054112583
 30
0.0
 11
0.0
 21
-2.950972054112611
 31
0.0
  0
LINE
  5
2658
330
1E
100
AcDbEntity
  8
1
100
AcDbLine
 10
-2.950972054112837
 20
-0.0000000000000284
 30
0.0
 11
2.950972054112583
 21
-0.0000000000000284
 31
0.0
  0
LWPOLYLINE
  5
2659
330
1E
100
AcDbEntity
  8
1
100
AcDbPolyline
 90
        3
 70
     1
 43
0.0
 10
0.0
 20
2.950972054112583
 10
0.0
 20
-0.0000000000000284
 10
2.950972054112583
 20
-0.0000000000000284
 42
0.4142135623730966
  0
ENDSEC
  0
SECTION
  2
OBJECTS
  0
DICTIONARY
  5
C
330
0
100
AcDbDictionary
281
     1
  3
ACAD_COLOR
350
27C3
  3
ACAD_GROUP
350
D
  3
ACAD_LAYOUT
350
19
  3
ACAD_MATERIAL
350
27C2
  3
ACAD_MLINESTYLE
350
16
  3
ACAD_PLOTSETTINGS
350
18
  3
ACAD_PLOTSTYLENAME
350
242D
  3
ACAD_TABLESTYLE
350
27C4
  3
ACDBHEADERROUNDTRIPXREC
350
27CC
  3
AcDbVariableDictionary
350
27C7
1001
ACAD
1000
TREAT_AS_HARD
1070
     0
  0
DICTIONARY
  5
1B49
330
1E
100
AcDbDictionary
280
     1
281
     1
  3
ACAD_LAYOUTSELFREF
360
1B4A
  0
DICTIONARY
  5
1B47
330
1A
100
AcDbDictionary
280
     1
281
     1
  3
ACAD_LAYOUTSELFREF
360
1B48
  0
DICTIONARY
  5
27C3
102
{ACAD_REACTORS
330
C
102
}
330
C
100
AcDbDictionary
281
     1
  0
DICTIONARY
  5
D
102
{ACAD_REACTORS
330
C
102
}
330
C
100
AcDbDictionary
281
     1
1001
ACAD
1000
TREAT_AS_HARD
1070
     0
  0
DICTIONARY
  5
19
102
{ACAD_REACTORS
330
C
102
}
330
C
100
AcDbDictionary
281
     1
  3
Layout1
350
2430
  3
Model
350
242F
1001
ACAD
1000
TREAT_AS_HARD
1070
     0
  0
DICTIONARY
  5
27C2
102
{ACAD_REACTORS
330
C
102
}
330
C
100
AcDbDictionary
281
     1
  0
DICTIONARY
  5
16
102
{ACAD_REACTORS
330
C
102
}
330
C
100
AcDbDictionary
281
     1
  3
STANDARD
350
17
1001
ACAD
1000
TREAT_AS_HARD
1070
     0
  0
DICTIONARY
  5
18
102
{ACAD_REACTORS
330
C
102
}
330
C
100
AcDbDictionary
281
     1
1001
ACAD
1000
TREAT_AS_HARD
1070
     0
  0
ACDBDICTIONARYWDFLT
  5
242D
102
{ACAD_REACTORS
330
C
102
}
330
C
100
AcDbDictionary
281
     1
  3
Normal
350
242E
100
AcDbDictionaryWithDefault
340
242E
  0
DICTIONARY
  5
27C4
102
{ACAD_REACTORS
330
C
102
}
330
C
100
AcDbDictionary
281
     1
  3
Standard
350
27C5
  0
DICTIONARY
  5
27CC
102
{ACAD_REACTORS
330
C
102
}
330
C
100
AcDbDictionary
281
     1
  0
DICTIONARY
  5
27C7
102
{ACAD_REACTORS
330
C
102
}
330
C
100
AcDbDictionary
281
     1
  3
CTABLESTYLE
350
27C8
  3
DIMASSOC
350
27C9
  3
PROJECTNAME
350
27CA
  0
XRECORD
  5
1B4A
102
{ACAD_REACTORS
330
1B49
102
}
330
1B49
100
AcDbXrecord
280
     1
340
1E
  0
XRECORD
  5
1B48
102
{ACAD_REACTORS
330
1B47
102
}
330
1B47
100
AcDbXrecord
280
     1
340
1A
  0
LAYOUT
  5
2430
102
{ACAD_XDICTIONARY
360
27CF
102
}
102
{ACAD_REACTORS
330
19
102
}
330
19
100
AcDbPlotSettings
  1

  2
\\ingdom02\ITB2
  4

  6

 40
0.0
 41
0.0
 42
0.0
 43
0.0
 44
0.0
 45
0.0
 46
0.0
 47
0.0
 48
0.0
 49
0.0
140
0.0
141
0.0
142
1.0
143
1.0
 70
   688
 72
     0
 73
     0
 74
     5
  7

 75
    16
147
1.0
148
0.0
149
0.0
100
AcDbLayout
  1
Layout1
 70
     1
 71
     1
 10
0.0
 20
0.0
 11
12.0
 21
9.0
 12
0.0
 22
0.0
 32
0.0
 14
100.0
 24
100.0
 34
100.0
 15
-100.0
 25
-100.0
 35
-100.0
146
0.0
 13
0.0
 23
0.0
 33
0.0
 16
1.0
 26
0.0
 36
0.0
 17
0.0
 27
1.0
 37
0.0
 76
     0
330
1A
  0
LAYOUT
  5
242F
102
{ACAD_XDICTIONARY
360
27CD
102
}
102
{ACAD_REACTORS
330
19
102
}
330
19
100
AcDbPlotSettings
  1

  2
\\ingdom02\ITB2
  4

  6

 40
0.0
 41
0.0
 42
0.0
 43
0.0
 44
0.0
 45
0.0
 46
0.0
 47
0.0
 48
0.0
 49
0.0
140
0.0
141
0.0
142
1.0
143
1.0
 70
  1712
 72
     0
 73
     0
 74
     0
  7

 75
     0
147
1.0
148
0.0
149
0.0
100
AcDbLayout
  1
Model
 70
     1
 71
     0
 10
0.0
 20
0.0
 11
12.0
 21
9.0
 12
0.0
 22
0.0
 32
0.0
 14
0.0
 24
0.0
 34
0.0
 15
0.0
 25
0.0
 35
0.0
146
0.0
 13
0.0
 23
0.0
 33
0.0
 16
1.0
 26
0.0
 36
0.0
 17
0.0
 27
1.0
 37
0.0
 76
     0
330
1E
  0
MLINESTYLE
  5
17
102
{ACAD_REACTORS
330
16
102
}
330
16
100
AcDbMlineStyle
  2
STANDARD
 70
     0
  3

 62
   256
 51
90.0
 52
90.0
 71
     2
 49
0.5
 62
   256
  6
BYLAYER
 49
-0.5
 62
   256
  6
BYLAYER
  0
ACDBPLACEHOLDER
  5
242E
102
{ACAD_REACTORS
330
242D
102
}
330
242D
  0
TABLESTYLE
  5
27C5
102
{ACAD_REACTORS
330
27C4
102
}
330
27C4
100
AcDbTableStyle
  3
Standard
 70
     0
 71
     0
 40
0.06
 41
0.06
280
     0
281
     0
  7
STANDARD
140
0.18
170
     2
 62
     0
 63
     7
283
     0
274
    -2
284
     1
 64
     0
275
    -2
285
     1
 65
     0
276
    -2
286
     1
 66
     0
277
    -2
287
     1
 67
     0
278
    -2
288
     1
 68
     0
279
    -2
289
     1
 69
     0
  7
STANDARD
140
0.25
170
     5
 62
     0
 63
     7
283
     0
274
    -2
284
     1
 64
     0
275
    -2
285
     1
 65
     0
276
    -2
286
     1
 66
     0
277
    -2
287
     1
 67
     0
278
    -2
288
     1
 68
     0
279
    -2
289
     1
 69
     0
  7
STANDARD
140
0.18
170
     5
 62
     0
 63
     7
283
     0
274
    -2
284
     1
 64
     0
275
    -2
285
     1
 65
     0
276
    -2
286
     1
 66
     0
277
    -2
287
     1
 67
     0
278
    -2
288
     1
 68
     0
279
    -2
289
     1
 69
     0
  0
DICTIONARYVAR
  5
27C8
102
{ACAD_REACTORS
330
27C7
102
}
330
27C7
100
DictionaryVariables
280
     0
  1
STANDARD
  0
DICTIONARYVAR
  5
27C9
102
{ACAD_REACTORS
330
27C7
102
}
330
27C7
100
DictionaryVariables
280
     0
  1
1
  0
DICTIONARYVAR
  5
27CA
102
{ACAD_REACTORS
330
27C7
102
}
330
27C7
100
DictionaryVariables
280
     0
  1

  0
DICTIONARY
  5
27CF
330
2430
100
AcDbDictionary
280
     1
281
     1
  3
ACAD_XREC_ROUNDTRIP
360
27D0
  0
DICTIONARY
  5
27CD
330
242F
100
AcDbDictionary
280
     1
281
     1
  3
ACAD_XREC_ROUNDTRIP
360
27CE
  0
XRECORD
  5
27D0
102
{ACAD_REACTORS
330
27CF
102
}
330
27CF
100
AcDbXrecord
280
     1
102
SHADEPLOT
 70
     0
102
SHADEPLOTRESLEVEL
 70
     2
102
SHADEPLOTCUSTOMDPI
 70
   300
  0
XRECORD
  5
27CE
102
{ACAD_REACTORS
330
27CD
102
}
330
27CD
100
AcDbXrecord
280
     1
102
SHADEPLOT
 70
     0
102
SHADEPLOTRESLEVEL
 70
     2
102
SHADEPLOTCUSTOMDPI
 70
   300
  0
ENDSEC
  0
EOF
