  0
SECTION
  2
HEADER
  9
$ACADVER
  1
AC1015
  9
$ACADMAINTVER
 70
    20
  9
$DWGCODEPAGE
  3
ANSI_1252
  9
$INSBASE
 10
0.0
 20
0.0
 30
0.0
  9
$EXTMIN
 10
-47.56169446252534
 20
-37.45041818822813
 30
-0.0000000069310432
  9
$EXTMAX
 10
50.91721273460871
 20
18.89841905765775
 30
0.0000000002889953
  9
$LIMMIN
 10
0.0
 20
0.0
  9
$LIMMAX
 10
594.0
 20
420.0
  9
$ORTHOMODE
 70
     0
  9
$REGENMODE
 70
     1
  9
$FILLMODE
 70
     1
  9
$QTEXTMODE
 70
     0
  9
$MIRRTEXT
 70
     1
  9
$LTSCALE
 40
10.0
  9
$ATTMODE
 70
     1
  9
$TEXTSIZE
 40
0.2
  9
$TRACEWID
 40
0.05
  9
$TEXTSTYLE
  7
STANDARD
  9
$CLAYER
  8
0
  9
$CELTYPE
  6
BYLAYER
  9
$CECOLOR
 62
   256
  9
$CELTSCALE
 40
1.0
  9
$DISPSILH
 70
     0
  9
$DIMSCALE
 40
1.0
  9
$DIMASZ
 40
2.5
  9
$DIMEXO
 40
3.712499999999999
  9
$DIMDLI
 40
22.572
  9
$DIMRND
 40
0.0
  9
$DIMDLE
 40
0.0
  9
$DIMEXE
 40
10.692
  9
$DIMTP
 40
0.01
  9
$DIMTM
 40
0.01
  9
$DIMTXT
 40
3.5
  9
$DIMCEN
 40
5.346
  9
$DIMTSZ
 40
0.0
  9
$DIMTOL
 70
     1
  9
$DIMLIM
 70
     0
  9
$DIMTIH
 70
     1
  9
$DIMTOH
 70
     1
  9
$DIMSE1
 70
     0
  9
$DIMSE2
 70
     0
  9
$DIMTAD
 70
     0
  9
$DIMZIN
 70
     0
  9
$DIMBLK
  1
_FILLED
  9
$DIMASO
 70
     1
  9
$DIMSHO
 70
     1
  9
$DIMPOST
  1

  9
$DIMAPOST
  1

  9
$DIMALT
 70
     0
  9
$DIMALTD
 70
     2
  9
$DIMALTF
 40
25.4
  9
$DIMLFAC
 40
1.0
  9
$DIMTOFL
 70
     0
  9
$DIMTVP
 40
0.0
  9
$DIMTIX
 70
     0
  9
$DIMSOXD
 70
     0
  9
$DIMSAH
 70
     0
  9
$DIMBLK1
  1

  9
$DIMBLK2
  1

  9
$DIMSTYLE
  2
STANDARD
  9
$DIMCLRD
 70
     0
  9
$DIMCLRE
 70
     0
  9
$DIMCLRT
 70
     0
  9
$DIMTFAC
 40
1.0
  9
$DIMGAP
 40
0.09
  9
$DIMJUST
 70
     0
  9
$DIMSD1
 70
     0
  9
$DIMSD2
 70
     0
  9
$DIMTOLJ
 70
     1
  9
$DIMTZIN
 70
     0
  9
$DIMALTZ
 70
     0
  9
$DIMALTTZ
 70
     0
  9
$DIMUPT
 70
     0
  9
$DIMDEC
 70
     4
  9
$DIMTDEC
 70
     4
  9
$DIMALTU
 70
     2
  9
$DIMALTTD
 70
     2
  9
$DIMTXSTY
  7
STANDARD
  9
$DIMAUNIT
 70
     0
  9
$DIMADEC
 70
     0
  9
$DIMALTRND
 40
0.0
  9
$DIMAZIN
 70
     0
  9
$DIMDSEP
 70
    46
  9
$DIMATFIT
 70
     3
  9
$DIMFRAC
 70
     0
  9
$DIMLDRBLK
  1
_FILLED
  9
$DIMLUNIT
 70
     2
  9
$DIMLWD
 70
    -2
  9
$DIMLWE
 70
    -2
  9
$DIMTMOVE
 70
     0
  9
$LUNITS
 70
     2
  9
$LUPREC
 70
     4
  9
$SKETCHINC
 40
0.1
  9
$FILLETRAD
 40
0.0
  9
$AUNITS
 70
     0
  9
$AUPREC
 70
     0
  9
$MENU
  1

  9
$ELEVATION
 40
0.0
  9
$PELEVATION
 40
0.0
  9
$THICKNESS
 40
0.0
  9
$LIMCHECK
 70
     0
  9
$CHAMFERA
 40
0.0
  9
$CHAMFERB
 40
0.0
  9
$CHAMFERC
 40
0.0
  9
$CHAMFERD
 40
0.0
  9
$SKPOLY
 70
     0
  9
$TDCREATE
 40
2453432.354004109
  9
$TDUCREATE
 40
2453432.270670775
  9
$TDUPDATE
 40
2453909.272445116
  9
$TDUUPDATE
 40
2453909.189111783
  9
$TDINDWG
 40
0.0805145833
  9
$TDUSRTIMER
 40
0.0785188426
  9
$USRTIMER
 70
     1
  9
$ANGBASE
 50
0.0
  9
$ANGDIR
 70
     0
  9
$PDMODE
 70
     0
  9
$PDSIZE
 40
0.3125
  9
$PLINEWID
 40
0.0
  9
$SPLFRAME
 70
     0
  9
$SPLINETYPE
 70
     6
  9
$SPLINESEGS
 70
     8
  9
$HANDSEED
  5
3FDC
  9
$SURFTAB1
 70
     6
  9
$SURFTAB2
 70
     6
  9
$SURFTYPE
 70
     6
  9
$SURFU
 70
     6
  9
$SURFV
 70
     6
  9
$UCSBASE
  2

  9
$UCSNAME
  2

  9
$UCSORG
 10
0.0
 20
0.0
 30
0.0
  9
$UCSXDIR
 10
1.0
 20
0.0
 30
0.0
  9
$UCSYDIR
 10
0.0
 20
1.0
 30
0.0
  9
$UCSORTHOREF
  2

  9
$UCSORTHOVIEW
 70
     0
  9
$UCSORGTOP
 10
0.0
 20
0.0
 30
0.0
  9
$UCSORGBOTTOM
 10
0.0
 20
0.0
 30
0.0
  9
$UCSORGLEFT
 10
0.0
 20
0.0
 30
0.0
  9
$UCSORGRIGHT
 10
0.0
 20
0.0
 30
0.0
  9
$UCSORGFRONT
 10
0.0
 20
0.0
 30
0.0
  9
$UCSORGBACK
 10
0.0
 20
0.0
 30
0.0
  9
$PUCSBASE
  2

  9
$PUCSNAME
  2

  9
$PUCSORG
 10
0.0
 20
0.0
 30
0.0
  9
$PUCSXDIR
 10
1.0
 20
0.0
 30
0.0
  9
$PUCSYDIR
 10
0.0
 20
1.0
 30
0.0
  9
$PUCSORTHOREF
  2

  9
$PUCSORTHOVIEW
 70
     0
  9
$PUCSORGTOP
 10
0.0
 20
0.0
 30
0.0
  9
$PUCSORGBOTTOM
 10
0.0
 20
0.0
 30
0.0
  9
$PUCSORGLEFT
 10
0.0
 20
0.0
 30
0.0
  9
$PUCSORGRIGHT
 10
0.0
 20
0.0
 30
0.0
  9
$PUCSORGFRONT
 10
0.0
 20
0.0
 30
0.0
  9
$PUCSORGBACK
 10
0.0
 20
0.0
 30
0.0
  9
$USERI1
 70
     0
  9
$USERI2
 70
     0
  9
$USERI3
 70
     0
  9
$USERI4
 70
     0
  9
$USERI5
 70
     0
  9
$USERR1
 40
0.0
  9
$USERR2
 40
0.0
  9
$USERR3
 40
0.0
  9
$USERR4
 40
0.0
  9
$USERR5
 40
0.0
  9
$WORLDVIEW
 70
     1
  9
$SHADEDGE
 70
     3
  9
$SHADEDIF
 70
    70
  9
$TILEMODE
 70
     1
  9
$MAXACTVP
 70
    64
  9
$PINSBASE
 10
0.0
 20
0.0
 30
0.0
  9
$PLIMCHECK
 70
     0
  9
$PEXTMIN
 10
100.0
 20
100.0
 30
100.0
  9
$PEXTMAX
 10
-100.0
 20
-100.0
 30
-100.0
  9
$PLIMMIN
 10
0.0
 20
0.0
  9
$PLIMMAX
 10
12.0
 20
9.0
  9
$UNITMODE
 70
     0
  9
$VISRETAIN
 70
     1
  9
$PLINEGEN
 70
     1
  9
$PSLTSCALE
 70
     1
  9
$TREEDEPTH
 70
  3020
  9
$CMLSTYLE
  2
STANDARD
  9
$CMLJUST
 70
     0
  9
$CMLSCALE
 40
1.0
  9
$PROXYGRAPHICS
 70
     1
  9
$MEASUREMENT
 70
     0
  9
$CELWEIGHT
370
    -1
  9
$ENDCAPS
280
     0
  9
$JOINSTYLE
280
     0
  9
$LWDISPLAY
290
     0
  9
$INSUNITS
 70
     0
  9
$HYPERLINKBASE
  1

  9
$STYLESHEET
  1

  9
$XEDIT
290
     1
  9
$CEPSNTYPE
380
     0
  9
$PSTYLEMODE
290
     1
  9
$FINGERPRINTGUID
  2
{9A493622-5755-4F1F-BD6B-D6E2DB97D859}
  9
$VERSIONGUID
  2
{F0B5E942-2590-4A07-B563-4A27B5137D86}
  9
$EXTNAMES
290
     1
  9
$PSVPSCALE
 40
0.0
  9
$OLESTARTUP
290
     0
  0
ENDSEC
  0
SECTION
  2
CLASSES
  0
CLASS
  1
ACDBDICTIONARYWDFLT
  2
AcDbDictionaryWithDefault
  3
ObjectDBX Classes
 90
        0
280
     0
281
     0
  0
CLASS
  1
ACDBPLACEHOLDER
  2
AcDbPlaceHolder
  3
ObjectDBX Classes
 90
        0
280
     0
281
     0
  0
CLASS
  1
LAYOUT
  2
AcDbLayout
  3
ObjectDBX Classes
 90
        0
280
     0
281
     0
  0
CLASS
  1
TABLESTYLE
  2
AcDbTableStyle
  3
ObjectDBX Classes
 90
     2047
280
     0
281
     0
  0
CLASS
  1
DICTIONARYVAR
  2
AcDbDictionaryVar
  3
ObjectDBX Classes
 90
        0
280
     0
281
     0
  0
ENDSEC
  0
SECTION
  2
TABLES
  0
TABLE
  2
VPORT
  5
8
330
0
100
AcDbSymbolTable
 70
     2
  0
VPORT
  5
3FD6
330
8
100
AcDbSymbolTableRecord
100
AcDbViewportTableRecord
  2
*Active
 70
     0
 10
0.0
 20
0.0
 11
1.0
 21
1.0
 12
1.677759136041686
 22
-9.275999565285189
 13
0.0
 23
0.0
 14
1.0
 24
1.0
 15
0.0
 25
0.0
 16
0.0
 26
0.0
 36
1.0
 17
0.0
 27
0.0
 37
0.0
 40
64.5837456120031
 41
1.532401524777636
 42
50.0
 43
0.0
 44
0.0
 50
0.0
 51
0.0
 71
     0
 72
  1000
 73
     1
 74
     1
 75
     0
 76
     0
 77
     0
 78
     0
281
     0
 65
     1
110
0.0
120
0.0
130
0.0
111
1.0
121
0.0
131
0.0
112
0.0
122
1.0
132
0.0
 79
     0
146
0.0
  0
ENDTAB
  0
TABLE
  2
LTYPE
  5
5
330
0
100
AcDbSymbolTable
 70
     2
  0
LTYPE
  5
13
330
5
100
AcDbSymbolTableRecord
100
AcDbLinetypeTableRecord
  2
BYBLOCK
 70
     0
  3

 72
    65
 73
     0
 40
0.0
  0
LTYPE
  5
14
330
5
100
AcDbSymbolTableRecord
100
AcDbLinetypeTableRecord
  2
BYLAYER
 70
     0
  3

 72
    65
 73
     0
 40
0.0
  0
LTYPE
  5
15
330
5
100
AcDbSymbolTableRecord
100
AcDbLinetypeTableRecord
  2
CONTINUOUS
 70
     0
  3
Solid line
 72
    65
 73
     0
 40
0.0
  0
LTYPE
  5
2A
330
5
100
AcDbSymbolTableRecord
100
AcDbLinetypeTableRecord
  2
CENTER
 70
     0
  3
____ _ ____ _ ____ _ ____ _ ____ _ ____ _ ____
 72
    65
 73
     4
 40
0.6
 49
0.375
 74
     0
 49
-0.075
 74
     0
 49
0.075
 74
     0
 49
-0.075
 74
     0
  0
ENDTAB
  0
TABLE
  2
LAYER
  5
2
330
0
100
AcDbSymbolTable
 70
    11
  0
LAYER
  5
10
330
2
100
AcDbSymbolTableRecord
100
AcDbLayerTableRecord
  2
1
 70
     0
 62
     4
  6
CONTINUOUS
370
    -3
390
3C6D
  0
LAYER
  5
2D
330
2
100
AcDbSymbolTableRecord
100
AcDbLayerTableRecord
  2
2
 70
     0
 62
     7
  6
CONTINUOUS
370
    -3
390
3C6D
  0
LAYER
  5
2F
330
2
100
AcDbSymbolTableRecord
100
AcDbLayerTableRecord
  2
4
 70
     0
 62
     2
  6
CENTER
370
    -3
390
3C6D
  0
LAYER
  5
32
330
2
100
AcDbSymbolTableRecord
100
AcDbLayerTableRecord
  2
0
 70
     0
 62
     7
  6
CONTINUOUS
370
    -3
390
3C6D
  0
LAYER
  5
33
330
2
100
AcDbSymbolTableRecord
100
AcDbLayerTableRecord
  2
DEFPOINTS
 70
     0
 62
     7
  6
CONTINUOUS
290
     0
370
    -3
390
3C6D
  0
LAYER
  5
8C9
330
2
100
AcDbSymbolTableRecord
100
AcDbLayerTableRecord
  2
SK1
 70
     0
 62
     4
  6
CONTINUOUS
370
    -3
390
3C6D
  0
LAYER
  5
8CA
330
2
100
AcDbSymbolTableRecord
100
AcDbLayerTableRecord
  2
SK4
 70
     0
 62
     2
  6
CENTER
370
    -3
390
3C6D
  0
LAYER
  5
8CB
330
2
100
AcDbSymbolTableRecord
100
AcDbLayerTableRecord
  2
SK2
 70
     0
 62
     7
  6
CONTINUOUS
370
    -3
390
3C6D
  0
LAYER
  5
3C97
330
2
100
AcDbSymbolTableRecord
100
AcDbLayerTableRecord
  2
CUT
 70
     0
 62
     1
  6
CONTINUOUS
370
    -3
390
3C6D
  0
LAYER
  5
3CA5
330
2
100
AcDbSymbolTableRecord
100
AcDbLayerTableRecord
  2
NOCUT
 70
     0
 62
     7
  6
CONTINUOUS
370
    -3
390
3C6D
  0
LAYER
  5
3CBC
330
2
100
AcDbSymbolTableRecord
100
AcDbLayerTableRecord
  2
6
 70
     0
 62
     5
  6
CONTINUOUS
370
    -3
390
3C6D
  0
ENDTAB
  0
TABLE
  2
STYLE
  5
3
330
0
100
AcDbSymbolTable
 70
     1
  0
STYLE
  5
11
330
3
100
AcDbSymbolTableRecord
100
AcDbTextStyleTableRecord
  2
STANDARD
 70
     0
 40
0.0
 41
0.8
 50
0.0
 71
     0
 42
0.2
  3
ISOCP
  4

  0
ENDTAB
  0
TABLE
  2
VIEW
  5
6
330
0
100
AcDbSymbolTable
 70
     0
  0
ENDTAB
  0
TABLE
  2
UCS
  5
7
330
0
100
AcDbSymbolTable
 70
     0
  0
ENDTAB
  0
TABLE
  2
APPID
  5
9
330
0
100
AcDbSymbolTable
 70
     1
  0
APPID
  5
12
330
9
100
AcDbSymbolTableRecord
100
AcDbRegAppTableRecord
  2
ACAD
 70
     0
  0
ENDTAB
  0
TABLE
  2
DIMSTYLE
  5
A
330
0
100
AcDbSymbolTable
 70
     2
100
AcDbDimStyleTable
 71
     0
  0
DIMSTYLE
105
2C
330
A
100
AcDbSymbolTableRecord
100
AcDbDimStyleTableRecord
  2
STANDARD
 70
     0
340
11
  0
DIMSTYLE
105
8CC
102
{ACAD_REACTORS
330
71
330
70
330
6E
330
6F
102
}
330
A
100
AcDbSymbolTableRecord
100
AcDbDimStyleTableRecord
  2
ISO-25
 70
     0
 41
2.5
 42
0.625
 43
3.75
 44
1.25
 73
     0
 74
     0
 77
     1
 78
     8
140
2.5
141
2.5
143
0.03937007874016
147
0.625
171
     3
172
     1
271
     2
272
     2
274
     3
283
     0
284
     8
340
11
  0
ENDTAB
  0
TABLE
  2
BLOCK_RECORD
  5
1
330
0
100
AcDbSymbolTable
 70
     5
  0
BLOCK_RECORD
  5
1E
102
{ACAD_XDICTIONARY
360
32A1
102
}
330
1
100
AcDbSymbolTableRecord
100
AcDbBlockTableRecord
  2
*MODEL_SPACE
340
3C6E
  0
BLOCK_RECORD
  5
1A
102
{ACAD_XDICTIONARY
360
329F
102
}
330
1
100
AcDbSymbolTableRecord
100
AcDbBlockTableRecord
  2
*PAPER_SPACE
340
3C6F
  0
BLOCK_RECORD
  5
23
330
1
100
AcDbSymbolTableRecord
100
AcDbBlockTableRecord
  2
_FILLED
340
0
  0
BLOCK_RECORD
  5
9D9
330
1
100
AcDbSymbolTableRecord
100
AcDbBlockTableRecord
  2
*D1
340
0
  0
BLOCK_RECORD
  5
9E5
330
1
100
AcDbSymbolTableRecord
100
AcDbBlockTableRecord
  2
*D2
340
0
  0
BLOCK_RECORD
  5
9F3
330
1
100
AcDbSymbolTableRecord
100
AcDbBlockTableRecord
  2
*D3
340
0
  0
BLOCK_RECORD
  5
9FF
330
1
100
AcDbSymbolTableRecord
100
AcDbBlockTableRecord
  2
*D4
340
0
  0
ENDTAB
  0
ENDSEC
  0
SECTION
  2
BLOCKS
  0
BLOCK
  5
36
330
1E
100
AcDbEntity
  8
0
100
AcDbBlockBegin
  2
*MODEL_SPACE
 70
     0
 10
0.0
 20
0.0
 30
0.0
  3
*MODEL_SPACE
  1

  0
ENDBLK
  5
37
330
1E
100
AcDbEntity
  8
0
100
AcDbBlockEnd
  0
BLOCK
  5
34
330
1A
100
AcDbEntity
 67
     1
  8
0
100
AcDbBlockBegin
  2
*PAPER_SPACE
 70
     0
 10
0.0
 20
0.0
 30
0.0
  3
*PAPER_SPACE
  1

  0
ENDBLK
  5
35
330
1A
100
AcDbEntity
 67
     1
  8
0
100
AcDbBlockEnd
  0
BLOCK
  5
3A
330
23
100
AcDbEntity
  8
0
100
AcDbBlockBegin
  2
_FILLED
 70
     0
 10
0.0
 20
0.0
 30
0.0
  3
_FILLED
  1

  0
SOLID
  5
3B
330
23
100
AcDbEntity
  8
0
  6
ByBlock
 62
     0
100
AcDbTrace
 10
0.0
 20
0.0
 30
0.0
 11
-1.0
 21
0.132
 31
0.0
 12
-1.0
 22
-0.132
 32
0.0
 13
-1.0
 23
-0.132
 33
0.0
  0
ENDBLK
  5
3C
330
23
100
AcDbEntity
  8
0
100
AcDbBlockEnd
  0
BLOCK
  5
9E3
330
9D9
100
AcDbEntity
  8
0
100
AcDbBlockBegin
  2
*D1
 70
     1
 10
0.0
 20
0.0
 30
0.0
  3
*D1
  1

  0
LINE
  5
3CC5
330
9D9
100
AcDbEntity
  8
SK2
 62
     0
370
    -2
100
AcDbLine
 10
-0.6250000000000011
 20
-9.0
 30
0.0
 11
-45.77254142387483
 21
-8.999999999999984
 31
0.0
  0
LINE
  5
3CC6
330
9D9
100
AcDbEntity
  8
SK2
 62
     0
370
    -2
100
AcDbLine
 10
-0.6249999999999992
 20
9.0
 30
0.0
 11
-45.77254142387483
 21
9.000000000000012
 31
0.0
  0
LINE
  5
3CC7
330
9D9
100
AcDbEntity
  8
SK2
 62
     0
370
    -2
100
AcDbLine
 10
-44.52254142387483
 20
-6.499999999999986
 30
0.0
 11
-44.52254142387483
 21
6.500000000000013
 31
0.0
  0
SOLID
  5
3CC8
330
9D9
100
AcDbEntity
  8
SK2
 62
     0
100
AcDbTrace
 10
-44.9392080905415
 20
-6.499999999999986
 30
0.0
 11
-44.10587475720816
 21
-6.499999999999986
 31
0.0
 12
-44.52254142387483
 22
-8.999999999999984
 32
0.0
 13
-44.52254142387483
 23
-8.999999999999984
 33
0.0
  0
SOLID
  5
3CC9
330
9D9
100
AcDbEntity
  8
SK2
 62
     0
100
AcDbTrace
 10
-44.9392080905415
 20
6.500000000000013
 30
0.0
 11
-44.10587475720816
 21
6.500000000000013
 31
0.0
 12
-44.52254142387483
 22
9.000000000000012
 32
0.0
 13
-44.52254142387483
 23
9.000000000000012
 33
0.0
  0
MTEXT
  5
3CCA
330
9D9
100
AcDbEntity
  8
SK2
 62
     0
100
AcDbMText
 10
-46.39754142387483
 20
-0.4219193664999867
 30
0.0
 40
2.5
 41
0.0
 71
     5
 72
     1
  1
%%c18
 11
0.0000000000000001
 21
1.0
 31
0.0
 73
     1
 44
1.0
1001
ACAD
1000
MTEXTBEGIN
1070
    73
1070
     1
1070
    44
1040
1.0
1070
    74
1070
     0
1000
MTEXTEND
  0
POINT
  5
3CCB
330
9D9
100
AcDbEntity
  8
DEFPOINTS
 62
     0
100
AcDbPoint
 10
-0.0000000000000011
 20
-9.0
 30
0.0
  0
POINT
  5
3CCC
330
9D9
100
AcDbEntity
  8
DEFPOINTS
 62
     0
100
AcDbPoint
 10
0.0000000000000011
 20
9.0
 30
0.0
  0
POINT
  5
3CCD
330
9D9
100
AcDbEntity
  8
DEFPOINTS
 62
     0
100
AcDbPoint
 10
-44.52254142387483
 20
9.000000000000012
 30
0.0
  0
ENDBLK
  5
9E4
330
9D9
100
AcDbEntity
  8
0
100
AcDbBlockEnd
  0
BLOCK
  5
9F1
330
9E5
100
AcDbEntity
  8
0
100
AcDbBlockBegin
  2
*D2
 70
     1
 10
0.0
 20
0.0
 30
0.0
  3
*D2
  1

  0
LINE
  5
3CCE
330
9E5
100
AcDbEntity
  8
SK2
 62
     0
370
    -2
100
AcDbLine
 10
-19.125
 20
-4.999999999999997
 30
0.0
 11
-35.68077059535835
 21
-4.999999999999992
 31
0.0
  0
LINE
  5
3CCF
330
9E5
100
AcDbEntity
  8
SK2
 62
     0
370
    -2
100
AcDbLine
 10
-19.125
 20
5.0
 30
0.0
 11
-35.68077059535835
 21
5.000000000000006
 31
0.0
  0
LINE
  5
3CD0
330
9E5
100
AcDbEntity
  8
SK2
 62
     0
370
    -2
100
AcDbLine
 10
-34.43077059535835
 20
-7.499999999999992
 30
0.0
 11
-34.43077059535835
 21
-9.999999999999991
 31
0.0
  0
LINE
  5
3CD1
330
9E5
100
AcDbEntity
  8
SK2
 62
     0
370
    -2
100
AcDbLine
 10
-34.43077059535835
 20
7.500000000000006
 30
0.0
 11
-34.43077059535835
 21
10.0
 31
0.0
  0
LINE
  5
3CD2
330
9E5
100
AcDbEntity
  8
SK2
 62
     0
370
    -2
100
AcDbLine
 10
-34.43077059535835
 20
-4.999999999999992
 30
0.0
 11
-34.43077059535835
 21
5.000000000000006
 31
0.0
  0
SOLID
  5
3CD3
330
9E5
100
AcDbEntity
  8
SK2
 62
     0
100
AcDbTrace
 10
-34.84743726202502
 20
-7.499999999999992
 30
0.0
 11
-34.01410392869169
 21
-7.499999999999992
 31
0.0
 12
-34.43077059535835
 22
-4.999999999999992
 32
0.0
 13
-34.43077059535835
 23
-4.999999999999992
 33
0.0
  0
SOLID
  5
3CD4
330
9E5
100
AcDbEntity
  8
SK2
 62
     0
100
AcDbTrace
 10
-34.84743726202502
 20
7.500000000000006
 30
0.0
 11
-34.01410392869169
 21
7.500000000000006
 31
0.0
 12
-34.43077059535835
 22
5.000000000000006
 32
0.0
 13
-34.43077059535835
 23
5.000000000000006
 33
0.0
  0
MTEXT
  5
3CD5
330
9E5
100
AcDbEntity
  8
SK2
 62
     0
100
AcDbMText
 10
-36.30577059535835
 20
-0.1038332121999544
 30
0.0
 40
2.5
 41
0.0
 71
     5
 72
     1
  1
M10
 11
0.0000000000000001
 21
1.0
 31
0.0
 73
     1
 44
1.0
1001
ACAD
1000
MTEXTBEGIN
1070
    73
1070
     1
1070
    44
1040
1.0
1070
    74
1070
     0
1000
MTEXTEND
  0
POINT
  5
3CD6
330
9E5
100
AcDbEntity
  8
DEFPOINTS
 62
     0
100
AcDbPoint
 10
-18.5
 20
-4.999999999999997
 30
0.0
  0
POINT
  5
3CD7
330
9E5
100
AcDbEntity
  8
DEFPOINTS
 62
     0
100
AcDbPoint
 10
-18.5
 20
5.0
 30
0.0
  0
POINT
  5
3CD8
330
9E5
100
AcDbEntity
  8
DEFPOINTS
 62
     0
100
AcDbPoint
 10
-34.43077059535835
 20
5.000000000000006
 30
0.0
  0
ENDBLK
  5
9F2
330
9E5
100
AcDbEntity
  8
0
100
AcDbBlockEnd
  0
BLOCK
  5
9FD
330
9F3
100
AcDbEntity
  8
0
100
AcDbBlockBegin
  2
*D3
 70
     1
 10
0.0
 20
0.0
 30
0.0
  3
*D3
  1

  0
LINE
  5
3C7A
330
9F3
100
AcDbEntity
  8
2
 62
     0
370
    -2
100
AcDbLine
 10
30.00000000000001
 20
-8.313358277096771
 30
0.0
 11
30.00000000000001
 21
-26.25555792823945
 31
0.0
  0
LINE
  5
3C7B
330
9F3
100
AcDbEntity
  8
2
 62
     0
370
    -2
100
AcDbLine
 10
-0.000000000000001
 20
-8.125
 30
0.0
 11
-0.0000000000000021
 21
-26.25555792823945
 31
0.0
  0
LINE
  5
3C7C
330
9F3
100
AcDbEntity
  8
2
 62
     0
370
    -2
100
AcDbLine
 10
27.50000000000001
 20
-25.00555792823945
 30
0.0
 11
2.499999999999996
 21
-25.00555792823945
 31
0.0
  0
SOLID
  5
3C7D
330
9F3
100
AcDbEntity
  8
2
 62
     0
100
AcDbTrace
 10
27.50000000000001
 20
-24.58889126157278
 30
0.0
 11
27.50000000000001
 21
-25.42222459490611
 31
0.0
 12
30.00000000000001
 22
-25.00555792823945
 32
0.0
 13
30.00000000000001
 23
-25.00555792823945
 33
0.0
  0
SOLID
  5
3C7E
330
9F3
100
AcDbEntity
  8
2
 62
     0
100
AcDbTrace
 10
2.499999999999996
 20
-24.58889126157278
 30
0.0
 11
2.499999999999996
 21
-25.42222459490611
 31
0.0
 12
-0.000000000000002
 22
-25.00555792823945
 32
0.0
 13
-0.000000000000002
 23
-25.00555792823945
 33
0.0
  0
MTEXT
  5
3C7F
330
9F3
100
AcDbEntity
  8
2
 62
     0
100
AcDbMText
 10
12.4033895411
 20
-23.13055792823945
 30
0.0
 40
2.5
 41
0.0
 71
     5
 72
     1
  1
30
 73
     1
 44
1.0
1001
ACAD
1000
MTEXTBEGIN
1070
    73
1070
     1
1070
    44
1040
1.0
1070
    74
1070
     0
1000
MTEXTEND
  0
POINT
  5
3C80
330
9F3
100
AcDbEntity
  8
DEFPOINTS
 62
     0
100
AcDbPoint
 10
30.00000000000001
 20
-7.688358277096771
 30
0.0
  0
POINT
  5
3C81
330
9F3
100
AcDbEntity
  8
DEFPOINTS
 62
     0
100
AcDbPoint
 10
-0.0000000000000009
 20
-7.5
 30
0.0
  0
POINT
  5
3C82
330
9F3
100
AcDbEntity
  8
DEFPOINTS
 62
     0
100
AcDbPoint
 10
-0.000000000000002
 20
-25.00555792823945
 30
0.0
  0
ENDBLK
  5
9FE
330
9F3
100
AcDbEntity
  8
0
100
AcDbBlockEnd
  0
BLOCK
  5
A09
330
9FF
100
AcDbEntity
  8
0
100
AcDbBlockBegin
  2
*D4
 70
     1
 10
0.0
 20
0.0
 30
0.0
  3
*D4
  1

  0
LINE
  5
3C71
330
9FF
100
AcDbEntity
  8
2
 62
     0
370
    -2
100
AcDbLine
 10
24.83298606960562
 20
9.999999999999996
 30
0.0
 11
46.33757202173182
 21
9.999999999999987
 31
0.0
  0
LINE
  5
3C72
330
9FF
100
AcDbEntity
  8
2
 62
     0
370
    -2
100
AcDbLine
 10
28.19647044503529
 20
-10.0
 30
0.0
 11
46.33757202173182
 21
-10.0
 31
0.0
  0
LINE
  5
3C73
330
9FF
100
AcDbEntity
  8
2
 62
     0
370
    -2
100
AcDbLine
 10
45.08757202173182
 20
7.49999999999999
 30
0.0
 11
45.08757202173182
 21
-7.500000000000007
 31
0.0
  0
SOLID
  5
3C74
330
9FF
100
AcDbEntity
  8
2
 62
     0
100
AcDbTrace
 10
44.67090535506513
 20
7.49999999999999
 30
0.0
 11
45.50423868839849
 21
7.49999999999999
 31
0.0
 12
45.08757202173182
 22
9.999999999999987
 32
0.0
 13
45.08757202173182
 23
9.999999999999987
 33
0.0
  0
SOLID
  5
3C75
330
9FF
100
AcDbEntity
  8
2
 62
     0
100
AcDbTrace
 10
44.67090535506513
 20
-7.500000000000007
 30
0.0
 11
45.50423868839849
 21
-7.500000000000007
 31
0.0
 12
45.08757202173182
 22
-10.0
 32
0.0
 13
45.08757202173182
 23
-10.0
 33
0.0
  0
MTEXT
  5
3C76
330
9FF
100
AcDbEntity
  8
2
 62
     0
100
AcDbMText
 10
43.21232595873969
 20
0.7643124170000367
 30
0.0
 40
2.5
 41
0.0
 71
     5
 72
     1
  1
%%c20
 11
0.0000000000000001
 21
1.0
 31
0.0
 73
     1
 44
1.0
1001
ACAD
1000
MTEXTBEGIN
1070
    73
1070
     1
1070
    44
1040
1.0
1070
    74
1070
     0
1000
MTEXTEND
  0
POINT
  5
3C77
330
9FF
100
AcDbEntity
  8
DEFPOINTS
 62
     0
100
AcDbPoint
 10
24.20798606960562
 20
9.999999999999996
 30
0.0
  0
POINT
  5
3C78
330
9FF
100
AcDbEntity
  8
DEFPOINTS
 62
     0
100
AcDbPoint
 10
27.57147044503529
 20
-10.0
 30
0.0
  0
POINT
  5
3C79
330
9FF
100
AcDbEntity
  8
DEFPOINTS
 62
     0
100
AcDbPoint
 10
45.08757202173182
 20
-10.0
 30
0.0
  0
ENDBLK
  5
A0A
330
9FF
100
AcDbEntity
  8
0
100
AcDbBlockEnd
  0
ENDSEC
  0
SECTION
  2
ENTITIES
  0
DIMENSION
  5
6E
330
1E
100
AcDbEntity
  8
2
100
AcDbDimension
  2
*D3
 10
-0.000000000000002
 20
-25.00555792823945
 30
0.0
 11
12.4033895411
 21
-25.00555792823945
 31
0.0
 70
   160
 71
     5
 42
30.00000000000001
  3
ISO-25
100
AcDbAlignedDimension
 13
30.00000000000001
 23
-7.688358277096771
 33
0.0
 14
-0.0000000000000009
 24
-7.5
 34
0.0
 50
180.0
100
AcDbRotatedDimension
  0
DIMENSION
  5
6F
330
1E
100
AcDbEntity
  8
2
100
AcDbDimension
  2
*D4
 10
45.08757202173182
 20
-10.0
 30
0.0
 11
45.08757202173182
 21
0.7643124170000366
 31
0.0
 70
   160
  1
%%c<>
 71
     5
 42
20.0
  3
ISO-25
100
AcDbAlignedDimension
 13
24.20798606960562
 23
9.999999999999996
 33
0.0
 14
27.57147044503529
 24
-10.0
 34
0.0
 50
270.0
100
AcDbRotatedDimension
  0
DIMENSION
  5
70
330
1E
100
AcDbEntity
  8
SK2
100
AcDbDimension
  2
*D2
 10
-34.43077059535835
 20
5.000000000000006
 30
0.0
 11
-34.43077059535835
 21
-0.1038332121999546
 31
0.0
 70
   160
  1
M<>
 71
     5
 42
10.0
  3
ISO-25
100
AcDbAlignedDimension
 13
-18.5
 23
-4.999999999999997
 33
0.0
 14
-18.5
 24
5.0
 34
0.0
 50
89.99999999999998
100
AcDbRotatedDimension
  0
DIMENSION
  5
71
330
1E
100
AcDbEntity
  8
SK2
100
AcDbDimension
  2
*D1
 10
-44.52254142387483
 20
9.000000000000012
 30
0.0
 11
-44.52254142387483
 21
-0.4219193664999867
 31
0.0
 70
   160
  1
%%c<>
 71
     5
 42
18.0
  3
ISO-25
100
AcDbAlignedDimension
 13
-0.0000000000000011
 23
-9.0
 33
0.0
 14
0.0000000000000011
 24
9.0
 34
0.0
 50
89.99999999999998
100
AcDbRotatedDimension
  0
LINE
  5
72
330
1E
100
AcDbEntity
  8
1
100
AcDbLine
 10
29.50000000000001
 20
-6.814243528199996
 30
0.0
 11
29.50000000000001
 21
-5.903966487699964
 31
0.0
  0
LINE
  5
73
330
1E
100
AcDbEntity
  8
1
100
AcDbLine
 10
29.50000000000001
 20
1.994018048399988
 30
0.0
 11
29.50000000000001
 21
3.942937348500031
 31
0.0
  0
LINE
  5
74
330
1E
100
AcDbEntity
  8
1
100
AcDbLine
 10
29.50000000000001
 20
-1.994012388999976
 30
0.0
 11
29.50000000000001
 21
-3.943538387999981
 31
0.0
  0
LINE
  5
75
330
1E
100
AcDbEntity
  8
1
100
AcDbLine
 10
30.00440000000001
 20
-0.0000000000000037
 30
0.0
 11
29.55767198090001
 21
-1.934991636799965
 31
0.0
  0
LINE
  5
76
330
1E
100
AcDbEntity
  8
1
100
AcDbLine
 10
30.00440000000001
 20
-0.0000000000000037
 30
0.0
 11
29.55767198090001
 21
1.934991636800015
 31
0.0
  0
LINE
  5
77
330
1E
100
AcDbEntity
  8
1
100
AcDbLine
 10
27.50000000000001
 20
-0.7332229010999675
 30
0.0
 11
27.50000000000001
 21
-0.0000000000000034
 31
0.0
  0
LINE
  5
78
330
1E
100
AcDbEntity
  8
SK4
100
AcDbLine
 10
27.00440000000002
 20
3.803799371101031
 30
0.0
 11
27.00440000000002
 21
10.37228069978498
 31
0.0
  0
LINE
  5
79
330
1E
100
AcDbEntity
  8
SK4
100
AcDbLine
 10
27.00440000000002
 20
-3.990487115639951
 30
0.0
 11
27.00440000000002
 21
-10.58119215488898
 31
0.0
  0
LINE
  5
7A
330
1E
100
AcDbEntity
  8
1
100
AcDbLine
 10
24.00440000000001
 20
-0.0000000000000029
 30
0.0
 11
24.05057363820001
 21
0.2000000000000425
 31
0.0
  0
LINE
  5
7B
330
1E
100
AcDbEntity
  8
1
100
AcDbLine
 10
29.55767198090001
 20
-1.934991636799965
 30
0.0
 11
29.49952664950001
 21
-1.993136968199965
 31
0.0
  0
LINE
  5
7C
330
1E
100
AcDbEntity
  8
1
100
AcDbLine
 10
29.55767198090001
 20
1.934991636800015
 30
0.0
 11
29.49266361770002
 21
1.999999999999995
 31
0.0
  0
LINE
  5
7D
330
1E
100
AcDbEntity
  8
1
100
AcDbLine
 10
15.0
 20
-4.0
 30
0.0
 11
15.0
 21
3.999999999999998
 31
0.0
  0
LINE
  5
7E
330
1E
100
AcDbEntity
  8
1
100
AcDbLine
 10
6.000000000000013
 20
9.0
 30
0.0
 11
0.5000000000000011
 21
9.0
 31
0.0
  0
LINE
  5
7F
330
1E
100
AcDbEntity
  8
1
100
AcDbLine
 10
6.500000000000013
 20
-8.5
 30
0.0
 11
6.000000000000013
 21
-9.0
 31
0.0
  0
LINE
  5
80
330
1E
100
AcDbEntity
  8
1
100
AcDbLine
 10
16.51035863199999
 20
8.499999999999998
 30
0.0
 11
6.500000000000013
 21
8.5
 31
0.0
  0
LINE
  5
81
330
1E
100
AcDbEntity
  8
1
100
AcDbLine
 10
24.20531087870001
 20
8.497646733099992
 30
0.0
 11
17.21211816590001
 21
8.497646733099994
 31
0.0
  0
LINE
  5
82
330
1E
100
AcDbEntity
  8
SK4
100
AcDbLine
 10
23.355617990429
 20
7.002879000000002
 30
0.0
 11
30.49341201384201
 21
7.002879000000002
 31
0.0
  0
LINE
  5
83
330
1E
100
AcDbEntity
  8
1
100
AcDbLine
 10
6.500000000000013
 20
8.5
 30
0.0
 11
6.000000000000013
 21
9.0
 31
0.0
  0
LINE
  5
84
330
1E
100
AcDbEntity
  8
SK1
100
AcDbLine
 10
-0.9999999999999992
 20
5.25
 30
0.0
 11
-5.599999999999991
 21
5.25
 31
0.0
  0
LINE
  5
85
330
1E
100
AcDbEntity
  8
SK1
100
AcDbLine
 10
-0.2999999999999823
 20
5.09000000000003
 30
0.0
 11
-0.3502108717999868
 21
5.09000000000003
 31
0.0
  0
LINE
  5
86
330
1E
100
AcDbEntity
  8
SK1
100
AcDbLine
 10
-9.656370849899984
 20
5.0
 30
0.0
 11
-18.0
 21
5.0
 31
0.0
  0
LINE
  5
87
330
1E
100
AcDbEntity
  8
1
100
AcDbLine
 10
26.02460410290002
 20
4.702878999999991
 30
0.0
 11
24.00440000000001
 21
4.702878999999992
 31
0.0
  0
LINE
  5
88
330
1E
100
AcDbEntity
  8
SK1
100
AcDbLine
 10
-18.75
 20
4.25
 30
0.0
 11
-8.906370849899984
 21
4.25
 31
0.0
  0
LINE
  5
89
330
1E
100
AcDbEntity
  8
1
100
AcDbLine
 10
15.0
 20
3.999999999999998
 30
0.0
 11
6.500000000000013
 21
3.999999999999998
 31
0.0
  0
LINE
  5
8A
330
1E
100
AcDbEntity
  8
SK1
100
AcDbLine
 10
-6.799999999999981
 20
3.975000000000021
 30
0.0
 11
-8.299999999999982
 21
3.975000000000021
 31
0.0
  0
LINE
  5
8B
330
1E
100
AcDbEntity
  8
SK1
100
AcDbLine
 10
-0.4537384897999738
 20
5.103629669500036
 30
0.0
 11
-0.9999999999999992
 21
5.25
 31
0.0
  0
LINE
  5
8C
330
1E
100
AcDbEntity
  8
1
100
AcDbLine
 10
29.49266361770002
 20
1.999999999999995
 30
0.0
 11
24.93558436120002
 21
1.999999999999995
 31
0.0
  0
LINE
  5
8D
330
1E
100
AcDbEntity
  8
1
100
AcDbLine
 10
29.55767198090001
 20
1.934991636800015
 30
0.0
 11
24.73657968990001
 21
1.934991636800015
 31
0.0
  0
LINE
  5
8E
330
1E
100
AcDbEntity
  8
1
100
AcDbLine
 10
6.500000000000013
 20
3.999999999999998
 30
0.0
 11
6.500000000000013
 21
8.5
 31
0.0
  0
LINE
  5
8F
330
1E
100
AcDbEntity
  8
1
100
AcDbLine
 10
6.500000000000013
 20
-4.0
 30
0.0
 11
6.500000000000013
 21
-8.5
 31
0.0
  0
LINE
  5
90
330
1E
100
AcDbEntity
  8
1
100
AcDbLine
 10
6.000000000000013
 20
9.0
 30
0.0
 11
6.000000000000013
 21
-9.0
 31
0.0
  0
LINE
  5
91
330
1E
100
AcDbEntity
  8
1
100
AcDbLine
 10
24.48176412810001
 20
0.3000000000000084
 30
0.0
 11
24.40162120120001
 21
0.3000000000000084
 31
0.0
  0
LINE
  5
92
330
1E
100
AcDbEntity
  8
1
100
AcDbLine
 10
24.20531087870001
 20
0.2000000000000425
 30
0.0
 11
17.21211816590001
 21
0.2000000000000434
 31
0.0
  0
LINE
  5
93
330
1E
100
AcDbEntity
  8
4
100
AcDbLine
 10
33.0
 20
-0.000000000000004
 30
0.0
 11
0.4546177705947799
 21
-0.0000000000000001
 31
0.0
  0
LINE
  5
94
330
1E
100
AcDbEntity
  8
1
100
AcDbLine
 10
30.00440000000001
 20
-0.0000000000000037
 30
0.0
 11
24.00440000000001
 21
-0.0000000000000029
 31
0.0
  0
LINE
  5
95
330
1E
100
AcDbEntity
  8
1
100
AcDbLine
 10
27.50000000000001
 20
-0.2999999999999579
 30
0.0
 11
24.72073179860001
 21
-0.2999999999999576
 31
0.0
  0
LINE
  5
96
330
1E
100
AcDbEntity
  8
1
100
AcDbLine
 10
27.91505900430002
 20
-1.000000000000001
 30
0.0
 11
26.02460410290002
 21
-1.000000000000001
 31
0.0
  0
LINE
  5
97
330
1E
100
AcDbEntity
  8
1
100
AcDbLine
 10
29.55767198090001
 20
-1.934991636799965
 30
0.0
 11
29.24926125659998
 21
-1.934991636799965
 31
0.0
  0
LINE
  5
98
330
1E
100
AcDbEntity
  8
SK1
100
AcDbLine
 10
-0.4537384897999753
 20
-5.10362966949998
 30
0.0
 11
-1.0
 21
-5.25
 31
0.0
  0
LINE
  5
99
330
1E
100
AcDbEntity
  8
1
100
AcDbLine
 10
0.000000000000001
 20
8.5
 30
0.0
 11
-0.000000000000001
 21
-8.499999316799971
 31
0.0
  0
LINE
  5
9A
330
1E
100
AcDbEntity
  8
SK1
100
AcDbLine
 10
-6.799999999999982
 20
-3.974999999999963
 30
0.0
 11
-8.299999999999982
 21
-3.974999999999963
 31
0.0
  0
LINE
  5
9B
330
1E
100
AcDbEntity
  8
1
100
AcDbLine
 10
15.0
 20
-4.0
 30
0.0
 11
6.500000000000013
 21
-4.0
 31
0.0
  0
LINE
  5
9C
330
1E
100
AcDbEntity
  8
SK1
100
AcDbLine
 10
-18.75
 20
-4.249999999999997
 30
0.0
 11
-8.906370849899984
 21
-4.249999999999999
 31
0.0
  0
LINE
  5
9D
330
1E
100
AcDbEntity
  8
SK1
100
AcDbLine
 10
-9.656370849899984
 20
-4.999999999999999
 30
0.0
 11
-18.0
 21
-4.999999999999998
 31
0.0
  0
LINE
  5
9E
330
1E
100
AcDbEntity
  8
SK1
100
AcDbLine
 10
-0.2999999999999835
 20
-5.089999999999974
 30
0.0
 11
-0.350210871799988
 21
-5.089999999999974
 31
0.0
  0
LINE
  5
9F
330
1E
100
AcDbEntity
  8
SK1
100
AcDbLine
 10
-1.0
 20
-5.25
 30
0.0
 11
-5.599999999999995
 21
-5.249999999999999
 31
0.0
  0
LINE
  5
A0
330
1E
100
AcDbEntity
  8
SK1
100
AcDbLine
 10
-0.9999999999999992
 20
5.25
 30
0.0
 11
-1.0
 21
-5.25
 31
0.0
  0
LINE
  5
A1
330
1E
100
AcDbEntity
  8
SK1
100
AcDbLine
 10
-8.865685424999981
 20
-4.209314575099994
 30
0.0
 11
-9.656370849899984
 21
-4.999999999999999
 31
0.0
  0
LINE
  5
A2
330
1E
100
AcDbEntity
  8
SK4
100
AcDbLine
 10
24.27556852189001
 20
-7.002878999999952
 30
0.0
 11
30.461178274892
 21
-7.002878999999952
 31
0.0
  0
LINE
  5
A3
330
1E
100
AcDbEntity
  8
1
100
AcDbLine
 10
24.72623659980001
 20
-7.080461080399972
 30
0.0
 11
24.00440000000001
 21
-7.080461080399972
 31
0.0
  0
LINE
  5
A4
330
1E
100
AcDbEntity
  8
SK1
100
AcDbLine
 10
-8.865685424999981
 20
4.209314575000006
 30
0.0
 11
-9.656370849899984
 21
5.0
 31
0.0
  0
LINE
  5
A5
330
1E
100
AcDbEntity
  8
1
100
AcDbLine
 10
24.48176412810001
 20
-8.494704232699975
 30
0.0
 11
24.40162120120001
 21
-8.494704232699975
 31
0.0
  0
LINE
  5
A6
330
1E
100
AcDbEntity
  8
1
100
AcDbLine
 10
24.20531087870001
 20
-8.497646733099999
 30
0.0
 11
17.21211816590001
 21
-8.497646733099996
 31
0.0
  0
LINE
  5
A7
330
1E
100
AcDbEntity
  8
1
100
AcDbLine
 10
16.51035863199999
 20
-8.500000000000001
 30
0.0
 11
6.500000000000013
 21
-8.5
 31
0.0
  0
LINE
  5
A8
330
1E
100
AcDbEntity
  8
1
100
AcDbLine
 10
6.000000000000013
 20
-9.0
 30
0.0
 11
0.499999999999999
 21
-9.0
 31
0.0
  0
LINE
  5
A9
330
1E
100
AcDbEntity
  8
SK1
100
AcDbLine
 10
-5.599999999999991
 20
5.25
 30
0.0
 11
-5.599999999999995
 21
-5.249999999999999
 31
0.0
  0
LINE
  5
AA
330
1E
100
AcDbEntity
  8
SK1
100
AcDbLine
 10
-5.599999999999991
 20
5.25
 30
0.0
 11
-5.999999999999999
 21
5.019059892300049
 31
0.0
  0
LINE
  5
AB
330
1E
100
AcDbEntity
  8
SK1
100
AcDbLine
 10
-5.599999999999995
 20
-5.249999999999999
 30
0.0
 11
-6.0
 21
-5.019059892299991
 31
0.0
  0
LINE
  5
AC
330
1E
100
AcDbEntity
  8
SK1
100
AcDbLine
 10
-5.999999999999999
 20
5.019059892300049
 30
0.0
 11
-6.0
 21
-5.019059892299991
 31
0.0
  0
LINE
  5
AD
330
1E
100
AcDbEntity
  8
SK1
100
AcDbLine
 10
-8.906371116699999
 20
4.25
 30
0.0
 11
-8.906371116699999
 21
-4.249999999999999
 31
0.0
  0
LINE
  5
AE
330
1E
100
AcDbEntity
  8
SK1
100
AcDbLine
 10
-9.656370849899984
 20
5.0
 30
0.0
 11
-9.656370849899984
 21
-4.999999999999999
 31
0.0
  0
LINE
  5
AF
330
1E
100
AcDbEntity
  8
SK1
100
AcDbLine
 10
-18.0
 20
5.0
 30
0.0
 11
-19.5
 21
3.500000000000001
 31
0.0
  0
LINE
  5
B0
330
1E
100
AcDbEntity
  8
SK1
100
AcDbLine
 10
-18.0
 20
-4.999999999999998
 30
0.0
 11
-19.5
 21
-3.499999999999996
 31
0.0
  0
LINE
  5
B1
330
1E
100
AcDbEntity
  8
SK1
100
AcDbLine
 10
-18.0
 20
5.0
 30
0.0
 11
-18.0
 21
-4.999999999999998
 31
0.0
  0
LINE
  5
B2
330
1E
100
AcDbEntity
  8
SK1
100
AcDbLine
 10
-18.75
 20
4.25
 30
0.0
 11
-18.75
 21
-4.249999999999997
 31
0.0
  0
LINE
  5
B3
330
1E
100
AcDbEntity
  8
SK1
100
AcDbLine
 10
-19.5
 20
3.500000000000001
 30
0.0
 11
-19.5
 21
-3.499999999999996
 31
0.0
  0
ARC
  5
B4
330
1E
100
AcDbEntity
  8
1
100
AcDbCircle
 10
27.0000013814405
 20
6.999999999999992
 30
0.0
 40
3.0
100
AcDbArc
 50
302.9597085215326
 51
229.7643627206475
  0
CIRCLE
  5
B5
330
1E
100
AcDbEntity
  8
1
100
AcDbCircle
 10
27.00440000000002
 20
7.002879000000002
 30
0.0
 40
1.9
  0
ARC
  5
B7
330
1E
100
AcDbEntity
  8
1
100
AcDbCircle
 10
27.00440000000002
 20
-7.002878999999952
 30
0.0
 40
2.553271980999999
100
AcDbArc
 50
209.8313436305998
 51
12.1991567395
  0
ARC
  5
B8
330
1E
100
AcDbEntity
  8
1
100
AcDbCircle
 10
27.00440000000002
 20
-7.002878999999952
 30
0.0
 40
2.488263617699999
100
AcDbArc
 50
211.2112349521999
 51
359.8139950354
  0
ARC
  5
B9
330
1E
100
AcDbEntity
  8
1
100
AcDbCircle
 10
24.00440000000001
 20
14.70287900000001
 30
0.0
 40
10.0
100
AcDbArc
 50
218.4922074357
 51
270.0
  0
ARC
  5
BA
330
1E
100
AcDbEntity
  8
1
100
AcDbCircle
 10
27.50440000000001
 20
1.702878999999991
 30
0.0
 40
3.0
100
AcDbArc
 50
48.30230365769999
 51
82.13228833409997
  0
ARC
  5
BB
330
1E
100
AcDbEntity
  8
1
100
AcDbCircle
 10
27.00440000000002
 20
7.002879000000002
 30
0.0
 40
3.2
100
AcDbArc
 50
216.1414496506
 51
224.4676308372999
  0
ARC
  5
BC
330
1E
100
AcDbEntity
  8
1
100
AcDbCircle
 10
0.499999999999999
 20
-8.5
 30
0.0
 40
0.5
100
AcDbArc
 50
180.0
 51
270.0
  0
ARC
  5
BD
330
1E
100
AcDbEntity
  8
1
100
AcDbCircle
 10
0.500000000000001
 20
8.5
 30
0.0
 40
0.5
100
AcDbArc
 50
90.0
 51
180.0
  0
ARC
  5
BE
330
1E
100
AcDbEntity
  8
SK1
100
AcDbCircle
 10
-0.2999999999999836
 20
-5.489999999999952
 30
0.0
 40
0.4
100
AcDbArc
 50
41.39990273140003
 51
90.0
  0
ARC
  5
BF
330
1E
100
AcDbEntity
  8
SK1
100
AcDbCircle
 10
-0.3502108717999881
 20
-5.489999999999952
 30
0.0
 40
0.4
100
AcDbArc
 50
90.0
 51
104.9999999999997
  0
ARC
  5
C0
330
1E
100
AcDbEntity
  8
1
100
AcDbCircle
 10
27.00440000000002
 20
7.002879000000002
 30
0.0
 40
2.5
100
AcDbArc
 50
246.9260819343999
 51
291.3622705272
  0
ARC
  5
C1
330
1E
100
AcDbEntity
  8
SK1
100
AcDbCircle
 10
-6.799999999999982
 20
-4.774999999999972
 30
0.0
 40
0.8
100
AcDbArc
 50
0.0
 51
90.0
  0
ARC
  5
C2
330
1E
100
AcDbEntity
  8
SK1
100
AcDbCircle
 10
-8.299999999999982
 20
-4.774999999999972
 30
0.0
 40
0.8
100
AcDbArc
 50
90.0
 51
134.9999999999999
  0
ARC
  5
C3
330
1E
100
AcDbEntity
  8
SK1
100
AcDbCircle
 10
-0.2999999999999822
 20
5.490000000000008
 30
0.0
 40
0.4
100
AcDbArc
 50
270.0
 51
318.6000972686
  0
ARC
  5
C4
330
1E
100
AcDbEntity
  8
SK1
100
AcDbCircle
 10
-0.3502108717999867
 20
5.490000000000008
 30
0.0
 40
0.4
100
AcDbArc
 50
255.0
 51
270.0
  0
ARC
  5
C5
330
1E
100
AcDbEntity
  8
SK1
100
AcDbCircle
 10
-6.799999999999981
 20
4.775000000000034
 30
0.0
 40
0.8
100
AcDbArc
 50
270.0
 51
0.0
  0
ARC
  5
C6
330
1E
100
AcDbEntity
  8
SK1
100
AcDbCircle
 10
-8.299999999999982
 20
4.775000000000034
 30
0.0
 40
0.8
100
AcDbArc
 50
225.0
 51
270.0
  0
ARC
  5
C7
330
1E
100
AcDbEntity
  8
1
100
AcDbCircle
 10
27.00440000000002
 20
-7.002878999999952
 30
0.0
 40
2.6536977133
100
AcDbArc
 50
209.4405673064
 51
210.9236961276999
  0
ARC
  5
C8
330
1E
100
AcDbEntity
  8
1
100
AcDbCircle
 10
27.50440000000001
 20
-1.702878999999995
 30
0.0
 40
3.0
100
AcDbArc
 50
304.3901749286998
 51
311.6975035118998
  0
ARC
  5
C9
330
1E
100
AcDbEntity
  8
1
100
AcDbCircle
 10
27.00440000000002
 20
7.002879000000002
 30
0.0
 40
3.173205080799998
100
AcDbArc
 50
151.8969206529998
 51
208.2102344791998
  0
LWPOLYLINE
  5
CA
330
1E
100
AcDbEntity
  8
1
100
AcDbPolyline
 90
        2
 70
     0
 43
0.0
 10
24.01680658290001
 20
-0.0000000000000029
 10
24.01647572980401
 20
-0.0000000000000029
  0
LWPOLYLINE
  5
CE
330
1E
100
AcDbEntity
  8
1
100
AcDbPolyline
 90
        5
 70
     0
 43
0.0
 10
24.01647483230002
 20
-0.0000000000000029
 10
24.01391636406201
 20
-0.0000000000000029
 10
24.01166153648102
 20
-0.0000000000000029
 10
24.00971705293901
 20
-0.0000000000000029
 10
24.008896013473
 20
-0.0000000000000029
  0
LWPOLYLINE
  5
D5
330
1E
100
AcDbEntity
  8
1
100
AcDbPolyline
 90
        2
 70
     0
 43
0.0
 10
24.00889546550001
 20
-0.0000000000000029
 10
24.008648433469
 20
-0.0000000000000029
  0
LWPOLYLINE
  5
D9
330
1E
100
AcDbEntity
  8
1
100
AcDbPolyline
 90
        5
 70
     0
 43
0.0
 10
24.00864790080002
 20
-0.0000000000000029
 10
24.00719418217201
 20
-0.0000000000000029
 10
24.006047247191
 20
-0.0000000000000029
 10
24.00520175801001
 20
-0.0000000000000029
 10
24.00496262316
 20
-0.0000000000000029
  0
LWPOLYLINE
  5
E0
330
1E
100
AcDbEntity
  8
1
100
AcDbPolyline
 90
        2
 70
     0
 43
0.0
 10
24.00496242950001
 20
-0.0000000000000029
 10
24.00484333155601
 20
-0.0000000000000029
  0
LWPOLYLINE
  5
E4
330
1E
100
AcDbEntity
  8
1
100
AcDbPolyline
 90
        3
 70
     0
 43
0.0
 10
24.00484315970001
 20
-0.0000000000000029
 10
24.00447806402
 20
-0.0000000000000029
 10
24.004401210218
 20
-0.0000000000000029
  0
LWPOLYLINE
  5
E9
330
1E
100
AcDbEntity
  8
1
100
AcDbPolyline
 90
        2
 70
     0
 43
0.0
 10
29.99199341710001
 20
-0.0000000000000037
 10
29.99232427019602
 20
-0.0000000000000037
  0
LWPOLYLINE
  5
ED
330
1E
100
AcDbEntity
  8
1
100
AcDbPolyline
 90
        5
 70
     0
 43
0.0
 10
29.99232516770002
 20
-0.0000000000000037
 10
29.99488363591801
 20
-0.0000000000000037
 10
29.99713846345802
 20
-0.0000000000000037
 10
29.999082946967
 20
-0.0000000000000037
 10
29.99990398642701
 20
-0.0000000000000037
  0
LWPOLYLINE
  5
F4
330
1E
100
AcDbEntity
  8
1
100
AcDbPolyline
 90
        2
 70
     0
 43
0.0
 10
29.99990453440002
 20
-0.0000000000000037
 10
30.00015156643101
 20
-0.0000000000000037
  0
LWPOLYLINE
  5
F8
330
1E
100
AcDbEntity
  8
1
100
AcDbPolyline
 90
        5
 70
     0
 43
0.0
 10
30.00015209909999
 20
-0.0000000000000037
 10
30.00160581772901
 20
-0.0000000000000037
 10
30.00275275270901
 20
-0.0000000000000037
 10
30.00359824189101
 20
-0.0000000000000037
 10
30.00383737674001
 20
-0.0000000000000037
  0
LWPOLYLINE
  5
FF
330
1E
100
AcDbEntity
  8
1
100
AcDbPolyline
 90
        2
 70
     0
 43
0.0
 10
30.00383757040002
 20
-0.0000000000000037
 10
30.00395666834402
 20
-0.0000000000000037
  0
LWPOLYLINE
  5
103
330
1E
100
AcDbEntity
  8
1
100
AcDbPolyline
 90
        3
 70
     0
 43
0.0
 10
30.00395684020002
 20
-0.0000000000000037
 10
30.00432193588001
 20
-0.0000000000000037
 10
30.00439878968201
 20
-0.0000000000000037
  0
LWPOLYLINE
  5
108
330
1E
100
AcDbEntity
  8
1
100
AcDbPolyline
 90
        5
 70
     0
 43
0.0
 10
24.20531087870001
 20
8.497646733099992
 10
24.23572908294001
 20
8.496702677639003
 10
24.28696254841401
 20
8.49561641574399
 10
24.35391049174401
 20
8.494857298031032
 10
24.39887988169797
 20
8.494712997059016
  0
LWPOLYLINE
  5
10F
330
1E
100
AcDbEntity
  8
1
100
AcDbPolyline
 90
       66
 70
     0
 43
0.0
 10
24.69338484290001
 20
1.800000000000006
 10
24.69315812014601
 20
1.80194191435299
 10
24.69295263613401
 20
1.803886503703036
 10
24.69276848597302
 20
1.805833489182017
 10
24.69260576477501
 20
1.807782591922995
 10
24.692464567651
 20
1.809733533058015
 10
24.69234498971002
 20
1.811686033719009
 10
24.69224712606501
 20
1.813639815039034
 10
24.69217107182501
 20
1.815594598150024
 10
24.69211692210202
 20
1.817550104182993
 10
24.69208477200601
 20
1.819506054273001
 10
24.69207470753301
 20
1.821462175679011
 10
24.69208678274701
 20
1.823418217134014
 10
24.692121044718
 20
1.825373932075019
 10
24.69217754051701
 20
1.827329073935
 10
24.69225631721601
 20
1.829283396149033
 10
24.69235742188601
 20
1.83123665215299
 10
24.692480901597
 20
1.833188595382005
 10
24.692626803421
 20
1.835138979269
 10
24.69279517442901
 20
1.837087557251034
 10
24.69298606146002
 20
1.839034082628014
 10
24.69319949437501
 20
1.840978298983024
 10
24.69343547482201
 20
1.842919933741025
 10
24.69369400178301
 20
1.844858712803041
 10
24.693975074239
 20
1.846794362069995
 10
24.694278691174
 20
1.848726607440988
 10
24.69460485157001
 20
1.850655174817001
 10
24.69495355440701
 20
1.852579790098043
 10
24.69532479867001
 20
1.854500179185033
 10
24.69571858334001
 20
1.856416067979008
 10
24.69613490315301
 20
1.858327182929025
 10
24.69657371969201
 20
1.860233254780036
 10
24.69703497894701
 20
1.862134016297995
 10
24.69751862682202
 20
1.864029200258011
 10
24.69802460921801
 20
1.865918539435988
 10
24.69855287203901
 20
1.867801766609995
 10
24.69910336118501
 20
1.869678614553034
 10
24.69967602255902
 20
1.87154881604402
 10
24.70027080206401
 20
1.873412103858011
 10
24.70088764479501
 20
1.875268210927
 10
24.70152647152402
 20
1.877116874898998
 10
24.70218717497302
 20
1.878957838856019
 10
24.70286964631101
 20
1.880790846182033
 10
24.70357377670401
 20
1.882615640262025
 10
24.70429945731901
 20
1.884431964480991
 10
24.70504657932301
 20
1.88623956222204
 10
24.705815033884
 20
1.888038176869993
 10
24.70660471216902
 20
1.889827551810011
 10
24.70741550531402
 20
1.891607430459994
 10
24.70830349039701
 20
1.893495224411022
 10
24.70921519138402
 20
1.895371668330024
 10
24.71015043109201
 20
1.897236500925028
 10
24.711109032337
 20
1.89908946090804
 10
24.71209081793499
 20
1.900930286989019
 10
24.71309561070202
 20
1.90275871787804
 10
24.71412323345201
 20
1.904574492284034
 10
24.71517350900202
 20
1.906377348919018
 10
24.716246259291
 20
1.908167026378004
 10
24.717410441142
 20
1.910053820443003
 10
24.71859943687901
 20
1.911925109336999
 10
24.71981292680301
 20
1.913780565844031
 10
24.721050591216
 20
1.915619862747003
 10
24.72231211042102
 20
1.917442672830016
 10
24.72367348224101
 20
1.919354373326024
 10
24.72506085992701
 20
1.921246835059998
 10
24.72623054069201
 20
1.922800954668043
  0
LWPOLYLINE
  5
153
330
1E
100
AcDbEntity
  8
1
100
AcDbPolyline
 90
        3
 70
     0
 43
0.0
 10
24.72623659980001
 20
1.515582479000042
 10
24.70344679126101
 20
1.716428228593993
 10
24.69338605679901
 20
1.799990073950986
  0
LWPOLYLINE
  5
158
330
1E
100
AcDbEntity
  8
1
100
AcDbPolyline
 90
        9
 70
     0
 43
0.0
 10
24.48176412810001
 20
0.3000000000000084
 10
24.521457578914
 20
0.464129599159034
 10
24.55780071786001
 20
0.6215613623500046
 10
24.59146423488401
 20
0.7746160019940446
 10
24.62279182044801
 20
0.9244444006150127
 10
24.65186002249601
 20
1.071013794569009
 10
24.679192372181
 20
1.216680929013019
 10
24.70481388234102
 20
1.361425204063035
 10
24.72623499615201
 20
1.48962475492203
  0
LWPOLYLINE
  5
163
330
1E
100
AcDbEntity
  8
1
100
AcDbPolyline
 90
       78
 70
     0
 43
0.0
 10
24.20531087870001
 20
0.2000000000000425
 10
24.20668913142302
 20
0.2021163890429959
 10
24.208224286001
 20
0.2044048377400115
 10
24.20979193210001
 20
0.206671641012005
 10
24.211391566942
 20
0.2089163650580273
 10
24.21302268774701
 20
0.2111385760720138
 10
24.21468479173801
 20
0.2133378402500027
 10
24.21637737613501
 20
0.2155137237900219
 10
24.21824482362501
 20
0.2178440479950124
 10
24.22014684647301
 20
0.220145992532022
 10
24.22208286778101
 20
0.2224192373830048
 10
24.22405231208301
 20
0.224663467841023
 10
24.226054603913
 20
0.2268783692020376
 10
24.22824699292701
 20
0.2292304866199939
 10
24.23047609114799
 20
0.2315478311820099
 10
24.23274117871101
 20
0.2338300128870371
 10
24.23504152055901
 20
0.2360766831520179
 10
24.237376370705
 20
0.2382875232009921
 10
24.23974498292301
 20
0.2404622149130061
 10
24.24214661098401
 20
0.2426004401680158
 10
24.24458050866201
 20
0.2447018808450109
 10
24.24704592973
 20
0.2467662188230376
 10
24.24936282638801
 20
0.2486496168229989
 10
24.25170568361802
 20
0.2505005806040087
 10
24.25407392573302
 20
0.2523189468750472
 10
24.25646697705201
 20
0.2541045523490167
 10
24.25888426188901
 20
0.2558572337380239
 10
24.26132520456301
 20
0.257576827755028
 10
24.26378922938801
 20
0.259263171113045
 10
24.26627576139702
 20
0.2609161023170229
 10
24.26878423913601
 20
0.2625354937630361
 10
24.27131411320601
 20
0.264121248061994
 10
24.273864834625
 20
0.2656732688880053
 10
24.27643585441598
 20
0.267191459914042
 10
24.27902662360101
 20
0.2686757248110295
 10
24.28163659319901
 20
0.2701259672530197
 10
24.28426521423301
 20
0.2715420909120182
 10
24.28691194226401
 20
0.2729240065769969
 10
24.28957625620701
 20
0.2742716616470459
 10
24.292257642467
 20
0.2755850152540203
 10
24.29495558745101
 20
0.2768640265400078
 10
24.29766957756501
 20
0.2781086546440262
 10
24.30039909921801
 20
0.2793188587060028
 10
24.30314363881501
 20
0.2804945978660354
 10
24.30590268277501
 20
0.2816358312720096
 10
24.308675726521
 20
0.2827425271830149
 10
24.31146229142801
 20
0.2838146800910378
 10
24.31426190351301
 20
0.2848522891850363
 10
24.31707408879201
 20
0.2858553536490232
 10
24.319898373281
 20
0.2868238726730366
 10
24.32273428299801
 20
0.2877578454410324
 10
24.32558134395901
 20
0.2886572711429919
 10
24.32843908219601
 20
0.2895221489790144
 10
24.33130703090601
 20
0.2903524849349962
 10
24.33418474174501
 20
0.2911483024700457
 10
24.33707176930001
 20
0.2919096278220051
 10
24.33996766816001
 20
0.2926364872280344
 10
24.34287199291401
 20
0.2933289069269987
 10
24.345784298151
 20
0.2939869131540119
 10
24.34870413845802
 20
0.294610532147996
 10
24.351631068424
 20
0.295199790145031
 10
24.35456465178702
 20
0.295754716085011
 10
24.35750448930601
 20
0.2962753498360341
 10
24.36045019110701
 20
0.2967617340340181
 10
24.363401367314
 20
0.297213911312039
 10
24.36635762805099
 20
0.2976319243040249
 10
24.36931858344201
 20
0.2980158156450413
 10
24.37228384361302
 20
0.2983656279690164
 10
24.37525301868801
 20
0.2986814039110156
 10
24.37822571581401
 20
0.2989631864490404
 10
24.381201505073
 20
0.2992110228450398
 10
24.38417993141502
 20
0.2994249632710049
 10
24.387160539312
 20
0.2996050579480395
 10
24.39014287323701
 20
0.2997513571020219
 10
24.393126477662
 20
0.2998639109570119
 10
24.39611089706001
 20
0.2999427697360458
 10
24.39909567590301
 20
0.2999879836640359
 10
24.40161120119701
 20
0.2999999998120271
  0
LWPOLYLINE
  5
1B3
330
1E
100
AcDbEntity
  8
1
100
AcDbPolyline
 90
      114
 70
     0
 43
0.0
 10
24.69338484290001
 20
-8.307225770399956
 10
24.693291872097
 20
-8.307057778194975
 10
24.69320153157301
 20
-8.306887845444977
 10
24.69311391990101
 20
-8.306716050826995
 10
24.69302913564901
 20
-8.306542473015952
 10
24.69294727739101
 20
-8.306367190689972
 10
24.69286844369502
 20
-8.306190282524996
 10
24.69279273313301
 20
-8.306011827196986
 10
24.69272024427601
 20
-8.305831903382001
 10
24.69265107569401
 20
-8.305650589757986
 10
24.69258532595901
 20
-8.305467965000961
 10
24.69252309364
 20
-8.305284107786977
 10
24.69246447730901
 20
-8.305099096791995
 10
24.69240957553701
 20
-8.304913010692986
 10
24.692370896183
 20
-8.304772787910966
 10
24.6923344033
 20
-8.304632037830009
 10
24.69230013847001
 20
-8.304490793642006
 10
24.69226814327901
 20
-8.304349088538971
 10
24.69223845931201
 20
-8.304206955710981
 10
24.69221112815302
 20
-8.304064428350956
 10
24.69218619138601
 20
-8.303921539650961
 10
24.69216369059701
 20
-8.303778322800955
 10
24.69214366736901
 20
-8.303634810993971
 10
24.69212616328701
 20
-8.303491037421
 10
24.69211121993601
 20
-8.303347035274956
 10
24.69209887890001
 20
-8.303202837745006
 10
24.69208918176402
 20
-8.303058478024981
 10
24.692082168023
 20
-8.302913989358959
 10
24.69207783932302
 20
-8.302769405957977
 10
24.69207616440501
 20
-8.302624762873964
 10
24.692077110912
 20
-8.302480095184991
 10
24.69208064648801
 20
-8.302335437970954
 10
24.69208673877501
 20
-8.302190826309985
 10
24.692095355417
 20
-8.302046295281972
 10
24.69210646405702
 20
-8.301901879965956
 10
24.69212003233801
 20
-8.30175761544098
 10
24.69213602790301
 20
-8.301613536786991
 10
24.69215441839601
 20
-8.301469679080982
 10
24.69217517146002
 20
-8.301326077403986
 10
24.69219825473802
 20
-8.301182766833964
 10
24.69222363587402
 20
-8.301039782451995
 10
24.69225128250903
 20
-8.300897159334002
 10
24.692281162289
 20
-8.300754932561972
 10
24.692313242855
 20
-8.300613137213987
 10
24.692359384465
 20
-8.30042480848397
 10
24.692409304364
 20
-8.300237392242994
 10
24.69246292585501
 20
-8.300050971642976
 10
24.69252017224
 20
-8.299865629832996
 10
24.69258096682101
 20
-8.299681449962976
 10
24.69264523290201
 20
-8.299498515184954
 10
24.69271289378401
 20
-8.299316908648963
 10
24.69278387277102
 20
-8.299136713504996
 10
24.69285809316302
 20
-8.298958012903995
 10
24.69293547826501
 20
-8.298780889976004
 10
24.69301595150801
 20
-8.298605405340996
 10
24.69309943670001
 20
-8.298431554204972
 10
24.693185857718
 20
-8.29825931995896
 10
24.69327513843901
 20
-8.298088685994006
 10
24.69336720273901
 20
-8.297919635700001
 10
24.69346197449501
 20
-8.297752152466959
 10
24.69355937758301
 20
-8.297586219686994
 10
24.69368471578501
 20
-8.297380958730972
 10
24.69381389782201
 20
-8.297178061963965
 10
24.693946775015
 20
-8.296977496946002
 10
24.69408319868601
 20
-8.29677923123495
 10
24.69422302015602
 20
-8.296583232390959
 10
24.69436609074601
 20
-8.296389467974965
 10
24.69451226177801
 20
-8.296197905545003
 10
24.69469155026101
 20
-8.295970891575965
 10
24.69487483236501
 20
-8.295746945695956
 10
24.69506185117501
 20
-8.295526011849009
 10
24.69528441981299
 20
-8.295271987781976
 10
24.69551131685602
 20
-8.295021898109954
 10
24.69577540450099
 20
-8.294740784777959
 10
24.69604404870402
 20
-8.294464561785959
 10
24.696316974828
 20
-8.294193101323971
 10
24.69659402280302
 20
-8.293926277316987
 10
24.69687503284402
 20
-8.293663963694999
 10
24.697195706097
 20
-8.293374095216965
 10
24.69752096410701
 20
-8.293089596134963
 10
24.69785057936901
 20
-8.292810286944986
 10
24.698184324375
 20
-8.292535988145003
 10
24.69855971897802
 20
-8.292236869759964
 10
24.69893961908001
 20
-8.291943469201955
 10
24.69932371260302
 20
-8.291655540239961
 10
24.699750686412
 20
-8.29134484419899
 10
24.70018194126601
 20
-8.291040143114972
 10
24.70065679553401
 20
-8.290714194056992
 10
24.70117587507601
 20
-8.290368256229955
 10
24.701699520766
 20
-8.290029503369
 10
24.702227512395
 20
-8.289697691584994
 10
24.70280072643301
 20
-8.289347838582957
 10
24.70337845030701
 20
-8.289005448129959
 10
24.70400213223602
 20
-8.288646536288982
 10
24.70467237013201
 20
-8.288272331847
 10
24.705347343757
 20
-8.287906595583994
 10
24.706069232978
 20
-8.287526770825994
 10
24.70683836100501
 20
-8.287133857671962
 10
24.70769801768601
 20
-8.286707685312991
 10
24.70856248947701
 20
-8.286291824464003
 10
24.70947507531001
 20
-8.285865816338972
 10
24.710436178537
 20
-8.285430722646996
 10
24.71144614735701
 20
-8.284987537510009
 10
24.71250526443601
 20
-8.284537170975001
 10
24.71365817900502
 20
-8.284062414419967
 10
24.71490560207802
 20
-8.283565439644977
 10
24.716248063743
 20
-8.283048210868006
 10
24.71768605648501
 20
-8.282512684252994
 10
24.71917502711701
 20
-8.281977068950995
 10
24.72076041587301
 20
-8.281426524623954
 10
24.72244269595501
 20
-8.280863043102957
 10
24.72426789739301
 20
-8.28027392957796
 10
24.72623659980001
 20
-8.279662184899967
 10
24.72622703458201
 20
-8.279665101524985
  0
LWPOLYLINE
  5
227
330
1E
100
AcDbEntity
  8
1
100
AcDbPolyline
 90
       56
 70
     0
 43
0.0
 10
24.48176412810001
 20
-8.494704232699975
 10
24.48704290378501
 20
-8.493921299432999
 10
24.49231337214101
 20
-8.493080684925987
 10
24.49757461486202
 20
-8.492181778173975
 10
24.50282571363902
 20
-8.491223968170007
 10
24.50779024941902
 20
-8.490261680914956
 10
24.51274407594201
 20
-8.489245459681004
 10
24.51768641239902
 20
-8.48817478494897
 10
24.52261647713802
 20
-8.487049152238002
 10
24.52753348509498
 20
-8.485868117998965
 10
24.53243665034502
 20
-8.484631254112006
 10
24.53732518696002
 20
-8.483338132453983
 10
24.54192799777001
 20
-8.48206480862399
 10
24.54651639709001
 20
-8.480740561720951
 10
24.55108972283901
 20
-8.479365031087983
 10
24.55564730501501
 20
-8.477937868149981
 10
24.56018840726502
 20
-8.476458825530981
 10
24.56471226014702
 20
-8.47492770632596
 10
24.56921809397802
 20
-8.473344313999975
 10
24.57370513907202
 20
-8.471708452019985
 10
24.57817262574402
 20
-8.470019923851966
 10
24.58261978431001
 20
-8.468278532959974
 10
24.58704584494602
 20
-8.466484085736002
 10
24.591450033297
 20
-8.464636483760957
 10
24.59583156958201
 20
-8.462735742525982
 10
24.60018967370601
 20
-8.460781884223994
 10
24.60452356557002
 20
-8.458774931049957
 10
24.60883246507702
 20
-8.456714905196976
 10
24.61311559213001
 20
-8.454601828858985
 10
24.61737216670501
 20
-8.452435724521992
 10
24.62160142670801
 20
-8.45021668438699
 10
24.62580265109901
 20
-8.447944960289991
 10
24.629975124557
 20
-8.445620826310975
 10
24.63411813176402
 20
-8.443244556534976
 10
24.638230957399
 20
-8.440816425045003
 10
24.64231288614302
 20
-8.438336705921985
 10
24.64636320267601
 20
-8.435805673250003
 10
24.65038121505803
 20
-8.433223641540966
 10
24.65459971049702
 20
-8.430434676034964
 10
24.65878064728701
 20
-8.42758970180097
 10
24.66292334975502
 20
-8.424689344113975
 10
24.66702714222901
 20
-8.421734228246979
 10
24.67109134903402
 20
-8.418724979474976
 10
24.67533765317801
 20
-8.415490513755004
 10
24.67953839236999
 20
-8.412197223867966
 10
24.68369308184601
 20
-8.408846049436991
 10
24.68780127094901
 20
-8.405437952564003
 10
24.69207494927101
 20
-8.401790044633973
 10
24.69629607866702
 20
-8.398081252933994
 10
24.70046413351102
 20
-8.394312699610967
 10
24.70478291956901
 20
-8.390292662969956
 10
24.70904223101901
 20
-8.386209593096968
 10
24.71344021853501
 20
-8.381866324513966
 10
24.71777219416701
 20
-8.37745767261396
 10
24.72203778042
 20
-8.372985579780962
 10
24.72622985837801
 20
-8.368459374417968
  0
LWPOLYLINE
  5
261
330
1E
100
AcDbEntity
  8
1
100
AcDbPolyline
 90
        5
 70
     0
 43
0.0
 10
24.20531087870001
 20
-8.497646733099999
 10
24.23572908294202
 20
-8.496702677688007
 10
24.28696254841401
 20
-8.495616415703981
 10
24.35391049174401
 20
-8.494857297995967
 10
24.40161120120001
 20
-8.494704232705997
  0
LWPOLYLINE
  5
268
330
1E
100
AcDbEntity
  8
1
100
AcDbPolyline
 90
       13
 70
     0
 43
0.0
 10
29.49898371630002
 20
1.994050939000026
 10
29.49897527527399
 20
1.993996581114
 10
29.49896615552501
 20
1.993941597398015
 10
29.49895621844202
 20
1.99388529305599
 10
29.49894556719801
 20
1.993828382675014
 10
29.49893405003301
 20
1.993770175243009
 10
29.49892163658902
 20
1.993710685200024
 10
29.498908297434
 20
1.993649928122004
 10
29.498894004179
 20
1.993587920774014
 10
29.49887872960201
 20
1.99352468117001
 10
29.49886226907401
 20
1.99345953659502
 10
29.49884476240701
 20
1.993393204018043
 10
29.49883631965601
 20
1.99336218157202
  0
LWPOLYLINE
  5
277
330
1E
100
AcDbEntity
  8
1
100
AcDbPolyline
 90
       50
 70
     0
 43
0.0
 10
29.49904468240001
 20
-1.993687017199991
 10
29.49910981492802
 20
-1.992204831962968
 10
29.49859549982901
 20
-1.991022399511965
 10
29.49758638478101
 20
-1.990151064184999
 10
29.49619193379101
 20
-1.989526767706993
 10
29.49452161086601
 20
-1.989085451797961
 10
29.49268488001401
 20
-1.988763058183964
 10
29.48985721947501
 20
-1.98836232067299
 10
29.488060677995
 20
-1.988069949853979
 10
29.48635634213001
 20
-1.987743462519009
 10
29.48473462247601
 20
-1.987386846506981
 10
29.48318592963201
 20
-1.987004089658003
 10
29.48170067419301
 20
-1.986599179812969
 10
29.48026926675801
 20
-1.986176104811988
 10
29.47888211792201
 20
-1.985738852493969
 10
29.47686340272401
 20
-1.985065114951965
 10
29.47423718646601
 20
-1.984154397463956
 10
29.47095164893801
 20
-1.983040934006001
 10
29.46892650263301
 20
-1.982407832278965
 10
29.46685272692701
 20
-1.981803850565998
 10
29.46473536190401
 20
-1.98122623805199
 10
29.46257944894901
 20
-1.980672243355004
 10
29.45965364840501
 20
-1.979965567110983
 10
29.456680230628
 20
-1.979289464960005
 10
29.45215696217601
 20
-1.978318371732999
 10
29.43775369877801
 20
-1.975354563998964
 10
29.431045913919
 20
-1.973921494149978
 10
29.41999881612801
 20
-1.971496775944958
 10
29.38250017675601
 20
-1.963366818040984
 10
29.21916589170001
 20
-1.928385619241965
 10
29.14178925023701
 20
-1.910846403015969
 10
29.08150891780602
 20
-1.896515385277951
 10
29.03311420050501
 20
-1.884472327065965
 10
28.99289360901801
 20
-1.874010482942995
 10
28.959350554147
 20
-1.864899352127965
 10
28.93172379726001
 20
-1.857074420824974
 10
28.90780747723201
 20
-1.850018366830965
 10
28.88758221567901
 20
-1.843807336772955
 10
28.87030636393701
 20
-1.838291695809004
 10
28.85524467020001
 20
-1.833297267420959
 10
28.84167017513601
 20
-1.828622091267961
 10
28.83028510160402
 20
-1.824553402290975
 10
28.819657368974
 20
-1.820613602891003
 10
28.81048829133002
 20
-1.817088719629967
 10
28.802065078939
 20
-1.813731130644955
 10
28.79438328237501
 20
-1.810554937018994
 10
28.78743741604801
 20
-1.807576601477991
 10
28.781223071443
 20
-1.804811887283963
 10
28.77573370230301
 20
-1.802279365333961
 10
28.77096964217101
 20
-1.800004368236958
  0
LWPOLYLINE
  5
2AB
330
1E
100
AcDbEntity
  8
1
100
AcDbPolyline
 90
      117
 70
     0
 43
0.0
 10
27.50000000000001
 20
-0.7332229010999675
 10
27.50001980331102
 20
-0.7366144781430001
 10
27.50007936518301
 20
-0.7400063119359892
 10
27.50017891352101
 20
-0.7433978034050063
 10
27.50031867623301
 20
-0.7467883534779995
 10
27.50049888122501
 20
-0.7501773630839958
 10
27.500719756402
 20
-0.7535642331499765
 10
27.50098152967301
 20
-0.7569483646040033
 10
27.50128442894402
 20
-0.7603291583730007
 10
27.50162868212001
 20
-0.7637060153859955
 10
27.50201451710902
 20
-0.7670783365690034
 10
27.50244216155201
 20
-0.7704455229289841
 10
27.50291180867602
 20
-0.7738069855919924
 10
27.50342358348602
 20
-0.7771621557489575
 10
27.503977602952
 20
-0.7805104669510036
 10
27.50457398404603
 20
-0.7838513527530076
 10
27.505212843738
 20
-0.7871842467049567
 10
27.50589429900101
 20
-0.790508582361955
 10
27.50661846680602
 20
-0.7938237932739903
 10
27.50738546412302
 20
-0.7971293129959954
 10
27.50819540792301
 20
-0.8004245750789809
 10
27.509048415174
 20
-0.803709013073959
 10
27.50994457416101
 20
-0.8069820451609675
 10
27.51088387730701
 20
-0.8102430381469536
 10
27.51186629702701
 20
-0.8134913481179671
 10
27.51289180573602
 20
-0.8167263311589781
 10
27.51396037584902
 20
-0.8199473433559807
 10
27.51507197978002
 20
-0.8231537407929781
 10
27.51622658994601
 20
-0.8263448795579538
 10
27.51742417876101
 20
-0.8295201157340022
 10
27.51866471864099
 20
-0.8326788054070027
 10
27.51994818034901
 20
-0.8358203048189841
 10
27.521274469533
 20
-0.83894397633799
 10
27.52264340667501
 20
-0.8420491903489764
 10
27.524054806514
 20
-0.845135317776968
 10
27.52550848378402
 20
-0.8482017295479556
 10
27.52700425322101
 20
-0.8512477965859975
 10
27.52854192956101
 20
-0.8542728898169716
 10
27.53012132754101
 20
-0.8572763801659593
 10
27.53174226189502
 20
-0.8602576385579856
 10
27.53340454720802
 20
-0.8632160359709962
 10
27.535107957016
 20
-0.8661509574159856
 10
27.53685216863202
 20
-0.8690618207999738
 10
27.53863684560001
 20
-0.8719480487390034
 10
27.54046165146201
 20
-0.8748090638499695
 10
27.54232624976201
 20
-0.8776442887459586
 10
27.54423030404101
 20
-0.8804531460459688
 10
27.546173477844
 20
-0.8832350583629738
 10
27.54840588949901
 20
-0.8863317831359754
 10
27.55068690332201
 20
-0.889392855566999
 10
27.55301595100501
 20
-0.8924175218469972
 10
27.55539237685501
 20
-0.895405095022969
 10
27.55781552123901
 20
-0.898354891157968
 10
27.56028472452701
 20
-0.9012662263119782
 10
27.56279932708701
 20
-0.9041384165460076
 10
27.56535866928901
 20
-0.9069707779219728
 10
27.56796209150202
 20
-0.909762626499006
 10
27.570608922526
 20
-0.9125132946579729
 10
27.57359984222202
 20
-0.9155206220419843
 10
27.57664234849702
 20
-0.9184757293549555
 10
27.57942382037001
 20
-0.9210901033029616
 10
27.58224541957202
 20
-0.9236611092810028
 10
27.58510636083001
 20
-0.9261882405839999
 10
27.58800585887101
 20
-0.9286709905059671
 10
27.59094312654801
 20
-0.9311088576849929
 10
27.59391734246002
 20
-0.9335014384479936
 10
27.59692765524901
 20
-0.9358484145689692
 10
27.599973212543
 20
-0.9381494707049601
 10
27.60305316197201
 20
-0.9404042915109616
 10
27.60616665116501
 20
-0.9426125616429915
 10
27.60931282775199
 20
-0.9447739657579775
 10
27.61249083935601
 20
-0.9468881886350036
 10
27.61569983149101
 20
-0.9489549628689848
 10
27.61893894436801
 20
-0.9509741410140041
 10
27.622207317382
 20
-0.9529455941419687
 10
27.62550408993002
 20
-0.9548691933220004
 10
27.62882840140699
 20
-0.9567448096229927
 10
27.632179391206
 20
-0.9585723141139542
 10
27.63555619872402
 20
-0.9603515778669621
 10
27.63895796696101
 20
-0.9620824876659559
 10
27.64238386287201
 20
-0.9637650347579583
 10
27.64583306318402
 20
-0.965399252987996
 10
27.64930474465101
 20
-0.9669851763270036
 10
27.652798084028
 20
-0.9685228387469951
 10
27.65631225807101
 20
-0.9700122742189623
 10
27.659846443534
 20
-0.9714535167139532
 10
27.663399818704
 20
-0.9728466029719728
 10
27.66697159681001
 20
-0.9741916328819716
 10
27.67056102585701
 20
-0.9754887691850091
 10
27.674167355353
 20
-0.9767381773319844
 10
27.677789834804
 20
-0.9779400227749908
 10
27.68142771371702
 20
-0.9790944709649842
 10
27.68508024159601
 20
-0.9802016873549666
 10
27.68874666795602
 20
-0.9812618374019768
 10
27.69242626005301
 20
-0.9822751067359863
 10
27.69611834139801
 20
-0.9832417449270028
 10
27.69982224662502
 20
-0.9841620141919554
 10
27.703537310368
 20
-0.9850361767459535
 10
27.70726286726201
 20
-0.9858644948039943
 10
27.71099825194101
 20
-0.9866472305830063
 10
27.71474279903801
 20
-0.9873846462959964
 10
27.71849584643401
 20
-0.98807700575799
 10
27.72225679565901
 20
-0.9887246041009836
 10
27.72602510634401
 20
-0.9893277650489867
 10
27.72980024025001
 20
-0.9898868133739744
 10
27.73358165913601
 20
-0.9904020738479776
 10
27.73736882476501
 20
-0.9908738712420047
 10
27.74116119889602
 20
-0.9913025303270078
 10
27.74538040202001
 20
-0.991728618899973
 10
27.74960463265901
 20
-0.992102302342008
 10
27.75383315299301
 20
-0.9924240596059835
 10
27.75806522533301
 20
-0.9926943783219746
 10
27.76230011199001
 20
-0.9929137461250011
 10
27.76653707527501
 20
-0.9930826506459911
 10
27.77077537749899
 20
-0.9932015795199648
 10
27.77501428097201
 20
-0.993271020377964
 10
27.775852069242
 20
-0.9932789300349927
  0
LWPOLYLINE
  5
322
330
1E
100
AcDbEntity
  8
1
100
AcDbPolyline
 90
        2
 70
     0
 43
0.0
 10
16.50954249470001
 20
-8.500000106100001
 10
17.21210816590001
 20
-8.497646733100966
  0
LWPOLYLINE
  5
326
330
1E
100
AcDbEntity
  8
1
100
AcDbPolyline
 90
        2
 70
     0
 43
0.0
 10
16.50954249470001
 20
8.500000106099996
 10
17.21210816590001
 20
8.497646733101019
  0
LWPOLYLINE
  5
32A
330
1E
100
AcDbEntity
  8
1
100
AcDbPolyline
 90
       15
 70
     0
 43
0.0
 10
24.72073179860001
 20
4.761259151300006
 10
24.745091402628
 20
4.755912920594025
 10
24.76950639113602
 20
4.750820180922
 10
24.79397346450002
 20
4.74598076105303
 10
24.81848932309601
 20
4.74139448975404
 10
24.84305078463201
 20
4.737061261803996
 10
24.86765528796901
 20
4.732981321442021
 10
24.89230047674801
 20
4.729155028115028
 10
24.916983994735
 20
4.725582741341038
 10
24.94170344525401
 20
4.722264877024028
 10
24.96613436157001
 20
4.719240550329001
 10
24.99059462500001
 20
4.716466306075002
 10
25.015081307422
 20
4.713943413561021
 10
25.03926889203701
 20
4.711701374615011
 10
25.04054954373402
 20
4.711589602155012
  0
LWPOLYLINE
  5
33B
330
1E
100
AcDbEntity
  8
1
100
AcDbPolyline
 90
       10
 70
     0
 43
0.0
 10
25.04055950610001
 20
4.711588735400025
 10
25.064602104322
 20
4.709620383788031
 10
25.08826987146601
 20
4.707924642118027
 10
25.11175688580101
 20
4.706480540091032
 10
25.13506036779002
 20
4.705284180580004
 10
25.15817756290902
 20
4.704331849819991
 10
25.18090779499301
 20
4.703625786877005
 10
25.203445737242
 20
4.703154039235012
 10
25.22559093459301
 20
4.70291479936804
 10
25.2380378267
 20
4.702879000023011
  0
LWPOLYLINE
  5
347
330
1E
100
AcDbEntity
  8
1
100
AcDbPolyline
 90
        2
 70
     0
 43
0.0
 10
24.72623659980001
 20
1.489634625499998
 10
24.727917329716
 20
1.499990128907992
  0
LWPOLYLINE
  5
34B
330
1E
100
AcDbEntity
  8
1
100
AcDbPolyline
 90
        2
 70
     0
 43
0.0
 10
24.72791893020001
 20
1.499999999999995
 10
24.72623767599602
 20
1.515572537079033
  0
LWPOLYLINE
  5
34F
330
1E
100
AcDbEntity
  8
1
100
AcDbPolyline
 90
        2
 70
     0
 43
0.0
 10
24.72623659980001
 20
-8.368451988399957
 10
24.72791220837101
 20
-8.366611263452002
  0
LWPOLYLINE
  5
353
330
1E
100
AcDbEntity
  8
1
100
AcDbPolyline
 90
       73
 70
     0
 43
0.0
 10
24.72623659980001
 20
1.922808910000011
 10
24.727652844203
 20
1.924640504417023
 10
24.72909577242401
 20
1.926451740346004
 10
24.73056495311498
 20
1.92824223599501
 10
24.73221085866402
 20
1.930187370514995
 10
24.73388743364601
 20
1.932106439160004
 10
24.73559410393801
 20
1.933998933764024
 10
24.737330295415
 20
1.935864346159003
 10
24.73909543396902
 20
1.93770217505499
 10
24.74088894585401
 20
1.93951205983603
 10
24.74271025765701
 20
1.941293771526996
 10
24.74455879597901
 20
1.943047086213023
 10
24.74643398741902
 20
1.944771779981005
 10
24.74833525857901
 20
1.946467628914998
 10
24.75026203605902
 20
1.948134409101039
 10
24.75221374608699
 20
1.94977189755104
 10
24.75418979306799
 20
1.951379925618023
 10
24.75618954784501
 20
1.952958408215004
 10
24.75821237840501
 20
1.954507267362995
 10
24.76025765273802
 20
1.956026425085035
 10
24.76232473883002
 20
1.957515803401004
 10
24.76441300467101
 20
1.958975324335024
 10
24.76652181825001
 20
1.960404909914013
 10
24.76865055350801
 20
1.961804516848014
 10
24.77079860403601
 20
1.963174216332044
 10
24.77296536747501
 20
1.964514103151028
 10
24.77515024146402
 20
1.965824272092044
 10
24.77735262364301
 20
1.967104817941043
 10
24.77957191165201
 20
1.968355835486018
 10
24.781807503132
 20
1.969577419511034
 10
24.78405879879301
 20
1.970769670755995
 10
24.78632523676101
 20
1.971932762465991
 10
24.78860628013701
 20
1.973066916289035
 10
24.79090139247801
 20
1.974172354759043
 10
24.79321003734201
 20
1.975249300407991
 10
24.79553167828501
 20
1.976297975768994
 10
24.79807856912001
 20
1.977410004594044
 10
24.80063959162801
 20
1.978488943295014
 10
24.803214082424
 20
1.979535112033994
 10
24.80580145532802
 20
1.980548903943993
 10
24.808401135207
 20
1.981530722600036
 10
24.81101254692501
 20
1.98248097157801
 10
24.81363511534901
 20
1.983400054451004
 10
24.81626826534501
 20
1.984288374794001
 10
24.81913211846401
 20
1.985216475245005
 10
24.82200700716301
 20
1.986109470108995
 10
24.824892335018
 20
1.986967936029025
 10
24.82778753923101
 20
1.987792465500995
 10
24.83069205700701
 20
1.988583651018014
 10
24.83382976945601
 20
1.989399086580018
 10
24.83697692781601
 20
1.990177278216033
 10
24.84013282917301
 20
1.99091896594103
 10
24.84329680813701
 20
1.991624896306003
 10
24.84669514518901
 20
1.992342445190043
 10
24.85010152525701
 20
1.993020782767014
 10
24.85351532975701
 20
1.993660862093005
 10
24.85716420763101
 20
1.994302518105024
 10
24.86082007831601
 20
1.994902885753043
 10
24.864482203041
 20
1.995463121365043
 10
24.86837939972601
 20
1.996015687798031
 10
24.87228238529302
 20
1.996525628903039
 10
24.87642060367702
 20
1.997020638961993
 10
24.88079425294101
 20
1.997494792009995
 10
24.88517276171001
 20
1.997921171984041
 10
24.88978611014001
 20
1.998320490197041
 10
24.89463428786502
 20
1.998687496347026
 10
24.89971720228501
 20
1.999017256271993
 10
24.90503458934302
 20
1.999305247583033
 10
24.91081734731201
 20
1.99955630397704
 10
24.916833706976
 20
1.999753367689034
 10
24.92331465852201
 20
1.999897927428033
 10
24.930491184436
 20
1.99998308396999
 10
24.93557436119901
 20
1.999999999937013
  0
LWPOLYLINE
  5
39E
330
1E
100
AcDbEntity
  8
1
100
AcDbPolyline
 90
       27
 70
     0
 43
0.0
 10
24.93558436120002
 20
-8.322210012700001
 10
24.93976572870002
 20
-8.324887978641985
 10
24.94391394714601
 20
-8.327618168645987
 10
24.94802830529501
 20
-8.330400022639992
 10
24.95222414218101
 20
-8.33331466755698
 10
24.956382629829
 20
-8.336282768868956
 10
24.96050299427501
 20
-8.339303717112956
 10
24.96469727294501
 20
-8.342463008892995
 10
24.96884966962301
 20
-8.345676828305958
 10
24.97307002643001
 20
-8.349033613841985
 10
24.97724487359802
 20
-8.352446593945957
 10
24.98148157273002
 20
-8.356007123487987
 10
24.98566893023201
 20
-8.359625423719991
 10
24.98991165460101
 20
-8.363395758796006
 10
24.99410096033201
 20
-8.367225330687977
 10
24.99833879603301
 20
-8.371211282015966
 10
25.00251898353701
 20
-8.375257750775007
 10
25.00674056097901
 20
-8.379464744629956
 10
25.010900035432
 20
-8.383733376850955
 10
25.01489979333401
 20
-8.387958925330964
 10
25.01883883636401
 20
-8.39224142707599
 10
25.02262254269401
 20
-8.396473402327959
 10
25.02634695764001
 20
-8.400757582057966
 10
25.02992045457301
 20
-8.404983917362985
 10
25.03343616956701
 20
-8.409257907156987
 10
25.03680549186201
 20
-8.413467216181008
 10
25.03985303568802
 20
-8.417374720532963
  0
LWPOLYLINE
  5
3BB
330
1E
100
AcDbEntity
  8
1
100
AcDbPolyline
 90
       74
 70
     0
 43
0.0
 10
24.72623659980001
 20
-8.279662184899967
 10
24.72792156927202
 20
-8.279160766938961
 10
24.72961317615701
 20
-8.278681514649978
 10
24.731310962727
 20
-8.278223901717982
 10
24.73301447125801
 20
-8.277787401829986
 10
24.734723244022
 20
-8.277371488670953
 10
24.73665133586302
 20
-8.27692753861999
 10
24.73858485978202
 20
-8.27650822866099
 10
24.740523262037
 20
-8.27611289739497
 10
24.74246619602002
 20
-8.275741069415975
 10
24.74441334162901
 20
-8.275392293118956
 10
24.74636437876401
 20
-8.275066116902964
 10
24.74853637260701
 20
-8.274729655876003
 10
24.75071233652201
 20
-8.274419919163964
 10
24.75289183611902
 20
-8.274136295881991
 10
24.75507450381401
 20
-8.273878297227954
 10
24.75726002167101
 20
-8.273645525127964
 10
24.75944807293601
 20
-8.273437583663
 10
24.761857477363
 20
-8.273237054905965
 10
24.76426914233602
 20
-8.273065565185962
 10
24.76668264628802
 20
-8.27292258758297
 10
24.76909759631201
 20
-8.272807631084955
 10
24.77151367913101
 20
-8.272720304476994
 10
24.77393059519001
 20
-8.272660233737955
 10
24.77634804493602
 20
-8.272627044846959
 10
24.77898551951402
 20
-8.272621057928976
 10
24.78162288382601
 20
-8.272646131937964
 10
24.78425975270001
 20
-8.272701786087967
 10
24.786895789695
 20
-8.272787602216967
 10
24.78953069256901
 20
-8.272903206102004
 10
24.79216415978401
 20
-8.273048224430002
 10
24.79479588980301
 20
-8.27322228388698
 10
24.79764462055102
 20
-8.273443187430986
 10
24.800490575261
 20
-8.273697261226008
 10
24.80333338908101
 20
-8.273984049810966
 10
24.806172750213
 20
-8.274303152637973
 10
24.80900835630801
 20
-8.274654178935977
 10
24.81183990502001
 20
-8.275036737937968
 10
24.81488438082301
 20
-8.275483540717972
 10
24.81792342274201
 20
-8.275965972709006
 10
24.82095665521002
 20
-8.276483547639999
 10
24.82398374169202
 20
-8.277035813200999
 10
24.82700438056301
 20
-8.277622347453986
 10
24.83001827142802
 20
-8.278242729529949
 10
24.83302511389101
 20
-8.278896538563005
 10
24.83623856796401
 20
-8.279633663774976
 10
24.83944321644502
 20
-8.280408160978995
 10
24.84263869734901
 20
-8.281219518239995
 10
24.84582469992401
 20
-8.282067262695992
 10
24.849000934864
 20
-8.282950937845956
 10
24.85237782681001
 20
-8.283932613996004
 10
24.85574292525202
 20
-8.284954097997971
 10
24.85909587916501
 20
-8.286014835895972
 10
24.86243633754301
 20
-8.287114273743956
 10
24.86576396558402
 20
-8.288251870527009
 10
24.86928519034901
 20
-8.28950181488199
 10
24.872791270759
 20
-8.290793672712995
 10
24.87628187167401
 20
-8.292126848107956
 10
24.87975665795401
 20
-8.293500745155997
 10
24.88321529446001
 20
-8.294914767943968
 10
24.886859406348
 20
-8.296455043075981
 10
24.89048469130401
 20
-8.298038972379972
 10
24.894090865792
 20
-8.29966594553497
 10
24.89767765040201
 20
-8.301335355723951
 10
24.90144235646501
 20
-8.303142879355961
 10
24.90518481844601
 20
-8.304996296439984
 10
24.90890470773502
 20
-8.306894893300981
 10
24.91260169310101
 20
-8.308837957565973
 10
24.91646812088201
 20
-8.31093055865398
 10
24.92030834380502
 20
-8.313070847255008
 10
24.924121929925
 20
-8.315258015151986
 10
24.92809705485801
 20
-8.317604110943992
 10
24.93204183645801
 20
-8.320000064485954
 10
24.935575906679
 20
-8.322204672184001
  0
LWPOLYLINE
  5
407
330
1E
100
AcDbEntity
  8
1
100
AcDbPolyline
 90
       16
 70
     0
 43
0.0
 10
29.19846755800001
 20
4.178828777200005
 10
29.22905035966202
 20
4.281586399355031
 10
29.25670179121601
 20
4.378222606308038
 10
29.281855386344
 20
4.469761921860021
 10
29.30490527658401
 20
4.557241380869012
 10
29.32594080899801
 20
4.640627015347031
 10
29.345054528382
 20
4.719885629026004
 10
29.36258504333001
 20
4.796074538687032
 10
29.37859755156301
 20
4.869170417934006
 10
29.39316164212801
 20
4.939150703001012
 10
29.40634714064501
 20
5.005992035748016
 10
29.41842475808602
 20
5.070770528505016
 10
29.42943560212901
 20
5.133470972494018
 10
29.43924749149902
 20
5.192976032013
 10
29.44810303956101
 20
5.250370750195027
 10
29.45101428585033
 20
5.270105279961676
  0
LWPOLYLINE
  5
419
330
1E
100
AcDbEntity
  8
1
100
AcDbPolyline
 90
       24
 70
     0
 43
0.0
 10
28.77096064670002
 20
-1.799999999999956
 10
28.75308039635701
 20
-1.791447104645956
 10
28.73510095728202
 20
-1.783101284022964
 10
28.71646139295902
 20
-1.774706373448965
 10
28.69715872280901
 20
-1.766276317109999
 10
28.67719079870301
 20
-1.757824633415965
 10
28.65655629068401
 20
-1.749364355303955
 10
28.63525328963202
 20
-1.74090820078999
 10
28.61327941630701
 20
-1.732468488913983
 10
28.590632928355
 20
-1.724056886396001
 10
28.56672865674801
 20
-1.715478238109995
 10
28.54214606089401
 20
-1.706961510680972
 10
28.51688480098701
 20
-1.698516859436951
 10
28.49035389035901
 20
-1.689967462005998
 10
28.46314029893801
 20
-1.681521920889965
 10
28.43465098293401
 20
-1.673014035962981
 10
28.40488202838201
 20
-1.664470161650004
 10
28.37382897015601
 20
-1.65591690512497
 10
28.34148826750501
 20
-1.647379695599968
 10
28.30785766596001
 20
-1.638882325612998
 10
28.27293559616101
 20
-1.630447980124984
 10
28.23611622396102
 20
-1.621964383329955
 10
28.19800079438902
 20
-1.613602210273995
 10
28.18286245591201
 20
-1.61039456737399
  0
LWPOLYLINE
  5
433
330
1E
100
AcDbEntity
  8
1
100
AcDbPolyline
 90
      152
 70
     0
 43
0.0
 10
25.0398591377
 20
-8.417382642999999
 10
25.06357146957101
 20
-8.44769261919396
 10
25.087742546509
 20
-8.477642941000002
 10
25.11236631566701
 20
-8.507225025495987
 10
25.141054318549
 20
-8.540571209071007
 10
25.170316780648
 20
-8.573412762527995
 10
25.20014548146801
 20
-8.605739122260954
 10
25.23053242821701
 20
-8.63754035306397
 10
25.26146962660601
 20
-8.668806519989976
 10
25.29294871919101
 20
-8.699527653033955
 10
25.32496053141901
 20
-8.72969370331498
 10
25.35749577711201
 20
-8.759294611174992
 10
25.39054515652301
 20
-8.788320333341005
 10
25.41987757362401
 20
-8.813238389877998
 10
25.449589636994
 20
-8.837702421744953
 10
25.47967470276502
 20
-8.861706200436971
 10
25.51012612290702
 20
-8.885243500895004
 10
25.540937052829
 20
-8.90830826086
 10
25.57210037039301
 20
-8.930894647949971
 10
25.60360893249301
 20
-8.95299684714797
 10
25.63545559562701
 20
-8.974609043879981
 10
25.667633097935
 20
-8.99572555409998
 10
25.700133894696
 20
-9.01634100573
 10
25.73295039982101
 20
-9.036450072315007
 10
25.76607502722201
 20
-9.056047427400988
 10
25.79950012429
 20
-9.075127829140972
 10
25.833217765629
 20
-9.093686382653007
 10
25.86721995592901
 20
-9.111718281979962
 10
25.90149869987901
 20
-9.12921872116698
 10
25.93604596883301
 20
-9.146182945276001
 10
25.96586537959801
 20
-9.160293584557962
 10
25.99587074076701
 20
-9.174004361754956
 10
26.02605678789501
 20
-9.187312601608995
 10
26.05641825650801
 20
-9.200215628918956
 10
26.08694983687302
 20
-9.212710849868987
 10
26.11764608420701
 20
-9.224795913507991
 10
26.14850152864301
 20
-9.236468513991956
 10
26.17951070031701
 20
-9.247726345473953
 10
26.21066812893201
 20
-9.258567103097963
 10
26.24196829116302
 20
-9.268988603987967
 10
26.27340556013001
 20
-9.278988903447956
 10
26.30497429698401
 20
-9.288566084326992
 10
26.33666886287099
 20
-9.297718229472996
 10
26.36848361730201
 20
-9.306443426297962
 10
26.40041285929001
 20
-9.314739930740987
 10
26.43245081105201
 20
-9.32260621268597
 10
26.46459168984502
 20
-9.330040755823976
 10
26.49682971292702
 20
-9.337042043846961
 10
26.52915909427401
 20
-9.34360857336998
 10
26.56157399288201
 20
-9.349739057429989
 10
26.594068522213
 20
-9.355432388294961
 10
26.62663679435901
 20
-9.360687463638956
 10
26.65927292140901
 20
-9.365503181134956
 10
26.69197101040301
 20
-9.369878467172956
 10
26.72472512326901
 20
-9.37381250456298
 10
26.75752929821901
 20
-9.37730461092798
 10
26.79037757325402
 20
-9.380354105089001
 10
26.82326398637401
 20
-9.382960305870998
 10
26.85618257055701
 20
-9.385122586576986
 10
26.88912733280001
 20
-9.386840602175995
 10
26.92209227173602
 20
-9.388114098390987
 10
26.955071385988
 20
-9.388942820988976
 10
26.988058674183
 20
-9.389326515782956
 10
27.02104813468101
 20
-9.389265020334962
 10
27.05403376502701
 20
-9.388758454716995
 10
27.08700956260901
 20
-9.387806993207963
 10
27.11996952481602
 20
-9.386410810087003
 10
27.15290764912501
 20
-9.384570080931952
 10
27.18581794259302
 20
-9.382285119744953
 10
27.21869443021201
 20
-9.379556499752995
 10
27.251531138947
 20
-9.376384822663967
 10
27.28432209576002
 20
-9.372770690189957
 10
27.31706132856002
 20
-9.368714709840959
 10
27.349742895355
 20
-9.364217674133957
 10
27.38236088981401
 20
-9.359280594739976
 10
27.41490940767102
 20
-9.353904496026988
 10
27.447382544659
 20
-9.348090402363997
 10
27.479774400228
 20
-9.34183935351797
 10
27.51207912812901
 20
-9.335152614211946
 10
27.54429092325198
 20
-9.328031619598963
 10
27.57640398150901
 20
-9.320477809064986
 10
27.608412498811
 20
-9.312492621992992
 10
27.64031068136302
 20
-9.304077528755957
 10
27.67209281876001
 20
-9.295234250714999
 10
27.70375324103001
 20
-9.285964630927995
 10
27.735286278466
 20
-9.276270513254988
 10
27.76668626136201
 20
-9.266153741556996
 10
27.79794754257301
 20
-9.255616212201006
 10
27.82906458591301
 20
-9.244660079776
 10
27.86003188924401
 20
-9.233287578113962
 10
27.89084395044001
 20
-9.221500941066953
 10
27.92149526739201
 20
-9.209302402527956
 10
27.95198037959401
 20
-9.196694275886956
 10
27.982293955772
 20
-9.183679121508991
 10
28.01243068967401
 20
-9.170259547574007
 10
28.04238527505102
 20
-9.156438162263956
 10
28.07215240609901
 20
-9.142217574460975
 10
28.10663682615401
 20
-9.12512597841999
 10
28.14085088155602
 20
-9.107499386514975
 10
28.17478650641601
 20
-9.089342502828008
 10
28.208435634844
 20
-9.07066003144496
 10
28.24179027280502
 20
-9.051456771231986
 10
28.27484269301301
 20
-9.031737872926957
 10
28.30758523006801
 20
-9.01150856889996
 10
28.34001021857101
 20
-8.990774091523979
 10
28.372110037097
 20
-8.969539722432957
 10
28.40387734672001
 20
-8.947811059737997
 10
28.435304920228
 20
-8.925593826696969
 10
28.466385530684
 20
-8.90289374688098
 10
28.49711197308902
 20
-8.879716564506962
 10
28.52747731181001
 20
-8.856068277373996
 10
28.557474792083
 20
-8.831955053542973
 10
28.58709766249102
 20
-8.807383064229956
 10
28.61633917913101
 20
-8.782358486748991
 10
28.64928274199901
 20
-8.753212949176999
 10
28.68171034634301
 20
-8.723494386495987
 10
28.71361266291101
 20
-8.693212618485976
 10
28.74498040774801
 20
-8.662377495501008
 10
28.775804764369
 20
-8.630999183376959
 10
28.80607719199601
 20
-8.599088034016975
 10
28.83578915341101
 20
-8.566654401727991
 10
28.86493224638901
 20
-8.533708717802996
 10
28.89349861455402
 20
-8.500261724828991
 10
28.91801502441102
 20
-8.470592882843963
 10
28.94207879916301
 20
-8.440555760540977
 10
28.96568487162601
 20
-8.41015765544995
 10
28.98882855034601
 20
-8.379406039731977
 10
29.01150522906201
 20
-8.348308425141969
 10
29.03371030151101
 20
-8.316872323433985
 10
29.055439204293
 20
-8.285105262932976
 10
29.076687728333
 20
-8.253014908940999
 10
29.097451839349
 20
-8.220608994332
 10
29.11772750428701
 20
-8.187895252455975
 10
29.13751070107601
 20
-8.154881419161997
 10
29.15679768259201
 20
-8.121575292851961
 10
29.175584989715
 20
-8.087984737454977
 10
29.19386917692002
 20
-8.054117619993977
 10
29.211646799182
 20
-8.019981807718981
 10
29.22891455670002
 20
-7.985585234472981
 10
29.24566949526001
 20
-7.950935992562962
 10
29.26190871094302
 20
-7.916042197358992
 10
29.27762929983201
 20
-7.880911964231986
 10
29.29282843244401
 20
-7.845553364804972
 10
29.30750374245601
 20
-7.809974198489955
 10
29.32165304140201
 20
-7.774182160166961
 10
29.33527414118501
 20
-7.738184944498986
 10
29.34836485430698
 20
-7.701990287092999
 10
29.36092300654401
 20
-7.665606827141003
 10
29.37294643663801
 20
-7.629044086757971
 10
29.38443298387301
 20
-7.592311624867991
 10
29.39384964300001
 20
-7.560698818899996
 10
29.393846848231
 20
-7.56070842042499
  0
LWPOLYLINE
  5
4CD
330
1E
100
AcDbEntity
  8
1
100
AcDbPolyline
 90
       28
 70
     0
 43
0.0
 10
29.39384964180002
 20
-7.560698823199973
 10
29.401732708771
 20
-7.533057210419999
 10
29.40931574952001
 20
-7.505329552682955
 10
29.41659802919801
 20
-7.477519782400977
 10
29.42357881295402
 20
-7.449631831984961
 10
29.43025736594
 20
-7.421669633846991
 10
29.43663295491202
 20
-7.393637117266965
 10
29.44254908068201
 20
-7.366278232598975
 10
29.44817706216301
 20
-7.33885914422399
 10
29.45351657512601
 20
-7.311382791250994
 10
29.45856729534401
 20
-7.283852112784986
 10
29.46332889859001
 20
-7.256270047935972
 10
29.467801061634
 20
-7.228639537214977
 10
29.471983495414
 20
-7.200963569118986
 10
29.47587595271601
 20
-7.173245190935007
 10
29.47947818888401
 20
-7.145487453536987
 10
29.48278995926101
 20
-7.117693407800008
 10
29.48581101919201
 20
-7.089866104598971
 10
29.48854112696502
 20
-7.062008598685967
 10
29.490980101027
 20
-7.034124024020005
 10
29.49312781607101
 20
-7.006215588610986
 10
29.49498414895001
 20
-6.978286503313999
 10
29.49654897651501
 20
-6.950339978980994
 10
29.497822175619
 20
-6.922379226467971
 10
29.49880362825402
 20
-6.894407451294969
 10
29.49949328684001
 20
-6.86642778591096
 10
29.49989115489001
 20
-6.838443309757
 10
29.49999995261702
 20
-6.814249010599954
  0
LWPOLYLINE
  5
4EB
330
1E
100
AcDbEntity
  8
1
100
AcDbPolyline
 90
        2
 70
     0
 43
0.0
 10
27.77586206890001
 20
-0.9932790128999647
 10
27.91509996323501
 20
-0.9945051305629736
  0
LWPOLYLINE
  5
4EF
330
1E
100
AcDbEntity
  8
1
100
AcDbPolyline
 90
        2
 70
     0
 43
0.0
 10
27.91510996280001
 20
-0.9945052237999936
 10
27.92591485584202
 20
-0.9946063904849927
  0
LWPOLYLINE
  5
4F3
330
1E
100
AcDbEntity
  8
1
100
AcDbPolyline
 90
       40
 70
     0
 43
0.0
 10
27.92592485540001
 20
-0.9946064844999716
 10
27.96589197793301
 20
-1.095984357660998
 10
28.01879327139501
 20
-1.225722031850978
 10
28.09936487525801
 20
-1.417010049064004
 10
28.68125508350301
 20
-2.765302376916
 10
28.77928319227901
 20
-3.005527871823971
 10
28.85936576350701
 20
-3.208226440254978
 10
28.92792584917501
 20
-3.387569477983961
 10
28.987298734596
 20
-3.548191801419991
 10
29.04138641325102
 20
-3.699694294265955
 10
29.08869804564102
 20
-3.83707615152798
 10
29.13120629355401
 20
-3.965126407196977
 10
29.169135284091
 20
-4.083754632210005
 10
29.20421448126701
 20
-4.197837729599998
 10
29.23652520634601
 20
-4.307335026768956
 10
29.26477682671801
 20
-4.407203265448004
 10
29.29056219392101
 20
-4.502369621732954
 10
29.31398746209701
 20
-4.59279271962396
 10
29.33516705190001
 20
-4.67843222082496
 10
29.35537759771901
 20
-4.764305594946962
 10
29.37346583426401
 20
-4.845341233240961
 10
29.38956050150901
 20
-4.921500222438001
 10
29.40379157587101
 20
-4.992744873153981
 10
29.41722167097601
 20
-5.064144448467971
 10
29.42894301956201
 20
-5.130580694807976
 10
29.43991133670101
 20
-5.19714608641499
 10
29.44933763988002
 20
-5.258702011379966
 10
29.458064782819
 20
-5.320360627625976
 10
29.46606468454202
 20
-5.382118179479961
 10
29.47273329437701
 20
-5.438811861262992
 10
29.47874008376601
 20
-5.495579202780962
 10
29.48360507681
 20
-5.547245362774961
 10
29.48788279383101
 20
-5.598963950835983
 10
29.49155227398501
 20
-5.650729453260001
 10
29.49459154861602
 20
-5.702535503690969
 10
29.496769901633
 20
-5.749190346243952
 10
29.49840375751702
 20
-5.795867871910959
 10
29.499475712021
 20
-5.842561049084966
 10
29.49996792971501
 20
-5.889262101390956
 10
29.50000008989501
 20
-5.904819524599987
  0
LWPOLYLINE
  5
51D
330
1E
100
AcDbEntity
  8
1
100
AcDbPolyline
 90
        7
 70
     0
 43
0.0
 10
6.000000000000013
 20
-4.974937185499981
 10
6.103364559674003
 20
-4.785407552534992
 10
6.198904202707011
 20
-4.605354252723997
 10
6.287363244907012
 20
-4.433964624099986
 10
6.369454669761013
 20
-4.270399637551975
 10
6.445857692942011
 20
-4.113800243584988
 10
6.499995742027007
 20
-4.000009048185972
  0
LWPOLYLINE
  5
526
330
1E
100
AcDbEntity
  8
1
100
AcDbPolyline
 90
        7
 70
     0
 43
0.0
 10
6.500000000000013
 20
3.999999999999998
 10
6.427758381611011
 20
4.151304432735002
 10
6.349960552340007
 20
4.309661519966025
 10
6.26643111580701
 20
4.474955750269031
 10
6.176489784074007
 20
4.648046099161033
 10
6.078902315611017
 20
4.830733608511023
 10
6.000004837792017
 20
4.974928433599016
  0
LWPOLYLINE
  5
552
330
1E
100
AcDbEntity
  8
1
100
AcDbPolyline
 90
       93
 70
     0
 43
0.0
 10
29.50000008910001
 20
-5.904829524599963
 10
29.49978732820001
 20
-5.943596534876975
 10
29.49914822369201
 20
-5.98236116920896
 10
29.49807184621201
 20
-6.021117738254987
 10
29.49654721717902
 20
-6.059859961943007
 10
29.49473251644402
 20
-6.095603850906972
 10
29.49251786869101
 20
-6.131325182088972
 10
29.48989447847601
 20
-6.167018556976985
 10
29.48685347060701
 20
-6.202678348951964
 10
29.48369143380901
 20
-6.235332182397997
 10
29.48016418707998
 20
-6.267948731115954
 10
29.47626493461901
 20
-6.300523381008987
 10
29.47198701105302
 20
-6.333050632408971
 10
29.46732377689702
 20
-6.365524809856995
 10
29.46226859266701
 20
-6.397940237895967
 10
29.45732726503901
 20
-6.427353046613972
 10
29.45205172871601
 20
-6.456708022192006
 10
29.44643746564601
 20
-6.486000105637004
 10
29.440479981155
 20
-6.515224198439967
 10
29.43417478057002
 20
-6.54437520209598
 10
29.42751737679401
 20
-6.573448011413971
 10
29.42050362908901
 20
-6.602437215859992
 10
29.41312987908101
 20
-6.631336979647985
 10
29.40539250411601
 20
-6.660141435498987
 10
29.39728788154201
 20
-6.688844716134954
 10
29.38881241754502
 20
-6.717440941657004
 10
29.38086494821201
 20
-6.743080939227981
 10
29.37261292747201
 20
-6.768624577391962
 10
29.364054621144
 20
-6.79406718210498
 10
29.35518829504502
 20
-6.819404079324955
 10
29.34601221747302
 20
-6.844630594644005
 10
29.33652500343501
 20
-6.869742002867955
 10
29.326725967964
 20
-6.894733476257957
 10
29.31661451037902
 20
-6.919600174725986
 10
29.30619002999701
 20
-6.944337258185955
 10
29.29545192613399
 20
-6.968939886552963
 10
29.284399750287
 20
-6.993403235453002
 10
29.27303388464101
 20
-7.017722566281977
 10
29.26135499340801
 20
-7.041893169555977
 10
29.249363741033
 20
-7.065910335816967
 10
29.23706079196001
 20
-7.089769355602985
 10
29.22444684070899
 20
-7.113465529879991
 10
29.21152320712501
 20
-7.136994376328003
 10
29.19829180157901
 20
-7.160351617290986
 10
29.18475455755201
 20
-7.183532983117006
 10
29.17091340852201
 20
-7.206534204158002
 10
29.15518027497101
 20
-7.231874643103995
 10
29.13907739086102
 20
-7.256981808180004
 10
29.12260880469101
 20
-7.281850729654995
 10
29.10577871756301
 20
-7.306476534752962
 10
29.088591330579
 20
-7.330854350700978
 10
29.07105084556502
 20
-7.354979305482973
 10
29.05316176462001
 20
-7.378846842358997
 10
29.03492935275802
 20
-7.402453205612974
 10
29.01635899435601
 20
-7.425794764856957
 10
28.99554769811501
 20
-7.451160298522951
 10
28.97434116993001
 20
-7.476196197604
 10
28.95274685950201
 20
-7.500898154225981
 10
28.930772812378
 20
-7.525262963791991
 10
28.90842714998601
 20
-7.549287562195955
 10
28.88363578119401
 20
-7.575104605080984
 10
28.85842238404801
 20
-7.60050922271995
 10
28.832797747256
 20
-7.625498677763007
 10
28.80677283447001
 20
-7.650071119193967
 10
28.78035861375101
 20
-7.674224718331007
 10
28.75356605290602
 20
-7.697957648288992
 10
28.72640605141701
 20
-7.72126856585999
 10
28.69888934847401
 20
-7.744157262518966
 10
28.67102666031302
 20
-7.766623692257955
 10
28.64282870316701
 20
-7.788667809074982
 10
28.61430615341701
 20
-7.810289640332999
 10
28.58546926764299
 20
-7.831489986256999
 10
28.55632805091001
 20
-7.852270110120972
 10
28.52689250487602
 20
-7.872631281462989
 10
28.49717263060302
 20
-7.892574770338002
 10
28.46717817661701
 20
-7.912102063857959
 10
28.43691824826301
 20
-7.931215201962972
 10
28.406401849992
 20
-7.949916311312962
 10
28.37563798625302
 20
-7.968207518570981
 10
28.34463562954601
 20
-7.986090963805001
 10
28.313403230618
 20
-8.003569006020999
 10
28.281948814973
 20
-8.020644182666957
 10
28.25028039572401
 20
-8.037319036389991
 10
28.218405985984
 20
-8.053596109836972
 10
28.18633339689501
 20
-8.069477980317005
 10
28.15406958341201
 20
-8.084967372070995
 10
28.118909130778
 20
-8.101307849910995
 10
28.08354070545999
 20
-8.117194466376988
 10
28.04797286277901
 20
-8.132630716123971
 10
28.01221417696901
 20
-8.147619782692007
 10
27.97627323797302
 20
-8.162164591064994
 10
27.940158636214
 20
-8.176268058376994
 10
27.91506837060201
 20
-8.185771490604
  0
LWPOLYLINE
  5
5B1
330
1E
100
AcDbEntity
  8
1
100
AcDbPolyline
 90
       44
 70
     0
 43
0.0
 10
16.17747184720001
 20
8.478797084499996
 10
16.17711073494901
 20
8.479378369240006
 10
16.17686898980001
 20
8.480039981407001
 10
16.176745426984
 20
8.480747529397032
 10
16.17673886173501
 20
8.481466621606042
 10
16.176848109284
 20
8.482162866429003
 10
16.17707187143301
 20
8.482802239746034
 10
16.177403649803
 20
8.483367564663009
 10
16.17782969411801
 20
8.483865158545992
 10
16.178335716045
 20
8.484303081912001
 10
16.17890742725401
 20
8.484689395276003
 10
16.17953053941501
 20
8.485032159156045
 10
16.18019076419501
 20
8.485339434068006
 10
16.18087381326401
 20
8.485619280527995
 10
16.181565398292
 20
8.485879759053032
 10
16.18259223176401
 20
8.486249390667008
 10
16.18359987088799
 20
8.486599350407002
 10
16.18459112183399
 20
8.486930782435022
 10
16.185568839805
 20
8.48724480587202
 10
16.18653588000101
 20
8.487542539840998
 10
16.187813591974
 20
8.487916113581034
 10
16.18908416503501
 20
8.488265370552023
 10
16.19035436706801
 20
8.48859296349104
 10
16.19195190605901
 20
8.488976030427009
 10
16.19356918367901
 20
8.48933385188303
 10
16.19520546732299
 20
8.489668712552028
 10
16.19719029064401
 20
8.49004287815404
 10
16.199193921381
 20
8.490389922560039
 10
16.201549031089
 20
8.49076485371904
 10
16.20425463526901
 20
8.491160149193996
 10
16.20797977133801
 20
8.491659431505011
 10
16.212367542901
 20
8.492201074141005
 10
16.21741373012201
 20
8.492769182966013
 10
16.223122604099
 20
8.493348269143039
 10
16.229842993458
 20
8.493955382371039
 10
16.237929851458
 20
8.494597154570042
 10
16.24772468356101
 20
8.495267289417027
 10
16.26090920078401
 20
8.496029160595012
 10
16.27780787269
 20
8.496831830890014
 10
16.30045780603801
 20
8.497673177270026
 10
16.332591841963
 20
8.498536231352995
 10
16.382661146501
 20
8.499370802683014
 10
16.47672201573901
 20
8.499969121615999
 10
16.50953249470001
 20
8.50000010631504
  0
LWPOLYLINE
  5
5DF
330
1E
100
AcDbEntity
  8
1
100
AcDbPolyline
 90
       17
 70
     0
 43
0.0
 10
24.20811130160001
 20
5.502879000000002
 10
24.23022321509501
 20
5.461075919379023
 10
24.25568576786699
 20
5.41154969525604
 10
24.32709241769001
 20
5.270353654207037
 10
24.33948860027401
 20
5.246910429289012
 10
24.34962394714101
 20
5.228272640480039
 10
24.35868509003401
 20
5.212069781547992
 10
24.36683949950502
 20
5.197893219154021
 10
24.37426440158601
 20
5.185337799068005
 10
24.38138240414501
 20
5.173628327555999
 10
24.38817671400701
 20
5.162756212912025
 10
24.39462768479501
 20
5.152712297858042
 10
24.40095980510202
 20
5.14311887540003
 10
24.40716469923701
 20
5.133973276845037
 10
24.41323331026001
 20
5.125271740444016
 10
24.41915601803002
 20
5.117009552067993
 10
24.42019113104601
 20
5.115588741072992
  0
LWPOLYLINE
  5
5F2
330
1E
100
AcDbEntity
  8
1
100
AcDbPolyline
 90
       53
 70
     0
 43
0.0
 10
16.50902429650001
 20
-0.000000000000002
 10
16.51949749814098
 20
0.0070169372820013
 10
16.53006134912901
 20
0.0138992023180415
 10
16.54071289590301
 20
0.0206470809550277
 10
16.55144918490201
 20
0.0272608590350367
 10
16.562906104
 20
0.0341178355910168
 10
16.57445121092099
 20
0.0408251308160155
 10
16.58608109290001
 20
0.047383125904046
 10
16.59779293554801
 20
0.0537924707230084
 10
16.60958416079201
 20
0.0600539212460356
 10
16.62145219114201
 20
0.0661682337080245
 10
16.63339444910501
 20
0.0721361643430194
 10
16.64540835719201
 20
0.0779584693860309
 10
16.65749134857601
 20
0.083635903246998
 10
16.66964102078798
 20
0.0891691922330418
 10
16.68185510034801
 20
0.094559040592001
 10
16.69413131724201
 20
0.0998061519809974
 10
16.70646740145601
 20
0.1049112300580057
 10
16.71955126404101
 20
0.1101466124900392
 10
16.73269663180301
 20
0.1152253533300019
 10
16.74590094072601
 20
0.1201482760960154
 10
16.75916191512999
 20
0.1249161932640256
 10
16.77247732810699
 20
0.1295299154390344
 10
16.78584495274601
 20
0.1339902532280327
 10
16.799262562136
 20
0.1382980172370459
 10
16.81272792936901
 20
0.1424540180730085
 10
16.82623884155602
 20
0.1464590626160295
 10
16.83979327026601
 20
0.1503139087130286
 10
16.853389317111
 20
0.1540192796470002
 10
16.86774382291202
 20
0.1577589815390162
 10
16.88214013152001
 20
0.161334703356031
 10
16.896576031925
 20
0.1647472878550481
 10
16.91104931316601
 20
0.1679975777680035
 10
16.92555782442701
 20
0.1710863879620185
 10
16.94009959193101
 20
0.1740144512660301
 10
16.95467267431801
 20
0.1767824854940138
 10
16.96927513022401
 20
0.1793912084570458
 10
16.98390501828801
 20
0.1818413379669984
 10
16.99856039714801
 20
0.1841335918369943
 10
17.013239330943
 20
0.1862686854159939
 10
17.02794003053301
 20
0.188247268405005
 10
17.04339740688601
 20
0.190156969054042
 10
17.058875104662
 20
0.191895420375031
 10
17.07437124583998
 20
0.193463288057044
 10
17.0898839524
 20
0.1948612377900055
 10
17.10541134632201
 20
0.1960899352640105
 10
17.12095152192401
 20
0.1971500275210453
 10
17.13650240626201
 20
0.1980420488530378
 10
17.152061863845
 20
0.1987664913870027
 10
17.16762775907399
 20
0.199323847178048
 10
17.18319795634902
 20
0.1997146082800306
 10
17.19877032007301
 20
0.1999392667490248
 10
17.21210816590001
 20
0.1999999999659942
  0
LWPOLYLINE
  5
629
330
1E
100
AcDbEntity
  8
1
100
AcDbPolyline
 90
      100
 70
     0
 43
0.0
 10
27.91505900430002
 20
-8.185774993799956
 10
27.89315427384501
 20
-8.200371860521954
 10
27.87104838219001
 20
-8.214666926652004
 10
27.85046690742301
 20
-8.227588571281959
 10
27.82971878317001
 20
-8.240241823298957
 10
27.80880629140402
 20
-8.252621289059961
 10
27.78773170277901
 20
-8.264721703207955
 10
27.76649725608602
 20
-8.276538161381951
 10
27.74510518455801
 20
-8.288065822256955
 10
27.725359223954
 20
-8.298375009486964
 10
27.70548441202401
 20
-8.308433729667971
 10
27.68548267257001
 20
-8.318238258436
 10
27.665356422433
 20
-8.327784882789957
 10
27.64510815185501
 20
-8.337069891420981
 10
27.62474035107601
 20
-8.346089573017994
 10
27.60425551077301
 20
-8.354840216513995
 10
27.585533570486
 20
-8.362558822990992
 10
27.56671930376201
 20
-8.370049494320996
 10
27.54781497907802
 20
-8.377309666393959
 10
27.528822864908
 20
-8.384336775097951
 10
27.509745229727
 20
-8.391128256323954
 10
27.49058439252901
 20
-8.397681580494976
 10
27.471342946131
 20
-8.403994405217988
 10
27.45202357569101
 20
-8.410064451221957
 10
27.43262896643701
 20
-8.415889439284972
 10
27.413161803597
 20
-8.42146709018397
 10
27.39362480091301
 20
-8.426795155334959
 10
27.374020893304
 20
-8.431871623804003
 10
27.35632268387701
 20
-8.436223760014005
 10
27.338574957823
 20
-8.440369179487962
 10
27.32077993048202
 20
-8.444306497689982
 10
27.30293982047302
 20
-8.448034335157959
 10
27.28505694160601
 20
-8.451551459987005
 10
27.26713371542802
 20
-8.454856807277
 10
27.24917256928101
 20
-8.457949321111986
 10
27.23117593051002
 20
-8.460827945576967
 10
27.21314622645801
 20
-8.463491624759004
 10
27.19508591259402
 20
-8.465939371283983
 10
27.17699754560801
 20
-8.468170444449985
 10
27.158883704951
 20
-8.470184159025965
 10
27.14074697007402
 20
-8.471979829782981
 10
27.122589920429
 20
-8.473556771489997
 10
27.10441514025701
 20
-8.474914321163
 10
27.08622526414599
 20
-8.476052049641001
 10
27.06802295679601
 20
-8.476969667612992
 10
27.04981088331301
 20
-8.477666887651995
 10
27.03159170880298
 20
-8.478143422331985
 10
27.013368098522
 20
-8.478398988466951
 10
26.99514272373201
 20
-8.478433471583006
 10
26.97691826357601
 20
-8.478246978595965
 10
26.95869739772901
 20
-8.477839631444968
 10
26.94048280586902
 20
-8.477211552070006
 10
26.922277167662
 20
-8.476362862486952
 10
26.90408315000002
 20
-8.475293775246999
 10
26.885903382322
 20
-8.47400476839596
 10
26.86774048723701
 20
-8.472496368397003
 10
26.84959708735302
 20
-8.470769101712964
 10
26.831475805277
 20
-8.468823494805977
 10
26.813379253453
 20
-8.466660105075963
 10
26.795309965511
 20
-8.464279729824967
 10
26.777270438255
 20
-8.461683278442992
 10
26.75926316827899
 20
-8.45887166095099
 10
26.74129065218001
 20
-8.455845787374986
 10
26.72335538450001
 20
-8.452606571525965
 10
26.70545978128501
 20
-8.449155072096008
 10
26.68760615737101
 20
-8.445492534568986
 10
26.66979682091001
 20
-8.441620216774994
 10
26.652034080049
 20
-8.437539376541966
 10
26.634320242939
 20
-8.433251271698967
 10
26.61665758609001
 20
-8.428757199000985
 10
26.59709500985901
 20
-8.423524037334006
 10
26.577601065467
 20
-8.418040573270959
 10
26.55817858650701
 20
-8.412308941450991
 10
26.53883040657101
 20
-8.406331276512959
 10
26.51955932948901
 20
-8.400109738595009
 10
26.500367919459
 20
-8.393646693153986
 10
26.48125862506401
 20
-8.386944604701003
 10
26.46223389414201
 20
-8.380005938388991
 10
26.44329617453001
 20
-8.372833159370999
 10
26.42444790135302
 20
-8.365428739498954
 10
26.40569128488301
 20
-8.357795269145983
 10
26.38702834265301
 20
-8.349935440276002
 10
26.366609700425
 20
-8.341031401213971
 10
26.34630951472401
 20
-8.331860316981986
 10
26.32613045646602
 20
-8.322425777462971
 10
26.30607496829401
 20
-8.31273146589098
 10
26.28614520168601
 20
-8.302781184575964
 10
26.26634328919001
 20
-8.292578743567959
 10
26.24667136335401
 20
-8.282127952918985
 10
26.22536182980601
 20
-8.270448325230976
 10
26.20421192582201
 20
-8.258482593709008
 10
26.183223493812
 20
-8.246235635113977
 10
26.16239832771301
 20
-8.233712322553007
 10
26.14173822146402
 20
-8.220917529135991
 10
26.11954478584602
 20
-8.206755804225965
 10
26.097549454396
 20
-8.192287651594996
 10
26.07575451186201
 20
-8.177519830916994
 10
26.05416224311101
 20
-8.162459119348001
 10
26.03113831024401
 20
-8.145920112495961
 10
26.02461215883701
 20
-8.141140843883992
  0
LWPOLYLINE
  5
68F
330
1E
100
AcDbEntity
  8
1
100
AcDbPolyline
 90
        2
 70
     0
 43
0.0
 10
27.92592485540001
 20
-0.9946064844999716
 10
27.91506797368902
 20
-0.9999955784539938
  0
LWPOLYLINE
  5
693
330
1E
100
AcDbEntity
  8
1
100
AcDbPolyline
 90
       17
 70
     0
 43
0.0
 10
26.02460410290002
 20
-1.000000000000001
 10
25.98602814165801
 20
-0.9846310259119976
 10
25.946806854446
 20
-0.9684978523679919
 10
25.90613969114201
 20
-0.9512403559359686
 10
25.86404916009799
 20
-0.932822659133993
 10
25.81975330845401
 20
-0.9128418524119895
 10
25.77408497216401
 20
-0.8916144741329532
 10
25.726270744363
 20
-0.8687239340909544
 10
25.67634484961601
 20
-0.8441140421740016
 10
25.62434175666001
 20
-0.8177322390479876
 10
25.57029551656202
 20
-0.7895286690030079
 10
25.51346322130202
 20
-0.7590343960710048
 10
25.45312071749401
 20
-0.7257494227159813
 10
25.38932899994601
 20
-0.6895811185970078
 10
25.32138749897001
 20
-0.6499947693499766
 10
25.249372250735
 20
-0.6068836375289979
 10
25.23805636720501
 20
-0.6000052019019823
  0
LWPOLYLINE
  5
6A6
330
1E
100
AcDbEntity
  8
1
100
AcDbPolyline
 90
        5
 70
     0
 43
0.0
 10
24.72073179860001
 20
-0.2999999999999576
 10
24.89891112217901
 20
-0.4004240014359687
 10
25.06040100145901
 20
-0.4938942848789937
 10
25.19303555513501
 20
-0.5727307803729819
 10
25.23803928619702
 20
-0.5999947980959665
  0
LWPOLYLINE
  5
6AD
330
1E
100
AcDbEntity
  8
1
100
AcDbPolyline
 90
       31
 70
     0
 43
0.0
 10
24.5299549877
 20
0.0000719184000074
 10
24.53913701336601
 20
-0.0099423055949645
 10
24.54817706261501
 20
-0.0200857958939794
 10
24.55707474069502
 20
-0.0303551649349773
 10
24.56582952096701
 20
-0.0407471782889987
 10
24.57421561992501
 20
-0.0509810447069897
 10
24.58246419083501
 20
-0.0613263718219658
 10
24.59057416374801
 20
-0.0717808517169972
 10
24.59833090069102
 20
-0.0820553504219705
 10
24.60595433955599
 20
-0.0924289847159828
 10
24.613443098808
 20
-0.1029001178819756
 10
24.62059334542401
 20
-0.1131723789839641
 10
24.62761359874001
 20
-0.1235338903839563
 10
24.63450253172901
 20
-0.1339832189559645
 10
24.64106757804702
 20
-0.1442167354679812
 10
24.64750583568601
 20
-0.1545305278529584
 10
24.65363192155901
 20
-0.1646165720059715
 10
24.65963550633301
 20
-0.1747759449060057
 10
24.66551508238401
 20
-0.1850075164520065
 10
24.671096630372
 20
-0.1949969233699592
 10
24.67655866430498
 20
-0.2050521569019595
 10
24.68189959934302
 20
-0.2151722423229815
 10
24.68695664928
 20
-0.2250369998709546
 10
24.69189711513802
 20
-0.2349608204359614
 10
24.69656584699001
 20
-0.2446199198460052
 10
24.70112270034702
 20
-0.2543326433269643
 10
24.70556616985801
 20
-0.2640978367059604
 10
24.70975228306502
 20
-0.2735862281969648
 10
24.71382958508602
 20
-0.2831213605039724
 10
24.71779667001502
 20
-0.2927021083189659
 10
24.72072810811501
 20
-0.2999907058979859
  0
LWPOLYLINE
  5
6CE
330
1E
100
AcDbEntity
  8
1
100
AcDbPolyline
 90
       80
 70
     0
 43
0.0
 10
16.17747184720001
 20
-0.5999999999999679
 10
16.177112176436
 20
-0.5928349508139965
 10
16.17683931661201
 20
-0.5856650234409833
 10
16.17665337994302
 20
-0.5784914737340066
 10
16.17655447864501
 20
-0.5713155575439848
 10
16.176542724932
 20
-0.5641385307209839
 10
16.17661823102101
 20
-0.5569616491189912
 10
16.17678110912501
 20
-0.5497861685869927
 10
16.177031471461
 20
-0.5426133449779536
 10
16.177369391373
 20
-0.5354443967549989
 10
16.177794770521
 20
-0.5282803772439613
 10
16.17830746318701
 20
-0.521122294197996
 10
16.17890732364499
 20
-0.5139711553659956
 10
16.17959420617401
 20
-0.5068279684989554
 10
16.18036796505101
 20
-0.4996937413459952
 10
16.18122845455201
 20
-0.4925694816569737
 10
16.182175528956
 20
-0.4854561971830001
 10
16.18320900726901
 20
-0.4783548955869626
 10
16.184328556856
 20
-0.4712665841569808
 10
16.185533804338
 20
-0.4641922700830057
 10
16.18682437633701
 20
-0.4571329605539652
 10
16.18819989947201
 20
-0.4500896627589575
 10
16.18966000036401
 20
-0.4430633838869675
 10
16.191204305633
 20
-0.4360551311269794
 10
16.1928324419
 20
-0.4290659116679783
 10
16.19454400978001
 20
-0.4220967146449673
 10
16.19633847982001
 20
-0.415148438899964
 10
16.19821528199101
 20
-0.40822195510299
 10
16.200173846248
 20
-0.4013181339149717
 10
16.202213602547
 20
-0.3944378459979723
 10
16.20433398084401
 20
-0.387581962011952
 10
16.20653441109499
 20
-0.3807513526199975
 10
16.20904666403001
 20
-0.3732679135769692
 10
16.21165431268701
 20
-0.3658172491119578
 10
16.214356457781
 20
-0.3584003672049809
 10
16.21715215109
 20
-0.3510182233019938
 10
16.22004044425801
 20
-0.3436717727099696
 10
16.223020388928
 20
-0.3363619707349719
 10
16.22609103674601
 20
-0.3290897726839737
 10
16.22925143935602
 20
-0.3218561338609922
 10
16.23250064829702
 20
-0.3146620093569956
 10
16.235837685114
 20
-0.3075082922709973
 10
16.239577022473
 20
-0.2997511975289646
 10
16.243418256907
 20
-0.2920440193479996
 10
16.247360012246
 20
-0.2843876984089795
 10
16.25140091232
 20
-0.2767831753919856
 10
16.25553958096
 20
-0.2692313909769857
 10
16.259774641995
 20
-0.2617332858429811
 10
16.264104715845
 20
-0.2542897782699944
 10
16.26890121575701
 20
-0.2462884406369901
 10
16.27380576539801
 20
-0.2383528646339548
 10
16.27881655802701
 20
-0.2304838715479625
 10
16.28393178690702
 20
-0.2226822826629606
 10
16.289149645297
 20
-0.214948919265
 10
16.29488158006201
 20
-0.2066979232989772
 10
16.300728193948
 20
-0.1985280003709724
 10
16.306687279026
 20
-0.1904398863709977
 10
16.31275664924601
 20
-0.1824341867999826
 10
16.31937944524301
 20
-0.1739487931349706
 10
16.326123646237
 20
-0.1655594453579872
 10
16.332986563687
 20
-0.1572668869980041
 10
16.34043483218501
 20
-0.148529011416999
 10
16.34801191994901
 20
-0.1399028548800081
 10
16.35571476410201
 20
-0.1313888675339874
 10
16.364033419087
 20
-0.1224661244419869
 10
16.37248694580101
 20
-0.1136709764139729
 10
16.381580682119
 20
-0.1044980943089533
 10
16.390817190586
 20
-0.0954694057689969
 10
16.400192352877
 20
-0.0865852711939985
 10
16.40970239783199
 20
-0.0778456880139535
 10
16.41934358540001
 20
-0.0692506211379984
 10
16.42911217553101
 20
-0.0608000354759517
 10
16.439004428173
 20
-0.0524938959359835
 10
16.44901660374701
 20
-0.0443321669479835
 10
16.4591449772
 20
-0.0363147982129724
 10
16.46938584038201
 20
-0.0284417222839599
 10
16.47973548610099
 20
-0.0207128707519948
 10
16.49019020715901
 20
-0.013128175203976
 10
16.50074629636302
 20
-0.0056875672289627
 10
16.50901602508101
 20
-0.0000056199330081
  0
LWPOLYLINE
  5
720
330
1E
100
AcDbEntity
  8
1
100
AcDbPolyline
 90
      114
 70
     0
 43
0.0
 10
24.00440000000001
 20
-7.080461080399972
 10
23.83155957922001
 20
-7.079469164395963
 10
23.65873817570502
 20
-7.076488399923962
 10
23.49747918205501
 20
-7.071905016991991
 10
23.33628078505201
 20
-7.065569645570977
 10
23.17516216835702
 20
-7.057464033725977
 10
23.014143013976
 20
-7.047568055739986
 10
22.85324573442399
 20
-7.035853262988952
 10
22.69249361960001
 20
-7.022288535219956
 10
22.54337549852201
 20
-7.008005059083986
 10
22.39442595176702
 20
-6.992060954461977
 10
22.24566729024
 20
-6.974420704027976
 10
22.09712471928702
 20
-6.955043167691997
 10
21.96022402901101
 20
-6.935574904341992
 10
21.82355293341001
 20
-6.91455105481998
 10
21.687137022614
 20
-6.891929933901964
 10
21.562336523793
 20
-6.869753101697996
 10
21.43779476070801
 20
-6.846162605455956
 10
21.31353667232402
 20
-6.821120124988967
 10
21.189588789964
 20
-6.794585590585997
 10
21.07720068510301
 20
-6.769134588851954
 10
20.965114366673
 20
-6.742384414466982
 10
20.85335493452501
 20
-6.714300827725995
 10
20.74194756610901
 20
-6.684849540002972
 10
20.63091985745701
 20
-6.653994982367978
 10
20.53134521181601
 20
-6.624995165125997
 10
20.43212612649401
 20
-6.594801012451002
 10
20.33328612366801
 20
-6.563384965561968
 10
20.234852142715
 20
-6.530718548215989
 10
20.136852218929
 20
-6.496772989936974
 10
20.03931445669201
 20
-6.461519521258994
 10
19.95302677663898
 20
-6.429061879061977
 10
19.86715183852401
 20
-6.395527983275997
 10
19.78171326806301
 20
-6.360897693218985
 10
19.69673486340401
 20
-6.325150931246982
 10
19.61224262985301
 20
-6.288268426553995
 10
19.528264099191
 20
-6.250231466347999
 10
19.44482683367101
 20
-6.211021348977967
 10
19.36195883615701
 20
-6.170619759646967
 10
19.279690413931
 20
-6.129010406820952
 10
19.20822179938701
 20
-6.091599190533997
 10
19.137256820359
 20
-6.053240839691968
 10
19.06681659729001
 20
-6.013925474683959
 10
18.99692338948901
 20
-5.973645367525991
 10
18.927599714681
 20
-5.932393278451005
 10
18.85886809059201
 20
-5.890161967691994
 10
18.79075114193399
 20
-5.846944860443955
 10
18.72327195577502
 20
-5.802738255540987
 10
18.65645374404602
 20
-5.757539227899999
 10
18.59031971868401
 20
-5.711344852453978
 10
18.52489298546501
 20
-5.664153058235004
 10
18.46019622849901
 20
-5.615965166861998
 10
18.39625202721201
 20
-5.566783342174971
 10
18.33308296063298
 20
-5.516609749072985
 10
18.270711144753
 20
-5.465447772868968
 10
18.20915734041202
 20
-5.413304370646986
 10
18.14844206183501
 20
-5.360187149488981
 10
18.08858581402201
 20
-5.306103730355971
 10
18.02960800488401
 20
-5.25106338537796
 10
17.96330259576501
 20
-5.187004397566
 10
17.89819255811401
 20
-5.121730975080994
 10
17.842221578529
 20
-5.063635837693995
 10
17.78719906073298
 20
-5.004641575002951
 10
17.73313751640901
 20
-4.944765434272996
 10
17.68004943961001
 20
-4.884024679955983
 10
17.62794667414
 20
-4.822436986321974
 10
17.57683767755401
 20
-4.760022161802965
 10
17.526729808642
 20
-4.696800707327954
 10
17.47763042437701
 20
-4.632793124626005
 10
17.42954569900502
 20
-4.568020336699988
 10
17.38247842194201
 20
-4.502504472177976
 10
17.33643078093998
 20
-4.436267873993981
 10
17.291404943338
 20
-4.369332887028972
 10
17.247401448834
 20
-4.301722011601952
 10
17.20441805049701
 20
-4.233458014142001
 10
17.16245222796401
 20
-4.16456368719298
 10
17.12150140002101
 20
-4.095061811737989
 10
17.08156124409501
 20
-4.024974837969978
 10
17.04262548214001
 20
-3.954324844621
 10
17.00468773225599
 20
-3.88313389069299
 10
16.96774151879701
 20
-3.811423982487953
 10
16.93177887201201
 20
-3.739216286373961
 10
16.89679062334902
 20
-3.66653129479397
 10
16.862767570479
 20
-3.593389481200008
 10
16.82970042490699
 20
-3.519811215990956
 10
16.79306665082401
 20
-3.435211875020002
 10
16.75765160278301
 20
-3.350094932361971
 10
16.723438911664
 20
-3.264487799795008
 10
16.69041194680001
 20
-3.178417122492988
 10
16.65855329205101
 20
-3.091907243371962
 10
16.627845384437
 20
-3.004982074944964
 10
16.59827066134599
 20
-2.917665429093006
 10
16.569811566752
 20
-2.829979328972968
 10
16.54245055028801
 20
-2.741944260009974
 10
16.51617006177301
 20
-2.653580657551005
 10
16.490952691772
 20
-2.564908475322964
 10
16.46383302047601
 20
-2.464805569660997
 10
16.43801396741901
 20
-2.364359175502956
 10
16.41347197028801
 20
-2.263593653535962
 10
16.390184709693
 20
-2.162531172493006
 10
16.36813079337801
 20
-2.061192266064948
 10
16.34728886729099
 20
-1.959597409980005
 10
16.327638629831
 20
-1.857765842779998
 10
16.30718005756401
 20
-1.744363013252949
 10
16.28814440207199
 20
-1.630712673941958
 10
16.27050758542901
 20
-1.516837292937965
 10
16.25424840889901
 20
-1.40275712993298
 10
16.23934608257902
 20
-1.28849213100898
 10
16.22578101808501
 20
-1.174061308651972
 10
16.21353670767601
 20
-1.059481281654994
 10
16.20259713096698
 20
-0.9447682906899803
 10
16.19294736656701
 20
-0.8299388401760003
 10
16.18380863410901
 20
-0.7035126119459984
 10
16.17747240904701
 20
-0.6000099842039523
  0
LWPOLYLINE
  5
794
330
1E
100
AcDbEntity
  8
1
100
AcDbPolyline
 90
       78
 70
     0
 43
0.0
 10
25.0398591377
 20
-7.261904686099969
 10
25.03627222083502
 20
-7.256584692523976
 10
25.03261302019701
 20
-7.251312951514986
 10
25.02888186843501
 20
-7.246091002976982
 10
25.02507909819901
 20
-7.240920386816982
 10
25.02120504213801
 20
-7.235802642938951
 10
25.01726003290002
 20
-7.230739311251001
 10
25.01324440310301
 20
-7.225731931415968
 10
25.00915848089901
 20
-7.220782009888981
 10
25.00500258544601
 20
-7.215890986252987
 10
25.00077703482701
 20
-7.211060292063963
 10
24.99648214712301
 20
-7.206291358881967
 10
24.99211824041402
 20
-7.201585618262982
 10
24.987685632784
 20
-7.196944501765981
 10
24.98291777490802
 20
-7.192102421624952
 10
24.97834493497801
 20
-7.187599014799957
 10
24.97370479709701
 20
-7.183164924100995
 10
24.96899792005601
 20
-7.178801756362987
 10
24.964507452708
 20
-7.174761472363003
 10
24.95995882779201
 20
-7.170786775840952
 10
24.95535251300001
 20
-7.166879006797957
 10
24.95068905501301
 20
-7.163039521404985
 10
24.94626574727301
 20
-7.159503244861982
 10
24.941793336661
 20
-7.156029331475965
 10
24.93727236870501
 20
-7.152618918159986
 10
24.93270338893502
 20
-7.149273141825008
 10
24.92839617174401
 20
-7.14620973712198
 10
24.92404805402002
 20
-7.143204553273962
 10
24.919659567923
 20
-7.140258517346977
 10
24.91523132208901
 20
-7.137372558746962
 10
24.91076392792701
 20
-7.134547606964987
 10
24.90658111404201
 20
-7.131979875913999
 10
24.90236556142201
 20
-7.129466293331972
 10
24.89811775959701
 20
-7.127007603420962
 10
24.89383819815101
 20
-7.124604550368987
 10
24.88952740181201
 20
-7.122257868838007
 10
24.88518599027401
 20
-7.119968267753963
 10
24.88115190987
 20
-7.117906062316992
 10
24.87709278459601
 20
-7.115893648064967
 10
24.873009114348
 20
-7.113931579200992
 10
24.86890139902401
 20
-7.112020409928961
 10
24.86477013852101
 20
-7.110160694452987
 10
24.86061583297801
 20
-7.108352986829004
 10
24.85643901610401
 20
-7.106597820581955
 10
24.852240289296
 20
-7.104895687838963
 10
24.84802026209001
 20
-7.103247075750007
 10
24.84377954402001
 20
-7.101652471465969
 10
24.83987456335901
 20
-7.100238611289002
 10
24.83595317830002
 20
-7.098870917241982
 10
24.83201585834001
 20
-7.097549764554972
 10
24.828063072979
 20
-7.096275528455977
 10
24.824095309344
 20
-7.095048568418976
 10
24.82011311410201
 20
-7.093869190708971
 10
24.81611704648001
 20
-7.092737690362982
 10
24.81210766570601
 20
-7.09165436242296
 10
24.80808553100601
 20
-7.090619501928983
 10
24.804051201609
 20
-7.089633403917957
 10
24.80000523674
 20
-7.088696363431949
 10
24.79594819562802
 20
-7.087808675510985
 10
24.79188063836302
 20
-7.086970630938995
 10
24.78780313696401
 20
-7.086182461754957
 10
24.78371627214801
 20
-7.08544435715498
 10
24.77962062483102
 20
-7.084756505361951
 10
24.77551677592801
 20
-7.084119094595965
 10
24.771405306355
 20
-7.083532313079955
 10
24.76766148258801
 20
-7.08304296819597
 10
24.763912277292
 20
-7.082595762636971
 10
24.76015812691702
 20
-7.082190837816996
 10
24.75639949190301
 20
-7.081828318413956
 10
24.75263692149102
 20
-7.081508267147003
 10
24.74887098547302
 20
-7.081230732400002
 10
24.74510225363701
 20
-7.080995762558986
 10
24.74133129577102
 20
-7.080803406007987
 10
24.73755868166601
 20
-7.080653711131959
 10
24.73378498110902
 20
-7.080546726314992
 10
24.73001076389101
 20
-7.080482499943005
 10
24.72623659980001
 20
-7.080461080399972
 10
24.72624659980202
 20
-7.080461080549982
  0
LWPOLYLINE
  5
7E4
330
1E
100
AcDbEntity
  8
1
100
AcDbPolyline
 90
       90
 70
     0
 43
0.0
 10
29.49704101700001
 20
1.997159643900029
 10
29.49706992189502
 20
1.99714982008299
 10
29.49710149040001
 20
1.997138721204004
 10
29.49713308800502
 20
1.99712722687604
 10
29.49716470611301
 20
1.997115340331044
 10
29.49719633613101
 20
1.997103064804998
 10
29.497227969464
 20
1.997090403531041
 10
29.497259597518
 20
1.997077359744021
 10
29.49729121169801
 20
1.997063936680031
 10
29.49732280340899
 20
1.997050137571018
 10
29.497354364059
 20
1.997035965651999
 10
29.49738588505102
 20
1.997021424158045
 10
29.49741735779202
 20
1.997006516323034
 10
29.49745138884201
 20
1.996989956514024
 10
29.49748534225101
 20
1.996972974672015
 10
29.49751920709001
 20
1.996955574908038
 10
29.49755297243302
 20
1.996937761335
 10
29.497586627353
 20
1.996919538065009
 10
29.497620160923
 20
1.996900909210008
 10
29.49765356221501
 20
1.996881878882043
 10
29.49768682030301
 20
1.996862451194029
 10
29.49771992425901
 20
1.996842630259034
 10
29.49775538976802
 20
1.996820849566
 10
29.49779065020001
 20
1.996798622703004
 10
29.49782569190801
 20
1.996775954808011
 10
29.49786050124501
 20
1.996752851014999
 10
29.49789506456101
 20
1.996729316461024
 10
29.49792936821101
 20
1.996705356281999
 10
29.49796339854501
 20
1.996680975614022
 10
29.49799954081701
 20
1.99665439269
 10
29.498035336882
 20
1.99662733927499
 10
29.49807076995302
 20
1.996599821687023
 10
29.498105823245
 20
1.996571846241004
 10
29.498140479972
 20
1.996543419255995
 10
29.49817699113201
 20
1.996512606559004
 10
29.49821301161701
 20
1.996481294964034
 10
29.498246317074
 20
1.996451494061995
 10
29.49827915658401
 20
1.996421267729995
 10
29.49830937159701
 20
1.996392678229024
 10
29.49833915244801
 20
1.996363728771024
 10
29.49836640541301
 20
1.996336529312994
 10
29.49839326133
 20
1.996309028024024
 10
29.49841970927101
 20
1.996281229017989
 10
29.49844573831001
 20
1.996253136406034
 10
29.49846938385701
 20
1.996226947723011
 10
29.49849265456402
 20
1.996200515606
 10
29.498515541837
 20
1.996173843288995
 10
29.49853803708101
 20
1.996146934006043
 10
29.49855830599501
 20
1.996122061757995
 10
29.49857823165301
 20
1.996096995602039
 10
29.498597807437
 20
1.996071738028998
 10
29.49861702672702
 20
1.99604629153003
 10
29.49863588290201
 20
1.996020658597041
 10
29.498652704209
 20
1.995997196246033
 10
29.49866921497701
 20
1.995973583746998
 10
29.49868541023201
 20
1.995949822973041
 10
29.498701285
 20
1.995925915796014
 10
29.49871683430901
 20
1.995901864086018
 10
29.49873205318302
 20
1.995877669716033
 10
29.49874693665
 20
1.995853334558029
 10
29.49876147973601
 20
1.99582886048301
 10
29.49877427337701
 20
1.995806716589011
 10
29.498786783655
 20
1.995784463053037
 10
29.49879900694401
 20
1.995762101240014
 10
29.49881093961902
 20
1.995739632514009
 10
29.49882257805201
 20
1.995717058238989
 10
29.49883391862
 20
1.995694379780043
 10
29.498844957696
 20
1.995671598502038
 10
29.49885569165401
 20
1.995648715770009
 10
29.498866116868
 20
1.995625732945988
 10
29.49887622971301
 20
1.995602651397003
 10
29.498886026564
 20
1.995579472487004
 10
29.49889446666401
 20
1.99555878837901
 10
29.498902651678
 20
1.995538029380036
 10
29.49891057905801
 20
1.995517196448014
 10
29.49891824626002
 20
1.995496290541034
 10
29.49892565073501
 20
1.995475312619015
 10
29.49893278993801
 20
1.995454263639025
 10
29.49893966132201
 20
1.995433144558995
 10
29.49894626234101
 20
1.995411956339005
 10
29.49895259044801
 20
1.995390699934997
 10
29.49895864309601
 20
1.995369376308014
 10
29.49896441773901
 20
1.995347986413998
 10
29.49896991183101
 20
1.995326531213034
 10
29.49897512282501
 20
1.99530501166202
 10
29.49898004817402
 20
1.995283428720991
 10
29.49898468533302
 20
1.995261783345991
 10
29.498989031754
 20
1.995240076498014
 10
29.49899308489102
 20
1.995218309133004
 10
29.49899471258301
 20
1.995209071424989
  0
LWPOLYLINE
  5
840
330
1E
100
AcDbEntity
  8
1
100
AcDbPolyline
 90
       31
 70
     0
 43
0.0
 10
29.49899638880001
 20
1.995199213800044
 10
29.49900096103101
 20
1.995170869757994
 10
29.49900523026601
 20
1.995142473593993
 10
29.49900935328701
 20
1.995112889137995
 10
29.49901315769301
 20
1.995083254146034
 10
29.49901664812701
 20
1.995053571594034
 10
29.49901994546602
 20
1.995022700256009
 10
29.49902291442201
 20
1.994991784173004
 10
29.49902565204601
 20
1.994959679351035
 10
29.49902804790001
 20
1.994927533707989
 10
29.49903017521
 20
1.994894200939024
 10
29.49903194856501
 20
1.994860832500019
 10
29.49903341745299
 20
1.994826280284991
 10
29.49903452158001
 20
1.994791698888031
 10
29.499035286884
 20
1.994755938978011
 10
29.499035678188
 20
1.994720157836009
 10
29.49903569816601
 20
1.994683205541998
 10
29.49903531931501
 20
1.994645086295004
 10
29.49903454426301
 20
1.994606960690014
 10
29.49903334136101
 20
1.99456767954501
 10
29.49903168524001
 20
1.994527249791014
 10
29.49902955138201
 20
1.99448567958802
 10
29.49902691625501
 20
1.994442978408013
 10
29.49902375745701
 20
1.994399157133041
 10
29.49902005386201
 20
1.994354228143999
 10
29.49901567312301
 20
1.994307055700001
 10
29.49901068644301
 20
1.994258809112005
 10
29.49900494169901
 20
1.994208361565991
 10
29.49899839030502
 20
1.994155741950003
 10
29.49899098693802
 20
1.994100983971004
 10
29.49898519089101
 20
1.994060831468
  0
LWPOLYLINE
  5
861
330
1E
100
AcDbEntity
  8
1
100
AcDbPolyline
 90
       41
 70
     0
 43
0.0
 10
25.0398591377
 20
-7.261904686099969
 10
25.06000726993201
 20
-7.291810457369992
 10
25.080539414327
 20
-7.321457858690965
 10
25.10145402452001
 20
-7.350839194088964
 10
25.12274955415002
 20
-7.37994676759098
 10
25.14442445685101
 20
-7.408772883224971
 10
25.16647719607101
 20
-7.43731001589697
 10
25.18890627169301
 20
-7.465551275190991
 10
25.21256196091501
 20
-7.494518783062007
 10
25.23661911173402
 20
-7.52315332288498
 10
25.26107605701901
 20
-7.551447372637996
 10
25.28593076938601
 20
-7.579393246554959
 10
25.31118055453301
 20
-7.606982955746959
 10
25.33682264591601
 20
-7.634208478485961
 10
25.36285427699001
 20
-7.661061793044952
 10
25.39022325946301
 20
-7.688473215925003
 10
25.417038652484
 20
-7.714544083020999
 10
25.44423370484601
 20
-7.740218495931005
 10
25.47081367564199
 20
-7.764593047733002
 10
25.49774004971601
 20
-7.788584418134976
 10
25.52399331259401
 20
-7.811318418969962
 10
25.55056100858802
 20
-7.833684185957968
 10
25.57640000776201
 20
-7.854836600103967
 10
25.60252311867202
 20
-7.875637128076963
 10
25.62892710109101
 20
-7.896080166114987
 10
25.65453589469001
 20
-7.915363994293955
 10
25.68039677163202
 20
-7.934308374938954
 10
25.70650618576201
 20
-7.952908452281977
 10
25.73175764561502
 20
-7.970405949970999
 10
25.75723098427102
 20
-7.987578506077003
 10
25.78292300836501
 20
-8.004421953757006
 10
25.80883038221001
 20
-8.020932336689956
 10
25.83380976570401
 20
-8.036409593455973
 10
25.858980178749
 20
-8.051575080294982
 10
25.88433868741701
 20
-8.066425356542996
 10
25.90988216947001
 20
-8.080956950646001
 10
25.93443341216802
 20
-8.094527404877963
 10
25.95914571396201
 20
-8.107800992129002
 10
25.98401529213001
 20
-8.120774517977
 10
26.00903836394801
 20
-8.133444788000987
 10
26.02459512074001
 20
-8.14113052365599
  0
TEXT
  5
93B
330
1E
100
AcDbEntity
  8
6
100
AcDbText
 10
-16.11303694870412
 20
-37.38365049627132
 30
0.0
 40
5.0
  1
15B1D020030X6R00
100
AcDbText
  0
LINE
  5
A0B
330
1E
100
AcDbEntity
  8
SK4
100
AcDbLine
 10
0.0
 20
0.0
 30
0.0
 11
-22.5
 21
0.0000000000000028
 31
0.0
  0
SPLINE
  5
3CA3
330
1E
100
AcDbEntity
  8
CUT
100
AcDbSpline
210
0.0
220
0.0
230
1.0
 70
     8
 71
     3
 72
    36
 73
    32
 74
    30
 42
0.0000000001
 43
0.0000000001
 44
0.0000000001
 12
0.9999999736264378
 22
0.0002296674197609
 32
0.0
 13
-0.9999999769269409
 23
0.0002148164739482
 33
0.0
 40
0.0
 40
0.0
 40
0.0
 40
0.0
 40
0.3248337384570652
 40
0.6496612345299737
 40
0.9744773748740163
 40
1.299278616478786
 40
1.624062683409423
 40
1.94882041369462
 40
2.273547340921187
 40
2.598239708748026
 40
2.922893837828482
 40
3.247509369590301
 40
3.572080186926055
 40
3.896603084369365
 40
4.2210789499896
 40
4.545510545655004
 40
4.869900545654997
 40
5.194249629213126
 40
5.518567292564982
 40
5.842862786836795
 40
6.167152331142495
 40
6.491449246917237
 40
6.815769222572424
 40
7.14013081624992
 40
7.464553160716212
 40
7.789052541407444
 40
8.113635995552915
 40
8.438301289423389
 40
8.763041615573376
 40
9.087840058434474
 40
9.41267050240947
 40
9.41267050240947
 40
9.41267050240947
 40
9.41267050240947
 10
27.0044
 20
10.0
 30
0.0
 10
27.11267790996335
 20
10.00002486790885
 30
0.0
 10
27.32941465151921
 20
9.988250175990206
 30
0.0
 10
27.65056266436999
 20
9.93564521403881
 30
0.0
 10
27.96417394908921
 20
9.848630329912726
 30
0.0
 10
28.26652359270932
 20
9.728249700840798
 30
0.0
 10
28.55407889182628
 20
9.57590765018819
 30
0.0
 10
28.82346656233842
 20
9.393397834279056
 30
0.0
 10
29.0715255144775
 20
9.182858911585055
 30
0.0
 10
29.2953501557242
 20
8.946765903605179
 30
0.0
 10
29.49231629712812
 20
8.687888121591953
 30
0.0
 10
29.66011462170449
 20
8.409265124363756
 30
0.0
 10
29.7967789084436
 20
8.114169152371744
 30
0.0
 10
29.90070300493155
 20
7.806064609444089
 30
0.0
 10
29.97067137126537
 20
7.488569798350927
 30
0.0
 10
30.00586388594446
 20
7.165411330282987
 30
0.0
 10
30.00586621987999
 20
6.840384206085486
 30
0.0
 10
29.97067754929933
 20
6.517305548072142
 30
0.0
 10
29.90071254161689
 20
6.199968797935406
 30
0.0
 10
29.79678904700551
 20
5.892097251491517
 30
0.0
 10
29.66012375275557
 20
5.597303877905404
 30
0.0
 10
29.49232072634691
 20
5.31904524773715
 30
0.0
 10
29.29534938582643
 20
5.060581443940541
 30
0.0
 10
29.07151609460619
 20
4.824940172527954
 30
0.0
 10
28.82344792548721
 20
4.614871779456867
 30
0.0
 10
28.55405411997119
 20
4.432825259949831
 30
0.0
 10
28.26649378234277
 20
4.28091907631372
 30
0.0
 10
27.96414512476243
 20
4.160914096976338
 30
0.0
 10
27.65053954675305
 20
4.074191544397493
 30
0.0
 10
27.32940146792721
 20
4.021772274070825
 30
0.0
 10
27.11267681216006
 20
4.010041740356461
 30
0.0
 10
27.0044
 20
4.010064999999997
 30
0.0
 11
27.0044
 21
10.0
 31
0.0
 11
27.32875799999999
 21
9.982426000000003
 31
0.0
 11
27.64931199999998
 21
9.929908999999991
 31
0.0
 11
27.96230399999998
 21
9.84306699999999
 31
0.0
 11
28.26406599999998
 21
9.72291899999999
 31
0.0
 11
28.55106199999999
 21
9.570872999999991
 31
0.0
 11
28.81992399999998
 21
9.388716999999999
 31
0.0
 11
29.06749899999999
 21
9.17858799999999
 31
0.0
 11
29.290886
 21
8.942953999999996
 31
0.0
 11
29.48746599999997
 21
8.684580999999994
 31
0.0
 11
29.65493599999999
 21
8.406499999999994
 31
0.0
 11
29.79133099999998
 21
8.11197899999999
 31
0.0
 11
29.89504999999999
 21
7.804476999999991
 31
0.0
 11
29.96487899999999
 21
7.48760399999999
 31
0.0
 11
30.0
 21
7.165078999999991
 31
0.0
 11
30.0
 21
6.840688999999997
 31
0.0
 11
29.96487899999999
 21
6.518247000000002
 31
0.0
 11
29.89504999999999
 21
6.20153599999999
 31
0.0
 11
29.79133099999998
 21
5.894273999999994
 31
0.0
 11
29.65493599999999
 21
5.600062999999991
 31
0.0
 11
29.48746599999997
 21
5.32235399999999
 31
0.0
 11
29.290886
 21
5.064401000000001
 31
0.0
 11
29.06749899999999
 21
4.829222999999998
 31
0.0
 11
28.81992399999998
 21
4.619564999999994
 31
0.0
 11
28.55106199999999
 21
4.437870000000001
 31
0.0
 11
28.26406599999998
 21
4.286253000000002
 31
0.0
 11
27.96230399999998
 21
4.166472999999995
 31
0.0
 11
27.64931199999998
 21
4.079914999999997
 31
0.0
 11
27.32875799999999
 21
4.027577999999991
 31
0.0
 11
27.0044
 21
4.010064999999997
 31
0.0
  0
SPLINE
  5
3CA4
330
1E
100
AcDbEntity
  8
CUT
100
AcDbSpline
210
0.0
220
0.0
230
1.0
 70
     8
 71
     3
 72
    36
 73
    32
 74
    30
 42
0.0000000001
 43
0.0000000001
 44
0.0000000001
 12
-0.9999999736264378
 22
0.0002296674197609
 32
0.0
 13
0.9999999769269409
 23
0.0002148164739482
 33
0.0
 40
0.0
 40
0.0
 40
0.0
 40
0.0
 40
0.3248337384570936
 40
0.6496612345300019
 40
0.9744773748740447
 40
1.299278616478814
 40
1.624062683409436
 40
1.948820413694647
 40
2.273547340921214
 40
2.598239708748037
 40
2.922893837828518
 40
3.247509369590328
 40
3.572080186926082
 40
3.896603084369393
 40
4.221078949989628
 40
4.545510545655031
 40
4.869900545655025
 40
5.194249629213152
 40
5.518567292565009
 40
5.842862786836822
 40
6.167152331142522
 40
6.491449246917254
 40
6.815769222572468
 40
7.140130816249946
 40
7.464553160716238
 40
7.789052541407484
 40
8.11363599555294
 40
8.438301289423414
 40
8.763041615573401
 40
9.087840058434499
 40
9.412670502409524
 40
9.412670502409524
 40
9.412670502409524
 40
9.412670502409524
 10
27.0044
 20
10.0
 30
0.0
 10
26.89612209003664
 20
10.00002486790885
 30
0.0
 10
26.67938534848078
 20
9.988250175990206
 30
0.0
 10
26.35823733562998
 20
9.93564521403881
 30
0.0
 10
26.04462605091076
 20
9.848630329912728
 30
0.0
 10
25.74227640729066
 20
9.728249700840802
 30
0.0
 10
25.45472110817371
 20
9.575907650188181
 30
0.0
 10
25.18533343766156
 20
9.39339783427906
 30
0.0
 10
24.93727448552248
 20
9.182858911585064
 30
0.0
 10
24.7134498442758
 20
8.946765903605156
 30
0.0
 10
24.51648370287183
 20
8.687888121591974
 30
0.0
 10
24.3486853782955
 20
8.409265124363749
 30
0.0
 10
24.21202109155637
 20
8.114169152371744
 30
0.0
 10
24.10809699506844
 20
7.806064609444087
 30
0.0
 10
24.0381286287346
 20
7.488569798350926
 30
0.0
 10
24.00293611405553
 20
7.16541133028299
 30
0.0
 10
24.00293378012
 20
6.840384206085483
 30
0.0
 10
24.03812245070063
 20
6.517305548072144
 30
0.0
 10
24.1080874583831
 20
6.199968797935407
 30
0.0
 10
24.21201095299447
 20
5.892097251491513
 30
0.0
 10
24.34867624724442
 20
5.597303877905411
 30
0.0
 10
24.51647927365304
 20
5.319045247737128
 30
0.0
 10
24.71345061417356
 20
5.060581443940564
 30
0.0
 10
24.93728390539378
 20
4.824940172527942
 30
0.0
 10
25.18535207451277
 20
4.614871779456865
 30
0.0
 10
25.45474588002879
 20
4.43282525994984
 30
0.0
 10
25.74230621765721
 20
4.280919076313716
 30
0.0
 10
26.04465487523756
 20
4.160914096976338
 30
0.0
 10
26.35826045324693
 20
4.074191544397492
 30
0.0
 10
26.67939853207278
 20
4.021772274070822
 30
0.0
 10
26.89612318783994
 20
4.010041740356461
 30
0.0
 10
27.0044
 20
4.010064999999997
 30
0.0
 11
27.0044
 21
10.0
 31
0.0
 11
26.68004199999999
 21
9.982426000000003
 31
0.0
 11
26.35948799999999
 21
9.929908999999991
 31
0.0
 11
26.04649599999999
 21
9.84306699999999
 31
0.0
 11
25.74473399999999
 21
9.72291899999999
 31
0.0
 11
25.457738
 21
9.570872999999991
 31
0.0
 11
25.18887599999999
 21
9.388716999999999
 31
0.0
 11
24.94130099999998
 21
9.17858799999999
 31
0.0
 11
24.717914
 21
8.942953999999996
 31
0.0
 11
24.52133399999999
 21
8.684580999999994
 31
0.0
 11
24.35386399999998
 21
8.406499999999994
 31
0.0
 11
24.21746899999999
 21
8.11197899999999
 31
0.0
 11
24.11374999999998
 21
7.804476999999991
 31
0.0
 11
24.04392099999998
 21
7.48760399999999
 31
0.0
 11
24.00879999999998
 21
7.165078999999991
 31
0.0
 11
24.00879999999998
 21
6.840688999999997
 31
0.0
 11
24.04392099999998
 21
6.518247000000002
 31
0.0
 11
24.11374999999998
 21
6.20153599999999
 31
0.0
 11
24.21746899999999
 21
5.894273999999994
 31
0.0
 11
24.35386399999998
 21
5.600062999999991
 31
0.0
 11
24.52133399999999
 21
5.32235399999999
 31
0.0
 11
24.717914
 21
5.064401000000001
 31
0.0
 11
24.94130099999998
 21
4.829222999999998
 31
0.0
 11
25.18887599999999
 21
4.619564999999994
 31
0.0
 11
25.457738
 21
4.437870000000001
 31
0.0
 11
25.74473399999999
 21
4.286253000000002
 31
0.0
 11
26.04649599999999
 21
4.166472999999995
 31
0.0
 11
26.35948799999999
 21
4.079914999999997
 31
0.0
 11
26.68004199999999
 21
4.027577999999991
 31
0.0
 11
27.0044
 21
4.010064999999997
 31
0.0
  0
LINE
  5
3CB3
330
1E
100
AcDbEntity
  8
NOCUT
100
AcDbLine
 10
0.0
 20
0.0
 30
0.0
 11
0.0
 21
8.5
 31
0.0
  0
LINE
  5
3CB4
330
1E
100
AcDbEntity
  8
NOCUT
100
AcDbLine
 10
29.49999999999997
 20
0.0
 30
0.0
 11
-0.0000000000000284
 21
-0.0000000000000142
 31
0.0
  0
LINE
  5
3CB5
330
1E
100
AcDbEntity
  8
NOCUT
100
AcDbLine
 10
24.72623659980003
 20
8.5
 30
0.0
 11
6.5
 21
8.5
 31
0.0
  0
LINE
  5
3CB6
330
1E
100
AcDbEntity
  8
NOCUT
100
AcDbLine
 10
6.0
 20
9.0
 30
0.0
 11
0.5
 21
9.0
 31
0.0
  0
ARC
  5
3CB7
330
1E
100
AcDbEntity
  8
NOCUT
100
AcDbCircle
 10
0.5
 20
8.5
 30
0.0
 40
0.5
100
AcDbArc
 50
90.0
 51
180.0
  0
LINE
  5
3CB8
330
1E
100
AcDbEntity
  8
NOCUT
100
AcDbLine
 10
6.5
 20
8.5
 30
0.0
 11
6.0
 21
9.0
 31
0.0
  0
LINE
  5
3CB9
330
1E
100
AcDbEntity
  8
NOCUT
100
AcDbLine
 10
29.49999999999997
 20
7.099999999999994
 30
0.0
 11
29.49999999999997
 21
0.0
 31
0.0
  0
ARC
  5
3CBA
330
1E
100
AcDbEntity
  8
NOCUT
100
AcDbCircle
 10
26.99999999999997
 20
7.099999999999994
 30
0.0
 40
2.5
100
AcDbArc
 50
0.0
 51
141.6334857440995
  0
ARC
  5
3CBB
330
1E
100
AcDbEntity
  8
NOCUT
100
AcDbCircle
 10
24.72623659980003
 20
8.899999999999991
 30
0.0
 40
0.4
100
AcDbArc
 50
270.0
 51
321.6334857440995
  0
TEXT
  5
3CC3
330
1E
100
AcDbEntity
  8
6
100
AcDbText
 10
51.07755638403836
 20
-2.645381648439068
 30
0.0
 40
3.5
  1
Z=4
 50
90.0
100
AcDbText
  0
TEXT
  5
3CC4
330
1E
100
AcDbEntity
  8
6
100
AcDbText
 10
6.887835851450404
 20
16.39466994030422
 30
0.0
 40
2.5
  1
RHHW0602M0TN
100
AcDbText
  0
LWPOLYLINE
  5
3E57
330
1E
100
AcDbEntity
  8
1
100
AcDbPolyline
 90
        3
 70
     1
 43
0.0
 10
0.0
 20
-0.0000000000000284
 10
-2.950972054112583
 20
-0.0000000000000284
 42
0.4142135623730966
 10
0.0
 20
-2.950972054112611
  0
HATCH
  5
3E58
330
1E
100
AcDbEntity
  8
1
100
AcDbHatch
 10
0.0
 20
0.0
 30
0.0
210
0.0
220
0.0
230
1.0
  2
SOLID
 70
     1
 71
     0
 91
        2
 92
        7
 72
     1
 73
     1
 93
        3
 10
0.0
 20
-0.0000000000000284
 42
0.0
 10
2.950972054112583
 20
-0.0000000000000284
 42
0.4142135623730966
 10
0.0
 20
2.950972054112583
 42
0.0
 97
        0
 92
        7
 72
     1
 73
     1
 93
        3
 10
0.0
 20
-2.950972054112526
 42
0.0
 10
0.0
 20
-0.0000000000000284
 42
0.0
 10
-2.950972054112583
 20
-0.0000000000000284
 42
0.4142135623730953
 97
        0
 75
     0
 76
     1
 47
0.1190009775223266
 98
        2
 10
0.7445530588119027
 20
0.9212244733764691
 10
-1.279464601852936
 20
-1.69679692304632
  0
CIRCLE
  5
3E59
330
1E
100
AcDbEntity
  8
1
100
AcDbCircle
 10
0.0
 20
-0.0000000000000284
 30
0.0
 40
2.950972054112601
  0
LINE
  5
3E5A
330
1E
100
AcDbEntity
  8
1
100
AcDbLine
 10
0.0
 20
2.950972054112583
 30
0.0
 11
0.0
 21
-2.950972054112611
 31
0.0
  0
LINE
  5
3E5C
330
1E
100
AcDbEntity
  8
1
100
AcDbLine
 10
-2.950972054112837
 20
-0.0000000000000284
 30
0.0
 11
2.950972054112583
 21
-0.0000000000000284
 31
0.0
  0
LWPOLYLINE
  5
3E5D
330
1E
100
AcDbEntity
  8
1
100
AcDbPolyline
 90
        3
 70
     1
 43
0.0
 10
0.0
 20
2.950972054112583
 10
0.0
 20
-0.0000000000000284
 10
2.950972054112583
 20
-0.0000000000000284
 42
0.4142135623730966
  0
ENDSEC
  0
SECTION
  2
OBJECTS
  0
DICTIONARY
  5
C
330
0
100
AcDbDictionary
281
     1
  3
ACAD_COLOR
350
3FCE
  3
ACAD_GROUP
350
D
  3
ACAD_LAYOUT
350
19
  3
ACAD_MATERIAL
350
3FCD
  3
ACAD_MLINESTYLE
350
16
  3
ACAD_PLOTSETTINGS
350
18
  3
ACAD_PLOTSTYLENAME
350
3C6C
  3
ACAD_TABLESTYLE
350
3FCF
  3
ACDBHEADERROUNDTRIPXREC
350
3FD7
  3
AcDbVariableDictionary
350
3FD2
1001
ACAD
1000
TREAT_AS_HARD
1070
     0
  0
DICTIONARY
  5
32A1
330
1E
100
AcDbDictionary
280
     1
281
     1
  3
ACAD_LAYOUTSELFREF
360
32A2
  0
DICTIONARY
  5
329F
330
1A
100
AcDbDictionary
280
     1
281
     1
  3
ACAD_LAYOUTSELFREF
360
32A0
  0
DICTIONARY
  5
3FCE
102
{ACAD_REACTORS
330
C
102
}
330
C
100
AcDbDictionary
281
     1
  0
DICTIONARY
  5
D
102
{ACAD_REACTORS
330
C
102
}
330
C
100
AcDbDictionary
281
     1
1001
ACAD
1000
TREAT_AS_HARD
1070
     0
  0
DICTIONARY
  5
19
102
{ACAD_REACTORS
330
C
102
}
330
C
100
AcDbDictionary
281
     1
  3
Layout1
350
3C6F
  3
Model
350
3C6E
1001
ACAD
1000
TREAT_AS_HARD
1070
     0
  0
DICTIONARY
  5
3FCD
102
{ACAD_REACTORS
330
C
102
}
330
C
100
AcDbDictionary
281
     1
  0
DICTIONARY
  5
16
102
{ACAD_REACTORS
330
C
102
}
330
C
100
AcDbDictionary
281
     1
  3
STANDARD
350
17
1001
ACAD
1000
TREAT_AS_HARD
1070
     0
  0
DICTIONARY
  5
18
102
{ACAD_REACTORS
330
C
102
}
330
C
100
AcDbDictionary
281
     1
1001
ACAD
1000
TREAT_AS_HARD
1070
     0
  0
ACDBDICTIONARYWDFLT
  5
3C6C
102
{ACAD_REACTORS
330
C
102
}
330
C
100
AcDbDictionary
281
     1
  3
Normal
350
3C6D
100
AcDbDictionaryWithDefault
340
3C6D
  0
DICTIONARY
  5
3FCF
102
{ACAD_REACTORS
330
C
102
}
330
C
100
AcDbDictionary
281
     1
  3
Standard
350
3FD0
  0
DICTIONARY
  5
3FD7
102
{ACAD_REACTORS
330
C
102
}
330
C
100
AcDbDictionary
281
     1
  0
DICTIONARY
  5
3FD2
102
{ACAD_REACTORS
330
C
102
}
330
C
100
AcDbDictionary
281
     1
  3
CTABLESTYLE
350
3FD3
  3
DIMASSOC
350
3FD4
  3
PROJECTNAME
350
3FD5
  0
XRECORD
  5
32A2
102
{ACAD_REACTORS
330
32A1
102
}
330
32A1
100
AcDbXrecord
280
     1
340
1E
  0
XRECORD
  5
32A0
102
{ACAD_REACTORS
330
329F
102
}
330
329F
100
AcDbXrecord
280
     1
340
1A
  0
LAYOUT
  5
3C6F
102
{ACAD_XDICTIONARY
360
3FDA
102
}
102
{ACAD_REACTORS
330
19
102
}
330
19
100
AcDbPlotSettings
  1

  2
\\ingdom02\ITB2
  4

  6

 40
0.0
 41
0.0
 42
0.0
 43
0.0
 44
0.0
 45
0.0
 46
0.0
 47
0.0
 48
0.0
 49
0.0
140
0.0
141
0.0
142
1.0
143
1.0
 70
   688
 72
     0
 73
     0
 74
     5
  7

 75
    16
147
1.0
148
0.0
149
0.0
100
AcDbLayout
  1
Layout1
 70
     1
 71
     1
 10
0.0
 20
0.0
 11
12.0
 21
9.0
 12
0.0
 22
0.0
 32
0.0
 14
100.0
 24
100.0
 34
100.0
 15
-100.0
 25
-100.0
 35
-100.0
146
0.0
 13
0.0
 23
0.0
 33
0.0
 16
1.0
 26
0.0
 36
0.0
 17
0.0
 27
1.0
 37
0.0
 76
     0
330
1A
  0
LAYOUT
  5
3C6E
102
{ACAD_XDICTIONARY
360
3FD8
102
}
102
{ACAD_REACTORS
330
19
102
}
330
19
100
AcDbPlotSettings
  1

  2
\\ingdom02\ITB2
  4

  6

 40
0.0
 41
0.0
 42
0.0
 43
0.0
 44
0.0
 45
0.0
 46
0.0
 47
0.0
 48
0.0
 49
0.0
140
0.0
141
0.0
142
1.0
143
1.0
 70
  1712
 72
     0
 73
     0
 74
     0
  7

 75
     0
147
1.0
148
0.0
149
0.0
100
AcDbLayout
  1
Model
 70
     1
 71
     0
 10
0.0
 20
0.0
 11
12.0
 21
9.0
 12
0.0
 22
0.0
 32
0.0
 14
0.0
 24
0.0
 34
0.0
 15
0.0
 25
0.0
 35
0.0
146
0.0
 13
0.0
 23
0.0
 33
0.0
 16
1.0
 26
0.0
 36
0.0
 17
0.0
 27
1.0
 37
0.0
 76
     0
330
1E
  0
MLINESTYLE
  5
17
102
{ACAD_REACTORS
330
16
102
}
330
16
100
AcDbMlineStyle
  2
STANDARD
 70
     0
  3

 62
   256
 51
90.0
 52
90.0
 71
     2
 49
0.5
 62
   256
  6
BYLAYER
 49
-0.5
 62
   256
  6
BYLAYER
  0
ACDBPLACEHOLDER
  5
3C6D
102
{ACAD_REACTORS
330
3C6C
102
}
330
3C6C
  0
TABLESTYLE
  5
3FD0
102
{ACAD_REACTORS
330
3FCF
102
}
330
3FCF
100
AcDbTableStyle
  3
Standard
 70
     0
 71
     0
 40
0.06
 41
0.06
280
     0
281
     0
  7
STANDARD
140
0.18
170
     2
 62
     0
 63
     7
283
     0
274
    -2
284
     1
 64
     0
275
    -2
285
     1
 65
     0
276
    -2
286
     1
 66
     0
277
    -2
287
     1
 67
     0
278
    -2
288
     1
 68
     0
279
    -2
289
     1
 69
     0
  7
STANDARD
140
0.25
170
     5
 62
     0
 63
     7
283
     0
274
    -2
284
     1
 64
     0
275
    -2
285
     1
 65
     0
276
    -2
286
     1
 66
     0
277
    -2
287
     1
 67
     0
278
    -2
288
     1
 68
     0
279
    -2
289
     1
 69
     0
  7
STANDARD
140
0.18
170
     5
 62
     0
 63
     7
283
     0
274
    -2
284
     1
 64
     0
275
    -2
285
     1
 65
     0
276
    -2
286
     1
 66
     0
277
    -2
287
     1
 67
     0
278
    -2
288
     1
 68
     0
279
    -2
289
     1
 69
     0
  0
DICTIONARYVAR
  5
3FD3
102
{ACAD_REACTORS
330
3FD2
102
}
330
3FD2
100
DictionaryVariables
280
     0
  1
STANDARD
  0
DICTIONARYVAR
  5
3FD4
102
{ACAD_REACTORS
330
3FD2
102
}
330
3FD2
100
DictionaryVariables
280
     0
  1
1
  0
DICTIONARYVAR
  5
3FD5
102
{ACAD_REACTORS
330
3FD2
102
}
330
3FD2
100
DictionaryVariables
280
     0
  1

  0
DICTIONARY
  5
3FDA
330
3C6F
100
AcDbDictionary
280
     1
281
     1
  3
ACAD_XREC_ROUNDTRIP
360
3FDB
  0
DICTIONARY
  5
3FD8
330
3C6E
100
AcDbDictionary
280
     1
281
     1
  3
ACAD_XREC_ROUNDTRIP
360
3FD9
  0
XRECORD
  5
3FDB
102
{ACAD_REACTORS
330
3FDA
102
}
330
3FDA
100
AcDbXrecord
280
     1
102
SHADEPLOT
 70
     0
102
SHADEPLOTRESLEVEL
 70
     2
102
SHADEPLOTCUSTOMDPI
 70
   300
  0
XRECORD
  5
3FD9
102
{ACAD_REACTORS
330
3FD8
102
}
330
3FD8
100
AcDbXrecord
280
     1
102
SHADEPLOT
 70
     0
102
SHADEPLOTRESLEVEL
 70
     2
102
SHADEPLOTCUSTOMDPI
 70
   300
  0
ENDSEC
  0
EOF
