  0
SECTION
  2
HEADER
  9
$ACADVER
  1
AC1015
  9
$ACADMAINTVER
 70
    20
  9
$DWGCODEPAGE
  3
ANSI_1252
  9
$INSBASE
 10
0.0
 20
0.0
 30
0.0
  9
$EXTMIN
 10
-33.18156610316464
 20
-35.64333339913901
 30
-0.0015258207003583
  9
$EXTMAX
 10
44.70009002055803
 20
17.43698257993571
 30
0.0000000349246037
  9
$LIMMIN
 10
0.0
 20
0.0
  9
$LIMMAX
 10
594.0
 20
420.0
  9
$ORTHOMODE
 70
     0
  9
$REGENMODE
 70
     1
  9
$FILLMODE
 70
     1
  9
$QTEXTMODE
 70
     0
  9
$MIRRTEXT
 70
     1
  9
$LTSCALE
 40
10.0
  9
$ATTMODE
 70
     1
  9
$TEXTSIZE
 40
0.2
  9
$TRACEWID
 40
0.05
  9
$TEXTSTYLE
  7
STANDARD
  9
$CLAYER
  8
0
  9
$CELTYPE
  6
BYLAYER
  9
$CECOLOR
 62
   256
  9
$CELTSCALE
 40
1.0
  9
$DISPSILH
 70
     0
  9
$DIMSCALE
 40
1.0
  9
$DIMASZ
 40
2.5
  9
$DIMEXO
 40
3.712499999999999
  9
$DIMDLI
 40
22.572
  9
$DIMRND
 40
0.0
  9
$DIMDLE
 40
0.0
  9
$DIMEXE
 40
10.692
  9
$DIMTP
 40
0.01
  9
$DIMTM
 40
0.01
  9
$DIMTXT
 40
3.5
  9
$DIMCEN
 40
5.346
  9
$DIMTSZ
 40
0.0
  9
$DIMTOL
 70
     1
  9
$DIMLIM
 70
     0
  9
$DIMTIH
 70
     1
  9
$DIMTOH
 70
     1
  9
$DIMSE1
 70
     0
  9
$DIMSE2
 70
     0
  9
$DIMTAD
 70
     0
  9
$DIMZIN
 70
     0
  9
$DIMBLK
  1
_FILLED
  9
$DIMASO
 70
     1
  9
$DIMSHO
 70
     1
  9
$DIMPOST
  1

  9
$DIMAPOST
  1

  9
$DIMALT
 70
     0
  9
$DIMALTD
 70
     2
  9
$DIMALTF
 40
25.4
  9
$DIMLFAC
 40
1.0
  9
$DIMTOFL
 70
     0
  9
$DIMTVP
 40
0.0
  9
$DIMTIX
 70
     0
  9
$DIMSOXD
 70
     0
  9
$DIMSAH
 70
     0
  9
$DIMBLK1
  1

  9
$DIMBLK2
  1

  9
$DIMSTYLE
  2
STANDARD
  9
$DIMCLRD
 70
     0
  9
$DIMCLRE
 70
     0
  9
$DIMCLRT
 70
     0
  9
$DIMTFAC
 40
1.0
  9
$DIMGAP
 40
0.09
  9
$DIMJUST
 70
     0
  9
$DIMSD1
 70
     0
  9
$DIMSD2
 70
     0
  9
$DIMTOLJ
 70
     1
  9
$DIMTZIN
 70
     0
  9
$DIMALTZ
 70
     0
  9
$DIMALTTZ
 70
     0
  9
$DIMUPT
 70
     0
  9
$DIMDEC
 70
     4
  9
$DIMTDEC
 70
     4
  9
$DIMALTU
 70
     2
  9
$DIMALTTD
 70
     2
  9
$DIMTXSTY
  7
STANDARD
  9
$DIMAUNIT
 70
     0
  9
$DIMADEC
 70
     0
  9
$DIMALTRND
 40
0.0
  9
$DIMAZIN
 70
     0
  9
$DIMDSEP
 70
    46
  9
$DIMATFIT
 70
     3
  9
$DIMFRAC
 70
     0
  9
$DIMLDRBLK
  1
_FILLED
  9
$DIMLUNIT
 70
     2
  9
$DIMLWD
 70
    -2
  9
$DIMLWE
 70
    -2
  9
$DIMTMOVE
 70
     0
  9
$LUNITS
 70
     2
  9
$LUPREC
 70
     4
  9
$SKETCHINC
 40
0.1
  9
$FILLETRAD
 40
0.0
  9
$AUNITS
 70
     0
  9
$AUPREC
 70
     0
  9
$MENU
  1

  9
$ELEVATION
 40
0.0
  9
$PELEVATION
 40
0.0
  9
$THICKNESS
 40
0.0
  9
$LIMCHECK
 70
     0
  9
$CHAMFERA
 40
0.0
  9
$CHAMFERB
 40
0.0
  9
$CHAMFERC
 40
0.0
  9
$CHAMFERD
 40
0.0
  9
$SKPOLY
 70
     0
  9
$TDCREATE
 40
2453431.699973299
  9
$TDUCREATE
 40
2453431.616639965
  9
$TDUPDATE
 40
2453909.272708253
  9
$TDUUPDATE
 40
2453909.189374919
  9
$TDINDWG
 40
0.7362089236
  9
$TDUSRTIMER
 40
0.0892597801
  9
$USRTIMER
 70
     1
  9
$ANGBASE
 50
0.0
  9
$ANGDIR
 70
     0
  9
$PDMODE
 70
     0
  9
$PDSIZE
 40
0.3125
  9
$PLINEWID
 40
0.0
  9
$SPLFRAME
 70
     0
  9
$SPLINETYPE
 70
     6
  9
$SPLINESEGS
 70
     8
  9
$HANDSEED
  5
4CCF
  9
$SURFTAB1
 70
     6
  9
$SURFTAB2
 70
     6
  9
$SURFTYPE
 70
     6
  9
$SURFU
 70
     6
  9
$SURFV
 70
     6
  9
$UCSBASE
  2

  9
$UCSNAME
  2

  9
$UCSORG
 10
0.0
 20
0.0
 30
0.0
  9
$UCSXDIR
 10
1.0
 20
0.0
 30
0.0
  9
$UCSYDIR
 10
0.0
 20
1.0
 30
0.0
  9
$UCSORTHOREF
  2

  9
$UCSORTHOVIEW
 70
     0
  9
$UCSORGTOP
 10
0.0
 20
0.0
 30
0.0
  9
$UCSORGBOTTOM
 10
0.0
 20
0.0
 30
0.0
  9
$UCSORGLEFT
 10
0.0
 20
0.0
 30
0.0
  9
$UCSORGRIGHT
 10
0.0
 20
0.0
 30
0.0
  9
$UCSORGFRONT
 10
0.0
 20
0.0
 30
0.0
  9
$UCSORGBACK
 10
0.0
 20
0.0
 30
0.0
  9
$PUCSBASE
  2

  9
$PUCSNAME
  2

  9
$PUCSORG
 10
0.0
 20
0.0
 30
0.0
  9
$PUCSXDIR
 10
1.0
 20
0.0
 30
0.0
  9
$PUCSYDIR
 10
0.0
 20
1.0
 30
0.0
  9
$PUCSORTHOREF
  2

  9
$PUCSORTHOVIEW
 70
     0
  9
$PUCSORGTOP
 10
0.0
 20
0.0
 30
0.0
  9
$PUCSORGBOTTOM
 10
0.0
 20
0.0
 30
0.0
  9
$PUCSORGLEFT
 10
0.0
 20
0.0
 30
0.0
  9
$PUCSORGRIGHT
 10
0.0
 20
0.0
 30
0.0
  9
$PUCSORGFRONT
 10
0.0
 20
0.0
 30
0.0
  9
$PUCSORGBACK
 10
0.0
 20
0.0
 30
0.0
  9
$USERI1
 70
     0
  9
$USERI2
 70
     0
  9
$USERI3
 70
     0
  9
$USERI4
 70
     0
  9
$USERI5
 70
     0
  9
$USERR1
 40
0.0
  9
$USERR2
 40
0.0
  9
$USERR3
 40
0.0
  9
$USERR4
 40
0.0
  9
$USERR5
 40
0.0
  9
$WORLDVIEW
 70
     1
  9
$SHADEDGE
 70
     3
  9
$SHADEDIF
 70
    70
  9
$TILEMODE
 70
     1
  9
$MAXACTVP
 70
    64
  9
$PINSBASE
 10
0.0
 20
0.0
 30
0.0
  9
$PLIMCHECK
 70
     0
  9
$PEXTMIN
 10
100.0
 20
100.0
 30
100.0
  9
$PEXTMAX
 10
-100.0
 20
-100.0
 30
-100.0
  9
$PLIMMIN
 10
0.0
 20
0.0
  9
$PLIMMAX
 10
12.0
 20
9.0
  9
$UNITMODE
 70
     0
  9
$VISRETAIN
 70
     1
  9
$PLINEGEN
 70
     1
  9
$PSLTSCALE
 70
     1
  9
$TREEDEPTH
 70
  3020
  9
$CMLSTYLE
  2
STANDARD
  9
$CMLJUST
 70
     0
  9
$CMLSCALE
 40
1.0
  9
$PROXYGRAPHICS
 70
     1
  9
$MEASUREMENT
 70
     0
  9
$CELWEIGHT
370
    -1
  9
$ENDCAPS
280
     0
  9
$JOINSTYLE
280
     0
  9
$LWDISPLAY
290
     0
  9
$INSUNITS
 70
     0
  9
$HYPERLINKBASE
  1

  9
$STYLESHEET
  1

  9
$XEDIT
290
     1
  9
$CEPSNTYPE
380
     0
  9
$PSTYLEMODE
290
     1
  9
$FINGERPRINTGUID
  2
{603DF065-6ADE-4465-8CB6-697746DE2FA6}
  9
$VERSIONGUID
  2
{D85EEC83-52A6-45D7-AFBD-395A3A89AF6E}
  9
$EXTNAMES
290
     1
  9
$PSVPSCALE
 40
0.0
  9
$OLESTARTUP
290
     0
  0
ENDSEC
  0
SECTION
  2
CLASSES
  0
CLASS
  1
ACDBDICTIONARYWDFLT
  2
AcDbDictionaryWithDefault
  3
ObjectDBX Classes
 90
        0
280
     0
281
     0
  0
CLASS
  1
ACDBPLACEHOLDER
  2
AcDbPlaceHolder
  3
ObjectDBX Classes
 90
        0
280
     0
281
     0
  0
CLASS
  1
LAYOUT
  2
AcDbLayout
  3
ObjectDBX Classes
 90
        0
280
     0
281
     0
  0
CLASS
  1
TABLESTYLE
  2
AcDbTableStyle
  3
ObjectDBX Classes
 90
     2047
280
     0
281
     0
  0
CLASS
  1
DICTIONARYVAR
  2
AcDbDictionaryVar
  3
ObjectDBX Classes
 90
        0
280
     0
281
     0
  0
ENDSEC
  0
SECTION
  2
TABLES
  0
TABLE
  2
VPORT
  5
8
330
0
100
AcDbSymbolTable
 70
     2
  0
VPORT
  5
4CC9
330
8
100
AcDbSymbolTableRecord
100
AcDbViewportTableRecord
  2
*Active
 70
     0
 10
0.0
 20
0.0
 11
1.0
 21
1.0
 12
5.759261958696698
 22
-9.103175409601647
 13
0.0
 23
0.0
 14
1.0
 24
1.0
 15
0.0
 25
0.0
 16
0.0
 26
0.0
 36
1.0
 17
0.0
 27
0.0
 37
0.0
 40
53.48448082155499
 41
1.532401524777636
 42
50.0
 43
0.0
 44
0.0
 50
0.0
 51
0.0
 71
     0
 72
  1000
 73
     1
 74
     1
 75
     0
 76
     0
 77
     0
 78
     0
281
     0
 65
     1
110
0.0
120
0.0
130
0.0
111
1.0
121
0.0
131
0.0
112
0.0
122
1.0
132
0.0
 79
     0
146
0.0
  0
ENDTAB
  0
TABLE
  2
LTYPE
  5
5
330
0
100
AcDbSymbolTable
 70
     2
  0
LTYPE
  5
13
330
5
100
AcDbSymbolTableRecord
100
AcDbLinetypeTableRecord
  2
BYBLOCK
 70
     0
  3

 72
    65
 73
     0
 40
0.0
  0
LTYPE
  5
14
330
5
100
AcDbSymbolTableRecord
100
AcDbLinetypeTableRecord
  2
BYLAYER
 70
     0
  3

 72
    65
 73
     0
 40
0.0
  0
LTYPE
  5
15
330
5
100
AcDbSymbolTableRecord
100
AcDbLinetypeTableRecord
  2
CONTINUOUS
 70
     0
  3
Solid line
 72
    65
 73
     0
 40
0.0
  0
LTYPE
  5
2A
330
5
100
AcDbSymbolTableRecord
100
AcDbLinetypeTableRecord
  2
CENTER
 70
     0
  3
____ _ ____ _ ____ _ ____ _ ____ _ ____ _ ____
 72
    65
 73
     4
 40
0.6
 49
0.375
 74
     0
 49
-0.075
 74
     0
 49
0.075
 74
     0
 49
-0.075
 74
     0
  0
ENDTAB
  0
TABLE
  2
LAYER
  5
2
330
0
100
AcDbSymbolTable
 70
    11
  0
LAYER
  5
10
330
2
100
AcDbSymbolTableRecord
100
AcDbLayerTableRecord
  2
1
 70
     0
 62
     4
  6
CONTINUOUS
370
    -3
390
47D4
  0
LAYER
  5
2D
330
2
100
AcDbSymbolTableRecord
100
AcDbLayerTableRecord
  2
2
 70
     0
 62
     7
  6
CONTINUOUS
370
    -3
390
47D4
  0
LAYER
  5
2F
330
2
100
AcDbSymbolTableRecord
100
AcDbLayerTableRecord
  2
4
 70
     0
 62
     2
  6
CENTER
370
    -3
390
47D4
  0
LAYER
  5
32
330
2
100
AcDbSymbolTableRecord
100
AcDbLayerTableRecord
  2
0
 70
     0
 62
     7
  6
CONTINUOUS
370
    -3
390
47D4
  0
LAYER
  5
33
330
2
100
AcDbSymbolTableRecord
100
AcDbLayerTableRecord
  2
DEFPOINTS
 70
     0
 62
     7
  6
CONTINUOUS
290
     0
370
    -3
390
47D4
  0
LAYER
  5
7CE
330
2
100
AcDbSymbolTableRecord
100
AcDbLayerTableRecord
  2
SK1
 70
     0
 62
     4
  6
CONTINUOUS
370
    -3
390
47D4
  0
LAYER
  5
7CF
330
2
100
AcDbSymbolTableRecord
100
AcDbLayerTableRecord
  2
SK4
 70
     0
 62
     2
  6
CENTER
370
    -3
390
47D4
  0
LAYER
  5
7D0
330
2
100
AcDbSymbolTableRecord
100
AcDbLayerTableRecord
  2
SK2
 70
     0
 62
     7
  6
CONTINUOUS
370
    -3
390
47D4
  0
LAYER
  5
47FE
330
2
100
AcDbSymbolTableRecord
100
AcDbLayerTableRecord
  2
CUT
 70
     0
 62
     1
  6
CONTINUOUS
370
    -3
390
47D4
  0
LAYER
  5
4820
330
2
100
AcDbSymbolTableRecord
100
AcDbLayerTableRecord
  2
NOCUT
 70
     0
 62
     7
  6
CONTINUOUS
370
    -3
390
47D4
  0
LAYER
  5
4859
330
2
100
AcDbSymbolTableRecord
100
AcDbLayerTableRecord
  2
6
 70
     0
 62
     5
  6
CONTINUOUS
370
    -3
390
47D4
  0
ENDTAB
  0
TABLE
  2
STYLE
  5
3
330
0
100
AcDbSymbolTable
 70
     1
  0
STYLE
  5
11
330
3
100
AcDbSymbolTableRecord
100
AcDbTextStyleTableRecord
  2
STANDARD
 70
     0
 40
0.0
 41
0.8
 50
0.0
 71
     0
 42
0.2
  3
ISOCP
  4

  0
ENDTAB
  0
TABLE
  2
VIEW
  5
6
330
0
100
AcDbSymbolTable
 70
     0
  0
ENDTAB
  0
TABLE
  2
UCS
  5
7
330
0
100
AcDbSymbolTable
 70
     0
  0
ENDTAB
  0
TABLE
  2
APPID
  5
9
330
0
100
AcDbSymbolTable
 70
     1
  0
APPID
  5
12
330
9
100
AcDbSymbolTableRecord
100
AcDbRegAppTableRecord
  2
ACAD
 70
     0
  0
ENDTAB
  0
TABLE
  2
DIMSTYLE
  5
A
330
0
100
AcDbSymbolTable
 70
     2
100
AcDbDimStyleTable
 71
     0
  0
DIMSTYLE
105
2C
330
A
100
AcDbSymbolTableRecord
100
AcDbDimStyleTableRecord
  2
STANDARD
 70
     0
340
11
  0
DIMSTYLE
105
7D1
102
{ACAD_REACTORS
330
71
330
70
330
6E
330
6F
102
}
330
A
100
AcDbSymbolTableRecord
100
AcDbDimStyleTableRecord
  2
ISO-25
 70
     0
 41
2.5
 42
0.625
 43
3.75
 44
1.25
 73
     0
 74
     0
 77
     1
 78
     8
140
2.5
141
2.5
143
0.03937007874016
147
0.625
171
     3
172
     1
271
     2
272
     2
274
     3
283
     0
284
     8
340
11
  0
ENDTAB
  0
TABLE
  2
BLOCK_RECORD
  5
1
330
0
100
AcDbSymbolTable
 70
     5
  0
BLOCK_RECORD
  5
1E
102
{ACAD_XDICTIONARY
360
3C0E
102
}
330
1
100
AcDbSymbolTableRecord
100
AcDbBlockTableRecord
  2
*MODEL_SPACE
340
47D5
  0
BLOCK_RECORD
  5
1A
102
{ACAD_XDICTIONARY
360
3C0C
102
}
330
1
100
AcDbSymbolTableRecord
100
AcDbBlockTableRecord
  2
*PAPER_SPACE
340
47D6
  0
BLOCK_RECORD
  5
23
330
1
100
AcDbSymbolTableRecord
100
AcDbBlockTableRecord
  2
_FILLED
340
0
  0
BLOCK_RECORD
  5
92E
330
1
100
AcDbSymbolTableRecord
100
AcDbBlockTableRecord
  2
*D1
340
0
  0
BLOCK_RECORD
  5
93A
330
1
100
AcDbSymbolTableRecord
100
AcDbBlockTableRecord
  2
*D2
340
0
  0
BLOCK_RECORD
  5
948
330
1
100
AcDbSymbolTableRecord
100
AcDbBlockTableRecord
  2
*D3
340
0
  0
BLOCK_RECORD
  5
954
330
1
100
AcDbSymbolTableRecord
100
AcDbBlockTableRecord
  2
*D4
340
0
  0
ENDTAB
  0
ENDSEC
  0
SECTION
  2
BLOCKS
  0
BLOCK
  5
36
330
1E
100
AcDbEntity
  8
0
100
AcDbBlockBegin
  2
*MODEL_SPACE
 70
     0
 10
0.0
 20
0.0
 30
0.0
  3
*MODEL_SPACE
  1

  0
ENDBLK
  5
37
330
1E
100
AcDbEntity
  8
0
100
AcDbBlockEnd
  0
BLOCK
  5
34
330
1A
100
AcDbEntity
 67
     1
  8
0
100
AcDbBlockBegin
  2
*PAPER_SPACE
 70
     0
 10
0.0
 20
0.0
 30
0.0
  3
*PAPER_SPACE
  1

  0
ENDBLK
  5
35
330
1A
100
AcDbEntity
 67
     1
  8
0
100
AcDbBlockEnd
  0
BLOCK
  5
3A
330
23
100
AcDbEntity
  8
0
100
AcDbBlockBegin
  2
_FILLED
 70
     0
 10
0.0
 20
0.0
 30
0.0
  3
_FILLED
  1

  0
SOLID
  5
3B
330
23
100
AcDbEntity
  8
0
  6
ByBlock
 62
     0
100
AcDbTrace
 10
0.0
 20
0.0
 30
0.0
 11
-1.0
 21
0.132
 31
0.0
 12
-1.0
 22
-0.132
 32
0.0
 13
-1.0
 23
-0.132
 33
0.0
  0
ENDBLK
  5
3C
330
23
100
AcDbEntity
  8
0
100
AcDbBlockEnd
  0
BLOCK
  5
938
330
92E
100
AcDbEntity
  8
0
100
AcDbBlockBegin
  2
*D1
 70
     1
 10
0.0
 20
0.0
 30
0.0
  3
*D1
  1

  0
LINE
  5
4CBC
330
92E
100
AcDbEntity
  8
SK2
 62
     0
370
    -2
100
AcDbLine
 10
-0.9249999999999836
 20
-6.5
 30
0.0
 11
-31.41896208538984
 21
-6.499999999999991
 31
0.0
  0
LINE
  5
4CBD
330
92E
100
AcDbEntity
  8
SK2
 62
     0
370
    -2
100
AcDbLine
 10
-0.9249999999999818
 20
6.499999999999971
 30
0.0
 11
-31.41896208538984
 21
6.49999999999998
 31
0.0
  0
LINE
  5
4CBE
330
92E
100
AcDbEntity
  8
SK2
 62
     0
370
    -2
100
AcDbLine
 10
-30.16896208538984
 20
-3.999999999999991
 30
0.0
 11
-30.16896208538984
 21
3.99999999999998
 31
0.0
  0
SOLID
  5
4CBF
330
92E
100
AcDbEntity
  8
SK2
 62
     0
100
AcDbTrace
 10
-30.5856287520565
 20
-3.999999999999991
 30
0.0
 11
-29.75229541872317
 21
-3.999999999999991
 31
0.0
 12
-30.16896208538984
 22
-6.499999999999991
 32
0.0
 13
-30.16896208538984
 23
-6.499999999999991
 33
0.0
  0
SOLID
  5
4CC0
330
92E
100
AcDbEntity
  8
SK2
 62
     0
100
AcDbTrace
 10
-30.5856287520565
 20
3.99999999999998
 30
0.0
 11
-29.75229541872317
 21
3.99999999999998
 31
0.0
 12
-30.16896208538984
 22
6.49999999999998
 32
0.0
 13
-30.16896208538984
 23
6.49999999999998
 33
0.0
  0
MTEXT
  5
4CC1
330
92E
100
AcDbEntity
  8
SK2
 62
     0
100
AcDbMText
 10
-32.04396208538984
 20
0.180703305860334
 30
0.0
 40
2.5
 41
0.0
 71
     5
 72
     1
  1
%%c13
 11
0.0000000000000001
 21
1.0
 31
0.0
 73
     1
 44
1.0
1001
ACAD
1000
MTEXTBEGIN
1070
    73
1070
     1
1070
    44
1040
1.0
1070
    74
1070
     0
1000
MTEXTEND
  0
POINT
  5
4CC2
330
92E
100
AcDbEntity
  8
DEFPOINTS
 62
     0
100
AcDbPoint
 10
-0.2999999999999836
 20
-6.5
 30
0.0
  0
POINT
  5
4CC3
330
92E
100
AcDbEntity
  8
DEFPOINTS
 62
     0
100
AcDbPoint
 10
-0.299999999999982
 20
6.499999999999971
 30
0.0
  0
POINT
  5
4CC4
330
92E
100
AcDbEntity
  8
DEFPOINTS
 62
     0
100
AcDbPoint
 10
-30.16896208538984
 20
6.49999999999998
 30
0.0
  0
ENDBLK
  5
939
330
92E
100
AcDbEntity
  8
0
100
AcDbBlockEnd
  0
BLOCK
  5
946
330
93A
100
AcDbEntity
  8
0
100
AcDbBlockBegin
  2
*D2
 70
     1
 10
0.0
 20
0.0
 30
0.0
  3
*D2
  1

  0
LINE
  5
4CB3
330
93A
100
AcDbEntity
  8
SK2
 62
     0
370
    -2
100
AcDbLine
 10
-17.37499999999998
 20
-3.999999999999995
 30
0.0
 11
-25.17684203015938
 21
-3.999999999999993
 31
0.0
  0
LINE
  5
4CB4
330
93A
100
AcDbEntity
  8
SK2
 62
     0
370
    -2
100
AcDbLine
 10
-17.37499999999998
 20
3.999999999999973
 30
0.0
 11
-25.17684203015938
 21
3.999999999999976
 31
0.0
  0
LINE
  5
4CB5
330
93A
100
AcDbEntity
  8
SK2
 62
     0
370
    -2
100
AcDbLine
 10
-23.92684203015938
 20
-1.499999999999993
 30
0.0
 11
-23.92684203015938
 21
1.499999999999975
 31
0.0
  0
SOLID
  5
4CB6
330
93A
100
AcDbEntity
  8
SK2
 62
     0
100
AcDbTrace
 10
-24.34350869682605
 20
-1.499999999999993
 30
0.0
 11
-23.51017536349271
 21
-1.499999999999993
 31
0.0
 12
-23.92684203015938
 22
-3.999999999999993
 32
0.0
 13
-23.92684203015938
 23
-3.999999999999993
 33
0.0
  0
SOLID
  5
4CB7
330
93A
100
AcDbEntity
  8
SK2
 62
     0
100
AcDbTrace
 10
-24.34350869682605
 20
1.499999999999975
 30
0.0
 11
-23.51017536349271
 21
1.499999999999975
 31
0.0
 12
-23.92684203015938
 22
3.999999999999975
 32
0.0
 13
-23.92684203015938
 23
3.999999999999975
 33
0.0
  0
MTEXT
  5
4CB8
330
93A
100
AcDbEntity
  8
SK2
 62
     0
100
AcDbMText
 10
-25.80184203015938
 20
0.2558765252932746
 30
0.0
 40
2.5
 41
0.0
 71
     5
 72
     1
  1
M8
 11
0.0000000000000001
 21
1.0
 31
0.0
 73
     1
 44
1.0
1001
ACAD
1000
MTEXTBEGIN
1070
    73
1070
     1
1070
    44
1040
1.0
1070
    74
1070
     0
1000
MTEXTEND
  0
POINT
  5
4CB9
330
93A
100
AcDbEntity
  8
DEFPOINTS
 62
     0
100
AcDbPoint
 10
-16.74999999999998
 20
-3.999999999999996
 30
0.0
  0
POINT
  5
4CBA
330
93A
100
AcDbEntity
  8
DEFPOINTS
 62
     0
100
AcDbPoint
 10
-16.74999999999998
 20
3.999999999999973
 30
0.0
  0
POINT
  5
4CBB
330
93A
100
AcDbEntity
  8
DEFPOINTS
 62
     0
100
AcDbPoint
 10
-23.92684203015938
 20
3.999999999999975
 30
0.0
  0
ENDBLK
  5
947
330
93A
100
AcDbEntity
  8
0
100
AcDbBlockEnd
  0
BLOCK
  5
952
330
948
100
AcDbEntity
  8
0
100
AcDbBlockBegin
  2
*D3
 70
     1
 10
0.0
 20
0.0
 30
0.0
  3
*D3
  1

  0
LINE
  5
4847
330
948
100
AcDbEntity
  8
2
 62
     0
370
    -2
100
AcDbLine
 10
22.99999999999998
 20
-6.35405679160783
 30
0.0
 11
22.99999999999998
 21
-24.27479155177683
 31
0.0
  0
LINE
  5
4848
330
948
100
AcDbEntity
  8
2
 62
     0
370
    -2
100
AcDbLine
 10
-0.0000000000000007
 20
-6.125
 30
0.0
 11
-0.0000000000000018
 21
-24.27479155177683
 31
0.0
  0
LINE
  5
4849
330
948
100
AcDbEntity
  8
2
 62
     0
370
    -2
100
AcDbLine
 10
20.49999999999998
 20
-23.02479155177683
 30
0.0
 11
2.499999999999996
 21
-23.02479155177683
 31
0.0
  0
SOLID
  5
484A
330
948
100
AcDbEntity
  8
2
 62
     0
100
AcDbTrace
 10
20.49999999999998
 20
-22.60812488511015
 30
0.0
 11
20.49999999999998
 21
-23.44145821844349
 31
0.0
 12
22.99999999999998
 22
-23.02479155177683
 32
0.0
 13
22.99999999999998
 23
-23.02479155177683
 33
0.0
  0
SOLID
  5
484B
330
948
100
AcDbEntity
  8
2
 62
     0
100
AcDbTrace
 10
2.499999999999996
 20
-22.60812488511015
 30
0.0
 11
2.499999999999996
 21
-23.44145821844349
 31
0.0
 12
-0.0000000000000017
 22
-23.02479155177683
 32
0.0
 13
-0.0000000000000017
 23
-23.02479155177683
 33
0.0
  0
MTEXT
  5
484C
330
948
100
AcDbEntity
  8
2
 62
     0
100
AcDbMText
 10
11.28920908369998
 20
-21.1495454887847
 30
0.0
 40
2.5
 41
0.0
 71
     5
 72
     1
  1
23
 73
     1
 44
1.0
1001
ACAD
1000
MTEXTBEGIN
1070
    73
1070
     1
1070
    44
1040
1.0
1070
    74
1070
     0
1000
MTEXTEND
  0
POINT
  5
484D
330
948
100
AcDbEntity
  8
DEFPOINTS
 62
     0
100
AcDbPoint
 10
22.99999999999998
 20
-5.72905679160783
 30
0.0
  0
POINT
  5
484E
330
948
100
AcDbEntity
  8
DEFPOINTS
 62
     0
100
AcDbPoint
 10
-0.0000000000000007
 20
-5.5
 30
0.0
  0
POINT
  5
484F
330
948
100
AcDbEntity
  8
DEFPOINTS
 62
     0
100
AcDbPoint
 10
-0.0000000000000017
 20
-23.02479155177683
 30
0.0
  0
ENDBLK
  5
953
330
948
100
AcDbEntity
  8
0
100
AcDbBlockEnd
  0
BLOCK
  5
95E
330
954
100
AcDbEntity
  8
0
100
AcDbBlockBegin
  2
*D4
 70
     1
 10
0.0
 20
0.0
 30
0.0
  3
*D4
  1

  0
LINE
  5
4850
330
954
100
AcDbEntity
  8
2
 62
     0
370
    -2
100
AcDbLine
 10
21.54471286913757
 20
7.999999999999968
 30
0.0
 11
39.26295736916971
 21
7.999999999999962
 31
0.0
  0
LINE
  5
4851
330
954
100
AcDbEntity
  8
2
 62
     0
370
    -2
100
AcDbLine
 10
21.59163553211333
 20
-8.000000000000001
 30
0.0
 11
39.26295736916971
 21
-8.000000000000008
 31
0.0
  0
LINE
  5
4852
330
954
100
AcDbEntity
  8
2
 62
     0
370
    -2
100
AcDbLine
 10
38.01295736916971
 20
5.49999999999996
 30
0.0
 11
38.01295736916971
 21
-5.500000000000007
 31
0.0
  0
SOLID
  5
4853
330
954
100
AcDbEntity
  8
2
 62
     0
100
AcDbTrace
 10
37.59629070250305
 20
5.499999999999961
 30
0.0
 11
38.42962403583639
 21
5.49999999999996
 31
0.0
 12
38.01295736916971
 22
7.999999999999962
 32
0.0
 13
38.01295736916971
 23
7.999999999999962
 33
0.0
  0
SOLID
  5
4854
330
954
100
AcDbEntity
  8
2
 62
     0
100
AcDbTrace
 10
37.59629070250305
 20
-5.500000000000006
 30
0.0
 11
38.42962403583639
 21
-5.500000000000007
 31
0.0
 12
38.01295736916971
 22
-8.000000000000008
 32
0.0
 13
38.01295736916971
 23
-8.000000000000008
 33
0.0
  0
MTEXT
  5
4855
330
954
100
AcDbEntity
  8
2
 62
     0
100
AcDbMText
 10
36.13795736916971
 20
0.0106854372999648
 30
0.0
 40
2.5
 41
0.0
 71
     5
 72
     1
  1
%%c16
 11
0.0000000000000001
 21
1.0
 31
0.0
 73
     1
 44
1.0
1001
ACAD
1000
MTEXTBEGIN
1070
    73
1070
     1
1070
    44
1040
1.0
1070
    74
1070
     0
1000
MTEXTEND
  0
POINT
  5
4856
330
954
100
AcDbEntity
  8
DEFPOINTS
 62
     0
100
AcDbPoint
 10
20.91971286913757
 20
7.999999999999968
 30
0.0
  0
POINT
  5
4857
330
954
100
AcDbEntity
  8
DEFPOINTS
 62
     0
100
AcDbPoint
 10
20.96663553211334
 20
-8.000000000000001
 30
0.0
  0
POINT
  5
4858
330
954
100
AcDbEntity
  8
DEFPOINTS
 62
     0
100
AcDbPoint
 10
38.01295736916971
 20
-8.000000000000008
 30
0.0
  0
ENDBLK
  5
95F
330
954
100
AcDbEntity
  8
0
100
AcDbBlockEnd
  0
ENDSEC
  0
SECTION
  2
ENTITIES
  0
DIMENSION
  5
6E
330
1E
100
AcDbEntity
  8
2
100
AcDbDimension
  2
*D3
 10
-0.0000000000000017
 20
-23.02479155177683
 30
0.0
 11
11.28920908369998
 21
-23.02479155177683
 31
0.0
 70
   160
 71
     5
 42
22.99999999999998
  3
ISO-25
100
AcDbAlignedDimension
 13
22.99999999999998
 23
-5.72905679160783
 33
0.0
 14
-0.0000000000000007
 24
-5.5
 34
0.0
 50
180.0
100
AcDbRotatedDimension
  0
DIMENSION
  5
6F
330
1E
100
AcDbEntity
  8
2
100
AcDbDimension
  2
*D4
 10
38.01295736916971
 20
-8.000000000000008
 30
0.0
 11
38.01295736916971
 21
0.0106854372999646
 31
0.0
 70
   160
  1
%%c<>
 71
     5
 42
15.99999999999996
  3
ISO-25
100
AcDbAlignedDimension
 13
20.91971286913757
 23
7.999999999999968
 33
0.0
 14
20.96663553211334
 24
-8.000000000000001
 34
0.0
 50
270.0
100
AcDbRotatedDimension
  0
DIMENSION
  5
70
330
1E
100
AcDbEntity
  8
SK2
100
AcDbDimension
  2
*D2
 10
-23.92684203015938
 20
3.999999999999975
 30
0.0
 11
-23.92684203015938
 21
0.2558765252932744
 31
0.0
 70
   160
  1
M<>
 71
     5
 42
7.999999999999969
  3
ISO-25
100
AcDbAlignedDimension
 13
-16.74999999999998
 23
-3.999999999999996
 33
0.0
 14
-16.74999999999998
 24
3.999999999999973
 34
0.0
 50
89.99999999999998
100
AcDbRotatedDimension
  0
DIMENSION
  5
71
330
1E
100
AcDbEntity
  8
SK2
100
AcDbDimension
  2
*D1
 10
-30.16896208538984
 20
6.49999999999998
 30
0.0
 11
-30.16896208538984
 21
0.1807033058603338
 31
0.0
 70
   160
  1
%%c<>
 71
     5
 42
12.99999999999997
  3
ISO-25
100
AcDbAlignedDimension
 13
-0.2999999999999836
 23
-6.5
 33
0.0
 14
-0.299999999999982
 24
6.499999999999971
 34
0.0
 50
89.99999999999998
100
AcDbRotatedDimension
  0
LINE
  5
72
330
1E
100
AcDbEntity
  8
1
100
AcDbLine
 10
21.49999999999999
 20
-0.0000000000000026
 30
0.0
 11
21.49999999999999
 21
-2.388266897100038
 31
0.0
  0
LINE
  5
73
330
1E
100
AcDbEntity
  8
1
100
AcDbLine
 10
23.00440699999998
 20
-0.0000000000000028
 30
0.0
 11
22.55767898089998
 21
1.934991636799957
 31
0.0
  0
LINE
  5
74
330
1E
100
AcDbEntity
  8
1
100
AcDbLine
 10
22.55767898089998
 20
1.934991636799957
 30
0.0
 11
22.49267061769999
 21
1.999999999999995
 31
0.0
  0
LINE
  5
75
330
1E
100
AcDbEntity
  8
1
100
AcDbLine
 10
17.00440699999997
 20
-0.0000000000000021
 30
0.0
 11
17.0505806382
 21
0.1999999999999865
 31
0.0
  0
LINE
  5
76
330
1E
100
AcDbEntity
  8
1
100
AcDbLine
 10
22.49267061769999
 20
1.999999999999995
 30
0.0
 11
17.88134568409999
 21
1.999999999999995
 31
0.0
  0
LINE
  5
77
330
1E
100
AcDbEntity
  8
1
100
AcDbLine
 10
22.55767898089998
 20
1.934991636799957
 30
0.0
 11
17.6956372319
 21
1.934991636799957
 31
0.0
  0
LINE
  5
78
330
1E
100
AcDbEntity
  8
1
100
AcDbLine
 10
17.47829484099999
 20
0.2999999999999524
 30
0.0
 11
17.39825881289998
 21
0.2999999999999525
 31
0.0
  0
LINE
  5
79
330
1E
100
AcDbEntity
  8
1
100
AcDbLine
 10
17.20266022369997
 20
0.1999999999999865
 30
0.0
 11
10.03897379459999
 21
0.1999999999999874
 31
0.0
  0
LINE
  5
7A
330
1E
100
AcDbEntity
  8
1
100
AcDbLine
 10
23.00440699999998
 20
-0.0000000000000028
 30
0.0
 11
17.00440699999997
 21
-0.0000000000000021
 31
0.0
  0
LINE
  5
7C
330
1E
100
AcDbEntity
  8
1
100
AcDbLine
 10
17.68753378400001
 20
-5.997019175500042
 30
0.0
 11
17.00440699999997
 21
-5.997019175500042
 31
0.0
  0
LINE
  5
7D
330
1E
100
AcDbEntity
  8
1
100
AcDbLine
 10
22.5
 20
-4.749027923700056
 30
0.0
 11
22.5
 21
-0.3302916881000355
 31
0.0
  0
LINE
  5
7E
330
1E
100
AcDbEntity
  8
1
100
AcDbLine
 10
22.5
 20
3.341674788591991
 30
0.0
 11
22.5
 21
1.992670617699954
 31
0.0
  0
LINE
  5
7F
330
1E
100
AcDbEntity
  8
1
100
AcDbLine
 10
21.49999999999999
 20
2.401918880395369
 30
0.0
 11
21.49999999999999
 21
1.999999999999995
 31
0.0
  0
LINE
  5
80
330
1E
100
AcDbEntity
  8
SK4
100
AcDbLine
 10
20.00440699999998
 20
1.41875464808498
 30
0.0
 11
20.00440699999998
 21
8.721629805231968
 31
0.0
  0
LINE
  5
81
330
1E
100
AcDbEntity
  8
SK4
100
AcDbLine
 10
20.00440699999998
 20
-1.880603041950053
 30
0.0
 11
20.00440699999998
 21
-8.488722517639017
 31
0.0
  0
LINE
  5
82
330
1E
100
AcDbEntity
  8
1
100
AcDbLine
 10
8.999999999999998
 20
-4.153311931500013
 30
0.0
 11
8.999999999999998
 21
4.153311931399968
 31
0.0
  0
LINE
  5
83
330
1E
100
AcDbEntity
  8
1
100
AcDbLine
 10
9.351646057500003
 20
6.499999999999968
 30
0.0
 11
0.2000000000000178
 21
6.499999999999971
 31
0.0
  0
LINE
  5
84
330
1E
100
AcDbEntity
  8
1
100
AcDbLine
 10
17.20266022369997
 20
6.496922348299957
 30
0.0
 11
10.03897379459999
 21
6.496922348299957
 31
0.0
  0
LINE
  5
85
330
1E
100
AcDbEntity
  8
SK4
100
AcDbLine
 10
16.36019483712399
 20
5.007141999999957
 30
0.0
 11
23.41511594784598
 21
5.007141999999955
 31
0.0
  0
LINE
  5
86
330
1E
100
AcDbEntity
  8
SK1
100
AcDbLine
 10
-0.9999999999999987
 20
4.249999999999971
 30
0.0
 11
-5.599999999999991
 21
4.249999999999971
 31
0.0
  0
LINE
  5
87
330
1E
100
AcDbEntity
  8
1
100
AcDbLine
 10
8.999999999999998
 20
4.153311931399968
 30
0.0
 11
2.0
 21
4.153311931399969
 31
0.0
  0
LINE
  5
88
330
1E
100
AcDbEntity
  8
SK1
100
AcDbLine
 10
-0.2999999999999823
 20
4.079999999999984
 30
0.0
 11
-0.3128903637000056
 21
4.079999999999984
 31
0.0
  0
LINE
  5
89
330
1E
100
AcDbEntity
  8
SK1
100
AcDbLine
 10
-8.973528137499982
 20
3.999999999999971
 30
0.0
 11
-16.24999999999999
 21
3.999999999999973
 31
0.0
  0
LINE
  5
8A
330
1E
100
AcDbEntity
  8
SK1
100
AcDbLine
 10
-16.84999999999998
 20
3.399999999999978
 30
0.0
 11
-8.373528137499985
 21
3.399999999999976
 31
0.0
  0
LINE
  5
8B
330
1E
100
AcDbEntity
  8
SK1
100
AcDbLine
 10
-6.599999999999994
 20
3.125
 30
0.0
 11
-7.849999999999994
 21
3.125
 31
0.0
  0
LINE
  5
8C
330
1E
100
AcDbEntity
  8
SK1
100
AcDbLine
 10
-0.416417981699993
 20
4.093629669499961
 30
0.0
 11
-0.9999999999999987
 21
4.249999999999971
 31
0.0
  0
LINE
  5
8D
330
1E
100
AcDbEntity
  8
1
100
AcDbLine
 10
19.50440699999997
 20
2.507141999999983
 30
0.0
 11
17.00440699999997
 21
2.507141999999983
 31
0.0
  0
LINE
  5
8E
330
1E
100
AcDbEntity
  8
4
100
AcDbLine
 10
26.0
 20
-0.0000000000000032
 30
0.0
 11
0.0000000000000001
 21
0.0
 31
0.0
  0
LINE
  5
8F
330
1E
100
AcDbEntity
  8
1
100
AcDbLine
 10
1.999999999999999
 20
-4.153311931500013
 30
0.0
 11
2.0
 21
4.153311931399969
 31
0.0
  0
LINE
  5
90
330
1E
100
AcDbEntity
  8
1
100
AcDbLine
 10
-0.0000000000000008
 20
-6.300000000000013
 30
0.0
 11
0.0000000000000007
 21
6.299999434099959
 31
0.0
  0
LINE
  5
91
330
1E
100
AcDbEntity
  8
SK1
100
AcDbLine
 10
-0.9999999999999987
 20
4.249999999999971
 30
0.0
 11
-0.9999999999999998
 21
-4.25
 31
0.0
  0
LINE
  5
92
330
1E
100
AcDbEntity
  8
SK1
100
AcDbLine
 10
-0.4164179816999936
 20
-4.093629669500046
 30
0.0
 11
-0.9999999999999998
 21
-4.25
 31
0.0
  0
LINE
  5
93
330
1E
100
AcDbEntity
  8
SK1
100
AcDbLine
 10
-6.599999999999994
 20
-3.124999999999998
 30
0.0
 11
-7.849999999999994
 21
-3.124999999999998
 31
0.0
  0
LINE
  5
94
330
1E
100
AcDbEntity
  8
SK1
100
AcDbLine
 10
-16.84999999999998
 20
-3.400000000000028
 30
0.0
 11
-8.373528137499985
 21
-3.400000000000033
 31
0.0
  0
LINE
  5
95
330
1E
100
AcDbEntity
  8
SK1
100
AcDbLine
 10
-8.973528137499982
 20
-3.999999999999998
 30
0.0
 11
-16.24999999999999
 21
-3.999999999999998
 31
0.0
  0
LINE
  5
96
330
1E
100
AcDbEntity
  8
SK1
100
AcDbLine
 10
-0.2999999999999835
 20
-4.08000000000004
 30
0.0
 11
-0.3128903637000068
 21
-4.08000000000004
 31
0.0
  0
LINE
  5
97
330
1E
100
AcDbEntity
  8
1
100
AcDbLine
 10
8.999999999999998
 20
-4.153311931500013
 30
0.0
 11
1.999999999999999
 21
-4.153311931500013
 31
0.0
  0
LINE
  5
98
330
1E
100
AcDbEntity
  8
SK1
100
AcDbLine
 10
-0.9999999999999998
 20
-4.25
 30
0.0
 11
-5.599999999999995
 21
-4.249999999999999
 31
0.0
  0
LINE
  5
99
330
1E
100
AcDbEntity
  8
SK1
100
AcDbLine
 10
-8.274264068700006
 20
-3.300735931300037
 30
0.0
 11
-8.973528137499982
 21
-3.999999999999998
 31
0.0
  0
LINE
  5
9A
330
1E
100
AcDbEntity
  8
SK4
100
AcDbLine
 10
16.53651932456899
 20
-5.007142000000046
 30
0.0
 11
23.425943811805
 21
-5.007142000000047
 31
0.0
  0
LINE
  5
9B
330
1E
100
AcDbEntity
  8
SK1
100
AcDbLine
 10
-8.274264068700006
 20
3.300735931299981
 30
0.0
 11
-8.973528137499982
 21
3.999999999999971
 31
0.0
  0
LINE
  5
9C
330
1E
100
AcDbEntity
  8
1
100
AcDbLine
 10
17.47829484099999
 20
-6.493073232300049
 30
0.0
 11
17.39825881289998
 21
-6.493073232300049
 31
0.0
  0
LINE
  5
9D
330
1E
100
AcDbEntity
  8
1
100
AcDbLine
 10
17.20266022369997
 20
-6.496922348300016
 30
0.0
 11
10.03897379459999
 21
-6.496922348300016
 31
0.0
  0
LINE
  5
9E
330
1E
100
AcDbEntity
  8
1
100
AcDbLine
 10
9.351646057500003
 20
-6.5
 30
0.0
 11
0.2000000000000162
 21
-6.5
 31
0.0
  0
LINE
  5
9F
330
1E
100
AcDbEntity
  8
SK1
100
AcDbLine
 10
-5.599999999999991
 20
4.249999999999971
 30
0.0
 11
-5.599999999999995
 21
-4.249999999999999
 31
0.0
  0
LINE
  5
A0
330
1E
100
AcDbEntity
  8
SK1
100
AcDbLine
 10
-5.999999999999999
 20
4.019059309899971
 30
0.0
 11
-6.0
 21
-4.019059310000042
 31
0.0
  0
LINE
  5
A1
330
1E
100
AcDbEntity
  8
SK1
100
AcDbLine
 10
-5.599999999999991
 20
4.249999999999971
 30
0.0
 11
-5.999999999999999
 21
4.019059892299964
 31
0.0
  0
LINE
  5
A2
330
1E
100
AcDbEntity
  8
SK1
100
AcDbLine
 10
-5.599999999999995
 20
-4.249999999999999
 30
0.0
 11
-6.0
 21
-4.019059892400035
 31
0.0
  0
LINE
  5
A3
330
1E
100
AcDbEntity
  8
SK1
100
AcDbLine
 10
-8.373528480599985
 20
3.399999999999976
 30
0.0
 11
-8.373528480599985
 21
-3.400000000000033
 31
0.0
  0
LINE
  5
A4
330
1E
100
AcDbEntity
  8
SK1
100
AcDbLine
 10
-8.973528137499982
 20
3.999999999999971
 30
0.0
 11
-8.973528137499982
 21
-3.999999999999998
 31
0.0
  0
LINE
  5
A5
330
1E
100
AcDbEntity
  8
SK1
100
AcDbLine
 10
-16.24999999999999
 20
3.999999999999973
 30
0.0
 11
-17.49999999999999
 21
2.750000000000001
 31
0.0
  0
LINE
  5
A6
330
1E
100
AcDbEntity
  8
SK1
100
AcDbLine
 10
-16.24999999999999
 20
-3.999999999999998
 30
0.0
 11
-17.49999999999999
 21
-2.749999999999996
 31
0.0
  0
LINE
  5
A7
330
1E
100
AcDbEntity
  8
SK1
100
AcDbLine
 10
-16.24999999999999
 20
3.999999999999973
 30
0.0
 11
-16.24999999999999
 21
-3.999999999999998
 31
0.0
  0
LINE
  5
A8
330
1E
100
AcDbEntity
  8
SK1
100
AcDbLine
 10
-16.85000038149999
 20
3.399999999999978
 30
0.0
 11
-16.85000038149999
 21
-3.400000000000028
 31
0.0
  0
LINE
  5
A9
330
1E
100
AcDbEntity
  8
SK1
100
AcDbLine
 10
-17.49999999999999
 20
2.749999405399989
 30
0.0
 11
-17.49999999999999
 21
-2.749999405400043
 31
0.0
  0
ARC
  5
AA
330
1E
100
AcDbEntity
  8
1
100
AcDbCircle
 10
20.0000085013727
 20
4.999999999999966
 30
0.0
 40
3.0
100
AcDbArc
 50
288.2209022447655
 51
235.9430427419758
  0
CIRCLE
  5
AB
330
1E
100
AcDbEntity
  8
1
100
AcDbCircle
 10
20.00440699999998
 20
5.007141999999955
 30
0.0
 40
1.9
  0
ARC
  5
AD
330
1E
100
AcDbEntity
  8
1
100
AcDbCircle
 10
20.00440699999998
 20
-5.007142000000047
 30
0.0
 40
2.553271980999999
100
AcDbArc
 50
207.7935599074999
 51
12.19986738989996
  0
ARC
  5
AE
330
1E
100
AcDbEntity
  8
1
100
AcDbCircle
 10
20.00440699999998
 20
-5.007142000000047
 30
0.0
 40
2.488263617699999
100
AcDbArc
 50
208.9694462484998
 51
1.105127763899903
  0
ARC
  5
AF
330
1E
100
AcDbEntity
  8
1
100
AcDbCircle
 10
17.00440699999997
 20
12.50714199999996
 30
0.0
 40
10.0
100
AcDbArc
 50
217.1202151854
 51
270.0
  0
ARC
  5
B0
330
1E
100
AcDbEntity
  8
1
100
AcDbCircle
 10
19.50440699999997
 20
-0.4928580000000152
 30
0.0
 40
3.0
100
AcDbArc
 50
3.106006850299891
 51
9.455759278346905
  0
ARC
  5
B1
330
1E
100
AcDbEntity
  8
1
100
AcDbCircle
 10
20.00440699999998
 20
-5.007142000000047
 30
0.0
 40
2.6536977133
100
AcDbArc
 50
207.824592137
 51
209.7707909001
  0
ARC
  5
B2
330
1E
100
AcDbEntity
  8
1
100
AcDbCircle
 10
0.2000000000000162
 20
-6.300000000000013
 30
0.0
 40
0.2
100
AcDbArc
 50
180.0
 51
270.0
  0
ARC
  5
B3
330
1E
100
AcDbEntity
  8
1
100
AcDbCircle
 10
0.2000000000000178
 20
6.299999999999982
 30
0.0
 40
0.2
100
AcDbArc
 50
90.0
 51
180.0
  0
ARC
  5
B4
330
1E
100
AcDbEntity
  8
1
100
AcDbCircle
 10
20.00440699999998
 20
5.007141999999955
 30
0.0
 40
3.2
100
AcDbArc
 50
292.1832365371998
 51
297.8638948064999
  0
ARC
  5
B5
330
1E
100
AcDbEntity
  8
1
100
AcDbCircle
 10
20.00440699999998
 20
5.007141999999955
 30
0.0
 40
3.2
100
AcDbArc
 50
220.7137806397
 51
229.7299396585998
  0
ARC
  5
B6
330
1E
100
AcDbEntity
  8
SK1
100
AcDbCircle
 10
-0.2999999999999835
 20
-4.480000000000018
 30
0.0
 40
0.4
100
AcDbArc
 50
41.39990273140003
 51
90.0
  0
ARC
  5
B7
330
1E
100
AcDbEntity
  8
SK1
100
AcDbCircle
 10
-0.3128903637000068
 20
-4.480000000000018
 30
0.0
 40
0.4
100
AcDbArc
 50
90.0
 51
104.9999999999997
  0
ARC
  5
B8
330
1E
100
AcDbEntity
  8
SK1
100
AcDbCircle
 10
-6.599999999999995
 20
-3.72500000000002
 30
0.0
 40
0.6
100
AcDbArc
 50
0.0
 51
90.0
  0
ARC
  5
B9
330
1E
100
AcDbEntity
  8
SK1
100
AcDbCircle
 10
-7.849999999999994
 20
-3.72500000000002
 30
0.0
 40
0.6
100
AcDbArc
 50
90.0
 51
134.9999999999999
  0
ARC
  5
BA
330
1E
100
AcDbEntity
  8
SK1
100
AcDbCircle
 10
-0.2999999999999823
 20
4.47999999999996
 30
0.0
 40
0.4
100
AcDbArc
 50
270.0
 51
318.6000972686
  0
ARC
  5
BB
330
1E
100
AcDbEntity
  8
SK1
100
AcDbCircle
 10
-0.3128903637000056
 20
4.47999999999996
 30
0.0
 40
0.4
100
AcDbArc
 50
255.0
 51
270.0
  0
ARC
  5
BC
330
1E
100
AcDbEntity
  8
SK1
100
AcDbCircle
 10
-6.599999999999991
 20
3.724999999999965
 30
0.0
 40
0.6
100
AcDbArc
 50
270.0
 51
0.0
  0
ARC
  5
BD
330
1E
100
AcDbEntity
  8
SK1
100
AcDbCircle
 10
-7.849999999999994
 20
3.724999999999965
 30
0.0
 40
0.6
100
AcDbArc
 50
225.0
 51
270.0
  0
ARC
  5
BE
330
1E
100
AcDbEntity
  8
1
100
AcDbCircle
 10
20.00440699999998
 20
5.007141999999955
 30
0.0
 40
3.173205080799998
100
AcDbArc
 50
151.9989611437999
 51
212.3938346809999
  0
LWPOLYLINE
  5
BF
330
1E
100
AcDbEntity
  8
1
100
AcDbPolyline
 90
       78
 70
     0
 43
0.0
 10
17.20266022369997
 20
0.1999999999999865
 10
17.20402820339399
 20
0.2021150786209752
 10
17.20555218106398
 20
0.2044022887319535
 10
17.207108688103
 20
0.2066680515919735
 10
17.208697228426
 20
0.2089119322699823
 10
17.21031730595199
 20
0.2111334958349836
 10
17.211968424597
 20
0.213332307353992
 10
17.21365008827699
 20
0.2155079318969776
 10
17.21550578445599
 20
0.2178381881849966
 10
17.217396119085
 20
0.2201401827349493
 10
17.21932049969099
 20
0.2224135223869986
 10
17.221278354292
 20
0.2246578995989786
 10
17.223269111168
 20
0.2268730079229592
 10
17.22544914344998
 20
0.2292254250319822
 10
17.227665957462
 20
0.2315431590069444
 10
17.22991883913697
 20
0.2338258271009842
 10
17.2322070744
 20
0.236073046609986
 10
17.234529942762
 20
0.2382844560259493
 10
17.23688670678199
 20
0.2404597498729665
 10
17.23927662625099
 20
0.2425986318239645
 10
17.24169896096197
 20
0.2447008055509606
 10
17.24415297070398
 20
0.2467659747289851
 10
17.24645940911099
 20
0.2486502386299755
 10
17.24879192825899
 20
0.2505021027839668
 10
17.25114993600397
 20
0.252321331904964
 10
17.25353285216398
 20
0.2541077371309917
 10
17.25594010868698
 20
0.2558611766729633
 10
17.25837113806099
 20
0.2575815108379494
 10
17.26082537277498
 20
0.2592685999349534
 10
17.263302245318
 20
0.260922304268943
 10
17.26580118817799
 20
0.2625424841509678
 10
17.26832163384401
 20
0.2641289998849722
 10
17.27086301483199
 20
0.2656817118449886
 10
17.27342477210599
 20
0.2672004992639906
 10
17.27600636684198
 20
0.2686852865249969
 10
17.27860726317897
 20
0.2701360046199832
 10
17.28122692525398
 20
0.2715525845449612
 10
17.283864817204
 20
0.2729349572909975
 10
17.28652040316698
 20
0.2742830538539898
 10
17.28919314728099
 20
0.2755968052269944
 10
17.291882513684
 20
0.2768761424039761
 10
17.29458796809699
 20
0.2781209983829719
 10
17.29730899983799
 20
0.2793313360499475
 10
17.300045116342
 20
0.2805071412269605
 10
17.30279582550499
 20
0.2816484003239432
 10
17.30556063522199
 20
0.2827550997509982
 10
17.30833905338998
 20
0.2838272259179441
 10
17.31113058790499
 20
0.2848647652349976
 10
17.313934746664
 20
0.2858677041119769
 10
17.316751037562
 20
0.2868360289589853
 10
17.319578971839
 20
0.2877697298139857
 10
17.32241808250198
 20
0.2886688203609516
 10
17.32526791128199
 20
0.2895333237499905
 10
17.32812799992998
 20
0.2903632631609959
 10
17.33099789019798
 20
0.2911586617689729
 10
17.33387712383998
 20
0.2919195427529622
 10
17.33676524260799
 20
0.2926459292889925
 10
17.339661788253
 20
0.2933378445559903
 10
17.34256630252799
 20
0.2939953117299845
 10
17.34547833338498
 20
0.2946183562519856
 10
17.34839746862399
 20
0.29520701811799
 10
17.35132331180999
 20
0.2957613430759786
 10
17.354255466546
 20
0.2962813768929756
 10
17.357193536438
 20
0.2967671653339586
 10
17.36013712508999
 20
0.297218754163962
 10
17.36308583610599
 20
0.2976361891479635
 10
17.36603927308999
 20
0.2980195160529868
 10
17.36899703964699
 20
0.2983687806419631
 10
17.37195873726498
 20
0.2986840290479884
 10
17.374923935129
 20
0.2989653129929458
 10
17.377892177218
 20
0.299212688563953
 10
17.380863006847
 20
0.299426211961984
 10
17.383835967326
 20
0.2996059393869906
 10
17.38681060196999
 20
0.2997519270399472
 10
17.389786454089
 20
0.2998642311249547
 10
17.392763066998
 20
0.2999429078399751
 10
17.39573998400897
 20
0.2999880133879722
 10
17.39824881289699
 20
0.299999999810948
  0
LWPOLYLINE
  5
10F
330
1E
100
AcDbEntity
  8
1
100
AcDbPolyline
 90
       69
 70
     0
 43
0.0
 10
17.65752792109998
 20
1.799999999999949
 10
17.65722226199398
 20
1.802090170215985
 10
17.65694064013898
 20
1.804184047713985
 10
17.65669858433798
 20
1.806150130346958
 10
17.656477911584
 20
1.808118907418983
 10
17.656278746018
 20
1.810090106069988
 10
17.65610121178099
 20
1.812063453437983
 10
17.65594543301198
 20
1.814038676661992
 10
17.65581153385298
 20
1.816015502878993
 10
17.65569963844301
 20
1.817993659229949
 10
17.65560986812598
 20
1.819972874895993
 10
17.65554231957598
 20
1.82195289710597
 10
17.65549707662198
 20
1.823933482475975
 10
17.65547422298499
 20
1.825914387705946
 10
17.655473842386
 20
1.827895369493939
 10
17.65549601854599
 20
1.82987618453796
 10
17.65554083518398
 20
1.831856589537945
 10
17.65560837602198
 20
1.833836341192974
 10
17.65569872478
 20
1.835815196200993
 10
17.65580369693299
 20
1.837661098707994
 10
17.65592864811
 20
1.839505778963993
 10
17.65607361613898
 20
1.841349007699985
 10
17.65623863884501
 20
1.843190555648956
 10
17.65642375405498
 20
1.845030193541955
 10
17.65662899959699
 20
1.846867692111965
 10
17.65685441329599
 20
1.848702822092944
 10
17.65710003297997
 20
1.850535354214965
 10
17.657365896468
 20
1.852365059209938
 10
17.65765203320598
 20
1.854191706469969
 10
17.65795844738598
 20
1.856015061340994
 10
17.65828513846398
 20
1.857834888414964
 10
17.65863210589698
 20
1.859650952280954
 10
17.65899934914098
 20
1.861463017528985
 10
17.65938686765101
 20
1.863270848748976
 10
17.65979466088398
 20
1.865074210530958
 10
17.66022272829498
 20
1.866872867464959
 10
17.66067106873698
 20
1.868666584119974
 10
17.66113966302801
 20
1.870455124431995
 10
17.66162847130698
 20
1.872238251612994
 10
17.66213745257196
 20
1.874015728834985
 10
17.66266656582298
 20
1.875787319267995
 10
17.66321577005897
 20
1.877552786084944
 10
17.66378502427999
 20
1.879311892456993
 10
17.66437428748401
 20
1.88106440155496
 10
17.66498351867298
 20
1.882810076551944
 10
17.66565837183398
 20
1.884672590632984
 10
17.66635600118298
 20
1.886526702767976
 10
17.667076301011
 20
1.888372129017963
 10
17.66781916559498
 20
1.890208585446995
 10
17.668584489209
 20
1.892035788117991
 10
17.66937216612999
 20
1.893853453095968
 10
17.67018209063398
 20
1.895661296444981
 10
17.67101415699601
 20
1.897459034226979
 10
17.67186825543498
 20
1.899246386475961
 10
17.67274425094297
 20
1.901023097896993
 10
17.67364199882998
 20
1.902788922666954
 10
17.67456135438798
 20
1.904543614979954
 10
17.67550217290598
 20
1.906286929031974
 10
17.67646430967498
 20
1.908018619016953
 10
17.67751392329998
 20
1.909852665745969
 10
17.678587452087
 20
1.911672908882959
 10
17.679684706656
 20
1.91347904692895
 10
17.68080543148298
 20
1.915270763082953
 10
17.68194935119099
 20
1.917047735947956
 10
17.683116190398
 20
1.918809644126949
 10
17.68438076199998
 20
1.920664805652958
 10
17.68567056637698
 20
1.922502212229968
 10
17.68698527321899
 20
1.92432147835495
 10
17.68752782615098
 20
1.925057193753954
  0
LWPOLYLINE
  5
156
330
1E
100
AcDbEntity
  8
1
100
AcDbPolyline
 90
        3
 70
     0
 43
0.0
 10
17.68753378400001
 20
1.595841397899956
 10
17.65858186522498
 20
1.79306362173099
 10
17.657529424856
 20
1.799990113710972
  0
LWPOLYLINE
  5
15B
330
1E
100
AcDbEntity
  8
1
100
AcDbPolyline
 90
       11
 70
     0
 43
0.0
 10
17.47829484099999
 20
0.2999999999999524
 10
17.50730887213099
 20
0.4233642898749942
 10
17.53405786280301
 20
0.5426461998099496
 10
17.55910043585299
 20
0.6600054001489734
 10
17.58247800721997
 20
0.7754199424929859
 10
17.604238934348
 20
0.8888670868319628
 10
17.62482658831499
 20
1.002533017509958
 10
17.64405145154598
 20
1.115299841047995
 10
17.66229065936098
 20
1.229366113873989
 10
17.679517825377
 20
1.344723873832944
 10
17.687532407172
 20
1.401346426435958
  0
LWPOLYLINE
  5
168
330
1E
100
AcDbEntity
  8
1
100
AcDbPolyline
 90
        4
 70
     0
 43
0.0
 10
21.73455738719997
 20
-1.5
 10
21.6977227416
 20
-1.490250578288056
 10
21.65866190770198
 20
-1.480344187248024
 10
21.637940752651
 20
-1.475260150542055
  0
LWPOLYLINE
  5
16E
330
1E
100
AcDbEntity
  8
1
100
AcDbPolyline
 90
       34
 70
     0
 43
0.0
 10
22.17705030529999
 20
-1.800000000000013
 10
22.16755219559098
 20
-1.789711023769029
 10
22.15790449083697
 20
-1.779559729659013
 10
22.14773136891898
 20
-1.769164900090006
 10
22.137405094263
 20
-1.758920950122045
 10
22.12692982940998
 20
-1.748829103864013
 10
22.11630973468399
 20
-1.738890546941038
 10
22.105548919447
 20
-1.729105579481031
 10
22.094651442082
 20
-1.719473615901053
 10
22.083621358755
 20
-1.709994032088049
 10
22.07246272563098
 20
-1.700666203931009
 10
22.06075936735998
 20
-1.691152523917025
 10
22.04892663610798
 20
-1.681800591869034
 10
22.03696897247001
 20
-1.672609005889002
 10
22.02489078657301
 20
-1.663576105439004
 10
22.01225888565101
 20
-1.654386116803038
 10
21.99950733025599
 20
-1.64536272269504
 10
21.986641019759
 20
-1.636504077028009
 10
21.97321531242498
 20
-1.627511183001049
 10
21.95967656690597
 20
-1.618689706848043
 10
21.94602940300999
 20
-1.610036827906013
 10
21.93181834141197
 20
-1.601269644218009
 10
21.91703800822199
 20
-1.592402018341035
 10
21.90215057838598
 20
-1.58371626237505
 10
21.88669096702497
 20
-1.574945786377043
 10
21.87112752497998
 20
-1.566360895865047
 10
21.85498892970799
 20
-1.557705693618004
 10
21.83827138562199
 20
-1.54899256264804
 10
21.820971787209
 20
-1.540233572719045
 10
21.80308740208198
 20
-1.531440588618013
 10
21.78461551335899
 20
-1.522625395185004
 10
21.765554036004
 20
-1.513799400419033
 10
21.74590165199198
 20
-1.504973545808014
 10
21.73456655845398
 20
-1.500003985989055
  0
LWPOLYLINE
  5
192
330
1E
100
AcDbEntity
  8
1
100
AcDbPolyline
 90
       36
 70
     0
 43
0.0
 10
22.46364658349999
 20
-4.725211215400007
 10
22.45817956184898
 20
-4.694531974018048
 10
22.45197565510598
 20
-4.661875726720042
 10
22.44539781304698
 20
-4.62929284808604
 10
22.43845640419598
 20
-4.596785461756041
 10
22.430694081641
 20
-4.562331215670043
 10
22.42254454433698
 20
-4.527966465507009
 10
22.41350624062
 20
-4.491679743680037
 10
22.404059804103
 20
-4.455497094708049
 10
22.393659760784
 20
-4.417418763585033
 10
22.382833546377
 20
-4.379459367996051
 10
22.37099231916698
 20
-4.339631720178036
 10
22.35808437456298
 20
-4.29795671607002
 10
22.344707209889
 20
-4.256429895718044
 10
22.33020774177199
 20
-4.21308484183004
 10
22.31453789226298
 20
-4.167943853284042
 10
22.29765037536501
 20
-4.121029676398054
 10
22.27949988996098
 20
-4.072365765814028
 10
22.26004208654499
 20
-4.021975788416003
 10
22.239234751202
 20
-3.969883790317057
 10
22.21703744225401
 20
-3.916114006231055
 10
22.19341103207598
 20
-3.860690585069051
 10
22.16831940087498
 20
-3.803637839300053
 10
22.14085841090599
 20
-3.743092548630047
 10
22.111821421252
 20
-3.680985642528015
 10
22.08026712502698
 20
-3.615474402713006
 10
22.04610257917301
 20
-3.546613842993056
 10
22.00924017447298
 20
-3.474459663850042
 10
21.96959458884998
 20
-3.399068087053026
 10
21.927083390352
 20
-3.320495481533045
 10
21.88163104923196
 20
-3.238797907610037
 10
21.83211978812301
 20
-3.152233982767031
 10
21.77841489846499
 20
-3.060896251943008
 10
21.72038818983698
 20
-2.964878918915021
 10
21.65791086434798
 20
-2.864280986085022
 10
21.63793639305399
 20
-2.832679243798056
  0
LWPOLYLINE
  5
1B8
330
1E
100
AcDbEntity
  8
1
100
AcDbPolyline
 90
       58
 70
     0
 43
0.0
 10
22.4998843675
 20
-1.992193671000053
 10
22.49998251824699
 20
-1.991455526050003
 10
22.49989327087397
 20
-1.990755232162032
 10
22.49964208005498
 20
-1.990096689151015
 10
22.499252264345
 20
-1.989476109259046
 10
22.49874714230198
 20
-1.988889704730016
 10
22.49815003248099
 20
-1.988333687806004
 10
22.49748425343701
 20
-1.987804270731034
 10
22.49677312372799
 20
-1.987297665746043
 10
22.49603996190898
 20
-1.986810085096012
 10
22.494948410584
 20
-1.986106287074053
 10
22.49424276670999
 20
-1.985652117968014
 10
22.49355389417198
 20
-1.98520905555705
 10
22.492548358605
 20
-1.984563821336053
 10
22.49157111364398
 20
-1.983939808345043
 10
22.49061649235098
 20
-1.983334755282045
 10
22.489369061619
 20
-1.982553602667056
 10
22.48813834343399
 20
-1.981796776384044
 10
22.48660298377199
 20
-1.980876786626028
 10
22.48536075533698
 20
-1.980155096651004
 10
22.48409343055701
 20
-1.979440880948006
 10
22.48280028305301
 20
-1.978732688069045
 10
22.48148454078
 20
-1.978030282977043
 10
22.47981301532096
 20
-1.977160060299016
 10
22.47777614503698
 20
-1.976126607730011
 10
22.473642655343
 20
-1.974092077891043
 10
22.467441895047
 20
-1.971109296604026
 10
22.45720930414898
 20
-1.966264714957049
 10
22.383843532132
 20
-1.932079800848045
 10
22.363775754154
 20
-1.922315214987009
 10
22.34652751001897
 20
-1.91367481826802
 10
22.33139786436298
 20
-1.905875076967051
 10
22.31769667699198
 20
-1.898608701227034
 10
22.30507866522398
 20
-1.891724080759049
 10
22.29353405721198
 20
-1.885243371188041
 10
22.28305164776198
 20
-1.879190481948002
 10
22.27329489025798
 20
-1.873395496844013
 10
22.26457874998098
 20
-1.86807212251904
 10
22.25625014757198
 20
-1.86284137714
 10
22.24862480153798
 20
-1.857914697413038
 10
22.241693399745
 20
-1.853309218651022
 10
22.23513491078799
 20
-1.848827209998036
 10
22.22925475402098
 20
-1.844694477135023
 10
22.22373599273399
 20
-1.840706362252037
 10
22.21857493515798
 20
-1.836870069551024
 10
22.213767149941
 20
-1.833193426795047
 10
22.209308111357
 20
-1.829684375689055
 10
22.20519234288898
 20
-1.826351511917041
 10
22.20112525151999
 20
-1.82295932988103
 10
22.197396637161
 20
-1.819752882521017
 10
22.19399947854396
 20
-1.816741893069034
 10
22.19064921065599
 20
-1.813678751875045
 10
22.18762324377201
 20
-1.810822234997998
 10
22.184644111037
 20
-1.807916557306045
 10
22.18198015419599
 20
-1.805230103545
 10
22.17962225425199
 20
-1.802773860507046
 10
22.17730511552198
 20
-1.800279562190043
 10
22.177057034645
 20
-1.800007397022002
  0
LWPOLYLINE
  5
1F4
330
1E
100
AcDbEntity
  8
1
100
AcDbPolyline
 90
        2
 70
     0
 43
0.0
 10
17.68753378400001
 20
1.401356331199957
 10
17.70094645508699
 20
1.499990087198963
  0
LWPOLYLINE
  5
1F8
330
1E
100
AcDbEntity
  8
1
100
AcDbPolyline
 90
        2
 70
     0
 43
0.0
 10
17.70094777279998
 20
1.499999999999995
 10
17.68753518448198
 20
1.595831496452938
  0
LWPOLYLINE
  5
1FC
330
1E
100
AcDbEntity
  8
1
100
AcDbPolyline
 90
       74
 70
     0
 43
0.0
 10
17.68753378400001
 20
1.925065225199995
 10
17.688831820691
 20
1.926789524413944
 10
17.690154120504
 20
1.928495812756974
 10
17.691636250095
 20
1.930351506315954
 10
17.69314683512098
 20
1.932184510267969
 10
17.69468540261198
 20
1.933994355038973
 10
17.696251479597
 20
1.935780571059973
 10
17.69784459310498
 20
1.937542688758975
 10
17.69946427000201
 20
1.93928024241995
 10
17.70126092403498
 20
1.941147325858988
 10
17.70308799484299
 20
1.942984449309956
 10
17.70494485489798
 20
1.944791317657971
 10
17.70683087667399
 20
1.946567635789956
 10
17.70874543264499
 20
1.948313108592966
 10
17.71052497282998
 20
1.949885776516959
 10
17.71232747654598
 20
1.951432055315986
 10
17.71415242333898
 20
1.952951790041988
 10
17.71599926720298
 20
1.954444875583985
 10
17.71786746154001
 20
1.955911207992981
 10
17.71975645974698
 20
1.957350683320949
 10
17.72166571522398
 20
1.958763197618958
 10
17.72359468137199
 20
1.960148646936995
 10
17.72554281164898
 20
1.961506927993974
 10
17.72750956430201
 20
1.962837990202953
 10
17.72949440575199
 20
1.964141872943965
 10
17.731496803215
 20
1.965418624394994
 10
17.733516223912
 20
1.966668292730955
 10
17.73555213506
 20
1.967890926131983
 10
17.73760400387699
 20
1.969086572772991
 10
17.739671297583
 20
1.970255280831958
 10
17.74175348916898
 20
1.971397112910945
 10
17.74385008221998
 20
1.972512208030988
 10
17.74596059040898
 20
1.973600730425965
 10
17.748084527418
 20
1.974662844340965
 10
17.75022140692798
 20
1.975698714025948
 10
17.75256673762901
 20
1.976799015244974
 10
17.75492626084099
 20
1.977868492365983
 10
17.757299348117
 20
1.97890736197996
 10
17.759685420878
 20
1.97991589778598
 10
17.76208394229798
 20
1.980894421296961
 10
17.76449437683798
 20
1.981843255502948
 10
17.76691618895799
 20
1.982762723393985
 10
17.76934884312098
 20
1.983653147956994
 10
17.77179180378698
 20
1.984514852182993
 10
17.774449355747
 20
1.985416330640984
 10
17.77711775767698
 20
1.986284929845963
 10
17.77979646383498
 20
1.987121140282962
 10
17.782484932946
 20
1.987925455076944
 10
17.785182623733
 20
1.988698367350988
 10
17.787888994921
 20
1.989440370229995
 10
17.790812635322
 20
1.99020544856398
 10
17.79374504466398
 20
1.990935868547975
 10
17.79668564341498
 20
1.991632271002965
 10
17.79963392662699
 20
1.992295316009966
 10
17.80280075771401
 20
1.992969455390946
 10
17.805975214753
 20
1.993606872748951
 10
17.80915667938399
 20
1.994208380649975
 10
17.81234453324801
 20
1.994774791664948
 10
17.81575129887798
 20
1.995341195628949
 10
17.81916411770798
 20
1.995869584791985
 10
17.82279628736398
 20
1.996390455920956
 10
17.82643407721199
 20
1.996870723721994
 10
17.83029128589198
 20
1.99733630987998
 10
17.83415335275198
 20
1.997759124222963
 10
17.83823449904098
 20
1.998160579818994
 10
17.84231972186899
 20
1.998517573122964
 10
17.84662377323997
 20
1.998847104270961
 10
17.85114656982298
 20
1.999144093455978
 10
17.85588785648799
 20
1.999403715818968
 10
17.86084721152398
 20
1.999621469688973
 10
17.86602424971198
 20
1.999793206567968
 10
17.87141853743401
 20
1.999915224888976
 10
17.877245291033
 20
1.999985910629956
 10
17.88133568409898
 20
1.999999999917971
  0
LWPOLYLINE
  5
248
330
1E
100
AcDbEntity
  8
1
100
AcDbPolyline
 90
       51
 70
     0
 43
0.0
 10
21.49999999999999
 20
-2.388266897100038
 10
21.500040362146
 20
-2.395335090786036
 10
21.50016053409999
 20
-2.402402922815042
 10
21.50035914413499
 20
-2.40946944583004
 10
21.50063482052098
 20
-2.416533712474008
 10
21.50101227403298
 20
-2.424065375802002
 10
21.50147418666798
 20
-2.431592244525005
 10
21.50201899768398
 20
-2.439113288684042
 10
21.50264541361898
 20
-2.446627786093019
 10
21.503398996008
 20
-2.454604013164042
 10
21.504241789854
 20
-2.462571281824013
 10
21.5051722946
 20
-2.470528784446002
 10
21.50618901110799
 20
-2.478475713845002
 10
21.50735798123498
 20
-2.486877733144014
 10
21.50862070288698
 20
-2.495266209038048
 10
21.509975839791
 20
-2.503640320846046
 10
21.51142205567599
 20
-2.511999247889038
 10
21.51304594980098
 20
-2.520805179345019
 10
21.514768274752
 20
-2.529592317397034
 10
21.51658767104901
 20
-2.538359791121024
 10
21.51850295173198
 20
-2.54710680627602
 10
21.520621325033
 20
-2.55629121823904
 10
21.52284325458099
 20
-2.565451160693045
 10
21.52516736251198
 20
-2.574585710183045
 10
21.52759231866899
 20
-2.583693955064008
 10
21.53011701670398
 20
-2.592775039093055
 10
21.53287415802299
 20
-2.602280026321013
 10
21.53573891246999
 20
-2.611753170172049
 10
21.53871007521598
 20
-2.621193498226036
 10
21.54178644447598
 20
-2.630600038553041
 10
21.545120974345
 20
-2.640417232785013
 10
21.54856872835599
 20
-2.650195234703005
 10
21.55212866288298
 20
-2.659932981270002
 10
21.555799734299
 20
-2.669629409447054
 10
21.55958089897998
 20
-2.679283456196003
 10
21.563471154173
 20
-2.688894053160028
 10
21.567653970416
 20
-2.69889385544303
 10
21.571954191213
 20
-2.708843725968053
 10
21.57637090483401
 20
-2.718742413504005
 10
21.58090319954597
 20
-2.72858866682401
 10
21.58555018014096
 20
-2.738381234972054
 10
21.59031111842896
 20
-2.748118869781025
 10
21.595399868706
 20
-2.758219963857018
 10
21.600611298252
 20
-2.768258470338027
 10
21.60594469119698
 20
-2.778232972928039
 10
21.611399331659
 20
-2.788142042909045
 10
21.616974503502
 20
-2.797984004370051
 10
21.62266949035898
 20
-2.807756953888032
 10
21.62848357585198
 20
-2.817458979562049
 10
21.63441604360499
 20
-2.827088169491051
 10
21.63792567598799
 20
-2.832662357575033
  0
LWPOLYLINE
  5
27D
330
1E
100
AcDbEntity
  8
1
100
AcDbPolyline
 90
       97
 70
     0
 43
0.0
 10
21.63793103449998
 20
-1.475257793100015
 10
21.636156731767
 20
-1.47481280097304
 10
21.63438903159598
 20
-1.474340270144013
 10
21.63262843054301
 20
-1.473840355384029
 10
21.630875425169
 20
-1.47331321145805
 10
21.62913051203299
 20
-1.472758993136041
 10
21.62739418769199
 20
-1.472177855186034
 10
21.625666948707
 20
-1.471569952375999
 10
21.62394929163498
 20
-1.47093543947301
 10
21.62224171303599
 20
-1.470274471247024
 10
21.62054469899998
 20
-1.469587210698025
 10
21.61885861941299
 20
-1.468873912216053
 10
21.61718377172298
 20
-1.468134887159011
 10
21.61552045228098
 20
-1.467370447751024
 10
21.61386895743401
 20
-1.466580906212018
 10
21.61222958353298
 20
-1.465766574767029
 10
21.61060262692699
 20
-1.464927765638039
 10
21.60898838396496
 20
-1.464064791046043
 10
21.60738715099699
 20
-1.463177963216028
 10
21.60579922430998
 20
-1.462267594416005
 10
21.604224867663
 20
-1.461334021799018
 10
21.60235380171998
 20
-1.460183673485004
 10
21.60050281688298
 20
-1.459001205674043
 10
21.598672196893
 20
-1.457787332550025
 10
21.596862225493
 20
-1.456542768299018
 10
21.595073186425
 20
-1.455268227105024
 10
21.59330536343201
 20
-1.453964423153024
 10
21.59155904025598
 20
-1.452632070629024
 10
21.589834484593
 20
-1.451271883616015
 10
21.58813180975298
 20
-1.449884575218051
 10
21.58617304681198
 20
-1.448232720961018
 10
21.58424414457698
 20
-1.44654605285905
 10
21.58234514461399
 20
-1.444825702416039
 10
21.58047608848999
 20
-1.443072801138043
 10
21.57863701777201
 20
-1.441288480528045
 10
21.57682797402598
 20
-1.439473872091014
 10
21.57504895218898
 20
-1.437630076595043
 10
21.57305231629596
 20
-1.435488407484003
 10
21.57109433752299
 20
-1.433311340756008
 10
21.56917469212098
 20
-1.431100311115019
 10
21.567293056342
 20
-1.42885675326602
 10
21.56544910643499
 20
-1.426582101913028
 10
21.56364251865198
 20
-1.424277791760006
 10
21.56187294234999
 20
-1.421945206256054
 10
21.560139906571
 20
-1.419585499531025
 10
21.55844290672098
 20
-1.417199761608004
 10
21.556781438203
 20
-1.414789082507014
 10
21.55515499642199
 20
-1.412354552249043
 10
21.55356307678299
 20
-1.409897260854054
 10
21.55200517469001
 20
-1.407418298341043
 10
21.55029256717298
 20
-1.404604907391047
 10
21.548621634647
 20
-1.401766767741039
 10
21.54699162040599
 20
-1.398904979211009
 10
21.54540176707898
 20
-1.39602063378203
 10
21.54385131729898
 20
-1.393114823437032
 10
21.54233951369497
 20
-1.39018864015702
 10
21.54086559889698
 20
-1.387243175923004
 10
21.53927143218897
 20
-1.383949152186007
 10
21.537722096276
 20
-1.380634035752053
 10
21.53621665013198
 20
-1.37729885936102
 10
21.534754163239
 20
-1.373944605837041
 10
21.53333370507501
 20
-1.37057225800902
 10
21.53181863370098
 20
-1.366842949478042
 10
21.53035205263698
 20
-1.363094244200001
 10
21.52893272336
 20
-1.359327450316014
 10
21.52755942513798
 20
-1.355543838194024
 10
21.52623108308201
 20
-1.351744368518041
 10
21.52483207589899
 20
-1.347582357592047
 10
21.52348407399
 20
-1.343403486539044
 10
21.52218577525299
 20
-1.339208804283034
 10
21.520833863402
 20
-1.334647939228034
 10
21.51953710007398
 20
-1.330071082608014
 10
21.51829383277299
 20
-1.325479563911019
 10
21.51701304483997
 20
-1.320519727265037
 10
21.515790976262
 20
-1.315545188107024
 10
21.514626061416
 20
-1.310556924119057
 10
21.51343958278001
 20
-1.305198235958018
 10
21.51231499136998
 20
-1.299826117096019
 10
21.511250361535
 20
-1.294441770038021
 10
21.51017867857297
 20
-1.288686342323047
 10
21.509170871198
 20
-1.282919648319024
 10
21.50816809550601
 20
-1.276781177841032
 10
21.507233391669
 20
-1.270631980918041
 10
21.50631562389798
 20
-1.264110481252034
 10
21.50546944215596
 20
-1.25757925353105
 10
21.50465122451298
 20
-1.250675931652041
 10
21.50387007336598
 20
-1.243400488862052
 10
21.50316835210298
 20
-1.236117202233004
 10
21.50251435293501
 20
-1.228462298184014
 10
21.50191716528099
 20
-1.220435799807034
 10
21.50140677972999
 20
-1.212403237678019
 10
21.50096248073499
 20
-1.204000371578047
 10
21.500592402284
 20
-1.19522787505605
 10
21.50030493479
 20
-1.186086398329051
 10
21.500108254526
 20
-1.176576783122017
 10
21.500010099313
 20
-1.16670015789805
 10
21.50000000005197
 20
-1.162320523100051
  0
LWPOLYLINE
  5
2E0
330
1E
100
AcDbEntity
  8
1
100
AcDbPolyline
 90
       59
 70
     0
 43
0.0
 10
19.50440699999997
 20
-7.174962998100003
 10
19.47734594756698
 20
-7.168999868785022
 10
19.45035414424898
 20
-7.162720818818005
 10
19.423435872496
 20
-7.156127091237012
 10
19.39659541475998
 20
-7.149219929074035
 10
19.36983705349399
 20
-7.142000575367037
 10
19.34316503640398
 20
-7.134470276136029
 10
19.31658308938098
 20
-7.126630322270047
 10
19.29009453562798
 20
-7.118482039275025
 10
19.26370268793298
 20
-7.11002675355701
 10
19.237410859084
 20
-7.101265791520007
 10
19.211222361947
 20
-7.092200479854001
 10
19.18514053141199
 20
-7.082832225850043
 10
19.15916875451598
 20
-7.073162627637034
 10
19.13331042584398
 20
-7.063193310958012
 10
19.10756893997801
 20
-7.052925901558014
 10
19.08024396652598
 20
-7.041647265529036
 10
19.05305989072196
 20
-7.030033314237019
 10
19.026020632137
 20
-7.018086218366025
 10
18.99913003729398
 20
-7.005808220712029
 10
18.972391952473
 20
-6.993201564315032
 10
18.94581022394901
 20
-6.980268492214007
 10
18.919388685672
 20
-6.967011263304017
 10
18.893131048175
 20
-6.953432295218021
 10
18.86704095089998
 20
-6.939534097028002
 10
18.84112203242999
 20
-6.925319178906025
 10
18.81377481257798
 20
-6.909871605086037
 10
18.786629295311
 20
-6.894072341907022
 10
18.75968965692701
 20
-6.877924574206022
 10
18.73295995731401
 20
-6.861431594517003
 10
18.70644425422097
 20
-6.84459669735503
 10
18.68014660539697
 20
-6.827423177233018
 10
18.65254418454799
 20
-6.808874049872032
 10
18.625195286275
 20
-6.789953135839025
 10
18.598104347053
 20
-6.770664646711056
 10
18.571275802853
 20
-6.751012794459032
 10
18.54471408927598
 20
-6.731001791298012
 10
18.51842353271598
 20
-6.710635919855008
 10
18.49097105394901
 20
-6.688758540795048
 10
18.46382996616
 20
-6.666495989678027
 10
18.43700500716797
 20
-6.643853529259049
 10
18.41050088448101
 20
-6.620836436011019
 10
18.38295325277998
 20
-6.596209142936007
 10
18.35577092138098
 20
-6.571179153736013
 10
18.32895881407798
 20
-6.545752879029011
 10
18.301209931643
 20
-6.518635809636011
 10
18.27388004006998
 20
-6.491096518565031
 10
18.246974232506
 20
-6.463142807696048
 10
18.221748573115
 20
-6.436142084666017
 10
18.19691655711901
 20
-6.408779302211032
 10
18.17248223303898
 20
-6.381061129380045
 10
18.14844914346198
 20
-6.352994117432047
 10
18.12482078849297
 20
-6.324584807736017
 10
18.10160066824498
 20
-6.295839741679004
 10
18.07992292765798
 20
-6.268227138721043
 10
18.05862010009198
 20
-6.240324384934012
 10
18.03769549455997
 20
-6.212138389748019
 10
18.017152420076
 20
-6.183676062593008
 10
18.00650038194198
 20
-6.168595423573037
  0
LWPOLYLINE
  5
31D
330
1E
100
AcDbEntity
  8
1
100
AcDbPolyline
 90
      120
 70
     0
 43
0.0
 10
9.030696455799995
 20
-0.600000000000024
 10
9.030154533943996
 20
-0.5913817190390216
 10
9.029737652524998
 20
-0.5827551698050129
 10
9.029446118633003
 20
-0.5741225155070435
 10
9.029280239359007
 20
-0.5654859193500114
 10
9.029240321794004
 20
-0.5568475445440424
 10
9.029326673029004
 20
-0.5482095542950003
 10
9.029539563677998
 20
-0.5395740779440541
 10
9.029878996605004
 20
-0.5309429962140382
 10
9.030344855373996
 20
-0.5223180790590061
 10
9.030937023002008
 20
-0.5137010959220461
 10
9.031655382506995
 20
-0.505093816249031
 10
9.032499816904008
 20
-0.496498009483049
 10
9.033470193167998
 20
-0.4879154467570299
 10
9.03456616668501
 20
-0.4793479214870342
 10
9.035787243401996
 20
-0.4707972428230402
 10
9.037132926121998
 20
-0.4622652202460256
 10
9.038602717648998
 20
-0.453753663239014
 10
9.040196120786999
 20
-0.4452643812820167
 10
9.041912632928005
 20
-0.4367991809580201
 10
9.043751594636006
 20
-0.4283597848080387
 10
9.045712169261003
 20
-0.419947820414053
 10
9.047793510643998
 20
-0.4115649102570285
 10
9.049994772626007
 20
-0.4032126768220234
 10
9.052315109046004
 20
-0.3948927425930162
 10
9.054753673402998
 20
-0.3866067297770439
 10
9.057309542102998
 20
-0.3783561987980317
 10
9.059981617217999
 20
-0.3701425703510506
 10
9.062768776869006
 20
-0.3619672459380477
 10
9.065669899175004
 20
-0.3538316270550024
 10
9.068683862254999
 20
-0.3457371152040319
 10
9.071809544227008
 20
-0.3376851118820252
 10
9.075045805168995
 20
-0.3296769933070334
 10
9.07839138298101
 20
-0.3217139645120153
 10
9.081844964896999
 20
-0.3137971595360238
 10
9.085405237987004
 20
-0.3059277121900561
 10
9.089070889321007
 20
-0.2981067562850522
 10
9.093478917349003
 20
-0.2890451081430012
 10
9.098026501044998
 20
-0.2800527950380466
 10
9.102711472652998
 20
-0.2711313861820496
 10
9.107531591032
 20
-0.2622822460250529
 10
9.112484612258
 20
-0.2535067312420561
 10
9.117568292405007
 20
-0.2448061985120386
 10
9.122780387548004
 20
-0.2361820045120464
 10
9.128118651969003
 20
-0.227635478388039
 10
9.133580823343008
 20
-0.219167694282022
 10
9.139164630351002
 20
-0.2107795882060384
 10
9.144867801583004
 20
-0.2024720948120386
 10
9.151528958079
 20
-0.1930777250240123
 10
9.158339661575
 20
-0.1837912612030561
 10
9.165296540916004
 20
-0.1746140085310241
 10
9.172396304507998
 20
-0.1655469032250505
 10
9.179635681149008
 20
-0.1565907869440377
 10
9.187011399633007
 20
-0.1477465013480252
 10
9.195467981005007
 20
-0.137931400633023
 10
9.204088337743996
 20
-0.1282600695880103
 10
9.212868018215999
 20
-0.1187333118830349
 10
9.221802698968003
 20
-0.1093516855840459
 10
9.230888058936002
 20
-0.1001157441810403
 10
9.240119777051999
 20
-0.0910260411680508
 10
9.249493542331007
 20
-0.0820831187190276
 10
9.259005255586998
 20
-0.073287281230024
 10
9.268651018865
 20
-0.0646386071770178
 10
9.278426942172998
 20
-0.0561371660960515
 10
9.288329135519999
 20
-0.0477830275250437
 10
9.298353709028004
 20
-0.0395762609190353
 10
9.308496881449002
 20
-0.0315168584920127
 10
9.318755182951008
 20
-0.0236045910250493
 10
9.329125199157999
 20
-0.0158391898670527
 10
9.339603515692003
 20
-0.008220386367044
 10
9.350186718176002
 20
-0.0007479118760341
 10
9.360871397806006
 20
0.0065785047079874
 10
9.372858386919004
 20
0.0145481058339658
 10
9.384962633829998
 20
0.0223384739769575
 10
9.397180098017994
 20
0.0299502603839972
 10
9.409506738960001
 20
0.0373841163029727
 10
9.421938516136007
 20
0.0446406929809757
 10
9.434471478784002
 20
0.0517206629859846
 10
9.447102072998006
 20
0.0586247931459514
 10
9.459826854517002
 20
0.0653538763329482
 10
9.472642379085996
 20
0.0719087054209797
 10
9.485545202449003
 20
0.0782900732809811
 10
9.498531882345002
 20
0.0844987729179809
 10
9.511599152433008
 20
0.0905356088329643
 10
9.524744057413002
 20
0.0964014058569649
 10
9.537963673788
 20
0.1020969909009739
 10
9.551255078061995
 20
0.1076231908769488
 10
9.564615346738008
 20
0.1129808326929822
 10
9.578041558984999
 20
0.1181707430209814
 10
9.591530953987998
 20
0.1231937340739921
 10
9.605081018974003
 20
0.1280505956609648
 10
9.618689262512004
 20
0.1327421156619823
 10
9.632353193167999
 20
0.1372690819569573
 10
9.646070319512004
 20
0.1416322824249493
 10
9.659838150276994
 20
0.1458325049079564
 10
9.673654281821001
 20
0.1498705163499483
 10
9.687516541854007
 20
0.1537470285249457
 10
9.701422795821001
 20
0.1574627442059852
 10
9.716767940590003
 20
0.1613651502689765
 10
9.732160894119003
 20
0.1650747783239682
 10
9.747598815321
 20
0.1685925637649449
 10
9.763078920985007
 20
0.1719194141309674
 10
9.778598635307997
 20
0.1750561371529772
 10
9.794155428926998
 20
0.1780035182149492
 10
9.809746772479996
 20
0.1807623426989824
 10
9.825370136604007
 20
0.1833333959889943
 10
9.841022991937006
 20
0.1857174634669706
 10
9.856702877916998
 20
0.1879153010529524
 10
9.872407593797007
 20
0.1899275533969546
 10
9.888135000152999
 20
0.1917548388849456
 10
9.903882957557994
 20
0.1933977759059632
 10
9.919649326589006
 20
0.1948569828479651
 10
9.935431967820004
 20
0.1961330780989657
 10
9.951228712268004
 20
0.197226664504966
 10
9.967037182368994
 20
0.1981382352349771
 10
9.982854910797
 20
0.1988682362619431
 10
9.998679429876002
 20
0.1994171133749761
 10
10.01450827193099
 20
0.1997853123599486
 10
10.030338969287
 20
0.1999732790079621
 10
10.03896379459999
 20
0.1999999999639487
  0
LWPOLYLINE
  5
397
330
1E
100
AcDbEntity
  8
1
100
AcDbPolyline
 90
       76
 70
     0
 43
0.0
 10
18.00649464140001
 20
-6.168587235400027
 10
18.00322314982098
 20
-6.163985223446047
 10
17.99966683607198
 20
-6.159123401607017
 10
17.996042279374
 20
-6.154311346453027
 10
17.99235012530798
 20
-6.149550344732007
 10
17.98859101945297
 20
-6.14484168318802
 10
17.98476560738798
 20
-6.140186648570022
 10
17.980874534535
 20
-6.135586526732027
 10
17.976918432808
 20
-6.131042527038006
 10
17.972644502629
 20
-6.126277222850037
 10
17.96829857420599
 20
-6.121577762351022
 10
17.96388137418698
 20
-6.116945418847022
 10
17.95939362922
 20
-6.112381465642043
 10
17.95483606595499
 20
-6.107887176041003
 10
17.95020945195497
 20
-6.103463833662997
 10
17.945792728183
 20
-6.099366679287016
 10
17.94131642783898
 20
-6.095334646048003
 10
17.936781334784
 20
-6.091368840381052
 10
17.932188232878
 20
-6.087470368719039
 10
17.927830213096
 20
-6.083877688422036
 10
17.92342254772
 20
-6.080346070765017
 10
17.918965945359
 20
-6.076876399234037
 10
17.91446115991701
 20
-6.073469536967022
 10
17.90990894646698
 20
-6.070126346576047
 10
17.90531006007801
 20
-6.066847690671012
 10
17.90097632285798
 20
-6.063846597246025
 10
17.89660319997597
 20
-6.060903173296027
 10
17.89219131154998
 20
-6.058018117499046
 10
17.88774133998498
 20
-6.055192101932052
 10
17.883254003592
 20
-6.052425783333037
 10
17.878730021111
 20
-6.049719818259007
 10
17.87417011128501
 20
-6.047074863265037
 10
17.86990436790698
 20
-6.044674036439007
 10
17.86560884155498
 20
-6.042326907029007
 10
17.86128410838299
 20
-6.040034000208035
 10
17.85693077665099
 20
-6.037795817770017
 10
17.852549499607
 20
-6.035612828747048
 10
17.84814093386598
 20
-6.033485499721052
 10
17.84370573603998
 20
-6.031414297276
 10
17.839244562743
 20
-6.029399687993021
 10
17.83475807058801
 20
-6.027442138455
 10
17.83024691618798
 20
-6.025542115246026
 10
17.826061455783
 20
-6.023839705731008
 10
17.821856098238
 20
-6.022187031208035
 10
17.81763141414801
 20
-6.020584397693027
 10
17.81338797424998
 20
-6.019032111047009
 10
17.80912634927898
 20
-6.017530477128048
 10
17.80484710996899
 20
-6.016079801796022
 10
17.80055082705598
 20
-6.014680390912021
 10
17.796238071276
 20
-6.013332550333017
 10
17.79190941595598
 20
-6.012036582705037
 10
17.787565468153
 20
-6.010792748827042
 10
17.78320685852099
 20
-6.009601280231039
 10
17.778834218197
 20
-6.008462407845002
 10
17.77444817831898
 20
-6.007376362598053
 10
17.77004937002398
 20
-6.006343375418055
 10
17.76563842444998
 20
-6.005363677236005
 10
17.76121597273601
 20
-6.004437498979027
 10
17.75678264585399
 20
-6.003565068941044
 10
17.75233907195
 20
-6.002746569991017
 10
17.74788587678401
 20
-6.001982146700016
 10
17.743795863585
 20
-6.001329051765027
 10
17.73969877354296
 20
-6.000721626309029
 10
17.73559508859299
 20
-6.000159980767022
 10
17.73148529067598
 20
-5.999644225571048
 10
17.72736986172698
 20
-5.999174471155017
 10
17.72324928368701
 20
-5.998750827950003
 10
17.71912406351298
 20
-5.998373392614042
 10
17.714994796514
 20
-5.998042213156056
 10
17.71086209748898
 20
-5.997757326854013
 10
17.70672658124099
 20
-5.997518770985037
 10
17.70258886256798
 20
-5.99732658282801
 10
17.69844955627298
 20
-5.99718079965902
 10
17.69430927715398
 20
-5.997081458756042
 10
17.69016864001398
 20
-5.997028597397047
 10
17.68754378400198
 20
-5.997019175636014
  0
LWPOLYLINE
  5
42E
330
1E
100
AcDbEntity
  8
1
100
AcDbPolyline
 90
      110
 70
     0
 43
0.0
 10
17.00440699999997
 20
-5.997019175500042
 10
16.75316297067299
 20
-5.995699006470997
 10
16.501945218117
 20
-5.991723036979012
 10
16.25078560803699
 20
-5.985051242450027
 10
16.01062838453199
 20
-5.976083657985045
 10
15.78149112561299
 20
-5.965085444805027
 10
15.552485787806
 20
-5.95161137671505
 10
15.33454058221498
 20
-5.936368996262046
 10
15.12766456465898
 20
-5.919603195472004
 10
14.93186419861599
 20
-5.901554709324046
 10
14.747139959644
 20
-5.882472375282021
 10
14.57348949525
 20
-5.862605174159001
 10
14.40007225821199
 20
-5.840789753523041
 10
14.237739413168
 20
-5.818470280810004
 10
14.08647408159499
 20
-5.795921812658034
 10
13.94625445444098
 20
-5.773423418618053
 10
13.806297336735
 20
-5.749346496729004
 10
13.67736597471199
 20
-5.725655188632003
 10
13.548714545443
 20
-5.700488391353016
 10
13.43105685017499
 20
-5.676064561389011
 10
13.31368670359299
 20
-5.650289836867046
 10
13.19663518682198
 20
-5.62310550651705
 10
13.09052821876498
 20
-5.597119078124023
 10
12.984736754049
 20
-5.569872565994047
 10
12.87929125238298
 20
-5.541316968854005
 10
12.78471204864598
 20
-5.514456653130027
 10
12.69046209145199
 20
-5.486459330537003
 10
12.59656906113399
 20
-5.457286879752018
 10
12.50306212885399
 20
-5.42690057323904
 10
12.42029267709598
 20
-5.398840159962047
 10
12.33787442418699
 20
-5.369762479365021
 10
12.25583270502299
 20
-5.339639638169044
 10
12.174192955023
 20
-5.308443728717007
 10
12.09298128525099
 20
-5.276146952308011
 10
12.01222723856599
 20
-5.242722063672998
 10
11.94196692071499
 20
-5.212528600952056
 10
11.87210095033899
 20
-5.181432572182019
 10
11.80265091033799
 20
-5.149416438697018
 10
11.73364041066498
 20
-5.116463798424033
 10
11.66509329139697
 20
-5.082558378322006
 10
11.59703343638098
 20
-5.047683958327011
 10
11.529485970611
 20
-5.011825820731019
 10
11.46247740641598
 20
-4.97497092713303
 10
11.39603432924997
 20
-4.937106327639012
 10
11.33018346626599
 20
-4.898219466511021
 10
11.26495262108399
 20
-4.858300782220056
 10
11.200370091456
 20
-4.817342087690009
 10
11.13646417829899
 20
-4.775335216310052
 10
11.07326326140599
 20
-4.732273830305018
 10
11.01079587926897
 20
-4.688155271681011
 10
10.94909058941199
 20
-4.642977323647018
 10
10.88817583296199
 20
-4.596738296216019
 10
10.82807913348699
 20
-4.549440652351051
 10
10.76882757973499
 20
-4.501088823026008
 10
10.71044822236798
 20
-4.451687325642011
 10
10.65296677293299
 20
-4.401243493969047
 10
10.59640722631199
 20
-4.349768272203048
 10
10.540793464345
 20
-4.297272841811035
 10
10.486148351794
 20
-4.243769704797045
 10
10.43249164670599
 20
-4.189275396810047
 10
10.37984251602099
 20
-4.133807220970028
 10
10.32821959192999
 20
-4.077382939992046
 10
10.27763784719999
 20
-4.020023461743051
 10
10.22811072236101
 20
-3.961751010988053
 10
10.186508383964
 20
-3.911093446009033
 10
10.14569710780599
 20
-3.859796616198026
 10
10.10568156538498
 20
-3.80787662150101
 10
10.06646635896
 20
-3.755349600260045
 10
10.02805580387698
 20
-3.702231774478037
 10
9.990451893019001
 20
-3.648540043382013
 10
9.953655493688
 20
-3.594291634411036
 10
9.917667465774002
 20
-3.539503777165008
 10
9.882488076488
 20
-3.484193726443038
 10
9.848115397572994
 20
-3.428378830398004
 10
9.814546992534005
 20
-3.372076458793004
 10
9.781780416447999
 20
-3.315303979351028
 10
9.749812357666
 20
-3.258078549970037
 10
9.718637897605999
 20
-3.200416939529021
 10
9.683263920244
 20
-3.132616091404031
 10
9.648954923659999
 20
-3.064270770613006
 10
9.615700841896
 20
-2.995406300481023
 10
9.583490550405
 20
-2.926047341955041
 10
9.552312884591003
 20
-2.856218513439046
 10
9.522155847724006
 20
-2.785943365025048
 10
9.493006465605006
 20
-2.715244191899047
 10
9.464851707703003
 20
-2.644143216099054
 10
9.437678329412007
 20
-2.572662001681009
 10
9.411472532841004
 20
-2.500820412124029
 10
9.386220431902996
 20
-2.428638039833002
 10
9.361908139877
 20
-2.356134234756042
 10
9.338521765646998
 20
-2.283326675226021
 10
9.316047416244003
 20
-2.210232334972034
 10
9.291461412747999
 20
-2.126366467488026
 10
9.268028275982004
 20
-2.042171543940014
 10
9.245728230858004
 20
-1.957669322366029
 10
9.224541567694004
 20
-1.872881406016005
 10
9.204449448802007
 20
-1.787827752465035
 10
9.185433794134
 20
-1.702526889424004
 10
9.167476608254004
 20
-1.616997221027018
 10
9.150561007648008
 20
-1.531255728690041
 10
9.134671095479999
 20
-1.445318131359043
 10
9.119791065102999
 20
-1.359200057836004
 10
9.104240061308003
 20
-1.262119644905056
 10
9.089929690193994
 20
-1.164848698688047
 10
9.076841213171007
 20
-1.067406336936014
 10
9.064958186538998
 20
-0.9698096374840483
 10
9.054265416008007
 20
-0.8720745675760223
 10
9.044748391665008
 20
-0.7742172831510186
 10
9.036395428006001
 20
-0.6762547802330247
 10
9.030697155711008
 20
-0.6000099754760424
  0
LWPOLYLINE
  5
509
330
1E
100
AcDbEntity
  8
1
100
AcDbPolyline
 90
        6
 70
     0
 43
0.0
 10
17.20266022369997
 20
6.496922348299957
 10
17.22377136711999
 20
6.496020241466963
 10
17.25701436514399
 20
6.494932032029962
 10
17.30161139871
 20
6.493916217774962
 10
17.35404177927098
 20
6.493245649071977
 10
17.39794608912012
 20
6.493074412995612
  0
LWPOLYLINE
  5
511
330
1E
100
AcDbEntity
  8
1
100
AcDbPolyline
 90
        6
 70
     0
 43
0.0
 10
17.20266022369997
 20
-6.496922348300016
 10
17.22377136712499
 20
-6.496020241581049
 10
17.25701436514698
 20
-6.494932032093005
 10
17.30161139871198
 20
-6.493916217852017
 10
17.354041779272
 20
-6.493245649199026
 10
17.39824881289998
 20
-6.493073232309027
  0
LWPOLYLINE
  5
519
330
1E
100
AcDbEntity
  8
1
100
AcDbPolyline
 90
      115
 70
     0
 43
0.0
 10
17.65752792109998
 20
-6.245798587900027
 10
17.65737898231201
 20
-6.245510908814027
 10
17.65723448509699
 20
-6.245220544203052
 10
17.65709458092898
 20
-6.244927585205005
 10
17.656959421284
 20
-6.244632122958022
 10
17.65685052181899
 20
-6.244384057968034
 10
17.65674511001197
 20
-6.24413437064402
 10
17.65664327352398
 20
-6.243883113729054
 10
17.65654510001398
 20
-6.243630339965022
 10
17.65645067714199
 20
-6.243376102094034
 10
17.656360092568
 20
-6.243120452859047
 10
17.656273433951
 20
-6.242863445002003
 10
17.656190788951
 20
-6.242605131265007
 10
17.65611224522698
 20
-6.242345564392054
 10
17.65603789043898
 20
-6.242084797123026
 10
17.65596781224698
 20
-6.241822882202026
 10
17.65590209831001
 20
-6.241559872370999
 10
17.65584083628798
 20
-6.241295820372045
 10
17.65579509095599
 20
-6.241083863854043
 10
17.65575229583299
 20
-6.240871301109054
 10
17.65571249580198
 20
-6.240658159139004
 10
17.65567573574299
 20
-6.240444464950031
 10
17.65564205349098
 20
-6.240230248585022
 10
17.655611456187
 20
-6.240015553332001
 10
17.655583942616
 20
-6.239800426082013
 10
17.655559511565
 20
-6.239584913728037
 10
17.65553816181799
 20
-6.239369063161007
 10
17.65551989216199
 20
-6.239152921273044
 10
17.65550470138298
 20
-6.238936534956052
 10
17.65549258826698
 20
-6.238719951102043
 10
17.65548355159801
 20
-6.238503216602056
 10
17.65547759016397
 20
-6.238286378348051
 10
17.65547470275
 20
-6.238069483231017
 10
17.655474888141
 20
-6.237852578145012
 10
17.655478145124
 20
-6.237635709980056
 10
17.65548447248499
 20
-6.237418925629016
 10
17.65549386900798
 20
-6.237202271982027
 10
17.65550633348098
 20
-6.236985795932016
 10
17.65552186468798
 20
-6.236769544372011
 10
17.65554046141599
 20
-6.236553564191012
 10
17.65556212245098
 20
-6.236337902283025
 10
17.655586846578
 20
-6.236122605539034
 10
17.65561463258198
 20
-6.235907720851002
 10
17.65564547925098
 20
-6.235693295110023
 10
17.65567938537
 20
-6.235479375209025
 10
17.65571634902299
 20
-6.235266007630002
 10
17.65575634906198
 20
-6.235053227637025
 10
17.655799343175
 20
-6.234841058150037
 10
17.655845287966
 20
-6.234629521454054
 10
17.65589414004097
 20
-6.234418639837032
 10
17.65595922738898
 20
-6.234155992972035
 10
17.656028704804
 20
-6.233894448019044
 10
17.65610248752699
 20
-6.233634048507044
 10
17.65618049080099
 20
-6.233374837964048
 10
17.65626262987
 20
-6.233116859919048
 10
17.65634881997398
 20
-6.232860157900008
 10
17.656438976358
 20
-6.232604775437041
 10
17.656533014263
 20
-6.232350756059021
 10
17.656630848932
 20
-6.232098143292032
 10
17.65673239560898
 20
-6.231846980668025
 10
17.65683756953399
 20
-6.231597311713017
 10
17.65694628595101
 20
-6.231349179957022
 10
17.65705846010298
 20
-6.231102628929022
 10
17.657197513957
 20
-6.230808915544004
 10
17.65734127843698
 20
-6.230517616304043
 10
17.65748961234098
 20
-6.230228791079012
 10
17.65764239484698
 20
-6.229942440254037
 10
17.65779951006598
 20
-6.229658549814018
 10
17.65796084210898
 20
-6.229377105745016
 10
17.658126275088
 20
-6.229098094030008
 10
17.65829569311398
 20
-6.228821500655045
 10
17.65849822952699
 20
-6.228501846198016
 10
17.658705848267
 20
-6.228185442037045
 10
17.65891836530898
 20
-6.227872265916007
 10
17.65913559662498
 20
-6.227562295579048
 10
17.65935735818898
 20
-6.227255508770042
 10
17.65961611114796
 20
-6.226908764921008
 10
17.659880266105
 20
-6.226566116859999
 10
17.660149548361
 20
-6.226227531363009
 10
17.660458277591
 20
-6.225851437349035
 10
17.660772786601
 20
-6.225480388665006
 10
17.66112873793498
 20
-6.225073925892049
 10
17.66149126595698
 20
-6.224673458658004
 10
17.66186009949601
 20
-6.224278858712012
 10
17.66227277561698
 20
-6.223851422420012
 10
17.66269239236699
 20
-6.223430759656026
 10
17.663157647743
 20
-6.222979379417043
 10
17.663630264923
 20
-6.222535635466043
 10
17.66410977532498
 20
-6.222099306181007
 10
17.66459571036499
 20
-6.221670169943025
 10
17.66512884664798
 20
-6.221213132488004
 10
17.66566845407401
 20
-6.220764012198002
 10
17.66625645595598
 20
-6.22028894953604
 10
17.66685126959497
 20
-6.219822556216002
 10
17.66745255747597
 20
-6.219364571306017
 10
17.66810359546298
 20
-6.218882907501039
 10
17.66876126303398
 20
-6.218410275736005
 10
17.66946961465301
 20
-6.217915728898048
 10
17.67018453312998
 20
-6.217430703868048
 10
17.670950765808
 20
-6.216925362184044
 10
17.67176889013498
 20
-6.216401028674
 10
17.67259359952398
 20
-6.215887339833046
 10
17.67347091407498
 20
-6.215356283149048
 10
17.67435482866799
 20
-6.21483630428503
 10
17.675291979771
 20
-6.214300484419029
 10
17.67628292588798
 20
-6.213750092765052
 10
17.67732813482
 20
-6.213186335981048
 10
17.67842796630199
 20
-6.212610339728032
 10
17.67958268617197
 20
-6.212023158251043
 10
17.68079267713798
 20
-6.211425959395
 10
17.68205834978799
 20
-6.210819941777002
 10
17.68338003855498
 20
-6.21020623836904
 10
17.68475799029498
 20
-6.209585902668037
 10
17.68619235291898
 20
-6.208959894763043
 10
17.68752455762198
 20
-6.208395265090016
  0
LWPOLYLINE
  5
58E
330
1E
100
AcDbEntity
  8
1
100
AcDbPolyline
 90
       64
 70
     0
 43
0.0
 10
17.47829484099999
 20
-6.493073232300049
 10
17.48216259880098
 20
-6.492308425060002
 10
17.48602212800599
 20
-6.491500296458013
 10
17.489872703919
 20
-6.490648497085032
 10
17.49371360184699
 20
-6.489752677529055
 10
17.497544097095
 20
-6.488812488383017
 10
17.501363464967
 20
-6.487827580235999
 10
17.50517098077098
 20
-6.486797603679007
 10
17.508713329681
 20
-6.485795322264037
 10
17.51224413392299
 20
-6.484753195176041
 10
17.51576281198798
 20
-6.483671000531047
 10
17.51926879014098
 20
-6.482548579273044
 10
17.522761495015
 20
-6.481385775322052
 10
17.52624035324198
 20
-6.480182432600032
 10
17.529704791456
 20
-6.478938395028022
 10
17.53315423628898
 20
-6.477653506528042
 10
17.53658811437398
 20
-6.476327611020052
 10
17.54000585234399
 20
-6.474960552425043
 10
17.54340687511299
 20
-6.473552185988014
 10
17.546790588421
 20
-6.472102493175044
 10
17.55015638602299
 20
-6.470611534395003
 10
17.553503661484
 20
-6.469079371265022
 10
17.556831808375
 20
-6.467506065402003
 10
17.56014022026199
 20
-6.465891678423021
 10
17.56342829071598
 20
-6.46423627194605
 10
17.566695413303
 20
-6.462539907588054
 10
17.56994098159299
 20
-6.460802646965022
 10
17.57316440485099
 20
-6.459024591307014
 10
17.57636515464298
 20
-6.457205999060025
 10
17.57954271799198
 20
-6.45534716767304
 10
17.58269658191998
 20
-6.453448394596022
 10
17.58604883993799
 20
-6.451370009756034
 10
17.58937267217099
 20
-6.449246480792057
 10
17.59266744767698
 20
-6.447078173555042
 10
17.595932535517
 20
-6.44486545389202
 10
17.59916731522798
 20
-6.442608699833042
 10
17.60237128862199
 20
-6.440308431561049
 10
17.60554403662698
 20
-6.437965261235035
 10
17.608893413166
 20
-6.43541928342404
 10
17.61220627986199
 20
-6.432825935673009
 10
17.61548212972798
 20
-6.430185962789041
 10
17.618720455775
 20
-6.427500109580019
 10
17.62211949515499
 20
-6.424596952420017
 10
17.625475045967
 20
-6.421643764435033
 10
17.62878680983298
 20
-6.418641612611056
 10
17.63224541230198
 20
-6.415410729178008
 10
17.63565441653898
 20
-6.412127515894043
 10
17.639013561108
 20
-6.408793291322012
 10
17.642322584574
 20
-6.405409374026022
 10
17.64558122549999
 20
-6.401977082571022
 10
17.64878928036399
 20
-6.398497735212004
 10
17.65194684981498
 20
-6.394972648579027
 10
17.65505413400898
 20
-6.391403138768056
 10
17.65827971303498
 20
-6.387588583438004
 10
17.66144972289798
 20
-6.383727546165006
 10
17.66456439906798
 20
-6.379821574808032
 10
17.66762397701597
 20
-6.375872217225036
 10
17.670628738965
 20
-6.371881018908027
 10
17.673579150001
 20
-6.367849516080012
 10
17.67647571991101
 20
-6.363779242702037
 10
17.67931895847898
 20
-6.359671732735022
 10
17.68225478600698
 20
-6.355309496399004
 10
17.68513268008598
 20
-6.350909489499032
 10
17.687528455952
 20
-6.347149585283999
  0
LWPOLYLINE
  5
5D0
330
1E
100
AcDbEntity
  8
1
100
AcDbPolyline
 90
      155
 70
     0
 43
0.0
 10
18.00649464140001
 20
-6.35115969640003
 10
18.03024851332699
 20
-6.383532677760002
 10
18.05450736426898
 20
-6.415533738726026
 10
18.07926524391099
 20
-6.447152774105004
 10
18.104516201967
 20
-6.478379678807018
 10
18.13025441598298
 20
-6.509204771884012
 10
18.15647448290398
 20
-6.539619763907014
 10
18.18317108555101
 20
-6.569616650379034
 10
18.21033890609101
 20
-6.599187426692027
 10
18.24195764715097
 20
-6.632450498281004
 10
18.274175211305
 20
-6.665134307845052
 10
18.30698210880998
 20
-6.697226636877021
 10
18.34036879411397
 20
-6.728715317205003
 10
18.37004985510298
 20
-6.755763519402026
 10
18.40016019778898
 20
-6.782332910452057
 10
18.430692900745
 20
-6.808415813570037
 10
18.46164094343601
 20
-6.834004613903007
 10
18.49299687447
 20
-6.859091965858
 10
18.52475312540599
 20
-6.883670596985043
 10
18.55690212760498
 20
-6.907733235007016
 10
18.58943617335
 20
-6.931272725387034
 10
18.62234717167901
 20
-6.954282238049017
 10
18.655626966178
 20
-6.97675499833002
 10
18.68926739814701
 20
-6.99868423384703
 10
18.72326012126198
 20
-7.020063359397001
 10
18.75759646513698
 20
-7.040886113063037
 10
18.787294514424
 20
-7.058286638712047
 10
18.817233145171
 20
-7.075269901853006
 10
18.84740678225498
 20
-7.091832090857055
 10
18.87780965330398
 20
-7.107969626152057
 10
18.90843596115498
 20
-7.123678957330016
 10
18.93927990864598
 20
-7.138956533981002
 10
18.97033567575697
 20
-7.153798837954012
 10
19.00159726482098
 20
-7.168202601806003
 10
19.03305859500298
 20
-7.18216467546904
 10
19.064713584993
 20
-7.195681909543056
 10
19.09655615156898
 20
-7.208751157920008
 10
19.12858011555698
 20
-7.221369439596004
 10
19.16077915901098
 20
-7.233534012364034
 10
19.193146953133
 20
-7.245242152685022
 10
19.22567716912699
 20
-7.256491137019056
 10
19.25836344764197
 20
-7.267278304908018
 10
19.29119928597496
 20
-7.277601291847021
 10
19.32417813941897
 20
-7.287457820047054
 10
19.35729346326298
 20
-7.296845611731045
 10
19.39053870829496
 20
-7.305762401437052
 10
19.423907239518
 20
-7.314206158583034
 10
19.45739234494999
 20
-7.32217506335303
 10
19.49098730987799
 20
-7.329667303411045
 10
19.52468541951597
 20
-7.336681066671021
 10
19.55847992456398
 20
-7.343214660071057
 10
19.59236398614699
 20
-7.349266699479017
 10
19.62633075104101
 20
-7.354835850229052
 10
19.660373366024
 20
-7.359920777656045
 10
19.694484971504
 20
-7.364520182134016
 10
19.728658653229
 20
-7.368633064609015
 10
19.762887469142
 20
-7.372258578947027
 10
19.79716447696398
 20
-7.375395880222018
 10
19.83148273396897
 20
-7.378044127649046
 10
19.86583527628496
 20
-7.380202675535032
 10
19.900215110207
 20
-7.381871153374048
 10
19.93461523978498
 20
-7.383049211417016
 10
19.96902866906598
 20
-7.383736499914052
 10
20.003448400882
 20
-7.383932748141035
 10
20.03786743295298
 20
-7.383638017745001
 10
20.072278761652
 20
-7.382852457740002
 10
20.106675383354
 20
-7.381576217142027
 10
20.14105029568598
 20
-7.379809462740015
 10
20.17539651510499
 20
-7.377552628611002
 10
20.20970707261198
 20
-7.37480635527004
 10
20.243974999583
 20
-7.371571288579048
 10
20.27819332751599
 20
-7.367848075202007
 10
20.31235510928698
 20
-7.363637505422047
 10
20.34645344369002
 20
-7.35894067791901
 10
20.38048143545699
 20
-7.353758731298003
 10
20.41443218932498
 20
-7.348092804166016
 10
20.44829882134098
 20
-7.341944080017016
 10
20.48207452513401
 20
-7.335314050245018
 10
20.51575252688698
 20
-7.328204335423039
 10
20.54932605289198
 20
-7.320616556569008
 10
20.58278833149798
 20
-7.312552340996036
 10
20.61613265797698
 20
-7.304013521223057
 10
20.649352407729
 20
-7.295002175455012
 10
20.68244096087798
 20
-7.28552039637702
 10
20.715391697548
 20
-7.275570276672
 10
20.74819803440396
 20
-7.265153991218026
 10
20.78085352223399
 20
-7.254274016571004
 10
20.81335174258799
 20
-7.242932898482026
 10
20.84568627701699
 20
-7.231133182702023
 10
20.87785071630898
 20
-7.218877432339015
 10
20.90983877870498
 20
-7.206168449973007
 10
20.94164427532799
 20
-7.193009212709002
 10
20.973261019408
 20
-7.179402701607047
 10
21.00468282453698
 20
-7.16535189827505
 10
21.03590358119399
 20
-7.150859900378011
 10
21.06691735143598
 20
-7.135930064562047
 10
21.097718220534
 20
-7.12056578251901
 10
21.128300273764
 20
-7.104770445943016
 10
21.15865761927698
 20
-7.088547475508053
 10
21.18878455301998
 20
-7.07190052977103
 10
21.21867546302699
 20
-7.054833383942026
 10
21.24832473796799
 20
-7.037349814034032
 10
21.28260267911298
 20
-7.016431046496053
 10
21.31653541672998
 20
-6.99495687076501
 10
21.35011454930701
 20
-6.972933832124001
 10
21.383331692728
 20
-6.950368494624003
 10
21.41617848239496
 20
-6.927267439534037
 10
21.44864686131197
 20
-6.903637519497013
 10
21.48072901749201
 20
-6.879485803312037
 10
21.51241714574699
 20
-6.854819365775027
 10
21.54370348298499
 20
-6.829645313533037
 10
21.57458063791898
 20
-6.803971034545042
 10
21.60504141300998
 20
-6.777804063362057
 10
21.63507861239099
 20
-6.751151935802003
 10
21.66468511562798
 20
-6.724022234147017
 10
21.69798515462999
 20
-6.69244214304405
 10
21.73070413019202
 20
-6.660260370164055
 10
21.76283227690801
 20
-6.627488764512007
 10
21.794360233407
 20
-6.594139382931017
 10
21.82144792122099
 20
-6.564494416028027
 10
21.84806346101598
 20
-6.534424814922034
 10
21.87420101051201
 20
-6.503938873104003
 10
21.89985513238098
 20
-6.473045043921047
 10
21.925020641097
 20
-6.441751880114057
 10
21.949692354926
 20
-6.41006793592004
 10
21.97386514325899
 20
-6.378001781208012
 10
21.997534310494
 20
-6.34556211883603
 10
22.02069538085698
 20
-6.312757718868
 10
22.04334388026898
 20
-6.279597351885002
 10
22.06547539748199
 20
-6.246089801286019
 10
22.08708597613699
 20
-6.212243943250032
 10
22.10817186011201
 20
-6.178068694800002
 10
22.12872929415798
 20
-6.143572973138022
 10
22.148754590939
 20
-6.108765704187022
 10
22.168244522599
 20
-6.073655872885015
 10
22.187196051699
 20
-6.038252488626025
 10
22.205606141411
 20
-6.002564560883003
 10
22.22347182123998
 20
-5.966601097680042
 10
22.24079058101799
 20
-5.93037109696803
 10
22.25756010574301
 20
-5.893883552431021
 10
22.27377808111998
 20
-5.857147457740043
 10
22.28944224544298
 20
-5.820171813853049
 10
22.30455075606598
 20
-5.782965679845007
 10
22.31910197074998
 20
-5.745538142577006
 10
22.333094248508
 20
-5.70789828908602
 10
22.346525994372
 20
-5.670055170671049
 10
22.35939608749101
 20
-5.632017470467022
 10
22.36997992805898
 20
-5.599265273915026
 10
22.380149979752
 20
-5.566381669227043
 10
22.38990571498499
 20
-5.533371987278032
 10
22.39924664446398
 20
-5.500241857950014
 10
22.40817236902
 20
-5.466997614894012
 10
22.41668250243801
 20
-5.433645692936011
 10
22.42477665850598
 20
-5.400192526904051
 10
22.42993926250699
 20
-5.37784709975904
  0
LWPOLYLINE
  5
66D
330
1E
100
AcDbEntity
  8
1
100
AcDbPolyline
 90
       23
 70
     0
 43
0.0
 10
22.42994147399998
 20
-5.377837330200011
 10
22.436377308144
 20
-5.348727835507021
 10
22.442503462331
 20
-5.319549447074051
 10
22.44831977356299
 20
-5.290306184135999
 10
22.45382607884002
 20
-5.261002065922013
 10
22.45902221516498
 20
-5.231641111666023
 10
22.463908021998
 20
-5.202227332382052
 10
22.46848344202298
 20
-5.172764394172022
 10
22.472748556588
 20
-5.143255499800035
 10
22.47670345678101
 20
-5.113703819476031
 10
22.480348233692
 20
-5.084112523412047
 10
22.483682978409
 20
-5.054484781819041
 10
22.48670777614998
 20
-5.024823771182012
 10
22.48942267751699
 20
-4.995132704971012
 10
22.49182772047499
 20
-4.965414810154016
 10
22.49392294297098
 20
-4.935673313723046
 10
22.49570838295098
 20
-4.905911442666026
 10
22.497184077156
 20
-4.876132432844031
 10
22.49835003299898
 20
-4.846339735724031
 10
22.49920622766
 20
-4.816537025041045
 10
22.49975263693301
 20
-4.786727984729056
 10
22.49998923661097
 20
-4.756916298723012
 10
22.49999998012899
 20
-4.748680539700045
  0
LWPOLYLINE
  5
686
330
1E
100
AcDbEntity
  8
1
100
AcDbPolyline
 90
        5
 70
     0
 43
0.0
 10
17.68753378400001
 20
-6.34714112290004
 10
17.69131775776098
 20
-6.341051116560039
 10
17.69502952433796
 20
-6.334916826619007
 10
17.69866914810198
 20
-6.328739452262027
 10
17.70094281054299
 20
-6.324795225236017
  0
LWPOLYLINE
  5
68D
330
1E
100
AcDbEntity
  8
1
100
AcDbPolyline
 90
       79
 70
     0
 43
0.0
 10
17.68753378400001
 20
-6.208391408400016
 10
17.68884486347
 20
-6.207853352688005
 10
17.69016285635498
 20
-6.207331986410054
 10
17.69167714648099
 20
-6.206756211010032
 10
17.69319947830898
 20
-6.206201439285054
 10
17.69472932487301
 20
-6.205667247358007
 10
17.696266159206
 20
-6.205153211353036
 10
17.69780945433998
 20
-6.204658907392002
 10
17.69935868626799
 20
-6.204183913141037
 10
17.70091343867598
 20
-6.203727862383004
 10
17.702668784964
 20
-6.203237081024043
 10
17.70443037596899
 20
-6.202769486840055
 10
17.70619782460098
 20
-6.202324665585025
 10
17.70797074377298
 20
-6.201902203013049
 10
17.70974874639598
 20
-6.201501684877031
 10
17.71153144548398
 20
-6.201122697056007
 10
17.71331848287998
 20
-6.200764861181028
 10
17.715109568908
 20
-6.200427883803
 10
17.71710407265898
 20
-6.200077586249052
 10
17.719102845657
 20
-6.199752307250037
 10
17.72110550418099
 20
-6.199451661188049
 10
17.72311166451298
 20
-6.199175262444044
 10
17.72512094294398
 20
-6.198922725407045
 10
17.72713297953099
 20
-6.198693684147032
 10
17.72914748939897
 20
-6.198487834892035
 10
17.73116420245401
 20
-6.198304886109043
 10
17.73338480913499
 20
-6.198129744549023
 10
17.73560739536199
 20
-6.197981571778027
 10
17.73783160163798
 20
-6.197859979766007
 10
17.74005706847801
 20
-6.197764580492048
 10
17.74228345491198
 20
-6.197695002256013
 10
17.74451047723498
 20
-6.197650923831017
 10
17.74673786277499
 20
-6.197632033713035
 10
17.748965338859
 20
-6.197638020399041
 10
17.75139509562798
 20
-6.197672557189036
 10
17.753824281648
 20
-6.197735924303002
 10
17.75625254294198
 20
-6.197827717344011
 10
17.75867954527198
 20
-6.197947546335003
 10
17.76110500897798
 20
-6.198095061168997
 10
17.763528663756
 20
-6.198269918571043
 10
17.76595023929898
 20
-6.198471775269012
 10
17.76857095294301
 20
-6.198720523177032
 10
17.77118856547297
 20
-6.19900011844601
 10
17.77380273330398
 20
-6.199310124688053
 10
17.77641313498098
 20
-6.199650120191052
 10
17.77901950077098
 20
-6.200019717534019
 10
17.78162156831901
 20
-6.200418534191043
 10
17.78421907527198
 20
-6.200846187636046
 10
17.78701098921597
 20
-6.201338548160037
 10
17.789796982004
 20
-6.201863431126016
 10
17.79257672605699
 20
-6.202420358826032
 10
17.79534991692701
 20
-6.203008868473999
 10
17.798116303561
 20
-6.203628531711045
 10
17.801072461922
 20
-6.204326546391031
 10
17.80402023015899
 20
-6.205059317033032
 10
17.806959308721
 20
-6.205826322730048
 10
17.80988939805197
 20
-6.206627042574043
 10
17.812810198708
 20
-6.207460955735028
 10
17.815915170039
 20
-6.208386481720028
 10
17.819008981544
 20
-6.209348631495005
 10
17.82209136478499
 20
-6.210346841919995
 10
17.825162051324
 20
-6.211380549858007
 10
17.82822077272101
 20
-6.212449192169003
 10
17.83145725370498
 20
-6.213622272439011
 10
17.83467960247499
 20
-6.214833479420009
 10
17.83788753570298
 20
-6.216082169576052
 10
17.841080843446
 20
-6.217367759984027
 10
17.84444582744098
 20
-6.218768553136043
 10
17.84779394924498
 20
-6.220209385746047
 10
17.85112496948299
 20
-6.221689573979007
 10
17.854622228812
 20
-6.223293935267006
 10
17.85809988532698
 20
-6.224940580646035
 10
17.86155765432098
 20
-6.226628727482022
 10
17.86517560762701
 20
-6.228449736076017
 10
17.86877086565598
 20
-6.230315029302006
 10
17.872343090092
 20
-6.232223736852008
 10
17.87606876565798
 20
-6.234273652169008
 10
17.87976828204499
 20
-6.23636946477603
 10
17.881337039983
 20
-6.237276442849007
  0
LWPOLYLINE
  5
6DE
330
1E
100
AcDbEntity
  8
1
100
AcDbPolyline
 90
       33
 70
     0
 43
0.0
 10
17.88134568409999
 20
-6.237281470700056
 10
17.885455578489
 20
-6.239705399552009
 10
17.88968163420699
 20
-6.242268257935053
 10
17.893875829652
 20
-6.244883831978027
 10
17.8980374542
 20
-6.247551551533036
 10
17.90216579722598
 20
-6.250270846452052
 10
17.90640071774398
 20
-6.253137577008033
 10
17.91059847531898
 20
-6.256058259995027
 10
17.914758358922
 20
-6.259032282780027
 10
17.91901651710998
 20
-6.262160863513032
 10
17.92323302725998
 20
-6.265345151719032
 10
17.927407285137
 20
-6.268584515638051
 10
17.931671237174
 20
-6.271985474703003
 10
17.93588885855998
 20
-6.275443751990052
 10
17.94018905431799
 20
-6.27906938665103
 10
17.94443855816401
 20
-6.282754392359037
 10
17.94863665824198
 20
-6.286497913266031
 10
17.95290745751098
 20
-6.290415171846007
 10
17.95712215622998
 20
-6.294392701162052
 10
17.96140139563298
 20
-6.298549185104037
 10
17.96561953647998
 20
-6.302767529334007
 10
17.96977586498698
 20
-6.307046740545047
 10
17.97386969814198
 20
-6.311385831737027
 10
17.97778607436098
 20
-6.315657350934031
 10
17.98164220471399
 20
-6.319983541086004
 10
17.98543746306497
 20
-6.324363497356047
 10
17.98906227667498
 20
-6.328665142954037
 10
17.992628516433
 20
-6.333015518854043
 10
17.99613554885597
 20
-6.337413581161003
 10
17.99947916542298
 20
-6.341722922737003
 10
18.00276593531398
 20
-6.34607517099704
 10
18.00599528090698
 20
-6.350469374099018
 10
18.00648878851798
 20
-6.351151588145
  0
LWPOLYLINE
  5
701
330
1E
100
AcDbEntity
  8
1
100
AcDbPolyline
 90
       12
 70
     0
 43
0.0
 10
21.21263062119998
 20
2.044002502599989
 10
21.18213843882398
 20
2.054465106632954
 10
21.15047637393999
 20
2.06571394396496
 10
21.117232161779
 20
2.077932306010946
 10
21.08200071379598
 20
2.091319008525994
 10
21.04522798192197
 20
2.105752612761984
 10
21.00651218030697
 20
2.121440786772946
 10
20.965876787162
 20
2.138430296141959
 10
20.922929266175
 20
2.156946028955982
 10
20.87852905448098
 20
2.176672668496959
 10
20.832286553789
 20
2.19783531842898
 10
20.792846625083
 20
2.21637128754099
  0
LWPOLYLINE
  5
70F
330
1E
100
AcDbEntity
  8
1
100
AcDbPolyline
 90
       21
 70
     0
 43
0.0
 10
18.5347131543
 20
2.507141999999983
 10
18.502779062165
 20
2.507305412015961
 10
18.47084711107798
 20
2.507795241512948
 10
18.43892120937998
 20
2.508610878664963
 10
18.406403196812
 20
2.50977636354099
 10
18.37389941002101
 20
2.511279144630973
 10
18.34201468466598
 20
2.513082458060975
 10
18.31015014189398
 20
2.515211510710964
 10
18.27830897152397
 20
2.517666757761955
 10
18.24649456438597
 20
2.520449010407955
 10
18.214710545357
 20
2.523559494376963
 10
18.18296055250298
 20
2.526999458753945
 10
18.151248226031
 20
2.53077018055995
 10
18.12017439785698
 20
2.534792835419975
 10
18.08914385169598
 20
2.539137382904979
 10
18.05816007763698
 20
2.543805709070963
 10
18.02782103269298
 20
2.548700610087959
 10
17.99753453000698
 20
2.553910873176957
 10
17.96730503743001
 20
2.559438698671951
 10
17.93772793575098
 20
2.565168541788974
 10
17.93596508697298
 20
2.565520191972948
  0
LWPOLYLINE
  5
726
330
1E
100
AcDbEntity
  8
1
100
AcDbPolyline
 90
        2
 70
     0
 43
0.0
 10
9.351396946000006
 20
-6.50000002520005
 10
10.03896379459999
 20
-6.49692234830104
  0
LWPOLYLINE
  5
72A
330
1E
100
AcDbEntity
  8
1
100
AcDbPolyline
 90
        2
 70
     0
 43
0.0
 10
9.351396946000006
 20
6.500000025099976
 10
10.03896379459999
 20
6.496922348300982
  0
LWPOLYLINE
  5
753
330
1E
100
AcDbEntity
  8
1
100
AcDbPolyline
 90
       14
 70
     0
 43
0.0
 10
17.57887908579998
 20
2.91984366529999
 10
17.57108232801197
 20
2.929034946683995
 10
17.56311970696198
 20
2.938693227301993
 10
17.55500128923199
 20
2.948823547713968
 10
17.54673656894699
 20
2.959429689391977
 10
17.53833431290098
 20
2.970514059074954
 10
17.52952848128299
 20
2.982453260206961
 10
17.52033763508799
 20
2.995258617847977
 10
17.51051458902999
 20
3.009320397305995
 10
17.499827568424
 20
3.025038131935951
 10
17.48780372339798
 20
3.043207782268948
 10
17.47374706507899
 20
3.065033103005982
 10
17.45528208555499
 20
3.094491522538981
 10
17.32500375005098
 20
3.307133556138975
  0
LWPOLYLINE
  5
763
330
1E
100
AcDbEntity
  8
1
100
AcDbPolyline
 90
       54
 70
     0
 43
0.0
 10
9.030696455799995
 20
6.47224845009998
 10
9.030317004790004
 20
6.472803621904971
 10
9.029983079502994
 20
6.473406155346963
 10
9.029703763981004
 20
6.474043871734976
 10
9.029488142266998
 20
6.474704592373968
 10
9.029345298404008
 20
6.475376138568972
 10
9.029284316436003
 20
6.476046331627967
 10
9.029314280404003
 20
6.476702992855961
 10
9.029443661960996
 20
6.477334319176972
 10
9.029670093388004
 20
6.477935155944972
 10
9.029981912746007
 20
6.478506049220983
 10
9.030367157021004
 20
6.479047729728957
 10
9.030813863204002
 20
6.47956092819396
 10
9.031310068282008
 20
6.48004637533998
 10
9.031843809244003
 20
6.48050480189198
 10
9.032403123077003
 20
6.480936938573956
 10
9.032976071860003
 20
6.481343517783981
 10
9.033554316082998
 20
6.481725511950966
 10
9.034136830148
 20
6.482084381379963
 10
9.034723476020003
 20
6.482421645576978
 10
9.035314115664007
 20
6.482738824051976
 10
9.035908611047004
 20
6.483037436311971
 10
9.036506824134008
 20
6.483319001864967
 10
9.037108616891003
 20
6.483585040218967
 10
9.037713851284008
 20
6.483837070882969
 10
9.038627853991002
 20
6.484192176383967
 10
9.039548823938003
 20
6.484524311813967
 10
9.040476295257008
 20
6.484838605512972
 10
9.042035274626996
 20
6.485335952120974
 10
9.043609070127999
 20
6.485808244939959
 10
9.045195868066002
 20
6.486256948182981
 10
9.046793858848003
 20
6.486683259772973
 10
9.048723674436004
 20
6.487166963377973
 10
9.050663874931998
 20
6.487622218025957
 10
9.052611333360005
 20
6.488051093728982
 10
9.054888386444003
 20
6.488520867311962
 10
9.057167773487007
 20
6.488960544113976
 10
9.059775277013995
 20
6.489429333326968
 10
9.062385463137005
 20
6.489865617907977
 10
9.065325163948996
 20
6.490322054950977
 10
9.06892284865701
 20
6.490837681551963
 10
9.073509328964007
 20
6.491440598437971
 10
9.078760950329
 20
6.492072644462977
 10
9.084679343821008
 20
6.492719237681968
 10
9.091594113546003
 20
6.493397503808976
 10
9.099504206985001
 20
6.494087511381961
 10
9.10873828436101
 20
6.494795791261962
 10
9.119958026103004
 20
6.495538315524981
 10
9.134817305227992
 20
6.496366957277982
 10
9.152989347378008
 20
6.497191432372972
 10
9.177118294562998
 20
6.498039128850963
 10
9.210511786503003
 20
6.498868939052981
 10
9.260777624294007
 20
6.499604961780955
 10
9.351386946000003
 20
6.500000025270963
  0
ARC
  5
79B
330
1E
100
AcDbEntity
  8
1
100
AcDbCircle
 10
19.50440699999997
 20
-0.4928580000000152
 30
0.0
 40
3.0
100
AcDbArc
 50
56.19672462383204
 51
90.0
  0
TEXT
  5
858
330
1E
100
AcDbEntity
  8
6
100
AcDbText
 10
-21.65051077483054
 20
-35.5765062316066
 30
0.0
 40
5.0
  1
15B1D016023X5R00
100
AcDbText
  0
LINE
  5
97D
330
1E
100
AcDbEntity
  8
SK4
100
AcDbLine
 10
0.0000000000000001
 20
0.0
 30
0.0
 11
-20.49999999999998
 21
0.0000000000000025
 31
0.0
  0
SPLINE
  5
1668
330
1E
100
AcDbEntity
  8
1
100
AcDbSpline
210
0.0
220
0.0
230
1.0
 70
     8
 71
     3
 72
    13
 73
     9
 74
     0
 42
0.0000000001
 43
0.0000000001
 40
0.1858773096534081
 40
0.1858773096534081
 40
0.1858773096534081
 40
0.1858773096534081
 40
0.2121986518357338
 40
0.2461954479828129
 40
0.2831901007225562
 40
0.3235583163568146
 40
0.3677211350526348
 40
0.4162916428846508
 40
0.4162916428846508
 40
0.4162916428846508
 40
0.4162916428846508
 10
22.49268947359361
 20
-4.953709771991158
 30
0.0
 10
22.49199213486871
 20
-4.944963685748292
 30
0.0
 10
22.49028128337358
 20
-4.924930093219587
 30
0.0
 10
22.48711071250161
 20
-4.892646727488568
 30
0.0
 10
22.48294277030088
 20
-4.855760173433056
 30
0.0
 10
22.47777025028387
 20
-4.815581443487363
 30
0.0
 10
22.4713817610093
 20
-4.771674597877963
 30
0.0
 10
22.4663975482235
 20
-4.741165956836881
 30
0.0
 10
22.46364658349996
 20
-4.725211215400007
 30
0.0
  0
SPLINE
  5
1669
330
1E
100
AcDbEntity
  8
1
100
AcDbSpline
210
0.0
220
0.0
230
1.0
 70
     8
 71
     3
 72
    19
 73
    15
 74
     0
 42
0.0000000001
 43
0.0000000001
 40
0.0
 40
0.0
 40
0.0
 40
0.0
 40
0.1459201129904726
 40
0.2910647541139505
 40
0.4354538570100422
 40
0.579108740444288
 40
0.7220506162010061
 40
0.864301147332535
 40
1.005883357536871
 40
1.146822396939894
 40
1.287147499242816
 40
1.426895330074528
 40
1.566114830681071
 40
1.69288749532821
 40
1.69288749532821
 40
1.69288749532821
 40
1.69288749532821
 10
19.50440699999997
 20
-7.174962998100003
 30
0.0
 10
19.55196776193838
 20
-7.185152560786494
 30
0.0
 10
19.64731357396089
 20
-7.203318235888164
 30
0.0
 10
19.79102031334609
 20
-7.224066723937936
 30
0.0
 10
19.93475626299987
 20
-7.238349644275559
 30
0.0
 10
20.0782478387742
 20
-7.246239727304272
 30
0.0
 10
20.221235452563
 20
-7.247778628557512
 30
0.0
 10
20.36346014599009
 20
-7.242975530892579
 30
0.0
 10
20.50465885465988
 20
-7.231807840900162
 30
0.0
 10
20.64455786997962
 20
-7.214221743293991
 30
0.0
 10
20.78286733804898
 20
-7.190133151184912
 30
0.0
 10
20.91927645683337
 20
-7.159428763041146
 30
0.0
 10
21.04959955974539
 20
-7.123042052413382
 30
0.0
 10
21.1337125674217
 20
-7.094879925260785
 30
0.0
 10
21.17343586538761
 20
-7.080450443983184
 30
0.0
  0
SPLINE
  5
480A
330
1E
100
AcDbEntity
  8
CUT
100
AcDbSpline
210
0.0
220
0.0
230
1.0
 70
     8
 71
     3
 72
    36
 73
    32
 74
    30
 42
0.0000000001
 43
0.0000000001
 44
0.0000000001
 12
0.999999974536591
 22
0.0002256697089278
 32
0.0
 13
-0.9999999877817735
 23
0.0001563216325853
 33
0.0
 40
0.0
 40
0.0
 40
0.0
 40
0.0
 40
0.3247968718029799
 40
0.6496067421840984
 40
0.9744117788214477
 40
1.299193137278201
 40
1.623933626152002
 40
1.948615157295985
 40
2.273219035205672
 40
2.597726393227029
 40
2.922119434983468
 40
3.2463818685585
 40
3.570538381659799
 40
3.894584393585587
 40
4.218501786690679
 40
4.542276600213912
 40
4.865896600213902
 40
5.189352310049119
 40
5.512643806746757
 40
5.835776681887928
 40
6.15876973138126
 40
6.481669902957555
 40
6.804567831424115
 40
7.127534260436488
 40
7.450648382196904
 40
7.773996294925591
 40
8.097652874684131
 40
8.421663885301077
 40
8.746023644514499
 40
9.070658904560291
 40
9.395435456997503
 40
9.395435456997503
 40
9.395435456997503
 40
9.395435456997503
 10
20.00440699999998
 20
8.0
 30
0.0
 10
20.11267262117749
 20
8.000024432271839
 30
0.0
 10
20.3293908134534
 20
7.988260971867525
 30
0.0
 10
20.6505236312566
 20
7.935705050803465
 30
0.0
 10
20.96413830364697
 20
7.848766658439542
 30
0.0
 10
21.26650052392969
 20
7.728487416903464
 30
0.0
 10
21.55407223399774
 20
7.576277816319747
 30
0.0
 10
21.82347301218074
 20
7.393933111838757
 30
0.0
 10
22.07153841593382
 20
7.183601205776516
 30
0.0
 10
22.29536153368977
 20
6.947769334755571
 30
0.0
 10
22.49231386014032
 20
6.689216765834361
 30
0.0
 10
22.66009826465943
 20
6.410986461317611
 30
0.0
 10
22.79675499150187
 20
6.116344575898368
 30
0.0
 10
22.90068343858807
 20
5.808751579824173
 30
0.0
 10
22.97066063006655
 20
5.491835822218114
 30
0.0
 10
23.00586114909657
 20
5.169342915182445
 30
0.0
 10
23.00586996539934
 20
4.845087602605625
 30
0.0
 10
22.97068578836171
 20
4.522907868114048
 30
0.0
 10
22.90072258198231
 20
4.206619457248441
 30
0.0
 10
22.7968022827467
 20
3.899968748775725
 30
0.0
 10
22.66014586855071
 20
3.606582818564099
 30
0.0
 10
22.4923524964262
 20
3.329914206241594
 30
0.0
 10
22.29537726017572
 20
3.073213051911073
 30
0.0
 10
22.07152066266435
 20
2.839485195531808
 30
0.0
 10
21.82341070974484
 20
2.631451854960608
 30
0.0
 10
21.55396427692543
 20
2.451503054669457
 30
0.0
 10
21.26635622611591
 20
2.30165274256055
 30
0.0
 10
20.96398158804222
 20
2.183519745287926
 30
0.0
 10
20.65038927571183
 20
2.09831783791213
 30
0.0
 10
20.32931161332154
 20
2.046891537669793
 30
0.0
 10
20.11266584948965
 20
2.035405076799694
 30
0.0
 10
20.00440699999998
 20
2.035421999999995
 30
0.0
 11
20.00440699999998
 21
8.0
 31
0.0
 11
20.32872899999998
 21
7.982443000000002
 31
0.0
 11
20.64927299999998
 21
7.929974000000001
 31
0.0
 11
20.96227399999996
 21
7.843205999999995
 31
0.0
 11
21.26405399999999
 21
7.723157
 31
0.0
 11
21.55106899999998
 21
7.571240000000002
 31
0.0
 11
21.81994799999998
 21
7.389245000000002
 31
0.0
 11
22.06753299999999
 21
7.179317999999994
 31
0.0
 11
22.29092
 21
6.943939
 31
0.0
 11
22.48748799999998
 21
6.685884999999997
 31
0.0
 11
22.65493599999999
 21
6.408203
 31
0.0
 11
22.79132099999998
 21
6.114134000000007
 31
0.0
 11
22.89504199999999
 21
5.807135999999997
 31
0.0
 11
22.964876
 21
5.490836000000001
 31
0.0
 11
23.0
 21
5.168971999999994
 31
0.0
 11
23.0
 21
4.845352000000004
 31
0.0
 11
22.964876
 21
4.523808999999999
 31
0.0
 11
22.89504199999999
 21
4.208150000000003
 31
0.0
 11
22.79132099999998
 21
3.902116000000006
 31
0.0
 11
22.65493599999999
 21
3.609329999999998
 31
0.0
 11
22.48748799999998
 21
3.333240000000003
 31
0.0
 11
22.29092
 21
3.077067999999997
 31
0.0
 11
22.06753299999999
 21
2.843817999999998
 31
0.0
 11
21.81994799999998
 21
2.636201999999995
 31
0.0
 11
21.55106899999998
 21
2.456597000000002
 31
0.0
 11
21.26405399999999
 21
2.307011000000001
 31
0.0
 11
20.96227399999996
 21
2.189062000000006
 31
0.0
 11
20.64927299999998
 21
2.103976000000002
 31
0.0
 11
20.32872899999998
 21
2.052599
 31
0.0
 11
20.00440699999998
 21
2.035421999999995
 31
0.0
  0
SPLINE
  5
480B
330
1E
100
AcDbEntity
  8
CUT
100
AcDbSpline
210
0.0
220
0.0
230
1.0
 70
     8
 71
     3
 72
    36
 73
    32
 74
    30
 42
0.0000000001
 43
0.0000000001
 44
0.0000000001
 12
-0.999999974536591
 22
0.0002256697089278
 32
0.0
 13
0.9999999877817735
 23
0.0001563216325853
 33
0.0
 40
0.0
 40
0.0
 40
0.0
 40
0.0
 40
0.3247968718029763
 40
0.6496067421840948
 40
0.9744117788214612
 40
1.299193137278191
 40
1.623933626151993
 40
1.948615157295981
 40
2.273219035205647
 40
2.597726393226997
 40
2.922119434983459
 40
3.246381868558485
 40
3.570538381659784
 40
3.894584393585573
 40
4.218501786690661
 40
4.542276600213893
 40
4.865896600213884
 40
5.189352310049098
 40
5.512643806746732
 40
5.835776681887904
 40
6.158769731381236
 40
6.481669902957526
 40
6.80456783142411
 40
7.127534260436474
 40
7.450648382196868
 40
7.773996294925562
 40
8.097652874684102
 40
8.421663885301025
 40
8.746023644514465
 40
9.070658904560257
 40
9.395435456997466
 40
9.395435456997466
 40
9.395435456997466
 40
9.395435456997466
 10
20.00440699999998
 20
8.0
 30
0.0
 10
19.89614137882247
 20
8.000024432271839
 30
0.0
 10
19.67942318654656
 20
7.988260971867529
 30
0.0
 10
19.35829036874336
 20
7.935705050803463
 30
0.0
 10
19.04467569635297
 20
7.848766658439548
 30
0.0
 10
18.74231347607028
 20
7.72848741690346
 30
0.0
 10
18.45474176600223
 20
7.576277816319744
 30
0.0
 10
18.18534098781922
 20
7.393933111838768
 30
0.0
 10
17.93727558406617
 20
7.18360120577651
 30
0.0
 10
17.71345246631024
 20
6.947769334755554
 30
0.0
 10
17.51650013985963
 20
6.68921676583438
 30
0.0
 10
17.34871573534055
 20
6.410986461317605
 30
0.0
 10
17.2120590084981
 20
6.116344575898368
 30
0.0
 10
17.10813056141189
 20
5.808751579824176
 30
0.0
 10
17.03815336993344
 20
5.491835822218114
 30
0.0
 10
17.00295285090344
 20
5.169342915182443
 30
0.0
 10
17.00294403460066
 20
4.845087602605625
 30
0.0
 10
17.03812821163827
 20
4.522907868114051
 30
0.0
 10
17.10809141801766
 20
4.206619457248438
 30
0.0
 10
17.21201171725327
 20
3.899968748775724
 30
0.0
 10
17.34866813144928
 20
3.606582818564103
 30
0.0
 10
17.51646150357375
 20
3.329914206241579
 30
0.0
 10
17.71343673982429
 20
3.073213051911088
 30
0.0
 10
17.93729333733563
 20
2.839485195531812
 30
0.0
 10
18.18540329025512
 20
2.631451854960597
 30
0.0
 10
18.45484972307454
 20
2.45150305466946
 30
0.0
 10
18.74245777388405
 20
2.301652742560556
 30
0.0
 10
19.04483241195773
 20
2.183519745287918
 30
0.0
 10
19.35842472428813
 20
2.098317837912133
 30
0.0
 10
19.67950238667841
 20
2.046891537669793
 30
0.0
 10
19.8961481505103
 20
2.035405076799694
 30
0.0
 10
20.00440699999998
 20
2.035421999999995
 30
0.0
 11
20.00440699999998
 21
8.0
 31
0.0
 11
19.68008499999998
 21
7.982443000000002
 31
0.0
 11
19.35954099999998
 21
7.929974000000001
 31
0.0
 11
19.04653999999998
 21
7.843205999999995
 31
0.0
 11
18.74475999999998
 21
7.723157
 31
0.0
 11
18.45774499999999
 21
7.571240000000002
 31
0.0
 11
18.18886599999998
 21
7.389245000000002
 31
0.0
 11
17.941281
 21
7.179317999999994
 31
0.0
 11
17.717894
 21
6.943939
 31
0.0
 11
17.52132599999998
 21
6.685884999999997
 31
0.0
 11
17.35387799999998
 21
6.408203
 31
0.0
 11
17.21749299999999
 21
6.114134000000007
 31
0.0
 11
17.11377199999998
 21
5.807135999999997
 31
0.0
 11
17.04393799999999
 21
5.490836000000001
 31
0.0
 11
17.008814
 21
5.168971999999994
 31
0.0
 11
17.008814
 21
4.845352000000004
 31
0.0
 11
17.04393799999999
 21
4.523808999999999
 31
0.0
 11
17.11377199999998
 21
4.208150000000003
 31
0.0
 11
17.21749299999999
 21
3.902116000000006
 31
0.0
 11
17.35387799999998
 21
3.609329999999998
 31
0.0
 11
17.52132599999998
 21
3.333240000000003
 31
0.0
 11
17.717894
 21
3.077067999999997
 31
0.0
 11
17.941281
 21
2.843817999999998
 31
0.0
 11
18.18886599999998
 21
2.636201999999995
 31
0.0
 11
18.45774499999999
 21
2.456597000000002
 31
0.0
 11
18.74475999999998
 21
2.307011000000001
 31
0.0
 11
19.04653999999998
 21
2.189062000000006
 31
0.0
 11
19.35954099999998
 21
2.103976000000002
 31
0.0
 11
19.68008499999998
 21
2.052599
 31
0.0
 11
20.00440699999998
 21
2.035421999999995
 31
0.0
  0
LINE
  5
482C
330
1E
100
AcDbEntity
  8
NOCUT
100
AcDbLine
 10
17.68753378400001
 20
6.5
 30
0.0
 11
0.2000000000000171
 21
6.5
 31
0.0
  0
LINE
  5
482D
330
1E
100
AcDbEntity
  8
NOCUT
100
AcDbLine
 10
22.5
 20
0.0
 30
0.0
 11
0.0000000000000001
 21
0.0
 31
0.0
  0
LINE
  5
482E
330
1E
100
AcDbEntity
  8
NOCUT
100
AcDbLine
 10
0.0000000000000001
 20
0.0
 30
0.0
 11
0.0000000000000001
 21
6.299999999999998
 31
0.0
  0
ARC
  5
482F
330
1E
100
AcDbEntity
  8
NOCUT
100
AcDbCircle
 10
0.2000000000000171
 20
6.299999999999998
 30
0.0
 40
0.2
100
AcDbArc
 50
90.0
 51
180.0
  0
LINE
  5
4830
330
1E
100
AcDbEntity
  8
NOCUT
100
AcDbLine
 10
22.5
 20
5.149999999999991
 30
0.0
 11
22.5
 21
0.0
 31
0.0
  0
ARC
  5
4831
330
1E
100
AcDbEntity
  8
NOCUT
100
AcDbCircle
 10
20.0
 20
5.149999999999991
 30
0.0
 40
2.5
100
AcDbArc
 50
0.0
 51
142.8827365328
  0
ARC
  5
4832
330
1E
100
AcDbEntity
  8
NOCUT
100
AcDbCircle
 10
17.68753378400001
 20
6.899999999999991
 30
0.0
 40
0.4
100
AcDbArc
 50
270.0
 51
322.8827365327999
  0
TEXT
  5
4860
330
1E
100
AcDbEntity
  8
6
100
AcDbText
 10
3.369319732692531
 20
14.90593965193463
 30
0.0
 40
2.5
  1
RHHW0602M0TN
100
AcDbText
  0
TEXT
  5
4861
330
1E
100
AcDbEntity
  8
6
100
AcDbText
 10
44.68285152790514
 20
-3.483065313898406
 30
0.0
 40
3.5
  1
Z=3
 50
90.0
100
AcDbText
  0
LWPOLYLINE
  5
49E2
330
1E
100
AcDbEntity
  8
1
100
AcDbPolyline
 90
        3
 70
     1
 43
0.0
 10
0.0000000000001279
 20
0.0
 10
-2.950972054112455
 20
0.0
 42
0.4142135623730966
 10
0.0000000000001279
 20
-2.950972054112583
  0
HATCH
  5
49E3
330
1E
100
AcDbEntity
  8
1
100
AcDbHatch
 10
0.0
 20
0.0
 30
0.0
210
0.0
220
0.0
230
1.0
  2
SOLID
 70
     1
 71
     0
 91
        2
 92
        7
 72
     1
 73
     1
 93
        3
 10
0.0000000000001279
 20
0.0
 42
0.0
 10
2.950972054112709
 20
0.0
 42
0.4142135623730966
 10
0.0000000000001279
 20
2.950972054112611
 42
0.0
 97
        0
 92
        7
 72
     1
 73
     1
 93
        3
 10
0.0000000000001279
 20
-2.950972054112496
 42
0.0
 10
0.0000000000001279
 20
0.0
 42
0.0
 10
-2.950972054112455
 20
0.0
 42
0.4142135623730953
 97
        0
 75
     0
 76
     1
 47
0.1190009775223266
 98
        2
 10
0.7445530588120306
 20
0.9212244733764975
 10
-1.279464601852807
 20
-1.696796923046291
  0
CIRCLE
  5
49E4
330
1E
100
AcDbEntity
  8
1
100
AcDbCircle
 10
0.0000000000001279
 20
0.0
 30
0.0
 40
2.950972054112601
  0
LINE
  5
49E5
330
1E
100
AcDbEntity
  8
1
100
AcDbLine
 10
0.0000000000001279
 20
2.950972054112611
 30
0.0
 11
0.0000000000001279
 21
-2.950972054112583
 31
0.0
  0
LINE
  5
49E7
330
1E
100
AcDbEntity
  8
1
100
AcDbLine
 10
-2.950972054112709
 20
0.0
 30
0.0
 11
2.950972054112709
 21
0.0
 31
0.0
  0
LWPOLYLINE
  5
49E8
330
1E
100
AcDbEntity
  8
1
100
AcDbPolyline
 90
        3
 70
     1
 43
0.0
 10
0.0000000000001279
 20
2.950972054112611
 10
0.0000000000001279
 20
0.0
 10
2.950972054112709
 20
0.0
 42
0.4142135623730966
  0
ENDSEC
  0
SECTION
  2
OBJECTS
  0
DICTIONARY
  5
C
330
0
100
AcDbDictionary
281
     1
  3
ACAD_COLOR
350
4CAF
  3
ACAD_GROUP
350
D
  3
ACAD_LAYOUT
350
19
  3
ACAD_MATERIAL
350
4CAE
  3
ACAD_MLINESTYLE
350
16
  3
ACAD_PLOTSETTINGS
350
18
  3
ACAD_PLOTSTYLENAME
350
47D3
  3
ACAD_TABLESTYLE
350
4CB0
  3
ACDBHEADERROUNDTRIPXREC
350
4CCA
  3
AcDbVariableDictionary
350
4CC5
1001
ACAD
1000
TREAT_AS_HARD
1070
     0
  0
DICTIONARY
  5
3C0E
330
1E
100
AcDbDictionary
280
     1
281
     1
  3
ACAD_LAYOUTSELFREF
360
3C0F
  0
DICTIONARY
  5
3C0C
330
1A
100
AcDbDictionary
280
     1
281
     1
  3
ACAD_LAYOUTSELFREF
360
3C0D
  0
DICTIONARY
  5
4CAF
102
{ACAD_REACTORS
330
C
102
}
330
C
100
AcDbDictionary
281
     1
  0
DICTIONARY
  5
D
102
{ACAD_REACTORS
330
C
102
}
330
C
100
AcDbDictionary
281
     1
1001
ACAD
1000
TREAT_AS_HARD
1070
     0
  0
DICTIONARY
  5
19
102
{ACAD_REACTORS
330
C
102
}
330
C
100
AcDbDictionary
281
     1
  3
Layout1
350
47D6
  3
Model
350
47D5
1001
ACAD
1000
TREAT_AS_HARD
1070
     0
  0
DICTIONARY
  5
4CAE
102
{ACAD_REACTORS
330
C
102
}
330
C
100
AcDbDictionary
281
     1
  0
DICTIONARY
  5
16
102
{ACAD_REACTORS
330
C
102
}
330
C
100
AcDbDictionary
281
     1
  3
STANDARD
350
17
1001
ACAD
1000
TREAT_AS_HARD
1070
     0
  0
DICTIONARY
  5
18
102
{ACAD_REACTORS
330
C
102
}
330
C
100
AcDbDictionary
281
     1
1001
ACAD
1000
TREAT_AS_HARD
1070
     0
  0
ACDBDICTIONARYWDFLT
  5
47D3
102
{ACAD_REACTORS
330
C
102
}
330
C
100
AcDbDictionary
281
     1
  3
Normal
350
47D4
100
AcDbDictionaryWithDefault
340
47D4
  0
DICTIONARY
  5
4CB0
102
{ACAD_REACTORS
330
C
102
}
330
C
100
AcDbDictionary
281
     1
  3
Standard
350
4CB1
  0
DICTIONARY
  5
4CCA
102
{ACAD_REACTORS
330
C
102
}
330
C
100
AcDbDictionary
281
     1
  0
DICTIONARY
  5
4CC5
102
{ACAD_REACTORS
330
C
102
}
330
C
100
AcDbDictionary
281
     1
  3
CTABLESTYLE
350
4CC6
  3
DIMASSOC
350
4CC7
  3
PROJECTNAME
350
4CC8
  0
XRECORD
  5
3C0F
102
{ACAD_REACTORS
330
3C0E
102
}
330
3C0E
100
AcDbXrecord
280
     1
340
1E
  0
XRECORD
  5
3C0D
102
{ACAD_REACTORS
330
3C0C
102
}
330
3C0C
100
AcDbXrecord
280
     1
340
1A
  0
LAYOUT
  5
47D6
102
{ACAD_XDICTIONARY
360
4CCD
102
}
102
{ACAD_REACTORS
330
19
102
}
330
19
100
AcDbPlotSettings
  1

  2
\\ingdom02\ITB2
  4

  6

 40
0.0
 41
0.0
 42
0.0
 43
0.0
 44
0.0
 45
0.0
 46
0.0
 47
0.0
 48
0.0
 49
0.0
140
0.0
141
0.0
142
1.0
143
1.0
 70
   688
 72
     0
 73
     0
 74
     5
  7

 75
    16
147
1.0
148
0.0
149
0.0
100
AcDbLayout
  1
Layout1
 70
     1
 71
     1
 10
0.0
 20
0.0
 11
12.0
 21
9.0
 12
0.0
 22
0.0
 32
0.0
 14
100.0
 24
100.0
 34
100.0
 15
-100.0
 25
-100.0
 35
-100.0
146
0.0
 13
0.0
 23
0.0
 33
0.0
 16
1.0
 26
0.0
 36
0.0
 17
0.0
 27
1.0
 37
0.0
 76
     0
330
1A
  0
LAYOUT
  5
47D5
102
{ACAD_XDICTIONARY
360
4CCB
102
}
102
{ACAD_REACTORS
330
19
102
}
330
19
100
AcDbPlotSettings
  1

  2
\\ingdom02\ITB2
  4

  6

 40
0.0
 41
0.0
 42
0.0
 43
0.0
 44
0.0
 45
0.0
 46
0.0
 47
0.0
 48
0.0
 49
0.0
140
0.0
141
0.0
142
1.0
143
1.0
 70
  1712
 72
     0
 73
     0
 74
     0
  7

 75
     0
147
1.0
148
0.0
149
0.0
100
AcDbLayout
  1
Model
 70
     1
 71
     0
 10
0.0
 20
0.0
 11
12.0
 21
9.0
 12
0.0
 22
0.0
 32
0.0
 14
0.0
 24
0.0
 34
0.0
 15
0.0
 25
0.0
 35
0.0
146
0.0
 13
0.0
 23
0.0
 33
0.0
 16
1.0
 26
0.0
 36
0.0
 17
0.0
 27
1.0
 37
0.0
 76
     0
330
1E
  0
MLINESTYLE
  5
17
102
{ACAD_REACTORS
330
16
102
}
330
16
100
AcDbMlineStyle
  2
STANDARD
 70
     0
  3

 62
   256
 51
90.0
 52
90.0
 71
     2
 49
0.5
 62
   256
  6
BYLAYER
 49
-0.5
 62
   256
  6
BYLAYER
  0
ACDBPLACEHOLDER
  5
47D4
102
{ACAD_REACTORS
330
47D3
102
}
330
47D3
  0
TABLESTYLE
  5
4CB1
102
{ACAD_REACTORS
330
4CB0
102
}
330
4CB0
100
AcDbTableStyle
  3
Standard
 70
     0
 71
     0
 40
0.06
 41
0.06
280
     0
281
     0
  7
STANDARD
140
0.18
170
     2
 62
     0
 63
     7
283
     0
274
    -2
284
     1
 64
     0
275
    -2
285
     1
 65
     0
276
    -2
286
     1
 66
     0
277
    -2
287
     1
 67
     0
278
    -2
288
     1
 68
     0
279
    -2
289
     1
 69
     0
  7
STANDARD
140
0.25
170
     5
 62
     0
 63
     7
283
     0
274
    -2
284
     1
 64
     0
275
    -2
285
     1
 65
     0
276
    -2
286
     1
 66
     0
277
    -2
287
     1
 67
     0
278
    -2
288
     1
 68
     0
279
    -2
289
     1
 69
     0
  7
STANDARD
140
0.18
170
     5
 62
     0
 63
     7
283
     0
274
    -2
284
     1
 64
     0
275
    -2
285
     1
 65
     0
276
    -2
286
     1
 66
     0
277
    -2
287
     1
 67
     0
278
    -2
288
     1
 68
     0
279
    -2
289
     1
 69
     0
  0
DICTIONARYVAR
  5
4CC6
102
{ACAD_REACTORS
330
4CC5
102
}
330
4CC5
100
DictionaryVariables
280
     0
  1
STANDARD
  0
DICTIONARYVAR
  5
4CC7
102
{ACAD_REACTORS
330
4CC5
102
}
330
4CC5
100
DictionaryVariables
280
     0
  1
1
  0
DICTIONARYVAR
  5
4CC8
102
{ACAD_REACTORS
330
4CC5
102
}
330
4CC5
100
DictionaryVariables
280
     0
  1

  0
DICTIONARY
  5
4CCD
330
47D6
100
AcDbDictionary
280
     1
281
     1
  3
ACAD_XREC_ROUNDTRIP
360
4CCE
  0
DICTIONARY
  5
4CCB
330
47D5
100
AcDbDictionary
280
     1
281
     1
  3
ACAD_XREC_ROUNDTRIP
360
4CCC
  0
XRECORD
  5
4CCE
102
{ACAD_REACTORS
330
4CCD
102
}
330
4CCD
100
AcDbXrecord
280
     1
102
SHADEPLOT
 70
     0
102
SHADEPLOTRESLEVEL
 70
     2
102
SHADEPLOTCUSTOMDPI
 70
   300
  0
XRECORD
  5
4CCC
102
{ACAD_REACTORS
330
4CCB
102
}
330
4CCB
100
AcDbXrecord
280
     1
102
SHADEPLOT
 70
     0
102
SHADEPLOTRESLEVEL
 70
     2
102
SHADEPLOTCUSTOMDPI
 70
   300
  0
ENDSEC
  0
EOF
