  0
SECTION
  2
HEADER
  9
$ACADVER
  1
AC1015
  9
$ACADMAINTVER
 70
    20
  9
$DWGCODEPAGE
  3
ANSI_1252
  9
$INSBASE
 10
0.0
 20
0.0
 30
0.0
  9
$EXTMIN
 10
-66.1388336030941
 20
-54.77841110679765
 30
-0.0000000000000456
  9
$EXTMAX
 10
105.023354111019
 20
18.21926439881577
 30
0.0000000000010341
  9
$LIMMIN
 10
0.0
 20
0.0
  9
$LIMMAX
 10
841.0
 20
594.0
  9
$ORTHOMODE
 70
     0
  9
$REGENMODE
 70
     1
  9
$FILLMODE
 70
     1
  9
$QTEXTMODE
 70
     0
  9
$MIRRTEXT
 70
     1
  9
$LTSCALE
 40
10.0
  9
$ATTMODE
 70
     1
  9
$TEXTSIZE
 40
0.2
  9
$TRACEWID
 40
0.05
  9
$TEXTSTYLE
  7
STANDARD
  9
$CLAYER
  8
0
  9
$CELTYPE
  6
BYLAYER
  9
$CECOLOR
 62
   256
  9
$CELTSCALE
 40
1.0
  9
$DISPSILH
 70
     0
  9
$DIMSCALE
 40
1.0
  9
$DIMASZ
 40
2.5
  9
$DIMEXO
 40
5.256249999999996
  9
$DIMDLI
 40
31.958
  9
$DIMRND
 40
0.0
  9
$DIMDLE
 40
0.0
  9
$DIMEXE
 40
15.13799999999999
  9
$DIMTP
 40
0.001
  9
$DIMTM
 40
0.001
  9
$DIMTXT
 40
3.5
  9
$DIMCEN
 40
7.568999999999999
  9
$DIMTSZ
 40
0.0
  9
$DIMTOL
 70
     1
  9
$DIMLIM
 70
     0
  9
$DIMTIH
 70
     1
  9
$DIMTOH
 70
     1
  9
$DIMSE1
 70
     0
  9
$DIMSE2
 70
     0
  9
$DIMTAD
 70
     0
  9
$DIMZIN
 70
     0
  9
$DIMBLK
  1
_FILLED
  9
$DIMASO
 70
     1
  9
$DIMSHO
 70
     1
  9
$DIMPOST
  1

  9
$DIMAPOST
  1

  9
$DIMALT
 70
     0
  9
$DIMALTD
 70
     2
  9
$DIMALTF
 40
25.4
  9
$DIMLFAC
 40
1.0
  9
$DIMTOFL
 70
     0
  9
$DIMTVP
 40
0.0
  9
$DIMTIX
 70
     0
  9
$DIMSOXD
 70
     0
  9
$DIMSAH
 70
     0
  9
$DIMBLK1
  1

  9
$DIMBLK2
  1

  9
$DIMSTYLE
  2
STANDARD
  9
$DIMCLRD
 70
     0
  9
$DIMCLRE
 70
     0
  9
$DIMCLRT
 70
     0
  9
$DIMTFAC
 40
1.0
  9
$DIMGAP
 40
0.09
  9
$DIMJUST
 70
     0
  9
$DIMSD1
 70
     0
  9
$DIMSD2
 70
     0
  9
$DIMTOLJ
 70
     1
  9
$DIMTZIN
 70
     0
  9
$DIMALTZ
 70
     0
  9
$DIMALTTZ
 70
     0
  9
$DIMUPT
 70
     0
  9
$DIMDEC
 70
     4
  9
$DIMTDEC
 70
     4
  9
$DIMALTU
 70
     2
  9
$DIMALTTD
 70
     2
  9
$DIMTXSTY
  7
STANDARD
  9
$DIMAUNIT
 70
     0
  9
$DIMADEC
 70
     0
  9
$DIMALTRND
 40
0.0
  9
$DIMAZIN
 70
     0
  9
$DIMDSEP
 70
    46
  9
$DIMATFIT
 70
     3
  9
$DIMFRAC
 70
     0
  9
$DIMLDRBLK
  1
_FILLED
  9
$DIMLUNIT
 70
     2
  9
$DIMLWD
 70
    -2
  9
$DIMLWE
 70
    -2
  9
$DIMTMOVE
 70
     0
  9
$LUNITS
 70
     2
  9
$LUPREC
 70
     4
  9
$SKETCHINC
 40
0.1
  9
$FILLETRAD
 40
0.0
  9
$AUNITS
 70
     0
  9
$AUPREC
 70
     0
  9
$MENU
  1

  9
$ELEVATION
 40
0.0
  9
$PELEVATION
 40
0.0
  9
$THICKNESS
 40
0.0
  9
$LIMCHECK
 70
     0
  9
$CHAMFERA
 40
0.0
  9
$CHAMFERB
 40
0.0
  9
$CHAMFERC
 40
0.0
  9
$CHAMFERD
 40
0.0
  9
$SKPOLY
 70
     0
  9
$TDCREATE
 40
2453413.368737813
  9
$TDUCREATE
 40
2453413.285404479
  9
$TDUPDATE
 40
2453909.271531111
  9
$TDUUPDATE
 40
2453909.188197778
  9
$TDINDWG
 40
0.0437247106
  9
$TDUSRTIMER
 40
0.0211120255
  9
$USRTIMER
 70
     1
  9
$ANGBASE
 50
0.0
  9
$ANGDIR
 70
     0
  9
$PDMODE
 70
     0
  9
$PDSIZE
 40
0.3125
  9
$PLINEWID
 40
0.0
  9
$SPLFRAME
 70
     0
  9
$SPLINETYPE
 70
     6
  9
$SPLINESEGS
 70
     8
  9
$HANDSEED
  5
14BC
  9
$SURFTAB1
 70
     6
  9
$SURFTAB2
 70
     6
  9
$SURFTYPE
 70
     6
  9
$SURFU
 70
     6
  9
$SURFV
 70
     6
  9
$UCSBASE
  2

  9
$UCSNAME
  2

  9
$UCSORG
 10
0.0
 20
0.0
 30
0.0
  9
$UCSXDIR
 10
1.0
 20
0.0
 30
0.0
  9
$UCSYDIR
 10
0.0
 20
1.0
 30
0.0
  9
$UCSORTHOREF
  2

  9
$UCSORTHOVIEW
 70
     0
  9
$UCSORGTOP
 10
0.0
 20
0.0
 30
0.0
  9
$UCSORGBOTTOM
 10
0.0
 20
0.0
 30
0.0
  9
$UCSORGLEFT
 10
0.0
 20
0.0
 30
0.0
  9
$UCSORGRIGHT
 10
0.0
 20
0.0
 30
0.0
  9
$UCSORGFRONT
 10
0.0
 20
0.0
 30
0.0
  9
$UCSORGBACK
 10
0.0
 20
0.0
 30
0.0
  9
$PUCSBASE
  2

  9
$PUCSNAME
  2

  9
$PUCSORG
 10
0.0
 20
0.0
 30
0.0
  9
$PUCSXDIR
 10
1.0
 20
0.0
 30
0.0
  9
$PUCSYDIR
 10
0.0
 20
1.0
 30
0.0
  9
$PUCSORTHOREF
  2

  9
$PUCSORTHOVIEW
 70
     0
  9
$PUCSORGTOP
 10
0.0
 20
0.0
 30
0.0
  9
$PUCSORGBOTTOM
 10
0.0
 20
0.0
 30
0.0
  9
$PUCSORGLEFT
 10
0.0
 20
0.0
 30
0.0
  9
$PUCSORGRIGHT
 10
0.0
 20
0.0
 30
0.0
  9
$PUCSORGFRONT
 10
0.0
 20
0.0
 30
0.0
  9
$PUCSORGBACK
 10
0.0
 20
0.0
 30
0.0
  9
$USERI1
 70
     0
  9
$USERI2
 70
     0
  9
$USERI3
 70
     0
  9
$USERI4
 70
     0
  9
$USERI5
 70
     0
  9
$USERR1
 40
0.0
  9
$USERR2
 40
0.0
  9
$USERR3
 40
0.0
  9
$USERR4
 40
0.0
  9
$USERR5
 40
0.0
  9
$WORLDVIEW
 70
     1
  9
$SHADEDGE
 70
     3
  9
$SHADEDIF
 70
    70
  9
$TILEMODE
 70
     1
  9
$MAXACTVP
 70
    64
  9
$PINSBASE
 10
0.0
 20
0.0
 30
0.0
  9
$PLIMCHECK
 70
     0
  9
$PEXTMIN
 10
28.8459315776825
 20
19.7950672626495
 30
0.0
  9
$PEXTMAX
 10
259.613384199142
 20
178.155605363846
 30
0.0
  9
$PLIMMIN
 10
-4.23333740234375
 20
-4.233333110809327
  9
$PLIMMAX
 10
292.692657470703
 20
205.7399945259088
  9
$UNITMODE
 70
     0
  9
$VISRETAIN
 70
     1
  9
$PLINEGEN
 70
     1
  9
$PSLTSCALE
 70
     1
  9
$TREEDEPTH
 70
  3020
  9
$CMLSTYLE
  2
STANDARD
  9
$CMLJUST
 70
     0
  9
$CMLSCALE
 40
1.0
  9
$PROXYGRAPHICS
 70
     1
  9
$MEASUREMENT
 70
     0
  9
$CELWEIGHT
370
    -1
  9
$ENDCAPS
280
     0
  9
$JOINSTYLE
280
     0
  9
$LWDISPLAY
290
     0
  9
$INSUNITS
 70
     0
  9
$HYPERLINKBASE
  1

  9
$STYLESHEET
  1

  9
$XEDIT
290
     1
  9
$CEPSNTYPE
380
     0
  9
$PSTYLEMODE
290
     1
  9
$FINGERPRINTGUID
  2
{2DEA55A3-B4A9-4BF4-AF2B-EA9978BC411F}
  9
$VERSIONGUID
  2
{6FE2E2AE-FFF6-4D10-AB52-724DD156FCEE}
  9
$EXTNAMES
290
     1
  9
$PSVPSCALE
 40
0.0
  9
$OLESTARTUP
290
     0
  0
ENDSEC
  0
SECTION
  2
CLASSES
  0
CLASS
  1
ACDBDICTIONARYWDFLT
  2
AcDbDictionaryWithDefault
  3
ObjectDBX Classes
 90
        0
280
     0
281
     0
  0
CLASS
  1
ACDBPLACEHOLDER
  2
AcDbPlaceHolder
  3
ObjectDBX Classes
 90
        0
280
     0
281
     0
  0
CLASS
  1
LAYOUT
  2
AcDbLayout
  3
ObjectDBX Classes
 90
        0
280
     0
281
     0
  0
CLASS
  1
TABLESTYLE
  2
AcDbTableStyle
  3
ObjectDBX Classes
 90
     2047
280
     0
281
     0
  0
CLASS
  1
DICTIONARYVAR
  2
AcDbDictionaryVar
  3
ObjectDBX Classes
 90
        0
280
     0
281
     0
  0
ENDSEC
  0
SECTION
  2
TABLES
  0
TABLE
  2
VPORT
  5
8
330
0
100
AcDbSymbolTable
 70
     2
  0
VPORT
  5
14B6
330
8
100
AcDbSymbolTableRecord
100
AcDbViewportTableRecord
  2
*Active
 70
     0
 10
0.0
 20
0.0
 11
1.0
 21
1.0
 12
19.44226025396244
 22
-18.27957335399094
 13
0.0
 23
0.0
 14
1.0
 24
1.0
 15
0.0
 25
0.0
 16
0.0
 26
0.0
 36
1.0
 17
0.0
 27
0.0
 37
0.0
 40
112.2503844157595
 41
1.532401524777636
 42
50.0
 43
0.0
 44
0.0
 50
0.0
 51
0.0
 71
     0
 72
  1000
 73
     1
 74
     1
 75
     0
 76
     0
 77
     0
 78
     0
281
     0
 65
     1
110
0.0
120
0.0
130
0.0
111
1.0
121
0.0
131
0.0
112
0.0
122
1.0
132
0.0
 79
     0
146
0.0
  0
ENDTAB
  0
TABLE
  2
LTYPE
  5
5
330
0
100
AcDbSymbolTable
 70
     2
  0
LTYPE
  5
13
330
5
100
AcDbSymbolTableRecord
100
AcDbLinetypeTableRecord
  2
BYBLOCK
 70
     0
  3

 72
    65
 73
     0
 40
0.0
  0
LTYPE
  5
14
330
5
100
AcDbSymbolTableRecord
100
AcDbLinetypeTableRecord
  2
BYLAYER
 70
     0
  3

 72
    65
 73
     0
 40
0.0
  0
LTYPE
  5
15
330
5
100
AcDbSymbolTableRecord
100
AcDbLinetypeTableRecord
  2
CONTINUOUS
 70
     0
  3
Solid line
 72
    65
 73
     0
 40
0.0
  0
LTYPE
  5
2E
330
5
100
AcDbSymbolTableRecord
100
AcDbLinetypeTableRecord
  2
CENTER
 70
     0
  3
____ _ ____ _ ____ _ ____ _ ____ _ ____ _ ____
 72
    65
 73
     4
 40
0.6
 49
0.375
 74
     0
 49
-0.075
 74
     0
 49
0.075
 74
     0
 49
-0.075
 74
     0
  0
ENDTAB
  0
TABLE
  2
LAYER
  5
2
330
0
100
AcDbSymbolTable
 70
    11
  0
LAYER
  5
10
330
2
100
AcDbSymbolTableRecord
100
AcDbLayerTableRecord
  2
1
 70
     0
 62
     4
  6
CONTINUOUS
370
    -3
390
114B
  0
LAYER
  5
31
330
2
100
AcDbSymbolTableRecord
100
AcDbLayerTableRecord
  2
2
 70
     0
 62
     7
  6
CONTINUOUS
370
    -3
390
114B
  0
LAYER
  5
33
330
2
100
AcDbSymbolTableRecord
100
AcDbLayerTableRecord
  2
4
 70
     0
 62
     2
  6
CENTER
370
    -3
390
114B
  0
LAYER
  5
35
330
2
100
AcDbSymbolTableRecord
100
AcDbLayerTableRecord
  2
0
 70
     0
 62
     7
  6
CONTINUOUS
370
    -3
390
114B
  0
LAYER
  5
36
330
2
100
AcDbSymbolTableRecord
100
AcDbLayerTableRecord
  2
DEFPOINTS
 70
     0
 62
     7
  6
CONTINUOUS
290
     0
370
    -3
390
114B
  0
LAYER
  5
553
330
2
100
AcDbSymbolTableRecord
100
AcDbLayerTableRecord
  2
SK1
 70
     0
 62
     4
  6
CONTINUOUS
370
    -3
390
114B
  0
LAYER
  5
554
330
2
100
AcDbSymbolTableRecord
100
AcDbLayerTableRecord
  2
SK4
 70
     0
 62
     2
  6
CENTER
370
    -3
390
114B
  0
LAYER
  5
556
330
2
100
AcDbSymbolTableRecord
100
AcDbLayerTableRecord
  2
SK2
 70
     0
 62
     7
  6
CONTINUOUS
370
    -3
390
114B
  0
LAYER
  5
117B
330
2
100
AcDbSymbolTableRecord
100
AcDbLayerTableRecord
  2
CUT
 70
     0
 62
     1
  6
CONTINUOUS
370
    -3
390
114B
  0
LAYER
  5
1180
330
2
100
AcDbSymbolTableRecord
100
AcDbLayerTableRecord
  2
6
 70
     0
 62
     5
  6
CONTINUOUS
370
    -3
390
114B
  0
LAYER
  5
1192
330
2
100
AcDbSymbolTableRecord
100
AcDbLayerTableRecord
  2
NOCUT
 70
     0
 62
     7
  6
CONTINUOUS
370
    -3
390
114B
  0
ENDTAB
  0
TABLE
  2
STYLE
  5
3
330
0
100
AcDbSymbolTable
 70
     1
  0
STYLE
  5
11
330
3
100
AcDbSymbolTableRecord
100
AcDbTextStyleTableRecord
  2
STANDARD
 70
     0
 40
0.0
 41
0.8
 50
0.0
 71
     0
 42
0.2
  3
isocp.shx
  4

  0
ENDTAB
  0
TABLE
  2
VIEW
  5
6
330
0
100
AcDbSymbolTable
 70
     0
  0
ENDTAB
  0
TABLE
  2
UCS
  5
7
330
0
100
AcDbSymbolTable
 70
     0
  0
ENDTAB
  0
TABLE
  2
APPID
  5
9
330
0
100
AcDbSymbolTable
 70
     1
  0
APPID
  5
12
330
9
100
AcDbSymbolTableRecord
100
AcDbRegAppTableRecord
  2
ACAD
 70
     0
  0
ENDTAB
  0
TABLE
  2
DIMSTYLE
  5
A
330
0
100
AcDbSymbolTable
 70
     2
100
AcDbDimStyleTable
 71
     0
  0
DIMSTYLE
105
30
330
A
100
AcDbSymbolTableRecord
100
AcDbDimStyleTableRecord
  2
STANDARD
 70
     0
340
11
  0
DIMSTYLE
105
558
102
{ACAD_REACTORS
330
511
330
510
330
50E
330
512
330
8C
102
}
330
A
100
AcDbSymbolTableRecord
100
AcDbDimStyleTableRecord
  2
ISO-25
 70
     0
 41
2.5
 42
0.625
 43
3.75
 44
1.25
 73
     0
 74
     0
 77
     1
 78
     8
140
2.5
141
2.5
143
0.03937007874016
147
0.625
171
     3
172
     1
271
     2
272
     2
274
     3
283
     0
284
     8
340
11
  0
ENDTAB
  0
TABLE
  2
BLOCK_RECORD
  5
1
330
0
100
AcDbSymbolTable
 70
     6
  0
BLOCK_RECORD
  5
1E
102
{ACAD_XDICTIONARY
360
8E3
102
}
330
1
100
AcDbSymbolTableRecord
100
AcDbBlockTableRecord
  2
*MODEL_SPACE
340
114C
  0
BLOCK_RECORD
  5
1A
102
{ACAD_XDICTIONARY
360
8E1
102
}
330
1
100
AcDbSymbolTableRecord
100
AcDbBlockTableRecord
  2
*PAPER_SPACE
340
114D
  0
BLOCK_RECORD
  5
23
330
1
100
AcDbSymbolTableRecord
100
AcDbBlockTableRecord
  2
_FILLED
340
0
  0
BLOCK_RECORD
  5
834
330
1
100
AcDbSymbolTableRecord
100
AcDbBlockTableRecord
  2
*D1
340
0
  0
BLOCK_RECORD
  5
840
330
1
100
AcDbSymbolTableRecord
100
AcDbBlockTableRecord
  2
*D2
340
0
  0
BLOCK_RECORD
  5
84C
330
1
100
AcDbSymbolTableRecord
100
AcDbBlockTableRecord
  2
*D3
340
0
  0
BLOCK_RECORD
  5
858
330
1
100
AcDbSymbolTableRecord
100
AcDbBlockTableRecord
  2
*D4
340
0
  0
BLOCK_RECORD
  5
864
330
1
100
AcDbSymbolTableRecord
100
AcDbBlockTableRecord
  2
*D5
340
0
  0
ENDTAB
  0
ENDSEC
  0
SECTION
  2
BLOCKS
  0
BLOCK
  5
39
330
1E
100
AcDbEntity
  8
0
100
AcDbBlockBegin
  2
*MODEL_SPACE
 70
     0
 10
0.0
 20
0.0
 30
0.0
  3
*MODEL_SPACE
  1

  0
ENDBLK
  5
3A
330
1E
100
AcDbEntity
  8
0
100
AcDbBlockEnd
  0
BLOCK
  5
37
330
1A
100
AcDbEntity
 67
     1
  8
0
100
AcDbBlockBegin
  2
*PAPER_SPACE
 70
     0
 10
0.0
 20
0.0
 30
0.0
  3
*PAPER_SPACE
  1

  0
ENDBLK
  5
38
330
1A
100
AcDbEntity
 67
     1
  8
0
100
AcDbBlockEnd
  0
BLOCK
  5
3D
330
23
100
AcDbEntity
  8
0
100
AcDbBlockBegin
  2
_FILLED
 70
     0
 10
0.0
 20
0.0
 30
0.0
  3
_FILLED
  1

  0
SOLID
  5
3E
330
23
100
AcDbEntity
  8
0
  6
ByBlock
 62
     0
100
AcDbTrace
 10
0.0
 20
0.0
 30
0.0
 11
-1.0
 21
0.132
 31
0.0
 12
-1.0
 22
-0.132
 32
0.0
 13
-1.0
 23
-0.132
 33
0.0
  0
ENDBLK
  5
3F
330
23
100
AcDbEntity
  8
0
100
AcDbBlockEnd
  0
BLOCK
  5
83E
330
834
100
AcDbEntity
  8
0
100
AcDbBlockBegin
  2
*D1
 70
     1
 10
0.0
 20
0.0
 30
0.0
  3
*D1
  1

  0
LINE
  5
1172
330
834
100
AcDbEntity
  8
SK2
 62
     0
370
    -2
100
AcDbLine
 10
-47.82500000000005
 20
-7.999999999999992
 30
0.0
 11
-64.25
 21
-7.999999999999986
 31
0.0
  0
LINE
  5
1173
330
834
100
AcDbEntity
  8
SK2
 62
     0
370
    -2
100
AcDbLine
 10
-47.82500000000005
 20
8.000000000000005
 30
0.0
 11
-64.25
 21
8.000000000000008
 31
0.0
  0
LINE
  5
1174
330
834
100
AcDbEntity
  8
SK2
 62
     0
370
    -2
100
AcDbLine
 10
-63.0
 20
-5.499999999999986
 30
0.0
 11
-63.0
 21
5.500000000000007
 31
0.0
  0
SOLID
  5
1175
330
834
100
AcDbEntity
  8
SK2
 62
     0
100
AcDbTrace
 10
-63.41666666666665
 20
-5.499999999999986
 30
0.0
 11
-62.58333333333332
 21
-5.499999999999986
 31
0.0
 12
-63.0
 22
-7.999999999999986
 32
0.0
 13
-63.0
 23
-7.999999999999986
 33
0.0
  0
SOLID
  5
1176
330
834
100
AcDbEntity
  8
SK2
 62
     0
100
AcDbTrace
 10
-63.41666666666665
 20
5.500000000000007
 30
0.0
 11
-62.58333333333332
 21
5.500000000000007
 31
0.0
 12
-63.0
 22
8.000000000000008
 32
0.0
 13
-63.0
 23
8.000000000000008
 33
0.0
  0
MTEXT
  5
1177
330
834
100
AcDbEntity
  8
SK2
 62
     0
100
AcDbMText
 10
-64.875
 20
0.0000000000000079
 30
0.0
 40
2.5
 41
0.0
 71
     5
 72
     1
  1
%%c16
 11
0.0000000000000001
 21
1.0
 31
0.0
 73
     1
 44
1.0
1001
ACAD
1000
MTEXTBEGIN
1070
    73
1070
     1
1070
    44
1040
1.0
1070
    74
1070
     0
1000
MTEXTEND
  0
POINT
  5
1178
330
834
100
AcDbEntity
  8
DEFPOINTS
 62
     0
100
AcDbPoint
 10
-47.20000000000005
 20
-7.999999999999992
 30
0.0
  0
POINT
  5
1179
330
834
100
AcDbEntity
  8
DEFPOINTS
 62
     0
100
AcDbPoint
 10
-47.20000000000005
 20
8.000000000000005
 30
0.0
  0
POINT
  5
117A
330
834
100
AcDbEntity
  8
DEFPOINTS
 62
     0
100
AcDbPoint
 10
-63.0
 20
8.000000000000008
 30
0.0
  0
ENDBLK
  5
83F
330
834
100
AcDbEntity
  8
0
100
AcDbBlockEnd
  0
BLOCK
  5
84A
330
840
100
AcDbEntity
  8
0
100
AcDbBlockBegin
  2
*D2
 70
     1
 10
0.0
 20
0.0
 30
0.0
  3
*D2
  1

  0
LINE
  5
1157
330
840
100
AcDbEntity
  8
SK2
 62
     0
370
    -2
100
AcDbLine
 10
-24.0
 20
-0.6249999999999975
 30
0.0
 11
-24.0
 21
-34.25
 31
0.0
  0
LINE
  5
1158
330
840
100
AcDbEntity
  8
SK2
 62
     0
370
    -2
100
AcDbLine
 10
81.00439999999997
 20
-3.613766882400009
 30
0.0
 11
81.00439999999997
 21
-34.25
 31
0.0
  0
LINE
  5
1159
330
840
100
AcDbEntity
  8
SK2
 62
     0
370
    -2
100
AcDbLine
 10
-21.49999999999999
 20
-33.0
 30
0.0
 11
78.50439999999998
 21
-33.0
 31
0.0
  0
SOLID
  5
115A
330
840
100
AcDbEntity
  8
SK2
 62
     0
100
AcDbTrace
 10
-21.49999999999999
 20
-32.58333333333332
 30
0.0
 11
-21.49999999999999
 21
-33.41666666666665
 31
0.0
 12
-24.0
 22
-33.0
 32
0.0
 13
-24.0
 23
-33.0
 33
0.0
  0
SOLID
  5
115B
330
840
100
AcDbEntity
  8
SK2
 62
     0
100
AcDbTrace
 10
78.50439999999998
 20
-32.58333333333332
 30
0.0
 11
78.50439999999998
 21
-33.41666666666665
 31
0.0
 12
81.00439999999997
 22
-33.0
 32
0.0
 13
81.00439999999997
 23
-33.0
 33
0.0
  0
MTEXT
  5
115C
330
840
100
AcDbEntity
  8
SK2
 62
     0
100
AcDbMText
 10
28.50219999999997
 20
-31.125
 30
0.0
 40
2.5
 41
0.0
 71
     5
 72
     1
  1
105
 73
     1
 44
1.0
1001
ACAD
1000
MTEXTBEGIN
1070
    73
1070
     1
1070
    44
1040
1.0
1070
    74
1070
     0
1000
MTEXTEND
  0
POINT
  5
115D
330
840
100
AcDbEntity
  8
DEFPOINTS
 62
     0
100
AcDbPoint
 10
-24.0
 20
0.0000000000000029
 30
0.0
  0
POINT
  5
115E
330
840
100
AcDbEntity
  8
DEFPOINTS
 62
     0
100
AcDbPoint
 10
81.00439999999997
 20
-2.988766882400009
 30
0.0
  0
POINT
  5
115F
330
840
100
AcDbEntity
  8
DEFPOINTS
 62
     0
100
AcDbPoint
 10
81.00439999999997
 20
-33.0
 30
0.0
  0
ENDBLK
  5
84B
330
840
100
AcDbEntity
  8
0
100
AcDbBlockEnd
  0
BLOCK
  5
856
330
84C
100
AcDbEntity
  8
0
100
AcDbBlockBegin
  2
*D3
 70
     1
 10
0.0
 20
0.0
 30
0.0
  3
*D3
  1

  0
LINE
  5
1160
330
84C
100
AcDbEntity
  8
SK2
 62
     0
370
    -2
100
AcDbLine
 10
-48.0
 20
-0.6249999999999945
 30
0.0
 11
-48.0
 21
-44.24999999999999
 31
0.0
  0
LINE
  5
1161
330
84C
100
AcDbEntity
  8
SK2
 62
     0
370
    -2
100
AcDbLine
 10
81.00439999999997
 20
-3.613766882400009
 30
0.0
 11
81.00439999999997
 21
-44.24999999999999
 31
0.0
  0
LINE
  5
1162
330
84C
100
AcDbEntity
  8
SK2
 62
     0
370
    -2
100
AcDbLine
 10
-45.49999999999999
 20
-43.0
 30
0.0
 11
78.50439999999998
 21
-43.0
 31
0.0
  0
SOLID
  5
1163
330
84C
100
AcDbEntity
  8
SK2
 62
     0
100
AcDbTrace
 10
-45.49999999999999
 20
-42.58333333333331
 30
0.0
 11
-45.49999999999999
 21
-43.41666666666665
 31
0.0
 12
-48.0
 22
-43.0
 32
0.0
 13
-48.0
 23
-43.0
 33
0.0
  0
SOLID
  5
1164
330
84C
100
AcDbEntity
  8
SK2
 62
     0
100
AcDbTrace
 10
78.50439999999998
 20
-42.58333333333331
 30
0.0
 11
78.50439999999998
 21
-43.41666666666665
 31
0.0
 12
81.00439999999997
 22
-43.0
 32
0.0
 13
81.00439999999997
 23
-43.0
 33
0.0
  0
MTEXT
  5
1165
330
84C
100
AcDbEntity
  8
SK2
 62
     0
100
AcDbMText
 10
16.50219999999996
 20
-41.12499999999999
 30
0.0
 40
2.5
 41
0.0
 71
     5
 72
     1
  1
129
 73
     1
 44
1.0
1001
ACAD
1000
MTEXTBEGIN
1070
    73
1070
     1
1070
    44
1040
1.0
1070
    74
1070
     0
1000
MTEXTEND
  0
POINT
  5
1166
330
84C
100
AcDbEntity
  8
DEFPOINTS
 62
     0
100
AcDbPoint
 10
-48.0
 20
0.0000000000000059
 30
0.0
  0
POINT
  5
1167
330
84C
100
AcDbEntity
  8
DEFPOINTS
 62
     0
100
AcDbPoint
 10
81.00439999999997
 20
-2.988766882400009
 30
0.0
  0
POINT
  5
1168
330
84C
100
AcDbEntity
  8
DEFPOINTS
 62
     0
100
AcDbPoint
 10
81.00439999999997
 20
-43.0
 30
0.0
  0
ENDBLK
  5
857
330
84C
100
AcDbEntity
  8
0
100
AcDbBlockEnd
  0
BLOCK
  5
862
330
858
100
AcDbEntity
  8
0
100
AcDbBlockBegin
  2
*D4
 70
     1
 10
0.0
 20
0.0
 30
0.0
  3
*D4
  1

  0
LINE
  5
114E
330
858
100
AcDbEntity
  8
2
 62
     0
370
    -2
100
AcDbLine
 10
81.00439999999997
 20
-3.613766882400009
 30
0.0
 11
81.00439999999997
 21
-24.25
 31
0.0
  0
LINE
  5
114F
330
858
100
AcDbEntity
  8
2
 62
     0
370
    -2
100
AcDbLine
 10
61.11567878899998
 20
-5.875000000000007
 30
0.0
 11
61.11567878899998
 21
-24.25
 31
0.0
  0
LINE
  5
1150
330
858
100
AcDbEntity
  8
2
 62
     0
370
    -2
100
AcDbLine
 10
78.50439999999998
 20
-23.0
 30
0.0
 11
63.61567878899998
 21
-23.0
 31
0.0
  0
SOLID
  5
1151
330
858
100
AcDbEntity
  8
2
 62
     0
100
AcDbTrace
 10
78.50439999999998
 20
-22.58333333333334
 30
0.0
 11
78.50439999999998
 21
-23.41666666666667
 31
0.0
 12
81.00439999999997
 22
-23.0
 32
0.0
 13
81.00439999999997
 23
-23.0
 33
0.0
  0
SOLID
  5
1152
330
858
100
AcDbEntity
  8
2
 62
     0
100
AcDbTrace
 10
63.61567878899998
 20
-22.58333333333334
 30
0.0
 11
63.61567878899998
 21
-23.41666666666667
 31
0.0
 12
61.11567878899998
 22
-23.0
 32
0.0
 13
61.11567878899998
 23
-23.0
 33
0.0
  0
MTEXT
  5
1153
330
858
100
AcDbEntity
  8
2
 62
     0
100
AcDbMText
 10
71.06003939449997
 20
-21.125
 30
0.0
 40
2.5
 41
0.0
 71
     5
 72
     1
  1
20
 73
     1
 44
1.0
1001
ACAD
1000
MTEXTBEGIN
1070
    73
1070
     1
1070
    44
1040
1.0
1070
    74
1070
     0
1000
MTEXTEND
  0
POINT
  5
1154
330
858
100
AcDbEntity
  8
DEFPOINTS
 62
     0
100
AcDbPoint
 10
81.00439999999997
 20
-2.988766882400009
 30
0.0
  0
POINT
  5
1155
330
858
100
AcDbEntity
  8
DEFPOINTS
 62
     0
100
AcDbPoint
 10
61.11567878899998
 20
-5.250000000000006
 30
0.0
  0
POINT
  5
1156
330
858
100
AcDbEntity
  8
DEFPOINTS
 62
     0
100
AcDbPoint
 10
61.11567878899998
 20
-23.0
 30
0.0
  0
ENDBLK
  5
863
330
858
100
AcDbEntity
  8
0
100
AcDbBlockEnd
  0
BLOCK
  5
86E
330
864
100
AcDbEntity
  8
0
100
AcDbBlockBegin
  2
*D5
 70
     1
 10
0.0
 20
0.0
 30
0.0
  3
*D5
  1

  0
LINE
  5
1189
330
864
100
AcDbEntity
  8
2
 62
     0
370
    -2
100
AcDbLine
 10
74.6456430243252
 20
5.999999999999992
 30
0.0
 11
97.25439999999998
 21
5.999999999999982
 31
0.0
  0
LINE
  5
118A
330
864
100
AcDbEntity
  8
2
 62
     0
370
    -2
100
AcDbLine
 10
82.12499999999996
 20
-6.000000000000007
 30
0.0
 11
97.25439999999998
 21
-6.000000000000013
 31
0.0
  0
LINE
  5
118B
330
864
100
AcDbEntity
  8
2
 62
     0
370
    -2
100
AcDbLine
 10
96.00439999999998
 20
3.499999999999984
 30
0.0
 11
96.00439999999998
 21
-3.500000000000011
 31
0.0
  0
SOLID
  5
118C
330
864
100
AcDbEntity
  8
2
 62
     0
100
AcDbTrace
 10
95.58773333333332
 20
3.499999999999984
 30
0.0
 11
96.42106666666665
 21
3.499999999999984
 31
0.0
 12
96.00439999999998
 22
5.999999999999982
 32
0.0
 13
96.00439999999998
 23
5.999999999999982
 33
0.0
  0
SOLID
  5
118D
330
864
100
AcDbEntity
  8
2
 62
     0
100
AcDbTrace
 10
95.58773333333332
 20
-3.500000000000011
 30
0.0
 11
96.42106666666665
 21
-3.500000000000011
 31
0.0
 12
96.00439999999998
 22
-6.000000000000013
 32
0.0
 13
96.00439999999998
 23
-6.000000000000013
 33
0.0
  0
MTEXT
  5
118E
330
864
100
AcDbEntity
  8
2
 62
     0
100
AcDbMText
 10
94.12939999999997
 20
0.1791366627999648
 30
0.0
 40
2.5
 41
0.0
 71
     5
 72
     1
  1
%%c12
 11
0.0000000000000001
 21
1.0
 31
0.0
 73
     1
 44
1.0
1001
ACAD
1000
MTEXTBEGIN
1070
    73
1070
     1
1070
    44
1040
1.0
1070
    74
1070
     0
1000
MTEXTEND
  0
POINT
  5
118F
330
864
100
AcDbEntity
  8
DEFPOINTS
 62
     0
100
AcDbPoint
 10
74.0206430243252
 20
5.999999999999992
 30
0.0
  0
POINT
  5
1190
330
864
100
AcDbEntity
  8
DEFPOINTS
 62
     0
100
AcDbPoint
 10
81.49999999999996
 20
-6.000000000000007
 30
0.0
  0
POINT
  5
1191
330
864
100
AcDbEntity
  8
DEFPOINTS
 62
     0
100
AcDbPoint
 10
96.00439999999998
 20
-6.000000000000013
 30
0.0
  0
ENDBLK
  5
86F
330
864
100
AcDbEntity
  8
0
100
AcDbBlockEnd
  0
ENDSEC
  0
SECTION
  2
ENTITIES
  0
DIMENSION
  5
8C
330
1E
100
AcDbEntity
  8
2
100
AcDbDimension
  2
*D5
 10
96.00439999999998
 20
-6.000000000000013
 30
0.0
 11
96.00439999999998
 21
0.1791366627999646
 31
0.0
 70
   160
  1
%%c<>
 71
     5
 42
11.99999999999999
  3
ISO-25
100
AcDbAlignedDimension
 13
74.0206430243252
 23
5.999999999999992
 33
0.0
 14
81.49999999999996
 24
-6.000000000000007
 34
0.0
 50
270.0
100
AcDbRotatedDimension
  0
LINE
  5
8D
330
1E
100
AcDbEntity
  8
1
100
AcDbLine
 10
80.49999999999997
 20
-2.756743897200018
 30
0.0
 11
80.49999999999997
 21
-2.711233117599995
 31
0.0
  0
LINE
  5
8F
330
1E
100
AcDbEntity
  8
1
100
AcDbLine
 10
78.99999999999997
 20
0.1588573699999545
 30
0.0
 11
78.99999999999997
 21
0.0524139145999714
 31
0.0
  0
LINE
  5
90
330
1E
100
AcDbEntity
  8
1
100
AcDbLine
 10
76.66240339229999
 20
0.2887668824000022
 30
0.0
 11
76.66240339229999
 21
-5.054983278900016
 31
0.0
  0
LINE
  5
91
330
1E
100
AcDbEntity
  8
1
100
AcDbLine
 10
76.44838793509999
 20
-4.996535994099994
 30
0.0
 11
76.44838793509999
 21
0.2887668824000022
 31
0.0
  0
LINE
  5
92
330
1E
100
AcDbEntity
  8
1
100
AcDbLine
 10
75.00439999999997
 20
0.3887668823999683
 30
0.0
 11
75.00439999999997
 21
0.2887668824000024
 31
0.0
  0
LINE
  5
93
330
1E
100
AcDbEntity
  8
1
100
AcDbLine
 10
61.11567878899998
 20
5.249999999999992
 30
0.0
 11
61.11567878899998
 21
-5.250000000000006
 31
0.0
  0
LINE
  5
94
330
1E
100
AcDbEntity
  8
1
100
AcDbLine
 10
60.88444498619998
 20
5.255349769199987
 30
0.0
 11
60.88444498619998
 21
-5.255349769100011
 31
0.0
  0
LINE
  5
95
330
1E
100
AcDbEntity
  8
SK1
100
AcDbLine
 10
0.000000000000001
 20
8.0
 30
0.0
 11
-47.20000000000005
 21
8.000000000000005
 31
0.0
  0
LINE
  5
96
330
1E
100
AcDbEntity
  8
1
100
AcDbLine
 10
6.884321212699997
 20
7.749999999999999
 30
0.0
 11
0.2500000000000009
 21
7.75
 31
0.0
  0
LINE
  5
97
330
1E
100
AcDbEntity
  8
1
100
AcDbLine
 10
67.60679444739998
 20
5.249999999999992
 30
0.0
 11
61.11567878899998
 21
5.249999999999992
 31
0.0
  0
LINE
  5
98
330
1E
100
AcDbEntity
  8
1
100
AcDbLine
 10
76.03248879769998
 20
5.249572785099976
 30
0.0
 11
75.88337273229999
 21
5.249572785099976
 31
0.0
  0
LINE
  5
99
330
1E
100
AcDbEntity
  8
1
100
AcDbLine
 10
75.73750141499997
 20
5.247344046299976
 30
0.0
 11
67.71332688749999
 21
5.247344046299978
 31
0.0
  0
LINE
  5
9A
330
1E
100
AcDbEntity
  8
SK1
100
AcDbLine
 10
-19.0
 20
5.055689863900002
 30
0.0
 11
-29.0
 21
5.055689863900003
 31
0.0
  0
LINE
  5
9B
330
1E
100
AcDbEntity
  8
1
100
AcDbLine
 10
7.115555018500002
 20
7.744650230599972
 30
0.0
 11
6.884321211099972
 21
7.749999999999999
 31
0.0
  0
LINE
  5
9C
330
1E
100
AcDbEntity
  8
1
100
AcDbLine
 10
60.88444498619998
 20
5.255349769199987
 30
0.0
 11
61.11567878899998
 21
5.249999999999992
 31
0.0
  0
LINE
  5
9D
330
1E
100
AcDbEntity
  8
1
100
AcDbLine
 10
60.88444498619998
 20
5.255349769199987
 30
0.0
 11
7.115555018500002
 21
7.744650230599972
 31
0.0
  0
LINE
  5
9E
330
1E
100
AcDbEntity
  8
1
100
AcDbLine
 10
76.13892418939997
 20
0.3887668823999682
 30
0.0
 11
75.00439999999997
 21
0.3887668823999683
 31
0.0
  0
LINE
  5
9F
330
1E
100
AcDbEntity
  8
1
100
AcDbLine
 10
77.49999999999997
 20
0.2887668824000021
 30
0.0
 11
75.00439999999997
 21
0.2887668824000024
 31
0.0
  0
LINE
  5
A0
330
1E
100
AcDbEntity
  8
4
100
AcDbLine
 10
81.18758361274196
 20
-0.0000000000000099
 30
0.0
 11
0.4285351810599991
 21
-0.0000000000000001
 31
0.0
  0
LINE
  5
A1
330
1E
100
AcDbEntity
  8
1
100
AcDbLine
 10
60.88444498619998
 20
-5.255349769100011
 30
0.0
 11
7.115555018500002
 21
-7.744650230600027
 31
0.0
  0
LINE
  5
A2
330
1E
100
AcDbEntity
  8
1
100
AcDbLine
 10
60.88444498619998
 20
-5.255349769100011
 30
0.0
 11
61.11567878899998
 21
-5.250000000000006
 31
0.0
  0
LINE
  5
A3
330
1E
100
AcDbEntity
  8
1
100
AcDbLine
 10
7.115555018500002
 20
-7.744650230600027
 30
0.0
 11
6.884321211099972
 21
-7.75
 31
0.0
  0
LINE
  5
A4
330
1E
100
AcDbEntity
  8
SK1
100
AcDbLine
 10
-19.0
 20
-5.055689863899996
 30
0.0
 11
-29.0
 21
-5.055689863899996
 31
0.0
  0
LINE
  5
A5
330
1E
100
AcDbEntity
  8
1
100
AcDbLine
 10
76.16196074239997
 20
-5.250000000000006
 30
0.0
 11
61.11567878899998
 21
-5.250000000000006
 31
0.0
  0
LINE
  5
A6
330
1E
100
AcDbEntity
  8
1
100
AcDbLine
 10
6.884321212699997
 20
-7.75
 30
0.0
 11
0.2499999999999991
 21
-7.75
 31
0.0
  0
LINE
  5
A7
330
1E
100
AcDbEntity
  8
SK1
100
AcDbLine
 10
-0.000000000000001
 20
-8.0
 30
0.0
 11
-47.20000000000005
 21
-7.999999999999992
 31
0.0
  0
LINE
  5
A8
330
1E
100
AcDbEntity
  8
1
100
AcDbLine
 10
7.115555016999961
 20
7.744650230699956
 30
0.0
 11
7.11555501699996
 21
-7.744650230700017
 31
0.0
  0
LINE
  5
A9
330
1E
100
AcDbEntity
  8
1
100
AcDbLine
 10
6.884321207200002
 20
7.749999999999999
 30
0.0
 11
6.884321207200001
 21
-7.75
 31
0.0
  0
LINE
  5
AA
330
1E
100
AcDbEntity
  8
1
100
AcDbLine
 10
0.2499999999999991
 20
-7.75
 30
0.0
 11
0.2500000000000009
 21
7.75
 31
0.0
  0
LINE
  5
AB
330
1E
100
AcDbEntity
  8
1
100
AcDbLine
 10
-0.000000000000001
 20
-8.0
 30
0.0
 11
0.000000000000001
 21
8.0
 31
0.0
  0
LINE
  5
AC
330
1E
100
AcDbEntity
  8
SK1
100
AcDbLine
 10
-19.0
 20
5.055689863900002
 30
0.0
 11
-19.0
 21
-5.055689863899996
 31
0.0
  0
LINE
  5
AD
330
1E
100
AcDbEntity
  8
SK1
100
AcDbLine
 10
-29.0
 20
5.055689863900003
 30
0.0
 11
-29.0
 21
-5.055689863899996
 31
0.0
  0
LINE
  5
AE
330
1E
100
AcDbEntity
  8
SK1
100
AcDbLine
 10
-47.20000000000005
 20
8.000000000000005
 30
0.0
 11
-48.0
 21
7.199999999999991
 31
0.0
  0
LINE
  5
AF
330
1E
100
AcDbEntity
  8
SK1
100
AcDbLine
 10
-47.20000000000005
 20
-7.999999999999992
 30
0.0
 11
-48.0
 21
-7.19999999999998
 31
0.0
  0
LINE
  5
B0
330
1E
100
AcDbEntity
  8
SK1
100
AcDbLine
 10
-47.20000000000005
 20
8.000000000000005
 30
0.0
 11
-47.20000000000005
 21
-7.999999999999992
 31
0.0
  0
LINE
  5
B1
330
1E
100
AcDbEntity
  8
SK1
100
AcDbLine
 10
-48.0
 20
7.199427261799999
 30
0.0
 11
-48.0
 21
-7.199427261799987
 31
0.0
  0
CIRCLE
  5
C2
330
1E
100
AcDbEntity
  8
1
100
AcDbCircle
 10
78.00439999999998
 20
-2.988766882400009
 30
0.0
 40
0.9956799999999999
  0
ARC
  5
C3
330
1E
100
AcDbEntity
  8
1
100
AcDbCircle
 10
78.00439999999998
 20
2.988766882399988
 30
0.0
 40
3.0
100
AcDbArc
 50
282.4392411258001
 51
244.1609842491001
  0
CIRCLE
  5
C4
330
1E
100
AcDbEntity
  8
1
100
AcDbCircle
 10
78.00439999999998
 20
2.988766882399988
 30
0.0
 40
1.9
  0
ARC
  5
C5
330
1E
100
AcDbEntity
  8
1
100
AcDbCircle
 10
78.00439999999998
 20
-2.988766882400009
 30
0.0
 40
3.0
100
AcDbArc
 50
229.0909090908999
 51
66.73149577939994
  0
ARC
  5
C8
330
1E
100
AcDbEntity
  8
1
100
AcDbCircle
 10
75.00439999999997
 20
8.288766882400002
 30
0.0
 40
8.0
100
AcDbArc
 50
202.3767345875
 51
270.0
  0
ARC
  5
C9
330
1E
100
AcDbEntity
  8
1
100
AcDbCircle
 10
78.00439999999998
 20
-2.988766882400009
 30
0.0
 40
2.649999999999999
100
AcDbArc
 50
231.0836873631999
 51
233.6356807552
  0
ARC
  5
CA
330
1E
100
AcDbEntity
  8
1
100
AcDbCircle
 10
0.250000000000001
 20
8.0
 30
0.0
 40
0.25
100
AcDbArc
 50
180.0
 51
270.0
  0
ARC
  5
CB
330
1E
100
AcDbEntity
  8
1
100
AcDbCircle
 10
0.249999999999999
 20
-8.0
 30
0.0
 40
0.25
100
AcDbArc
 50
90.0
 51
180.0
  0
ARC
  5
CC
330
1E
100
AcDbEntity
  8
1
100
AcDbCircle
 10
77.49999999999997
 20
2.711233117599974
 30
0.0
 40
3.0
100
AcDbArc
 50
295.2316690788998
 51
298.0600037155998
  0
ARC
  5
CD
330
1E
100
AcDbEntity
  8
1
100
AcDbCircle
 10
77.49999999999997
 20
-2.711233117599995
 30
0.0
 40
3.0
100
AcDbArc
 50
0.0
 51
90.0
  0
ARC
  5
CF
330
1E
100
AcDbEntity
  8
1
100
AcDbCircle
 10
77.49999999999997
 20
2.711233117599974
 30
0.0
 40
3.0
100
AcDbArc
 50
300.1960375707
 51
304.2543321102998
  0
ARC
  5
D0
330
1E
100
AcDbEntity
  8
1
100
AcDbCircle
 10
78.00439999999998
 20
-2.988766882400009
 30
0.0
 40
3.2
100
AcDbArc
 50
71.87295870910005
 51
75.1272113319999
  0
ARC
  5
D1
330
1E
100
AcDbEntity
  8
1
100
AcDbCircle
 10
78.00439999999998
 20
2.988766882399988
 30
0.0
 40
3.2
100
AcDbArc
 50
135.1053550605998
 51
237.5382550328
  0
ARC
  5
D2
330
1E
100
AcDbEntity
  8
1
100
AcDbCircle
 10
75.00439999999997
 20
8.288766882400002
 30
0.0
 40
7.9
100
AcDbArc
 50
202.6431338809
 51
270.0
  0
LWPOLYLINE
  5
D3
330
1E
100
AcDbEntity
  8
1
100
AcDbPolyline
 90
       38
 70
     0
 43
0.0
 10
80.27375429609998
 20
-3.912092977899992
 10
80.28599747053698
 20
-3.882581839507006
 10
80.29789634118598
 20
-3.852921528956026
 10
80.30945102728697
 20
-3.823116962956031
 10
80.32066164807899
 20
-3.793173058218038
 10
80.33152832279801
 20
-3.763094731451026
 10
80.34205117068399
 20
-3.732886899363001
 10
80.35223031097599
 20
-3.70255447866601
 10
80.36206586291099
 20
-3.672102386069023
 10
80.37155794572797
 20
-3.641535538280046
 10
80.38070667866596
 20
-3.610858852011015
 10
80.38951218096199
 20
-3.580077243969022
 10
80.39797457185597
 20
-3.549195630866003
 10
80.40609397058597
 20
-3.518218929411041
 10
80.41387049638897
 20
-3.487152056312035
 10
80.42130426850595
 20
-3.455999928281026
 10
80.42839540617297
 20
-3.424767462024997
 10
80.43514402862895
 20
-3.393459574257017
 10
80.44155025511399
 20
-3.362081181683046
 10
80.44761438663895
 20
-3.330637077298042
 10
80.45333767606098
 20
-3.299131406265026
 10
80.45872168673199
 20
-3.26756810242302
 10
80.46376798218096
 20
-3.235951099489006
 10
80.46847812593497
 20
-3.20428433118304
 10
80.47285368151998
 20
-3.172571731225001
 10
80.47689621246297
 20
-3.140817233335051
 10
80.48073838420298
 20
-3.107846594850011
 10
80.48422583123899
 20
-3.074839515098013
 10
80.48736029733897
 20
-3.041800381266007
 10
80.49014352626699
 20
-3.008733580540996
 10
80.49257726178897
 20
-2.975643500111011
 10
80.49466324767198
 20
-2.942534527162997
 10
80.49640322768198
 20
-2.909411048885043
 10
80.497842447443
 20
-2.875093977659
 10
80.49891431318599
 20
-2.840770926890011
 10
80.49962076226098
 20
-2.806446770809039
 10
80.49996373201798
 20
-2.772126383646035
 10
80.49999999998496
 20
-2.756753897200048
  0
LWPOLYLINE
  5
FB
330
1E
100
AcDbEntity
  8
1
100
AcDbPolyline
 90
       26
 70
     0
 43
0.0
 10
80.27375429609998
 20
-3.912092977899992
 10
80.26183988993997
 20
-3.93990643583505
 10
80.24961338075398
 20
-3.967590958179025
 10
80.236741629754
 20
-3.995865331517002
 10
80.22354324802398
 20
-4.023994494683003
 10
80.21001930675295
 20
-4.051973687038024
 10
80.196170877129
 20
-4.079798147947037
 10
80.18199903033995
 20
-4.107463116772017
 10
80.16750483757297
 20
-4.134963832875038
 10
80.15268937001598
 20
-4.162295535619032
 10
80.13755369885897
 20
-4.189453464367042
 10
80.12169843143395
 20
-4.217122247954995
 10
80.10550861173198
 20
-4.244598087597021
 10
80.08898539557298
 20
-4.27187584699801
 10
80.07213023331397
 20
-4.298950431929037
 10
80.05494551484298
 20
-4.325816882348028
 10
80.03699185739597
 20
-4.353133826879012
 10
80.01869744217598
 20
-4.380221604323033
 10
80.00006504413699
 20
-4.407074902010045
 10
79.98063064948296
 20
-4.434334476744036
 10
79.96084747893799
 20
-4.461336708248047
 10
79.94071851549299
 20
-4.488075885559005
 10
79.91975516525099
 20
-4.515173222903007
 10
79.89843568765497
 20
-4.541982715713011
 10
79.87676328387897
 20
-4.568498235313037
 10
79.85938568066697
 20
-4.589244208875021
  0
LWPOLYLINE
  5
117
330
1E
100
AcDbEntity
  8
1
100
AcDbPolyline
 90
       37
 70
     0
 43
0.0
 10
76.44838793509999
 20
-4.996535994099994
 10
76.45091295834998
 20
-4.996260563851032
 10
76.45344149248899
 20
-4.996011879065012
 10
76.45607880295997
 20
-4.995781035286038
 10
76.45871928060898
 20
-4.99557872438704
 10
76.46136259769098
 20
-4.995404697489003
 10
76.46400842645997
 20
-4.995258705711033
 10
76.46665643917197
 20
-4.995140500173997
 10
76.46941233681097
 20
-4.995046774527006
 10
76.47216987344399
 20
-4.994982553332031
 10
76.47492868040195
 20
-4.994947556634039
 10
76.47768838901697
 20
-4.994941504477035
 10
76.48055479939898
 20
-4.994965555257016
 10
76.48342137169099
 20
-4.995020204476028
 10
76.48628769302998
 20
-4.995105138616002
 10
76.48915335054997
 20
-4.99522004416003
 10
76.49212400091198
 20
-4.995370527266011
 10
76.49509303290097
 20
-4.995552556164009
 10
76.49805998605796
 20
-4.995765781196046
 10
76.50113021910698
 20
-4.996019135657046
 10
76.50419721667197
 20
-4.996305190782043
 10
76.50726046717898
 20
-4.996623558095
 10
76.51042485938399
 20
-4.996986492811013
 10
76.51358412784697
 20
-4.997383160769011
 10
76.51673770622398
 20
-4.997813131904996
 10
76.51998987503398
 20
-4.998291981464044
 10
76.52323516534699
 20
-4.998805593284042
 10
76.52647345806997
 20
-4.999353653518999
 10
76.52970463443597
 20
-4.999935848425999
 10
76.53303245198398
 20
-5.000572295301036
 10
76.53635242946399
 20
-5.00124443520202
 10
76.53966443624199
 20
-5.001951923035004
 10
76.54307145676298
 20
-5.002718176784018
 10
76.54646971843397
 20
-5.003521276763033
 10
76.54985907798598
 20
-5.004360844504001
 10
76.55334168319696
 20
-5.00526359597803
 10
76.55343430034695
 20
-5.005288158246012
  0
LWPOLYLINE
  5
13E
330
1E
100
AcDbEntity
  8
1
100
AcDbPolyline
 90
       21
 70
     0
 43
0.0
 10
76.55344396579997
 20
-5.005290723200011
 10
76.55685738885998
 20
-5.006216167289045
 10
76.56033671277397
 20
-5.007199734230034
 10
76.56380564919397
 20
-5.008220835809034
 10
76.56733892788898
 20
-5.009302446333045
 10
76.57086067131896
 20
-5.010422315285048
 10
76.57444507631997
 20
-5.011605012947037
 10
76.57801671350899
 20
-5.012826627897037
 10
76.58164920374699
 20
-5.014113317371037
 10
76.58534130046499
 20
-5.015466985773008
 10
76.58901830669797
 20
-5.016861225838008
 10
76.59275287439697
 20
-5.018324574386046
 10
76.59647090312398
 20
-5.019829082578048
 10
76.60024440863598
 20
-5.02140504226504
 10
76.60399991589898
 20
-5.023022927661041
 10
76.60780870330398
 20
-5.024714617856044
 10
76.61166924645397
 20
-5.026482077895034
 10
76.61550904172398
 20
-5.02829331398204
 10
76.61939814635896
 20
-5.030182586353997
 10
76.62326477565199
 20
-5.032116249374047
 10
76.62654194100898
 20
-5.033798827806045
  0
LWPOLYLINE
  5
155
330
1E
100
AcDbEntity
  8
1
100
AcDbPolyline
 90
       11
 70
     0
 43
0.0
 10
76.62655081459995
 20
-5.033803438599997
 10
76.63034595675798
 20
-5.035802851327001
 10
76.63415570012998
 20
-5.037865493358036
 10
76.63801505429998
 20
-5.040012544185008
 10
76.64188592334397
 20
-5.042225074440021
 10
76.64580271870599
 20
-5.044525064232011
 10
76.64972767350997
 20
-5.046892691217018
 10
76.65369455378698
 20
-5.049350730351028
 10
76.65766595369897
 20
-5.051878458845016
 10
76.66167494415899
 20
-5.054499438626018
 10
76.66239506849199
 20
-5.054977736852045
  0
LWPOLYLINE
  5
162
330
1E
100
AcDbEntity
  8
1
100
AcDbPolyline
 90
      131
 70
     0
 43
0.0
 10
76.33971079629998
 20
-5.050637357200011
 10
76.33944913155595
 20
-5.050421496956015
 10
76.33919015018998
 20
-5.050198668082042
 10
76.33893397715997
 20
-5.049969069952005
 10
76.33868073742497
 20
-5.049732901939997
 10
76.33843055594699
 20
-5.049490363422033
 10
76.33818355768397
 20
-5.049241653772021
 10
76.33793986759698
 20
-5.048986972364001
 10
76.33769961064395
 20
-5.048726518575
 10
76.33746291178599
 20
-5.048460491777016
 10
76.33722989598098
 20
-5.048189091345998
 10
76.33700068819099
 20
-5.047912516657
 10
76.33670121735997
 20
-5.047536046157016
 10
76.33640903468299
 20
-5.047151204012044
 10
76.33612443635995
 20
-5.04675846281203
 10
76.33584771859199
 20
-5.046358295150021
 10
76.33557917757895
 20
-5.045951173618003
 10
76.33531910952297
 20
-5.045537570808003
 10
76.33506781062298
 20
-5.045117959312
 10
76.33488526938998
 20
-5.044799591783042
 10
76.33470795238095
 20
-5.044478309575036
 10
76.33453598455495
 20
-5.044154312064001
 10
76.33436949087098
 20
-5.043827798623007
 10
76.33420859628998
 20
-5.043498968629032
 10
76.33405342577098
 20
-5.043168021455025
 10
76.33390410427299
 20
-5.042835156475016
 10
76.33376075675598
 20
-5.042500573066043
 10
76.33362350817998
 20
-5.042164470601004
 10
76.33349248350498
 20
-5.041827048454996
 10
76.33336780768996
 20
-5.041488506003028
 10
76.33324960569497
 20
-5.041149042620028
 10
76.33313800247897
 20
-5.040808857680028
 10
76.33303312300196
 20
-5.040468150558019
 10
76.33293509222497
 20
-5.040127120628038
 10
76.33284403510598
 20
-5.039785967266037
 10
76.33276007660498
 20
-5.039444889846047
 10
76.33268334168199
 20
-5.039104087743004
 10
76.33261395529598
 20
-5.038763760332026
 10
76.33255204240697
 20
-5.038424106986052
 10
76.33249772797594
 20
-5.03808532708201
 10
76.33245113696097
 20
-5.037747619993021
 10
76.33241239432199
 20
-5.037411185094021
 10
76.33238162501797
 20
-5.037076221760012
 10
76.33235895400997
 20
-5.036742929366035
 10
76.33234450625798
 20
-5.036411507287036
 10
76.33233840671997
 20
-5.036082154896011
 10
76.33234078035599
 20
-5.03575507156905
 10
76.33235175212698
 20
-5.035430456681021
 10
76.33237144699099
 20
-5.035108509606011
 10
76.33239998990898
 20
-5.034789429719021
 10
76.33243750583995
 20
-5.034473416394011
 10
76.33248411545499
 20
-5.034160665239999
 10
76.33253981993198
 20
-5.033851266869994
 10
76.33260448805197
 20
-5.033545195576047
 10
76.33267798171996
 20
-5.033242419603999
 10
76.33276016284199
 20
-5.032942907206011
 10
76.33285089332495
 20
-5.032646626628046
 10
76.33295003507399
 20
-5.032353546120996
 10
76.33305744999599
 20
-5.032063633932021
 10
76.33317299999598
 20
-5.031776858310033
 10
76.33329654698098
 20
-5.031493187505028
 10
76.33342795285597
 20
-5.031212589764048
 10
76.33356707952697
 20
-5.030935033337025
 10
76.33371378889998
 20
-5.030660486472021
 10
76.33386794288097
 20
-5.030388917418011
 10
76.33402940337697
 20
-5.030120294424031
 10
76.33419803229198
 20
-5.029854585738013
 10
76.33437369153398
 20
-5.029591759610021
 10
76.33455624300797
 20
-5.029331784287032
 10
76.33474554861897
 20
-5.029074628020008
 10
76.33494147027497
 20
-5.028820259055018
 10
76.33514386987997
 20
-5.028568645643027
 10
76.33535260934099
 20
-5.028319756031018
 10
76.33556755056398
 20
-5.028073558470008
 10
76.33578855545497
 20
-5.027830021206009
 10
76.33601548591895
 20
-5.027589112490042
 10
76.33624820386399
 20
-5.027350800569032
 10
76.33648657119298
 20
-5.027115053693033
 10
76.33673044981499
 20
-5.026881840111006
 10
76.33697970163296
 20
-5.026651128070009
 10
76.33723418855598
 20
-5.026422885820021
 10
76.33758140926598
 20
-5.026122349838042
 10
76.33793736399198
 20
-5.025826072885998
 10
76.33830172539998
 20
-5.025533979702012
 10
76.33867416615598
 20
-5.025245995024031
 10
76.33905435892597
 20
-5.024962043589034
 10
76.33944197637598
 20
-5.024682050135035
 10
76.33983669117298
 20
-5.024405939401002
 10
76.34023817598097
 20
-5.024133636122035
 10
76.34064610346699
 20
-5.023865065038033
 10
76.34116457416799
 20
-5.023534484924036
 10
76.34169196076999
 20
-5.023209471770039
 10
76.34222762394696
 20
-5.022889878579014
 10
76.34277092437698
 20
-5.022575558354001
 10
76.34343206589798
 20
-5.022205127429011
 10
76.34410217968198
 20
-5.021841823891016
 10
76.34489384518598
 20
-5.021426639112013
 10
76.34580946785897
 20
-5.020963080420026
 10
76.34673416720899
 20
-5.020510612131041
 10
76.34778204288998
 20
-5.020014092119033
 10
76.34883436344299
 20
-5.019529989083035
 10
76.35000428668495
 20
-5.019005617244042
 10
76.35128612250898
 20
-5.018443888480994
 10
76.35255780714998
 20
-5.017896738563996
 10
76.35381903145298
 20
-5.017363696290042
 10
76.35518353706896
 20
-5.016797886160028
 10
76.35653676831598
 20
-5.016248019977019
 10
76.35787933787097
 20
-5.01571365670703
 10
76.35921185841098
 20
-5.015194355317997
 10
76.36064479288998
 20
-5.014648264207044
 10
76.36206743174298
 20
-5.01411877154903
 10
76.36358888379897
 20
-5.013566468279016
 10
76.36510027168998
 20
-5.013032064622001
 10
76.36670955305199
 20
-5.012478556692038
 10
76.36830959465697
 20
-5.011943931425046
 10
76.37000746970596
 20
-5.011393506819
 10
76.37180305926198
 20
-5.010829977867
 10
76.37369673422695
 20
-5.010255850039023
 10
76.37568944574899
 20
-5.009673374207021
 10
76.37778282095297
 20
-5.009084477724011
 10
76.38008387021298
 20
-5.008463004291011
 10
76.38270123568597
 20
-5.007786896091038
 10
76.38574779357398
 20
-5.007037679612047
 10
76.38945135063699
 20
-5.006175135066039
 10
76.39255231582197
 20
-5.005487649620998
 10
76.39547258271098
 20
-5.004864449491043
 10
76.39897178101797
 20
-5.004145658222006
 10
76.40394606044697
 20
-5.003172680848996
 10
76.40951883083099
 20
-5.002145889599042
 10
76.41477157765999
 20
-5.001235441412012
 10
76.41899882304199
 20
-5.000541462761026
  0
LWPOLYLINE
  5
1E7
330
1E
100
AcDbEntity
  8
1
100
AcDbPolyline
 90
        6
 70
     0
 43
0.0
 10
76.41900869729997
 20
-5.000539881400023
 10
76.42507430297797
 20
-4.999600503379048
 10
76.43144302643697
 20
-4.998680555148047
 10
76.43817365254898
 20
-4.997778112025009
 10
76.44532490375599
 20
-4.996893061136017
 10
76.44837800000797
 20
-4.996537131629007
  0
LWPOLYLINE
  5
1EF
330
1E
100
AcDbEntity
  8
1
100
AcDbPolyline
 90
       93
 70
     0
 43
0.0
 10
76.16488219519998
 20
-5.250024231300026
 10
76.17242203998095
 20
-5.249989872908041
 10
76.17964723069896
 20
-5.249878315968039
 10
76.18655692208697
 20
-5.249696303343005
 10
76.19315050308799
 20
-5.249451001040037
 10
76.19942757052895
 20
-5.249149902698044
 10
76.20570151736098
 20
-5.248780619103007
 10
76.21165829505898
 20
-5.248364534250021
 10
76.21761113316195
 20
-5.247882837486041
 10
76.22324653404497
 20
-5.247364171260025
 10
76.22887744269397
 20
-5.246783148343021
 10
76.23419097895197
 20
-5.246175626812042
 10
76.23949970125898
 20
-5.245509557185026
 10
76.24449139722398
 20
-5.244827911303
 10
76.24947815493198
 20
-5.24409195774201
 10
76.25445964759897
 20
-5.243300511044036
 10
76.25943554843995
 20
-5.24245238575305
 10
76.26409508635899
 20
-5.241604738411019
 10
76.26874915311097
 20
-5.240705257205044
 10
76.27339747943198
 20
-5.239752965350031
 10
76.27803979606095
 20
-5.238746886058043
 10
76.28236696516498
 20
-5.237758488735045
 10
76.286688001335
 20
-5.236721365040021
 10
76.29069307439497
 20
-5.235713164172021
 10
76.29468914240797
 20
-5.234659919638041
 10
76.29867429592699
 20
-5.233560111677046
 10
76.30234156043798
 20
-5.232502261534031
 10
76.30599639621299
 20
-5.231402245772025
 10
76.30963730142098
 20
-5.230258869059023
 10
76.31326277423198
 20
-5.229070936064041
 10
76.31657128470999
 20
-5.227941835132021
 10
76.31986440894099
 20
-5.226773369427013
 10
76.32314099013398
 20
-5.225564618238032
 10
76.32639987149699
 20
-5.224314660856016
 10
76.32934615815398
 20
-5.223141803771008
 10
76.33227599171199
 20
-5.221933439320999
 10
76.33518850305597
 20
-5.220688875764047
 10
76.33808282307095
 20
-5.219407421355021
 10
76.34095808264297
 20
-5.218088384354028
 10
76.34381341265697
 20
-5.216731073017012
 10
76.34636545157497
 20
-5.215476196530011
 10
76.34890000998196
 20
-5.21418925324003
 10
76.35141645429598
 20
-5.212869738864021
 10
76.35391415093099
 20
-5.211517149123046
 10
76.35639246630197
 20
-5.210130979736002
 10
76.35885076682598
 20
-5.208710726423031
 10
76.36128841891698
 20
-5.207255884903029
 10
76.36370478899099
 20
-5.205765950896031
 10
76.36609924346197
 20
-5.204240420121045
 10
76.36847114874797
 20
-5.202678788297997
 10
76.37056006662198
 20
-5.201259956401036
 10
76.37263022225798
 20
-5.199811847604005
 10
76.37468117066898
 20
-5.198334107732994
 10
76.37671246686998
 20
-5.196826382616005
 10
76.37872366587098
 20
-5.195288318080041
 10
76.38071432268799
 20
-5.193719559956043
 10
76.38268396946298
 20
-5.192119908436048
 10
76.38463205165995
 20
-5.190489748793035
 10
76.38655799420897
 20
-5.188829604892028
 10
76.38846122203998
 20
-5.187140000599021
 10
76.39057448613397
 20
-5.185204633667021
 10
76.39265745528998
 20
-5.183233389837035
 10
76.39470931070698
 20
-5.181227015003011
 10
76.39672923358499
 20
-5.179186255058037
 10
76.39871640512399
 20
-5.177111855898043
 10
76.40067000652199
 20
-5.175004563415037
 10
76.40258921897999
 20
-5.172865123505013
 10
76.40447322369599
 20
-5.170694282061001
 10
76.40611767550999
 20
-5.168738886431023
 10
76.40773308683799
 20
-5.166759792926037
 10
76.40931888261198
 20
-5.164757525411014
 10
76.41087448775997
 20
-5.162732607751999
 10
76.41239932721297
 20
-5.160685563814021
 10
76.41389282590195
 20
-5.158616917462047
 10
76.41535440875697
 20
-5.156527192562016
 10
76.41678350070799
 20
-5.154416912978041
 10
76.41817952668498
 20
-5.152286602576007
 10
76.41937347290099
 20
-5.150406561272014
 10
76.42054127744298
 20
-5.148511935906021
 10
76.42168255505598
 20
-5.146603077426003
 10
76.42279692048998
 20
-5.144680336782026
 10
76.42388398849296
 20
-5.142744064922005
 10
76.42494337381197
 20
-5.140794612796021
 10
76.42597469119698
 20
-5.138832331351021
 10
76.42697755539498
 20
-5.136857571537016
 10
76.42795158115399
 20
-5.134870684303002
 10
76.42889638322398
 20
-5.132872020597011
 10
76.42981157635097
 20
-5.130861931368039
 10
76.43069677528297
 20
-5.128840767566042
 10
76.43155159477098
 20
-5.126808880137001
 10
76.43225982560199
 20
-5.125058993237027
 10
76.43294521118995
 20
-5.123301706599995
 10
76.43316501988397
 20
-5.122723692752011
  0
LWPOLYLINE
  5
24E
330
1E
100
AcDbEntity
  8
1
100
AcDbPolyline
 90
      113
 70
     0
 43
0.0
 10
76.66240339229999
 20
-5.054983278900016
 10
76.69193168181099
 20
-5.074336390941036
 10
76.72175156799098
 20
-5.093268792700039
 10
76.75185547505197
 20
-5.111775860307044
 10
76.78223582720899
 20
-5.12985296989104
 10
76.81288504867598
 20
-5.147495497583014
 10
76.84069296986698
 20
-5.162998383358011
 10
76.86870701606398
 20
-5.178142141662028
 10
76.89692166451798
 20
-5.192923401696027
 10
76.92533139248098
 20
-5.207338792656011
 10
76.95393067720397
 20
-5.221384943742016
 10
76.98271399593899
 20
-5.235058484151021
 10
77.01167582593797
 20
-5.248356043083002
 10
77.04081064445197
 20
-5.261274249735046
 10
77.07011292873399
 20
-5.273809733307028
 10
77.09957715603497
 20
-5.285959122997049
 10
77.12919780360699
 20
-5.297719048002027
 10
77.15896934870098
 20
-5.309086137522012
 10
77.18888626857398
 20
-5.320057020784996
 10
77.21894309832399
 20
-5.33062872163004
 10
77.24913457577496
 20
-5.340799646927004
 10
77.27945548313698
 20
-5.350568506369038
 10
77.30990060262198
 20
-5.359934009650038
 10
77.34046471644098
 20
-5.368894866465049
 10
77.37114260680698
 20
-5.377449786506026
 10
77.40192905592997
 20
-5.385597479467046
 10
77.42938170609997
 20
-5.392496960462048
 10
77.45691234377497
 20
-5.399072756064024
 10
77.48451730433297
 20
-5.405323960050003
 10
77.51219292315497
 20
-5.411249666196009
 10
77.53993553562299
 20
-5.416848968280032
 10
77.56774147711498
 20
-5.422120960077004
 10
77.59560708301197
 20
-5.42706473536402
 10
77.62352868869395
 20
-5.431679387918005
 10
77.65150262954197
 20
-5.435964011516044
 10
77.67952524093698
 20
-5.439917699933014
 10
77.70759285825699
 20
-5.443539546947031
 10
77.73570181688498
 20
-5.446828646334047
 10
77.76384845063998
 20
-5.449784096199046
 10
77.79202897279597
 20
-5.452405329247038
 10
77.82023939234399
 20
-5.454692345216026
 10
77.84847569849097
 20
-5.456645198751012
 10
77.876733880444
 20
-5.458263944496034
 10
77.90500992741295
 20
-5.459548637096996
 10
77.93329982860297
 20
-5.460499331198046
 10
77.96159957322398
 20
-5.461116081445037
 10
77.98990515048297
 20
-5.461398942482
 10
78.01821254958799
 20
-5.461347968953027
 10
78.04651775974597
 20
-5.460963215504998
 10
78.07481677016595
 20
-5.460244736781995
 10
78.10310557005499
 20
-5.459192587428001
 10
78.13138014862099
 20
-5.457806822090002
 10
78.159636495072
 20
-5.456087495411006
 10
78.18787059861597
 20
-5.454034662036017
 10
78.21607844845996
 20
-5.451648376610997
 10
78.24425603381297
 20
-5.448928693781009
 10
78.27239934388197
 20
-5.445875668188996
 10
78.30050436787397
 20
-5.442489354483038
 10
78.32856709499899
 20
-5.438769807305002
 10
78.35658352845896
 20
-5.434717151159992
 10
78.38454981115998
 20
-5.430332207852028
 10
78.41246216629397
 20
-5.425616199929048
 10
78.44031681801395
 20
-5.420570354723005
 10
78.46810999047098
 20
-5.415195899564033
 10
78.49583790781498
 20
-5.409494061784028
 10
78.52349679419898
 20
-5.403466068714019
 10
78.55108287377297
 20
-5.397113147684033
 10
78.57859237068797
 20
-5.39043652602704
 10
78.60944431313498
 20
-5.382539931426046
 10
78.64018917568697
 20
-5.374236954066994
 10
78.67082158218497
 20
-5.365529341459997
 10
78.70133615646799
 20
-5.356418841111016
 10
78.73172752237699
 20
-5.34690720053005
 10
78.76199030375198
 20
-5.336996167225046
 10
78.79211912443499
 20
-5.326687488705043
 10
78.82210860826399
 20
-5.315982912478042
 10
78.85195337908195
 20
-5.304884186054048
 10
78.88164806072698
 20
-5.293393056940042
 10
78.91118728409299
 20
-5.281511280289016
 10
78.94056605791995
 20
-5.269241020854003
 10
78.96977995198398
 20
-5.256585051565035
 10
78.99882458154897
 20
-5.243546194664028
 10
79.02769556188099
 20
-5.230127272395018
 10
79.05638850824598
 20
-5.216331107001002
 10
79.08489903590998
 20
-5.202160520724996
 10
79.11322276013897
 20
-5.187618335811016
 10
79.14135529619899
 20
-5.172707374502016
 10
79.16929225935397
 20
-5.157430459041004
 10
79.19702926487099
 20
-5.141790411671999
 10
79.22456192801599
 20
-5.125790054637046
 10
79.25490878209197
 20
-5.107592727377046
 10
79.28499193365798
 20
-5.08895792901104
 10
79.31480536798798
 20
-5.069889530929009
 10
79.34434307035897
 20
-5.050391404521016
 10
79.37359902604598
 20
-5.030467421176018
 10
79.40256722032398
 20
-5.010121452286006
 10
79.43124164899998
 20
-4.989357414116009
 10
79.45961658797898
 20
-4.968180416515004
 10
79.48768661607997
 20
-4.946596860124039
 10
79.51544632722198
 20
-4.924613209939034
 10
79.54561714123598
 20
-4.899976802380033
 10
79.57539873488098
 20
-4.874872708890004
 10
79.60478391266699
 20
-4.849309534383006
 10
79.63376547910098
 20
-4.823295883771047
 10
79.66233623869098
 20
-4.796840361965005
 10
79.69048899594596
 20
-4.769951573878025
 10
79.71821655537297
 20
-4.742638124422009
 10
79.74551172147997
 20
-4.714908618507998
 10
79.77236729877597
 20
-4.686771661051021
 10
79.79877609176899
 20
-4.658235856960011
 10
79.82473090496597
 20
-4.629309811150003
 10
79.85022454287599
 20
-4.600002128531006
 10
79.85937274800298
 20
-4.58925948120004
  0
LWPOLYLINE
  5
2C1
330
1E
100
AcDbEntity
  8
SK1
100
AcDbPolyline
 90
       59
 70
     0
 43
0.0
 10
-30.8
 20
0.0000000000000038
 10
-30.79952035900203
 20
0.0875001159049627
 10
-30.79808188509598
 20
0.1750053937439626
 10
-30.79568525191104
 20
0.2625034694110051
 10
-30.792331133076
 20
0.3499819788040137
 10
-30.78802020222303
 20
0.4374285578180132
 10
-30.78275313297899
 20
0.5248308423500177
 10
-30.77653059897704
 20
0.6121764682939708
 10
-30.76935327384403
 20
0.6994530715479679
 10
-30.761221831211
 20
0.7866482880069763
 10
-30.75213694470903
 20
0.8737497535659635
 10
-30.74209928796602
 20
0.9607451041229671
 10
-30.73110954265104
 20
1.047621991867973
 10
-30.71916886800301
 20
1.13436903705599
 10
-30.70627916076698
 20
1.220976354917014
 10
-30.69244238081501
 20
1.307434188635
 10
-30.677660488014
 20
1.393732781396979
 10
-30.66193544223698
 20
1.479862376387985
 10
-30.64526920335203
 20
1.565813216793971
 10
-30.627663731229
 20
1.651575545799973
 10
-30.60912098573902
 20
1.737139606590974
 10
-30.58964292675101
 20
1.822495642354001
 10
-30.56792485532902
 20
1.912947583385968
 10
-30.54515546595399
 20
2.003141966197004
 10
-30.52133717151304
 20
2.093067069181985
 10
-30.49647333269604
 20
2.182710885780013
 10
-30.47056804950102
 20
2.27206118716299
 10
-30.44362544150704
 20
2.361105738611004
 10
-30.41564962829601
 20
2.449832305407996
 10
-30.38664472944799
 20
2.53822865283496
 10
-30.35661486454404
 20
2.62628254617397
 10
-30.32556415316502
 20
2.71398175070698
 10
-30.293496714892
 20
2.801314031716973
 10
-30.26041666930501
 20
2.888267154485961
 10
-30.22632813598499
 20
2.974828884294996
 10
-30.19123523451304
 20
3.060986986426997
 10
-30.15514224912902
 20
3.146729475823973
 10
-30.11805414492499
 20
3.232045399758986
 10
-30.07770545588603
 20
3.321903090176991
 10
-30.03625299827398
 20
3.411257890071968
 10
-29.993702874792
 20
3.500097114647988
 10
-29.95006118814302
 20
3.588408079109004
 10
-29.90533404102999
 20
3.676178098658
 10
-29.85952753615601
 20
3.763394488496997
 10
-29.81264777622499
 20
3.85004456383098
 10
-29.76470086393998
 20
3.936115639862977
 10
-29.71569290200403
 20
4.021595031794961
 10
-29.66563003007604
 20
4.106470038599981
 10
-29.61165013730703
 20
4.195389765924971
 10
-29.55651557727202
 20
4.283604079167957
 10
-29.500238531575
 20
4.371095861741993
 10
-29.44283118181904
 20
4.457847997062001
 10
-29.38430570960901
 20
4.543843368539
 10
-29.324674296549
 20
4.629064859588996
 10
-29.26072299538303
 20
4.717916828146996
 10
-29.19557398063904
 20
4.805872381776
 10
-29.12924146033902
 20
4.892911556530006
 10
-29.06173964250701
 20
4.979014388466961
 10
-29.00000631960698
 20
5.055682113896011
  0
LWPOLYLINE
  5
2FE
330
1E
100
AcDbEntity
  8
SK1
100
AcDbPolyline
 90
       59
 70
     0
 43
0.0
 10
-29.0
 20
-5.055689863899996
 10
-29.07193889820002
 20
-4.966159442281021
 10
-29.13926622538502
 20
-4.879914889686002
 10
-29.20542212333202
 20
-4.792736990027999
 10
-29.27039238418398
 20
-4.704645706825993
 10
-29.33416280008401
 20
-4.615661003597035
 10
-29.39362039810703
 20
-4.530316188248999
 10
-29.451970132008
 20
-4.444200194621028
 10
-29.50919982032303
 20
-4.357330138933996
 10
-29.56529728159198
 20
-4.269723137407021
 10
-29.62025033435303
 20
-4.181396306263021
 10
-29.67124443615198
 20
-4.097069769399007
 10
-29.721190417689
 20
-4.012126970744983
 10
-29.77008078845404
 20
-3.926581204710993
 10
-29.81790943276303
 20
-3.840445161980022
 10
-29.86467024771803
 20
-3.753731527618011
 10
-29.91035713042402
 20
-3.666452986694018
 10
-29.95496397798103
 20
-3.578622224275017
 10
-29.99848468749201
 20
-3.490251925428986
 10
-30.04091315606002
 20
-3.401354775223006
 10
-30.08224328078603
 20
-3.311943458725006
 10
-30.12246895877399
 20
-3.222030661003027
 10
-30.15944026300104
 20
-3.136663985556022
 10
-30.19541584352099
 20
-3.050872002715998
 10
-30.23039080247098
 20
-2.964665767451031
 10
-30.26436090753702
 20
-2.878057343380981
 10
-30.29732203933304
 20
-2.791058965271016
 10
-30.32927007847002
 20
-2.703682867884984
 10
-30.360200905564
 20
-2.61594128598602
 10
-30.39011040122602
 20
-2.527846454338027
 10
-30.418994446069
 20
-2.439410607706002
 10
-30.44684892070801
 20
-2.35064598085301
 10
-30.47366970575405
 20
-2.26156480854399
 10
-30.49945268182199
 20
-2.172179325541029
 10
-30.52419372952403
 20
-2.082501766609988
 10
-30.54788877110803
 20
-1.992544354010014
 10
-30.57053459920302
 20
-1.902319048593986
 10
-30.59212883092902
 20
-1.811837563593988
 10
-30.61149008090501
 20
-1.726454981609998
 10
-30.629915771387
 20
-1.640865596750014
 10
-30.64740394281301
 20
-1.555079166286978
 10
-30.66395263561503
 20
-1.469105447489021
 10
-30.67955989022999
 20
-1.382954197626979
 10
-30.69422374709199
 20
-1.296635173969999
 10
-30.70794224663603
 20
-1.21015813379102
 10
-30.72071342929699
 20
-1.123532834357995
 10
-30.73253533551104
 20
-1.036769032942
 10
-30.743406110634
 20
-0.9498766994320208
 10
-30.753324705836
 20
-0.8628674366340154
 10
-30.76229044568298
 20
-0.7757536040219825
 10
-30.77030265678398
 20
-0.6885475652060187
 10
-30.77736066574602
 20
-0.6012616837940036
 10
-30.78346379917804
 20
-0.5139083233930215
 10
-30.78861138368603
 20
-0.4264998476129982
 10
-30.79280274587802
 20
-0.3390486200619837
 10
-30.79603721236304
 20
-0.2515670043489952
 10
-30.79831410974702
 20
-0.1640673640810026
 10
-30.799632764639
 20
-0.0765620628679888
 10
-30.79999999999404
 20
-0.0000100000000278
  0
LWPOLYLINE
  5
33B
330
1E
100
AcDbEntity
  8
1
100
AcDbPolyline
 90
       64
 70
     0
 43
0.0
 10
75.73750141499997
 20
5.247344046299976
 10
75.73771035872599
 20
5.24754454806696
 10
75.73792510522199
 20
5.247732754395988
 10
75.73814550615797
 20
5.24790897237897
 10
75.73837141320499
 20
5.248073509111963
 10
75.73860267803397
 20
5.248226671687961
 10
75.73883915231497
 20
5.248368767200976
 10
75.73908068771999
 20
5.248500102744959
 10
75.73932713591799
 20
5.248620985413983
 10
75.73957834858098
 20
5.248731722301999
 10
75.73983417737998
 20
5.248832620501947
 10
75.74009447398399
 20
5.248923987107946
 10
75.740359090066
 20
5.249006129214981
 10
75.74062787729497
 20
5.249079353917002
 10
75.74090068734199
 20
5.249143968305972
 10
75.74117737187797
 20
5.249200279477966
 10
75.74145778257395
 20
5.249248594525956
 10
75.74174177109998
 20
5.24928922054396
 10
75.74202918912797
 20
5.249322464624971
 10
75.74231988832699
 20
5.249348633863959
 10
75.74261372036898
 20
5.249368035354953
 10
75.74291053692397
 20
5.249380976191947
 10
75.74321018966298
 20
5.249387763467995
 10
75.74366466214698
 20
5.249387078222971
 10
75.74412468169197
 20
5.249374274870992
 10
75.74458974768797
 20
5.249350389851987
 10
75.74505935952297
 20
5.249316459608951
 10
75.74553301658595
 20
5.249273520583972
 10
75.74601021826499
 20
5.249222609218961
 10
75.74665113576497
 20
5.249144117360961
 10
75.74729627819497
 20
5.249055751767959
 10
75.74810683977799
 20
5.248935152543983
 10
75.75118941129298
 20
5.248455774509967
 10
75.75199129923499
 20
5.248344696698993
 10
75.75278758916798
 20
5.24824350139595
 10
75.75357843990997
 20
5.248151902200949
 10
75.75436401027698
 20
5.248069612713995
 10
75.75529994823597
 20
5.24798275089096
 10
75.75622878558698
 20
5.247908387729002
 10
75.75715079676395
 20
5.247846028328965
 10
75.75806625620399
 20
5.247795177790965
 10
75.75897543834097
 20
5.247755341213965
 10
75.76002858314598
 20
5.247722125381971
 10
75.76107399317397
 20
5.247702441277954
 10
75.76211210421897
 20
5.24769550301896
 10
75.76329013834598
 20
5.247702172606967
 10
75.76445985881798
 20
5.247723290273986
 10
75.76576666689999
 20
5.247762856973952
 10
75.76720842744498
 20
5.247824493490996
 10
75.76878337157094
 20
5.247911134592971
 10
75.77063206850098
 20
5.24803492526995
 10
75.77317422959499
 20
5.248235645379954
 10
75.78398594590796
 20
5.249176939129986
 10
75.78625314003199
 20
5.249329074860995
 10
75.78867565110297
 20
5.249463902932964
 10
75.79139850911497
 20
5.249584306769962
 10
75.79428063081497
 20
5.249679469307967
 10
75.79761313383595
 20
5.249753019976981
 10
75.80154651848698
 20
5.249796777898994
 10
75.80637944267397
 20
5.249798934856974
 10
75.81403428212798
 20
5.249721292146991
 10
75.83731052538997
 20
5.249409620011978
 10
75.85483379928199
 20
5.24943072445699
 10
75.88336273231599
 20
5.24957278506695
  0
LWPOLYLINE
  5
37D
330
1E
100
AcDbEntity
  8
1
100
AcDbPolyline
 90
      124
 70
     0
 43
0.0
 10
67.60679444739998
 20
5.243207477699955
 10
67.60672072988596
 20
5.243400838912965
 10
67.60666195720998
 20
5.243586147359954
 10
67.60661784869497
 20
5.243763548406993
 10
67.60658812366398
 20
5.243933187416976
 10
67.60657250143997
 20
5.24409520975495
 10
67.60657070134397
 20
5.244249760785002
 10
67.60658244269999
 20
5.244396985869959
 10
67.60660744482897
 20
5.24453703037698
 10
67.60664542705497
 20
5.244670039667986
 10
67.60669610869999
 20
5.244796159107003
 10
67.606759209086
 20
5.244915534059988
 10
67.60683444753599
 20
5.245028309890972
 10
67.60692154337298
 20
5.245134631962955
 10
67.60702021591797
 20
5.245234645640993
 10
67.60713018449499
 20
5.245328496287973
 10
67.60725116842599
 20
5.245416329270986
 10
67.60738288703297
 20
5.245498289951956
 10
67.60752505963998
 20
5.245574523695998
 10
67.60767740556798
 20
5.245645175866957
 10
67.60783964413997
 20
5.245710391828985
 10
67.60801149467797
 20
5.245770316946948
 10
67.60819267650598
 20
5.245825096584995
 10
67.60838290894497
 20
5.245874876107952
 10
67.60858191131899
 20
5.245919800877961
 10
67.60878940294898
 20
5.245960016260986
 10
67.60900510315798
 20
5.245995667620992
 10
67.60922873126898
 20
5.246026900321957
 10
67.60946000660499
 20
5.24605385972898
 10
67.60969864848698
 20
5.246076691204954
 10
67.60994437623799
 20
5.246095540115951
 10
67.61019690918097
 20
5.246110551823949
 10
67.61045596663795
 20
5.24612187169395
 10
67.61072126793198
 20
5.246129645091959
 10
67.61099253238596
 20
5.246134017379961
 10
67.61126947932098
 20
5.246135133922954
 10
67.61155182806098
 20
5.246133140085978
 10
67.61183929792699
 20
5.246128181231987
 10
67.61213160824297
 20
5.246120402726992
 10
67.61242847833097
 20
5.246109949932979
 10
67.61288171905396
 20
5.246089574436997
 10
67.61334364045196
 20
5.246063999467983
 10
67.61381329523999
 20
5.246033715628971
 10
67.61428973612999
 20
5.245999213523978
 10
67.61477201583797
 20
5.245960983759959
 10
67.61542250076598
 20
5.245905060114966
 10
67.61624441499399
 20
5.245828834543988
 10
67.61905526762297
 20
5.245546581326997
 10
67.61970754478898
 20
5.245481597724952
 10
67.62035196789397
 20
5.245419432640962
 10
67.62098813495497
 20
5.245360306311956
 10
67.62161616068798
 20
5.245304174747949
 10
67.62223616016297
 20
5.245250993781998
 10
67.62284824844496
 20
5.245200719245977
 10
67.62345254060298
 20
5.245153306973961
 10
67.62404915170399
 20
5.245108712796983
 10
67.62463819681497
 20
5.245066892548996
 10
67.62521979100299
 20
5.245027802060961
 10
67.62579404933697
 20
5.244991397166971
 10
67.62636108688297
 20
5.24495763369895
 10
67.62692101870797
 20
5.244926467488983
 10
67.62747395987998
 20
5.244897854370996
 10
67.628020025466
 20
5.244871750175994
 10
67.62855933053399
 20
5.244848110737954
 10
67.62909199015098
 20
5.244826891888002
 10
67.629618119385
 20
5.244808049459996
 10
67.63013783330197
 20
5.244791539285974
 10
67.63065124696999
 20
5.244777317197978
 10
67.63115847545598
 20
5.244765339029972
 10
67.63165963382895
 20
5.244755560612976
 10
67.63215483715399
 20
5.244747937779997
 10
67.63264420049899
 20
5.244742426363972
 10
67.63324786750797
 20
5.244738438987996
 10
67.63384281408298
 20
5.244737595423988
 10
67.63442926496299
 20
5.244739809408988
 10
67.63500744489198
 20
5.244744994676968
 10
67.63557757860798
 20
5.244753064963949
 10
67.63613989085397
 20
5.244763934005947
 10
67.63669460636997
 20
5.244777515536998
 10
67.63724194989698
 20
5.244793723294995
 10
67.63778214617599
 20
5.244812471012997
 10
67.63831541994797
 20
5.244833672427993
 10
67.63894652719996
 20
5.244862231544963
 10
67.63956837802097
 20
5.24489405069896
 10
67.64018136076399
 20
5.244928980823988
 10
67.64078586377997
 20
5.244966872856981
 10
67.64138227542199
 20
5.245007577730961
 10
67.64206838050899
 20
5.245058423001967
 10
67.64274461761698
 20
5.24511265725896
 10
67.64341160343497
 20
5.245170043791961
 10
67.64416333591796
 20
5.245239184680988
 10
67.64490471109397
 20
5.245311780316955
 10
67.64572752412499
 20
5.245397139960963
 10
67.64662934728597
 20
5.245495975759967
 10
67.64769673916098
 20
5.245619183830958
 10
67.64901277104896
 20
5.24577853501596
 10
67.65143507769398
 20
5.246084252199967
 10
67.65523393427497
 20
5.246554702011954
 10
67.65654994074998
 20
5.24670344351596
 10
67.65761730598696
 20
5.24681552971497
 10
67.65851909556298
 20
5.24690331145199
 10
67.65943328302899
 20
5.246985525169001
 10
67.66035964125899
 20
5.247062270704978
 10
67.66139225388697
 20
5.247140559578999
 10
67.66243865921797
 20
5.247212624832958
 10
67.66349836805497
 20
5.247278672259986
 10
67.66466901181797
 20
5.247344102509988
 10
67.66585427055597
 20
5.247402883134999
 10
67.66715405683496
 20
5.24745936810398
 10
67.66846944254999
 20
5.247508702248968
 10
67.66990253109899
 20
5.247554223885956
 10
67.67145587427797
 20
5.247594713274954
 10
67.67313180645499
 20
5.247629031698965
 10
67.67493236186897
 20
5.247656156246979
 10
67.67696680418596
 20
5.24767600216295
 10
67.67923955271097
 20
5.247686313360977
 10
67.68197369526797
 20
5.247684601365953
 10
67.68550986950899
 20
5.247663891289952
 10
67.69232312983598
 20
5.24758406613096
 10
67.70317462403699
 20
5.247423170524988
 10
67.70671111131298
 20
5.247381155769963
 10
67.70944557179797
 20
5.247357806209993
 10
67.71171863711696
 20
5.247346556932988
 10
67.71331688722297
 20
5.247344046400987
  0
LWPOLYLINE
  5
3FB
330
1E
100
AcDbEntity
  8
SK1
100
AcDbPolyline
 90
       59
 70
     0
 43
0.0
 10
-17.19999999360003
 20
0.0000000961999852
 10
-17.20047963482903
 20
0.0875002105639758
 10
-17.20191810938604
 20
0.1750054868379628
 10
-17.20431474358099
 20
0.2625035609210066
 10
-17.20766886371897
 20
0.3499820687109739
 10
-17.21197979611003
 20
0.4374286461069823
 10
-17.21724686706101
 20
0.5248309290070118
 10
-17.22346940288002
 20
0.6121765533100098
 10
-17.23064672987299
 20
0.6994531549129898
 10
-17.23877817435004
 20
0.7866483697159789
 10
-17.247863062617
 20
0.8737498336170139
 10
-17.25790072098299
 20
0.9607451825139623
 10
-17.268890467716
 20
1.047622068600958
 10
-17.28083114354899
 20
1.134369112135004
 10
-17.29372085175299
 20
1.220976428342965
 10
-17.307557632481
 20
1.307434260413
 10
-17.32233952588501
 20
1.393732851527998
 10
-17.33806457211704
 20
1.479862444873956
 10
-17.35473081133102
 20
1.565813283636995
 10
-17.37233628367903
 20
1.651575611000964
 10
-17.39087902931203
 20
1.73713967015101
 10
-17.41035708838404
 20
1.82249570427399
 10
-17.43207515985699
 20
1.912947643562971
 10
-17.45484454926804
 20
2.003142024631985
 10
-17.47866284375701
 20
2.093067125873969
 10
-17.503526682639
 20
2.182710940729974
 10
-17.529431965914
 20
2.272061240369962
 10
-17.55637457399301
 20
2.361105790078962
 10
-17.58435038728901
 20
2.449832355137969
 10
-17.613355286214
 20
2.538228700832005
 10
-17.64338515118203
 20
2.626282592442009
 10
-17.67443586260401
 20
2.713981795253005
 10
-17.70650330089301
 20
2.801314074547009
 10
-17.73958334646204
 20
2.888267195605977
 10
-17.77367187972298
 20
2.974828923715961
 10
-17.80876478108803
 20
3.060987024156988
 10
-17.84485776631402
 20
3.146729511874015
 10
-17.88194587030903
 20
3.232045434139991
 10
-17.92229455906999
 20
3.321903122801982
 10
-17.96374701635203
 20
3.411257920955963
 10
-18.00629713945301
 20
3.500097143802971
 10
-18.04993882567297
 20
3.588408106549993
 10
-18.09466597231102
 20
3.676178124398008
 10
-18.14047247666603
 20
3.763394512552963
 10
-18.18735223603702
 20
3.850044586216996
 10
-18.23529914772501
 20
3.936115660594966
 10
-18.28430710902802
 20
4.021595050890995
 10
-18.33436998028901
 20
4.106470056075011
 10
-18.38834987231898
 20
4.19538978170897
 10
-18.44348443158003
 20
4.28360409328201
 10
-18.49976147646702
 20
4.371095874209006
 10
-18.55716882537501
 20
4.457848007903011
 10
-18.61569429669901
 20
4.543843377781001
 10
-18.67532570883598
 20
4.629064867255978
 10
-18.73927700898804
 20
4.717916834185983
 10
-18.80442602267601
 20
4.805872386217966
 10
-18.87075854187503
 20
4.892911559407988
 10
-18.93826035856203
 20
4.979014389813983
 10
-18.99999368039203
 20
5.055682113896011
  0
LWPOLYLINE
  5
438
330
1E
100
AcDbEntity
  8
SK1
100
AcDbPolyline
 90
       59
 70
     0
 43
0.0
 10
-19.0
 20
-5.055689863899996
 10
-18.92806110053999
 20
-4.966159440694009
 10
-18.86073377219304
 20
-4.879914886556033
 10
-18.79457787312201
 20
-4.792736985326027
 10
-18.72960761118702
 20
-4.704645700521036
 10
-18.66583719424601
 20
-4.61566099565999
 10
-18.60637959527503
 20
-4.530316178735001
 10
-18.54802986046701
 20
-4.444200183505013
 10
-18.49080017128602
 20
-4.357330126191013
 10
-18.43470270919601
 20
-4.269723123013017
 10
-18.37974965566001
 20
-4.181396290192988
 10
-18.32875555316898
 20
-4.097069751720987
 10
-18.27880957098301
 20
-4.012126951437033
 10
-18.22991919961202
 20
-3.926581183754021
 10
-18.18209055473903
 20
-3.84044513935299
 10
-18.13532973925901
 20
-3.753731503304035
 10
-18.08964285607101
 20
-3.666452960675026
 10
-18.045036008071
 20
-3.578622196535031
 10
-18.00151529815701
 20
-3.490251895953006
 10
-17.95908682922504
 20
-3.401354743996018
 10
-17.91775670417303
 20
-3.311943425733997
 10
-17.87753102589704
 20
-3.222030626235035
 10
-17.84055972143204
 20
-3.136663949100007
 10
-17.80458414070698
 20
-3.050871964562017
 10
-17.76960918158496
 20
-2.964665727591008
 10
-17.735639076381
 20
-2.878057301807015
 10
-17.70267794448403
 20
-2.79105892197702
 10
-17.67072990528203
 20
-2.703682822863012
 10
-17.63979907816398
 20
-2.615941239230036
 10
-17.60988958251903
 20
-2.527846405842006
 10
-17.58100553773601
 20
-2.439410557463983
 10
-17.55315106320301
 20
-2.350645928861009
 10
-17.52633027831
 20
-2.261564754795014
 10
-17.50054730244403
 20
-2.172179270032014
 10
-17.47580625499603
 20
-2.082501709335982
 10
-17.45211121371704
 20
-1.992544294966983
 10
-17.429465385978
 20
-1.902318987780003
 10
-17.40787115465103
 20
-1.811837501006034
 10
-17.38850990508501
 20
-1.726454917351014
 10
-17.37008421504202
 20
-1.640865530821991
 10
-17.352596044079
 20
-1.555079098691004
 10
-17.33604735175901
 20
-1.469105378227989
 10
-17.32044009764104
 20
-1.382954126706007
 10
-17.305776241285
 20
-1.296635101394028
 10
-17.29205774224999
 20
-1.210158059566021
 10
-17.27928656009902
 20
-1.123532758491984
 10
-17.26746465439004
 20
-1.036768955442989
 10
-17.25659387976001
 20
-0.9498766203109855
 10
-17.24667528503601
 20
-0.8628673559020374
 10
-17.23770954564503
 20
-0.7757535216909997
 10
-17.22969733497302
 20
-0.6885474812850118
 10
-17.222639326408
 20
-0.6012615982920107
 10
-17.21653619333698
 20
-0.5139082363190234
 10
-17.21138860914599
 20
-0.4264997589730209
 10
-17.20719724722401
 20
-0.3390485298630188
 10
-17.20396278095603
 20
-0.2515669125950218
 10
-17.20168588373002
 20
-0.1640672707779892
 10
-17.20036722893302
 20
-0.0765619680180386
 10
-17.199999993606
 20
-0.0000099037999896
  0
DIMENSION
  5
50E
330
1E
100
AcDbEntity
  8
SK2
100
AcDbDimension
  2
*D3
 10
81.00439999999997
 20
-43.0
 30
0.0
 11
16.50219999999996
 21
-43.0
 31
0.0
 70
   160
 71
     5
 42
129.0043999999999
  3
ISO-25
100
AcDbAlignedDimension
 13
-48.0
 23
0.0000000000000059
 33
0.0
 14
81.00439999999997
 24
-2.988766882400009
 34
0.0
 50
180.0
100
AcDbRotatedDimension
  0
LINE
  5
50F
330
1E
100
AcDbEntity
  8
SK4
100
AcDbLine
 10
-24.0
 20
7.199427261799995
 30
0.0
 11
-24.0
 21
-7.199427261799992
 31
0.0
  0
DIMENSION
  5
510
330
1E
100
AcDbEntity
  8
SK2
100
AcDbDimension
  2
*D2
 10
81.00439999999997
 20
-33.0
 30
0.0
 11
28.50219999999997
 21
-33.0
 31
0.0
 70
   160
 71
     5
 42
105.0043999999999
  3
ISO-25
100
AcDbAlignedDimension
 13
-24.0
 23
0.0000000000000029
 33
0.0
 14
81.00439999999997
 24
-2.988766882400009
 34
0.0
 50
180.0
100
AcDbRotatedDimension
  0
DIMENSION
  5
511
330
1E
100
AcDbEntity
  8
SK2
100
AcDbDimension
  2
*D1
 10
-63.0
 20
8.000000000000008
 30
0.0
 11
-63.0
 21
0.0000000000000077
 31
0.0
 70
   160
  1
%%c<>
 71
     5
 42
15.99999999999999
  3
ISO-25
100
AcDbAlignedDimension
 13
-47.20000000000005
 23
-7.999999999999992
 33
0.0
 14
-47.20000000000005
 24
8.000000000000005
 34
0.0
 50
270.0
100
AcDbRotatedDimension
  0
DIMENSION
  5
512
330
1E
100
AcDbEntity
  8
2
100
AcDbDimension
  2
*D4
 10
61.11567878899998
 20
-23.0
 30
0.0
 11
71.06003939449997
 21
-23.0
 31
0.0
 70
   160
 71
     5
 42
19.88872121099998
  3
ISO-25
100
AcDbAlignedDimension
 13
81.00439999999997
 23
-2.988766882400009
 33
0.0
 14
61.11567878899998
 24
-5.250000000000006
 34
0.0
 50
180.0
100
AcDbRotatedDimension
1001
ACAD
1000
DSTYLE
1002
{
1070
   271
1070
     0
1002
}
  0
LINE
  5
513
330
1E
100
AcDbEntity
  8
SK4
100
AcDbLine
 10
0.0
 20
0.0
 30
0.0
 11
-50.13787139660758
 21
0.0000000000000061
 31
0.0
  0
TEXT
  5
8CF
330
1E
100
AcDbEntity
  8
6
100
AcDbText
 10
44.09661415085214
 20
-54.70877022696812
 30
0.0
 40
3.5
  1
15B1D012080W3R00
100
AcDbText
  0
LINE
  5
D1A
330
1E
100
AcDbEntity
  8
SK4
100
AcDbLine
 10
78.00439999999998
 20
-1.040588821721039
 30
0.0
 11
78.00439999999998
 21
7.001049526832948
 31
0.0
  0
LINE
  5
D1B
330
1E
100
AcDbEntity
  8
SK4
100
AcDbLine
 10
73.74716347564168
 20
2.988766882399991
 30
0.0
 11
82.36186935305807
 21
2.988766882399988
 31
0.0
  0
TEXT
  5
1187
330
1E
100
AcDbEntity
  8
6
100
AcDbText
 10
105.1579760779499
 20
-3.948370527882388
 30
0.0
 40
3.0
  1
Z=2
 50
90.0
100
AcDbText
  0
TEXT
  5
1188
330
1E
100
AcDbEntity
  8
6
100
AcDbText
 10
52.08030135165296
 20
15.68770192816265
 30
0.0
 40
2.5
  1
RHHW0602M0TN
100
AcDbText
  0
LINE
  5
11A3
330
1E
100
AcDbEntity
  8
NOCUT
100
AcDbLine
 10
60.88444498199999
 20
5.255349769399983
 30
0.0
 11
7.115555018000009
 21
7.744650230700003
 31
0.0
  0
LINE
  5
11A4
330
1E
100
AcDbEntity
  8
NOCUT
100
AcDbLine
 10
80.5
 20
0.0
 30
0.0
 11
0.0
 21
0.0
 31
0.0
  0
LINE
  5
11A5
330
1E
100
AcDbEntity
  8
NOCUT
100
AcDbLine
 10
0.0
 20
8.0
 30
0.0
 11
0.0
 21
0.0
 31
0.0
  0
LINE
  5
11A6
330
1E
100
AcDbEntity
  8
NOCUT
100
AcDbLine
 10
6.884321211099972
 20
7.75
 30
0.0
 11
0.25
 21
7.75
 31
0.0
  0
ARC
  5
11A7
330
1E
100
AcDbEntity
  8
NOCUT
100
AcDbCircle
 10
0.25
 20
8.0
 30
0.0
 40
0.25
100
AcDbArc
 50
180.0
 51
270.0
  0
ARC
  5
11A8
330
1E
100
AcDbEntity
  8
NOCUT
100
AcDbCircle
 10
6.884321211099972
 20
2.75
 30
0.0
 40
5.0
100
AcDbArc
 50
87.34931031659971
 51
90.0
  0
ARC
  5
11A9
330
1E
100
AcDbEntity
  8
NOCUT
100
AcDbCircle
 10
78.0
 20
3.200000000000001
 30
0.0
 40
2.5
100
AcDbArc
 50
0.0
 51
122.3465321294004
  0
LINE
  5
11AA
330
1E
100
AcDbEntity
  8
NOCUT
100
AcDbLine
 10
76.44838793510001
 20
5.25
 30
0.0
 11
61.11567878899996
 21
5.25
 31
0.0
  0
ARC
  5
11AB
330
1E
100
AcDbEntity
  8
NOCUT
100
AcDbCircle
 10
61.11567878899996
 20
10.25
 30
0.0
 40
5.0
100
AcDbArc
 50
267.3493103164009
 51
270.0
  0
LINE
  5
11AC
330
1E
100
AcDbEntity
  8
NOCUT
100
AcDbLine
 10
60.88444498199999
 20
5.255349769399983
 30
0.0
 11
61.11567878899996
 21
5.25
 31
0.0
  0
ARC
  5
11AD
330
1E
100
AcDbEntity
  8
NOCUT
100
AcDbCircle
 10
76.44838793510001
 20
5.650000000000002
 30
0.0
 40
0.4
100
AcDbArc
 50
270.0
 51
302.3465321296995
  0
LINE
  5
11AE
330
1E
100
AcDbEntity
  8
NOCUT
100
AcDbLine
 10
80.5
 20
0.0
 30
0.0
 11
80.5
 21
3.200000000000001
 31
0.0
  0
SPLINE
  5
11B5
330
1E
100
AcDbEntity
  8
CUT
100
AcDbSpline
210
0.0
220
0.0
230
1.0
 70
     8
 71
     3
 72
    36
 73
    32
 74
    30
 42
0.0000000001
 43
0.0000000001
 44
0.0000000001
 12
0.9999999735703452
 22
0.0002299115247064
 32
0.0
 13
-0.9999825149657894
 23
-0.0059135237122243
 33
0.0
 40
0.0
 40
0.0
 40
0.0
 40
0.0
 40
0.3248326030019054
 40
0.6496497579136984
 40
0.9744365062394201
 40
1.299179704359113
 40
1.623864578617227
 40
1.948469262398887
 40
2.272973695111308
 40
2.597355590729715
 40
2.921589673492462
 40
3.245646845826292
 40
3.569486462380543
 40
3.893062913887753
 40
4.216324038803814
 40
4.539200870059946
 40
4.861607870059943
 40
5.183430017590228
 40
5.504520986128737
 40
5.824688524403627
 40
6.1436774461376
 40
6.461138615298488
 40
6.776607900156769
 40
7.089519346455868
 40
7.399311045160028
 40
7.705910968512911
 40
8.010869348414184
 40
8.318227249456285
 40
8.632078493404746
 40
8.952666116941575
 40
9.277024138043248
 40
9.277024138043248
 40
9.277024138043248
 40
9.277024138043248
 10
78.0044
 20
6.000000000000006
 30
0.0
 10
78.11267753147223
 20
6.000024894253016
 30
0.0
 10
78.32941003631424
 20
5.988264504929743
 30
0.0
 10
78.65055327434159
 20
5.935724285106317
 30
0.0
 10
78.96416043051177
 20
5.848822301947003
 30
0.0
 10
79.26650475111241
 20
5.728600821290385
 30
0.0
 10
79.55405576007013
 20
5.576475384190813
 30
0.0
 10
79.82343875892333
 20
5.394243869561632
 30
0.0
 10
80.07149332625763
 20
5.184056022519662
 30
0.0
 10
80.29531446807087
 20
4.948399941692713
 30
0.0
 10
80.49227704364581
 20
4.69006156085232
 30
0.0
 10
80.66007361752955
 20
4.412104774320761
 30
0.0
 10
80.79673838302914
 20
4.117832012035012
 30
0.0
 10
80.90066629661587
 20
3.810747238164469
 30
0.0
 10
80.9706427255883
 20
3.494522660107503
 30
0.0
 10
81.00585102569301
 20
3.172958113706087
 30
0.0
 10
81.00587937802512
 20
2.849948995067141
 30
0.0
 10
80.97073256891571
 20
2.529452887768939
 30
0.0
 10
80.90083162803223
 20
2.215462686593819
 30
0.0
 10
80.79700553558346
 20
1.911990364309673
 30
0.0
 10
80.66048495428915
 20
1.623074624487466
 30
0.0
 10
80.49289420734725
 20
1.352813565493106
 30
0.0
 10
80.29621245852082
 20
1.105454133627336
 30
0.0
 10
80.07272402890768
 20
0.8855414526735813
 30
0.0
 10
79.82486019015557
 20
0.69816751551354
 30
0.0
 10
79.5549451228822
 20
0.5492104313328881
 30
0.0
 10
79.26540391815521
 20
0.4450884567851603
 30
0.0
 10
78.96080888157351
 20
0.3883348700778001
 30
0.0
 10
78.64710775644346
 20
0.3686938169276741
 30
0.0
 10
78.32749977673497
 20
0.3662222858229795
 30
0.0
 10
78.11251744989686
 20
0.3677853662830227
 30
0.0
 10
78.0044
 20
0.3671460000000111
 30
0.0
 11
78.0044
 21
6.000000000000006
 31
0.0
 11
78.328758
 21
5.982446999999997
 31
0.0
 11
78.64931199999998
 21
5.929993999999997
 31
0.0
 11
78.96230399999997
 21
5.843262000000001
 31
0.0
 11
79.26406599999999
 21
5.723271000000002
 31
0.0
 11
79.551062
 21
5.571437000000008
 31
0.0
 11
79.81992399999999
 21
5.389554000000008
 31
0.0
 11
80.067499
 21
5.179768999999998
 31
0.0
 11
80.29088599999999
 21
4.944563000000005
 31
0.0
 11
80.48746599999999
 21
4.686718000000004
 31
0.0
 11
80.65493599999998
 21
4.409289000000004
 31
0.0
 11
80.79133099999998
 21
4.115574000000001
 31
0.0
 11
80.89505
 21
3.809071000000008
 31
0.0
 11
80.96487899999997
 21
3.493442000000006
 31
0.0
 11
81.0
 21
3.172481000000008
 31
0.0
 11
81.0
 21
2.850074000000011
 31
0.0
 11
80.96487899999997
 21
2.530174000000008
 31
0.0
 11
80.89505
 21
2.216768000000004
 31
0.0
 11
80.79133099999998
 21
1.913866000000004
 31
0.0
 11
80.65493599999998
 21
1.625508000000002
 31
0.0
 11
80.48746599999999
 21
1.355813000000003
 31
0.0
 11
80.29088599999999
 21
1.10908000000001
 31
0.0
 11
80.067499
 21
0.889964000000012
 31
0.0
 11
79.81992399999999
 21
0.7037450000000037
 31
0.0
 11
79.551062
 21
0.5563789999999985
 31
0.0
 11
79.26406599999999
 21
0.4532629999999985
 31
0.0
 11
78.96230399999997
 21
0.3948800000000064
 31
0.0
 11
78.64931199999998
 21
0.3716720000000096
 31
0.0
 11
78.328758
 21
0.3670290000000081
 31
0.0
 11
78.0044
 21
0.3671460000000111
 31
0.0
  0
SPLINE
  5
11B6
330
1E
100
AcDbEntity
  8
CUT
100
AcDbSpline
210
0.0
220
0.0
230
1.0
 70
     8
 71
     3
 72
    36
 73
    32
 74
    30
 42
0.0000000001
 43
0.0000000001
 44
0.0000000001
 12
-0.9999999735703452
 22
0.0002299115247064
 32
0.0
 13
0.9999825149657894
 23
-0.0059135237122243
 33
0.0
 40
0.0
 40
0.0
 40
0.0
 40
0.0
 40
0.3248326030019338
 40
0.6496497579137268
 40
0.9744365062394761
 40
1.299179704359142
 40
1.623864578617256
 40
1.948469262398928
 40
2.272973695111339
 40
2.597355590729756
 40
2.921589673492502
 40
3.245646845826333
 40
3.569486462380577
 40
3.893062913887788
 40
4.216324038803855
 40
4.539200870059985
 40
4.861607870059982
 40
5.183430017590263
 40
5.504520986128778
 40
5.824688524403669
 40
6.143677446137636
 40
6.461138615298524
 40
6.776607900156805
 40
7.089519346455914
 40
7.399311045160063
 40
7.705910968512958
 40
8.010869348414232
 40
8.318227249456304
 40
8.632078493404794
 40
8.952666116941623
 40
9.277024138043325
 40
9.277024138043325
 40
9.277024138043325
 40
9.277024138043325
 10
78.0044
 20
6.000000000000006
 30
0.0
 10
77.89612246852776
 20
6.000024894253016
 30
0.0
 10
77.67938996368575
 20
5.988264504929748
 30
0.0
 10
77.35824672565837
 20
5.935724285106312
 30
0.0
 10
77.04463956948818
 20
5.848822301947014
 30
0.0
 10
76.74229524888755
 20
5.728600821290378
 30
0.0
 10
76.45474423992988
 20
5.576475384190811
 30
0.0
 10
76.18536124107662
 20
5.39424386956164
 30
0.0
 10
75.93730667374237
 20
5.184056022519653
 30
0.0
 10
75.71348553192909
 20
4.948399941692719
 30
0.0
 10
75.51652295635415
 20
4.690061560852318
 30
0.0
 10
75.34872638247041
 20
4.412104774320765
 30
0.0
 10
75.21206161697083
 20
4.117832012035009
 30
0.0
 10
75.1081337033841
 20
3.810747238164464
 30
0.0
 10
75.03815727441168
 20
3.494522660107509
 30
0.0
 10
75.00294897430696
 20
3.172958113706083
 30
0.0
 10
75.00292062197485
 20
2.849948995067144
 30
0.0
 10
75.03806743108424
 20
2.529452887768933
 30
0.0
 10
75.10796837196775
 20
2.215462686593823
 30
0.0
 10
75.21179446441653
 20
1.911990364309676
 30
0.0
 10
75.34831504571079
 20
1.623074624487462
 30
0.0
 10
75.51590579265273
 20
1.352813565493108
 30
0.0
 10
75.71258754147914
 20
1.105454133627329
 30
0.0
 10
75.9360759710923
 20
0.885541452673592
 30
0.0
 10
76.18393980984439
 20
0.6981675155135305
 30
0.0
 10
76.45385487711779
 20
0.549210431332892
 30
0.0
 10
76.74339608184476
 20
0.4450884567851645
 30
0.0
 10
77.04799111842641
 20
0.3883348700777951
 30
0.0
 10
77.3616922435565
 20
0.3686938169276757
 30
0.0
 10
77.68130022326502
 20
0.366222285822979
 30
0.0
 10
77.89628255010313
 20
0.3677853662830228
 30
0.0
 10
78.0044
 20
0.3671460000000111
 30
0.0
 11
78.0044
 21
6.000000000000006
 31
0.0
 11
77.68004199999999
 21
5.982446999999997
 31
0.0
 11
77.359488
 21
5.929993999999997
 31
0.0
 11
77.04649599999997
 21
5.843262000000001
 31
0.0
 11
76.744734
 21
5.723271000000002
 31
0.0
 11
76.45773799999997
 21
5.571437000000008
 31
0.0
 11
76.18887599999998
 21
5.389554000000008
 31
0.0
 11
75.94130099999998
 21
5.179768999999998
 31
0.0
 11
75.71791399999998
 21
4.944563000000005
 31
0.0
 11
75.52133399999998
 21
4.686718000000004
 31
0.0
 11
75.35386399999999
 21
4.409289000000004
 31
0.0
 11
75.217469
 21
4.115574000000001
 31
0.0
 11
75.11374999999998
 21
3.809071000000008
 31
0.0
 11
75.04392099999998
 21
3.493442000000006
 31
0.0
 11
75.00879999999998
 21
3.172481000000008
 31
0.0
 11
75.00879999999998
 21
2.850074000000011
 31
0.0
 11
75.04392099999998
 21
2.530174000000008
 31
0.0
 11
75.11374999999998
 21
2.216768000000004
 31
0.0
 11
75.217469
 21
1.913866000000004
 31
0.0
 11
75.35386399999999
 21
1.625508000000002
 31
0.0
 11
75.52133399999998
 21
1.355813000000003
 31
0.0
 11
75.71791399999998
 21
1.10908000000001
 31
0.0
 11
75.94130099999998
 21
0.889964000000012
 31
0.0
 11
76.18887599999998
 21
0.7037450000000037
 31
0.0
 11
76.45773799999997
 21
0.5563789999999985
 31
0.0
 11
76.744734
 21
0.4532629999999985
 31
0.0
 11
77.04649599999997
 21
0.3948800000000064
 31
0.0
 11
77.359488
 21
0.3716720000000096
 31
0.0
 11
77.68004199999999
 21
0.3670290000000081
 31
0.0
 11
78.0044
 21
0.3671460000000111
 31
0.0
  0
LWPOLYLINE
  5
1334
330
1E
100
AcDbEntity
  8
1
100
AcDbPolyline
 90
        3
 70
     1
 43
0.0
 10
0.0
 20
-0.0000000000000284
 10
-2.950972054112583
 20
-0.0000000000000284
 42
0.4142135623730966
 10
0.0
 20
-2.950972054112611
  0
HATCH
  5
1335
330
1E
100
AcDbEntity
  8
1
100
AcDbHatch
 10
0.0
 20
0.0
 30
0.0
210
0.0
220
0.0
230
1.0
  2
SOLID
 70
     1
 71
     0
 91
        2
 92
        7
 72
     1
 73
     1
 93
        3
 10
0.0
 20
-0.0000000000000284
 42
0.0
 10
2.950972054112583
 20
-0.0000000000000284
 42
0.4142135623730966
 10
0.0
 20
2.950972054112583
 42
0.0
 97
        0
 92
        7
 72
     1
 73
     1
 93
        3
 10
0.0
 20
-2.950972054112526
 42
0.0
 10
0.0
 20
-0.0000000000000284
 42
0.0
 10
-2.950972054112583
 20
-0.0000000000000284
 42
0.4142135623730953
 97
        0
 75
     0
 76
     1
 47
0.1190009775223266
 98
        2
 10
0.7445530588119027
 20
0.9212244733764691
 10
-1.279464601852936
 20
-1.69679692304632
  0
CIRCLE
  5
1336
330
1E
100
AcDbEntity
  8
1
100
AcDbCircle
 10
0.0
 20
-0.0000000000000284
 30
0.0
 40
2.950972054112601
  0
LINE
  5
1337
330
1E
100
AcDbEntity
  8
1
100
AcDbLine
 10
0.0
 20
2.950972054112583
 30
0.0
 11
0.0
 21
-2.950972054112611
 31
0.0
  0
LINE
  5
1339
330
1E
100
AcDbEntity
  8
1
100
AcDbLine
 10
-2.950972054112836
 20
-0.0000000000000284
 30
0.0
 11
2.950972054112583
 21
-0.0000000000000284
 31
0.0
  0
LWPOLYLINE
  5
133A
330
1E
100
AcDbEntity
  8
1
100
AcDbPolyline
 90
        3
 70
     1
 43
0.0
 10
0.0
 20
2.950972054112583
 10
0.0
 20
-0.0000000000000284
 10
2.950972054112583
 20
-0.0000000000000284
 42
0.4142135623730966
  0
ENDSEC
  0
SECTION
  2
OBJECTS
  0
DICTIONARY
  5
C
330
0
100
AcDbDictionary
281
     1
  3
ACAD_COLOR
350
14A4
  3
ACAD_GROUP
350
D
  3
ACAD_LAYOUT
350
19
  3
ACAD_MATERIAL
350
14A3
  3
ACAD_MLINESTYLE
350
16
  3
ACAD_PLOTSETTINGS
350
18
  3
ACAD_PLOTSTYLENAME
350
114A
  3
ACAD_TABLESTYLE
350
14A5
  3
ACDBHEADERROUNDTRIPXREC
350
14B7
  3
AcDbVariableDictionary
350
14A8
1001
ACAD
1000
TREAT_AS_HARD
1070
     0
1000
TREAT_AS_HARD
1070
     0
  0
DICTIONARY
  5
8E3
330
1E
100
AcDbDictionary
281
     1
  3
ACAD_LAYOUTSELFREF
350
D1E
1001
ACAD
1000
TREAT_AS_HARD
1070
     0
  0
DICTIONARY
  5
8E1
330
1A
100
AcDbDictionary
281
     1
  3
ACAD_LAYOUTSELFREF
350
D1D
1001
ACAD
1000
TREAT_AS_HARD
1070
     0
  0
DICTIONARY
  5
14A4
102
{ACAD_REACTORS
330
C
102
}
330
C
100
AcDbDictionary
281
     1
  0
DICTIONARY
  5
D
102
{ACAD_REACTORS
330
C
102
}
330
C
100
AcDbDictionary
281
     1
1001
ACAD
1000
TREAT_AS_HARD
1070
     0
1000
TREAT_AS_HARD
1070
     0
  0
DICTIONARY
  5
19
102
{ACAD_REACTORS
330
C
102
}
330
C
100
AcDbDictionary
281
     1
  3
Layout1
350
114D
  3
Model
350
114C
1001
ACAD
1000
TREAT_AS_HARD
1070
     0
1000
TREAT_AS_HARD
1070
     0
  0
DICTIONARY
  5
14A3
102
{ACAD_REACTORS
330
C
102
}
330
C
100
AcDbDictionary
281
     1
  0
DICTIONARY
  5
16
102
{ACAD_REACTORS
330
C
102
}
330
C
100
AcDbDictionary
281
     1
  3
STANDARD
350
17
1001
ACAD
1000
TREAT_AS_HARD
1070
     0
1000
TREAT_AS_HARD
1070
     0
  0
DICTIONARY
  5
18
102
{ACAD_REACTORS
330
C
102
}
330
C
100
AcDbDictionary
281
     1
1001
ACAD
1000
TREAT_AS_HARD
1070
     0
1000
TREAT_AS_HARD
1070
     0
  0
ACDBDICTIONARYWDFLT
  5
114A
102
{ACAD_REACTORS
330
C
102
}
330
C
100
AcDbDictionary
281
     1
  3
Normal
350
114B
100
AcDbDictionaryWithDefault
340
114B
  0
DICTIONARY
  5
14A5
102
{ACAD_REACTORS
330
C
102
}
330
C
100
AcDbDictionary
281
     1
  3
Standard
350
14A6
  0
DICTIONARY
  5
14B7
102
{ACAD_REACTORS
330
C
102
}
330
C
100
AcDbDictionary
281
     1
  0
DICTIONARY
  5
14A8
102
{ACAD_REACTORS
330
C
102
}
330
C
100
AcDbDictionary
281
     1
  3
CTABLESTYLE
350
14A9
  3
DIMASSOC
350
14AA
  3
PROJECTNAME
350
14AB
  0
XRECORD
  5
D1E
102
{ACAD_REACTORS
330
8E3
102
}
330
8E3
100
AcDbXrecord
280
     1
340
1E
  0
XRECORD
  5
D1D
102
{ACAD_REACTORS
330
8E1
102
}
330
8E1
100
AcDbXrecord
280
     1
340
1A
  0
LAYOUT
  5
114D
102
{ACAD_XDICTIONARY
360
14BA
102
}
102
{ACAD_REACTORS
330
19
102
}
330
19
100
AcDbPlotSettings
  1

  2
\\ingdom02\ITB2
  4

  6

 40
0.0
 41
0.0
 42
0.0
 43
0.0
 44
0.0
 45
0.0
 46
0.0
 47
0.0
 48
0.0
 49
0.0
140
0.0
141
0.0
142
1.0
143
1.0
 70
   688
 72
     0
 73
     0
 74
     5
  7

 75
    16
147
1.0
148
0.0
149
0.0
100
AcDbLayout
  1
Layout1
 70
     1
 71
     1
 10
-4.23333740234375
 20
-4.233333110809327
 11
292.692657470703
 21
205.7399945259088
 12
0.0
 22
0.0
 32
0.0
 14
28.8459315776825
 24
19.7950672626495
 34
0.0
 15
259.613384199142
 25
178.155605363846
 35
0.0
146
0.0
 13
0.0
 23
0.0
 33
0.0
 16
1.0
 26
0.0
 36
0.0
 17
0.0
 27
1.0
 37
0.0
 76
     0
330
1A
  0
LAYOUT
  5
114C
102
{ACAD_XDICTIONARY
360
14B8
102
}
102
{ACAD_REACTORS
330
19
102
}
330
19
100
AcDbPlotSettings
  1

  2
\\ingdom02\ITB2
  4

  6

 40
0.0
 41
0.0
 42
0.0
 43
0.0
 44
0.0
 45
0.0
 46
0.0
 47
0.0
 48
0.0
 49
0.0
140
0.0
141
0.0
142
1.0
143
1.0
 70
  1712
 72
     0
 73
     0
 74
     0
  7

 75
     0
147
1.0
148
0.0
149
0.0
100
AcDbLayout
  1
Model
 70
     1
 71
     0
 10
0.0
 20
0.0
 11
12.0
 21
9.0
 12
0.0
 22
0.0
 32
0.0
 14
0.0
 24
0.0
 34
0.0
 15
0.0
 25
0.0
 35
0.0
146
0.0
 13
0.0
 23
0.0
 33
0.0
 16
1.0
 26
0.0
 36
0.0
 17
0.0
 27
1.0
 37
0.0
 76
     0
330
1E
  0
MLINESTYLE
  5
17
102
{ACAD_REACTORS
330
16
102
}
330
16
100
AcDbMlineStyle
  2
STANDARD
 70
     0
  3

 62
   256
 51
90.0
 52
90.0
 71
     2
 49
0.5
 62
   256
  6
BYLAYER
 49
-0.5
 62
   256
  6
BYLAYER
  0
ACDBPLACEHOLDER
  5
114B
102
{ACAD_REACTORS
330
114A
102
}
330
114A
  0
TABLESTYLE
  5
14A6
102
{ACAD_REACTORS
330
14A5
102
}
330
14A5
100
AcDbTableStyle
  3
Standard
 70
     0
 71
     0
 40
0.06
 41
0.06
280
     0
281
     0
  7
STANDARD
140
0.18
170
     2
 62
     0
 63
     7
283
     0
274
    -2
284
     1
 64
     0
275
    -2
285
     1
 65
     0
276
    -2
286
     1
 66
     0
277
    -2
287
     1
 67
     0
278
    -2
288
     1
 68
     0
279
    -2
289
     1
 69
     0
  7
STANDARD
140
0.25
170
     5
 62
     0
 63
     7
283
     0
274
    -2
284
     1
 64
     0
275
    -2
285
     1
 65
     0
276
    -2
286
     1
 66
     0
277
    -2
287
     1
 67
     0
278
    -2
288
     1
 68
     0
279
    -2
289
     1
 69
     0
  7
STANDARD
140
0.18
170
     5
 62
     0
 63
     7
283
     0
274
    -2
284
     1
 64
     0
275
    -2
285
     1
 65
     0
276
    -2
286
     1
 66
     0
277
    -2
287
     1
 67
     0
278
    -2
288
     1
 68
     0
279
    -2
289
     1
 69
     0
  0
DICTIONARYVAR
  5
14A9
102
{ACAD_REACTORS
330
14A8
102
}
330
14A8
100
DictionaryVariables
280
     0
  1
STANDARD
  0
DICTIONARYVAR
  5
14AA
102
{ACAD_REACTORS
330
14A8
102
}
330
14A8
100
DictionaryVariables
280
     0
  1
1
  0
DICTIONARYVAR
  5
14AB
102
{ACAD_REACTORS
330
14A8
102
}
330
14A8
100
DictionaryVariables
280
     0
  1

  0
DICTIONARY
  5
14BA
330
114D
100
AcDbDictionary
280
     1
281
     1
  3
ACAD_XREC_ROUNDTRIP
360
14BB
  0
DICTIONARY
  5
14B8
330
114C
100
AcDbDictionary
280
     1
281
     1
  3
ACAD_XREC_ROUNDTRIP
360
14B9
  0
XRECORD
  5
14BB
102
{ACAD_REACTORS
330
14BA
102
}
330
14BA
100
AcDbXrecord
280
     1
102
SHADEPLOT
 70
     0
102
SHADEPLOTRESLEVEL
 70
     2
102
SHADEPLOTCUSTOMDPI
 70
   300
  0
XRECORD
  5
14B9
102
{ACAD_REACTORS
330
14B8
102
}
330
14B8
100
AcDbXrecord
280
     1
102
SHADEPLOT
 70
     0
102
SHADEPLOTRESLEVEL
 70
     2
102
SHADEPLOTCUSTOMDPI
 70
   300
  0
ENDSEC
  0
EOF
