  0
SECTION
  2
HEADER
  9
$ACADVER
  1
AC1015
  9
$ACADMAINTVER
 70
    20
  9
$DWGCODEPAGE
  3
ANSI_1252
  9
$INSBASE
 10
0.0
 20
0.0
 30
0.0
  9
$EXTMIN
 10
-66.18584640437416
 20
-53.41487879528131
 30
-0.0000000000000456
  9
$EXTMAX
 10
81.45178679540959
 20
19.68019187544041
 30
0.0000000000010341
  9
$LIMMIN
 10
0.0
 20
0.0
  9
$LIMMAX
 10
841.0
 20
594.0
  9
$ORTHOMODE
 70
     0
  9
$REGENMODE
 70
     1
  9
$FILLMODE
 70
     1
  9
$QTEXTMODE
 70
     0
  9
$MIRRTEXT
 70
     1
  9
$LTSCALE
 40
10.0
  9
$ATTMODE
 70
     1
  9
$TEXTSIZE
 40
0.2
  9
$TRACEWID
 40
0.05
  9
$TEXTSTYLE
  7
STANDARD
  9
$CLAYER
  8
0
  9
$CELTYPE
  6
BYLAYER
  9
$CECOLOR
 62
   256
  9
$CELTSCALE
 40
1.0
  9
$DISPSILH
 70
     0
  9
$DIMSCALE
 40
1.0
  9
$DIMASZ
 40
2.5
  9
$DIMEXO
 40
0.0625
  9
$DIMDLI
 40
0.38
  9
$DIMRND
 40
0.0
  9
$DIMDLE
 40
0.0
  9
$DIMEXE
 40
0.18
  9
$DIMTP
 40
0.001
  9
$DIMTM
 40
0.001
  9
$DIMTXT
 40
3.5
  9
$DIMCEN
 40
0.09
  9
$DIMTSZ
 40
0.0
  9
$DIMTOL
 70
     1
  9
$DIMLIM
 70
     0
  9
$DIMTIH
 70
     0
  9
$DIMTOH
 70
     0
  9
$DIMSE1
 70
     0
  9
$DIMSE2
 70
     0
  9
$DIMTAD
 70
     1
  9
$DIMZIN
 70
     8
  9
$DIMBLK
  1
_FILLED
  9
$DIMASO
 70
     1
  9
$DIMSHO
 70
     1
  9
$DIMPOST
  1

  9
$DIMAPOST
  1

  9
$DIMALT
 70
     0
  9
$DIMALTD
 70
     2
  9
$DIMALTF
 40
25.4
  9
$DIMLFAC
 40
1.0
  9
$DIMTOFL
 70
     0
  9
$DIMTVP
 40
0.0
  9
$DIMTIX
 70
     0
  9
$DIMSOXD
 70
     0
  9
$DIMSAH
 70
     0
  9
$DIMBLK1
  1
_FILLED
  9
$DIMBLK2
  1
_FILLED
  9
$DIMSTYLE
  2
STANDARD
  9
$DIMCLRD
 70
     0
  9
$DIMCLRE
 70
     0
  9
$DIMCLRT
 70
     5
  9
$DIMTFAC
 40
1.0
  9
$DIMGAP
 40
0.09
  9
$DIMJUST
 70
     0
  9
$DIMSD1
 70
     0
  9
$DIMSD2
 70
     0
  9
$DIMTOLJ
 70
     1
  9
$DIMTZIN
 70
     8
  9
$DIMALTZ
 70
     8
  9
$DIMALTTZ
 70
     8
  9
$DIMUPT
 70
     0
  9
$DIMDEC
 70
     4
  9
$DIMTDEC
 70
     4
  9
$DIMALTU
 70
     2
  9
$DIMALTTD
 70
     2
  9
$DIMTXSTY
  7
STANDARD
  9
$DIMAUNIT
 70
     0
  9
$DIMADEC
 70
     0
  9
$DIMALTRND
 40
0.0
  9
$DIMAZIN
 70
     0
  9
$DIMDSEP
 70
    46
  9
$DIMATFIT
 70
     3
  9
$DIMFRAC
 70
     0
  9
$DIMLDRBLK
  1
_FILLED
  9
$DIMLUNIT
 70
     2
  9
$DIMLWD
 70
    -2
  9
$DIMLWE
 70
    -2
  9
$DIMTMOVE
 70
     0
  9
$LUNITS
 70
     2
  9
$LUPREC
 70
     4
  9
$SKETCHINC
 40
0.1
  9
$FILLETRAD
 40
0.0
  9
$AUNITS
 70
     0
  9
$AUPREC
 70
     0
  9
$MENU
  1

  9
$ELEVATION
 40
0.0
  9
$PELEVATION
 40
0.0
  9
$THICKNESS
 40
0.0
  9
$LIMCHECK
 70
     0
  9
$CHAMFERA
 40
0.0
  9
$CHAMFERB
 40
0.0
  9
$CHAMFERC
 40
0.0
  9
$CHAMFERD
 40
0.0
  9
$SKPOLY
 70
     0
  9
$TDCREATE
 40
2453413.342945428
  9
$TDUCREATE
 40
2453413.259612095
  9
$TDUPDATE
 40
2453909.271803460
  9
$TDUUPDATE
 40
2453909.188470127
  9
$TDINDWG
 40
0.6674016088
  9
$TDUSRTIMER
 40
0.6489084028
  9
$USRTIMER
 70
     1
  9
$ANGBASE
 50
0.0
  9
$ANGDIR
 70
     0
  9
$PDMODE
 70
     0
  9
$PDSIZE
 40
0.3125
  9
$PLINEWID
 40
0.0
  9
$SPLFRAME
 70
     0
  9
$SPLINETYPE
 70
     6
  9
$SPLINESEGS
 70
     8
  9
$HANDSEED
  5
1BDC
  9
$SURFTAB1
 70
     6
  9
$SURFTAB2
 70
     6
  9
$SURFTYPE
 70
     6
  9
$SURFU
 70
     6
  9
$SURFV
 70
     6
  9
$UCSBASE
  2

  9
$UCSNAME
  2

  9
$UCSORG
 10
0.0
 20
0.0
 30
0.0
  9
$UCSXDIR
 10
1.0
 20
0.0
 30
0.0
  9
$UCSYDIR
 10
0.0
 20
1.0
 30
0.0
  9
$UCSORTHOREF
  2

  9
$UCSORTHOVIEW
 70
     0
  9
$UCSORGTOP
 10
0.0
 20
0.0
 30
0.0
  9
$UCSORGBOTTOM
 10
0.0
 20
0.0
 30
0.0
  9
$UCSORGLEFT
 10
0.0
 20
0.0
 30
0.0
  9
$UCSORGRIGHT
 10
0.0
 20
0.0
 30
0.0
  9
$UCSORGFRONT
 10
0.0
 20
0.0
 30
0.0
  9
$UCSORGBACK
 10
0.0
 20
0.0
 30
0.0
  9
$PUCSBASE
  2

  9
$PUCSNAME
  2

  9
$PUCSORG
 10
0.0
 20
0.0
 30
0.0
  9
$PUCSXDIR
 10
1.0
 20
0.0
 30
0.0
  9
$PUCSYDIR
 10
0.0
 20
1.0
 30
0.0
  9
$PUCSORTHOREF
  2

  9
$PUCSORTHOVIEW
 70
     0
  9
$PUCSORGTOP
 10
0.0
 20
0.0
 30
0.0
  9
$PUCSORGBOTTOM
 10
0.0
 20
0.0
 30
0.0
  9
$PUCSORGLEFT
 10
0.0
 20
0.0
 30
0.0
  9
$PUCSORGRIGHT
 10
0.0
 20
0.0
 30
0.0
  9
$PUCSORGFRONT
 10
0.0
 20
0.0
 30
0.0
  9
$PUCSORGBACK
 10
0.0
 20
0.0
 30
0.0
  9
$USERI1
 70
     0
  9
$USERI2
 70
     0
  9
$USERI3
 70
     0
  9
$USERI4
 70
     0
  9
$USERI5
 70
     0
  9
$USERR1
 40
0.0
  9
$USERR2
 40
0.0
  9
$USERR3
 40
0.0
  9
$USERR4
 40
0.0
  9
$USERR5
 40
0.0
  9
$WORLDVIEW
 70
     1
  9
$SHADEDGE
 70
     3
  9
$SHADEDIF
 70
    70
  9
$TILEMODE
 70
     1
  9
$MAXACTVP
 70
    64
  9
$PINSBASE
 10
0.0
 20
0.0
 30
0.0
  9
$PLIMCHECK
 70
     0
  9
$PEXTMIN
 10
100.0
 20
100.0
 30
100.0
  9
$PEXTMAX
 10
-100.0
 20
-100.0
 30
-100.0
  9
$PLIMMIN
 10
0.0
 20
0.0
  9
$PLIMMAX
 10
12.0
 20
9.0
  9
$UNITMODE
 70
     0
  9
$VISRETAIN
 70
     1
  9
$PLINEGEN
 70
     1
  9
$PSLTSCALE
 70
     1
  9
$TREEDEPTH
 70
  3020
  9
$CMLSTYLE
  2
STANDARD
  9
$CMLJUST
 70
     0
  9
$CMLSCALE
 40
1.0
  9
$PROXYGRAPHICS
 70
     1
  9
$MEASUREMENT
 70
     0
  9
$CELWEIGHT
370
    -1
  9
$ENDCAPS
280
     0
  9
$JOINSTYLE
280
     0
  9
$LWDISPLAY
290
     0
  9
$INSUNITS
 70
     0
  9
$HYPERLINKBASE
  1

  9
$STYLESHEET
  1

  9
$XEDIT
290
     1
  9
$CEPSNTYPE
380
     0
  9
$PSTYLEMODE
290
     1
  9
$FINGERPRINTGUID
  2
{CFE6C7D8-2622-4483-9C35-5CEC1779B279}
  9
$VERSIONGUID
  2
{1FD575CF-62DF-4FBD-BB28-33C0A8A0FB79}
  9
$EXTNAMES
290
     1
  9
$PSVPSCALE
 40
0.0
  9
$OLESTARTUP
290
     0
  0
ENDSEC
  0
SECTION
  2
CLASSES
  0
CLASS
  1
ACDBDICTIONARYWDFLT
  2
AcDbDictionaryWithDefault
  3
ObjectDBX Classes
 90
        0
280
     0
281
     0
  0
CLASS
  1
ACDBPLACEHOLDER
  2
AcDbPlaceHolder
  3
ObjectDBX Classes
 90
        0
280
     0
281
     0
  0
CLASS
  1
LAYOUT
  2
AcDbLayout
  3
ObjectDBX Classes
 90
        0
280
     0
281
     0
  0
CLASS
  1
TABLESTYLE
  2
AcDbTableStyle
  3
ObjectDBX Classes
 90
     2047
280
     0
281
     0
  0
CLASS
  1
DICTIONARYVAR
  2
AcDbDictionaryVar
  3
ObjectDBX Classes
 90
        0
280
     0
281
     0
  0
ENDSEC
  0
SECTION
  2
TABLES
  0
TABLE
  2
VPORT
  5
8
330
0
100
AcDbSymbolTable
 70
     2
  0
VPORT
  5
1BD6
330
8
100
AcDbSymbolTableRecord
100
AcDbViewportTableRecord
  2
*Active
 70
     0
 10
0.0
 20
0.0
 11
1.0
 21
1.0
 12
7.632970195517714
 22
-16.86734345992045
 13
0.0
 23
0.0
 14
1.0
 24
1.0
 15
0.0
 25
0.0
 16
0.0
 26
0.0
 36
1.0
 17
0.0
 27
0.0
 37
0.0
 40
96.82267621274483
 41
1.532401524777636
 42
50.0
 43
0.0
 44
0.0
 50
0.0
 51
0.0
 71
     0
 72
  1000
 73
     1
 74
     1
 75
     0
 76
     0
 77
     0
 78
     0
281
     0
 65
     1
110
0.0
120
0.0
130
0.0
111
1.0
121
0.0
131
0.0
112
0.0
122
1.0
132
0.0
 79
     0
146
0.0
  0
ENDTAB
  0
TABLE
  2
LTYPE
  5
5
330
0
100
AcDbSymbolTable
 70
     2
  0
LTYPE
  5
13
330
5
100
AcDbSymbolTableRecord
100
AcDbLinetypeTableRecord
  2
BYBLOCK
 70
     0
  3

 72
    65
 73
     0
 40
0.0
  0
LTYPE
  5
14
330
5
100
AcDbSymbolTableRecord
100
AcDbLinetypeTableRecord
  2
BYLAYER
 70
     0
  3

 72
    65
 73
     0
 40
0.0
  0
LTYPE
  5
15
330
5
100
AcDbSymbolTableRecord
100
AcDbLinetypeTableRecord
  2
CONTINUOUS
 70
     0
  3
Solid line
 72
    65
 73
     0
 40
0.0
  0
LTYPE
  5
2E
330
5
100
AcDbSymbolTableRecord
100
AcDbLinetypeTableRecord
  2
CENTER
 70
     0
  3
____ _ ____ _ ____ _ ____ _ ____ _ ____ _ ____
 72
    65
 73
     4
 40
0.6
 49
0.375
 74
     0
 49
-0.075
 74
     0
 49
0.075
 74
     0
 49
-0.075
 74
     0
  0
ENDTAB
  0
TABLE
  2
LAYER
  5
2
330
0
100
AcDbSymbolTable
 70
    11
  0
LAYER
  5
10
330
2
100
AcDbSymbolTableRecord
100
AcDbLayerTableRecord
  2
1
 70
     0
 62
     4
  6
CONTINUOUS
370
    -3
390
183A
  0
LAYER
  5
31
330
2
100
AcDbSymbolTableRecord
100
AcDbLayerTableRecord
  2
2
 70
     0
 62
     7
  6
CONTINUOUS
370
    -3
390
183A
  0
LAYER
  5
33
330
2
100
AcDbSymbolTableRecord
100
AcDbLayerTableRecord
  2
4
 70
     0
 62
     2
  6
CENTER
370
    -3
390
183A
  0
LAYER
  5
35
330
2
100
AcDbSymbolTableRecord
100
AcDbLayerTableRecord
  2
0
 70
     0
 62
     7
  6
CONTINUOUS
370
    -3
390
183A
  0
LAYER
  5
37
330
2
100
AcDbSymbolTableRecord
100
AcDbLayerTableRecord
  2
DEFPOINTS
 70
     0
 62
     7
  6
CONTINUOUS
290
     0
370
    -3
390
183A
  0
LAYER
  5
77D
330
2
100
AcDbSymbolTableRecord
100
AcDbLayerTableRecord
  2
SK1
 70
     0
 62
     4
  6
CONTINUOUS
370
    -3
390
183A
  0
LAYER
  5
77E
330
2
100
AcDbSymbolTableRecord
100
AcDbLayerTableRecord
  2
SK4
 70
     0
 62
     2
  6
CENTER
370
    -3
390
183A
  0
LAYER
  5
780
330
2
100
AcDbSymbolTableRecord
100
AcDbLayerTableRecord
  2
SK2
 70
     0
 62
     7
  6
CONTINUOUS
370
    -3
390
183A
  0
LAYER
  5
183D
330
2
100
AcDbSymbolTableRecord
100
AcDbLayerTableRecord
  2
CUT
 70
     0
 62
     1
  6
CONTINUOUS
370
    -3
390
183A
  0
LAYER
  5
189C
330
2
100
AcDbSymbolTableRecord
100
AcDbLayerTableRecord
  2
6
 70
     0
 62
     5
  6
CONTINUOUS
370
    -3
390
183A
  0
LAYER
  5
18A5
330
2
100
AcDbSymbolTableRecord
100
AcDbLayerTableRecord
  2
NOCUT
 70
     0
 62
     7
  6
CONTINUOUS
370
    -3
390
183A
  0
ENDTAB
  0
TABLE
  2
STYLE
  5
3
330
0
100
AcDbSymbolTable
 70
     1
  0
STYLE
  5
11
330
3
100
AcDbSymbolTableRecord
100
AcDbTextStyleTableRecord
  2
STANDARD
 70
     0
 40
0.0
 41
0.8
 50
0.0
 71
     0
 42
0.2
  3
isocp.shx
  4

  0
ENDTAB
  0
TABLE
  2
VIEW
  5
6
330
0
100
AcDbSymbolTable
 70
     0
  0
ENDTAB
  0
TABLE
  2
UCS
  5
7
330
0
100
AcDbSymbolTable
 70
     0
  0
ENDTAB
  0
TABLE
  2
APPID
  5
9
330
0
100
AcDbSymbolTable
 70
     1
  0
APPID
  5
12
330
9
100
AcDbSymbolTableRecord
100
AcDbRegAppTableRecord
  2
ACAD
 70
     0
  0
ENDTAB
  0
TABLE
  2
DIMSTYLE
  5
A
330
0
100
AcDbSymbolTable
 70
     2
100
AcDbDimStyleTable
 71
     0
  0
DIMSTYLE
105
30
330
A
100
AcDbSymbolTableRecord
100
AcDbDimStyleTableRecord
  2
STANDARD
 70
     0
284
     8
285
     8
286
     8
340
11
  0
DIMSTYLE
105
782
102
{ACAD_REACTORS
330
73A
330
73B
330
738
330
73C
330
73D
102
}
330
A
100
AcDbSymbolTableRecord
100
AcDbDimStyleTableRecord
  2
ISO-25
 70
     0
 41
2.5
 42
0.625
 43
3.75
 44
1.25
 73
     0
 74
     0
 77
     1
 78
     8
140
2.5
141
2.5
143
0.03937007874016
147
0.625
171
     3
172
     1
271
     2
272
     2
274
     3
283
     0
284
     8
340
11
  0
ENDTAB
  0
TABLE
  2
BLOCK_RECORD
  5
1
330
0
100
AcDbSymbolTable
 70
     6
  0
BLOCK_RECORD
  5
1E
102
{ACAD_XDICTIONARY
360
E28
102
}
330
1
100
AcDbSymbolTableRecord
100
AcDbBlockTableRecord
  2
*MODEL_SPACE
340
183B
  0
BLOCK_RECORD
  5
1A
102
{ACAD_XDICTIONARY
360
E26
102
}
330
1
100
AcDbSymbolTableRecord
100
AcDbBlockTableRecord
  2
*PAPER_SPACE
340
183C
  0
BLOCK_RECORD
  5
23
330
1
100
AcDbSymbolTableRecord
100
AcDbBlockTableRecord
  2
_FILLED
340
0
  0
BLOCK_RECORD
  5
A5E
330
1
100
AcDbSymbolTableRecord
100
AcDbBlockTableRecord
  2
*D1
340
0
  0
BLOCK_RECORD
  5
A6A
330
1
100
AcDbSymbolTableRecord
100
AcDbBlockTableRecord
  2
*D2
340
0
  0
BLOCK_RECORD
  5
A76
330
1
100
AcDbSymbolTableRecord
100
AcDbBlockTableRecord
  2
*D3
340
0
  0
BLOCK_RECORD
  5
A82
330
1
100
AcDbSymbolTableRecord
100
AcDbBlockTableRecord
  2
*D4
340
0
  0
BLOCK_RECORD
  5
A8E
330
1
100
AcDbSymbolTableRecord
100
AcDbBlockTableRecord
  2
*D5
340
0
  0
ENDTAB
  0
ENDSEC
  0
SECTION
  2
BLOCKS
  0
BLOCK
  5
3A
330
1E
100
AcDbEntity
  8
0
100
AcDbBlockBegin
  2
*MODEL_SPACE
 70
     0
 10
0.0
 20
0.0
 30
0.0
  3
*MODEL_SPACE
  1

  0
ENDBLK
  5
3B
330
1E
100
AcDbEntity
  8
0
100
AcDbBlockEnd
  0
BLOCK
  5
38
330
1A
100
AcDbEntity
 67
     1
  8
0
100
AcDbBlockBegin
  2
*PAPER_SPACE
 70
     0
 10
0.0
 20
0.0
 30
0.0
  3
*PAPER_SPACE
  1

  0
ENDBLK
  5
39
330
1A
100
AcDbEntity
 67
     1
  8
0
100
AcDbBlockEnd
  0
BLOCK
  5
3E
330
23
100
AcDbEntity
  8
0
100
AcDbBlockBegin
  2
_FILLED
 70
     0
 10
0.0
 20
0.0
 30
0.0
  3
_FILLED
  1

  0
SOLID
  5
3F
330
23
100
AcDbEntity
  8
0
  6
ByBlock
 62
     0
100
AcDbTrace
 10
0.0
 20
0.0
 30
0.0
 11
-1.0
 21
0.132
 31
0.0
 12
-1.0
 22
-0.132
 32
0.0
 13
-1.0
 23
-0.132
 33
0.0
  0
ENDBLK
  5
40
330
23
100
AcDbEntity
  8
0
100
AcDbBlockEnd
  0
BLOCK
  5
A68
330
A5E
100
AcDbEntity
  8
0
100
AcDbBlockBegin
  2
*D1
 70
     1
 10
0.0
 20
0.0
 30
0.0
  3
*D1
  1

  0
LINE
  5
186F
330
A5E
100
AcDbEntity
  8
SK2
 62
     0
370
    -2
100
AcDbLine
 10
-48.0
 20
-1.249999999999994
 30
0.0
 11
-48.0
 21
-44.24999999999999
 31
0.0
  0
LINE
  5
1870
330
A5E
100
AcDbEntity
  8
SK2
 62
     0
370
    -2
100
AcDbLine
 10
61.0
 20
-3.451345701515112
 30
0.0
 11
61.0
 21
-44.24999999999999
 31
0.0
  0
LINE
  5
1871
330
A5E
100
AcDbEntity
  8
SK2
 62
     0
370
    -2
100
AcDbLine
 10
-45.49999999999999
 20
-43.0
 30
0.0
 11
58.5
 21
-43.0
 31
0.0
  0
SOLID
  5
1872
330
A5E
100
AcDbEntity
  8
SK2
 62
     0
100
AcDbTrace
 10
-45.49999999999999
 20
-42.58333333333331
 30
0.0
 11
-45.49999999999999
 21
-43.41666666666665
 31
0.0
 12
-48.0
 22
-43.0
 32
0.0
 13
-48.0
 23
-43.0
 33
0.0
  0
SOLID
  5
1873
330
A5E
100
AcDbEntity
  8
SK2
 62
     0
100
AcDbTrace
 10
58.5
 20
-42.58333333333331
 30
0.0
 11
58.5
 21
-43.41666666666665
 31
0.0
 12
61.0
 22
-43.0
 32
0.0
 13
61.0
 23
-43.0
 33
0.0
  0
MTEXT
  5
1874
330
A5E
100
AcDbEntity
  8
SK2
 62
     0
100
AcDbMText
 10
6.499999999999992
 20
-41.12499999999999
 30
0.0
 40
2.5
 41
0.0
 71
     5
 72
     1
  1
109
 73
     1
 44
1.0
1001
ACAD
1000
MTEXTBEGIN
1070
    73
1070
     1
1070
    44
1040
1.0
1070
    74
1070
     0
1000
MTEXTEND
  0
POINT
  5
1875
330
A5E
100
AcDbEntity
  8
DEFPOINTS
 62
     0
100
AcDbPoint
 10
-48.0
 20
-0.6249999999999945
 30
0.0
  0
POINT
  5
1876
330
A5E
100
AcDbEntity
  8
DEFPOINTS
 62
     0
100
AcDbPoint
 10
61.0
 20
-2.826345701515112
 30
0.0
  0
POINT
  5
1877
330
A5E
100
AcDbEntity
  8
DEFPOINTS
 62
     0
100
AcDbPoint
 10
61.0
 20
-43.0
 30
0.0
  0
ENDBLK
  5
A69
330
A5E
100
AcDbEntity
  8
0
100
AcDbBlockEnd
  0
BLOCK
  5
A74
330
A6A
100
AcDbEntity
  8
0
100
AcDbBlockBegin
  2
*D2
 70
     1
 10
0.0
 20
0.0
 30
0.0
  3
*D2
  1

  0
LINE
  5
1893
330
A6A
100
AcDbEntity
  8
2
 62
     0
370
    -2
100
AcDbLine
 10
41.18357573499998
 20
-5.875000000000002
 30
0.0
 11
41.18357573499998
 21
-24.25
 31
0.0
  0
LINE
  5
1894
330
A6A
100
AcDbEntity
  8
2
 62
     0
370
    -2
100
AcDbLine
 10
61.0
 20
-4.076345701515113
 30
0.0
 11
61.0
 21
-24.25
 31
0.0
  0
LINE
  5
1895
330
A6A
100
AcDbEntity
  8
2
 62
     0
370
    -2
100
AcDbLine
 10
43.68357573499998
 20
-23.0
 30
0.0
 11
58.5
 21
-23.0
 31
0.0
  0
SOLID
  5
1896
330
A6A
100
AcDbEntity
  8
2
 62
     0
100
AcDbTrace
 10
43.68357573499998
 20
-22.58333333333332
 30
0.0
 11
43.68357573499998
 21
-23.41666666666666
 31
0.0
 12
41.18357573499998
 22
-23.0
 32
0.0
 13
41.18357573499998
 23
-23.0
 33
0.0
  0
SOLID
  5
1897
330
A6A
100
AcDbEntity
  8
2
 62
     0
100
AcDbTrace
 10
58.5
 20
-22.58333333333332
 30
0.0
 11
58.5
 21
-23.41666666666666
 31
0.0
 12
61.0
 22
-23.0
 32
0.0
 13
61.0
 23
-23.0
 33
0.0
  0
MTEXT
  5
1898
330
A6A
100
AcDbEntity
  8
2
 62
     0
100
AcDbMText
 10
51.09178786749999
 20
-21.125
 30
0.0
 40
2.5
 41
0.0
 71
     5
 72
     1
  1
20
 73
     1
 44
1.0
1001
ACAD
1000
MTEXTBEGIN
1070
    73
1070
     1
1070
    44
1040
1.0
1070
    74
1070
     0
1000
MTEXTEND
  0
POINT
  5
1899
330
A6A
100
AcDbEntity
  8
DEFPOINTS
 62
     0
100
AcDbPoint
 10
41.18357573499998
 20
-5.250000000000004
 30
0.0
  0
POINT
  5
189A
330
A6A
100
AcDbEntity
  8
DEFPOINTS
 62
     0
100
AcDbPoint
 10
61.0
 20
-3.451345701515112
 30
0.0
  0
POINT
  5
189B
330
A6A
100
AcDbEntity
  8
DEFPOINTS
 62
     0
100
AcDbPoint
 10
61.0
 20
-23.0
 30
0.0
  0
ENDBLK
  5
A75
330
A6A
100
AcDbEntity
  8
0
100
AcDbBlockEnd
  0
BLOCK
  5
A80
330
A76
100
AcDbEntity
  8
0
100
AcDbBlockBegin
  2
*D3
 70
     1
 10
0.0
 20
0.0
 30
0.0
  3
*D3
  1

  0
LINE
  5
1881
330
A76
100
AcDbEntity
  8
SK2
 62
     0
370
    -2
100
AcDbLine
 10
-23.99999999999999
 20
-0.6249999999999975
 30
0.0
 11
-23.99999999999999
 21
-34.25
 31
0.0
  0
LINE
  5
1882
330
A76
100
AcDbEntity
  8
SK2
 62
     0
370
    -2
100
AcDbLine
 10
61.0
 20
-3.451345701515112
 30
0.0
 11
61.0
 21
-34.25
 31
0.0
  0
LINE
  5
1883
330
A76
100
AcDbEntity
  8
SK2
 62
     0
370
    -2
100
AcDbLine
 10
-21.49999999999999
 20
-33.0
 30
0.0
 11
58.5
 21
-33.0
 31
0.0
  0
SOLID
  5
1884
330
A76
100
AcDbEntity
  8
SK2
 62
     0
100
AcDbTrace
 10
-21.49999999999999
 20
-32.58333333333332
 30
0.0
 11
-21.49999999999999
 21
-33.41666666666665
 31
0.0
 12
-23.99999999999999
 22
-33.0
 32
0.0
 13
-23.99999999999999
 23
-33.0
 33
0.0
  0
SOLID
  5
1885
330
A76
100
AcDbEntity
  8
SK2
 62
     0
100
AcDbTrace
 10
58.5
 20
-32.58333333333332
 30
0.0
 11
58.5
 21
-33.41666666666665
 31
0.0
 12
61.0
 22
-33.0
 32
0.0
 13
61.0
 23
-33.0
 33
0.0
  0
MTEXT
  5
1886
330
A76
100
AcDbEntity
  8
SK2
 62
     0
100
AcDbMText
 10
18.49999999999998
 20
-31.125
 30
0.0
 40
2.5
 41
0.0
 71
     5
 72
     1
  1
85
 73
     1
 44
1.0
1001
ACAD
1000
MTEXTBEGIN
1070
    73
1070
     1
1070
    44
1040
1.0
1070
    74
1070
     0
1000
MTEXTEND
  0
POINT
  5
1887
330
A76
100
AcDbEntity
  8
DEFPOINTS
 62
     0
100
AcDbPoint
 10
-23.99999999999999
 20
0.0000000000000029
 30
0.0
  0
POINT
  5
1888
330
A76
100
AcDbEntity
  8
DEFPOINTS
 62
     0
100
AcDbPoint
 10
61.0
 20
-2.826345701515112
 30
0.0
  0
POINT
  5
1889
330
A76
100
AcDbEntity
  8
DEFPOINTS
 62
     0
100
AcDbPoint
 10
61.0
 20
-33.0
 30
0.0
  0
ENDBLK
  5
A81
330
A76
100
AcDbEntity
  8
0
100
AcDbBlockEnd
  0
BLOCK
  5
A8C
330
A82
100
AcDbEntity
  8
0
100
AcDbBlockBegin
  2
*D4
 70
     1
 10
0.0
 20
0.0
 30
0.0
  3
*D4
  1

  0
LINE
  5
18CA
330
A82
100
AcDbEntity
  8
2
 62
     0
370
    -2
100
AcDbLine
 10
57.21195789696949
 20
5.999999999999992
 30
0.0
 11
77.25739173214518
 21
5.999999999999986
 31
0.0
  0
LINE
  5
18CB
330
A82
100
AcDbEntity
  8
2
 62
     0
370
    -2
100
AcDbLine
 10
60.32087471799999
 20
-6.000000000000007
 30
0.0
 11
77.25739173214518
 21
-6.000000000000013
 31
0.0
  0
LINE
  5
18CC
330
A82
100
AcDbEntity
  8
2
 62
     0
370
    -2
100
AcDbLine
 10
76.00739173214518
 20
3.499999999999986
 30
0.0
 11
76.00739173214518
 21
-3.500000000000011
 31
0.0
  0
SOLID
  5
18CD
330
A82
100
AcDbEntity
  8
2
 62
     0
100
AcDbTrace
 10
75.59072506547851
 20
3.499999999999986
 30
0.0
 11
76.42405839881185
 21
3.499999999999986
 31
0.0
 12
76.00739173214518
 22
5.999999999999986
 32
0.0
 13
76.00739173214518
 23
5.999999999999986
 33
0.0
  0
SOLID
  5
18CE
330
A82
100
AcDbEntity
  8
2
 62
     0
100
AcDbTrace
 10
75.59072506547851
 20
-3.500000000000011
 30
0.0
 11
76.42405839881185
 21
-3.500000000000011
 31
0.0
 12
76.00739173214518
 22
-6.000000000000013
 32
0.0
 13
76.00739173214518
 23
-6.000000000000013
 33
0.0
  0
MTEXT
  5
18CF
330
A82
100
AcDbEntity
  8
2
 62
     0
100
AcDbMText
 10
74.13239173214518
 20
-0.000000000000002
 30
0.0
 40
2.5
 41
0.0
 71
     5
 72
     1
  1
%%c12
 11
0.0000000000000001
 21
1.0
 31
0.0
 73
     1
 44
1.0
1001
ACAD
1000
MTEXTBEGIN
1070
    73
1070
     1
1070
    44
1040
1.0
1070
    74
1070
     0
1000
MTEXTEND
  0
POINT
  5
18D0
330
A82
100
AcDbEntity
  8
DEFPOINTS
 62
     0
100
AcDbPoint
 10
56.58695789696949
 20
5.999999999999992
 30
0.0
  0
POINT
  5
18D1
330
A82
100
AcDbEntity
  8
DEFPOINTS
 62
     0
100
AcDbPoint
 10
59.69587471799999
 20
-6.000000000000007
 30
0.0
  0
POINT
  5
18D2
330
A82
100
AcDbEntity
  8
DEFPOINTS
 62
     0
100
AcDbPoint
 10
76.00739173214518
 20
-6.000000000000013
 30
0.0
  0
ENDBLK
  5
A8D
330
A82
100
AcDbEntity
  8
0
100
AcDbBlockEnd
  0
BLOCK
  5
A98
330
A8E
100
AcDbEntity
  8
0
100
AcDbBlockBegin
  2
*D5
 70
     1
 10
0.0
 20
0.0
 30
0.0
  3
*D5
  1

  0
LINE
  5
1878
330
A8E
100
AcDbEntity
  8
SK2
 62
     0
370
    -2
100
AcDbLine
 10
-47.82499999999997
 20
-7.999999999999992
 30
0.0
 11
-64.29701208434838
 21
-7.999999999999985
 31
0.0
  0
LINE
  5
1879
330
A8E
100
AcDbEntity
  8
SK2
 62
     0
370
    -2
100
AcDbLine
 10
-47.82499999999997
 20
8.000000000000005
 30
0.0
 11
-64.29701208434838
 21
8.000000000000008
 31
0.0
  0
LINE
  5
187A
330
A8E
100
AcDbEntity
  8
SK2
 62
     0
370
    -2
100
AcDbLine
 10
-63.04701208434838
 20
-5.499999999999985
 30
0.0
 11
-63.04701208434838
 21
5.500000000000007
 31
0.0
  0
SOLID
  5
187B
330
A8E
100
AcDbEntity
  8
SK2
 62
     0
100
AcDbTrace
 10
-63.46367875101504
 20
-5.499999999999985
 30
0.0
 11
-62.63034541768172
 21
-5.499999999999985
 31
0.0
 12
-63.04701208434838
 22
-7.999999999999985
 32
0.0
 13
-63.04701208434838
 23
-7.999999999999985
 33
0.0
  0
SOLID
  5
187C
330
A8E
100
AcDbEntity
  8
SK2
 62
     0
100
AcDbTrace
 10
-63.46367875101504
 20
5.500000000000007
 30
0.0
 11
-62.63034541768172
 21
5.500000000000007
 31
0.0
 12
-63.04701208434838
 22
8.000000000000008
 32
0.0
 13
-63.04701208434838
 23
8.000000000000008
 33
0.0
  0
MTEXT
  5
187D
330
A8E
100
AcDbEntity
  8
SK2
 62
     0
100
AcDbMText
 10
-64.92201208434839
 20
0.0000000000000001
 30
0.0
 40
2.5
 41
0.0
 71
     5
 72
     1
  1
%%c16
 11
0.0000000000000001
 21
1.0
 31
0.0
 73
     1
 44
1.0
1001
ACAD
1000
MTEXTBEGIN
1070
    73
1070
     1
1070
    44
1040
1.0
1070
    74
1070
     0
1000
MTEXTEND
  0
POINT
  5
187E
330
A8E
100
AcDbEntity
  8
DEFPOINTS
 62
     0
100
AcDbPoint
 10
-47.19999999999997
 20
-7.999999999999992
 30
0.0
  0
POINT
  5
187F
330
A8E
100
AcDbEntity
  8
DEFPOINTS
 62
     0
100
AcDbPoint
 10
-47.19999999999997
 20
8.000000000000005
 30
0.0
  0
POINT
  5
1880
330
A8E
100
AcDbEntity
  8
DEFPOINTS
 62
     0
100
AcDbPoint
 10
-63.04701208434838
 20
8.000000000000008
 30
0.0
  0
ENDBLK
  5
A99
330
A8E
100
AcDbEntity
  8
0
100
AcDbBlockEnd
  0
ENDSEC
  0
SECTION
  2
ENTITIES
  0
LINE
  5
88
330
1E
100
AcDbEntity
  8
1
100
AcDbLine
 10
60.49999999999999
 20
-2.756135228399956
 30
0.0
 11
60.49999999999999
 21
-2.548811936699963
 31
0.0
  0
LINE
  5
89
330
1E
100
AcDbEntity
  8
1
100
AcDbLine
 10
58.99999999999999
 20
0.1588573700000138
 30
0.0
 11
58.99999999999999
 21
0.0973093067000192
 31
0.0
  0
LINE
  5
8A
330
1E
100
AcDbEntity
  8
SK1
100
AcDbLine
 10
0.0000000000000009
 20
8.0
 30
0.0
 11
-47.19999999999997
 21
8.000000000000005
 31
0.0
  0
LINE
  5
8B
330
1E
100
AcDbEntity
  8
1
100
AcDbLine
 10
6.816424268499987
 20
7.749999999999999
 30
0.0
 11
0.2500000000000009
 21
7.75
 31
0.0
  0
LINE
  5
8C
330
1E
100
AcDbEntity
  8
1
100
AcDbLine
 10
7.183081481199959
 20
7.736538126400031
 30
0.0
 11
6.816424265099947
 21
7.749999999999999
 31
0.0
  0
LINE
  5
8D
330
1E
100
AcDbEntity
  8
1
100
AcDbLine
 10
40.81691853489996
 20
5.263461872400052
 30
0.0
 11
7.183081481199959
 21
7.736538126400031
 31
0.0
  0
LINE
  5
8E
330
1E
100
AcDbEntity
  8
1
100
AcDbLine
 10
47.60928765209999
 20
5.249999999999993
 30
0.0
 11
41.18357573499998
 21
5.249999999999993
 31
0.0
  0
LINE
  5
8F
330
1E
100
AcDbEntity
  8
1
100
AcDbLine
 10
55.7754855378999
 20
5.247344046300033
 30
0.0
 11
47.82179969569999
 21
5.247344046300034
 31
0.0
  0
LINE
  5
90
330
1E
100
AcDbEntity
  8
SK1
100
AcDbLine
 10
-18.99999999999998
 20
5.055689863900002
 30
0.0
 11
-28.99999999999998
 21
5.055689863900003
 31
0.0
  0
LINE
  5
91
330
1E
100
AcDbEntity
  8
1
100
AcDbLine
 10
40.81691853489996
 20
5.263461872400052
 30
0.0
 11
41.18357573499998
 21
5.249999999999993
 31
0.0
  0
LINE
  5
92
330
1E
100
AcDbEntity
  8
1
100
AcDbLine
 10
57.50439999999999
 20
0.2887668824000609
 30
0.0
 11
55.00439999999999
 21
0.2887668824000612
 31
0.0
  0
LINE
  5
93
330
1E
100
AcDbEntity
  8
4
100
AcDbLine
 10
62.92664982022121
 20
-0.0000000000000089
 30
0.0
 11
0.0
 21
0.0
 31
0.0
  0
LINE
  5
94
330
1E
100
AcDbEntity
  8
1
100
AcDbLine
 10
-0.0000000000000009
 20
-8.0
 30
0.0
 11
0.0000000000000009
 21
8.0
 31
0.0
  0
LINE
  5
95
330
1E
100
AcDbEntity
  8
1
100
AcDbLine
 10
40.81691853489996
 20
-5.263461872399945
 30
0.0
 11
7.183081481199955
 21
-7.736538126399977
 31
0.0
  0
LINE
  5
96
330
1E
100
AcDbEntity
  8
1
100
AcDbLine
 10
40.81691853489996
 20
-5.263461872399945
 30
0.0
 11
41.18357573499998
 21
-5.250000000000004
 31
0.0
  0
LINE
  5
97
330
1E
100
AcDbEntity
  8
1
100
AcDbLine
 10
7.183081481199955
 20
-7.736538126399977
 30
0.0
 11
6.816424265099946
 21
-7.75
 31
0.0
  0
LINE
  5
98
330
1E
100
AcDbEntity
  8
SK1
100
AcDbLine
 10
-18.99999999999998
 20
-5.055689863899936
 30
0.0
 11
-28.99999999999998
 21
-5.055689863899936
 31
0.0
  0
LINE
  5
99
330
1E
100
AcDbEntity
  8
1
100
AcDbLine
 10
56.1619926289
 20
-5.250000000000006
 30
0.0
 11
41.18357573499998
 21
-5.250000000000004
 31
0.0
  0
LINE
  5
9A
330
1E
100
AcDbEntity
  8
1
100
AcDbLine
 10
6.816424268499986
 20
-7.75
 30
0.0
 11
0.2499999999999991
 21
-7.75
 31
0.0
  0
LINE
  5
9B
330
1E
100
AcDbEntity
  8
SK1
100
AcDbLine
 10
-0.0000000000000009
 20
-8.0
 30
0.0
 11
-47.19999999999997
 21
-7.999999999999992
 31
0.0
  0
LINE
  5
9C
330
1E
100
AcDbEntity
  8
SK1
100
AcDbLine
 10
-18.99999999999998
 20
5.055689863900002
 30
0.0
 11
-18.99999999999998
 21
-5.055689863899936
 31
0.0
  0
LINE
  5
9D
330
1E
100
AcDbEntity
  8
SK1
100
AcDbLine
 10
-28.99999999999998
 20
5.055689863900003
 30
0.0
 11
-28.99999999999998
 21
-5.055689863899936
 31
0.0
  0
LINE
  5
9E
330
1E
100
AcDbEntity
  8
SK1
100
AcDbLine
 10
-47.19999999999997
 20
8.000000000000005
 30
0.0
 11
-48.0
 21
7.200000000000046
 31
0.0
  0
LINE
  5
9F
330
1E
100
AcDbEntity
  8
SK1
100
AcDbLine
 10
-47.19999999999997
 20
-7.999999999999992
 30
0.0
 11
-48.0
 21
-7.199999999999982
 31
0.0
  0
LINE
  5
A0
330
1E
100
AcDbEntity
  8
SK1
100
AcDbLine
 10
-47.19999999999997
 20
8.000000000000005
 30
0.0
 11
-47.19999999999997
 21
-7.999999999999992
 31
0.0
  0
LINE
  5
A1
330
1E
100
AcDbEntity
  8
SK1
100
AcDbLine
 10
-48.0
 20
7.200000000000046
 30
0.0
 11
-48.0
 21
-7.199999999999982
 31
0.0
  0
CIRCLE
  5
B2
330
1E
100
AcDbEntity
  8
1
100
AcDbCircle
 10
58.00439999999999
 20
-2.988766882399944
 30
0.0
 40
0.9956799999999999
  0
ARC
  5
B3
330
1E
100
AcDbEntity
  8
1
100
AcDbCircle
 10
58.00439999999999
 20
2.988766882400053
 30
0.0
 40
3.0
100
AcDbArc
 50
282.4233640111998
 51
244.1609842491001
  0
CIRCLE
  5
B4
330
1E
100
AcDbEntity
  8
1
100
AcDbCircle
 10
58.00439999999999
 20
2.988766882400053
 30
0.0
 40
1.9
  0
ARC
  5
B5
330
1E
100
AcDbEntity
  8
1
100
AcDbCircle
 10
58.00439999999999
 20
-2.988766882399944
 30
0.0
 40
3.0
100
AcDbArc
 50
229.0909090908999
 51
66.49721315679987
  0
ARC
  5
B8
330
1E
100
AcDbEntity
  8
1
100
AcDbCircle
 10
55.00439999999999
 20
8.288766882400061
 30
0.0
 40
8.0
100
AcDbArc
 50
202.4235924422999
 51
270.0
  0
ARC
  5
B9
330
1E
100
AcDbEntity
  8
1
100
AcDbCircle
 10
58.00439999999999
 20
-2.988766882399944
 30
0.0
 40
2.6536977133
100
AcDbArc
 50
230.9849072757
 51
233.6571219189
  0
ARC
  5
BA
330
1E
100
AcDbEntity
  8
1
100
AcDbCircle
 10
57.50439999999999
 20
-2.711233117599935
 30
0.0
 40
3.0
100
AcDbArc
 50
3.10353348749996
 51
90.0
  0
ARC
  5
BB
330
1E
100
AcDbEntity
  8
1
100
AcDbCircle
 10
57.50439999999999
 20
2.711233117600031
 30
0.0
 40
3.011547284899998
100
AcDbArc
 50
298.6613360726
 51
299.7767499010998
  0
ARC
  5
BC
330
1E
100
AcDbEntity
  8
1
100
AcDbCircle
 10
58.00439999999999
 20
-2.988766882399944
 30
0.0
 40
3.2
100
AcDbArc
 50
72.83435082270002
 51
75.103766924
  0
ARC
  5
BE
330
1E
100
AcDbEntity
  8
1
100
AcDbCircle
 10
0.2500000000000009
 20
8.0
 30
0.0
 40
0.25
100
AcDbArc
 50
180.0
 51
270.0
  0
ARC
  5
BF
330
1E
100
AcDbEntity
  8
1
100
AcDbCircle
 10
0.2499999999999991
 20
-8.0
 30
0.0
 40
0.25
100
AcDbArc
 50
90.0
 51
180.0
  0
ARC
  5
C0
330
1E
100
AcDbEntity
  8
1
100
AcDbCircle
 10
57.50439999999999
 20
2.711233117600031
 30
0.0
 40
3.0
100
AcDbArc
 50
295.3004419988999
 51
298.1233546189999
  0
ARC
  5
C2
330
1E
100
AcDbEntity
  8
1
100
AcDbCircle
 10
57.50439999999999
 20
2.711233117600031
 30
0.0
 40
3.0
100
AcDbArc
 50
300.6920566631998
 51
304.4557972233
  0
ARC
  5
C3
330
1E
100
AcDbEntity
  8
1
100
AcDbCircle
 10
58.00439999999999
 20
2.988766882400053
 30
0.0
 40
3.173205080799998
100
AcDbArc
 50
134.6212755336997
 51
231.9847600371998
  0
LWPOLYLINE
  5
3D5
330
1E
100
AcDbEntity
  8
1
100
AcDbPolyline
 90
      130
 70
     0
 43
0.0
 10
56.3338307262
 20
-5.050637357199954
 10
56.33356005335361
 20
-5.050412878983753
 10
56.3332926659347
 20
-5.050180799834166
 10
56.3330286848077
 20
-5.049941344158237
 10
56.3327682308372
 20
-5.049694736362976
 10
56.33251142488759
 20
-5.049441200855417
 10
56.33225838782329
 20
-5.049180962042591
 10
56.332009240509
 20
-5.048914244331537
 10
56.3317641038091
 20
-5.048641272129275
 10
56.3315230985882
 20
-5.048362269842844
 10
56.3312863457106
 20
-5.048077461879254
 10
56.3310539660409
 20
-5.047787072645565
 10
56.33075113815078
 20
-5.047391592888896
 10
56.33045658621639
 20
-5.046987121747867
 10
56.33017059673129
 20
-5.046574191150216
 10
56.32989345618909
 20
-5.046153333023744
 10
56.3296254510834
 20
-5.045725079296214
 10
56.3294306147282
 20
-5.045399355625176
 10
56.32924119907329
 20
-5.045069995544956
 10
56.329057324983
 20
-5.044737223462565
 10
56.32887911332201
 20
-5.044401263785044
 10
56.3287066849546
 20
-5.044062340919423
 10
56.32854016074549
 20
-5.043720679272737
 10
56.32837966155911
 20
-5.043376503252003
 10
56.3282253082599
 20
-5.043030037264266
 10
56.32807722171239
 20
-5.042681505716535
 10
56.32793552278109
 20
-5.042331133015863
 10
56.3278003323305
 20
-5.041979143569267
 10
56.32767177122509
 20
-5.041625761783777
 10
56.32754996032939
 20
-5.041271212066424
 10
56.32743502050779
 20
-5.040915718824237
 10
56.32732707262499
 20
-5.040559506464256
 10
56.32722623754529
 20
-5.040202799393495
 10
56.32713263613329
 20
-5.039845822018997
 10
56.3270463892536
 20
-5.039488798747775
 10
56.32696761777039
 20
-5.039131953986877
 10
56.3268964425485
 20
-5.038775512143326
 10
56.32683298445221
 20
-5.038419697624143
 10
56.32677736434612
 20
-5.038064734836375
 10
56.3267297030947
 20
-5.037710848187043
 10
56.32669012156239
 20
-5.037358262083174
 10
56.32665874061379
 20
-5.037007200931806
 10
56.32663568111339
 20
-5.036657889139957
 10
56.3266210639256
 20
-5.036310551114666
 10
56.326615009915
 20
-5.035965411262964
 10
56.326617639946
 20
-5.035622693991876
 10
56.32662907488318
 20
-5.035282623708424
 10
56.32664943559099
 20
-5.034945424819658
 10
56.326678842934
 20
-5.034611321732586
 10
56.32671741777659
 20
-5.034280538854255
 10
56.32676528098329
 20
-5.033953300591693
 10
56.32682252944078
 20
-5.033629807329673
 10
56.3268890930011
 20
-5.033310092109924
 10
56.32696483045608
 20
-5.032994116782511
 10
56.3270496003362
 20
-5.032681842935714
 10
56.32714326117199
 20
-5.032373232157834
 10
56.32724567149399
 20
-5.032068246037175
 10
56.32735668983268
 20
-5.031766846162011
 10
56.32747617471871
 20
-5.031468994120665
 10
56.32760398468239
 20
-5.031174651501417
 10
56.32773997825439
 20
-5.030883779892555
 10
56.32788401396521
 20
-5.030596340882397
 10
56.3280359503452
 20
-5.030312296059213
 10
56.32819564592509
 20
-5.030031607011323
 10
56.32836295923539
 20
-5.029754235327017
 10
56.3285377488065
 20
-5.029480142594577
 10
56.32871987316889
 20
-5.029209290402316
 10
56.32890919085329
 20
-5.028941640338511
 10
56.32910556039
 20
-5.028677153991471
 10
56.32930884030971
 20
-5.028415792949495
 10
56.32951888914289
 20
-5.028157518800867
 10
56.3297355654199
 20
-5.027902293133893
 10
56.32995872767149
 20
-5.027650077536853
 10
56.3301882344281
 20
-5.027400833598066
 10
56.33042394422009
 20
-5.027154522905813
 10
56.3306657155782
 20
-5.026911107048393
 10
56.33091340703291
 20
-5.026670547614106
 10
56.3311668771146
 20
-5.026432806191221
 10
56.33142598435389
 20
-5.026197844368076
 10
56.33169058728128
 20
-5.025965623732947
 10
56.33196054442729
 20
-5.025736105874127
 10
56.332328571558
 20
-5.025434219990462
 10
56.3327055304632
 20
-5.025136979705025
 10
56.33309108580781
 20
-5.024844293967855
 10
56.33348490225689
 20
-5.024556071728965
 10
56.33388664447511
 20
-5.024272221938414
 10
56.3342959771277
 20
-5.023992653546224
 10
56.33471256487929
 20
-5.023717275502423
 10
56.3351360723951
 20
-5.023445996757057
 10
56.33556616433981
 20
-5.023178726260157
 10
56.33611252776201
 20
-5.022850136029495
 10
56.3366680004422
 20
-5.022527488589525
 10
56.33723192742909
 20
-5.022210606108287
 10
56.33780365377131
 20
-5.021899310753815
 10
56.3384990983596
 20
-5.021532880948353
 10
56.3392036991339
 20
-5.021173933233787
 10
56.34003579589109
 20
-5.020764207469674
 10
56.34099783223528
 20
-5.020307281480445
 10
56.341969104207
 20
-5.019861744936827
 10
56.34306948438439
 20
-5.019373223328933
 10
56.3441743384592
 20
-5.018897157491243
 10
56.3454025554736
 20
-5.018381542647307
 10
56.34674827358549
 20
-5.017828950534394
 10
56.34820356177788
 20
-5.017241716148346
 10
56.3496446902124
 20
-5.016670054785316
 10
56.3511907283627
 20
-5.016067876357497
 10
56.35272182351899
 20
-5.015483021019083
 10
56.35423884671459
 20
-5.014914992907684
 10
56.35585782581229
 20
-5.014321520177563
 10
56.3574625828586
 20
-5.013746368644785
 10
56.3591674192641
 20
-5.013149762161153
 10
56.36085851626838
 20
-5.012572714973237
 10
56.3626487168237
 20
-5.011977898402164
 10
56.3644264313392
 20
-5.011403544809707
 10
56.36630338842291
 20
-5.010814681423806
 10
56.3682795539466
 20
-5.010213988223275
 10
56.3703555162063
 20
-5.009603947355603
 10
56.3725325929685
 20
-5.008986782197987
 10
56.37492145112869
 20
-5.008335375694135
 10
56.37752521213421
 20
-5.007654836994433
 10
56.38045825899999
 20
-5.006922976160627
 10
56.3838405558735
 20
-5.006121207818534
 10
56.3876923910961
 20
-5.005257388574893
 10
56.39058612129299
 20
-5.004638635369475
 10
56.3936251706121
 20
-5.004013281105565
 10
56.3973800158754
 20
-5.003272650921156
 10
56.4029005676998
 20
-5.002243098961907
 10
56.40834595044051
 20
-5.001291449497025
 10
56.41368423709288
 20
-5.000415870107377
 10
56.41737784167311
 20
-4.999841740048056
  0
LWPOLYLINE
  5
459
330
1E
100
AcDbEntity
  8
1
100
AcDbPolyline
 90
        6
 70
     0
 43
0.0
 10
56.4173877282
 20
-4.999840237299965
 10
56.42363427335239
 20
-4.998923709146356
 10
56.43032377546329
 20
-4.998011729095653
 10
56.43754963835621
 20
-4.997101379089365
 10
56.4454672666532
 20
-4.996185356986916
 10
56.44837799202059
 20
-4.995868384154674
  0
LWPOLYLINE
  5
461
330
1E
100
AcDbEntity
  8
1
100
AcDbPolyline
 90
       91
 70
     0
 43
0.0
 10
56.1648943531
 20
-5.250022629499996
 10
56.17234480269409
 20
-5.249988130347143
 10
56.17948448415901
 20
-5.249878231030985
 10
56.1863125385692
 20
-5.249699607031086
 10
56.19282834030038
 20
-5.249459324801657
 10
56.19934155446249
 20
-5.249148298367876
 10
56.20554153902061
 20
-5.248783979281514
 10
56.21142815751849
 20
-5.248374294388835
 10
56.2173109429279
 20
-5.247900737062543
 10
56.2228800801186
 20
-5.247391474590536
 10
56.22844482794199
 20
-5.246821586619476
 10
56.23369597662017
 20
-5.246226245556646
 10
56.23894240924099
 20
-5.245574044017945
 10
56.24418373682029
 20
-5.244863629761344
 10
56.24911173921571
 20
-5.244140616517865
 10
56.25403455063199
 20
-5.243363712476765
 10
56.25895184677041
 20
-5.242531790265106
 10
56.26386330333222
 20
-5.241643722509937
 10
56.26846220194409
 20
-5.240759164878686
 10
56.2730554158735
 20
-5.239823340796537
 10
56.2776426779065
 20
-5.2388353213368
 10
56.28222370782918
 20
-5.237794170544086
 10
56.28649271085041
 20
-5.236773259675523
 10
56.29075315643839
 20
-5.235703052852816
 10
56.29469967572109
 20
-5.234663539547827
 10
56.2986351135548
 20
-5.233578458460157
 10
56.30225644795771
 20
-5.232535125127525
 10
56.30586541880179
 20
-5.231450548557797
 10
56.309460623826
 20
-5.230323568950657
 10
56.3130406607692
 20
-5.229153026505775
 10
56.3163078389331
 20
-5.228040769970847
 10
56.3195600133086
 20
-5.226890040655414
 10
56.32279610379761
 20
-5.225699945217924
 10
56.3260150303019
 20
-5.224469590316806
 10
56.32921571272341
 20
-5.223198082610487
 10
56.3321086835005
 20
-5.222005703679447
 10
56.3349848723865
 20
-5.220777904686037
 10
56.3378434678876
 20
-5.219514014449525
 10
56.34068365850999
 20
-5.218213361789157
 10
56.3435046327602
 20
-5.216875275524198
 10
56.3463055791442
 20
-5.215499084473893
 10
56.34880863636489
 20
-5.214227378206285
 10
56.35129422212509
 20
-5.212923774115377
 10
56.3537617448462
 20
-5.211587782910433
 10
56.3562106129491
 20
-5.210218915300672
 10
56.358640234855
 20
-5.208816681995354
 10
56.36105001898478
 20
-5.207380593703707
 10
56.36343937375967
 20
-5.205910161134957
 10
56.36580770760079
 20
-5.204404894998367
 10
56.3681544289292
 20
-5.202864306003156
 10
56.37022178136509
 20
-5.201464844255947
 10
56.37227117434259
 20
-5.200036742844924
 10
56.37430219237691
 20
-5.198579658125574
 10
56.37631441998322
 20
-5.197093246453346
 10
56.37830744167668
 20
-5.195577164183696
 10
56.38028082956629
 20
-5.194031127003846
 10
56.38223405087089
 20
-5.192455352221535
 10
56.38416652008559
 20
-5.190850309289683
 10
56.38607765130649
 20
-5.189216469568726
 10
56.38820143884039
 20
-5.187344565619666
 10
56.39029664471479
 20
-5.185437483436181
 10
56.3923624347035
 20
-5.183495894154543
 10
56.39439797458
 20
-5.181520468910987
 10
56.39640243011778
 20
-5.179511878841736
 10
56.39837496709059
 20
-5.177470795083065
 10
56.40031475127199
 20
-5.175397888771206
 10
56.40222094843561
 20
-5.173293831042407
 10
56.4040927243549
 20
-5.171159293032916
 10
56.4059292448036
 20
-5.168994945878964
 10
56.4075314358396
 20
-5.167046599336853
 10
56.4091045256556
 20
-5.165075701531405
 10
56.41064792834761
 20
-5.163082723823061
 10
56.41216105801179
 20
-5.161068137572255
 10
56.41364332874439
 20
-5.159032414139423
 10
56.41509415464141
 20
-5.156976024885006
 10
56.41651294979901
 20
-5.154899441169433
 10
56.41789912831329
 20
-5.152803134353137
 10
56.41908481807479
 20
-5.150953057334723
 10
56.42024469462639
 20
-5.149088556477327
 10
56.42137836545821
 20
-5.147209947555603
 10
56.42248543806029
 20
-5.145317546344226
 10
56.42356551992299
 20
-5.143411668617867
 10
56.42461821853649
 20
-5.141492630151174
 10
56.42564314139079
 20
-5.139560746718837
 10
56.42663989597629
 20
-5.137616334095511
 10
56.42760808978311
 20
-5.135659708055865
 10
56.42854733030118
 20
-5.133691184374565
 10
56.4294572250211
 20
-5.131711078826275
 10
56.43033738143279
 20
-5.129719707185657
 10
56.43118740702649
 20
-5.127717385227396
 10
56.4317721619319
 20
-5.126289899656597
  0
LWPOLYLINE
  5
4BE
330
1E
100
AcDbEntity
  8
1
100
AcDbPolyline
 90
       30
 70
     0
 43
0.0
 10
56.44838793509999
 20
-4.995867318699994
 10
56.4509841094631
 20
-4.995603271111716
 10
56.4535836705966
 20
-4.995366945148624
 10
56.45618629311067
 20
-4.995158108456367
 10
56.4587916516155
 20
-4.994976528680535
 10
56.46148357877009
 20
-4.994817435134775
 10
56.4641777166506
 20
-4.994686882219053
 10
56.46687370735118
 20
-4.994584614359957
 10
56.4695711929658
 20
-4.994510375984025
 10
56.4723541619616
 20
-4.994462904243777
 10
56.47513794761991
 20
-4.994444689115574
 10
56.4779221574215
 20
-4.994455450309422
 10
56.48079076614649
 20
-4.994496548211423
 10
56.4836589791464
 20
-4.994567801098891
 10
56.48652636712649
 20
-4.994668902420983
 10
56.48947677545628
 20
-4.994803832151887
 10
56.49242538630409
 20
-4.994969732676865
 10
56.49537173137119
 20
-4.995166269593124
 10
56.4983994007026
 20
-4.995400031540565
 10
56.50142366789289
 20
-4.995665487862344
 10
56.50452786135438
 20
-4.995970962466025
 10
56.5076274488987
 20
-4.996309153971535
 10
56.5107222464054
 20
-4.996679745080353
 10
56.51389557711168
 20
-4.997093758462775
 10
56.5170636029352
 20
-4.997541297792393
 10
56.52022619598029
 20
-4.998022034418552
 10
56.52346623189191
 20
-4.998549596484367
 10
56.526700272351
 20
-4.999111424601425
 10
56.52992817909701
 20
-4.999707163484166
 10
56.53223198050858
 20
-5.000153648595903
  0
LWPOLYLINE
  5
4DE
330
1E
100
AcDbEntity
  8
1
100
AcDbPolyline
 90
       36
 70
     0
 43
0.0
 10
56.53224179070001
 20
-5.000155587699967
 10
56.53558132830389
 20
-5.000834340125336
 10
56.53905238952097
 20
-5.001579178857457
 10
56.54251534345778
 20
-5.002362159562115
 10
56.54596985777678
 20
-5.003182841854656
 10
56.54941560014079
 20
-5.004040785350427
 10
56.55298950966571
 20
-5.004972099881565
 10
56.55655319815399
 20
-5.005942744437237
 10
56.5601062917959
 20
-5.006952223689497
 10
56.5637844477707
 20
-5.008041137931177
 10
56.5674504502666
 20
-5.009171015410665
 10
56.57110396439481
 20
-5.010341455620133
 10
56.5747446552664
 20
-5.011552058051747
 10
56.57850628399549
 20
-5.012849490357683
 10
56.58225338835829
 20
-5.014189237555686
 10
56.58598559486089
 20
-5.015570852968535
 10
56.58983499056389
 20
-5.017045473148476
 10
56.59366758966578
 20
-5.018564030115806
 10
56.59748297720939
 20
-5.020126027605436
 10
56.60128073823739
 20
-5.021730969352295
 10
56.60519046614439
 20
-5.023435916729947
 10
56.60908042750539
 20
-5.025185740627253
 10
56.61307880043541
 20
-5.027040453721084
 10
56.61705507865249
 20
-5.028941919123206
 10
56.6210087888432
 20
-5.030889631768832
 10
56.62493946190171
 20
-5.032883099273923
 10
56.62897226970747
 20
-5.034988342773876
 10
56.6329795143001
 20
-5.037141274420525
 10
56.63708466526401
 20
-5.039410858847077
 10
56.64116151572939
 20
-5.041729988569266
 10
56.64520949981199
 20
-5.044098069622287
 10
56.64934936048979
 20
-5.046588482062846
 10
56.65345735919709
 20
-5.049129577409764
 10
56.65765224715581
 20
-5.051797666486386
 10
56.66181204036996
 20
-5.054518066635448
 10
56.6623950677777
 20
-5.054905383226967
  0
LWPOLYLINE
  5
504
330
1E
100
AcDbEntity
  8
1
100
AcDbPolyline
 90
      105
 70
     0
 43
0.0
 10
56.66512559840001
 20
-5.050706744999963
 10
56.69726843848192
 20
-5.071782257370793
 10
56.7297270096722
 20
-5.092422268460537
 10
56.7624948407285
 20
-5.112614007804785
 10
56.792798168503
 20
-5.130718401053933
 10
56.82335093832478
 20
-5.148425554270127
 10
56.8541481656894
 20
-5.165725630944034
 10
56.88518486609231
 20
-5.182608794566306
 10
56.91360366113499
 20
-5.197587063926077
 10
56.94221250342247
 20
-5.212205257383215
 10
56.9710076480228
 20
-5.226455984622653
 10
56.99998535000388
 20
-5.240331855329355
 10
57.029141864434
 20
-5.253825479188255
 10
57.05847344638089
 20
-5.266929465884294
 10
57.08501845767379
 20
-5.278383806041093
 10
57.1116995102051
 20
-5.289511166401103
 10
57.13851387391929
 20
-5.300306159424657
 10
57.1654588187611
 20
-5.310763397572077
 10
57.19253161467509
 20
-5.320877493303672
 10
57.21972953160578
 20
-5.330643059079787
 10
57.24704983161359
 20
-5.340054732016503
 10
57.2744891176665
 20
-5.349109210363325
 10
57.3020428467867
 20
-5.357806776005546
 10
57.3297063613021
 20
-5.366148069504025
 10
57.35747500354039
 20
-5.374133731419626
 10
57.38534411582961
 20
-5.381764402313207
 10
57.41330904049739
 20
-5.389040722745627
 10
57.44136511987188
 20
-5.395963333277726
 10
57.46950769628078
 20
-5.402532874470367
 10
57.49773211205199
 20
-5.408749986884408
 10
57.52603370951329
 20
-5.414615311080717
 10
57.5544078309926
 20
-5.420129487620124
 10
57.5828498188177
 20
-5.425293157063504
 10
57.61135501531659
 20
-5.430106959971706
 10
57.639918762817
 20
-5.434571536905596
 10
57.66853640364689
 20
-5.438687528426012
 10
57.69720328013399
 20
-5.442455575093827
 10
57.72591473460629
 20
-5.445876317469885
 10
57.75466610939162
 20
-5.448950396115044
 10
57.7834527468177
 20
-5.451678451590173
 10
57.81226998921261
 20
-5.454061124456115
 10
57.841113178904
 20
-5.456099055273725
 10
57.8699776592272
 20
-5.457792883416915
 10
57.89885893740461
 20
-5.459143055151645
 10
57.92775286449471
 20
-5.460149611603106
 10
57.9566553348752
 20
-5.460812542853385
 10
57.98556224292378
 20
-5.461131838984587
 10
58.01446948301839
 20
-5.461107490078766
 10
58.04337294953651
 20
-5.460739486218026
 10
58.0722685368561
 20
-5.460027817484449
 10
58.10115213935471
 20
-5.458972473960128
 10
58.1300196514103
 20
-5.457573445727135
 10
58.15886696740037
 20
-5.455830722867565
 10
58.18768998170299
 20
-5.453744295463494
 10
58.21648458869559
 20
-5.451314153597025
 10
58.2452466827562
 20
-5.448540287350223
 10
58.27397215826231
 20
-5.445422686805197
 10
58.30265690959179
 20
-5.441961342044016
 10
58.33129683112249
 20
-5.438156243148767
 10
58.359887817232
 20
-5.434007380201525
 10
58.38842576229801
 20
-5.429514743284406
 10
58.41690656069849
 20
-5.424678322479467
 10
58.4453261068111
 20
-5.419498107868806
 10
58.4736802950135
 20
-5.413974089534504
 10
58.50196502000599
 20
-5.408106258958046
 10
58.5301762745
 20
-5.401895032884365
 10
58.558310286622
 20
-5.395341849507967
 10
58.58636331911849
 20
-5.388448297238025
 10
58.61433163473629
 20
-5.381215964483747
 10
58.64221149622179
 20
-5.373646439654302
 10
58.66999916632191
 20
-5.365741311158924
 10
58.69769090778309
 20
-5.357502167406775
 10
58.725282983352
 20
-5.348930596807056
 10
58.75277165577529
 20
-5.340028187768963
 10
58.78015318779969
 20
-5.330796528701686
 10
58.80742384217171
 20
-5.321237208014425
 10
58.834579881638
 20
-5.311351814116367
 10
58.86461428839428
 20
-5.299987543522155
 10
58.89449745482609
 20
-5.288224853295235
 10
58.92422425438571
 20
-5.276065922323386
 10
58.95378956052521
 20
-5.263512929494384
 10
58.9831882466967
 20
-5.250568053696025
 10
59.01241518635259
 20
-5.237233473816065
 10
59.04146525294479
 20
-5.223511368742316
 10
59.07033331992571
 20
-5.209403917362544
 10
59.09901426074728
 20
-5.194913298564537
 10
59.1275029838518
 20
-5.180042002721807
 10
59.15579454689421
 20
-5.164793848526643
 10
59.18388404729711
 20
-5.149173008688506
 10
59.21176658248331
 20
-5.133183655920065
 10
59.23943724987591
 20
-5.116829962934007
 10
59.26689114689771
 20
-5.100116102443027
 10
59.29683421261778
 20
-5.081319842567356
 10
59.326502528741
 20
-5.062098382873646
 10
59.35588956993719
 20
-5.042457277242497
 10
59.38498881087639
 20
-5.022402079554485
 10
59.41379372622839
 20
-5.001938343690197
 10
59.44229779066328
 20
-4.981071623530214
 10
59.47049447885088
 20
-4.959807472955127
 10
59.49837726546121
 20
-4.938151445845504
 10
59.5284291797718
 20
-4.914086281552987
 10
59.5580912879279
 20
-4.889568571822306
 10
59.58735511827629
 20
-4.864605527100986
 10
59.61621219916379
 20
-4.839204357836535
 10
59.6328468944861
 20
-4.824194280969407
  0
LWPOLYLINE
  5
56F
330
1E
100
AcDbEntity
  8
1
100
AcDbPolyline
 90
       42
 70
     0
 43
0.0
 10
59.6328542927
 20
-4.824187544899933
 10
59.65834109729709
 20
-4.800651641894947
 10
59.6844672487397
 20
-4.775829665125143
 10
59.71024092265601
 20
-4.750626757724606
 10
59.7365913214164
 20
-4.724095743431665
 10
59.76255127014149
 20
-4.697170811621353
 10
59.78811497560338
 20
-4.669859981868214
 10
59.81238500167829
 20
-4.643166572596356
 10
59.836276000924
 20
-4.616128984936754
 10
59.8597827789116
 20
-4.588754409545653
 10
59.8820509475311
 20
-4.562081922200837
 10
59.90395337350982
 20
-4.535110035717496
 10
59.9254854184652
 20
-4.507845171015913
 10
59.94583580752451
 20
-4.481358602496697
 10
59.96583692207729
 20
-4.454612235769594
 10
59.9854870676042
 20
-4.427610903240655
 10
60.00478456938239
 20
-4.400359430178267
 10
60.0237277526892
 20
-4.372862641850844
 10
60.04231494280158
 20
-4.345125363526793
 10
60.06054446499709
 20
-4.317152420474544
 10
60.0784146445526
 20
-4.288948637962484
 10
60.09592380674551
 20
-4.260518841259027
 10
60.11239140274438
 20
-4.233018081356806
 10
60.12852326002979
 20
-4.205317742831835
 10
60.14431789691411
 20
-4.177422094772785
 10
60.15977383170978
 20
-4.149335406268326
 10
60.17488958298679
 20
-4.121061946851566
 10
60.18966382961297
 20
-4.092606262893663
 10
60.20409568407099
 20
-4.063973649625005
 10
60.2181843314424
 20
-4.035169527656287
 10
60.23192895680889
 20
-4.006199317598253
 10
60.24532874525241
 20
-3.977068440061633
 10
60.25838288185429
 20
-3.947782315657166
 10
60.2710905516966
 20
-3.918346364995555
 10
60.283450939861
 20
-3.888766008687536
 10
60.29546323142899
 20
-3.859046667343843
 10
60.3066476140497
 20
-3.830440228653527
 10
60.31751083812739
 20
-3.801715894898936
 10
60.32805218642309
 20
-3.772878436954705
 10
60.33827094169789
 20
-3.743932625695437
 10
60.3481663867129
 20
-3.714883231995766
 10
60.3485861106771
 20
-3.713627423950067
  0
LWPOLYLINE
  5
59B
330
1E
100
AcDbEntity
  8
1
100
AcDbPolyline
 90
       32
 70
     0
 43
0.0
 10
60.34858924409999
 20
-3.713618095699998
 10
60.3582833763517
 20
-3.684042221234616
 10
60.36765019833332
 20
-3.654354777086555
 10
60.37669026325211
 20
-3.624560115014022
 10
60.3854041243155
 20
-3.594662586775246
 10
60.3937923347309
 20
-3.564666544128415
 10
60.40185544770571
 20
-3.534576338831755
 10
60.40959401644711
 20
-3.504396322643466
 10
60.41700859416259
 20
-3.474130847321767
 10
60.4240997340596
 20
-3.443784264624853
 10
60.43086798934529
 20
-3.413360926310957
 10
60.4373139132271
 20
-3.382865184138286
 10
60.4434380589125
 20
-3.352301389865036
 10
60.44941715092739
 20
-3.320715807098983
 10
60.45505523440318
 20
-3.289067253129465
 10
60.4603529160482
 20
-3.257360500574095
 10
60.46531088537442
 20
-3.225600248209536
 10
60.46993046828041
 20
-3.193790627312166
 10
60.47421328573499
 20
-3.161935506027765
 10
60.4781609603232
 20
-3.130038751060826
 10
60.4817751146302
 20
-3.098104229115858
 10
60.48505737124109
 20
-3.066135806897352
 10
60.48809366805829
 20
-3.033167272941731
 10
60.49078114441609
 20
-3.000171086604517
 10
60.49312157492228
 20
-2.967151476868456
 10
60.49511673418511
 20
-2.934112672716317
 10
60.4967683968122
 20
-2.901058903130866
 10
60.4980783374115
 20
-2.867994397094875
 10
60.49907173171259
 20
-2.833950651518337
 10
60.49970682345628
 20
-2.799904623263266
 10
60.49998554848399
 20
-2.765860925540437
 10
60.4999999999847
 20
-2.756145228400315
  0
LWPOLYLINE
  5
5BD
330
1E
100
AcDbEntity
  8
SK1
100
AcDbPolyline
 90
       59
 70
     0
 43
0.0
 10
-17.19999999999998
 20
0.0000000000000021
 10
-17.20047963885129
 20
0.0875000829075141
 10
-17.20191810664038
 20
0.1750053145917381
 10
-17.20431473021989
 20
0.2625033308957711
 10
-17.20766883644276
 20
0.3499817676627111
 10
-17.21197975216169
 20
0.4374282607356557
 10
-17.21724680422939
 20
0.5248304459576996
 10
-17.22346931949856
 20
0.6121759591719421
 10
-17.23064662482209
 20
0.6994524362214795
 10
-17.23877804705266
 20
0.7866475129494082
 10
-17.24786291304299
 20
0.8737488251988271
 10
-17.25790054964589
 20
0.9607440088128328
 10
-17.26889027502318
 20
1.047620717264116
 10
-17.28083092252067
 20
1.134367587475179
 10
-17.29372059436399
 20
1.22097473944782
 10
-17.30755733220538
 20
1.307432416056339
 10
-17.32233917769707
 20
1.39373086017504
 10
-17.33806417249178
 20
1.479860314678179
 10
-17.35473035824159
 20
1.56581102244008
 10
-17.37233577659888
 20
1.651573226335012
 10
-17.39087846921617
 20
1.737137169237271
 10
-17.41035647774588
 20
1.82249309402114
 10
-17.43207449990548
 20
1.91294492436113
 10
-17.45484384628799
 20
2.00313920355677
 10
-17.47866210021769
 20
2.093064207922398
 10
-17.50352588057439
 20
2.182707923551991
 10
-17.52943108795388
 20
2.2720581203937
 10
-17.55637360581799
 20
2.361102563239622
 10
-17.58434931762839
 20
2.449829016881891
 10
-17.61335410684678
 20
2.538225246112598
 10
-17.64338385693479
 20
2.626279015723891
 10
-17.67443445135407
 20
2.713978090507851
 10
-17.70650177356658
 20
2.801310235256621
 10
-17.73958170703377
 20
2.888263214762298
 10
-17.77367013521748
 20
2.974824793817008
 10
-17.80876294157849
 20
3.060982737214108
 10
-17.84485583134859
 20
3.146725081475628
 10
-17.88194383202005
 20
3.232040896407351
 10
-17.92229241110288
 20
3.321898512254602
 10
-17.96374476711809
 20
3.411253281123638
 10
-18.00629480622738
 20
3.500092519778758
 10
-18.04993643459248
 20
3.588403544984251
 10
-18.09466355837509
 20
3.676173673504391
 10
-18.14047008373679
 20
3.76339022210345
 10
-18.18734991683927
 20
3.850040507545741
 10
-18.23529696384428
 20
3.936111846595516
 10
-18.28430513091347
 20
4.021591556017082
 10
-18.33436827933217
 20
4.10646693281614
 10
-18.38834846198268
 20
4.195387068050433
 10
-18.44348328778619
 20
4.283601789607883
 10
-18.49976057411337
 20
4.371093972412706
 10
-18.55716813833488
 20
4.457846491389101
 10
-18.61569379782128
 20
4.543842221461282
 10
-18.67532536994339
 20
4.629064037553447
 10
-18.73927680693508
 20
4.717916302682787
 10
-18.80442592391119
 20
4.80587209639787
 10
-18.87075851165238
 20
4.892911444853178
 10
-18.93826036093947
 20
4.979014374203218
 10
-18.99999368039248
 20
5.055682113895931
  0
LWPOLYLINE
  5
5FA
330
1E
100
AcDbEntity
  8
1
100
AcDbPolyline
 90
       24
 70
     0
 43
0.0
 10
56.0501148406
 20
0.4887668824000503
 10
56.0624014348351
 20
0.4790349913886533
 10
56.0745644931335
 20
0.4691413253952152
 10
56.08659611627618
 20
0.4590864047261963
 10
56.09848840504419
 20
0.4488707496880562
 10
56.11023346021849
 20
0.4384948805872553
 10
56.1218233850586
 20
0.4279593194014313
 10
56.13515376457491
 20
0.4154770816766054
 10
56.1558201899587
 20
0.3955593741542192
 10
56.19535280687049
 20
0.3570222451740491
 10
56.20298024990631
 20
0.3498253136533072
 10
56.20857789159889
 20
0.3446877733237741
 10
56.2132640284625
 20
0.3405028526824171
 10
56.21741045466159
 20
0.3369000614012092
 10
56.22120335747911
 20
0.3336943643638492
 10
56.22463343307878
 20
0.330874239113692
 10
56.22789561219811
 20
0.3282652022493271
 10
56.23098572507629
 20
0.3258620231712682
 10
56.23389924102929
 20
0.3236588646488591
 10
56.23684265544071
 20
0.3214963980629591
 10
56.23960387965291
 20
0.3195267553795051
 10
56.24239332327739
 20
0.317595863420044
 10
56.24499425697038
 20
0.3158494215367841
 10
56.2454218921671
 20
0.3155672985644811
  0
LWPOLYLINE
  5
614
330
1E
100
AcDbEntity
  8
SK1
100
AcDbPolyline
 90
       59
 70
     0
 43
0.0
 10
-18.99999999999998
 20
-5.055689863899936
 10
-18.92806110280617
 20
-4.966159418114737
 10
-18.86073373793129
 20
-4.879914753898826
 10
-18.79457776583759
 20
-4.792736666452634
 10
-18.72960739561248
 20
-4.704645129400375
 10
-18.66583683634328
 20
-4.615660116366254
 10
-18.60637907174979
 20
-4.530314964082216
 10
-18.54802914276149
 20
-4.444198600806438
 10
-18.49079923189468
 20
-4.357328151424955
 10
-18.43470152166559
 20
-4.269720740823824
 10
-18.37974819459027
 20
-4.181393493889106
 10
-18.32875381048196
 20
-4.097066564778033
 10
-18.27880755321976
 20
-4.012123394791096
 10
-18.22991698239357
 20
-3.926577312609623
 10
-18.18208820872778
 20
-3.840441009101816
 10
-18.13532732608759
 20
-3.753727167714225
 10
-18.08964042833828
 20
-3.666448471893413
 10
-18.04503360934537
 20
-3.578617605085926
 10
-18.00151296297388
 20
-3.490247250738325
 10
-17.95908458308929
 20
-3.401350092297175
 10
-17.91775456355687
 20
-3.311938813209015
 10
-17.87752899824178
 20
-3.222026096920415
 10
-17.84055779915398
 20
-3.136659537344836
 10
-17.80458231496809
 20
-3.050867706547625
 10
-17.76960745434797
 20
-2.964661632166946
 10
-17.73563745735759
 20
-2.878053360877763
 10
-17.70267644030669
 20
-2.791055127973306
 10
-17.67072851950487
 20
-2.703679168746814
 10
-17.63979781126207
 20
-2.615937718491515
 10
-17.60988843188798
 20
-2.527843012500627
 10
-17.58100449769239
 20
-2.439407286067384
 10
-17.55315012498497
 20
-2.350642774485017
 10
-17.52632943007549
 20
-2.261561713046757
 10
-17.50054652927378
 20
-2.172176337045836
 10
-17.47580553888947
 20
-2.082498881775463
 10
-17.45211053773808
 20
-1.992541571254897
 10
-17.42946475429118
 20
-1.902316373816555
 10
-17.40787057330257
 20
-1.811835004098685
 10
-17.38850937499539
 20
-1.726452537538573
 10
-17.37008373841148
 20
-1.640863275054836
 10
-17.35259562158138
 20
-1.555076974150465
 10
-17.33604698253589
 20
-1.469103392328455
 10
-17.32043977930556
 20
-1.382952287091807
 10
-17.30577596992126
 20
-1.296633415943524
 10
-17.29205751241349
 20
-1.210156536386586
 10
-17.27928636481307
 20
-1.123531405924007
 10
-17.26746448515059
 20
-1.036767782058775
 10
-17.25659373011398
 20
-0.9498756278210873
 10
-17.2466751553769
 20
-0.8628665307307555
 10
-17.23770943617608
 20
-0.7757528498491821
 10
-17.22969724544368
 20
-0.6885469489112899
 10
-17.22263925611199
 20
-0.6012611916520091
 10
-17.21653614111326
 20
-0.5139079418062639
 10
-17.21138857337978
 20
-0.4264995631089852
 10
-17.20719722584369
 20
-0.3390484192950979
 10
-17.20396277143729
 20
-0.2515668740995299
 10
-17.20168588309278
 20
-0.1640672912572089
 10
-17.20036723374249
 20
-0.0765620345030626
 10
-17.20000000000617
 20
-0.0000100000001119
  0
LWPOLYLINE
  5
651
330
1E
100
AcDbEntity
  8
SK1
100
AcDbPolyline
 90
       59
 70
     0
 43
0.0
 10
-30.79999999999999
 20
0.0000000000000038
 10
-30.79952036114918
 20
0.0875000829074117
 10
-30.79808189336128
 20
0.1750053145916948
 10
-30.79568526978339
 20
0.2625033308958939
 10
-30.79233116356238
 20
0.3499817676630499
 10
-30.78802024784538
 20
0.437428260736203
 10
-30.78275319577928
 20
0.5248304459583948
 10
-30.77653068051108
 20
0.6121759591726648
 10
-30.7693533751879
 20
0.6994524362220556
 10
-30.76122195295659
 20
0.7866475129496063
 10
-30.75213708696418
 20
0.8737488251983565
 10
-30.7420994503577
 20
0.9607440088113495
 10
-30.73110972497499
 20
1.047620717261229
 10
-30.71916907747028
 20
1.134367587470471
 10
-30.70627940561838
 20
1.220974739441009
 10
-30.69244266776739
 20
1.307432416047211
 10
-30.6776608222653
 20
1.393730860163483
 10
-30.6619358274602
 20
1.479860314664191
 10
-30.64526964170009
 20
1.565811022423751
 10
-30.62766422333298
 20
1.65157322631653
 10
-30.60912153070688
 20
1.737137169216921
 10
-30.58964352216989
 20
1.822493093999323
 10
-30.56792550000448
 20
1.91294492433829
 10
-30.54515615361859
 20
2.003139203533562
 10
-30.5213378996886
 20
2.093064207899613
 10
-30.49647411933448
 20
2.182707923530383
 10
-30.47056891195998
 20
2.272058120373891
 10
-30.44362639410287
 20
2.361102563222153
 10
-30.41565068230119
 20
2.449829016867131
 10
-30.3866458930927
 20
2.538225246100838
 10
-30.3566161430152
 20
2.626279015715272
 10
-30.32556554860659
 20
2.713978090502413
 10
-30.29349822640479
 20
2.801310235254261
 10
-30.26041829294768
 20
2.888263214762801
 10
-30.22632986477299
 20
2.97482479382004
 10
-30.19123705841958
 20
3.060982737219203
 10
-30.15514416865519
 20
3.146725081482231
 10
-30.11805616798778
 20
3.232040896414963
 10
-30.07770758890758
 20
3.321898512262761
 10
-30.03625523289358
 20
3.41125328113192
 10
-29.99370519378429
 20
3.500092519786802
 10
-29.95006356541819
 20
3.588403544991751
 10
-29.90533644163399
 20
3.676173673511123
 10
-29.85952991627009
 20
3.763390222109281
 10
-29.81265008316511
 20
3.850040507550573
 10
-29.76470303615767
 20
3.936111846599373
 10
-29.7156948690862
 20
4.021591556020012
 10
-29.6656317206657
 20
4.106466932818277
 10
-29.61165153801399
 20
4.195387068051942
 10
-29.55651671220968
 20
4.28360178960892
 10
-29.50023942588228
 20
4.371093972413421
 10
-29.44283186166089
 20
4.457846491389601
 10
-29.3843062021749
 20
4.543842221461662
 10
-29.32467463005338
 20
4.629064037553772
 10
-29.26072319306239
 20
4.717916302683089
 10
-29.19557407608717
 20
4.805872096398172
 10
-29.12924148834669
 20
4.892911444853453
 10
-29.0617396390601
 20
4.979014374203416
 10
-29.00000631960757
 20
5.055682113895931
  0
LWPOLYLINE
  5
68E
330
1E
100
AcDbEntity
  8
SK1
100
AcDbPolyline
 90
       59
 70
     0
 43
0.0
 10
-28.99999999999998
 20
-5.055689863899936
 10
-29.07193889719149
 20
-4.966159418113945
 10
-29.13926626206109
 20
-4.879914753895326
 10
-29.20542223414719
 20
-4.792736666444953
 10
-29.27039260436307
 20
-4.704645129387445
 10
-29.33416316362219
 20
-4.615660116347419
 10
-29.39362092820588
 20
-4.530314964057566
 10
-29.4519708571849
 20
-4.444198600776103
 10
-29.50920076804348
 20
-4.357328151389455
 10
-29.56529847826609
 20
-4.269720740784026
 10
-29.62025180533709
 20
-4.181393493846206
 10
-29.67124618944417
 20
-4.097066564733655
 10
-29.7211924467081
 20
-4.012123394746913
 10
-29.77008301753898
 20
-3.926577312567223
 10
-29.81791179121178
 20
-3.840441009062504
 10
-29.8646726738605
 20
-3.753727167679004
 10
-29.91035957161918
 20
-3.666448471862993
 10
-29.95496639062208
 20
-3.578617605060736
 10
-29.99848703700319
 20
-3.490247250718493
 10
-30.04091541689668
 20
-3.401350092282536
 10
-30.08224543643639
 20
-3.311938813199102
 10
-30.12247100175669
 20
-3.222026096914496
 10
-30.15944220084698
 20
-3.136659537341714
 10
-30.19541768503238
 20
-3.050867706546143
 10
-30.23039254564868
 20
-2.964661632165776
 10
-30.2643625426327
 20
-2.878053360875734
 10
-30.29732355967499
 20
-2.791055127969475
 10
-30.32927148046659
 20
-2.703679168740424
 10
-30.36020218869828
 20
-2.615937718482044
 10
-30.39011156806099
 20
-2.527843012487752
 10
-30.41899550224547
 20
-2.439407286051014
 10
-30.44684987494258
 20
-2.350642774465252
 10
-30.47367056984328
 20
-2.261561713023923
 10
-30.49945347063839
 20
-2.172176337020454
 10
-30.52419446101869
 20
-2.082498881748295
 10
-30.54788946216928
 20
-1.992541571226865
 10
-30.57053524561878
 20
-1.902316373788664
 10
-30.59212942661278
 20
-1.811835004071774
 10
-30.61149062492719
 20
-1.726452537513224
 10
-30.62991626151989
 20
-1.640863275031535
 10
-30.64740437835978
 20
-1.555076974129605
 10
-30.66395301741588
 20
-1.469103392310285
 10
-30.67956022065698
 20
-1.38295228707646
 10
-30.69422403005188
 20
-1.296633415931006
 10
-30.70794248756959
 20
-1.210156536376802
 10
-30.72071363517888
 20
-1.123531405916725
 10
-30.73253551484869
 20
-1.036767782053646
 10
-30.74340626989068
 20
-0.9498756278176639
 10
-30.75332484463129
 20
-0.8628665307285903
 10
-30.76229056383409
 20
-0.7757528498478913
 10
-30.7703027545671
 20
-0.6885469489105575
 10
-30.77736074389829
 20
-0.6012611916515792
 10
-30.78346385889579
 20
-0.5139079418059485
 10
-30.78861142662747
 20
-0.4264995631086563
 10
-30.7928027741616
 20
-0.3390484192946933
 10
-30.79603722856599
 20
-0.2515668740990512
 10
-30.79831411690869
 20
-0.1640672912567212
 10
-30.79963276625787
 20
-0.0765620345026941
 10
-30.79999999999369
 20
-0.0000100000001102
  0
LWPOLYLINE
  5
6CB
330
1E
100
AcDbEntity
  8
1
100
AcDbPolyline
 90
       98
 70
     0
 43
0.0
 10
47.60928765209999
 20
5.2371585586
 10
47.60915071010039
 20
5.237541937101449
 10
47.60906440217449
 20
5.237903355592179
 10
47.60902702982177
 20
5.238243485491167
 10
47.60903689454209
 20
5.238562998217362
 10
47.60909229783478
 20
5.238862565189721
 10
47.60919154119938
 20
5.239142857827191
 10
47.6093329261357
 20
5.239404547548731
 10
47.60951475414318
 20
5.239648305773298
 10
47.60973532672139
 20
5.239874803919851
 10
47.60999294537
 20
5.240084713407338
 10
47.6102859115885
 20
5.240278705654722
 10
47.61061252687659
 20
5.240457452080953
 10
47.61097109273371
 20
5.240621624104981
 10
47.6113599106595
 20
5.240771893145773
 10
47.61177728215349
 20
5.240908930622268
 10
47.61222150871549
 20
5.241033407953453
 10
47.61269089184477
 20
5.241145996558238
 10
47.61318373304109
 20
5.241247367855621
 10
47.61369833380398
 20
5.241338193264533
 10
47.6142329956331
 20
5.241419144203931
 10
47.61478602002799
 20
5.241490892092771
 10
47.61535570848809
 20
5.241554108350023
 10
47.61594036251317
 20
5.24160946439462
 10
47.61653828360279
 20
5.241657631645534
 10
47.61714777325649
 20
5.24169928152171
 10
47.61776713297378
 20
5.241735085442101
 10
47.61871096344949
 20
5.241779298884583
 10
47.61966744750359
 20
5.241814135658183
 10
47.62127413706968
 20
5.24185751457932
 10
47.62255549674708
 20
5.24188504635545
 10
47.62350527730649
 20
5.241905034318333
 10
47.62444070903828
 20
5.241926338978181
 10
47.62536151848631
 20
5.241949131867011
 10
47.6262679682287
 20
5.241973378850769
 10
47.62716032084349
 20
5.241999045795378
 10
47.62803883890899
 20
5.242026098566793
 10
47.62890378500329
 20
5.242054503030923
 10
47.6297554217045
 20
5.24208422505371
 10
47.63059401159078
 20
5.242115230501101
 10
47.63141981724028
 20
5.242147485239033
 10
47.63223310123119
 20
5.242180955133417
 10
47.63303412614159
 20
5.242215606050208
 10
47.63382315454959
 20
5.242251403855338
 10
47.63460044903349
 20
5.242288314414738
 10
47.63536627217129
 20
5.242326303594351
 10
47.6361208865411
 20
5.242365337260101
 10
47.63686455472118
 20
5.242405381277931
 10
47.63759753928968
 20
5.242446401513761
 10
47.63832010282468
 20
5.242488363833552
 10
47.63903250790439
 20
5.242531234103221
 10
47.63973501710689
 20
5.242574978188708
 10
47.64065675629559
 20
5.242634603907934
 10
47.6415619920267
 20
5.242695641484322
 10
47.64245134670778
 20
5.242758010007531
 10
47.64332544274629
 20
5.24282162856717
 10
47.6441849025497
 20
5.242886416252868
 10
47.6450303485253
 20
5.242952292154241
 10
47.64586240308068
 20
5.243019175360918
 10
47.64668168862328
 20
5.243086984962523
 10
47.6474888275605
 20
5.243155640048668
 10
47.64848161826718
 20
5.243242524607112
 10
47.6494576180542
 20
5.243330445784621
 10
47.65041804256109
 20
5.243419245553122
 10
47.6513641074275
 20
5.243508765884532
 10
47.65248214216209
 20
5.243616918921731
 10
47.6535833501605
 20
5.243725608936571
 10
47.65484962815479
 20
5.243852728326571
 10
47.65645361590379
 20
5.244015997500511
 10
47.6585615560464
 20
5.244231905431217
 10
47.66554019605648
 20
5.244910136831048
 10
47.6671438523467
 20
5.245048280066622
 10
47.66859174222438
 20
5.245165047834284
 10
47.67006185392678
 20
5.24527604537891
 10
47.67155348185379
 20
5.245381430850063
 10
47.67306591153199
 20
5.245481363654548
 10
47.6745984284875
 20
5.245576003199158
 10
47.6763456310327
 20
5.245676344067318
 10
47.67811633499489
 20
5.245770414370571
 10
47.67990952308639
 20
5.245858441076808
 10
47.6819270872695
 20
5.245949436414909
 10
47.6839697582697
 20
5.246033562070808
 10
47.68624402926649
 20
5.24611853739533
 10
47.68854513365717
 20
5.246195991522912
 10
47.69108385023739
 20
5.246272395978762
 10
47.69386487200999
 20
5.246346247194431
 10
47.69710956862488
 20
5.246420804147454
 10
47.70082760033689
 20
5.246492770258717
 10
47.70524818181729
 20
5.246562386116798
 10
47.7115009986528
 20
5.24663704711317
 10
47.73711991523029
 20
5.246802461090322
 10
47.74308569478928
 20
5.246840351832283
 10
47.74964593228539
 20
5.246887504878284
 10
47.7572204229343
 20
5.246947354360113
 10
47.76643015639218
 20
5.247024755237681
 10
47.78084078422419
 20
5.247145949990981
 10
47.8203067962509
 20
5.247343705912561
 10
47.8217896957502
 20
5.247344046284641
  0
LWPOLYLINE
  5
72F
330
1E
100
AcDbEntity
  8
1
100
AcDbPolyline
 90
        5
 70
     0
 43
0.0
 10
55.7754855378999
 20
5.247344046300033
 10
55.79320506665689
 20
5.247910405925876
 10
55.8178659240876
 20
5.248443809527667
 10
55.88543898905199
 20
5.249175573303792
 10
56.03239692949991
 20
5.249572785098941
  0
LINE
  5
736
330
1E
100
AcDbEntity
  8
SK4
100
AcDbLine
 10
-23.99999999999999
 20
7.200000000000042
 30
0.0
 11
-23.99999999999999
 21
-7.199999999999986
 31
0.0
  0
LINE
  5
737
330
1E
100
AcDbEntity
  8
SK4
100
AcDbLine
 10
-0.7779170874059678
 20
0.0000000000000001
 30
0.0
 11
-50.32482129431517
 21
0.0000000000000063
 31
0.0
  0
DIMENSION
  5
738
330
1E
100
AcDbEntity
  8
SK2
100
AcDbDimension
  2
*D3
 10
61.0
 20
-33.0
 30
0.0
 11
18.49999999999998
 21
-33.0
 31
0.0
 70
   160
 71
     5
 42
85.0
  3
ISO-25
100
AcDbAlignedDimension
 13
-23.99999999999999
 23
0.0000000000000029
 33
0.0
 14
61.0
 24
-2.826345701515112
 34
0.0
 50
180.0
100
AcDbRotatedDimension
  0
TEXT
  5
739
330
1E
100
AcDbEntity
  8
6
100
AcDbText
 10
21.89730614943932
 20
-53.34677882176726
 30
0.0
 40
3.5
  1
15B1D012060W3R00
100
AcDbText
  0
DIMENSION
  5
73A
330
1E
100
AcDbEntity
  8
SK2
100
AcDbDimension
  2
*D1
 10
61.0
 20
-43.0
 30
0.0
 11
6.499999999999992
 21
-43.0
 31
0.0
 70
   160
 71
     5
 42
109.0
  3
ISO-25
100
AcDbAlignedDimension
 13
-48.0
 23
-0.6249999999999945
 33
0.0
 14
61.0
 24
-2.826345701515112
 34
0.0
 50
180.0
100
AcDbRotatedDimension
  0
DIMENSION
  5
73B
330
1E
100
AcDbEntity
  8
2
100
AcDbDimension
  2
*D2
 10
61.0
 20
-23.0
 30
0.0
 11
51.09178786749999
 21
-23.0
 31
0.0
 70
   160
 71
     5
 42
19.81642426500001
  3
ISO-25
100
AcDbAlignedDimension
 13
41.18357573499998
 23
-5.250000000000004
 33
0.0
 14
61.0
 24
-3.451345701515112
 34
0.0
 50
180.0
100
AcDbRotatedDimension
1001
ACAD
1000
DSTYLE
1002
{
1070
   271
1070
     0
1002
}
  0
DIMENSION
  5
73C
330
1E
100
AcDbEntity
  8
2
100
AcDbDimension
  2
*D4
 10
76.00739173214518
 20
-6.000000000000013
 30
0.0
 11
76.00739173214518
 21
-0.0000000000000022
 31
0.0
 70
   160
  1
%%c<>
 71
     5
 42
12.0
  3
ISO-25
100
AcDbAlignedDimension
 13
56.58695789696949
 23
5.999999999999992
 33
0.0
 14
59.69587471799999
 24
-6.000000000000007
 34
0.0
 50
270.0
100
AcDbRotatedDimension
  0
DIMENSION
  5
73D
330
1E
100
AcDbEntity
  8
SK2
100
AcDbDimension
  2
*D5
 10
-63.04701208434838
 20
8.000000000000008
 30
0.0
 11
-63.04701208434838
 21
-0.0000000000000001
 31
0.0
 70
   160
  1
%%c<>
 71
     5
 42
15.99999999999999
  3
ISO-25
100
AcDbAlignedDimension
 13
-47.19999999999997
 23
-7.999999999999992
 33
0.0
 14
-47.19999999999997
 24
8.000000000000005
 34
0.0
 50
270.0
100
AcDbRotatedDimension
  0
LINE
  5
1189
330
1E
100
AcDbEntity
  8
SK4
100
AcDbLine
 10
58.00439999999999
 20
-1.040588821720975
 30
0.0
 11
58.00439999999999
 21
7.001049526833011
 31
0.0
  0
LINE
  5
118A
330
1E
100
AcDbEntity
  8
SK4
100
AcDbLine
 10
53.7471634756417
 20
2.988766882400053
 30
0.0
 11
62.36186935305809
 21
2.988766882400052
 31
0.0
  0
LINE
  5
14E0
330
1E
100
AcDbEntity
  8
1
100
AcDbLine
 10
41.18357573499998
 20
-5.250000000000004
 30
0.0
 11
41.18357573499998
 21
5.249999999999993
 31
0.0
  0
TEXT
  5
18A3
330
1E
100
AcDbEntity
  8
6
100
AcDbText
 10
44.31308840525923
 20
17.14782927860653
 30
0.0
 40
2.5
  1
RHHW0602M0TN
100
AcDbText
  0
TEXT
  5
18A4
330
1E
100
AcDbEntity
  8
6
100
AcDbText
 10
81.58611750237401
 20
-3.494338366183797
 30
0.0
 40
3.0
  1
Z=2
 50
90.0
100
AcDbText
  0
LINE
  5
18B6
330
1E
100
AcDbEntity
  8
NOCUT
100
AcDbLine
 10
40.81691851969998
 20
5.263461873599978
 30
0.0
 11
7.183081480200003
 21
7.736538126499992
 31
0.0
  0
LINE
  5
18B7
330
1E
100
AcDbEntity
  8
NOCUT
100
AcDbLine
 10
60.5
 20
0.0
 30
0.0
 11
0.0
 21
0.0
 31
0.0
  0
LINE
  5
18B8
330
1E
100
AcDbEntity
  8
NOCUT
100
AcDbLine
 10
6.816424264999991
 20
7.749999999999985
 30
0.0
 11
0.25
 21
7.749999999999985
 31
0.0
  0
LINE
  5
18B9
330
1E
100
AcDbEntity
  8
NOCUT
100
AcDbLine
 10
0.0
 20
7.999999999999985
 30
0.0
 11
0.0
 21
-0.0000000000000142
 31
0.0
  0
ARC
  5
18BA
330
1E
100
AcDbEntity
  8
NOCUT
100
AcDbCircle
 10
0.25
 20
7.999999999999985
 30
0.0
 40
0.25
100
AcDbArc
 50
180.0
 51
270.0
  0
ARC
  5
18BB
330
1E
100
AcDbEntity
  8
NOCUT
100
AcDbCircle
 10
6.816424264999991
 20
2.749999999999984
 30
0.0
 40
5.0
100
AcDbArc
 50
85.79464299830041
 51
90.0
  0
LINE
  5
18BC
330
1E
100
AcDbEntity
  8
NOCUT
100
AcDbLine
 10
41.18357573489999
 20
5.249999999999983
 30
0.0
 11
56.44838793509997
 21
5.249999999999983
 31
0.0
  0
ARC
  5
18BD
330
1E
100
AcDbEntity
  8
NOCUT
100
AcDbCircle
 10
41.18357573489999
 20
10.24999999999998
 30
0.0
 40
5.0
100
AcDbArc
 50
265.7946429982008
 51
270.0
  0
LINE
  5
18BE
330
1E
100
AcDbEntity
  8
NOCUT
100
AcDbLine
 10
40.81691851969998
 20
5.263461873599978
 30
0.0
 11
41.18357573489999
 21
5.249999999999983
 31
0.0
  0
ARC
  5
18BF
330
1E
100
AcDbEntity
  8
NOCUT
100
AcDbCircle
 10
58.0
 20
3.199999999999988
 30
0.0
 40
2.5
100
AcDbArc
 50
0.0
 51
122.3465321294004
  0
LINE
  5
18C0
330
1E
100
AcDbEntity
  8
NOCUT
100
AcDbLine
 10
60.5
 20
0.0
 30
0.0
 11
60.5
 21
3.199999999999988
 31
0.0
  0
ARC
  5
18C1
330
1E
100
AcDbEntity
  8
NOCUT
100
AcDbCircle
 10
56.44838793509997
 20
5.649999999999991
 30
0.0
 40
0.4
100
AcDbArc
 50
270.0
 51
302.3465321296995
  0
SPLINE
  5
18C8
330
1E
100
AcDbEntity
  8
CUT
100
AcDbSpline
210
0.0
220
0.0
230
1.0
 70
     8
 71
     3
 72
    36
 73
    32
 74
    30
 42
0.0000000001
 43
0.0000000001
 44
0.0000000001
 12
0.9999999735703452
 22
0.0002299115247064
 32
0.0
 13
-0.9999825149657894
 23
-0.0059135237122243
 33
0.0
 40
0.0
 40
0.0
 40
0.0
 40
0.0
 40
0.3248326030019117
 40
0.6496497579136978
 40
0.9744365062394329
 40
1.299179704359113
 40
1.623864578617228
 40
1.948469262398894
 40
2.272973695111306
 40
2.597355590729733
 40
2.921589673492467
 40
3.245646845826312
 40
3.569486462380543
 40
3.893062913887765
 40
4.216324038803831
 40
4.539200870059961
 40
4.861607870059957
 40
5.183430017590239
 40
5.50452098612875
 40
5.824688524403644
 40
6.143677446137597
 40
6.461138615298498
 40
6.776607900156777
 40
7.089519346455887
 40
7.399311045160038
 40
7.705910968512926
 40
8.010869348414193
 40
8.318227249456281
 40
8.632078493404756
 40
8.952666116941578
 40
9.277024138043259
 40
9.277024138043259
 40
9.277024138043259
 40
9.277024138043259
 10
58.0044
 20
6.000000000000006
 30
0.0
 10
58.11267753147223
 20
6.000024894253016
 30
0.0
 10
58.32941003631424
 20
5.98826450492977
 30
0.0
 10
58.65055327434159
 20
5.935724285106326
 30
0.0
 10
58.96416043051176
 20
5.848822301947027
 30
0.0
 10
59.26650475111241
 20
5.728600821290402
 30
0.0
 10
59.55405576007009
 20
5.576475384190807
 30
0.0
 10
59.82343875892333
 20
5.394243869561636
 30
0.0
 10
60.07149332625758
 20
5.184056022519669
 30
0.0
 10
60.2953144680709
 20
4.948399941692726
 30
0.0
 10
60.49227704364578
 20
4.690061560852303
 30
0.0
 10
60.66007361752959
 20
4.412104774320779
 30
0.0
 10
60.79673838302914
 20
4.117832012035012
 30
0.0
 10
60.90066629661584
 20
3.810747238164468
 30
0.0
 10
60.97064272558831
 20
3.494522660107509
 30
0.0
 10
61.00585102569301
 20
3.172958113706084
 30
0.0
 10
61.00587937802512
 20
2.849948995067145
 30
0.0
 10
60.97073256891572
 20
2.529452887768933
 30
0.0
 10
60.90083162803222
 20
2.215462686593824
 30
0.0
 10
60.79700553558346
 20
1.911990364309684
 30
0.0
 10
60.66048495428919
 20
1.62307462448746
 30
0.0
 10
60.4928942073472
 20
1.352813565493136
 30
0.0
 10
60.29621245852085
 20
1.105454133627324
 30
0.0
 10
60.07272402890767
 20
0.885541452673587
 30
0.0
 10
59.82486019015558
 20
0.6981675155135534
 30
0.0
 10
59.55494512288217
 20
0.5492104313329035
 30
0.0
 10
59.26540391815522
 20
0.4450884567851806
 30
0.0
 10
58.96080888157355
 20
0.3883348700777931
 30
0.0
 10
58.64710775644343
 20
0.3686938169276765
 30
0.0
 10
58.32749977673498
 20
0.3662222858229791
 30
0.0
 10
58.11251744989686
 20
0.367785366283023
 30
0.0
 10
58.0044
 20
0.3671460000000113
 30
0.0
 11
58.0044
 21
6.000000000000006
 31
0.0
 11
58.328758
 21
5.982447000000012
 31
0.0
 11
58.64931199999997
 21
5.929994000000013
 31
0.0
 11
58.96230399999998
 21
5.843262000000017
 31
0.0
 11
59.26406599999998
 21
5.723271000000018
 31
0.0
 11
59.55106199999999
 21
5.571437000000008
 31
0.0
 11
59.81992399999998
 21
5.389554000000008
 31
0.0
 11
60.06749899999999
 21
5.179769000000011
 31
0.0
 11
60.29088599999999
 21
4.944563000000005
 31
0.0
 11
60.48746599999997
 21
4.686718000000004
 31
0.0
 11
60.65493599999999
 21
4.409289000000004
 31
0.0
 11
60.79133099999998
 21
4.115574000000012
 31
0.0
 11
60.89504999999999
 21
3.809071000000008
 31
0.0
 11
60.96487899999999
 21
3.493442000000006
 31
0.0
 11
60.99999999999999
 21
3.172481000000008
 31
0.0
 11
60.99999999999999
 21
2.850074000000011
 31
0.0
 11
60.96487899999999
 21
2.530174000000008
 31
0.0
 11
60.89504999999999
 21
2.216768000000008
 31
0.0
 11
60.79133099999998
 21
1.913866000000004
 31
0.0
 11
60.65493599999999
 21
1.625508000000014
 31
0.0
 11
60.48746599999997
 21
1.355813000000017
 31
0.0
 11
60.29088599999999
 21
1.10908000000001
 31
0.0
 11
60.06749899999999
 21
0.8899640000000122
 31
0.0
 11
59.81992399999998
 21
0.7037450000000181
 31
0.0
 11
59.55106199999999
 21
0.556379000000013
 31
0.0
 11
59.26406599999998
 21
0.4532630000000129
 31
0.0
 11
58.96230399999998
 21
0.3948800000000066
 31
0.0
 11
58.64931199999997
 21
0.3716720000000098
 31
0.0
 11
58.328758
 21
0.3670290000000083
 31
0.0
 11
58.0044
 21
0.3671460000000113
 31
0.0
  0
SPLINE
  5
18C9
330
1E
100
AcDbEntity
  8
CUT
100
AcDbSpline
210
0.0
220
0.0
230
1.0
 70
     8
 71
     3
 72
    36
 73
    32
 74
    30
 42
0.0000000001
 43
0.0000000001
 44
0.0000000001
 12
-0.9999999735703452
 22
0.0002299115247064
 32
0.0
 13
0.9999825149657894
 23
-0.0059135237122243
 33
0.0
 40
0.0
 40
0.0
 40
0.0
 40
0.0
 40
0.324832603001933
 40
0.6496497579137259
 40
0.974436506239461
 40
1.299179704359134
 40
1.623864578617237
 40
1.948469262398926
 40
2.272973695111333
 40
2.59735559072974
 40
2.9215896734925
 40
3.245646845826334
 40
3.569486462380568
 40
3.893062913887789
 40
4.216324038803859
 40
4.539200870059987
 40
4.861607870059984
 40
5.183430017590263
 40
5.504520986128778
 40
5.824688524403672
 40
6.143677446137629
 40
6.461138615298518
 40
6.776607900156824
 40
7.089519346455912
 40
7.399311045160058
 40
7.705910968512972
 40
8.010869348414225
 40
8.318227249456306
 40
8.632078493404781
 40
8.95266611694161
 40
9.277024138043312
 40
9.277024138043312
 40
9.277024138043312
 40
9.277024138043312
 10
58.0044
 20
6.000000000000006
 30
0.0
 10
57.89612246852776
 20
6.000024894253016
 30
0.0
 10
57.67938996368574
 20
5.98826450492977
 30
0.0
 10
57.35824672565839
 20
5.935724285106327
 30
0.0
 10
57.0446395694882
 20
5.848822301947027
 30
0.0
 10
56.74229524888758
 20
5.728600821290405
 30
0.0
 10
56.45474423992988
 20
5.576475384190795
 30
0.0
 10
56.18536124107663
 20
5.394243869561646
 30
0.0
 10
55.93730667374234
 20
5.184056022519677
 30
0.0
 10
55.71348553192911
 20
4.948399941692702
 30
0.0
 10
55.51652295635416
 20
4.690061560852325
 30
0.0
 10
55.34872638247041
 20
4.412104774320767
 30
0.0
 10
55.21206161697081
 20
4.117832012035017
 30
0.0
 10
55.10813370338411
 20
3.810747238164466
 30
0.0
 10
55.03815727441162
 20
3.494522660107512
 30
0.0
 10
55.00294897430696
 20
3.172958113706083
 30
0.0
 10
55.00292062197487
 20
2.849948995067146
 30
0.0
 10
55.0380674310842
 20
2.529452887768929
 30
0.0
 10
55.10796837196775
 20
2.215462686593827
 30
0.0
 10
55.21179446441649
 20
1.911990364309679
 30
0.0
 10
55.34831504571079
 20
1.623074624487472
 30
0.0
 10
55.51590579265274
 20
1.352813565493113
 30
0.0
 10
55.71258754147914
 20
1.105454133627348
 30
0.0
 10
55.9360759710923
 20
0.8855414526735788
 30
0.0
 10
56.18393980984439
 20
0.6981675155135432
 30
0.0
 10
56.45385487711781
 20
0.5492104313329151
 30
0.0
 10
56.74339608184478
 20
0.4450884567851777
 30
0.0
 10
57.04799111842643
 20
0.3883348700777932
 30
0.0
 10
57.36169224355652
 20
0.3686938169276763
 30
0.0
 10
57.68130022326502
 20
0.3662222858229791
 30
0.0
 10
57.89628255010313
 20
0.367785366283023
 30
0.0
 10
58.0044
 20
0.3671460000000113
 30
0.0
 11
58.0044
 21
6.000000000000006
 31
0.0
 11
57.68004199999998
 21
5.982447000000012
 31
0.0
 11
57.35948799999999
 21
5.929994000000013
 31
0.0
 11
57.04649599999998
 21
5.843262000000017
 31
0.0
 11
56.744734
 21
5.723271000000018
 31
0.0
 11
56.457738
 21
5.571437000000008
 31
0.0
 11
56.18887599999998
 21
5.389554000000008
 31
0.0
 11
55.94130099999997
 21
5.179769000000011
 31
0.0
 11
55.717914
 21
4.944563000000005
 31
0.0
 11
55.52133399999998
 21
4.686718000000004
 31
0.0
 11
55.35386399999998
 21
4.409289000000004
 31
0.0
 11
55.21746899999999
 21
4.115574000000012
 31
0.0
 11
55.11374999999997
 21
3.809071000000008
 31
0.0
 11
55.04392099999996
 21
3.493442000000006
 31
0.0
 11
55.00879999999997
 21
3.172481000000008
 31
0.0
 11
55.00879999999997
 21
2.850074000000011
 31
0.0
 11
55.04392099999996
 21
2.530174000000008
 31
0.0
 11
55.11374999999997
 21
2.216768000000008
 31
0.0
 11
55.21746899999999
 21
1.913866000000004
 31
0.0
 11
55.35386399999998
 21
1.625508000000014
 31
0.0
 11
55.52133399999998
 21
1.355813000000017
 31
0.0
 11
55.717914
 21
1.10908000000001
 31
0.0
 11
55.94130099999997
 21
0.8899640000000122
 31
0.0
 11
56.18887599999998
 21
0.7037450000000181
 31
0.0
 11
56.457738
 21
0.556379000000013
 31
0.0
 11
56.744734
 21
0.4532630000000129
 31
0.0
 11
57.04649599999998
 21
0.3948800000000066
 31
0.0
 11
57.35948799999999
 21
0.3716720000000098
 31
0.0
 11
57.68004199999998
 21
0.3670290000000083
 31
0.0
 11
58.0044
 21
0.3671460000000113
 31
0.0
  0
LWPOLYLINE
  5
1A50
330
1E
100
AcDbEntity
  8
1
100
AcDbPolyline
 90
        3
 70
     1
 43
0.0
 10
0.0000000000001279
 20
0.0
 10
-2.950972054112455
 20
0.0
 42
0.4142135623730966
 10
0.0000000000001279
 20
-2.950972054112583
  0
HATCH
  5
1A51
330
1E
100
AcDbEntity
  8
1
100
AcDbHatch
 10
0.0
 20
0.0
 30
0.0
210
0.0
220
0.0
230
1.0
  2
SOLID
 70
     1
 71
     0
 91
        2
 92
        7
 72
     1
 73
     1
 93
        3
 10
0.0000000000001279
 20
0.0
 42
0.0
 10
2.950972054112709
 20
0.0
 42
0.4142135623730966
 10
0.0000000000001279
 20
2.950972054112611
 42
0.0
 97
        0
 92
        7
 72
     1
 73
     1
 93
        3
 10
0.0000000000001279
 20
-2.950972054112496
 42
0.0
 10
0.0000000000001279
 20
0.0
 42
0.0
 10
-2.950972054112455
 20
0.0
 42
0.4142135623730953
 97
        0
 75
     0
 76
     1
 47
0.1190009775223266
 98
        2
 10
0.7445530588120306
 20
0.9212244733764975
 10
-1.279464601852807
 20
-1.69679692304629
  0
CIRCLE
  5
1A52
330
1E
100
AcDbEntity
  8
1
100
AcDbCircle
 10
0.0000000000001279
 20
0.0
 30
0.0
 40
2.950972054112601
  0
LINE
  5
1A53
330
1E
100
AcDbEntity
  8
1
100
AcDbLine
 10
0.0000000000001279
 20
2.950972054112611
 30
0.0
 11
0.0000000000001279
 21
-2.950972054112583
 31
0.0
  0
LINE
  5
1A55
330
1E
100
AcDbEntity
  8
1
100
AcDbLine
 10
-2.950972054112709
 20
0.0
 30
0.0
 11
2.950972054112709
 21
0.0
 31
0.0
  0
LWPOLYLINE
  5
1A56
330
1E
100
AcDbEntity
  8
1
100
AcDbPolyline
 90
        3
 70
     1
 43
0.0
 10
0.0000000000001279
 20
2.950972054112611
 10
0.0000000000001279
 20
0.0
 10
2.950972054112709
 20
0.0
 42
0.4142135623730966
  0
ENDSEC
  0
SECTION
  2
OBJECTS
  0
DICTIONARY
  5
C
330
0
100
AcDbDictionary
281
     1
  3
ACAD_COLOR
350
1BC3
  3
ACAD_GROUP
350
D
  3
ACAD_LAYOUT
350
19
  3
ACAD_MATERIAL
350
1BC2
  3
ACAD_MLINESTYLE
350
16
  3
ACAD_PLOTSETTINGS
350
18
  3
ACAD_PLOTSTYLENAME
350
1839
  3
ACAD_TABLESTYLE
350
1BC4
  3
ACDBHEADERROUNDTRIPXREC
350
1BD7
  3
AcDbVariableDictionary
350
1BC7
1001
ACAD
1000
TREAT_AS_HARD
1070
     0
1000
TREAT_AS_HARD
1070
     0
  0
DICTIONARY
  5
E28
330
1E
100
AcDbDictionary
281
     1
  3
ACAD_LAYOUTSELFREF
350
14E3
1001
ACAD
1000
TREAT_AS_HARD
1070
     0
  0
DICTIONARY
  5
E26
330
1A
100
AcDbDictionary
281
     1
  3
ACAD_LAYOUTSELFREF
350
14E2
1001
ACAD
1000
TREAT_AS_HARD
1070
     0
  0
DICTIONARY
  5
1BC3
102
{ACAD_REACTORS
330
C
102
}
330
C
100
AcDbDictionary
281
     1
  0
DICTIONARY
  5
D
102
{ACAD_REACTORS
330
C
102
}
330
C
100
AcDbDictionary
281
     1
1001
ACAD
1000
TREAT_AS_HARD
1070
     0
1000
TREAT_AS_HARD
1070
     0
  0
DICTIONARY
  5
19
102
{ACAD_REACTORS
330
C
102
}
330
C
100
AcDbDictionary
281
     1
  3
Layout1
350
183C
  3
Model
350
183B
1001
ACAD
1000
TREAT_AS_HARD
1070
     0
1000
TREAT_AS_HARD
1070
     0
  0
DICTIONARY
  5
1BC2
102
{ACAD_REACTORS
330
C
102
}
330
C
100
AcDbDictionary
281
     1
  0
DICTIONARY
  5
16
102
{ACAD_REACTORS
330
C
102
}
330
C
100
AcDbDictionary
281
     1
  3
STANDARD
350
17
1001
ACAD
1000
TREAT_AS_HARD
1070
     0
1000
TREAT_AS_HARD
1070
     0
  0
DICTIONARY
  5
18
102
{ACAD_REACTORS
330
C
102
}
330
C
100
AcDbDictionary
281
     1
1001
ACAD
1000
TREAT_AS_HARD
1070
     0
1000
TREAT_AS_HARD
1070
     0
  0
ACDBDICTIONARYWDFLT
  5
1839
102
{ACAD_REACTORS
330
C
102
}
330
C
100
AcDbDictionary
281
     1
  3
Normal
350
183A
100
AcDbDictionaryWithDefault
340
183A
  0
DICTIONARY
  5
1BC4
102
{ACAD_REACTORS
330
C
102
}
330
C
100
AcDbDictionary
281
     1
  3
Standard
350
1BC5
  0
DICTIONARY
  5
1BD7
102
{ACAD_REACTORS
330
C
102
}
330
C
100
AcDbDictionary
281
     1
  0
DICTIONARY
  5
1BC7
102
{ACAD_REACTORS
330
C
102
}
330
C
100
AcDbDictionary
281
     1
  3
CTABLESTYLE
350
1BC8
  3
DIMASSOC
350
1BCA
  3
PROJECTNAME
350
1BCB
  0
XRECORD
  5
14E3
102
{ACAD_REACTORS
330
E28
102
}
330
E28
100
AcDbXrecord
280
     1
340
1E
  0
XRECORD
  5
14E2
102
{ACAD_REACTORS
330
E26
102
}
330
E26
100
AcDbXrecord
280
     1
340
1A
  0
LAYOUT
  5
183C
102
{ACAD_XDICTIONARY
360
1BDA
102
}
102
{ACAD_REACTORS
330
19
102
}
330
19
100
AcDbPlotSettings
  1

  2
\\ingdom02\ITB2
  4

  6

 40
0.0
 41
0.0
 42
0.0
 43
0.0
 44
0.0
 45
0.0
 46
0.0
 47
0.0
 48
0.0
 49
0.0
140
0.0
141
0.0
142
1.0
143
1.0
 70
   688
 72
     0
 73
     0
 74
     5
  7

 75
    16
147
1.0
148
0.0
149
0.0
100
AcDbLayout
  1
Layout1
 70
     1
 71
     1
 10
0.0
 20
0.0
 11
12.0
 21
9.0
 12
0.0
 22
0.0
 32
0.0
 14
100.0
 24
100.0
 34
100.0
 15
-100.0
 25
-100.0
 35
-100.0
146
0.0
 13
0.0
 23
0.0
 33
0.0
 16
1.0
 26
0.0
 36
0.0
 17
0.0
 27
1.0
 37
0.0
 76
     0
330
1A
  0
LAYOUT
  5
183B
102
{ACAD_XDICTIONARY
360
1BD8
102
}
102
{ACAD_REACTORS
330
19
102
}
330
19
100
AcDbPlotSettings
  1

  2
\\ingdom02\ITB2
  4

  6

 40
0.0
 41
0.0
 42
0.0
 43
0.0
 44
0.0
 45
0.0
 46
0.0
 47
0.0
 48
0.0
 49
0.0
140
0.0
141
0.0
142
1.0
143
1.0
 70
  1712
 72
     0
 73
     0
 74
     0
  7

 75
     0
147
1.0
148
0.0
149
0.0
100
AcDbLayout
  1
Model
 70
     1
 71
     0
 10
0.0
 20
0.0
 11
12.0
 21
9.0
 12
0.0
 22
0.0
 32
0.0
 14
0.0
 24
0.0
 34
0.0
 15
0.0
 25
0.0
 35
0.0
146
0.0
 13
0.0
 23
0.0
 33
0.0
 16
1.0
 26
0.0
 36
0.0
 17
0.0
 27
1.0
 37
0.0
 76
     0
330
1E
  0
MLINESTYLE
  5
17
102
{ACAD_REACTORS
330
16
102
}
330
16
100
AcDbMlineStyle
  2
STANDARD
 70
     0
  3

 62
   256
 51
90.0
 52
90.0
 71
     2
 49
0.5
 62
   256
  6
BYLAYER
 49
-0.5
 62
   256
  6
BYLAYER
  0
ACDBPLACEHOLDER
  5
183A
102
{ACAD_REACTORS
330
1839
102
}
330
1839
  0
TABLESTYLE
  5
1BC5
102
{ACAD_REACTORS
330
1BC4
102
}
330
1BC4
100
AcDbTableStyle
  3
Standard
 70
     0
 71
     0
 40
0.06
 41
0.06
280
     0
281
     0
  7
STANDARD
140
0.18
170
     2
 62
     0
 63
     7
283
     0
274
    -2
284
     1
 64
     0
275
    -2
285
     1
 65
     0
276
    -2
286
     1
 66
     0
277
    -2
287
     1
 67
     0
278
    -2
288
     1
 68
     0
279
    -2
289
     1
 69
     0
  7
STANDARD
140
0.25
170
     5
 62
     0
 63
     7
283
     0
274
    -2
284
     1
 64
     0
275
    -2
285
     1
 65
     0
276
    -2
286
     1
 66
     0
277
    -2
287
     1
 67
     0
278
    -2
288
     1
 68
     0
279
    -2
289
     1
 69
     0
  7
STANDARD
140
0.18
170
     5
 62
     0
 63
     7
283
     0
274
    -2
284
     1
 64
     0
275
    -2
285
     1
 65
     0
276
    -2
286
     1
 66
     0
277
    -2
287
     1
 67
     0
278
    -2
288
     1
 68
     0
279
    -2
289
     1
 69
     0
  0
DICTIONARYVAR
  5
1BC8
102
{ACAD_REACTORS
330
1BC7
102
}
330
1BC7
100
DictionaryVariables
280
     0
  1
STANDARD
  0
DICTIONARYVAR
  5
1BCA
102
{ACAD_REACTORS
330
1BC7
102
}
330
1BC7
100
DictionaryVariables
280
     0
  1
1
  0
DICTIONARYVAR
  5
1BCB
102
{ACAD_REACTORS
330
1BC7
102
}
330
1BC7
100
DictionaryVariables
280
     0
  1

  0
DICTIONARY
  5
1BDA
330
183C
100
AcDbDictionary
280
     1
281
     1
  3
ACAD_XREC_ROUNDTRIP
360
1BDB
  0
DICTIONARY
  5
1BD8
330
183B
100
AcDbDictionary
280
     1
281
     1
  3
ACAD_XREC_ROUNDTRIP
360
1BD9
  0
XRECORD
  5
1BDB
102
{ACAD_REACTORS
330
1BDA
102
}
330
1BDA
100
AcDbXrecord
280
     1
102
SHADEPLOT
 70
     0
102
SHADEPLOTRESLEVEL
 70
     2
102
SHADEPLOTCUSTOMDPI
 70
   300
  0
XRECORD
  5
1BD9
102
{ACAD_REACTORS
330
1BD8
102
}
330
1BD8
100
AcDbXrecord
280
     1
102
SHADEPLOT
 70
     0
102
SHADEPLOTRESLEVEL
 70
     2
102
SHADEPLOTCUSTOMDPI
 70
   300
  0
ENDSEC
  0
EOF
