  0
SECTION
  2
HEADER
  9
$ACADVER
  1
AC1015
  9
$ACADMAINTVER
 70
    20
  9
$DWGCODEPAGE
  3
ANSI_1252
  9
$INSBASE
 10
0.0
 20
0.0
 30
0.0
  9
$EXTMIN
 10
-58.4693040206771
 20
-50.56589022415369
 30
-0.0000000349181948
  9
$EXTMAX
 10
64.17995967579622
 20
15.41797626827156
 30
0.0000000814935747
  9
$LIMMIN
 10
0.0
 20
0.0
  9
$LIMMAX
 10
841.0
 20
594.0
  9
$ORTHOMODE
 70
     0
  9
$REGENMODE
 70
     1
  9
$FILLMODE
 70
     1
  9
$QTEXTMODE
 70
     0
  9
$MIRRTEXT
 70
     1
  9
$LTSCALE
 40
10.0
  9
$ATTMODE
 70
     1
  9
$TEXTSIZE
 40
0.2
  9
$TRACEWID
 40
0.05
  9
$TEXTSTYLE
  7
STANDARD
  9
$CLAYER
  8
0
  9
$CELTYPE
  6
BYLAYER
  9
$CECOLOR
 62
   256
  9
$CELTSCALE
 40
1.0
  9
$DISPSILH
 70
     0
  9
$DIMSCALE
 40
1.0
  9
$DIMASZ
 40
2.5
  9
$DIMEXO
 40
5.256249999999996
  9
$DIMDLI
 40
31.958
  9
$DIMRND
 40
0.0
  9
$DIMDLE
 40
0.0
  9
$DIMEXE
 40
15.13799999999999
  9
$DIMTP
 40
0.001
  9
$DIMTM
 40
0.001
  9
$DIMTXT
 40
3.5
  9
$DIMCEN
 40
7.568999999999999
  9
$DIMTSZ
 40
0.0
  9
$DIMTOL
 70
     1
  9
$DIMLIM
 70
     0
  9
$DIMTIH
 70
     1
  9
$DIMTOH
 70
     1
  9
$DIMSE1
 70
     0
  9
$DIMSE2
 70
     0
  9
$DIMTAD
 70
     0
  9
$DIMZIN
 70
     0
  9
$DIMBLK
  1
_FILLED
  9
$DIMASO
 70
     1
  9
$DIMSHO
 70
     1
  9
$DIMPOST
  1

  9
$DIMAPOST
  1

  9
$DIMALT
 70
     0
  9
$DIMALTD
 70
     2
  9
$DIMALTF
 40
25.4
  9
$DIMLFAC
 40
1.0
  9
$DIMTOFL
 70
     0
  9
$DIMTVP
 40
0.0
  9
$DIMTIX
 70
     0
  9
$DIMSOXD
 70
     0
  9
$DIMSAH
 70
     0
  9
$DIMBLK1
  1

  9
$DIMBLK2
  1

  9
$DIMSTYLE
  2
STANDARD
  9
$DIMCLRD
 70
     0
  9
$DIMCLRE
 70
     0
  9
$DIMCLRT
 70
     0
  9
$DIMTFAC
 40
1.0
  9
$DIMGAP
 40
0.09
  9
$DIMJUST
 70
     0
  9
$DIMSD1
 70
     0
  9
$DIMSD2
 70
     0
  9
$DIMTOLJ
 70
     1
  9
$DIMTZIN
 70
     0
  9
$DIMALTZ
 70
     0
  9
$DIMALTTZ
 70
     0
  9
$DIMUPT
 70
     0
  9
$DIMDEC
 70
     4
  9
$DIMTDEC
 70
     4
  9
$DIMALTU
 70
     2
  9
$DIMALTTD
 70
     2
  9
$DIMTXSTY
  7
STANDARD
  9
$DIMAUNIT
 70
     0
  9
$DIMADEC
 70
     0
  9
$DIMALTRND
 40
0.0
  9
$DIMAZIN
 70
     0
  9
$DIMDSEP
 70
    46
  9
$DIMATFIT
 70
     3
  9
$DIMFRAC
 70
     0
  9
$DIMLDRBLK
  1
_FILLED
  9
$DIMLUNIT
 70
     2
  9
$DIMLWD
 70
    -2
  9
$DIMLWE
 70
    -2
  9
$DIMTMOVE
 70
     0
  9
$LUNITS
 70
     2
  9
$LUPREC
 70
     4
  9
$SKETCHINC
 40
0.1
  9
$FILLETRAD
 40
0.0
  9
$AUNITS
 70
     0
  9
$AUPREC
 70
     0
  9
$MENU
  1

  9
$ELEVATION
 40
0.0
  9
$PELEVATION
 40
0.0
  9
$THICKNESS
 40
0.0
  9
$LIMCHECK
 70
     0
  9
$CHAMFERA
 40
0.0
  9
$CHAMFERB
 40
0.0
  9
$CHAMFERC
 40
0.0
  9
$CHAMFERD
 40
0.0
  9
$SKPOLY
 70
     0
  9
$TDCREATE
 40
2453412.664407975
  9
$TDUCREATE
 40
2453412.581074641
  9
$TDUPDATE
 40
2453909.272052130
  9
$TDUUPDATE
 40
2453909.188718796
  9
$TDINDWG
 40
1.3444461343
  9
$TDUSRTIMER
 40
1.3437685301
  9
$USRTIMER
 70
     1
  9
$ANGBASE
 50
0.0
  9
$ANGDIR
 70
     0
  9
$PDMODE
 70
     0
  9
$PDSIZE
 40
0.3125
  9
$PLINEWID
 40
0.0
  9
$SPLFRAME
 70
     0
  9
$SPLINETYPE
 70
     6
  9
$SPLINESEGS
 70
     8
  9
$HANDSEED
  5
1F9C
  9
$SURFTAB1
 70
     6
  9
$SURFTAB2
 70
     6
  9
$SURFTYPE
 70
     6
  9
$SURFU
 70
     6
  9
$SURFV
 70
     6
  9
$UCSBASE
  2

  9
$UCSNAME
  2

  9
$UCSORG
 10
0.0
 20
0.0
 30
0.0
  9
$UCSXDIR
 10
1.0
 20
0.0
 30
0.0
  9
$UCSYDIR
 10
0.0
 20
1.0
 30
0.0
  9
$UCSORTHOREF
  2

  9
$UCSORTHOVIEW
 70
     0
  9
$UCSORGTOP
 10
0.0
 20
0.0
 30
0.0
  9
$UCSORGBOTTOM
 10
0.0
 20
0.0
 30
0.0
  9
$UCSORGLEFT
 10
0.0
 20
0.0
 30
0.0
  9
$UCSORGRIGHT
 10
0.0
 20
0.0
 30
0.0
  9
$UCSORGFRONT
 10
0.0
 20
0.0
 30
0.0
  9
$UCSORGBACK
 10
0.0
 20
0.0
 30
0.0
  9
$PUCSBASE
  2

  9
$PUCSNAME
  2

  9
$PUCSORG
 10
0.0
 20
0.0
 30
0.0
  9
$PUCSXDIR
 10
1.0
 20
0.0
 30
0.0
  9
$PUCSYDIR
 10
0.0
 20
1.0
 30
0.0
  9
$PUCSORTHOREF
  2

  9
$PUCSORTHOVIEW
 70
     0
  9
$PUCSORGTOP
 10
0.0
 20
0.0
 30
0.0
  9
$PUCSORGBOTTOM
 10
0.0
 20
0.0
 30
0.0
  9
$PUCSORGLEFT
 10
0.0
 20
0.0
 30
0.0
  9
$PUCSORGRIGHT
 10
0.0
 20
0.0
 30
0.0
  9
$PUCSORGFRONT
 10
0.0
 20
0.0
 30
0.0
  9
$PUCSORGBACK
 10
0.0
 20
0.0
 30
0.0
  9
$USERI1
 70
     0
  9
$USERI2
 70
     0
  9
$USERI3
 70
     0
  9
$USERI4
 70
     0
  9
$USERI5
 70
     0
  9
$USERR1
 40
0.0
  9
$USERR2
 40
0.0
  9
$USERR3
 40
0.0
  9
$USERR4
 40
0.0
  9
$USERR5
 40
0.0
  9
$WORLDVIEW
 70
     1
  9
$SHADEDGE
 70
     3
  9
$SHADEDIF
 70
    70
  9
$TILEMODE
 70
     1
  9
$MAXACTVP
 70
    64
  9
$PINSBASE
 10
0.0
 20
0.0
 30
0.0
  9
$PLIMCHECK
 70
     0
  9
$PEXTMIN
 10
100.0
 20
100.0
 30
100.0
  9
$PEXTMAX
 10
-100.0
 20
-100.0
 30
-100.0
  9
$PLIMMIN
 10
0.0
 20
0.0
  9
$PLIMMAX
 10
12.0
 20
9.0
  9
$UNITMODE
 70
     0
  9
$VISRETAIN
 70
     1
  9
$PLINEGEN
 70
     1
  9
$PSLTSCALE
 70
     1
  9
$TREEDEPTH
 70
  3020
  9
$CMLSTYLE
  2
STANDARD
  9
$CMLJUST
 70
     0
  9
$CMLSCALE
 40
1.0
  9
$PROXYGRAPHICS
 70
     1
  9
$MEASUREMENT
 70
     0
  9
$CELWEIGHT
370
    -1
  9
$ENDCAPS
280
     0
  9
$JOINSTYLE
280
     0
  9
$LWDISPLAY
290
     0
  9
$INSUNITS
 70
     0
  9
$HYPERLINKBASE
  1

  9
$STYLESHEET
  1

  9
$XEDIT
290
     1
  9
$CEPSNTYPE
380
     0
  9
$PSTYLEMODE
290
     1
  9
$FINGERPRINTGUID
  2
{9ECC402B-B2A3-461E-9D86-B849E271EB12}
  9
$VERSIONGUID
  2
{360D276A-AD76-48E8-BF74-553CDE14E521}
  9
$EXTNAMES
290
     1
  9
$PSVPSCALE
 40
0.0
  9
$OLESTARTUP
290
     0
  0
ENDSEC
  0
SECTION
  2
CLASSES
  0
CLASS
  1
ACDBDICTIONARYWDFLT
  2
AcDbDictionaryWithDefault
  3
ObjectDBX Classes
 90
        0
280
     0
281
     0
  0
CLASS
  1
ACDBPLACEHOLDER
  2
AcDbPlaceHolder
  3
ObjectDBX Classes
 90
        0
280
     0
281
     0
  0
CLASS
  1
LAYOUT
  2
AcDbLayout
  3
ObjectDBX Classes
 90
        0
280
     0
281
     0
  0
CLASS
  1
TABLESTYLE
  2
AcDbTableStyle
  3
ObjectDBX Classes
 90
     2047
280
     0
281
     0
  0
CLASS
  1
DICTIONARYVAR
  2
AcDbDictionaryVar
  3
ObjectDBX Classes
 90
        0
280
     0
281
     0
  0
ENDSEC
  0
SECTION
  2
TABLES
  0
TABLE
  2
VPORT
  5
8
330
0
100
AcDbSymbolTable
 70
     2
  0
VPORT
  5
1F96
330
8
100
AcDbSymbolTableRecord
100
AcDbViewportTableRecord
  2
*Active
 70
     0
 10
0.0
 20
0.0
 11
1.0
 21
1.0
 12
2.855327827559555
 22
-17.57395697794106
 13
0.0
 23
0.0
 14
1.0
 24
1.0
 15
0.0
 25
0.0
 16
0.0
 26
0.0
 36
1.0
 17
0.0
 27
0.0
 37
0.0
 40
80.43497913940136
 41
1.532401524777636
 42
50.0
 43
0.0
 44
0.0
 50
0.0
 51
0.0
 71
     0
 72
  1000
 73
     1
 74
     1
 75
     0
 76
     0
 77
     0
 78
     0
281
     0
 65
     1
110
0.0
120
0.0
130
0.0
111
1.0
121
0.0
131
0.0
112
0.0
122
1.0
132
0.0
 79
     0
146
0.0
  0
ENDTAB
  0
TABLE
  2
LTYPE
  5
5
330
0
100
AcDbSymbolTable
 70
     2
  0
LTYPE
  5
13
330
5
100
AcDbSymbolTableRecord
100
AcDbLinetypeTableRecord
  2
BYBLOCK
 70
     0
  3

 72
    65
 73
     0
 40
0.0
  0
LTYPE
  5
14
330
5
100
AcDbSymbolTableRecord
100
AcDbLinetypeTableRecord
  2
BYLAYER
 70
     0
  3

 72
    65
 73
     0
 40
0.0
  0
LTYPE
  5
15
330
5
100
AcDbSymbolTableRecord
100
AcDbLinetypeTableRecord
  2
CONTINUOUS
 70
     0
  3
Solid line
 72
    65
 73
     0
 40
0.0
  0
LTYPE
  5
29
330
5
100
AcDbSymbolTableRecord
100
AcDbLinetypeTableRecord
  2
CENTER
 70
     0
  3
____ _ ____ _ ____ _ ____ _ ____ _ ____ _ ____
 72
    65
 73
     4
 40
0.6
 49
0.375
 74
     0
 49
-0.075
 74
     0
 49
0.075
 74
     0
 49
-0.075
 74
     0
  0
ENDTAB
  0
TABLE
  2
LAYER
  5
2
330
0
100
AcDbSymbolTable
 70
    11
  0
LAYER
  5
10
330
2
100
AcDbSymbolTableRecord
100
AcDbLayerTableRecord
  2
1
 70
     0
 62
     4
  6
CONTINUOUS
370
    -3
390
1C0C
  0
LAYER
  5
2C
330
2
100
AcDbSymbolTableRecord
100
AcDbLayerTableRecord
  2
2
 70
     0
 62
     7
  6
CONTINUOUS
370
    -3
390
1C0C
  0
LAYER
  5
2E
330
2
100
AcDbSymbolTableRecord
100
AcDbLayerTableRecord
  2
4
 70
     0
 62
     2
  6
CENTER
370
    -3
390
1C0C
  0
LAYER
  5
31
330
2
100
AcDbSymbolTableRecord
100
AcDbLayerTableRecord
  2
0
 70
     0
 62
     7
  6
CONTINUOUS
370
    -3
390
1C0C
  0
LAYER
  5
74B
330
2
100
AcDbSymbolTableRecord
100
AcDbLayerTableRecord
  2
DEFPOINTS
 70
     0
 62
     7
  6
CONTINUOUS
290
     0
370
    -3
390
1C0C
  0
LAYER
  5
74C
330
2
100
AcDbSymbolTableRecord
100
AcDbLayerTableRecord
  2
SK1
 70
     0
 62
     4
  6
CONTINUOUS
370
    -3
390
1C0C
  0
LAYER
  5
74D
330
2
100
AcDbSymbolTableRecord
100
AcDbLayerTableRecord
  2
SK4
 70
     0
 62
     2
  6
CENTER
370
    -3
390
1C0C
  0
LAYER
  5
74F
330
2
100
AcDbSymbolTableRecord
100
AcDbLayerTableRecord
  2
SK2
 70
     0
 62
     7
  6
CONTINUOUS
370
    -3
390
1C0C
  0
LAYER
  5
1C40
330
2
100
AcDbSymbolTableRecord
100
AcDbLayerTableRecord
  2
CUT
 70
     0
 62
     1
  6
CONTINUOUS
370
    -3
390
1C0C
  0
LAYER
  5
1C4E
330
2
100
AcDbSymbolTableRecord
100
AcDbLayerTableRecord
  2
6
 70
     0
 62
     5
  6
CONTINUOUS
370
    -3
390
1C0C
  0
LAYER
  5
1C60
330
2
100
AcDbSymbolTableRecord
100
AcDbLayerTableRecord
  2
NOCUT
 70
     0
 62
     7
  6
CONTINUOUS
370
    -3
390
1C0C
  0
ENDTAB
  0
TABLE
  2
STYLE
  5
3
330
0
100
AcDbSymbolTable
 70
     1
  0
STYLE
  5
11
330
3
100
AcDbSymbolTableRecord
100
AcDbTextStyleTableRecord
  2
STANDARD
 70
     0
 40
0.0
 41
0.8
 50
0.0
 71
     0
 42
0.2
  3
isocp.shx
  4

  0
ENDTAB
  0
TABLE
  2
VIEW
  5
6
330
0
100
AcDbSymbolTable
 70
     0
  0
ENDTAB
  0
TABLE
  2
UCS
  5
7
330
0
100
AcDbSymbolTable
 70
     0
  0
ENDTAB
  0
TABLE
  2
APPID
  5
9
330
0
100
AcDbSymbolTable
 70
     1
  0
APPID
  5
12
330
9
100
AcDbSymbolTableRecord
100
AcDbRegAppTableRecord
  2
ACAD
 70
     0
  0
ENDTAB
  0
TABLE
  2
DIMSTYLE
  5
A
330
0
100
AcDbSymbolTable
 70
     2
100
AcDbDimStyleTable
 71
     0
  0
DIMSTYLE
105
2B
330
A
100
AcDbSymbolTableRecord
100
AcDbDimStyleTableRecord
  2
STANDARD
 70
     0
340
11
  0
DIMSTYLE
105
751
102
{ACAD_REACTORS
330
6A
330
6B
330
6C
330
6E
330
ABC
102
}
330
A
100
AcDbSymbolTableRecord
100
AcDbDimStyleTableRecord
  2
ISO-25
 70
     0
 41
2.5
 42
0.625
 43
3.75
 44
1.25
 73
     0
 74
     0
 77
     1
 78
     8
140
2.5
141
2.5
143
0.03937007874016
147
0.625
171
     3
172
     1
271
     2
272
     2
274
     3
283
     0
284
     8
340
11
  0
ENDTAB
  0
TABLE
  2
BLOCK_RECORD
  5
1
330
0
100
AcDbSymbolTable
 70
     6
  0
BLOCK_RECORD
  5
1E
102
{ACAD_XDICTIONARY
360
1218
102
}
330
1
100
AcDbSymbolTableRecord
100
AcDbBlockTableRecord
  2
*MODEL_SPACE
340
1C0D
  0
BLOCK_RECORD
  5
1A
102
{ACAD_XDICTIONARY
360
1216
102
}
330
1
100
AcDbSymbolTableRecord
100
AcDbBlockTableRecord
  2
*PAPER_SPACE
340
1C0E
  0
BLOCK_RECORD
  5
23
330
1
100
AcDbSymbolTableRecord
100
AcDbBlockTableRecord
  2
_FILLED
340
0
  0
BLOCK_RECORD
  5
A2E
330
1
100
AcDbSymbolTableRecord
100
AcDbBlockTableRecord
  2
*D1
340
0
  0
BLOCK_RECORD
  5
A3C
330
1
100
AcDbSymbolTableRecord
100
AcDbBlockTableRecord
  2
*D2
340
0
  0
BLOCK_RECORD
  5
A48
330
1
100
AcDbSymbolTableRecord
100
AcDbBlockTableRecord
  2
*D3
340
0
  0
BLOCK_RECORD
  5
A60
330
1
100
AcDbSymbolTableRecord
100
AcDbBlockTableRecord
  2
*D4
340
0
  0
BLOCK_RECORD
  5
ABD
330
1
100
AcDbSymbolTableRecord
100
AcDbBlockTableRecord
  2
*D5
340
0
  0
ENDTAB
  0
ENDSEC
  0
SECTION
  2
BLOCKS
  0
BLOCK
  5
34
330
1E
100
AcDbEntity
  8
0
100
AcDbBlockBegin
  2
*MODEL_SPACE
 70
     0
 10
0.0
 20
0.0
 30
0.0
  3
*MODEL_SPACE
  1

  0
ENDBLK
  5
35
330
1E
100
AcDbEntity
  8
0
100
AcDbBlockEnd
  0
BLOCK
  5
32
330
1A
100
AcDbEntity
 67
     1
  8
0
100
AcDbBlockBegin
  2
*PAPER_SPACE
 70
     0
 10
0.0
 20
0.0
 30
0.0
  3
*PAPER_SPACE
  1

  0
ENDBLK
  5
33
330
1A
100
AcDbEntity
 67
     1
  8
0
100
AcDbBlockEnd
  0
BLOCK
  5
38
330
23
100
AcDbEntity
  8
0
100
AcDbBlockBegin
  2
_FILLED
 70
     0
 10
0.0
 20
0.0
 30
0.0
  3
_FILLED
  1

  0
SOLID
  5
39
330
23
100
AcDbEntity
  8
0
  6
ByBlock
 62
     0
100
AcDbTrace
 10
0.0
 20
0.0
 30
0.0
 11
-1.0
 21
0.132
 31
0.0
 12
-1.0
 22
-0.132
 32
0.0
 13
-1.0
 23
-0.132
 33
0.0
  0
ENDBLK
  5
3A
330
23
100
AcDbEntity
  8
0
100
AcDbBlockEnd
  0
BLOCK
  5
A3A
330
A2E
100
AcDbEntity
  8
0
100
AcDbBlockBegin
  2
*D1
 70
     1
 10
0.0
 20
0.0
 30
0.0
  3
*D1
  1

  0
LINE
  5
1C7D
330
A2E
100
AcDbEntity
  8
2
 62
     0
370
    -2
100
AcDbLine
 10
38.62940000000014
 20
-5.988766882399946
 30
0.0
 11
57.58890224867379
 21
-5.988766882399947
 31
0.0
  0
LINE
  5
1C7E
330
A2E
100
AcDbEntity
  8
2
 62
     0
370
    -2
100
AcDbLine
 10
37.83750318107127
 20
5.988766882399991
 30
0.0
 11
57.58890224867379
 21
5.988766882399986
 31
0.0
  0
LINE
  5
1C7F
330
A2E
100
AcDbEntity
  8
2
 62
     0
370
    -2
100
AcDbLine
 10
56.33890224867379
 20
-3.48876688239995
 30
0.0
 11
56.33890224867379
 21
3.488766882399988
 31
0.0
  0
SOLID
  5
1C80
330
A2E
100
AcDbEntity
  8
2
 62
     0
100
AcDbTrace
 10
55.92223558200711
 20
-3.48876688239995
 30
0.0
 11
56.75556891534045
 21
-3.48876688239995
 31
0.0
 12
56.33890224867379
 22
-5.988766882399947
 32
0.0
 13
56.33890224867379
 23
-5.988766882399947
 33
0.0
  0
SOLID
  5
1C81
330
A2E
100
AcDbEntity
  8
2
 62
     0
100
AcDbTrace
 10
55.92223558200711
 20
3.488766882399988
 30
0.0
 11
56.75556891534045
 21
3.488766882399988
 31
0.0
 12
56.33890224867379
 22
5.988766882399986
 32
0.0
 13
56.33890224867379
 23
5.988766882399986
 33
0.0
  0
MTEXT
  5
1C82
330
A2E
100
AcDbEntity
  8
2
 62
     0
100
AcDbMText
 10
54.46390224867379
 20
-0.5202990702999914
 30
0.0
 40
2.5
 41
0.0
 71
     5
 72
     1
  1
%%c12
 11
0.0000000000000001
 21
1.0
 31
0.0
 73
     1
 44
1.0
1001
ACAD
1000
MTEXTBEGIN
1070
    73
1070
     1
1070
    44
1040
1.0
1070
    74
1070
     0
1000
MTEXTEND
  0
POINT
  5
1C83
330
A2E
100
AcDbEntity
  8
DEFPOINTS
 62
     0
100
AcDbPoint
 10
38.00440000000014
 20
-5.988766882399946
 30
0.0
  0
POINT
  5
1C84
330
A2E
100
AcDbEntity
  8
DEFPOINTS
 62
     0
100
AcDbPoint
 10
37.21250318107127
 20
5.988766882399991
 30
0.0
  0
POINT
  5
1C85
330
A2E
100
AcDbEntity
  8
DEFPOINTS
 62
     0
100
AcDbPoint
 10
56.33890224867379
 20
5.988766882399986
 30
0.0
  0
ENDBLK
  5
A3B
330
A2E
100
AcDbEntity
  8
0
100
AcDbBlockEnd
  0
BLOCK
  5
A46
330
A3C
100
AcDbEntity
  8
0
100
AcDbBlockBegin
  2
*D2
 70
     1
 10
0.0
 20
0.0
 30
0.0
  3
*D2
  1

  0
LINE
  5
1C21
330
A3C
100
AcDbEntity
  8
2
 62
     0
370
    -2
100
AcDbLine
 10
41.00440000000003
 20
-3.613766882400117
 30
0.0
 11
41.00440000000003
 21
-24.86546149305377
 31
0.0
  0
LINE
  5
1C22
330
A3C
100
AcDbEntity
  8
2
 62
     0
370
    -2
100
AcDbLine
 10
21.44292530670014
 20
-5.875000000000115
 30
0.0
 11
21.44292530670014
 21
-24.86546149305377
 31
0.0
  0
LINE
  5
1C23
330
A3C
100
AcDbEntity
  8
2
 62
     0
370
    -2
100
AcDbLine
 10
38.50440000000003
 20
-23.61546149305377
 30
0.0
 11
23.94292530670014
 21
-23.61546149305377
 31
0.0
  0
SOLID
  5
1C24
330
A3C
100
AcDbEntity
  8
2
 62
     0
100
AcDbTrace
 10
38.50440000000003
 20
-23.1987948263871
 30
0.0
 11
38.50440000000003
 21
-24.03212815972044
 31
0.0
 12
41.00440000000003
 22
-23.61546149305377
 32
0.0
 13
41.00440000000003
 23
-23.61546149305377
 33
0.0
  0
SOLID
  5
1C25
330
A3C
100
AcDbEntity
  8
2
 62
     0
100
AcDbTrace
 10
23.94292530670014
 20
-23.1987948263871
 30
0.0
 11
23.94292530670014
 21
-24.03212815972044
 31
0.0
 12
21.44292530670014
 22
-23.61546149305377
 32
0.0
 13
21.44292530670014
 23
-23.61546149305377
 33
0.0
  0
MTEXT
  5
1C26
330
A3C
100
AcDbEntity
  8
2
 62
     0
100
AcDbMText
 10
31.10649484220015
 20
-21.74046149305377
 30
0.0
 40
2.5
 41
0.0
 71
     5
 72
     1
  1
20
 73
     1
 44
1.0
1001
ACAD
1000
MTEXTBEGIN
1070
    73
1070
     1
1070
    44
1040
1.0
1070
    74
1070
     0
1000
MTEXTEND
  0
POINT
  5
1C27
330
A3C
100
AcDbEntity
  8
DEFPOINTS
 62
     0
100
AcDbPoint
 10
41.00440000000003
 20
-2.988766882400117
 30
0.0
  0
POINT
  5
1C28
330
A3C
100
AcDbEntity
  8
DEFPOINTS
 62
     0
100
AcDbPoint
 10
21.44292530670014
 20
-5.250000000000116
 30
0.0
  0
POINT
  5
1C29
330
A3C
100
AcDbEntity
  8
DEFPOINTS
 62
     0
100
AcDbPoint
 10
21.44292530670014
 20
-23.61546149305377
 30
0.0
  0
ENDBLK
  5
A47
330
A3C
100
AcDbEntity
  8
0
100
AcDbBlockEnd
  0
BLOCK
  5
A52
330
A48
100
AcDbEntity
  8
0
100
AcDbBlockBegin
  2
*D3
 70
     1
 10
0.0
 20
0.0
 30
0.0
  3
*D3
  1

  0
LINE
  5
1C18
330
A48
100
AcDbEntity
  8
SK2
 62
     0
370
    -2
100
AcDbLine
 10
-24.0
 20
-6.379249656467722
 30
0.0
 11
-24.0
 21
-34.72773478676766
 31
0.0
  0
LINE
  5
1C19
330
A48
100
AcDbEntity
  8
SK2
 62
     0
370
    -2
100
AcDbLine
 10
41.00440000000003
 20
-3.734539712385953
 30
0.0
 11
41.00440000000003
 21
-34.72773478676766
 31
0.0
  0
LINE
  5
1C1A
330
A48
100
AcDbEntity
  8
SK2
 62
     0
370
    -2
100
AcDbLine
 10
-21.49999999999999
 20
-33.47773478676766
 30
0.0
 11
38.50440000000003
 21
-33.47773478676766
 31
0.0
  0
SOLID
  5
1C1B
330
A48
100
AcDbEntity
  8
SK2
 62
     0
100
AcDbTrace
 10
-21.49999999999999
 20
-33.06106812010099
 30
0.0
 11
-21.49999999999999
 21
-33.89440145343431
 31
0.0
 12
-24.0
 22
-33.47773478676766
 32
0.0
 13
-24.0
 23
-33.47773478676766
 33
0.0
  0
SOLID
  5
1C1C
330
A48
100
AcDbEntity
  8
SK2
 62
     0
100
AcDbTrace
 10
38.50440000000003
 20
-33.06106812010099
 30
0.0
 11
38.50440000000003
 21
-33.89440145343431
 31
0.0
 12
41.00440000000003
 22
-33.47773478676766
 32
0.0
 13
41.00440000000003
 23
-33.47773478676766
 33
0.0
  0
MTEXT
  5
1C1D
330
A48
100
AcDbEntity
  8
SK2
 62
     0
100
AcDbMText
 10
6.586875976399986
 20
-31.60273478676765
 30
0.0
 40
2.5
 41
0.0
 71
     5
 72
     1
  1
65
 73
     1
 44
1.0
1001
ACAD
1000
MTEXTBEGIN
1070
    73
1070
     1
1070
    44
1040
1.0
1070
    74
1070
     0
1000
MTEXTEND
  0
POINT
  5
1C1E
330
A48
100
AcDbEntity
  8
DEFPOINTS
 62
     0
100
AcDbPoint
 10
-24.0
 20
-5.754249656467722
 30
0.0
  0
POINT
  5
1C1F
330
A48
100
AcDbEntity
  8
DEFPOINTS
 62
     0
100
AcDbPoint
 10
41.00440000000003
 20
-3.109539712385953
 30
0.0
  0
POINT
  5
1C20
330
A48
100
AcDbEntity
  8
DEFPOINTS
 62
     0
100
AcDbPoint
 10
41.00440000000003
 20
-33.47773478676766
 30
0.0
  0
ENDBLK
  5
A53
330
A48
100
AcDbEntity
  8
0
100
AcDbBlockEnd
  0
BLOCK
  5
A6A
330
A60
100
AcDbEntity
  8
0
100
AcDbBlockBegin
  2
*D4
 70
     1
 10
0.0
 20
0.0
 30
0.0
  3
*D4
  1

  0
LINE
  5
1F8D
330
A60
100
AcDbEntity
  8
SK2
 62
     0
370
    -2
100
AcDbLine
 10
-48.625
 20
-7.999999999999992
 30
0.0
 11
-56.56770486390565
 21
-7.999999999999991
 31
0.0
  0
LINE
  5
1F8E
330
A60
100
AcDbEntity
  8
SK2
 62
     0
370
    -2
100
AcDbLine
 10
-48.625
 20
8.000000000000005
 30
0.0
 11
-56.56770486390565
 21
8.000000000000008
 31
0.0
  0
LINE
  5
1F8F
330
A60
100
AcDbEntity
  8
SK2
 62
     0
370
    -2
100
AcDbLine
 10
-55.31770486390565
 20
-5.499999999999991
 30
0.0
 11
-55.31770486390565
 21
5.500000000000007
 31
0.0
  0
SOLID
  5
1F90
330
A60
100
AcDbEntity
  8
SK2
 62
     0
100
AcDbTrace
 10
-55.73437153057231
 20
-5.499999999999991
 30
0.0
 11
-54.90103819723898
 21
-5.499999999999991
 31
0.0
 12
-55.31770486390565
 22
-7.999999999999991
 32
0.0
 13
-55.31770486390565
 23
-7.999999999999991
 33
0.0
  0
SOLID
  5
1F91
330
A60
100
AcDbEntity
  8
SK2
 62
     0
100
AcDbTrace
 10
-55.73437153057231
 20
5.500000000000007
 30
0.0
 11
-54.90103819723898
 21
5.500000000000007
 31
0.0
 12
-55.31770486390565
 22
8.000000000000007
 32
0.0
 13
-55.31770486390565
 23
8.000000000000007
 33
0.0
  0
MTEXT
  5
1F92
330
A60
100
AcDbEntity
  8
SK2
 62
     0
100
AcDbMText
 10
-57.19270486390565
 20
0.1087309937114471
 30
0.0
 40
2.5
 41
0.0
 71
     5
 72
     1
  1
%%c16
 11
0.0000000000000001
 21
1.0
 31
0.0
 73
     1
 44
1.0
1001
ACAD
1000
MTEXTBEGIN
1070
    73
1070
     1
1070
    44
1040
1.0
1070
    74
1070
     0
1000
MTEXTEND
  0
POINT
  5
1F93
330
A60
100
AcDbEntity
  8
DEFPOINTS
 62
     0
100
AcDbPoint
 10
-48.0
 20
-7.999999999999992
 30
0.0
  0
POINT
  5
1F94
330
A60
100
AcDbEntity
  8
DEFPOINTS
 62
     0
100
AcDbPoint
 10
-48.0
 20
8.000000000000005
 30
0.0
  0
POINT
  5
1F95
330
A60
100
AcDbEntity
  8
DEFPOINTS
 62
     0
100
AcDbPoint
 10
-55.31770486390565
 20
8.000000000000007
 30
0.0
  0
ENDBLK
  5
A6B
330
A60
100
AcDbEntity
  8
0
100
AcDbBlockEnd
  0
BLOCK
  5
AC7
330
ABD
100
AcDbEntity
  8
0
100
AcDbBlockBegin
  2
*D5
 70
     1
 10
0.0
 20
0.0
 30
0.0
  3
*D5
  1

  0
LINE
  5
1C45
330
ABD
100
AcDbEntity
  8
SK2
 62
     0
370
    -2
100
AcDbLine
 10
-48.0
 20
-5.677734786767641
 30
0.0
 11
-48.0
 21
-44.72773478676765
 31
0.0
  0
LINE
  5
1C46
330
ABD
100
AcDbEntity
  8
SK2
 62
     0
370
    -2
100
AcDbLine
 10
41.00439999999998
 20
-2.882470409682158
 30
0.0
 11
41.00439999999998
 21
-44.72773478676765
 31
0.0
  0
LINE
  5
1C47
330
ABD
100
AcDbEntity
  8
SK2
 62
     0
370
    -2
100
AcDbLine
 10
-45.49999999999999
 20
-43.47773478676765
 30
0.0
 11
38.50439999999997
 21
-43.47773478676765
 31
0.0
  0
SOLID
  5
1C48
330
ABD
100
AcDbEntity
  8
SK2
 62
     0
100
AcDbTrace
 10
-45.49999999999999
 20
-43.06106812010098
 30
0.0
 11
-45.49999999999999
 21
-43.89440145343431
 31
0.0
 12
-48.0
 22
-43.47773478676765
 32
0.0
 13
-48.0
 23
-43.47773478676765
 33
0.0
  0
SOLID
  5
1C49
330
ABD
100
AcDbEntity
  8
SK2
 62
     0
100
AcDbTrace
 10
38.50439999999997
 20
-43.06106812010098
 30
0.0
 11
38.50439999999997
 21
-43.89440145343431
 31
0.0
 12
41.00439999999998
 22
-43.47773478676765
 32
0.0
 13
41.00439999999998
 23
-43.47773478676765
 33
0.0
  0
MTEXT
  5
1C4A
330
ABD
100
AcDbEntity
  8
SK2
 62
     0
100
AcDbMText
 10
-0.4237683454999851
 20
-41.60273478676765
 30
0.0
 40
2.5
 41
0.0
 71
     5
 72
     1
  1
89
 73
     1
 44
1.0
1001
ACAD
1000
MTEXTBEGIN
1070
    73
1070
     1
1070
    44
1040
1.0
1070
    74
1070
     0
1000
MTEXTEND
  0
POINT
  5
1C4B
330
ABD
100
AcDbEntity
  8
DEFPOINTS
 62
     0
100
AcDbPoint
 10
-48.0
 20
-5.052734786767641
 30
0.0
  0
POINT
  5
1C4C
330
ABD
100
AcDbEntity
  8
DEFPOINTS
 62
     0
100
AcDbPoint
 10
41.00439999999998
 20
-2.257470409682158
 30
0.0
  0
POINT
  5
1C4D
330
ABD
100
AcDbEntity
  8
DEFPOINTS
 62
     0
100
AcDbPoint
 10
41.00439999999998
 20
-43.47773478676765
 30
0.0
  0
ENDBLK
  5
AC8
330
ABD
100
AcDbEntity
  8
0
100
AcDbBlockEnd
  0
ENDSEC
  0
SECTION
  2
ENTITIES
  0
DIMENSION
  5
6A
330
1E
100
AcDbEntity
  8
2
100
AcDbDimension
  2
*D1
 10
56.33890224867379
 20
5.988766882399986
 30
0.0
 11
56.33890224867379
 21
-0.5202990702999914
 31
0.0
 70
   160
  1
%%c<>
 71
     5
 42
11.97753376479994
  3
ISO-25
100
AcDbAlignedDimension
 13
38.00440000000014
 23
-5.988766882399946
 33
0.0
 14
37.21250318107127
 24
5.988766882399991
 34
0.0
 50
89.99999999999998
100
AcDbRotatedDimension
1001
ACAD
1000
DSTYLE
1002
{
1070
   271
1070
     0
1002
}
  0
DIMENSION
  5
6B
330
1E
100
AcDbEntity
  8
2
100
AcDbDimension
  2
*D2
 10
21.44292530670014
 20
-23.61546149305377
 30
0.0
 11
31.10649484220015
 21
-23.61546149305377
 31
0.0
 70
   160
 71
     5
 42
19.56147469329987
  3
ISO-25
100
AcDbAlignedDimension
 13
41.00440000000003
 23
-2.988766882400117
 33
0.0
 14
21.44292530670014
 24
-5.250000000000116
 34
0.0
 50
180.0
100
AcDbRotatedDimension
1001
ACAD
1000
DSTYLE
1002
{
1070
   271
1070
     0
1002
}
  0
DIMENSION
  5
6C
330
1E
100
AcDbEntity
  8
SK2
100
AcDbDimension
  2
*D3
 10
41.00440000000003
 20
-33.47773478676766
 30
0.0
 11
6.586875976399986
 21
-33.47773478676766
 31
0.0
 70
   160
 71
     5
 42
65.00440000000003
  3
ISO-25
100
AcDbAlignedDimension
 13
-24.0
 23
-5.754249656467722
 33
0.0
 14
41.00440000000003
 24
-3.109539712385953
 34
0.0
100
AcDbRotatedDimension
  0
DIMENSION
  5
6E
330
1E
100
AcDbEntity
  8
SK2
100
AcDbDimension
  2
*D4
 10
-55.31770486390565
 20
8.000000000000007
 30
0.0
 11
-55.31770486390565
 21
0.1087309937114469
 31
0.0
 70
   160
  1
%%c<>
 71
     5
 42
16.0
  3
ISO-25
100
AcDbAlignedDimension
 13
-48.0
 23
-7.999999999999992
 33
0.0
 14
-48.0
 24
8.000000000000005
 34
0.0
 50
89.99999999999998
100
AcDbRotatedDimension
  0
TEXT
  5
6F
330
1E
100
AcDbEntity
  8
6
100
AcDbText
 10
4.333306910249234
 20
-50.53817529110973
 30
0.0
 40
3.5
  1
15B1D012040W3R00
100
AcDbText
  0
LINE
  5
70
330
1E
100
AcDbEntity
  8
1
100
AcDbLine
 10
40.49999999999999
 20
-2.756135228400129
 30
0.0
 11
40.49999999999999
 21
-2.548811936700138
 31
0.0
  0
LINE
  5
71
330
1E
100
AcDbEntity
  8
1
100
AcDbLine
 10
39.00000000000011
 20
0.1588573699998458
 30
0.0
 11
39.00000000000011
 21
0.0973093066999648
 31
0.0
  0
LINE
  5
72
330
1E
100
AcDbEntity
  8
1
100
AcDbLine
 10
20.56397210340012
 20
5.327862124399866
 30
0.0
 11
7.4360278858
 21
7.672137877600047
 31
0.0
  0
LINE
  5
73
330
1E
100
AcDbEntity
  8
SK1
100
AcDbLine
 10
0.000000000000001
 20
8.0
 30
0.0
 11
-47.19999999999997
 21
8.000000000000005
 31
0.0
  0
LINE
  5
74
330
1E
100
AcDbEntity
  8
1
100
AcDbLine
 10
6.557074693300021
 20
7.749999999999884
 30
0.0
 11
0.2500000000000009
 21
7.749999999999886
 31
0.0
  0
LINE
  5
75
330
1E
100
AcDbEntity
  8
1
100
AcDbLine
 10
7.4360278858
 20
7.672137877600047
 30
0.0
 11
6.557074693400124
 21
7.749999999999884
 31
0.0
  0
LINE
  5
76
330
1E
100
AcDbEntity
  8
1
100
AcDbLine
 10
20.56397210340012
 20
5.327862124399866
 30
0.0
 11
21.44292530670014
 21
5.249999999999879
 31
0.0
  0
LINE
  5
77
330
1E
100
AcDbEntity
  8
1
100
AcDbLine
 10
-0.000000000000001
 20
-8.0
 30
0.0
 11
0.000000000000001
 21
8.0
 31
0.0
  0
LINE
  5
78
330
1E
100
AcDbEntity
  8
1
100
AcDbLine
 10
27.60928765210001
 20
5.249999999999879
 30
0.0
 11
21.44292530670014
 21
5.249999999999879
 31
0.0
  0
LINE
  5
79
330
1E
100
AcDbEntity
  8
1
100
AcDbLine
 10
35.77548553790001
 20
5.24734404629992
 30
0.0
 11
27.82179969570012
 21
5.247344046299922
 31
0.0
  0
LINE
  5
7A
330
1E
100
AcDbEntity
  8
SK1
100
AcDbLine
 10
-19.0
 20
5.055689863900002
 30
0.0
 11
-29.0
 21
5.055689863900003
 31
0.0
  0
LINE
  5
7B
330
1E
100
AcDbEntity
  8
1
100
AcDbLine
 10
37.50440000000013
 20
0.2887668824000069
 30
0.0
 11
35.00440000000013
 21
0.2887668824000073
 31
0.0
  0
LINE
  5
7D
330
1E
100
AcDbEntity
  8
4
100
AcDbLine
 10
41.3933906552529
 20
-0.0000000000000051
 30
0.0
 11
0.0
 21
0.0
 31
0.0
  0
LINE
  5
80
330
1E
100
AcDbEntity
  8
SK1
100
AcDbLine
 10
-19.0
 20
-5.055689863899996
 30
0.0
 11
-29.0
 21
-5.055689863899996
 31
0.0
  0
LINE
  5
81
330
1E
100
AcDbEntity
  8
1
100
AcDbLine
 10
36.16197994560014
 20
-5.250000000000118
 30
0.0
 11
21.44292530670014
 21
-5.250000000000116
 31
0.0
  0
LINE
  5
82
330
1E
100
AcDbEntity
  8
1
100
AcDbLine
 10
20.56397210340012
 20
-5.327862124400041
 30
0.0
 11
21.44292530670014
 21
-5.250000000000116
 31
0.0
  0
LINE
  5
83
330
1E
100
AcDbEntity
  8
1
100
AcDbLine
 10
7.436027885799997
 20
-7.672137877500117
 30
0.0
 11
6.557074693400122
 21
-7.750000000000111
 31
0.0
  0
LINE
  5
84
330
1E
100
AcDbEntity
  8
1
100
AcDbLine
 10
6.557074693300021
 20
-7.750000000000111
 30
0.0
 11
0.2499999999999991
 21
-7.750000000000111
 31
0.0
  0
LINE
  5
85
330
1E
100
AcDbEntity
  8
SK1
100
AcDbLine
 10
-0.000000000000001
 20
-8.0
 30
0.0
 11
-47.19999999999997
 21
-7.999999999999992
 31
0.0
  0
LINE
  5
86
330
1E
100
AcDbEntity
  8
1
100
AcDbLine
 10
20.56397210340012
 20
-5.327862124400041
 30
0.0
 11
7.436027885799997
 21
-7.672137877500117
 31
0.0
  0
LINE
  5
87
330
1E
100
AcDbEntity
  8
SK1
100
AcDbLine
 10
-19.0
 20
5.055689863900002
 30
0.0
 11
-19.0
 21
-5.055689863899996
 31
0.0
  0
LINE
  5
88
330
1E
100
AcDbEntity
  8
SK4
100
AcDbLine
 10
-24.0
 20
-3.603827078822118
 30
0.0
 11
-24.0
 21
3.000099999999863
 31
0.0
  0
LINE
  5
8A
330
1E
100
AcDbEntity
  8
SK1
100
AcDbLine
 10
-29.0
 20
5.055689863900003
 30
0.0
 11
-29.0
 21
-5.055689863899996
 31
0.0
  0
LINE
  5
8B
330
1E
100
AcDbEntity
  8
SK1
100
AcDbLine
 10
-47.19999999999997
 20
8.000000000000005
 30
0.0
 11
-48.0
 21
7.199999999999878
 31
0.0
  0
LINE
  5
8C
330
1E
100
AcDbEntity
  8
SK1
100
AcDbLine
 10
-47.19999999999997
 20
-7.999999999999992
 30
0.0
 11
-48.0
 21
-7.200000000000152
 31
0.0
  0
LINE
  5
8D
330
1E
100
AcDbEntity
  8
SK1
100
AcDbLine
 10
-47.19999999999997
 20
8.000000000000005
 30
0.0
 11
-47.19999999999997
 21
-7.999999999999992
 31
0.0
  0
LINE
  5
8E
330
1E
100
AcDbEntity
  8
SK1
100
AcDbLine
 10
-48.0
 20
7.199676487799939
 30
0.0
 11
-48.0
 21
-7.199676487799981
 31
0.0
  0
CIRCLE
  5
99
330
1E
100
AcDbEntity
  8
1
100
AcDbCircle
 10
38.00440000000014
 20
2.988766882399881
 30
0.0
 40
1.750059999999999
  0
CIRCLE
  5
9F
330
1E
100
AcDbEntity
  8
1
100
AcDbCircle
 10
38.00440000000014
 20
-2.988766882400117
 30
0.0
 40
0.9956799999999999
  0
ARC
  5
A0
330
1E
100
AcDbEntity
  8
1
100
AcDbCircle
 10
38.00440000000014
 20
2.988766882399881
 30
0.0
 40
3.0
100
AcDbArc
 50
282.4156147907999
 51
244.1609842491001
  0
CIRCLE
  5
A1
330
1E
100
AcDbEntity
  8
1
100
AcDbCircle
 10
38.00440000000014
 20
2.988766882399881
 30
0.0
 40
1.9
  0
ARC
  5
A2
330
1E
100
AcDbEntity
  8
1
100
AcDbCircle
 10
38.00440000000014
 20
-2.988766882400117
 30
0.0
 40
3.0
100
AcDbArc
 50
229.9090909090999
 51
66.52527349880002
  0
ARC
  5
A3
330
1E
100
AcDbEntity
  8
1
100
AcDbCircle
 10
38.00440000000014
 20
-2.988766882400117
 30
0.0
 40
2.553271980999999
100
AcDbArc
 50
232.2972972973
 51
12.16216216219988
  0
ARC
  5
A4
330
1E
100
AcDbEntity
  8
1
100
AcDbCircle
 10
38.00440000000014
 20
-2.988766882400117
 30
0.0
 40
2.488263617699999
100
AcDbArc
 50
234.0512716792999
 51
0.785978291999756
  0
ARC
  5
A5
330
1E
100
AcDbEntity
  8
1
100
AcDbCircle
 10
35.00440000000013
 20
8.288766882400008
 30
0.0
 40
8.0
100
AcDbArc
 50
202.4235924422999
 51
270.0
  0
ARC
  5
A6
330
1E
100
AcDbEntity
  8
1
100
AcDbCircle
 10
38.00440000000014
 20
-2.988766882400117
 30
0.0
 40
2.6536977133
100
AcDbArc
 50
230.9849072757
 51
233.6571219189
  0
ARC
  5
A8
330
1E
100
AcDbEntity
  8
1
100
AcDbCircle
 10
0.249999999999999
 20
-8.0
 30
0.0
 40
0.25
100
AcDbArc
 50
90.0
 51
180.0
  0
ARC
  5
A9
330
1E
100
AcDbEntity
  8
1
100
AcDbCircle
 10
0.250000000000001
 20
8.0
 30
0.0
 40
0.25
100
AcDbArc
 50
180.0
 51
270.0
  0
ARC
  5
AA
330
1E
100
AcDbEntity
  8
1
100
AcDbCircle
 10
37.50440000000013
 20
2.711233117599869
 30
0.0
 40
3.0
100
AcDbArc
 50
300.0964878021
 51
304.4632668613997
  0
ARC
  5
AB
330
1E
100
AcDbEntity
  8
1
100
AcDbCircle
 10
37.50440000000013
 20
2.711233117599869
 30
0.0
 40
3.011547284899998
100
AcDbArc
 50
298.6613360726
 51
299.7767499010998
  0
ARC
  5
AC
330
1E
100
AcDbEntity
  8
1
100
AcDbCircle
 10
38.00440000000014
 20
-2.988766882400117
 30
0.0
 40
3.2
100
AcDbArc
 50
72.83435082270002
 51
75.1094041762
  0
ARC
  5
AD
330
1E
100
AcDbEntity
  8
1
100
AcDbCircle
 10
37.50440000000013
 20
-2.711233117600104
 30
0.0
 40
3.0
100
AcDbArc
 50
3.103533487499801
 51
90.0
  0
ARC
  5
AF
330
1E
100
AcDbEntity
  8
1
100
AcDbCircle
 10
38.00440000000014
 20
2.988766882399881
 30
0.0
 40
3.2
100
AcDbArc
 50
236.6550714656999
 51
237.537728555
  0
ARC
  5
B0
330
1E
100
AcDbEntity
  8
1
100
AcDbCircle
 10
37.50440000000013
 20
2.711233117599869
 30
0.0
 40
3.0
100
AcDbArc
 50
295.3049242239998
 51
298.4455924385999
  0
ARC
  5
B1
330
1E
100
AcDbEntity
  8
1
100
AcDbCircle
 10
38.00440000000014
 20
2.988766882399881
 30
0.0
 40
3.173205080799998
100
AcDbArc
 50
134.6212755336997
 51
231.9847600371998
  0
LWPOLYLINE
  5
3B4
330
1E
100
AcDbEntity
  8
1
100
AcDbPolyline
 90
      124
 70
     0
 43
0.0
 10
36.3338307262
 20
-5.050637357200063
 10
36.33348816841403
 20
-5.050351538213138
 10
36.33315088596214
 20
-5.050053619797096
 10
36.33281912828197
 20
-5.049744058800111
 10
36.33249314481302
 20
-5.049423312068031
 10
36.33217318499101
 20
-5.049091836451116
 10
36.331859498256
 20
-5.048750088794068
 10
36.33155233404614
 20
-5.048398525946084
 10
36.33125194179896
 20
-5.048037604754084
 10
36.33095857095213
 20
-5.047667782066127
 10
36.33067247094499
 20
-5.047289514729985
 10
36.33039389121501
 20
-5.046903259593142
 10
36.33012308119997
 20
-5.046509473502116
 10
36.32986029033997
 20
-5.046108613305141
 10
36.32960576806999
 20
-5.045701135850155
 10
36.329359763831
 20
-5.045287497984136
 10
36.3291225270601
 20
-5.04486815655412
 10
36.32889430719604
 20
-5.044443568410089
 10
36.32867535367501
 20
-5.044014190397037
 10
36.328465915938
 20
-5.043580479363074
 10
36.32826624342111
 20
-5.043142892156997
 10
36.32807658556297
 20
-5.042701885624983
 10
36.32789719180198
 20
-5.042257916616113
 10
36.32772831157604
 20
-5.041811441975998
 10
36.32757019432403
 20
-5.041362918552981
 10
36.32742308948314
 20
-5.040912803195117
 10
36.32728724649211
 20
-5.04046155275
 10
36.32716291478914
 20
-5.04000962406508
 10
36.32705034381199
 20
-5.039557473986977
 10
36.32694978300014
 20
-5.039105559363976
 10
36.32686148178914
 20
-5.038654337044136
 10
36.32678568961898
 20
-5.038204263873981
 10
36.326722655928
 20
-5.037755796702128
 10
36.32667263015412
 20
-5.037309392376076
 10
36.32664662943813
 20
-5.037013161120117
 10
36.326626594787
 20
-5.036718185090084
 10
36.326612600109
 20
-5.036424599649141
 10
36.32660471931115
 20
-5.036132540156986
 10
36.326603026302
 20
-5.035842141977985
 10
36.32660759498913
 20
-5.035553540473987
 10
36.32661849927899
 20
-5.035266871007141
 10
36.32663581308014
 20
-5.034982268939129
 10
36.32665961029999
 20
-5.034699869632111
 10
36.32668996484603
 20
-5.034419808449003
 10
36.32672695062597
 20
-5.034142220752078
 10
36.32677064113414
 20
-5.033867241494136
 10
36.32682105958713
 20
-5.033594955768933
 10
36.326878131343
 20
-5.033325351635941
 10
36.32694177049295
 20
-5.033058405976079
 10
36.32701189112401
 20
-5.03279409567017
 10
36.327088407326
 20
-5.032532397601078
 10
36.32717123318701
 20
-5.032273288650118
 10
36.32726028279814
 20
-5.032016745699142
 10
36.327355470246
 20
-5.031762745629126
 10
36.32745670962004
 20
-5.031511265321118
 10
36.32756391501101
 20
-5.031262281659056
 10
36.32773572144504
 20
-5.030893436802106
 10
36.32792046816399
 20
-5.030530079355063
 10
36.32811786522001
 20
-5.030172131292999
 10
36.32832762266115
 20
-5.029819514592136
 10
36.3285494505391
 20
-5.029472151227083
 10
36.32878305890312
 20
-5.029129963173947
 10
36.32902815780413
 20
-5.028792872408128
 10
36.32928445729211
 20
-5.028460800905127
 10
36.32955166741715
 20
-5.028133670640105
 10
36.329829498229
 20
-5.027811403589116
 10
36.33011765977999
 20
-5.027493921728138
 10
36.330415862118
 20
-5.027181147032083
 10
36.33072381529399
 20
-5.026873001476136
 10
36.33104122935913
 20
-5.026569407035993
 10
36.33136781436212
 20
-5.02627028568918
 10
36.33170328035498
 20
-5.025975559408041
 10
36.33204733738614
 20
-5.02568515016998
 10
36.33239969550714
 20
-5.025398979950073
 10
36.33276006476803
 20
-5.025116970724066
 10
36.333128155219
 20
-5.024839044467172
 10
36.33350367690912
 20
-5.024565123156096
 10
36.33388633989
 20
-5.024295128764096
 10
36.33427585421202
 20
-5.024028983268981
 10
36.33480536313497
 20
-5.023679974923084
 10
36.33534584946403
 20
-5.023337485402127
 10
36.33589662591101
 20
-5.023001329759157
 10
36.33645700518798
 20
-5.022671323046044
 10
36.33702630000696
 20
-5.022347280318117
 10
36.33774940897109
 20
-5.021950332006159
 10
36.33848403222003
 20
-5.021562052215132
 10
36.33922882739614
 20
-5.021182079720976
 10
36.340134118506
 20
-5.020736569756993
 10
36.34120326669011
 20
-5.020230437242108
 10
36.34228288015799
 20
-5.019738038230119
 10
36.34336927547297
 20
-5.019258381521981
 10
36.34461444931297
 20
-5.018724533738976
 10
36.346013261164
 20
-5.018140458849988
 10
36.347556327652
 20
-5.017509618563001
 10
36.34908417567599
 20
-5.016896538237122
 10
36.3505974383011
 20
-5.016300739660101
 10
36.35209683561003
 20
-5.015721763075079
 10
36.35373101762809
 20
-5.015103769508986
 10
36.35535025234214
 20
-5.014504962305124
 10
36.35695549818314
 20
-5.013924729523981
 10
36.35869184742114
 20
-5.013312213300086
 10
36.36041393365605
 20
-5.012720279453962
 10
36.36212300119098
 20
-5.012148133523115
 10
36.363961242944
 20
-5.011549717444157
 10
36.36592724862004
 20
-5.010929039673162
 10
36.36788103870996
 20
-5.010331781058086
 10
36.36996307452903
 20
-5.009716415910081
 10
36.37217369463917
 20
-5.009086314228118
 10
36.37451415307305
 20
-5.008444500580141
 10
36.37712407741299
 20
-5.00775818993299
 10
36.38000725320102
 20
-5.007034050240978
 10
36.38317088880398
 20
-5.006277520365987
 10
36.387042895896
 20
-5.005400259536946
 10
36.390952252315
 20
-5.004561601861039
 10
36.39490662433313
 20
-5.003755210643136
 10
36.399332630545
 20
-5.002898777747081
 10
36.40452770863601
 20
-5.001950993761117
 10
36.41050461716901
 20
-5.000931075630038
 10
36.41682686218597
 20
-4.999927283414141
 10
36.42333594776697
 20
-4.998967477478005
 10
36.43016464629103
 20
-4.998034066935129
 10
36.43729428638101
 20
-4.99713322741513
 10
36.444700637592
 20
-4.996270715933976
 10
36.44837799196102
 20
-4.995868384162124
  0
LWPOLYLINE
  5
432
330
1E
100
AcDbEntity
  8
1
100
AcDbPolyline
 90
       32
 70
     0
 43
0.0
 10
40.34858925100002
 20
-3.713618074299976
 10
40.3582833817441
 20
-3.684042194082111
 10
40.36765020136613
 20
-3.654354729808122
 10
40.37669026347913
 20
-3.624560035108006
 10
40.38540412169496
 20
-3.594662463613138
 10
40.39379232962613
 20
-3.564666368953058
 10
40.40185544088513
 20
-3.534576104756983
 10
40.40959400908417
 20
-3.504396024657129
 10
40.41700858783399
 20
-3.474130482281116
 10
40.42409973074899
 20
-3.443783831262126
 10
40.43086799143996
 20
-3.413360425229033
 10
40.43731392352003
 20
-3.382864617810982
 10
40.44343808059998
 20
-3.352300762640143
 10
40.44941718814413
 20
-3.320715123606991
 10
40.45505529142302
 20
-3.289066522036991
 10
40.46035299759114
 20
-3.25735973260106
 10
40.46531099215002
 20
-3.225599459736036
 10
40.46993059192202
 20
-3.193789841957086
 10
40.47421341851401
 20
-3.161934744572138
 10
40.47816109550502
 20
-3.130038031117981
 10
40.481775246472
 20
-3.098103565134127
 10
40.48505749499599
 20
-3.066135210156066
 10
40.48809377956399
 20
-3.033166753933078
 10
40.49078124077499
 20
-3.000170650480133
 10
40.49312165432211
 20
-2.967151125313993
 10
40.4951167959001
 20
-2.934112403957102
 10
40.49676844120313
 20
-2.90105871192799
 10
40.49807836592703
 20
-2.867994274746086
 10
40.49907174654403
 20
-2.833950587307132
 10
40.49970682847599
 20
-2.799904600520166
 10
40.49998554874798
 20
-2.765860923818938
 10
40.49999999998504
 20
-2.756145228400104
  0
LWPOLYLINE
  5
454
330
1E
100
AcDbEntity
  8
1
100
AcDbPolyline
 90
       42
 70
     0
 43
0.0
 10
39.6328533656
 20
-4.824188388300063
 10
39.65834022720213
 20
-4.800652440697036
 10
39.68446644414399
 20
-4.775830387051148
 10
39.71024017376601
 20
-4.750627400671992
 10
39.73659060239496
 20
-4.724096333693124
 10
39.76255053448699
 20
-4.69717141134413
 10
39.78811415850414
 20
-4.669860685991126
 10
39.81238402752598
 20
-4.643167497989113
 10
39.83627477601004
 20
-4.616130279768126
 10
39.85978119310914
 20
-4.588756251385123
 10
39.88204889479499
 20
-4.562084486059124
 10
39.90395072183304
 20
-4.535113539773083
 10
39.925482021182
 20
-4.507849859699089
 10
39.945831583404
 20
-4.481364665621077
 10
39.96583189373604
 20
-4.454619827381125
 10
39.98548127346714
 20
-4.427620116429981
 10
40.00477805400215
 20
-4.400370300266108
 10
40.02372056674613
 20
-4.372875146388996
 10
40.04230714310501
 20
-4.345139422298136
 10
40.06053611448414
 20
-4.317167895493076
 10
40.07840581228913
 20
-4.288965333472111
 10
40.09591456792515
 20
-4.260536503733991
 10
40.11238185006098
 20
-4.23303637997799
 10
40.128513473851
 20
-4.205336339600142
 10
40.14430796303098
 20
-4.177440600578168
 10
40.15976384133501
 20
-4.149353380891001
 10
40.17487963977798
 20
-4.121078913067099
 10
40.18965415212614
 20
-4.092621954708083
 10
40.20408650216011
 20
-4.063987922906056
 10
40.21817583461197
 20
-4.035182276621986
 10
40.23192129421611
 20
-4.006210474820989
 10
40.24532202570211
 20
-3.977077976465981
 10
40.25837717380603
 20
-3.947790240519116
 10
40.27108588325899
 20
-3.918352725944151
 10
40.28344729879501
 20
-3.888770891704102
 10
40.29546056514599
 20
-3.859050196761986
 10
40.30664579525001
 20
-3.830442613033998
 10
40.31750974594399
 20
-3.801717317408138
 10
40.32805166447803
 20
-3.772879114514015
 10
40.33827079809902
 20
-3.743932808984146
 10
40.34816639405703
 20
-3.714883205445066
 10
40.34858611887699
 20
-3.713627395250001
  0
LWPOLYLINE
  5
480
330
1E
100
AcDbEntity
  8
1
100
AcDbPolyline
 90
       26
 70
     0
 43
0.0
 10
36.4483879351
 20
-4.995867318700111
 10
36.45088835600802
 20
-4.99561255870299
 10
36.45346004397401
 20
-4.995377740722124
 10
36.45603512909797
 20
-4.995169881826032
 10
36.45861326824302
 20
-4.994988753977962
 10
36.46126206885099
 20
-4.994830415889115
 10
36.46391335394798
 20
-4.994699747543111
 10
36.46656675258304
 20
-4.994596502423978
 10
36.46928999397497
 20
-4.994518838708128
 10
36.47201466824496
 20
-4.994469497276161
 10
36.47474037517515
 20
-4.994448212159118
 10
36.477534877668
 20
-4.99445523378012
 10
36.48032961362304
 20
-4.994491166210083
 10
36.48319230541904
 20
-4.994557652762981
 10
36.48605432662299
 20
-4.994653869149036
 10
36.48891521393113
 20
-4.994779507475985
 10
36.49184255909614
 20
-4.994938296746117
 10
36.49476773290314
 20
-4.995127272536993
 10
36.49775816765696
 20
-4.995351546133123
 10
36.50074527560514
 20
-4.995606726631081
 10
36.503796276125
 20
-4.995899306276106
 10
36.50684266987401
 20
-4.996223464670156
 10
36.50995140645114
 20
-4.99658707144312
 10
36.51305412509714
 20
-4.996982875839141
 10
36.51621744532714
 20
-4.997420119009976
 10
36.51627477190414
 20
-4.997428356125116
  0
LWPOLYLINE
  5
49C
330
1E
100
AcDbEntity
  8
1
100
AcDbPolyline
 90
       40
 70
     0
 43
0.0
 10
36.51628467009999
 20
-4.997429779500127
 10
36.51956600604615
 20
-4.997919923488157
 10
36.522842469478
 20
-4.998445628989032
 10
36.52611376538614
 20
-4.999006563173002
 10
36.52953497335703
 20
-4.99963163081907
 10
36.53294984696902
 20
-5.000294614181941
 10
36.53635804702702
 20
-5.000995130584103
 10
36.5397592343381
 20
-5.001732797345085
 10
36.54315306970614
 20
-5.002507231787096
 10
36.54669294134601
 20
-5.003355764982988
 10
36.55022401917996
 20
-5.004243628815006
 10
36.55374591562714
 20
-5.005170386014075
 10
36.55725824310309
 20
-5.006135599310145
 10
36.56091265917814
 20
-5.007183305895983
 10
36.56455579372301
 20
-5.008271912342995
 10
36.56818720637414
 20
-5.00940092182998
 10
36.57180645676215
 20
-5.010569837537162
 10
36.57556310151415
 20
-5.011829357424065
 10
36.5793055738
 20
-5.013131077698123
 10
36.58303337588211
 20
-5.014474436813943
 10
36.586894192854
 20
-5.015915097147117
 10
36.59073804887202
 20
-5.017399560209129
 10
36.59456447990312
 20
-5.018927303036091
 10
36.59851923095614
 20
-5.020559155557976
 10
36.60245435919303
 20
-5.022236745101058
 10
36.606369442657
 20
-5.023959596802117
 10
36.61026405939509
 20
-5.025727235798004
 10
36.614280852202
 20
-5.027607141338084
 10
36.61827470976499
 20
-5.029534172893141
 10
36.62224516148711
 20
-5.031507800857981
 10
36.62633223839014
 20
-5.03360047293899
 10
36.63039318009998
 20
-5.035741972674034
 10
36.63442746377615
 20
-5.037931711661999
 10
36.63857225141612
 20
-5.040247095661076
 10
36.64268737250405
 20
-5.042612822051125
 10
36.64677224822799
 20
-5.045028239443126
 10
36.65096089720611
 20
-5.047575681981926
 10
36.65511599416515
 20
-5.050174769203128
 10
36.65936925646295
 20
-5.052911106456976
 10
36.662395068203
 20
-5.054905382585165
  0
LWPOLYLINE
  5
4C6
330
1E
100
AcDbEntity
  8
1
100
AcDbPolyline
 90
       91
 70
     0
 43
0.0
 10
36.16491858820001
 20
-5.250023300500119
 10
36.17236868664415
 20
-5.249988916775127
 10
36.17950809749397
 20
-5.249879164033925
 10
36.18633593770101
 20
-5.249700695169113
 10
36.19285156198202
 20
-5.249460558941112
 10
36.19936461210196
 20
-5.249149661604123
 10
36.20556444120313
 20
-5.248785436356119
 10
36.211450902492
 20
-5.248375802589126
 10
36.21733351178017
 20
-5.247902248310996
 10
36.22290245609796
 20
-5.247392934552125
 10
36.22846697753499
 20
-5.246822933193131
 10
36.233717874379
 20
-5.246227419712117
 10
36.23896401131514
 20
-5.245574974373083
 10
36.244204992579
 20
-5.244864237169056
 10
36.24913261671105
 20
-5.244140840717141
 10
36.25405499335812
 20
-5.243363470004116
 10
36.258971792571
 20
-5.242530991180108
 10
36.26357593297103
 20
-5.24169948461412
 10
36.26817460946313
 20
-5.240817612378124
 10
36.272767550175
 20
-5.239884440210123
 10
36.277354483238
 20
-5.238899033848101
 10
36.28193513560314
 20
-5.237860458403078
 10
36.28620399394913
 20
-5.236842054392066
 10
36.29046459930504
 20
-5.235774521299108
 10
36.29441152839314
 20
-5.234737645048999
 10
36.2983476173221
 20
-5.233655354197141
 10
36.30227107302703
 20
-5.232526178635116
 10
36.30587996085511
 20
-5.231440977711089
 10
36.30947514616514
 20
-5.230313418769124
 10
36.31305521866198
 20
-5.229142345529116
 10
36.316322471107
 20
-5.22802964808
 10
36.31957475326503
 20
-5.226878524306077
 10
36.32281097885214
 20
-5.225688083578122
 10
36.32603006158012
 20
-5.224457435267082
 10
36.32923091516413
 20
-5.223185688741981
 10
36.33212404930015
 20
-5.22199314235809
 10
36.335000404127
 20
-5.220765225306085
 10
36.33785916350314
 20
-5.219501268443995
 10
36.34069951128401
 20
-5.218200602628034
 10
36.34352063133013
 20
-5.216862558714983
 10
36.34632170749501
 20
-5.215486467560086
 10
36.34882486398498
 20
-5.214214902083146
 10
36.35131052888914
 20
-5.21291148852998
 10
36.35377810723805
 20
-5.211575739093066
 10
36.35622700406514
 20
-5.210207165969169
 10
36.35865662440205
 20
-5.208805281350981
 10
36.36106637327996
 20
-5.207369597435163
 10
36.363455655731
 20
-5.205899626412933
 10
36.36582387678799
 20
-5.204394880481006
 10
36.36817044148205
 20
-5.202854871832927
 10
36.370237615135
 20
-5.20145597764213
 10
36.37228678962399
 20
-5.200028493523068
 10
36.3743175470851
 20
-5.198572076875167
 10
36.376329469651
 20
-5.197086385098035
 10
36.37832213945904
 20
-5.195571075589159
 10
36.38029513253513
 20
-5.194025835790001
 10
36.38224793503411
 20
-5.192450795142976
 10
36.38417996470514
 20
-5.190846419543166
 10
36.38609063757996
 20
-5.189213183319056
 10
36.38821388941003
 20
-5.187341885703974
 10
36.39030854099014
 20
-5.185435337055143
 10
36.39237376085015
 20
-5.183494212740074
 10
36.39440871752003
 20
-5.181519188124124
 10
36.39641257953014
 20
-5.179510938574996
 10
36.39838451541002
 20
-5.177470139458991
 10
36.40032369368997
 20
-5.175397466141136
 10
36.40222928289897
 20
-5.173293593989117
 10
36.40410045156812
 20
-5.171159198369994
 10
36.40593636822597
 20
-5.168994954648096
 10
36.40753802769302
 20
-5.167046670761128
 10
36.40911059278801
 20
-5.16507581114411
 10
36.41065347954202
 20
-5.163082850127072
 10
36.41216610398799
 20
-5.161068262042136
 10
36.41364788215714
 20
-5.159032521220183
 10
36.41509823008198
 20
-5.156976101994076
 10
36.41651656379514
 20
-5.154899478693157
 10
36.41790229932814
 20
-5.152803125651078
 10
36.41908761814699
 20
-5.150953005072101
 10
36.42024714067213
 20
-5.149088459835128
 10
36.42138047568812
 20
-5.147209807703976
 10
36.42248723198298
 20
-5.145317366444035
 10
36.42356701834403
 20
-5.143411453820083
 10
36.42461944355904
 20
-5.141492387597113
 10
36.42564411641314
 20
-5.139560485540985
 10
36.42664064569415
 20
-5.137616065416072
 10
36.42760864018914
 20
-5.135659444987084
 10
36.42854770868597
 20
-5.133690942018977
 10
36.42945745997105
 20
-5.131710874278096
 10
36.430337502832
 20
-5.12971955952713
 10
36.43118744605414
 20
-5.127717315533121
 10
36.43177216193214
 20
-5.126289899657141
  0
LWPOLYLINE
  5
523
330
1E
100
AcDbEntity
  8
1
100
AcDbPolyline
 90
      106
 70
     0
 43
0.0
 10
36.6624033923
 20
-5.054910924200103
 10
36.69189808810313
 20
-5.074240675688034
 10
36.72168187958112
 20
-5.09315041506898
 10
36.751747285735
 20
-5.111635472489981
 10
36.77931755446711
 20
-5.128067614926981
 10
36.80710875937403
 20
-5.144141412628076
 10
36.83511527987302
 20
-5.15985335706512
 10
36.86333149537802
 20
-5.175199939710124
 10
36.89175178530597
 20
-5.190177652033985
 10
36.92037052907199
 20
-5.204782985509043
 10
36.94918210609197
 20
-5.219012431605169
 10
36.97818089578214
 20
-5.232862481796079
 10
37.00736127755696
 20
-5.246329627552086
 10
37.03671763083296
 20
-5.259410360344136
 10
37.0662443350251
 20
-5.272101171644981
 10
37.09593576955001
 20
-5.284398552926066
 10
37.12578631382314
 20
-5.296298995658109
 10
37.152783202615
 20
-5.306667143866096
 10
37.17990045254611
 20
-5.316709138872117
 10
37.20713421115497
 20
-5.326423842109138
 10
37.23448063087909
 20
-5.335810143392111
 10
37.26193586415599
 20
-5.34486693253098
 10
37.28949606342097
 20
-5.35359309934211
 10
37.31715738111211
 20
-5.36198753363698
 10
37.34491596966501
 20
-5.370049125229003
 10
37.372767981518
 20
-5.377776763931136
 10
37.40070956910813
 20
-5.385169339555946
 10
37.42873688487112
 20
-5.392225741917003
 10
37.45684608124514
 20
-5.39894486082807
 10
37.48503331066513
 20
-5.405325586102156
 10
37.51329472556999
 20
-5.411366807552044
 10
37.54162647839604
 20
-5.417067414990074
 10
37.57002472157896
 20
-5.422426298229996
 10
37.59848560755802
 20
-5.427442347086075
 10
37.62700528876814
 20
-5.432114451369106
 10
37.65557991760811
 20
-5.436441500979984
 10
37.68420555890013
 20
-5.440422577059111
 10
37.71287800380014
 20
-5.444057358371136
 10
37.741592990154
 20
-5.447345640098038
 10
37.77034625580814
 20
-5.450287217418977
 10
37.79913353860711
 20
-5.452881885518086
 10
37.82795057639797
 20
-5.455129439573116
 10
37.85679310702511
 20
-5.457029674768141
 10
37.88565686833611
 20
-5.458582386282106
 10
37.914537598175
 20
-5.459787369297036
 10
37.943431034389
 20
-5.460644418993127
 10
37.97233291482314
 20
-5.461153330552971
 10
38.001238977323
 20
-5.461313899158088
 10
38.03014495973599
 20
-5.461125919987071
 10
38.05904659990602
 20
-5.460589188223085
 10
38.08793963567996
 20
-5.459703499046101
 10
38.116819804903
 20
-5.458468647637066
 10
38.14568284542099
 20
-5.456884429179128
 10
38.17452449508114
 20
-5.454950638851077
 10
38.20334049959802
 20
-5.452667144622129
 10
38.23212667972905
 20
-5.450034508402102
 10
38.26087889782304
 20
-5.447053676746978
 10
38.28959301667197
 20
-5.443725600307177
 10
38.31826489906899
 20
-5.440051229731126
 10
38.34689040780613
 20
-5.436031515667084
 10
38.37546540567514
 20
-5.431667408764043
 10
38.40398575546913
 20
-5.426959859672081
 10
38.43244731997913
 20
-5.421909819039119
 10
38.46084596199801
 20
-5.416518237514084
 10
38.48917754431699
 20
-5.410786065747121
 10
38.51743792973014
 20
-5.404714254386139
 10
38.54562298102809
 20
-5.398303754080131
 10
38.57372856100415
 20
-5.391555515477135
 10
38.601750532449
 20
-5.38447048922814
 10
38.62968475815615
 20
-5.377049625981106
 10
38.65752710091811
 20
-5.369293876385087
 10
38.68527342352503
 20
-5.361204191088122
 10
38.71291959228614
 20
-5.352781525394108
 10
38.74046169373201
 20
-5.344027126188112
 10
38.76789616124801
 20
-5.334942699596072
 10
38.79521945870703
 20
-5.325529992114073
 10
38.82242804998099
 20
-5.315790750233136
 10
38.85252098520505
 20
-5.304588522146162
 10
38.88246309161201
 20
-5.292987717078066
 10
38.912249518549
 20
-5.280990730766976
 10
38.94187541535899
 20
-5.268599958953985
 10
38.97133593138915
 20
-5.255817797376042
 10
39.00062621598499
 20
-5.242646641772981
 10
39.02974141849114
 20
-5.229088887884987
 10
39.05867668825413
 20
-5.215146931451103
 10
39.087427174619
 20
-5.200823168209129
 10
39.11598802693214
 20
-5.186119993899128
 10
39.14435439453701
 20
-5.171039804261058
 10
39.17252142678114
 20
-5.155584995031976
 10
39.20048427307897
 20
-5.139757964932075
 10
39.22823809573911
 20
-5.123561668208997
 10
39.255778085026
 20
-5.107000263261118
 10
39.28309943485913
 20
-5.090078066074001
 10
39.31289465505011
 20
-5.071052085264118
 10
39.34241310925404
 20
-5.051600512771129
 10
39.37164840057801
 20
-5.031729093171977
 10
39.40059413213111
 20
-5.011443571049086
 10
39.42924390702103
 20
-4.990749690980071
 10
39.45759132835616
 20
-4.969653197545087
 10
39.48562999924411
 20
-4.948159835323115
 10
39.51335352279196
 20
-4.926275348894082
 10
39.54323042571711
 20
-4.901962038360981
 10
39.57271635952803
 20
-4.877197552248163
 10
39.60180301931814
 20
-4.851989348581128
 10
39.63048210018399
 20
-4.826344885387134
 10
39.63284597178311
 20
-4.824195121166157
  0
LWPOLYLINE
  5
58F
330
1E
100
AcDbEntity
  8
SK1
100
AcDbPolyline
 90
       59
 70
     0
 43
0.0
 10
-17.19999999999998
 20
0.0000000000000021
 10
-17.20047963612699
 20
0.0875000399358349
 10
-17.20191809615386
 20
0.1750052120440294
 10
-17.20431470755204
 20
0.2625031521620279
 10
-17.20766879779404
 20
0.3499814961288642
 10
-17.21197969434996
 20
0.4374278797810712
 10
-17.21724672469082
 20
0.5248299389569432
 10
-17.22346921628894
 20
0.6121753094948894
 10
-17.23064649661495
 20
0.6994516272318969
 10
-17.23877789313984
 20
0.7866465280059196
 10
-17.24786273333386
 20
0.8737476476540585
 10
-17.25790034467086
 20
0.9607426220158592
 10
-17.26889004506698
 20
1.047619106321862
 10
-17.28083065857885
 20
1.134365758388922
 10
-17.29372028622185
 20
1.220972703885879
 10
-17.30755697151897
 20
1.307430185186833
 10
-17.32233875799386
 20
1.393728444666916
 10
-17.33806368917288
 20
1.479857724700879
 10
-17.35472980857901
 20
1.565808267664865
 10
-17.37233515973597
 20
1.651570315932985
 10
-17.39087778616885
 20
1.737134111881854
 10
-17.410355731403
 20
1.822489897885929
 10
-17.4320736915689
 20
1.912941589168839
 10
-17.45484298357701
 20
2.003135737373896
 10
-17.47866118556999
 20
2.093060615957881
 10
-17.50352489123787
 20
2.182704201862859
 10
-17.52943000211701
 20
2.272054263549875
 10
-17.55637240535492
 20
2.361098565144915
 10
-17.58434798809985
 20
2.449824870776919
 10
-17.61335263749798
 20
2.53822094457297
 10
-17.643382240697
 20
2.626274550660016
 10
-17.67443268484288
 20
2.713973453165919
 10
-17.70649985708485
 20
2.801305416216904
 10
-17.73957964456898
 20
2.888258203941918
 10
-17.77366793444298
 20
2.974819580467001
 10
-17.808760613829
 20
3.060977309957876
 10
-17.84485337366595
 20
3.146719458067876
 10
-17.88194123370198
 20
3.232035121915883
 10
-17.92228966322187
 20
3.321892629298873
 10
-17.96374188054386
 20
3.411247345181893
 10
-18.00629180359101
 20
3.50008658887293
 10
-18.04993335028501
 20
3.588397679684931
 10
-18.09466043854796
 20
3.676167936927016
 10
-18.14046698630385
 20
3.763384679909961
 10
-18.18734691147381
 20
3.850035227943863
 10
-18.23529413198303
 20
3.936106900338927
 10
-18.28430256575103
 20
4.021587016407011
 10
-18.33436607387294
 20
4.106462870348877
 10
-18.38834663231182
 20
4.195383533360941
 10
-18.44348180335896
 20
4.283598785403968
 10
-18.49975940290096
 20
4.371091489956882
 10
-18.55716724682685
 20
4.457844510500875
 10
-18.615693151024
 20
4.543840710512879
 10
-18.675324931379
 20
4.629062953475058
 10
-18.73927654652601
 20
4.717915608827921
 10
-18.80442579786586
 20
4.805871719012943
 10
-18.87075847445185
 20
4.892911296833918
 10
-18.938260365333
 20
4.979014355099026
 10
-18.99999368039198
 20
5.055682113895898
  0
LWPOLYLINE
  5
5CC
330
1E
100
AcDbEntity
  8
SK1
100
AcDbPolyline
 90
       59
 70
     0
 43
0.0
 10
-19.0
 20
-5.055689863899996
 10
-18.92806110402585
 20
-4.966159386344994
 10
-18.86073369000087
 20
-4.87991457624508
 10
-18.794577621445
 20
-4.792736243777136
 10
-18.72960710918889
 20
-4.70464437601299
 10
-18.66583636406187
 20
-4.615658960022916
 10
-18.60637838389601
 20
-4.530313370262998
 10
-18.54802820284885
 20
-4.444196527976143
 10
-18.49079800493101
 20
-4.35732556957708
 10
-18.43469997415286
 20
-4.269717631481051
 10
-18.37974629452492
 20
-4.181389850103125
 10
-18.32875154825285
 20
-4.097062418716113
 10
-18.27880493553601
 20
-4.012118774470133
 10
-18.22991410718901
 20
-3.926572291267002
 10
-18.18208516853485
 20
-3.840435660281114
 10
-18.13532420159792
 20
-3.753721562388133
 10
-18.089637288402
 20
-3.666442678469134
 10
-18.04503051096981
 20
-3.578611689398993
 10
-18.00150995132588
 20
-3.490241276060026
 10
-17.95908169149387
 20
-3.401344119328138
 10
-17.917751813498
 20
-3.311932900082066
 10
-17.87752639936103
 20
-3.222020299199978
 10
-17.84055534123393
 20
-3.136653897326138
 10
-17.80457998619596
 20
-3.050862269151136
 10
-17.76960525501889
 20
-2.964656408979006
 10
-17.73563539847293
 20
-2.87804834051297
 10
-17.70267452916096
 20
-2.791050299736064
 10
-17.67072675968495
 20
-2.703674522632123
 10
-17.63979620264796
 20
-2.615933245187127
 10
-17.609886970653
 20
-2.527838703383106
 10
-17.581003176303
 20
-2.439403133205073
 10
-17.55314893219786
 20
-2.350638770637937
 10
-17.526328350943
 20
-2.261557851664119
 10
-17.50054554514099
 20
-2.172172612268974
 10
-17.47580462739301
 20
-2.082495288436116
 10
-17.45210967751586
 20
-1.992538106279134
 10
-17.42946394997886
 20
-1.902313043453144
 10
-17.40786983224398
 20
-1.811831816609125
 10
-17.38850869816491
 20
-1.726449492521108
 10
-17.37008312845084
 20
-1.640860380705075
 10
-17.352595079259
 20
-1.555074239088126
 10
-17.33604650674594
 20
-1.469100825597985
 10
-17.3204393670719
 20
-1.382949898163129
 10
-17.30577561639194
 20
-1.296631214712132
 10
-17.29205721086485
 20
-1.210154533171126
 10
-17.27928610664901
 20
-1.123529611467968
 10
-17.26746425989994
 20
-1.036766207533044
 10
-17.25659352977101
 20
-0.9498742761961104
 10
-17.246674980509
 20
-0.8628653857669497
 10
-17.23770928711599
 20
-0.7757518946469854
 10
-17.229697121929
 20
-0.6885461666441282
 10
-17.22263915728398
 20
-0.6012605655660628
 10
-17.21653606552001
 20
-0.5139074552209856
 10
-17.211388518972
 20
-0.4264991994170352
 10
-17.20719718997798
 20
-0.3390481619629761
 10
-17.20396275087384
 20
-0.2515667066670609
 10
-17.20168587399786
 20
-0.1640671973361215
 10
-17.200367231686
 20
-0.0765619977800022
 10
-17.20000000000601
 20
-0.0000099999999727
  0
LWPOLYLINE
  5
609
330
1E
100
AcDbEntity
  8
SK1
100
AcDbPolyline
 90
       59
 70
     0
 43
0.0
 10
-30.8
 20
0.0000000000000038
 10
-30.79952036387391
 20
0.0875000399348703
 10
-30.79808190384802
 20
0.1750052120440311
 10
-30.79568529245085
 20
0.2625031521620296
 10
-30.79233120221096
 20
0.3499814961288659
 10
-30.78802030565798
 20
0.4374278797810728
 10
-30.78275327531787
 20
0.5248299389569448
 10
-30.776530783721
 20
0.6121753094938678
 10
-30.76935350339596
 20
0.6994516272309321
 10
-30.76122210687004
 20
0.7866465280038753
 10
-30.75213726667294
 20
0.8737476476520138
 10
-30.74209965533299
 20
0.9607426220118819
 10
-30.73110995493101
 20
1.047619106316914
 10
-30.71916934141086
 20
1.134365758382043
 10
-30.70627971375995
 20
1.220972703875873
 10
-30.692443028453
 20
1.307430185173872
 10
-30.67766124196686
 20
1.393728444650889
 10
-30.66193631077699
 20
1.479857724682004
 10
-30.64527019136085
 20
1.565808267642918
 10
-30.62766484019386
 20
1.651570315909908
 10
-30.60912221375196
 20
1.737134111855995
 10
-30.58964426851201
 20
1.822489897858869
 10
-30.56792630834086
 20
1.912941589140874
 10
-30.54515701633102
 20
2.003135737345873
 10
-30.52133881433792
 20
2.093060615932018
 10
-30.49647510867496
 20
2.182704201838024
 10
-30.47056999780301
 20
2.272054263527023
 10
-30.44362759457294
 20
2.361098565126045
 10
-30.41565201183896
 20
2.449824870761064
 10
-30.386647362453
 20
2.538220944559898
 10
-30.35661775926496
 20
2.626274550650857
 10
-30.32556731513
 20
2.713973453158873
 10
-30.29350014289788
 20
2.801305416212872
 10
-30.26042035542195
 20
2.888258203939923
 10
-30.22633206555485
 20
2.974819580465865
 10
-30.19123938617202
 20
3.060977309956002
 10
-30.15514662633494
 20
3.146719458063958
 10
-30.11805876629586
 20
3.232035121909861
 10
-30.07771033676998
 20
3.321892629288871
 10
-30.03625811944095
 20
3.411247345165862
 10
-29.993708196385
 20
3.50008658885287
 10
-29.95006664968201
 20
3.58839767965895
 10
-29.90533956140796
 20
3.676167936895923
 10
-29.85953301364287
 20
3.763384679873923
 10
-29.81265308846394
 20
3.850035227903961
 10
-29.76470586794892
 20
3.936106900296866
 10
-29.71569743417699
 20
4.021587016363016
 10
-29.66563392605296
 20
4.106462870304881
 10
-29.61165336761587
 20
4.195383533318024
 10
-29.55651819657401
 20
4.283598785364861
 10
-29.50024059703788
 20
4.37109148992187
 10
-29.44283275312085
 20
4.457844510470923
 10
-29.38430684893388
 20
4.543840710489917
 10
-29.32467506858785
 20
4.62906295345687
 10
-29.26072345345085
 20
4.717915608815872
 10
-29.19557420211987
 20
4.805871719005953
 10
-29.12924152554201
 20
4.892911296831018
 10
-29.061739634665
 20
4.97901435509789
 10
-29.00000631960796
 20
5.055682113895901
  0
LWPOLYLINE
  5
646
330
1E
100
AcDbEntity
  8
SK1
100
AcDbPolyline
 90
       59
 70
     0
 43
0.0
 10
-29.0
 20
-5.055689863899996
 10
-29.07193889597385
 20
-4.966159386345958
 10
-29.13926630999901
 20
-4.879914576245075
 10
-29.20542237855487
 20
-4.792736243777136
 10
-29.27039289081097
 20
-4.704644376012987
 10
-29.33416363593801
 20
-4.615658960022916
 10
-29.39362161610388
 20
-4.530313370262998
 10
-29.45197179715103
 20
-4.444196527976141
 10
-29.50920199506902
 20
-4.35732556957708
 10
-29.56530002584685
 20
-4.269717631481048
 10
-29.62025370547383
 20
-4.181389850103125
 10
-29.67124845174696
 20
-4.097062418716109
 10
-29.72119506446388
 20
-4.012118774470131
 10
-29.77008589281087
 20
-3.926572291267969
 10
-29.81791483146492
 20
-3.840435660281111
 10
-29.864675798402
 20
-3.753721562388133
 10
-29.91036271159794
 20
-3.666442678468053
 10
-29.95496948902996
 20
-3.578611689398991
 10
-29.998490048674
 20
-3.490241276060025
 10
-30.04091830850585
 20
-3.401344119328136
 10
-30.082248186502
 20
-3.311932900082063
 10
-30.122473600639
 20
-3.222020299199978
 10
-30.159444658766
 20
-3.136653897326136
 10
-30.19542001380385
 20
-3.050862269151133
 10
-30.23039474498097
 20
-2.964656408979006
 10
-30.264364601527
 20
-2.878048340512119
 10
-30.29732547083898
 20
-2.791050299736064
 10
-30.32927324031499
 20
-2.703674522632121
 10
-30.36020379735099
 20
-2.615933245187127
 10
-30.39011302934585
 20
-2.527838703383106
 10
-30.41899682369694
 20
-2.43940313320507
 10
-30.44685106780093
 20
-2.350638770637937
 10
-30.47367164905586
 20
-2.261557851664118
 10
-30.49945445485899
 20
-2.172172612268973
 10
-30.52419537260687
 20
-2.08249528843498
 10
-30.54789032248391
 20
-1.992538106279134
 10
-30.57053605002006
 20
-1.902313043453144
 10
-30.59213016775601
 20
-1.811831816607928
 10
-30.61149130183486
 20
-1.726449492521108
 10
-30.62991687154891
 20
-1.640860380705074
 10
-30.64740492074089
 20
-1.555074239088123
 10
-30.66395349325387
 20
-1.469100825597984
 10
-30.67956063292786
 20
-1.382949898163126
 10
-30.69422438360799
 20
-1.296631214712129
 10
-30.70794278913496
 20
-1.210154533171125
 10
-30.72071389335099
 20
-1.123529611467968
 10
-30.73253574009997
 20
-1.036766207533043
 10
-30.74340647022899
 20
-0.9498742761949715
 10
-30.75332501949186
 20
-0.8628653857669482
 10
-30.76229071288485
 20
-0.7757518946469836
 10
-30.77030287807196
 20
-0.6885461666441266
 10
-30.77736084271595
 20
-0.6012605655660611
 10
-30.78346393447997
 20
-0.5139074552209843
 10
-30.78861148102794
 20
-0.4264991994170337
 10
-30.79280281002195
 20
-0.3390481619629744
 10
-30.79603724912596
 20
-0.2515667066670592
 10
-30.79831412600186
 20
-0.1640671973361198
 10
-30.79963276831387
 20
-0.0765619977800005
 10
-30.79999999999387
 20
-0.000009999999971
  0
LWPOLYLINE
  5
683
330
1E
100
AcDbEntity
  8
1
100
AcDbPolyline
 90
       98
 70
     0
 43
0.0
 10
27.60928765210001
 20
5.237158558600008
 10
27.60915058717813
 20
5.237541972016964
 10
27.60906391935798
 20
5.237903496801941
 10
27.60902596665613
 20
5.238243798938913
 10
27.60903504708414
 20
5.238563544410847
 10
27.60908947865601
 20
5.238863399200957
 10
27.60918757938503
 20
5.239144029291987
 10
27.60932766728604
 20
5.239406100668015
 10
27.60950806037214
 20
5.239650279312961
 10
27.60972707665604
 20
5.239877231207962
 10
27.609983034153
 20
5.240087622338871
 10
27.61027425087605
 20
5.24028211868693
 10
27.61059904483802
 20
5.240461386236911
 10
27.61095573405298
 20
5.240626090970001
 10
27.61134263653513
 20
5.240776898871835
 10
27.61175807029804
 20
5.240914475925018
 10
27.61220035335508
 20
5.241039488110909
 10
27.61266780371909
 20
5.24115260141587
 10
27.61315873940498
 20
5.241254481820925
 10
27.613671478426
 20
5.241345795310956
 10
27.61420433879601
 20
5.241427207866927
 10
27.61475563852798
 20
5.241499385474862
 10
27.61532369563598
 20
5.241562994116911
 10
27.61590682813414
 20
5.241618699775011
 10
27.61650335403498
 20
5.241667168433816
 10
27.61711159135302
 20
5.24170906607696
 10
27.61772985810198
 20
5.241745058686881
 10
27.61867238406199
 20
5.241789432503871
 10
27.61962801506814
 20
5.241824266152882
 10
27.62123443752596
 20
5.241867226706855
 10
27.62283521323002
 20
5.241900336375914
 10
27.62378209668014
 20
5.241919779055018
 10
27.62471437848114
 20
5.241940682002041
 10
27.62563210263413
 20
5.241963094497001
 10
27.62653553145098
 20
5.241986981930832
 10
27.62742492724401
 20
5.242012309690998
 10
27.62830055232399
 20
5.242039043165954
 10
27.62916266900401
 20
5.242067147744016
 10
27.63001153959413
 20
5.242096588813861
 10
27.63084742640609
 20
5.242127331764999
 10
27.63167059175305
 20
5.242159341983886
 10
27.63248129794499
 20
5.242192584859874
 10
27.63327980729501
 20
5.242227025781853
 10
27.63406638211398
 20
5.242262630137866
 10
27.63484128471504
 20
5.24229936331596
 10
27.63560477740799
 20
5.242337190705876
 10
27.63635712250497
 20
5.242376077694014
 10
27.63709858231914
 20
5.242415989670856
 10
27.63782941916014
 20
5.242456892023874
 10
27.63854989534098
 20
5.242498750141912
 10
27.63926027317312
 20
5.242541529411873
 10
27.63996081496799
 20
5.24258519522487
 10
27.64088002357004
 20
5.242644735550863
 10
27.64178283399314
 20
5.242705708376826
 10
27.64266986801101
 20
5.242768031660994
 10
27.643541747401
 20
5.242831623360924
 10
27.64439909393712
 20
5.242896401435015
 10
27.64524252939803
 20
5.242962283839851
 10
27.64607267555708
 20
5.243029188534016
 10
27.64689015419099
 20
5.243097033475063
 10
27.64769558707702
 20
5.243165736622011
 10
27.64868638608601
 20
5.243252697418935
 10
27.64966054954311
 20
5.243340710732862
 10
27.65061929185412
 20
5.243429616322877
 10
27.65156382742504
 20
5.243519253950855
 10
27.65268022709698
 20
5.243627559778921
 10
27.65378001630313
 20
5.243736412107008
 10
27.65504490953508
 20
5.243863727799912
 10
27.65664753970402
 20
5.244027251004858
 10
27.65892888602599
 20
5.244261344700869
 10
27.66555828168999
 20
5.244906501150916
 10
27.66716095097313
 20
5.245045340870996
 10
27.66860775440415
 20
5.245162720233841
 10
27.67007681837998
 20
5.245274286137878
 10
27.67156744608604
 20
5.245380196645893
 10
27.673078921941
 20
5.245480612518856
 10
27.67461053036612
 20
5.245575694516896
 10
27.676356763574
 20
5.245676486283908
 10
27.67812655254704
 20
5.245770959722898
 10
27.67991887842004
 20
5.24585934372987
 10
27.68193554455899
 20
5.245950684654868
 10
27.68397737855912
 20
5.246035104334902
 10
27.68625079678098
 20
5.246120346683877
 10
27.68855111676902
 20
5.246198012161013
 10
27.69108905223413
 20
5.246274587817874
 10
27.69386931142514
 20
5.246348559755851
 10
27.697113230159
 20
5.246423179733877
 10
27.70083050359414
 20
5.246495129271858
 10
27.70525034687904
 20
5.246564622880891
 10
27.71150237828214
 20
5.246638964599005
 10
27.737120139088
 20
5.246802450091871
 10
27.74308587385701
 20
5.246840008224858
 10
27.74964607460214
 20
5.246886901310908
 10
27.75722053682801
 20
5.246946574411023
 10
27.76643025171711
 20
5.247023912946011
 10
27.78084087190399
 20
5.247145256888865
 10
27.820306805678
 20
5.247343704182005
 10
27.82178969574998
 20
5.247344046284858
  0
LWPOLYLINE
  5
6E7
330
1E
100
AcDbEntity
  8
1
100
AcDbPolyline
 90
        5
 70
     0
 43
0.0
 10
35.77548553790001
 20
5.24734404629992
 10
35.7924348410131
 20
5.247884572725915
 10
35.81812361687211
 20
5.248434116513913
 10
35.88543801849914
 20
5.249179680714059
 10
36.03239692950001
 20
5.249572785099013
  0
LWPOLYLINE
  5
6EE
330
1E
100
AcDbEntity
  8
1
100
AcDbPolyline
 90
       24
 70
     0
 43
0.0
 10
36.05011484049998
 20
0.4887668823998823
 10
36.06240143538714
 20
0.4790349778730229
 10
36.07456449032703
 20
0.4691412884690139
 10
36.08659612062597
 20
0.4590863426039349
 10
36.09848844159197
 20
0.4488706686908543
 10
36.11023356853014
 20
0.4384947951478423
 10
36.12182361859101
 20
0.4279592516330084
 10
36.13515402079304
 20
0.4154769426609122
 10
36.15582017225597
 20
0.3955590101529606
 10
36.19535288460411
 20
0.3570227106068228
 10
36.20298037093101
 20
0.3498258432920194
 10
36.20857801608298
 20
0.344688275265919
 10
36.21326414284403
 20
0.3405032979670138
 10
36.21741055340101
 20
0.3369004400029735
 10
36.22120343856414
 20
0.3336946744088847
 10
36.22463349695915
 20
0.3308744851660164
 10
36.22789565978104
 20
0.3282653889078757
 10
36.23098575819311
 20
0.3258621574228711
 10
36.23389926209199
 20
0.3236589549258566
 10
36.23684266652997
 20
0.321496451051014
 10
36.2396038839261
 20
0.3195267813658758
 10
36.24239332363599
 20
0.3175958712848752
 10
36.24499425675304
 20
0.3158494218519037
 10
36.24542189216714
 20
0.3155672985649244
  0
LINE
  5
A2D
330
1E
100
AcDbEntity
  8
SK4
100
AcDbLine
 10
-0.5779244307734075
 20
0.0000000000000001
 30
0.0
 11
-49.99270664147383
 21
0.0000000000000061
 31
0.0
  0
DIMENSION
  5
ABC
330
1E
100
AcDbEntity
  8
SK2
100
AcDbDimension
  2
*D5
 10
41.00439999999998
 20
-43.47773478676765
 30
0.0
 11
-0.4237683454999852
 21
-43.47773478676765
 31
0.0
 70
   160
 71
     5
 42
89.00439999999996
  3
ISO-25
100
AcDbAlignedDimension
 13
-48.0
 23
-5.052734786767641
 33
0.0
 14
41.00439999999998
 24
-2.257470409682158
 34
0.0
100
AcDbRotatedDimension
  0
LINE
  5
1570
330
1E
100
AcDbEntity
  8
SK4
100
AcDbLine
 10
38.00440000000014
 20
-1.040588821721144
 30
0.0
 11
38.00440000000014
 21
7.001049526832839
 31
0.0
  0
LINE
  5
1571
330
1E
100
AcDbEntity
  8
SK4
100
AcDbLine
 10
33.74716347564184
 20
2.988766882399882
 30
0.0
 11
42.36186935305823
 21
2.988766882399879
 31
0.0
  0
LINE
  5
18BE
330
1E
100
AcDbEntity
  8
1
100
AcDbLine
 10
21.44292530670014
 20
-5.250000000000116
 30
0.0
 11
21.44292530670014
 21
5.249999999999879
 31
0.0
  0
TEXT
  5
1C55
330
1E
100
AcDbEntity
  8
6
100
AcDbText
 10
17.10793799801144
 20
12.88470224490859
 30
0.0
 40
2.5
  1
RHHW0602M0TN
100
AcDbText
  0
TEXT
  5
1C56
330
1E
100
AcDbEntity
  8
6
100
AcDbText
 10
64.28218661639419
 20
-3.274407476907413
 30
0.0
 40
3.0
  1
Z=2
 50
90.0
100
AcDbText
  0
LINE
  5
1C71
330
1E
100
AcDbEntity
  8
NOCUT
100
AcDbLine
 10
36.44838793510007
 20
5.249999999999983
 30
0.0
 11
21.44292530660004
 21
5.249999999999983
 31
0.0
  0
LINE
  5
1C72
330
1E
100
AcDbEntity
  8
NOCUT
100
AcDbLine
 10
40.5000000000001
 20
0.0
 30
0.0
 11
0.0
 21
0.0
 31
0.0
  0
LINE
  5
1C73
330
1E
100
AcDbEntity
  8
NOCUT
100
AcDbLine
 10
20.56397211420005
 20
5.327862122399992
 30
0.0
 11
7.436027885700043
 21
7.672137877499991
 31
0.0
  0
LINE
  5
1C74
330
1E
100
AcDbEntity
  8
NOCUT
100
AcDbLine
 10
0.0000000000000284
 20
7.999999999999985
 30
0.0
 11
0.0000000000000284
 21
0.0
 31
0.0
  0
LINE
  5
1C75
330
1E
100
AcDbEntity
  8
NOCUT
100
AcDbLine
 10
6.557074693300052
 20
7.749999999999985
 30
0.0
 11
0.2500000000000284
 21
7.749999999999985
 31
0.0
  0
ARC
  5
1C76
330
1E
100
AcDbEntity
  8
NOCUT
100
AcDbCircle
 10
0.2500000000000284
 20
7.999999999999985
 30
0.0
 40
0.25
100
AcDbArc
 50
180.0
 51
270.0
  0
ARC
  5
1C77
330
1E
100
AcDbEntity
  8
NOCUT
100
AcDbCircle
 10
6.557074693300052
 20
2.749999999999984
 30
0.0
 40
5.0
100
AcDbArc
 50
79.87532834459948
 51
90.0
  0
ARC
  5
1C78
330
1E
100
AcDbEntity
  8
NOCUT
100
AcDbCircle
 10
21.44292530660004
 20
10.24999999999998
 30
0.0
 40
5.0
100
AcDbArc
 50
259.8753283443993
 51
270.0
  0
LINE
  5
1C79
330
1E
100
AcDbEntity
  8
NOCUT
100
AcDbLine
 10
20.56397211420005
 20
5.327862122399992
 30
0.0
 11
21.44292530660004
 21
5.249999999999983
 31
0.0
  0
ARC
  5
1C7A
330
1E
100
AcDbEntity
  8
NOCUT
100
AcDbCircle
 10
38.00000000000006
 20
3.199999999999988
 30
0.0
 40
2.5
100
AcDbArc
 50
0.0
 51
122.3465321291
  0
ARC
  5
1C7B
330
1E
100
AcDbEntity
  8
NOCUT
100
AcDbCircle
 10
36.44838793510007
 20
5.649999999999991
 30
0.0
 40
0.4
100
AcDbArc
 50
270.0
 51
302.3465321296995
  0
LINE
  5
1C7C
330
1E
100
AcDbEntity
  8
NOCUT
100
AcDbLine
 10
40.5000000000001
 20
0.0
 30
0.0
 11
40.50000000000006
 21
3.199999999999988
 31
0.0
  0
SPLINE
  5
1C8C
330
1E
100
AcDbEntity
  8
CUT
100
AcDbSpline
210
0.0
220
0.0
230
1.0
 70
     8
 71
     3
 72
    36
 73
    32
 74
    30
 42
0.0000000001
 43
0.0000000001
 44
0.0000000001
 12
0.9999999735703452
 22
0.0002299115247064
 32
0.0
 13
-0.9999825149657894
 23
-0.0059135237122243
 33
0.0
 40
0.0
 40
0.0
 40
0.0
 40
0.0
 40
0.3248326030019188
 40
0.6496497579137257
 40
0.9744365062394198
 40
1.299179704359118
 40
1.623864578617239
 40
1.948469262398882
 40
2.272973695111305
 40
2.597355590729736
 40
2.921589673492492
 40
3.245646845826313
 40
3.56948646238055
 40
3.893062913887769
 40
4.216324038803831
 40
4.539200870059962
 40
4.861607870059961
 40
5.183430017590246
 40
5.504520986128756
 40
5.824688524403642
 40
6.143677446137615
 40
6.461138615298494
 40
6.776607900156783
 40
7.089519346455896
 40
7.399311045160068
 40
7.705910968512925
 40
8.010869348414205
 40
8.318227249456308
 40
8.63207849340474
 40
8.952666116941584
 40
9.277024138043271
 40
9.277024138043271
 40
9.277024138043271
 40
9.277024138043271
 10
38.0044
 20
5.988766882399881
 30
0.0
 10
38.11267753147223
 20
5.988791776652891
 30
0.0
 10
38.32941003631424
 20
5.977031387329641
 30
0.0
 10
38.65055327434161
 20
5.92449116750621
 30
0.0
 10
38.96416043051178
 20
5.837589184346895
 30
0.0
 10
39.26650475111239
 20
5.717367703690253
 30
0.0
 10
39.55405576007012
 20
5.5652422665907
 30
0.0
 10
39.82343875892332
 20
5.383010751961493
 30
0.0
 10
40.0714933262576
 20
5.172822904919553
 30
0.0
 10
40.29531446807088
 20
4.937166824092588
 30
0.0
 10
40.49227704364582
 20
4.678828443252204
 30
0.0
 10
40.66007361752955
 20
4.400871656720637
 30
0.0
 10
40.79673838302918
 20
4.106598894434898
 30
0.0
 10
40.90066629661585
 20
3.799514120564343
 30
0.0
 10
40.97064272558829
 20
3.483289542507379
 30
0.0
 10
41.00585102569301
 20
3.161724996105962
 30
0.0
 10
41.00587937802514
 20
2.838715877467018
 30
0.0
 10
40.97073256891568
 20
2.518219770168812
 30
0.0
 10
40.90083162803224
 20
2.204229568993699
 30
0.0
 10
40.79700553558349
 20
1.900757246709545
 30
0.0
 10
40.66048495428917
 20
1.611841506887343
 30
0.0
 10
40.49289420734727
 20
1.341580447892971
 30
0.0
 10
40.29621245852083
 20
1.094221016027209
 30
0.0
 10
40.07272402890767
 20
0.8743083350734575
 30
0.0
 10
39.82486019015558
 20
0.6869343979134235
 30
0.0
 10
39.55494512288217
 20
0.5379773137327707
 30
0.0
 10
39.26540391815521
 20
0.4338553391850559
 30
0.0
 10
38.96080888157356
 20
0.3771017524776719
 30
0.0
 10
38.64710775644346
 20
0.3574606993275492
 30
0.0
 10
38.327499776735
 20
0.3549891682228543
 30
0.0
 10
38.11251744989686
 20
0.3565522486828978
 30
0.0
 10
38.0044
 20
0.3559128823998861
 30
0.0
 11
38.0044
 21
5.988766882399881
 31
0.0
 11
38.328758
 21
5.971213882399887
 31
0.0
 11
38.649312
 21
5.918760882399888
 31
0.0
 11
38.96230399999997
 21
5.832028882399892
 31
0.0
 11
39.26406599999998
 21
5.712037882399878
 31
0.0
 11
39.551062
 21
5.560203882399883
 31
0.0
 11
39.81992399999997
 21
5.378320882399883
 31
0.0
 11
40.06749899999999
 21
5.168535882399886
 31
0.0
 11
40.290886
 21
4.93332988239988
 31
0.0
 11
40.48746600000001
 21
4.675484882399879
 31
0.0
 11
40.65493599999999
 21
4.398055882399882
 31
0.0
 11
40.79133099999999
 21
4.10434088239989
 31
0.0
 11
40.89504999999999
 21
3.797837882399883
 31
0.0
 11
40.96487899999996
 21
3.482208882399882
 31
0.0
 11
41.0
 21
3.161247882399885
 31
0.0
 11
41.0
 21
2.838840882399886
 31
0.0
 11
40.96487899999996
 21
2.518940882399883
 31
0.0
 11
40.89504999999999
 21
2.205534882399879
 31
0.0
 11
40.79133099999999
 21
1.902632882399879
 31
0.0
 11
40.65493599999999
 21
1.614274882399874
 31
0.0
 11
40.48746600000001
 21
1.344579882399876
 31
0.0
 11
40.290886
 21
1.097846882399885
 31
0.0
 11
40.06749899999999
 21
0.8787308823998872
 31
0.0
 11
39.81992399999997
 21
0.6925118823998787
 31
0.0
 11
39.551062
 21
0.5451458823998877
 31
0.0
 11
39.26406599999998
 21
0.4420298823998877
 31
0.0
 11
38.96230399999997
 21
0.3836468823998814
 31
0.0
 11
38.649312
 21
0.3604388823998846
 31
0.0
 11
38.328758
 21
0.3557958823998831
 31
0.0
 11
38.0044
 21
0.3559128823998861
 31
0.0
  0
SPLINE
  5
1C8D
330
1E
100
AcDbEntity
  8
CUT
100
AcDbSpline
210
0.0
220
0.0
230
1.0
 70
     8
 71
     3
 72
    36
 73
    32
 74
    30
 42
0.0000000001
 43
0.0000000001
 44
0.0000000001
 12
-0.9999999735703452
 22
0.0002299115247064
 32
0.0
 13
0.9999825149657894
 23
-0.0059135237122243
 33
0.0
 40
0.0
 40
0.0
 40
0.0
 40
0.0
 40
0.324832603001933
 40
0.649649757913719
 40
0.9744365062394539
 40
1.299179704359133
 40
1.623864578617235
 40
1.948469262398912
 40
2.272973695111308
 40
2.597355590729735
 40
2.921589673492503
 40
3.245646845826335
 40
3.569486462380572
 40
3.893062913887778
 40
4.216324038803844
 40
4.539200870059973
 40
4.861607870059971
 40
5.183430017590254
 40
5.504520986128769
 40
5.82468852440364
 40
6.143677446137613
 40
6.461138615298504
 40
6.776607900156806
 40
7.089519346455915
 40
7.399311045160058
 40
7.705910968512952
 40
8.010869348414212
 40
8.318227249456294
 40
8.632078493404769
 40
8.952666116941591
 40
9.277024138043293
 40
9.277024138043293
 40
9.277024138043293
 40
9.277024138043293
 10
38.0044
 20
5.988766882399881
 30
0.0
 10
37.89612246852776
 20
5.988791776652891
 30
0.0
 10
37.67938996368574
 20
5.977031387329645
 30
0.0
 10
37.35824672565839
 20
5.9244911675062
 30
0.0
 10
37.0446395694882
 20
5.837589184346906
 30
0.0
 10
36.74229524888759
 20
5.717367703690256
 30
0.0
 10
36.45474423992987
 20
5.565242266590678
 30
0.0
 10
36.18536124107665
 20
5.383010751961519
 30
0.0
 10
35.93730667374238
 20
5.172822904919539
 30
0.0
 10
35.71348553192911
 20
4.937166824092583
 30
0.0
 10
35.51652295635415
 20
4.678828443252204
 30
0.0
 10
35.3487263824704
 20
4.400871656720641
 30
0.0
 10
35.21206161697077
 20
4.106598894434907
 30
0.0
 10
35.10813370338417
 20
3.799514120564331
 30
0.0
 10
35.03815727441169
 20
3.483289542507386
 30
0.0
 10
35.00294897430698
 20
3.161724996105959
 30
0.0
 10
35.00292062197488
 20
2.838715877467021
 30
0.0
 10
35.03806743108427
 20
2.518219770168806
 30
0.0
 10
35.10796837196779
 20
2.204229568993711
 30
0.0
 10
35.21179446441648
 20
1.900757246709537
 30
0.0
 10
35.34831504571078
 20
1.611841506887338
 30
0.0
 10
35.51590579265271
 20
1.34158044789297
 30
0.0
 10
35.71258754147917
 20
1.094221016027215
 30
0.0
 10
35.93607597109232
 20
0.8743083350734693
 30
0.0
 10
36.1839398098444
 20
0.6869343979133987
 30
0.0
 10
36.4538548771178
 20
0.5379773137327888
 30
0.0
 10
36.74339608184477
 20
0.433855339185053
 30
0.0
 10
37.04799111842643
 20
0.3771017524776678
 30
0.0
 10
37.36169224355653
 20
0.3574606993275513
 30
0.0
 10
37.68130022326501
 20
0.3549891682228537
 30
0.0
 10
37.89628255010313
 20
0.3565522486828978
 30
0.0
 10
38.0044
 20
0.3559128823998861
 30
0.0
 11
38.0044
 21
5.988766882399881
 31
0.0
 11
37.68004199999998
 21
5.971213882399887
 31
0.0
 11
37.359488
 21
5.918760882399888
 31
0.0
 11
37.04649599999999
 21
5.832028882399892
 31
0.0
 11
36.744734
 21
5.712037882399878
 31
0.0
 11
36.457738
 21
5.560203882399883
 31
0.0
 11
36.18887599999999
 21
5.378320882399883
 31
0.0
 11
35.941301
 21
5.168535882399886
 31
0.0
 11
35.717914
 21
4.93332988239988
 31
0.0
 11
35.52133399999997
 21
4.675484882399879
 31
0.0
 11
35.35386399999997
 21
4.398055882399882
 31
0.0
 11
35.21746899999997
 21
4.10434088239989
 31
0.0
 11
35.11375000000001
 21
3.797837882399883
 31
0.0
 11
35.04392100000001
 21
3.482208882399882
 31
0.0
 11
35.0088
 21
3.161247882399885
 31
0.0
 11
35.0088
 21
2.838840882399886
 31
0.0
 11
35.04392100000001
 21
2.518940882399883
 31
0.0
 11
35.11375000000001
 21
2.205534882399879
 31
0.0
 11
35.21746899999997
 21
1.902632882399879
 31
0.0
 11
35.35386399999997
 21
1.614274882399874
 31
0.0
 11
35.52133399999997
 21
1.344579882399876
 31
0.0
 11
35.717914
 21
1.097846882399885
 31
0.0
 11
35.941301
 21
0.8787308823998872
 31
0.0
 11
36.18887599999999
 21
0.6925118823998787
 31
0.0
 11
36.457738
 21
0.5451458823998877
 31
0.0
 11
36.744734
 21
0.4420298823998877
 31
0.0
 11
37.04649599999999
 21
0.3836468823998814
 31
0.0
 11
37.359488
 21
0.3604388823998846
 31
0.0
 11
37.68004199999998
 21
0.3557958823998831
 31
0.0
 11
38.0044
 21
0.3559128823998861
 31
0.0
  0
LWPOLYLINE
  5
1E0B
330
1E
100
AcDbEntity
  8
1
100
AcDbPolyline
 90
        3
 70
     1
 43
0.0
 10
0.0000000000001279
 20
0.0
 10
-2.950972054112455
 20
0.0
 42
0.4142135623730966
 10
0.0000000000001279
 20
-2.950972054112583
  0
HATCH
  5
1E0C
330
1E
100
AcDbEntity
  8
1
100
AcDbHatch
 10
0.0
 20
0.0
 30
0.0
210
0.0
220
0.0
230
1.0
  2
SOLID
 70
     1
 71
     0
 91
        2
 92
        7
 72
     1
 73
     1
 93
        3
 10
0.0000000000001279
 20
0.0
 42
0.0
 10
2.950972054112709
 20
0.0
 42
0.4142135623730966
 10
0.0000000000001279
 20
2.950972054112611
 42
0.0
 97
        0
 92
        7
 72
     1
 73
     1
 93
        3
 10
0.0000000000001279
 20
-2.950972054112496
 42
0.0
 10
0.0000000000001279
 20
0.0
 42
0.0
 10
-2.950972054112455
 20
0.0
 42
0.4142135623730953
 97
        0
 75
     0
 76
     1
 47
0.1190009775223266
 98
        2
 10
0.7445530588120306
 20
0.9212244733764975
 10
-1.279464601852807
 20
-1.69679692304629
  0
CIRCLE
  5
1E0D
330
1E
100
AcDbEntity
  8
1
100
AcDbCircle
 10
0.0000000000001279
 20
0.0
 30
0.0
 40
2.950972054112601
  0
LINE
  5
1E0E
330
1E
100
AcDbEntity
  8
1
100
AcDbLine
 10
0.0000000000001279
 20
2.950972054112611
 30
0.0
 11
0.0000000000001279
 21
-2.950972054112583
 31
0.0
  0
LINE
  5
1E10
330
1E
100
AcDbEntity
  8
1
100
AcDbLine
 10
-2.950972054112709
 20
0.0
 30
0.0
 11
2.950972054112709
 21
0.0
 31
0.0
  0
LWPOLYLINE
  5
1E11
330
1E
100
AcDbEntity
  8
1
100
AcDbPolyline
 90
        3
 70
     1
 43
0.0
 10
0.0000000000001279
 20
2.950972054112611
 10
0.0000000000001279
 20
0.0
 10
2.950972054112709
 20
0.0
 42
0.4142135623730966
  0
ENDSEC
  0
SECTION
  2
OBJECTS
  0
DICTIONARY
  5
C
330
0
100
AcDbDictionary
281
     1
  3
ACAD_COLOR
350
1F7B
  3
ACAD_GROUP
350
D
  3
ACAD_LAYOUT
350
19
  3
ACAD_MATERIAL
350
1F7A
  3
ACAD_MLINESTYLE
350
16
  3
ACAD_PLOTSETTINGS
350
18
  3
ACAD_PLOTSTYLENAME
350
1C0B
  3
ACAD_TABLESTYLE
350
1F7C
  3
ACDBHEADERROUNDTRIPXREC
350
1F97
  3
AcDbVariableDictionary
350
1F7F
1001
ACAD
1000
TREAT_AS_HARD
1070
     0
1000
TREAT_AS_HARD
1070
     0
  0
DICTIONARY
  5
1218
330
1E
100
AcDbDictionary
281
     1
  3
ACAD_LAYOUTSELFREF
350
18C1
1001
ACAD
1000
TREAT_AS_HARD
1070
     1
  0
DICTIONARY
  5
1216
330
1A
100
AcDbDictionary
281
     1
  3
ACAD_LAYOUTSELFREF
350
18C0
1001
ACAD
1000
TREAT_AS_HARD
1070
     1
  0
DICTIONARY
  5
1F7B
102
{ACAD_REACTORS
330
C
102
}
330
C
100
AcDbDictionary
281
     1
  0
DICTIONARY
  5
D
102
{ACAD_REACTORS
330
C
102
}
330
C
100
AcDbDictionary
281
     1
1001
ACAD
1000
TREAT_AS_HARD
1070
     0
1000
TREAT_AS_HARD
1070
     0
  0
DICTIONARY
  5
19
102
{ACAD_REACTORS
330
C
102
}
330
C
100
AcDbDictionary
281
     1
  3
Layout1
350
1C0E
  3
Model
350
1C0D
1001
ACAD
1000
TREAT_AS_HARD
1070
     0
1000
TREAT_AS_HARD
1070
     0
  0
DICTIONARY
  5
1F7A
102
{ACAD_REACTORS
330
C
102
}
330
C
100
AcDbDictionary
281
     1
  0
DICTIONARY
  5
16
102
{ACAD_REACTORS
330
C
102
}
330
C
100
AcDbDictionary
281
     1
  3
STANDARD
350
17
1001
ACAD
1000
TREAT_AS_HARD
1070
     0
1000
TREAT_AS_HARD
1070
     0
  0
DICTIONARY
  5
18
102
{ACAD_REACTORS
330
C
102
}
330
C
100
AcDbDictionary
281
     1
1001
ACAD
1000
TREAT_AS_HARD
1070
     0
1000
TREAT_AS_HARD
1070
     0
  0
ACDBDICTIONARYWDFLT
  5
1C0B
102
{ACAD_REACTORS
330
C
102
}
330
C
100
AcDbDictionary
281
     1
  3
Normal
350
1C0C
100
AcDbDictionaryWithDefault
340
1C0C
  0
DICTIONARY
  5
1F7C
102
{ACAD_REACTORS
330
C
102
}
330
C
100
AcDbDictionary
281
     1
  3
Standard
350
1F7D
  0
DICTIONARY
  5
1F97
102
{ACAD_REACTORS
330
C
102
}
330
C
100
AcDbDictionary
281
     1
  0
DICTIONARY
  5
1F7F
102
{ACAD_REACTORS
330
C
102
}
330
C
100
AcDbDictionary
281
     1
  3
CTABLESTYLE
350
1F80
  3
DIMASSOC
350
1F81
  3
PROJECTNAME
350
1F82
  0
XRECORD
  5
18C1
102
{ACAD_REACTORS
330
1218
102
}
330
1218
100
AcDbXrecord
280
     1
340
1E
  0
XRECORD
  5
18C0
102
{ACAD_REACTORS
330
1216
102
}
330
1216
100
AcDbXrecord
280
     1
340
1A
  0
LAYOUT
  5
1C0E
102
{ACAD_XDICTIONARY
360
1F9A
102
}
102
{ACAD_REACTORS
330
19
102
}
330
19
100
AcDbPlotSettings
  1

  2
\\ingdom02\ITB2
  4

  6

 40
0.0
 41
0.0
 42
0.0
 43
0.0
 44
0.0
 45
0.0
 46
0.0
 47
0.0
 48
0.0
 49
0.0
140
0.0
141
0.0
142
1.0
143
1.0
 70
   688
 72
     0
 73
     0
 74
     5
  7

 75
    16
147
1.0
148
0.0
149
0.0
100
AcDbLayout
  1
Layout1
 70
     1
 71
     1
 10
0.0
 20
0.0
 11
12.0
 21
9.0
 12
0.0
 22
0.0
 32
0.0
 14
100.0
 24
100.0
 34
100.0
 15
-100.0
 25
-100.0
 35
-100.0
146
0.0
 13
0.0
 23
0.0
 33
0.0
 16
1.0
 26
0.0
 36
0.0
 17
0.0
 27
1.0
 37
0.0
 76
     0
330
1A
  0
LAYOUT
  5
1C0D
102
{ACAD_XDICTIONARY
360
1F98
102
}
102
{ACAD_REACTORS
330
19
102
}
330
19
100
AcDbPlotSettings
  1

  2
\\ingdom02\ITB2
  4

  6

 40
0.0
 41
0.0
 42
0.0
 43
0.0
 44
0.0
 45
0.0
 46
0.0
 47
0.0
 48
0.0
 49
0.0
140
0.0
141
0.0
142
1.0
143
1.0
 70
  1712
 72
     0
 73
     0
 74
     0
  7

 75
     0
147
1.0
148
0.0
149
0.0
100
AcDbLayout
  1
Model
 70
     1
 71
     0
 10
0.0
 20
0.0
 11
12.0
 21
9.0
 12
0.0
 22
0.0
 32
0.0
 14
0.0
 24
0.0
 34
0.0
 15
0.0
 25
0.0
 35
0.0
146
0.0
 13
0.0
 23
0.0
 33
0.0
 16
1.0
 26
0.0
 36
0.0
 17
0.0
 27
1.0
 37
0.0
 76
     0
330
1E
  0
MLINESTYLE
  5
17
102
{ACAD_REACTORS
330
16
102
}
330
16
100
AcDbMlineStyle
  2
STANDARD
 70
     0
  3

 62
   256
 51
90.0
 52
90.0
 71
     2
 49
0.5
 62
   256
  6
BYLAYER
 49
-0.5
 62
   256
  6
BYLAYER
  0
ACDBPLACEHOLDER
  5
1C0C
102
{ACAD_REACTORS
330
1C0B
102
}
330
1C0B
  0
TABLESTYLE
  5
1F7D
102
{ACAD_REACTORS
330
1F7C
102
}
330
1F7C
100
AcDbTableStyle
  3
Standard
 70
     0
 71
     0
 40
0.06
 41
0.06
280
     0
281
     0
  7
STANDARD
140
0.18
170
     2
 62
     0
 63
     7
283
     0
274
    -2
284
     1
 64
     0
275
    -2
285
     1
 65
     0
276
    -2
286
     1
 66
     0
277
    -2
287
     1
 67
     0
278
    -2
288
     1
 68
     0
279
    -2
289
     1
 69
     0
  7
STANDARD
140
0.25
170
     5
 62
     0
 63
     7
283
     0
274
    -2
284
     1
 64
     0
275
    -2
285
     1
 65
     0
276
    -2
286
     1
 66
     0
277
    -2
287
     1
 67
     0
278
    -2
288
     1
 68
     0
279
    -2
289
     1
 69
     0
  7
STANDARD
140
0.18
170
     5
 62
     0
 63
     7
283
     0
274
    -2
284
     1
 64
     0
275
    -2
285
     1
 65
     0
276
    -2
286
     1
 66
     0
277
    -2
287
     1
 67
     0
278
    -2
288
     1
 68
     0
279
    -2
289
     1
 69
     0
  0
DICTIONARYVAR
  5
1F80
102
{ACAD_REACTORS
330
1F7F
102
}
330
1F7F
100
DictionaryVariables
280
     0
  1
STANDARD
  0
DICTIONARYVAR
  5
1F81
102
{ACAD_REACTORS
330
1F7F
102
}
330
1F7F
100
DictionaryVariables
280
     0
  1
1
  0
DICTIONARYVAR
  5
1F82
102
{ACAD_REACTORS
330
1F7F
102
}
330
1F7F
100
DictionaryVariables
280
     0
  1

  0
DICTIONARY
  5
1F9A
330
1C0E
100
AcDbDictionary
280
     1
281
     1
  3
ACAD_XREC_ROUNDTRIP
360
1F9B
  0
DICTIONARY
  5
1F98
330
1C0D
100
AcDbDictionary
280
     1
281
     1
  3
ACAD_XREC_ROUNDTRIP
360
1F99
  0
XRECORD
  5
1F9B
102
{ACAD_REACTORS
330
1F9A
102
}
330
1F9A
100
AcDbXrecord
280
     1
102
SHADEPLOT
 70
     0
102
SHADEPLOTRESLEVEL
 70
     2
102
SHADEPLOTCUSTOMDPI
 70
   300
  0
XRECORD
  5
1F99
102
{ACAD_REACTORS
330
1F98
102
}
330
1F98
100
AcDbXrecord
280
     1
102
SHADEPLOT
 70
     0
102
SHADEPLOTRESLEVEL
 70
     2
102
SHADEPLOTCUSTOMDPI
 70
   300
  0
ENDSEC
  0
EOF
