  0
SECTION
  2
HEADER
  9
$ACADVER
  1
AC1015
  9
$ACADMAINTVER
 70
    20
  9
$DWGCODEPAGE
  3
ANSI_1252
  9
$INSBASE
 10
0.0
 20
0.0
 30
0.0
  9
$EXTMIN
 10
-32.83885955226765
 20
-30.5126985282592
 30
-0.0015258207003583
  9
$EXTMAX
 10
50.59912747068506
 20
14.73562556199374
 30
0.0000000349246037
  9
$LIMMIN
 10
0.0
 20
0.0
  9
$LIMMAX
 10
594.0
 20
420.0
  9
$ORTHOMODE
 70
     0
  9
$REGENMODE
 70
     1
  9
$FILLMODE
 70
     1
  9
$QTEXTMODE
 70
     0
  9
$MIRRTEXT
 70
     1
  9
$LTSCALE
 40
10.0
  9
$ATTMODE
 70
     1
  9
$TEXTSIZE
 40
0.2
  9
$TRACEWID
 40
0.05
  9
$TEXTSTYLE
  7
STANDARD
  9
$CLAYER
  8
0
  9
$CELTYPE
  6
BYLAYER
  9
$CECOLOR
 62
   256
  9
$CELTSCALE
 40
1.0
  9
$DISPSILH
 70
     0
  9
$DIMSCALE
 40
1.0
  9
$DIMASZ
 40
2.5
  9
$DIMEXO
 40
3.712499999999999
  9
$DIMDLI
 40
22.572
  9
$DIMRND
 40
0.0
  9
$DIMDLE
 40
0.0
  9
$DIMEXE
 40
10.692
  9
$DIMTP
 40
0.01
  9
$DIMTM
 40
0.01
  9
$DIMTXT
 40
3.5
  9
$DIMCEN
 40
5.346
  9
$DIMTSZ
 40
0.0
  9
$DIMTOL
 70
     1
  9
$DIMLIM
 70
     0
  9
$DIMTIH
 70
     1
  9
$DIMTOH
 70
     1
  9
$DIMSE1
 70
     0
  9
$DIMSE2
 70
     0
  9
$DIMTAD
 70
     0
  9
$DIMZIN
 70
     0
  9
$DIMBLK
  1
_FILLED
  9
$DIMASO
 70
     1
  9
$DIMSHO
 70
     1
  9
$DIMPOST
  1

  9
$DIMAPOST
  1

  9
$DIMALT
 70
     0
  9
$DIMALTD
 70
     2
  9
$DIMALTF
 40
25.4
  9
$DIMLFAC
 40
1.0
  9
$DIMTOFL
 70
     0
  9
$DIMTVP
 40
0.0
  9
$DIMTIX
 70
     0
  9
$DIMSOXD
 70
     0
  9
$DIMSAH
 70
     0
  9
$DIMBLK1
  1

  9
$DIMBLK2
  1

  9
$DIMSTYLE
  2
STANDARD
  9
$DIMCLRD
 70
     0
  9
$DIMCLRE
 70
     0
  9
$DIMCLRT
 70
     0
  9
$DIMTFAC
 40
1.0
  9
$DIMGAP
 40
0.09
  9
$DIMJUST
 70
     0
  9
$DIMSD1
 70
     0
  9
$DIMSD2
 70
     0
  9
$DIMTOLJ
 70
     1
  9
$DIMTZIN
 70
     0
  9
$DIMALTZ
 70
     0
  9
$DIMALTTZ
 70
     0
  9
$DIMUPT
 70
     0
  9
$DIMDEC
 70
     4
  9
$DIMTDEC
 70
     4
  9
$DIMALTU
 70
     2
  9
$DIMALTTD
 70
     2
  9
$DIMTXSTY
  7
STANDARD
  9
$DIMAUNIT
 70
     0
  9
$DIMADEC
 70
     0
  9
$DIMALTRND
 40
0.0
  9
$DIMAZIN
 70
     0
  9
$DIMDSEP
 70
    46
  9
$DIMATFIT
 70
     3
  9
$DIMFRAC
 70
     0
  9
$DIMLDRBLK
  1
_FILLED
  9
$DIMLUNIT
 70
     2
  9
$DIMLWD
 70
    -2
  9
$DIMLWE
 70
    -2
  9
$DIMTMOVE
 70
     0
  9
$LUNITS
 70
     2
  9
$LUPREC
 70
     4
  9
$SKETCHINC
 40
0.1
  9
$FILLETRAD
 40
0.0
  9
$AUNITS
 70
     0
  9
$AUPREC
 70
     0
  9
$MENU
  1

  9
$ELEVATION
 40
0.0
  9
$PELEVATION
 40
0.0
  9
$THICKNESS
 40
0.0
  9
$LIMCHECK
 70
     0
  9
$CHAMFERA
 40
0.0
  9
$CHAMFERB
 40
0.0
  9
$CHAMFERC
 40
0.0
  9
$CHAMFERD
 40
0.0
  9
$SKPOLY
 70
     0
  9
$TDCREATE
 40
2453431.694952836
  9
$TDUCREATE
 40
2453431.611619502
  9
$TDUPDATE
 40
2453909.269824988
  9
$TDUUPDATE
 40
2453909.186491655
  9
$TDINDWG
 40
0.7198193981
  9
$TDUSRTIMER
 40
0.7183766551
  9
$USRTIMER
 70
     1
  9
$ANGBASE
 50
0.0
  9
$ANGDIR
 70
     0
  9
$PDMODE
 70
     0
  9
$PDSIZE
 40
0.3125
  9
$PLINEWID
 40
0.0
  9
$SPLFRAME
 70
     0
  9
$SPLINETYPE
 70
     6
  9
$SPLINESEGS
 70
     8
  9
$HANDSEED
  5
236E
  9
$SURFTAB1
 70
     6
  9
$SURFTAB2
 70
     6
  9
$SURFTYPE
 70
     6
  9
$SURFU
 70
     6
  9
$SURFV
 70
     6
  9
$UCSBASE
  2

  9
$UCSNAME
  2

  9
$UCSORG
 10
0.0
 20
0.0
 30
0.0
  9
$UCSXDIR
 10
1.0
 20
0.0
 30
0.0
  9
$UCSYDIR
 10
0.0
 20
1.0
 30
0.0
  9
$UCSORTHOREF
  2

  9
$UCSORTHOVIEW
 70
     0
  9
$UCSORGTOP
 10
0.0
 20
0.0
 30
0.0
  9
$UCSORGBOTTOM
 10
0.0
 20
0.0
 30
0.0
  9
$UCSORGLEFT
 10
0.0
 20
0.0
 30
0.0
  9
$UCSORGRIGHT
 10
0.0
 20
0.0
 30
0.0
  9
$UCSORGFRONT
 10
0.0
 20
0.0
 30
0.0
  9
$UCSORGBACK
 10
0.0
 20
0.0
 30
0.0
  9
$PUCSBASE
  2

  9
$PUCSNAME
  2

  9
$PUCSORG
 10
0.0
 20
0.0
 30
0.0
  9
$PUCSXDIR
 10
1.0
 20
0.0
 30
0.0
  9
$PUCSYDIR
 10
0.0
 20
1.0
 30
0.0
  9
$PUCSORTHOREF
  2

  9
$PUCSORTHOVIEW
 70
     0
  9
$PUCSORGTOP
 10
0.0
 20
0.0
 30
0.0
  9
$PUCSORGBOTTOM
 10
0.0
 20
0.0
 30
0.0
  9
$PUCSORGLEFT
 10
0.0
 20
0.0
 30
0.0
  9
$PUCSORGRIGHT
 10
0.0
 20
0.0
 30
0.0
  9
$PUCSORGFRONT
 10
0.0
 20
0.0
 30
0.0
  9
$PUCSORGBACK
 10
0.0
 20
0.0
 30
0.0
  9
$USERI1
 70
     0
  9
$USERI2
 70
     0
  9
$USERI3
 70
     0
  9
$USERI4
 70
     0
  9
$USERI5
 70
     0
  9
$USERR1
 40
0.0
  9
$USERR2
 40
0.0
  9
$USERR3
 40
0.0
  9
$USERR4
 40
0.0
  9
$USERR5
 40
0.0
  9
$WORLDVIEW
 70
     1
  9
$SHADEDGE
 70
     3
  9
$SHADEDIF
 70
    70
  9
$TILEMODE
 70
     1
  9
$MAXACTVP
 70
    64
  9
$PINSBASE
 10
0.0
 20
0.0
 30
0.0
  9
$PLIMCHECK
 70
     0
  9
$PEXTMIN
 10
100.0
 20
100.0
 30
100.0
  9
$PEXTMAX
 10
-100.0
 20
-100.0
 30
-100.0
  9
$PLIMMIN
 10
0.0
 20
0.0
  9
$PLIMMAX
 10
12.0
 20
9.0
  9
$UNITMODE
 70
     0
  9
$VISRETAIN
 70
     1
  9
$PLINEGEN
 70
     1
  9
$PSLTSCALE
 70
     1
  9
$TREEDEPTH
 70
  3020
  9
$CMLSTYLE
  2
STANDARD
  9
$CMLJUST
 70
     0
  9
$CMLSCALE
 40
1.0
  9
$PROXYGRAPHICS
 70
     1
  9
$MEASUREMENT
 70
     0
  9
$CELWEIGHT
370
    -1
  9
$ENDCAPS
280
     0
  9
$JOINSTYLE
280
     0
  9
$LWDISPLAY
290
     0
  9
$INSUNITS
 70
     0
  9
$HYPERLINKBASE
  1

  9
$STYLESHEET
  1

  9
$XEDIT
290
     1
  9
$CEPSNTYPE
380
     0
  9
$PSTYLEMODE
290
     1
  9
$FINGERPRINTGUID
  2
{51AAADFE-64DF-4850-BAD5-744D60ACE2CB}
  9
$VERSIONGUID
  2
{829F1C9F-467F-40F5-96C2-7F8F21213A8C}
  9
$EXTNAMES
290
     1
  9
$PSVPSCALE
 40
0.0
  9
$OLESTARTUP
290
     0
  0
ENDSEC
  0
SECTION
  2
CLASSES
  0
CLASS
  1
ACDBDICTIONARYWDFLT
  2
AcDbDictionaryWithDefault
  3
ObjectDBX Classes
 90
        0
280
     0
281
     0
  0
CLASS
  1
ACDBPLACEHOLDER
  2
AcDbPlaceHolder
  3
ObjectDBX Classes
 90
        0
280
     0
281
     0
  0
CLASS
  1
LAYOUT
  2
AcDbLayout
  3
ObjectDBX Classes
 90
        0
280
     0
281
     0
  0
CLASS
  1
TABLESTYLE
  2
AcDbTableStyle
  3
ObjectDBX Classes
 90
     2047
280
     0
281
     0
  0
CLASS
  1
DICTIONARYVAR
  2
AcDbDictionaryVar
  3
ObjectDBX Classes
 90
        0
280
     0
281
     0
  0
ENDSEC
  0
SECTION
  2
TABLES
  0
TABLE
  2
VPORT
  5
8
330
0
100
AcDbSymbolTable
 70
     3
  0
VPORT
  5
2368
330
8
100
AcDbSymbolTableRecord
100
AcDbViewportTableRecord
  2
*Active
 70
     0
 10
0.0
 20
0.0
 11
1.0
 21
1.0
 12
8.880133959208706
 22
-7.888536483132725
 13
0.0
 23
0.0
 14
1.0
 24
1.0
 15
0.0
 25
0.0
 16
0.0
 26
0.0
 36
1.0
 17
0.0
 27
0.0
 37
0.0
 40
54.71971492820157
 41
1.532401524777636
 42
50.0
 43
0.0
 44
0.0
 50
0.0
 51
0.0
 71
     0
 72
  1000
 73
     1
 74
     1
 75
     0
 76
     0
 77
     0
 78
     0
281
     0
 65
     1
110
0.0
120
0.0
130
0.0
111
1.0
121
0.0
131
0.0
112
0.0
122
1.0
132
0.0
 79
     0
146
0.0
  0
ENDTAB
  0
TABLE
  2
LTYPE
  5
5
330
0
100
AcDbSymbolTable
 70
     2
  0
LTYPE
  5
13
330
5
100
AcDbSymbolTableRecord
100
AcDbLinetypeTableRecord
  2
BYBLOCK
 70
     0
  3

 72
    65
 73
     0
 40
0.0
  0
LTYPE
  5
14
330
5
100
AcDbSymbolTableRecord
100
AcDbLinetypeTableRecord
  2
BYLAYER
 70
     0
  3

 72
    65
 73
     0
 40
0.0
  0
LTYPE
  5
15
330
5
100
AcDbSymbolTableRecord
100
AcDbLinetypeTableRecord
  2
CONTINUOUS
 70
     0
  3
Solid line
 72
    65
 73
     0
 40
0.0
  0
LTYPE
  5
2A
330
5
100
AcDbSymbolTableRecord
100
AcDbLinetypeTableRecord
  2
CENTER
 70
     0
  3
____ _ ____ _ ____ _ ____ _ ____ _ ____ _ ____
 72
    65
 73
     4
 40
0.6
 49
0.375
 74
     0
 49
-0.075
 74
     0
 49
0.075
 74
     0
 49
-0.075
 74
     0
  0
ENDTAB
  0
TABLE
  2
LAYER
  5
2
330
0
100
AcDbSymbolTable
 70
    11
  0
LAYER
  5
10
330
2
100
AcDbSymbolTableRecord
100
AcDbLayerTableRecord
  2
1
 70
     0
 62
     4
  6
CONTINUOUS
370
    -3
390
1FDB
  0
LAYER
  5
2D
330
2
100
AcDbSymbolTableRecord
100
AcDbLayerTableRecord
  2
2
 70
     0
 62
     7
  6
CONTINUOUS
370
    -3
390
1FDB
  0
LAYER
  5
2F
330
2
100
AcDbSymbolTableRecord
100
AcDbLayerTableRecord
  2
4
 70
     0
 62
     2
  6
CENTER
370
    -3
390
1FDB
  0
LAYER
  5
32
330
2
100
AcDbSymbolTableRecord
100
AcDbLayerTableRecord
  2
0
 70
     0
 62
     7
  6
CONTINUOUS
370
    -3
390
1FDB
  0
LAYER
  5
33
330
2
100
AcDbSymbolTableRecord
100
AcDbLayerTableRecord
  2
DEFPOINTS
 70
     0
 62
     7
  6
CONTINUOUS
290
     0
370
    -3
390
1FDB
  0
LAYER
  5
3BC
330
2
100
AcDbSymbolTableRecord
100
AcDbLayerTableRecord
  2
SK1
 70
     0
 62
     4
  6
CONTINUOUS
370
    -3
390
1FDB
  0
LAYER
  5
3BD
330
2
100
AcDbSymbolTableRecord
100
AcDbLayerTableRecord
  2
SK4
 70
     0
 62
     2
  6
CENTER
370
    -3
390
1FDB
  0
LAYER
  5
3BE
330
2
100
AcDbSymbolTableRecord
100
AcDbLayerTableRecord
  2
SK2
 70
     0
 62
     7
  6
CONTINUOUS
370
    -3
390
1FDB
  0
LAYER
  5
2005
330
2
100
AcDbSymbolTableRecord
100
AcDbLayerTableRecord
  2
CUT
 70
     0
 62
     1
  6
CONTINUOUS
370
    -3
390
1FDB
  0
LAYER
  5
2013
330
2
100
AcDbSymbolTableRecord
100
AcDbLayerTableRecord
  2
NOCUT
 70
     0
 62
     7
  6
CONTINUOUS
370
    -3
390
1FDB
  0
LAYER
  5
202A
330
2
100
AcDbSymbolTableRecord
100
AcDbLayerTableRecord
  2
6
 70
     0
 62
     5
  6
CONTINUOUS
370
    -3
390
1FDB
  0
ENDTAB
  0
TABLE
  2
STYLE
  5
3
330
0
100
AcDbSymbolTable
 70
     1
  0
STYLE
  5
11
330
3
100
AcDbSymbolTableRecord
100
AcDbTextStyleTableRecord
  2
STANDARD
 70
     0
 40
0.0
 41
0.8
 50
0.0
 71
     0
 42
0.2
  3
ISOCP
  4

  0
ENDTAB
  0
TABLE
  2
VIEW
  5
6
330
0
100
AcDbSymbolTable
 70
     0
  0
ENDTAB
  0
TABLE
  2
UCS
  5
7
330
0
100
AcDbSymbolTable
 70
     0
  0
ENDTAB
  0
TABLE
  2
APPID
  5
9
330
0
100
AcDbSymbolTable
 70
     1
  0
APPID
  5
12
330
9
100
AcDbSymbolTableRecord
100
AcDbRegAppTableRecord
  2
ACAD
 70
     0
  0
ENDTAB
  0
TABLE
  2
DIMSTYLE
  5
A
330
0
100
AcDbSymbolTable
 70
     2
100
AcDbDimStyleTable
 71
     0
  0
DIMSTYLE
105
2C
330
A
100
AcDbSymbolTableRecord
100
AcDbDimStyleTableRecord
  2
STANDARD
 70
     0
340
11
  0
DIMSTYLE
105
3BF
102
{ACAD_REACTORS
330
72
330
71
330
6F
330
70
102
}
330
A
100
AcDbSymbolTableRecord
100
AcDbDimStyleTableRecord
  2
ISO-25
 70
     0
 41
2.5
 42
0.625
 43
3.75
 44
1.25
 73
     0
 74
     0
 77
     1
 78
     8
140
2.5
141
2.5
143
0.03937007874016
147
0.625
171
     3
172
     1
271
     2
272
     2
274
     3
283
     0
284
     8
340
11
  0
ENDTAB
  0
TABLE
  2
BLOCK_RECORD
  5
1
330
0
100
AcDbSymbolTable
 70
     5
  0
BLOCK_RECORD
  5
1E
102
{ACAD_XDICTIONARY
360
1739
102
}
330
1
100
AcDbSymbolTableRecord
100
AcDbBlockTableRecord
  2
*MODEL_SPACE
340
1FDC
  0
BLOCK_RECORD
  5
1A
102
{ACAD_XDICTIONARY
360
1737
102
}
330
1
100
AcDbSymbolTableRecord
100
AcDbBlockTableRecord
  2
*PAPER_SPACE
340
1FDD
  0
BLOCK_RECORD
  5
23
330
1
100
AcDbSymbolTableRecord
100
AcDbBlockTableRecord
  2
_FILLED
340
0
  0
BLOCK_RECORD
  5
51C
330
1
100
AcDbSymbolTableRecord
100
AcDbBlockTableRecord
  2
*D1
340
0
  0
BLOCK_RECORD
  5
528
330
1
100
AcDbSymbolTableRecord
100
AcDbBlockTableRecord
  2
*D2
340
0
  0
BLOCK_RECORD
  5
536
330
1
100
AcDbSymbolTableRecord
100
AcDbBlockTableRecord
  2
*D3
340
0
  0
BLOCK_RECORD
  5
542
330
1
100
AcDbSymbolTableRecord
100
AcDbBlockTableRecord
  2
*D4
340
0
  0
ENDTAB
  0
ENDSEC
  0
SECTION
  2
BLOCKS
  0
BLOCK
  5
36
330
1E
100
AcDbEntity
  8
0
100
AcDbBlockBegin
  2
*MODEL_SPACE
 70
     0
 10
0.0
 20
0.0
 30
0.0
  3
*MODEL_SPACE
  1

  0
ENDBLK
  5
37
330
1E
100
AcDbEntity
  8
0
100
AcDbBlockEnd
  0
BLOCK
  5
34
330
1A
100
AcDbEntity
 67
     1
  8
0
100
AcDbBlockBegin
  2
*PAPER_SPACE
 70
     0
 10
0.0
 20
0.0
 30
0.0
  3
*PAPER_SPACE
  1

  0
ENDBLK
  5
35
330
1A
100
AcDbEntity
 67
     1
  8
0
100
AcDbBlockEnd
  0
BLOCK
  5
3A
330
23
100
AcDbEntity
  8
0
100
AcDbBlockBegin
  2
_FILLED
 70
     0
 10
0.0
 20
0.0
 30
0.0
  3
_FILLED
  1

  0
SOLID
  5
3B
330
23
100
AcDbEntity
  8
0
  6
ByBlock
 62
     0
100
AcDbTrace
 10
0.0
 20
0.0
 30
0.0
 11
-1.0
 21
0.132
 31
0.0
 12
-1.0
 22
-0.132
 32
0.0
 13
-1.0
 23
-0.132
 33
0.0
  0
ENDBLK
  5
3C
330
23
100
AcDbEntity
  8
0
100
AcDbBlockEnd
  0
BLOCK
  5
526
330
51C
100
AcDbEntity
  8
0
100
AcDbBlockBegin
  2
*D1
 70
     1
 10
0.0
 20
0.0
 30
0.0
  3
*D1
  1

  0
LINE
  5
2343
330
51C
100
AcDbEntity
  8
SK2
 62
     0
370
    -2
100
AcDbLine
 10
-0.9249999999999836
 20
-6.5
 30
0.0
 11
-31.08800316524011
 21
-6.499999999999991
 31
0.0
  0
LINE
  5
2344
330
51C
100
AcDbEntity
  8
SK2
 62
     0
370
    -2
100
AcDbLine
 10
-0.9249999999999822
 20
6.5
 30
0.0
 11
-31.08800316524011
 21
6.500000000000008
 31
0.0
  0
LINE
  5
2345
330
51C
100
AcDbEntity
  8
SK2
 62
     0
370
    -2
100
AcDbLine
 10
-29.83800316524011
 20
-3.999999999999991
 30
0.0
 11
-29.83800316524011
 21
4.000000000000007
 31
0.0
  0
SOLID
  5
2346
330
51C
100
AcDbEntity
  8
SK2
 62
     0
100
AcDbTrace
 10
-30.25466983190678
 20
-3.999999999999991
 30
0.0
 11
-29.42133649857344
 21
-3.999999999999991
 31
0.0
 12
-29.83800316524011
 22
-6.499999999999992
 32
0.0
 13
-29.83800316524011
 23
-6.499999999999992
 33
0.0
  0
SOLID
  5
2347
330
51C
100
AcDbEntity
  8
SK2
 62
     0
100
AcDbTrace
 10
-30.25466983190678
 20
4.000000000000008
 30
0.0
 11
-29.42133649857344
 21
4.000000000000007
 31
0.0
 12
-29.83800316524011
 22
6.500000000000007
 32
0.0
 13
-29.83800316524011
 23
6.500000000000007
 33
0.0
  0
MTEXT
  5
2348
330
51C
100
AcDbEntity
  8
SK2
 62
     0
100
AcDbMText
 10
-31.71300316524011
 20
-0.324738300265494
 30
0.0
 40
2.5
 41
0.0
 71
     5
 72
     1
  1
%%c13
 11
0.0000000000000001
 21
1.0
 31
0.0
 73
     1
 44
1.0
1001
ACAD
1000
MTEXTBEGIN
1070
    73
1070
     1
1070
    44
1040
1.0
1070
    74
1070
     0
1000
MTEXTEND
  0
POINT
  5
2349
330
51C
100
AcDbEntity
  8
DEFPOINTS
 62
     0
100
AcDbPoint
 10
-0.2999999999999836
 20
-6.5
 30
0.0
  0
POINT
  5
234A
330
51C
100
AcDbEntity
  8
DEFPOINTS
 62
     0
100
AcDbPoint
 10
-0.2999999999999821
 20
6.5
 30
0.0
  0
POINT
  5
234B
330
51C
100
AcDbEntity
  8
DEFPOINTS
 62
     0
100
AcDbPoint
 10
-29.83800316524011
 20
6.500000000000007
 30
0.0
  0
ENDBLK
  5
527
330
51C
100
AcDbEntity
  8
0
100
AcDbBlockEnd
  0
BLOCK
  5
534
330
528
100
AcDbEntity
  8
0
100
AcDbBlockBegin
  2
*D2
 70
     1
 10
0.0
 20
0.0
 30
0.0
  3
*D2
  1

  0
LINE
  5
233A
330
528
100
AcDbEntity
  8
SK2
 62
     0
370
    -2
100
AcDbLine
 10
-17.375
 20
-3.999999999999995
 30
0.0
 11
-26.20339778424608
 21
-3.999999999999993
 31
0.0
  0
LINE
  5
233B
330
528
100
AcDbEntity
  8
SK2
 62
     0
370
    -2
100
AcDbLine
 10
-17.375
 20
4.0
 30
0.0
 11
-26.20339778424608
 21
4.000000000000002
 31
0.0
  0
LINE
  5
233C
330
528
100
AcDbEntity
  8
SK2
 62
     0
370
    -2
100
AcDbLine
 10
-24.95339778424608
 20
-1.499999999999993
 30
0.0
 11
-24.95339778424608
 21
1.500000000000002
 31
0.0
  0
SOLID
  5
233D
330
528
100
AcDbEntity
  8
SK2
 62
     0
100
AcDbTrace
 10
-25.37006445091275
 20
-1.499999999999993
 30
0.0
 11
-24.53673111757941
 21
-1.499999999999993
 31
0.0
 12
-24.95339778424608
 22
-3.999999999999993
 32
0.0
 13
-24.95339778424608
 23
-3.999999999999993
 33
0.0
  0
SOLID
  5
233E
330
528
100
AcDbEntity
  8
SK2
 62
     0
100
AcDbTrace
 10
-25.37006445091275
 20
1.500000000000002
 30
0.0
 11
-24.53673111757941
 21
1.500000000000002
 31
0.0
 12
-24.95339778424608
 22
4.000000000000002
 32
0.0
 13
-24.95339778424608
 23
4.000000000000002
 33
0.0
  0
MTEXT
  5
233F
330
528
100
AcDbEntity
  8
SK2
 62
     0
100
AcDbMText
 10
-26.82839778424608
 20
-0.0846176553458234
 30
0.0
 40
2.5
 41
0.0
 71
     5
 72
     1
  1
M8
 11
0.0000000000000001
 21
1.0
 31
0.0
 73
     1
 44
1.0
1001
ACAD
1000
MTEXTBEGIN
1070
    73
1070
     1
1070
    44
1040
1.0
1070
    74
1070
     0
1000
MTEXTEND
  0
POINT
  5
2340
330
528
100
AcDbEntity
  8
DEFPOINTS
 62
     0
100
AcDbPoint
 10
-16.75
 20
-3.999999999999996
 30
0.0
  0
POINT
  5
2341
330
528
100
AcDbEntity
  8
DEFPOINTS
 62
     0
100
AcDbPoint
 10
-16.75
 20
4.0
 30
0.0
  0
POINT
  5
2342
330
528
100
AcDbEntity
  8
DEFPOINTS
 62
     0
100
AcDbPoint
 10
-24.95339778424608
 20
4.000000000000002
 30
0.0
  0
ENDBLK
  5
535
330
528
100
AcDbEntity
  8
0
100
AcDbBlockEnd
  0
BLOCK
  5
540
330
536
100
AcDbEntity
  8
0
100
AcDbBlockBegin
  2
*D3
 70
     1
 10
0.0
 20
0.0
 30
0.0
  3
*D3
  1

  0
LINE
  5
234C
330
536
100
AcDbEntity
  8
2
 62
     0
370
    -2
100
AcDbLine
 10
28.0
 20
-4.319510351490295
 30
0.0
 11
28.0
 21
-15.34165139057416
 31
0.0
  0
LINE
  5
234D
330
536
100
AcDbEntity
  8
2
 62
     0
370
    -2
100
AcDbLine
 10
-0.0000000000000004
 20
-4.125
 30
0.0
 11
-0.0000000000000011
 21
-15.34165139057416
 31
0.0
  0
LINE
  5
234E
330
536
100
AcDbEntity
  8
2
 62
     0
370
    -2
100
AcDbLine
 10
25.5
 20
-14.09165139057416
 30
0.0
 11
2.499999999999999
 21
-14.09165139057416
 31
0.0
  0
SOLID
  5
234F
330
536
100
AcDbEntity
  8
2
 62
     0
100
AcDbTrace
 10
25.5
 20
-13.67498472390749
 30
0.0
 11
25.5
 21
-14.50831805724082
 31
0.0
 12
28.0
 22
-14.09165139057416
 32
0.0
 13
28.0
 23
-14.09165139057416
 33
0.0
  0
SOLID
  5
2350
330
536
100
AcDbEntity
  8
2
 62
     0
100
AcDbTrace
 10
2.499999999999999
 20
-13.67498472390749
 30
0.0
 11
2.499999999999999
 21
-14.50831805724082
 31
0.0
 12
-0.000000000000001
 22
-14.09165139057416
 32
0.0
 13
-0.000000000000001
 23
-14.09165139057416
 33
0.0
  0
MTEXT
  5
2351
330
536
100
AcDbEntity
  8
2
 62
     0
100
AcDbMText
 10
15.56480403745917
 20
-12.21640532758203
 30
0.0
 40
2.5
 41
0.0
 71
     5
 72
     1
  1
28
 73
     1
 44
1.0
1001
ACAD
1000
MTEXTBEGIN
1070
    73
1070
     1
1070
    44
1040
1.0
1070
    74
1070
     0
1000
MTEXTEND
  0
POINT
  5
2352
330
536
100
AcDbEntity
  8
DEFPOINTS
 62
     0
100
AcDbPoint
 10
28.0
 20
-3.694510351490296
 30
0.0
  0
POINT
  5
2353
330
536
100
AcDbEntity
  8
DEFPOINTS
 62
     0
100
AcDbPoint
 10
-0.0000000000000004
 20
-3.5
 30
0.0
  0
POINT
  5
2354
330
536
100
AcDbEntity
  8
DEFPOINTS
 62
     0
100
AcDbPoint
 10
-0.000000000000001
 20
-14.09165139057416
 30
0.0
  0
ENDBLK
  5
541
330
536
100
AcDbEntity
  8
0
100
AcDbBlockEnd
  0
BLOCK
  5
54E
330
542
100
AcDbEntity
  8
0
100
AcDbBlockBegin
  2
*D4
 70
     1
 10
0.0
 20
0.0
 30
0.0
  3
*D4
  1

  0
LINE
  5
2355
330
542
100
AcDbEntity
  8
2
 62
     0
370
    -2
100
AcDbLine
 10
26.24370761528024
 20
5.999999999999994
 30
0.0
 11
39.79647192061339
 21
5.999999999999991
 31
0.0
  0
LINE
  5
2356
330
542
100
AcDbEntity
  8
2
 62
     0
370
    -2
100
AcDbLine
 10
26.28274796994682
 20
-6.000000000000003
 30
0.0
 11
39.79647192061339
 21
-6.000000000000007
 31
0.0
  0
LINE
  5
2357
330
542
100
AcDbEntity
  8
2
 62
     0
370
    -2
100
AcDbLine
 10
38.54647192061339
 20
3.499999999999991
 30
0.0
 11
38.54647192061339
 21
-3.500000000000006
 31
0.0
  0
SOLID
  5
2358
330
542
100
AcDbEntity
  8
2
 62
     0
100
AcDbTrace
 10
38.12980525394672
 20
3.499999999999991
 30
0.0
 11
38.96313858728005
 21
3.499999999999991
 31
0.0
 12
38.54647192061339
 22
5.999999999999991
 32
0.0
 13
38.54647192061339
 23
5.999999999999991
 33
0.0
  0
SOLID
  5
2359
330
542
100
AcDbEntity
  8
2
 62
     0
100
AcDbTrace
 10
38.12980525394672
 20
-3.500000000000006
 30
0.0
 11
38.96313858728005
 21
-3.500000000000006
 31
0.0
 12
38.54647192061339
 22
-6.000000000000007
 32
0.0
 13
38.54647192061339
 23
-6.000000000000007
 33
0.0
  0
MTEXT
  5
235A
330
542
100
AcDbEntity
  8
2
 62
     0
100
AcDbMText
 10
36.67122585762126
 20
0.0754626127220493
 30
0.0
 40
2.5
 41
0.0
 71
     5
 72
     1
  1
%%c12
 11
0.0000000000000001
 21
1.0
 31
0.0
 73
     1
 44
1.0
1001
ACAD
1000
MTEXTBEGIN
1070
    73
1070
     1
1070
    44
1040
1.0
1070
    74
1070
     0
1000
MTEXTEND
  0
POINT
  5
235B
330
542
100
AcDbEntity
  8
DEFPOINTS
 62
     0
100
AcDbPoint
 10
25.61870761528024
 20
5.999999999999995
 30
0.0
  0
POINT
  5
235C
330
542
100
AcDbEntity
  8
DEFPOINTS
 62
     0
100
AcDbPoint
 10
25.65774796994682
 20
-6.000000000000002
 30
0.0
  0
POINT
  5
235D
330
542
100
AcDbEntity
  8
DEFPOINTS
 62
     0
100
AcDbPoint
 10
38.54647192061339
 20
-6.000000000000007
 30
0.0
  0
ENDBLK
  5
54F
330
542
100
AcDbEntity
  8
0
100
AcDbBlockEnd
  0
ENDSEC
  0
SECTION
  2
ENTITIES
  0
DIMENSION
  5
6F
330
1E
100
AcDbEntity
  8
2
100
AcDbDimension
  2
*D3
 10
-0.000000000000001
 20
-14.09165139057416
 30
0.0
 11
15.56480403745917
 21
-14.09165139057416
 31
0.0
 70
   160
 71
     5
 42
28.0
  3
ISO-25
100
AcDbAlignedDimension
 13
28.0
 23
-3.694510351490296
 33
0.0
 14
-0.0000000000000004
 24
-3.5
 34
0.0
 50
180.0
100
AcDbRotatedDimension
  0
DIMENSION
  5
70
330
1E
100
AcDbEntity
  8
2
100
AcDbDimension
  2
*D4
 10
38.54647192061339
 20
-6.000000000000007
 30
0.0
 11
38.54647192061339
 21
0.075462612722049
 31
0.0
 70
   160
  1
%%c<>
 71
     5
 42
12.0
  3
ISO-25
100
AcDbAlignedDimension
 13
25.61870761528024
 23
5.999999999999995
 33
0.0
 14
25.65774796994682
 24
-6.000000000000002
 34
0.0
 50
270.0
100
AcDbRotatedDimension
  0
DIMENSION
  5
71
330
1E
100
AcDbEntity
  8
SK2
100
AcDbDimension
  2
*D2
 10
-24.95339778424608
 20
4.000000000000002
 30
0.0
 11
-24.95339778424608
 21
-0.0846176553458236
 31
0.0
 70
   160
  1
M<>
 71
     5
 42
7.999999999999996
  3
ISO-25
100
AcDbAlignedDimension
 13
-16.75
 23
-3.999999999999996
 33
0.0
 14
-16.75
 24
4.0
 34
0.0
 50
89.99999999999998
100
AcDbRotatedDimension
  0
DIMENSION
  5
72
330
1E
100
AcDbEntity
  8
SK2
100
AcDbDimension
  2
*D1
 10
-29.83800316524011
 20
6.500000000000007
 30
0.0
 11
-29.83800316524011
 21
-0.3247383002654942
 31
0.0
 70
   160
  1
%%c<>
 71
     5
 42
13.0
  3
ISO-25
100
AcDbAlignedDimension
 13
-0.2999999999999836
 23
-6.5
 33
0.0
 14
-0.2999999999999821
 24
6.5
 34
0.0
 50
89.99999999999998
100
AcDbRotatedDimension
  0
LINE
  5
73
330
1E
100
AcDbEntity
  8
1
100
AcDbLine
 10
27.5
 20
-2.456727928899968
 30
0.0
 11
27.5
 21
-2.326163413799977
 31
0.0
  0
LINE
  5
74
330
1E
100
AcDbEntity
  8
SK4
100
AcDbLine
 10
25.004407
 20
0.1462555806850188
 30
0.0
 11
25.004407
 21
6.402422721631008
 31
0.0
  0
LINE
  5
75
330
1E
100
AcDbEntity
  8
SK4
100
AcDbLine
 10
25.004407
 20
-0.3215156942939674
 30
0.0
 11
25.004407
 21
-6.46465451071299
 31
0.0
  0
LINE
  5
76
330
1E
100
AcDbEntity
  8
1
100
AcDbLine
 10
6.0
 20
6.499999999999999
 30
0.0
 11
0.2000000000000178
 21
6.5
 31
0.0
  0
LINE
  5
77
330
1E
100
AcDbEntity
  8
1
100
AcDbLine
 10
7.499999999999999
 20
-5.0
 30
0.0
 11
5.999999999999999
 21
-6.5
 31
0.0
  0
LINE
  5
78
330
1E
100
AcDbEntity
  8
1
100
AcDbLine
 10
13.9875381095
 20
4.999999999999998
 30
0.0
 11
7.5
 21
4.999999999999999
 31
0.0
  0
LINE
  5
79
330
1E
100
AcDbEntity
  8
1
100
AcDbLine
 10
22.52855291779999
 20
4.995998398700003
 30
0.0
 11
14.64081963160001
 21
4.995998398700004
 31
0.0
  0
LINE
  5
7A
330
1E
100
AcDbEntity
  8
1
100
AcDbLine
 10
7.5
 20
4.999999999999999
 30
0.0
 11
6.0
 21
6.499999999999999
 31
0.0
  0
LINE
  5
7B
330
1E
100
AcDbEntity
  8
SK1
100
AcDbLine
 10
-0.9999999999999994
 20
4.25
 30
0.0
 11
-5.599999999999991
 21
4.25
 31
0.0
  0
LINE
  5
7C
330
1E
100
AcDbEntity
  8
1
100
AcDbLine
 10
6.0
 20
4.153311931400023
 30
0.0
 11
2.0
 21
4.153311931400025
 31
0.0
  0
LINE
  5
7D
330
1E
100
AcDbEntity
  8
SK1
100
AcDbLine
 10
-0.2999999999999824
 20
4.08000000000004
 30
0.0
 11
-0.3128903637000059
 21
4.08000000000004
 31
0.0
  0
LINE
  5
7E
330
1E
100
AcDbEntity
  8
SK1
100
AcDbLine
 10
-8.973528137499982
 20
4.0
 30
0.0
 11
-16.25
 21
4.0
 31
0.0
  0
LINE
  5
7F
330
1E
100
AcDbEntity
  8
SK1
100
AcDbLine
 10
-16.84999999999999
 20
3.400000000000036
 30
0.0
 11
-8.373528137499986
 21
3.400000000000034
 31
0.0
  0
LINE
  5
80
330
1E
100
AcDbEntity
  8
SK1
100
AcDbLine
 10
-6.599999999999994
 20
3.125
 30
0.0
 11
-7.849999999999994
 21
3.125
 31
0.0
  0
LINE
  5
81
330
1E
100
AcDbEntity
  8
SK4
100
AcDbLine
 10
21.36927902162998
 20
3.011211999999996
 30
0.0
 11
28.32805997057899
 21
3.011211999999996
 31
0.0
  0
LINE
  5
82
330
1E
100
AcDbEntity
  8
1
100
AcDbLine
 10
7.5
 20
4.999999999999999
 30
0.0
 11
7.499999999999999
 21
-5.0
 31
0.0
  0
LINE
  5
83
330
1E
100
AcDbEntity
  8
SK1
100
AcDbLine
 10
-0.4164179816999929
 20
4.093629669499988
 30
0.0
 11
-0.9999999999999994
 21
4.25
 31
0.0
  0
LINE
  5
84
330
1E
100
AcDbEntity
  8
1
100
AcDbLine
 10
6.0
 20
4.153311931400023
 30
0.0
 11
6.0
 21
6.499999999999999
 31
0.0
  0
LINE
  5
85
330
1E
100
AcDbEntity
  8
1
100
AcDbLine
 10
5.999999999999999
 20
-4.153311931499954
 30
0.0
 11
5.999999999999999
 21
-6.5
 31
0.0
  0
LINE
  5
86
330
1E
100
AcDbEntity
  8
1
100
AcDbLine
 10
24.504407
 20
0.5112119999999976
 30
0.0
 11
22.004407
 21
0.5112119999999979
 31
0.0
  0
LINE
  5
87
330
1E
100
AcDbEntity
  8
4
100
AcDbLine
 10
29.36589453072997
 20
-0.0000000000000036
 30
0.0
 11
0.3819813052850804
 21
0.0
 31
0.0
  0
LINE
  5
88
330
1E
100
AcDbEntity
  8
1
100
AcDbLine
 10
1.999999999999999
 20
-4.153311931499954
 30
0.0
 11
2.0
 21
4.153311931400025
 31
0.0
  0
LINE
  5
89
330
1E
100
AcDbEntity
  8
SK1
100
AcDbLine
 10
-0.4164179816999939
 20
-4.093629669499988
 30
0.0
 11
-1.0
 21
-4.25
 31
0.0
  0
LINE
  5
8A
330
1E
100
AcDbEntity
  8
SK4
100
AcDbLine
 10
28.454405015194
 20
-3.011212000000003
 30
0.0
 11
22.40991615926799
 21
-3.011212000000001
 31
0.0
  0
LINE
  5
8B
330
1E
100
AcDbEntity
  8
SK1
100
AcDbLine
 10
-6.599999999999994
 20
-3.124999999999998
 30
0.0
 11
-7.849999999999994
 21
-3.124999999999998
 31
0.0
  0
LINE
  5
8C
330
1E
100
AcDbEntity
  8
SK1
100
AcDbLine
 10
-16.84999999999999
 20
-3.399999999999973
 30
0.0
 11
-8.373528137499986
 21
-3.399999999999975
 31
0.0
  0
LINE
  5
8D
330
1E
100
AcDbEntity
  8
SK1
100
AcDbLine
 10
-8.973528137499982
 20
-3.999999999999998
 30
0.0
 11
-16.25
 21
-3.999999999999998
 31
0.0
  0
LINE
  5
8E
330
1E
100
AcDbEntity
  8
SK1
100
AcDbLine
 10
-0.2999999999999834
 20
-4.079999999999984
 30
0.0
 11
-0.3128903637000069
 21
-4.079999999999984
 31
0.0
  0
LINE
  5
8F
330
1E
100
AcDbEntity
  8
1
100
AcDbLine
 10
5.999999999999999
 20
-4.153311931499954
 30
0.0
 11
1.999999999999999
 21
-4.153311931499954
 31
0.0
  0
LINE
  5
90
330
1E
100
AcDbEntity
  8
SK1
100
AcDbLine
 10
-1.0
 20
-4.25
 30
0.0
 11
-5.599999999999995
 21
-4.249999999999999
 31
0.0
  0
LINE
  5
91
330
1E
100
AcDbEntity
  8
1
100
AcDbLine
 10
23.17038255359998
 20
-4.582575695000004
 30
0.0
 11
23.1198782508
 21
-4.582575695000004
 31
0.0
  0
LINE
  5
92
330
1E
100
AcDbEntity
  8
1
100
AcDbLine
 10
0.0000000000000008
 20
6.300000000000013
 30
0.0
 11
-0.0000000000000008
 21
-6.299999630799957
 31
0.0
  0
LINE
  5
93
330
1E
100
AcDbEntity
  8
SK1
100
AcDbLine
 10
-0.9999999999999994
 20
4.25
 30
0.0
 11
-1.0
 21
-4.25
 31
0.0
  0
LINE
  5
94
330
1E
100
AcDbEntity
  8
1
100
AcDbLine
 10
22.8434567756
 20
-4.990991885399981
 30
0.0
 11
22.7504168479
 21
-4.990991885399981
 31
0.0
  0
LINE
  5
95
330
1E
100
AcDbEntity
  8
1
100
AcDbLine
 10
22.52855291779999
 20
-4.995998398700011
 30
0.0
 11
14.64081963160001
 21
-4.995998398700009
 31
0.0
  0
LINE
  5
96
330
1E
100
AcDbEntity
  8
1
100
AcDbLine
 10
13.9875381095
 20
-5.0
 30
0.0
 11
7.499999999999999
 21
-5.0
 31
0.0
  0
LINE
  5
97
330
1E
100
AcDbEntity
  8
1
100
AcDbLine
 10
5.999999999999999
 20
-6.5
 30
0.0
 11
0.2000000000000162
 21
-6.5
 31
0.0
  0
LINE
  5
98
330
1E
100
AcDbEntity
  8
SK1
100
AcDbLine
 10
-8.274264068700006
 20
-3.300735931299981
 30
0.0
 11
-8.973528137499982
 21
-3.999999999999998
 31
0.0
  0
LINE
  5
99
330
1E
100
AcDbEntity
  8
SK1
100
AcDbLine
 10
-8.274264068700006
 20
3.300735931300037
 30
0.0
 11
-8.973528137499982
 21
4.0
 31
0.0
  0
LINE
  5
9A
330
1E
100
AcDbEntity
  8
SK1
100
AcDbLine
 10
-5.599999999999991
 20
4.25
 30
0.0
 11
-5.999999999999999
 21
4.019059892299991
 31
0.0
  0
LINE
  5
9B
330
1E
100
AcDbEntity
  8
SK1
100
AcDbLine
 10
-5.599999999999995
 20
-4.249999999999999
 30
0.0
 11
-6.0
 21
-4.019059892299988
 31
0.0
  0
LINE
  5
9C
330
1E
100
AcDbEntity
  8
SK1
100
AcDbLine
 10
-5.599999999999991
 20
4.25
 30
0.0
 11
-5.599999999999995
 21
-4.249999999999999
 31
0.0
  0
LINE
  5
9D
330
1E
100
AcDbEntity
  8
SK1
100
AcDbLine
 10
-5.999999999999999
 20
4.019059892299991
 30
0.0
 11
-6.0
 21
-4.019059892299988
 31
0.0
  0
LINE
  5
9E
330
1E
100
AcDbEntity
  8
SK1
100
AcDbLine
 10
-8.373528480599986
 20
3.400000000000034
 30
0.0
 11
-8.373528480599986
 21
-3.399999999999975
 31
0.0
  0
LINE
  5
9F
330
1E
100
AcDbEntity
  8
SK1
100
AcDbLine
 10
-8.973528137499982
 20
4.0
 30
0.0
 11
-8.973528137499982
 21
-3.999999999999998
 31
0.0
  0
LINE
  5
A0
330
1E
100
AcDbEntity
  8
SK1
100
AcDbLine
 10
-16.25
 20
4.0
 30
0.0
 11
-17.5
 21
2.750000000000001
 31
0.0
  0
LINE
  5
A1
330
1E
100
AcDbEntity
  8
SK1
100
AcDbLine
 10
-16.25
 20
-3.999999999999998
 30
0.0
 11
-17.5
 21
-2.749999999999996
 31
0.0
  0
LINE
  5
A2
330
1E
100
AcDbEntity
  8
SK1
100
AcDbLine
 10
-16.25
 20
4.0
 30
0.0
 11
-16.25
 21
-3.999999999999998
 31
0.0
  0
LINE
  5
A3
330
1E
100
AcDbEntity
  8
SK1
100
AcDbLine
 10
-16.85000038149999
 20
3.400000000000036
 30
0.0
 11
-16.85000038149999
 21
-3.399999999999973
 31
0.0
  0
LINE
  5
A4
330
1E
100
AcDbEntity
  8
SK1
100
AcDbLine
 10
-17.5
 20
2.750000000000001
 30
0.0
 11
-17.5
 21
-2.749999999999996
 31
0.0
  0
ARC
  5
A5
330
1E
100
AcDbEntity
  8
1
100
AcDbCircle
 10
25.00002095156383
 20
2.999999999999995
 30
0.0
 40
3.0
100
AcDbArc
 50
288.1298002475552
 51
235.7890896257884
  0
CIRCLE
  5
A6
330
1E
100
AcDbEntity
  8
1
100
AcDbCircle
 10
25.004407
 20
3.011211999999996
 30
0.0
 40
1.9
  0
ARC
  5
A8
330
1E
100
AcDbEntity
  8
1
100
AcDbCircle
 10
25.004407
 20
-3.011212000000003
 30
0.0
 40
2.553271980999999
100
AcDbArc
 50
218.3129420288999
 51
12.2043262305999
  0
ARC
  5
A9
330
1E
100
AcDbEntity
  8
1
100
AcDbCircle
 10
25.004407
 20
-3.011212000000003
 30
0.0
 40
2.488263617699999
100
AcDbArc
 50
219.2031930476
 51
4.930299971899882
  0
ARC
  5
AA
330
1E
100
AcDbEntity
  8
1
100
AcDbCircle
 10
24.504407
 20
-2.488788000000002
 30
0.0
 40
3.0
100
AcDbArc
 50
3.106048671099991
 51
90.0
  0
ARC
  5
AB
330
1E
100
AcDbEntity
  8
1
100
AcDbCircle
 10
22.004407
 20
10.51121199999998
 30
0.0
 40
10.0
100
AcDbArc
 50
213.6924128199999
 51
270.0
  0
ARC
  5
AC
330
1E
100
AcDbEntity
  8
1
100
AcDbCircle
 10
25.004407
 20
-3.011212000000003
 30
0.0
 40
2.6536977133
100
AcDbArc
 50
218.5437091315
 51
221.5026147654
  0
ARC
  5
AD
330
1E
100
AcDbEntity
  8
1
100
AcDbCircle
 10
25.004407
 20
3.011211999999996
 30
0.0
 40
3.2
100
AcDbArc
 50
220.7137806397
 51
229.7299396585998
  0
ARC
  5
AE
330
1E
100
AcDbEntity
  8
1
100
AcDbCircle
 10
24.504407
 20
2.488787999999996
 30
0.0
 40
3.0
100
AcDbArc
 50
303.9345202525
 51
322.7029123632585
  0
ARC
  5
AF
330
1E
100
AcDbEntity
  8
1
100
AcDbCircle
 10
0.2000000000000162
 20
-6.299999999999952
 30
0.0
 40
0.2
100
AcDbArc
 50
180.0
 51
270.0
  0
ARC
  5
B0
330
1E
100
AcDbEntity
  8
1
100
AcDbCircle
 10
0.2000000000000178
 20
6.300000000000013
 30
0.0
 40
0.2
100
AcDbArc
 50
90.0
 51
180.0
  0
ARC
  5
B1
330
1E
100
AcDbEntity
  8
SK1
100
AcDbCircle
 10
-0.2999999999999834
 20
-4.47999999999996
 30
0.0
 40
0.4
100
AcDbArc
 50
41.39990273140003
 51
90.0
  0
ARC
  5
B2
330
1E
100
AcDbEntity
  8
SK1
100
AcDbCircle
 10
-0.3128903637000069
 20
-4.47999999999996
 30
0.0
 40
0.4
100
AcDbArc
 50
90.0
 51
104.9999999999997
  0
ARC
  5
B3
330
1E
100
AcDbEntity
  8
SK1
100
AcDbCircle
 10
-6.599999999999995
 20
-3.724999999999963
 30
0.0
 40
0.6
100
AcDbArc
 50
0.0
 51
90.0
  0
ARC
  5
B4
330
1E
100
AcDbEntity
  8
SK1
100
AcDbCircle
 10
-7.849999999999995
 20
-3.724999999999963
 30
0.0
 40
0.6
100
AcDbArc
 50
90.0
 51
134.9999999999999
  0
ARC
  5
B5
330
1E
100
AcDbEntity
  8
SK1
100
AcDbCircle
 10
-0.2999999999999823
 20
4.480000000000018
 30
0.0
 40
0.4
100
AcDbArc
 50
270.0
 51
318.6000972686
  0
ARC
  5
B6
330
1E
100
AcDbEntity
  8
SK1
100
AcDbCircle
 10
-0.3128903637000058
 20
4.480000000000018
 30
0.0
 40
0.4
100
AcDbArc
 50
255.0
 51
270.0
  0
ARC
  5
B7
330
1E
100
AcDbEntity
  8
SK1
100
AcDbCircle
 10
-6.599999999999991
 20
3.725000000000021
 30
0.0
 40
0.6
100
AcDbArc
 50
270.0
 51
0.0
  0
ARC
  5
B8
330
1E
100
AcDbEntity
  8
SK1
100
AcDbCircle
 10
-7.849999999999991
 20
3.725000000000021
 30
0.0
 40
0.6
100
AcDbArc
 50
225.0
 51
270.0
  0
ARC
  5
B9
330
1E
100
AcDbEntity
  8
1
100
AcDbCircle
 10
25.004407
 20
3.011211999999996
 30
0.0
 40
3.173205080799998
100
AcDbArc
 50
141.2823397645999
 51
212.3938346809999
  0
LWPOLYLINE
  5
BA
330
1E
100
AcDbEntity
  8
1
100
AcDbPolyline
 90
       16
 70
     0
 43
0.0
 10
27.45808093730001
 20
-3.000410268599981
 10
27.463476061497
 20
-2.964206129724973
 10
27.468497125972
 20
-2.927947337039998
 10
27.47314578751
 20
-2.891638824847976
 10
27.47748457422101
 20
-2.854742265971993
 10
27.48144242501101
 20
-2.817803172776963
 10
27.485020375545
 20
-2.780825389879967
 10
27.48821881970997
 20
-2.743812834957965
 10
27.491037661861
 20
-2.70676948075999
 10
27.493476351832
 20
-2.669699253144985
 10
27.49553342978799
 20
-2.632605978750009
 10
27.49718512690999
 20
-2.596039373540977
 10
27.49846140585501
 20
-2.559457789963007
 10
27.499347902601
 20
-2.523411208776964
 10
27.499856433145
 20
-2.487903821894977
 10
27.49999998782501
 20
-2.456227569699993
  0
LWPOLYLINE
  5
CC
330
1E
100
AcDbEntity
  8
1
100
AcDbPolyline
 90
      151
 70
     0
 43
0.0
 10
23.4227435807
 20
-4.680233944399961
 10
23.45528195260701
 20
-4.708507761730006
 10
23.488310766263
 20
-4.736214000051973
 10
23.517605100506
 20
-4.759982134004987
 10
23.547259968095
 20
-4.783298856854004
 10
23.57726859739599
 20
-4.806156729641998
 10
23.6076247741
 20
-4.828549448942967
 10
23.63832237531798
 20
-4.850470897583988
 10
23.66935527815801
 20
-4.871914958393971
 10
23.70071717669099
 20
-4.892875532461006
 10
23.732401080876
 20
-4.913346589118988
 10
23.76439984087999
 20
-4.933322113646001
 10
23.796706306865
 20
-4.952796091317963
 10
23.829313266146
 20
-4.971762592374999
 10
23.86221320229898
 20
-4.990216097663959
 10
23.89539850726901
 20
-5.008151211904988
 10
23.928861572979
 20
-5.025562539843007
 10
23.95775947401398
 20
-5.040065590189954
 10
23.98685077766697
 20
-5.054176752806997
 10
24.01613035771302
 20
-5.067892977558986
 10
24.04559308774401
 20
-5.081211214503983
 10
24.07523384122999
 20
-5.094128413872964
 10
24.105047423534
 20
-5.106641622313988
 10
24.135028459016
 20
-5.118748142718005
 10
24.16517154230199
 20
-5.130445320071999
 10
24.195471268017
 20
-5.141730499363005
 10
24.225922227311
 20
-5.152601031594999
 10
24.25651890481999
 20
-5.163054452173983
 10
24.28725566139798
 20
-5.17308851081299
 10
24.318126850942
 20
-5.182700969258972
 10
24.34912682735201
 20
-5.191889589261962
 10
24.38024992983399
 20
-5.200652165255006
 10
24.411490375814
 20
-5.208986762549955
 10
24.44284232251201
 20
-5.216891580384983
 10
24.474299926718
 20
-5.224364818946981
 10
24.50585734519899
 20
-5.231404678501976
 10
24.537508700021
 20
-5.238009460203953
 10
24.569248010444
 20
-5.244177764125995
 10
24.60106927677698
 20
-5.249908245444999
 10
24.632966499328
 20
-5.255199559336007
 10
24.664933676866
 20
-5.260050367866996
 10
24.696964761615
 20
-5.264459541194983
 10
24.72905365211901
 20
-5.268426189502972
 10
24.761194243939
 20
-5.271949436295986
 10
24.793380432637
 20
-5.275028405077991
 10
24.825606108078
 20
-5.277662259991985
 10
24.85786511806201
 20
-5.27985046524799
 10
24.89015129154501
 20
-5.281592619446998
 10
24.922458457398
 20
-5.282888321820963
 10
24.954780444483
 20
-5.283737171902997
 10
24.98711107864699
 20
-5.284138891459976
 10
25.019444178106
 20
-5.28409351163896
 10
25.051773559886
 20
-5.283601111785971
 10
25.084093041014
 20
-5.28266177124698
 10
25.116396439168
 20
-5.281275580272962
 10
25.148677586008
 20
-5.279442863062
 10
25.180930326635
 20
-5.277164168762967
 10
25.21314850669797
 20
-5.274440055628987
 10
25.245325971841
 20
-5.271271081912972
 10
25.277456576304
 20
-5.267657857957998
 10
25.309534225253
 20
-5.263601302813983
 10
25.341552842542
 20
-5.259102448820956
 10
25.37350635205299
 20
-5.254162328495
 10
25.405388677894
 20
-5.248781975182001
 10
25.437193781233
 20
-5.242962559472005
 10
25.46891570127201
 20
-5.236705540920981
 10
25.500548487086
 20
-5.230012415647994
 10
25.53208618774799
 20
-5.222884679770007
 10
25.563522857305
 20
-5.21532384294898
 10
25.59485263564801
 20
-5.207331648741956
 10
25.626069735158
 20
-5.198910038204988
 10
25.657168370492
 20
-5.190060958598962
 10
25.68814275630499
 20
-5.180786357179957
 10
25.71898713303998
 20
-5.171088232567967
 10
25.74969588295501
 20
-5.160968865868997
 10
25.78026343680699
 20
-5.150430634784985
 10
25.810684225393
 20
-5.139475917102973
 10
25.840952679916
 20
-5.128107091273991
 10
25.87106330457698
 20
-5.116326655347965
 10
25.90101076042
 20
-5.104137364349983
 10
25.930789728811
 20
-5.091542006596966
 10
25.960394891114
 20
-5.078543370406978
 10
25.989820935294
 20
-5.065144252570976
 10
26.019062693674
 20
-5.05134763529401
 10
26.04811513893499
 20
-5.037156681045988
 10
26.076973249554
 20
-5.022574559745978
 10
26.110388728644
 20
-5.005071922204994
 10
26.14352496574101
 20
-4.987046294261975
 10
26.17637441385102
 20
-4.968503165171966
 10
26.208929623746
 20
-4.949448128492976
 10
26.24118314620101
 20
-4.929886777787999
 10
26.273127600817
 20
-4.909824766386011
 10
26.304755989056
 20
-4.889268079215983
 10
26.33606144407
 20
-4.868222815563004
 10
26.36703709913
 20
-4.846695074814991
 10
26.397676140811
 20
-4.824690993462981
 10
26.427972155941
 20
-4.802216986576981
 10
26.45791891324901
 20
-4.779279595833997
 10
26.487510182375
 20
-4.755885363545988
 10
26.51673976699298
 20
-4.732040851321986
 10
26.54560186045201
 20
-4.707752841729987
 10
26.578129991315
 20
-4.679460940110007
 10
26.61016258366001
 20
-4.650609157835961
 10
26.641691446871
 20
-4.62120787542398
 10
26.672709080359
 20
-4.591267765262958
 10
26.70320827472902
 20
-4.560799622917957
 10
26.73318182224602
 20
-4.52981424458699
 10
26.76262279746799
 20
-4.498322516178974
 10
26.791525000975
 20
-4.466335554321974
 10
26.819882348456
 20
-4.433864512224999
 10
26.84768877201099
 20
-4.400920546331011
 10
26.8749387207
 20
-4.367514914997005
 10
26.901627252482
 20
-4.333658996616978
 10
26.92774946026899
 20
-4.299364176474004
 10
26.95330050055498
 20
-4.26464184599297
 10
26.975185854284
 20
-4.233918121756008
 10
26.99662825352799
 20
-4.202883563213961
 10
27.017625219906
 20
-4.171545875716961
 10
27.03817428562
 20
-4.139912764512988
 10
27.05827334035699
 20
-4.107991931412985
 10
27.07792070926601
 20
-4.075791074037968
 10
27.097114743857
 20
-4.043317889759012
 10
27.11585379564202
 20
-4.010580075941962
 10
27.134136359573
 20
-3.97758531239697
 10
27.15196149335499
 20
-3.944341210039001
 10
27.16932839267899
 20
-3.910855362891995
 10
27.18623625323699
 20
-3.877135364980006
 10
27.20268429060701
 20
-3.843188806078959
 10
27.21867213713901
 20
-3.809023186992991
 10
27.234199820551
 20
-3.774645924119002
 10
27.249267384169
 20
-3.740064430521957
 10
27.263874871317
 20
-3.705286119270002
 10
27.278022443344
 20
-3.670318361962986
 10
27.29171083154
 20
-3.635168329984995
 10
27.304940939001
 20
-3.599843134362973
 10
27.317713668856
 20
-3.564349886108971
 10
27.330029925952
 20
-3.528695695644956
 10
27.34189087154402
 20
-3.492887584539007
 10
27.35329819381201
 20
-3.456932391772002
 10
27.36425364571998
 20
-3.420836933875991
 10
27.374758980229
 20
-3.38460802738297
 10
27.38481595976701
 20
-3.348252480744012
 10
27.394426721205
 20
-3.311776782687958
 10
27.403593891616
 20
-3.275187003384988
 10
27.413530897642
 20
-3.23323817192801
 10
27.42289596498102
 20
-3.191157246572006
 10
27.43169315259901
 20
-3.148953311789003
 10
27.43992715851099
 20
-3.106635929094978
 10
27.44760296272001
 20
-3.064214870501986
 10
27.45472554646501
 20
-3.021699908946006
 10
27.45807941209799
 20
-3.000420151603978
  0
LWPOLYLINE
  5
165
330
1E
100
AcDbEntity
  8
1
100
AcDbPolyline
 90
        7
 70
     0
 43
0.0
 10
22.52855291779999
 20
4.995998398700003
 10
22.54739370555198
 20
4.995037063549997
 10
22.57600059627201
 20
4.99386637734403
 10
22.61482235741699
 20
4.992667322836036
 10
22.662308137052
 20
4.991677044594037
 10
22.71645940229296
 20
4.991090973218998
 10
22.75591415317889
 20
4.990975810360971
  0
LWPOLYLINE
  5
16E
330
1E
100
AcDbEntity
  8
1
100
AcDbPolyline
 90
        7
 70
     0
 43
0.0
 10
22.52855291779999
 20
-4.995998398700011
 10
22.54739370555198
 20
-4.995037063543976
 10
22.576000596275
 20
-4.993866377438963
 10
22.614822357419
 20
-4.992667322882994
 10
22.662308137052
 20
-4.991677044576991
 10
22.716459402294
 20
-4.991090973219002
 10
22.75040684789999
 20
-4.990991885407995
  0
LWPOLYLINE
  5
177
330
1E
100
AcDbEntity
  8
1
100
AcDbPolyline
 90
      124
 70
     0
 43
0.0
 10
22.92886236009997
 20
-4.664761515899956
 10
22.92826920928701
 20
-4.664001344387997
 10
22.92769150857999
 20
-4.663228159553965
 10
22.927130582903
 20
-4.662441950721983
 10
22.926587757182
 20
-4.661642707216968
 10
22.926193313013
 20
-4.661034714161988
 10
22.925810354293
 20
-4.660419378595976
 10
22.92543943997499
 20
-4.659796696013986
 10
22.925081129012
 20
-4.659166661912991
 10
22.924735980356
 20
-4.658529271789006
 10
22.92440455296
 20
-4.657884521139012
 10
22.92408740577801
 20
-4.657232405458954
 10
22.92378509812996
 20
-4.656572922208964
 10
22.92349821497499
 20
-4.655906206224986
 10
22.92322738326601
 20
-4.655232617305958
 10
22.92297323384099
 20
-4.654552536082976
 10
22.92273639753998
 20
-4.653866343185995
 10
22.92251750520299
 20
-4.653174419246001
 10
22.922317187669
 20
-4.652477144893965
 10
22.92213607577799
 20
-4.651774900759962
 10
22.92197480036799
 20
-4.651068067474001
 10
22.92183399227998
 20
-4.650357025667974
 10
22.92171428235199
 20
-4.649642155972005
 10
22.92164650846
 20
-4.649163637534003
 10
22.92158857086801
 20
-4.648683704255971
 10
22.921540540823
 20
-4.648202534326971
 10
22.92150241203501
 20
-4.647720349785971
 10
22.921474176507
 20
-4.647237373636985
 10
22.921455826241
 20
-4.64675382888396
 10
22.921447353241
 20
-4.646269938529999
 10
22.92144874950799
 20
-4.645785925578993
 10
22.92146000704601
 20
-4.645302013035006
 10
22.92148111785698
 20
-4.644818423901996
 10
22.92151207394502
 20
-4.644335381182997
 10
22.921552867312
 20
-4.643853107881968
 10
22.92160348996
 20
-4.643371827002964
 10
22.92166393389299
 20
-4.642891761550004
 10
22.92173419111299
 20
-4.642413134526976
 10
22.92181425362298
 20
-4.641936168935957
 10
22.921904113422
 20
-4.64146108777999
 10
22.92200372662698
 20
-4.640988091555983
 10
22.92217105766196
 20
-4.640282769184978
 10
22.922359296742
 20
-4.639582770064011
 10
22.92256778525801
 20
-4.638888450694993
 10
22.92279586460201
 20
-4.638200167582001
 10
22.923042876167
 20
-4.637518277227004
 10
22.923308161346
 20
-4.63684313613396
 10
22.92359106152999
 20
-4.636175100805988
 10
22.923890918111
 20
-4.635514527745955
 10
22.924207072483
 20
-4.634861773456012
 10
22.92453886613698
 20
-4.634217194038966
 10
22.924885668113
 20
-4.633581035887003
 10
22.925246912305
 20
-4.632953287068971
 10
22.925622041935
 20
-4.632333898507
 10
22.926010500226
 20
-4.631722821121003
 10
22.92641173039902
 20
-4.631120005831975
 10
22.926825175678
 20
-4.63052540356
 10
22.92725027928401
 20
-4.629938965225961
 10
22.92783425693698
 20
-4.629169662075981
 10
22.92843665090799
 20
-4.628414669003975
 10
22.92905614143001
 20
-4.627673869673971
 10
22.929691453116
 20
-4.626947132848957
 10
22.93034168671598
 20
-4.626234201046997
 10
22.93100613242001
 20
-4.625534753196006
 10
22.931684081859
 20
-4.624848467741005
 10
22.93254942913399
 20
-4.624008630670005
 10
22.93343338564298
 20
-4.62318822937499
 10
22.93433456785697
 20
-4.622386635815987
 10
22.935251592245
 20
-4.621603221955981
 10
22.93618307610501
 20
-4.62083735990399
 10
22.937127837201
 20
-4.620088457653993
 10
22.93808515376699
 20
-4.619356005621003
 10
22.93905436843699
 20
-4.618639505746958
 10
22.940034823846
 20
-4.617938459973971
 10
22.94122528254098
 20
-4.617116903196007
 10
22.942429845364
 20
-4.616316022478998
 10
22.943647376389
 20
-4.615534957178001
 10
22.94487673969701
 20
-4.614772846656992
 10
22.94611691451799
 20
-4.614028888532006
 10
22.947576626809
 20
-4.613183082196997
 10
22.949049359758
 20
-4.612360282461
 10
22.95053426409801
 20
-4.611559605583978
 10
22.95203049055799
 20
-4.610780167825
 10
22.95353718987
 20
-4.610021085443976
 10
22.955270866399
 20
-4.609177354012957
 10
22.95701589830998
 20
-4.608357777244976
 10
22.95877147933599
 20
-4.607561393698007
 10
22.96075834746101
 20
-4.606692169560004
 10
22.96275690488001
 20
-4.605850106243964
 10
22.96476627241899
 20
-4.605034043214003
 10
22.96701051222902
 20
-4.604156389144011
 10
22.96926581159098
 20
-4.603307814767958
 10
22.97153120411798
 20
-4.602486975178011
 10
22.97403403086299
 20
-4.601614883002983
 10
22.97654747685998
 20
-4.600773821328971
 10
22.97930056638198
 20
-4.599890151870964
 10
22.98206425486501
 20
-4.599040154782986
 10
22.98506899523898
 20
-4.598155374778003
 10
22.98808393344399
 20
-4.597306416367987
 10
22.99134136275
 20
-4.596430651720995
 10
22.99460888365401
 20
-4.595593164877983
 10
22.99811998175198
 20
-4.594736418171978
 10
23.00164053959798
 20
-4.593919604036956
 10
23.00540516479101
 20
-4.593090280973004
 10
23.009414819056
 20
-4.592254741681986
 10
23.01343364470401
 20
-4.591464316551991
 10
23.01769788921899
 20
-4.590674432358983
 10
23.02220796636901
 20
-4.589890681493955
 10
23.02696420809
 20
-4.589118655357994
 10
23.031728628826
 20
-4.588398907096006
 10
23.036739175231
 20
-4.587697211141971
 10
23.04199598504401
 20
-4.587018951687983
 10
23.047498992493
 20
-4.586369236447981
 10
23.05324819552998
 20
-4.585753442552971
 10
23.05924356968201
 20
-4.585177022730991
 10
23.06548490195598
 20
-4.584645143671992
 10
23.071971779509
 20
-4.584162649579981
 10
23.078703814256
 20
-4.583734555128955
 10
23.085680655295
 20
-4.583366061239988
 10
23.092901789488
 20
-4.583062094464994
 10
23.100366536609
 20
-4.582827329384999
 10
23.10807415803
 20
-4.582666733979011
 10
23.11602379077902
 20
-4.582585286690972
 10
23.11986825080001
 20
-4.58257569506401
  0
LWPOLYLINE
  5
1F5
330
1E
100
AcDbEntity
  8
1
100
AcDbPolyline
 90
       96
 70
     0
 43
0.0
 10
22.8434567756
 20
-4.990991885399981
 10
22.84670475636799
 20
-4.990215938571965
 10
22.849945215914
 20
-4.989402510172967
 10
22.853177257449
 20
-4.988551035262958
 10
22.856399984182
 20
-4.987660948903966
 10
22.85961249932199
 20
-4.986731686155962
 10
22.862813906078
 20
-4.985762682080972
 10
22.866003307661
 20
-4.984753371738976
 10
22.86889159130799
 20
-4.983800364989009
 10
22.87176853840298
 20
-4.982813155935959
 10
22.874633475173
 20
-4.981791320133996
 10
22.87748572784698
 20
-4.980734433132965
 10
22.88032462265198
 20
-4.97964207048898
 10
22.88314948581699
 20
-4.978513807753985
 10
22.885959643569
 20
-4.977349220479996
 10
22.888754422138
 20
-4.976147884219986
 10
22.89153314775
 20
-4.974909374528011
 10
22.894295146633
 20
-4.973633266956996
 10
22.89676607151999
 20
-4.972452307938
 10
22.89922229642801
 20
-4.971240491976003
 10
22.90166320488001
 20
-4.969997784090995
 10
22.90408818038599
 20
-4.968724149335971
 10
22.90649660645398
 20
-4.967419552762978
 10
22.908887866594
 20
-4.966083959422972
 10
22.91126134431598
 20
-4.964717334368971
 10
22.91361642312898
 20
-4.963319642651983
 10
22.91595248654198
 20
-4.96189084932496
 10
22.91826891806397
 20
-4.960430919438978
 10
22.920565101205
 20
-4.958939818046988
 10
22.92284041947501
 20
-4.957417510200968
 10
22.92509425638201
 20
-4.955863960952004
 10
22.927325995436
 20
-4.954279135352979
 10
22.92953502014599
 20
-4.952662998454967
 10
22.931720714022
 20
-4.95101551530996
 10
22.933882460573
 20
-4.949336650970962
 10
22.93601964330902
 20
-4.947626370489959
 10
22.93813168351098
 20
-4.945884722878988
 10
22.940218157466
 20
-4.9441121017
 10
22.94250600975999
 20
-4.942106781748976
 10
22.944761298078
 20
-4.940064478885972
 10
22.94698349572898
 20
-4.937985854195971
 10
22.94917207602499
 20
-4.93587156876396
 10
22.951326512276
 20
-4.933722283674966
 10
22.95344627779399
 20
-4.931538660011995
 10
22.95553084588799
 20
-4.929321358861955
 10
22.95757968987
 20
-4.927071041308979
 10
22.959592283049
 20
-4.924788368437988
 10
22.96156809873797
 20
-4.922474001333966
 10
22.96350661024499
 20
-4.92012860108099
 10
22.965218940219
 20
-4.917991753897982
 10
22.96690024323101
 20
-4.915830787274956
 10
22.96855013534599
 20
-4.913646183146965
 10
22.97016833923
 20
-4.911438453157986
 10
22.97175493195402
 20
-4.909208207709983
 10
22.97331006414899
 20
-4.906956077703966
 10
22.974833886446
 20
-4.904682694038966
 10
22.97632654947801
 20
-4.902388687617987
 10
22.97778820387399
 20
-4.900074689340955
 10
22.979219000266
 20
-4.897741330107978
 10
22.980772765758
 20
-4.89512676879599
 10
22.98228882754098
 20
-4.892489949391971
 10
22.983767392241
 20
-4.889831737329985
 10
22.98520866648499
 20
-4.887152998043005
 10
22.986612856901
 20
-4.884454596964987
 10
22.987980170116
 20
-4.881737399526968
 10
22.989310812756
 20
-4.879002271163986
 10
22.99060499144899
 20
-4.876250077307988
 10
22.99186291282198
 20
-4.873481683392983
 10
22.993084800809
 20
-4.870697938065005
 10
22.99427107184099
 20
-4.867899503275966
 10
22.995422262529
 20
-4.865086924413961
 10
22.996538911318
 20
-4.862260745091988
 10
22.99762155664998
 20
-4.859421508922991
 10
22.998773835155
 20
-4.85628391728096
 10
22.999886337662
 20
-4.853131908176978
 10
23.00095978083799
 20
-4.849966205156991
 10
23.001994881352
 20
-4.846787531772973
 10
23.00299235587
 20
-4.84359661157396
 10
23.004038439724
 20
-4.840102490487995
 10
23.005041528857
 20
-4.836595595125971
 10
23.00600255370098
 20
-4.833076864851991
 10
23.006922444685
 20
-4.829547239028956
 10
23.00780213223799
 20
-4.826007657020968
 10
23.008710832929
 20
-4.822162943293959
 10
23.009574540417
 20
-4.818308476698009
 10
23.01039429806697
 20
-4.814444851750978
 10
23.01122915789902
 20
-4.810274456628008
 10
23.01201555561501
 20
-4.806094855225981
 10
23.012754792329
 20
-4.801906781373988
 10
23.013495975607
 20
-4.797410991277958
 10
23.01418611392
 20
-4.792907220138999
 10
23.014867801658
 20
-4.788095417654973
 10
23.015495174559
 20
-4.783276656844976
 10
23.01610441772599
 20
-4.77815032445699
 10
23.016656866665
 20
-4.773018687253967
 10
23.01698421495
 20
-4.769705961880958
  0
LWPOLYLINE
  5
257
330
1E
100
AcDbEntity
  8
1
100
AcDbPolyline
 90
       62
 70
     0
 43
0.0
 10
23.17038255359998
 20
-4.582575695000004
 10
23.17453088625299
 20
-4.582599199697996
 10
23.17867922274
 20
-4.582669688566966
 10
23.18282693458998
 20
-4.582787123765003
 10
23.18697339333501
 20
-4.582951467452971
 10
23.19111797050499
 20
-4.583162681788961
 10
23.19526003762999
 20
-4.583420728934983
 10
23.19939896624199
 20
-4.583725571049003
 10
23.20353412787
 20
-4.584077170290983
 10
23.20766490424098
 20
-4.584475483461004
 10
23.211790762521
 20
-4.584920422438986
 10
23.21591121251
 20
-4.58541187669198
 10
23.220025764324
 20
-4.58594973551999
 10
23.22413392807701
 20
-4.586533888223983
 10
23.22823521388198
 20
-4.587164224106006
 10
23.23232913185598
 20
-4.587840632465999
 10
23.236415192112
 20
-4.588563002604987
 10
23.24049290453199
 20
-4.589331221698958
 10
23.24456177518098
 20
-4.590145142046995
 10
23.24862130700398
 20
-4.591004587433988
 10
23.252671002855
 20
-4.59190938081099
 10
23.25671036558699
 20
-4.592859345128998
 10
23.260738898053
 20
-4.593854303336969
 10
23.26475610310601
 20
-4.594894078384983
 10
23.26876148360099
 20
-4.595978493225971
 10
23.27302029673301
 20
-4.59718420495898
 10
23.277264512041
 20
-4.598440258259985
 10
23.281493578767
 20
-4.599746370057974
 10
23.28570694785099
 20
-4.601102255074978
 10
23.28990407023502
 20
-4.602507628032983
 10
23.29408439686101
 20
-4.603962203653964
 10
23.29824737866899
 20
-4.605465696660988
 10
23.30239246660198
 20
-4.607017821776993
 10
23.306519114394
 20
-4.608618290664995
 10
23.31062680571902
 20
-4.610266782221971
 10
23.31471504242298
 20
-4.611962955454997
 10
23.31903692051898
 20
-4.613817002749954
 10
23.32333567688201
 20
-4.615724083576995
 10
23.32761071430198
 20
-4.617683788589999
 10
23.33186143556901
 20
-4.619695708442976
 10
23.336087243509
 20
-4.621759433757971
 10
23.34028755674399
 20
-4.62387454018
 10
23.34446183416101
 20
-4.626040565180971
 10
23.34860954097198
 20
-4.628257040238962
 10
23.352971675163
 20
-4.630658364312981
 10
23.357302786473
 20
-4.633115166886002
 10
23.36160224008
 20
-4.635626891795995
 10
23.36586940115799
 20
-4.638192982880981
 10
23.37010365096098
 20
-4.640812882276976
 10
23.37430444863599
 20
-4.643486023869972
 10
23.378701760938
 20
-4.646364806242957
 10
23.38306061621099
 20
-4.649301608656005
 10
23.38738040607398
 20
-4.652295762368
 10
23.391660522143
 20
-4.655346598638003
 10
23.395900356018
 20
-4.658453448667957
 10
23.40031913699298
 20
-4.661783551486963
 10
23.404691827934
 20
-4.665173987856976
 10
23.40901765473998
 20
-4.66862378996001
 10
23.41350848835098
 20
-4.672308915563006
 10
23.417945904689
 20
-4.676057304497986
 10
23.42232900763601
 20
-4.679867836394011
 10
23.42273608947202
 20
-4.680227320085976
  0
LWPOLYLINE
  5
297
330
1E
100
AcDbEntity
  8
1
100
AcDbPolyline
 90
        5
 70
     0
 43
0.0
 10
23.53471315429997
 20
0.5112119999999977
 10
23.50337208164197
 20
0.5113694121080216
 10
23.47192101008001
 20
0.5118434854240351
 10
23.440476628877
 20
0.5126335991020003
 10
23.4228108757
 20
0.5132160811750141
  0
LWPOLYLINE
  5
29E
330
1E
100
AcDbEntity
  8
1
100
AcDbPolyline
 90
        2
 70
     0
 43
0.0
 10
23.42280088209998
 20
0.5132164389000283
 10
23.414494424216
 20
0.5135248024710081
  0
LWPOLYLINE
  5
2A2
330
1E
100
AcDbEntity
  8
1
100
AcDbPolyline
 90
       17
 70
     0
 43
0.0
 10
23.4144844316
 20
0.5135251867000054
 10
23.382202029664
 20
0.5149331282490241
 10
23.35041610084898
 20
0.5166456305549873
 10
23.318648629716
 20
0.5186816723229955
 10
23.28690351770301
 20
0.5210416647799974
 10
23.25518453338998
 20
0.5237262405229873
 10
23.223495125358
 20
0.526736565331018
 10
23.19183869498202
 20
0.5300738836360183
 10
23.1606974487
 20
0.5336814497190378
 10
23.12959484735797
 20
0.5376088294360076
 10
23.09853442376101
 20
0.5418578724149912
 10
23.067996511714
 20
0.5463576577880051
 10
23.03750633388199
 20
0.5511729216040039
 10
23.00706779338099
 20
0.5563056619790219
 10
22.97715964170499
 20
0.5616704335660048
 10
22.94731017266799
 20
0.5673471164490112
 10
22.93596508697401
 20
0.5695901919719946
  0
LWPOLYLINE
  5
2B5
330
1E
100
AcDbEntity
  8
1
100
AcDbPolyline
 90
        2
 70
     0
 43
0.0
 10
13.9870591734
 20
-5.000000114599972
 10
14.6408096316
 20
-4.995998398702001
  0
LWPOLYLINE
  5
2B9
330
1E
100
AcDbEntity
  8
1
100
AcDbPolyline
 90
        2
 70
     0
 43
0.0
 10
13.9870591734
 20
5.000000114600025
 10
14.6408096316
 20
4.995998398701996
  0
LWPOLYLINE
  5
2BD
330
1E
100
AcDbEntity
  8
1
100
AcDbPolyline
 90
       67
 70
     0
 43
0.0
 10
13.68413111960001
 20
4.963869458400036
 10
13.683787165728
 20
4.964411141463011
 10
13.68346387169498
 20
4.964975795962002
 10
13.683165741142
 20
4.965560210683006
 10
13.682897277704
 20
4.966161174412031
 10
13.682662985023
 20
4.966775475935035
 10
13.68246736673499
 20
4.967399904036992
 10
13.682314926479
 20
4.968031247504993
 10
13.682210167893
 20
4.968666295124988
 10
13.68215759461701
 20
4.969301835680991
 10
13.682161710288
 20
4.969934657962026
 10
13.682226600432
 20
4.970561620972998
 10
13.68235117393101
 20
4.971180453132033
 10
13.682530843426
 20
4.971789470043002
 10
13.682760955836
 20
4.972386998350996
 10
13.683036858077
 20
4.972971364698023
 10
13.683353897068
 20
4.973540895728032
 10
13.68370741972801
 20
4.97409391808503
 10
13.684092772973
 20
4.974628758411026
 10
13.684505303722
 20
4.975143743349003
 10
13.684940358893
 20
4.975637199545016
 10
13.685393453651
 20
4.976107587119028
 10
13.685862182109
 20
4.976555015537027
 10
13.68634554049299
 20
4.976980706638014
 10
13.68684255128999
 20
4.977385903094043
 10
13.687352236988
 20
4.977771847576033
 10
13.68787362007501
 20
4.978139782758032
 10
13.688405723037
 20
4.978490951311012
 10
13.688947568361
 20
4.978826595907034
 10
13.689498178535
 20
4.979147959220027
 10
13.690338389581
 20
4.979605945126021
 10
13.691192823031
 20
4.980038788173994
 10
13.69205817977799
 20
4.980450682382008
 10
13.692931161095
 20
4.980845821314002
 10
13.694102781207
 20
4.98135205806403
 10
13.695282105225
 20
4.981836418400003
 10
13.696468652242
 20
4.982299956557026
 10
13.697661941353
 20
4.982743726768032
 10
13.69886149165
 20
4.983168783268007
 10
13.700066822227
 20
4.983576180291036
 10
13.70158088133599
 20
4.984062198990041
 10
13.70310228144499
 20
4.984524331048018
 10
13.704630083285
 20
4.984964635517028
 10
13.706470600906
 20
4.985467036826999
 10
13.708317940097
 20
4.985943465664997
 10
13.71017149680699
 20
4.986395606807032
 10
13.71234105400201
 20
4.986894615112018
 10
13.714517341128
 20
4.98736544435803
 10
13.71701157023601
 20
4.987872400199986
 10
13.719824894059
 20
4.988407716453023
 10
13.72327112839001
 20
4.989019515020002
 10
13.72703721487299
 20
4.989642818762999
 10
13.73112369199999
 20
4.990271064182021
 10
13.73553129994999
 20
4.990897640527006
 10
13.74057601921799
 20
4.991556778680998
 10
13.74625917384401
 20
4.992235001098999
 10
13.752581556461
 20
4.992921073359012
 10
13.75986066089601
 20
4.993632063460037
 10
13.76841464566899
 20
4.994374232424998
 10
13.778878450456
 20
4.995169590870032
 10
13.790935962309
 20
4.995959283698992
 10
13.805540890036
 20
4.996762711853986
 10
13.823647459726
 20
4.997572755245011
 10
13.84652837365701
 20
4.998360751926041
 10
13.87704503207598
 20
4.999102623323038
 10
13.92092117096499
 20
4.999721105777038
 10
13.98704917339999
 20
5.000000115054032
  0
LWPOLYLINE
  5
302
330
1E
100
AcDbEntity
  8
1
100
AcDbPolyline
 90
       12
 70
     0
 43
0.0
 10
15.90389138559999
 20
2.587656002400021
 10
15.940542335566
 20
2.560107421845996
 10
15.98763776133999
 20
2.525650537778
 10
16.05440931827398
 20
2.478097479198023
 10
16.162889304038
 20
2.402905224382036
 10
16.44858523767199
 20
2.210280105563013
 10
16.728008246125
 20
2.02577597766901
 10
16.849593450883
 20
1.947697371027
 10
16.932069178836
 20
1.896151565674013
 10
16.997360508539
 20
1.856444887446
 10
17.05116899364799
 20
1.824605344599032
 10
17.060767194221
 20
1.819019757651
  0
LWPOLYLINE
  5
310
330
1E
100
AcDbEntity
  8
1
100
AcDbPolyline
 90
       51
 70
     0
 43
0.0
 10
7.5
 20
-0.0000000000000009
 10
7.499661078594994
 20
0.0582000139510219
 10
7.498645083550997
 20
0.1163947915260328
 10
7.496953168626999
 20
0.1745750357019906
 10
7.494586513137007
 20
0.232731474090996
 10
7.491547236951005
 20
0.2908557410640346
 10
7.487838652001997
 20
0.3489406202190243
 10
7.483464146967008
 20
0.406978969140993
 10
7.478427290039007
 20
0.4649636593090344
 10
7.472732934446
 20
0.5228876616640143
 10
7.466386493452005
 20
0.5807439904980348
 10
7.459393384681007
 20
0.6385256614830146
 10
7.451759501589007
 20
0.696225970491013
 10
7.442829797858009
 20
0.758266818646006
 10
7.433173940030997
 20
0.820198804510027
 10
7.422800933743005
 20
0.8820145407130429
 10
7.411720779668995
 20
0.9437073908600256
 10
7.399944029338
 20
1.005271134291999
 10
7.387481245488999
 20
1.066699561307017
 10
7.373379448440998
 20
1.132359094083992
 10
7.358517013993008
 20
1.197850697092004
 10
7.342908330959005
 20
1.263168435504041
 10
7.326567940263997
 20
1.328306699670007
 10
7.308348660234996
 20
1.397584637167992
 10
7.289332414623004
 20
1.466648097030029
 10
7.269537654491997
 20
1.535492152278034
 10
7.247673544880001
 20
1.60839446437404
 10
7.224974024342002
 20
1.681041047087034
 10
7.200053537919004
 20
1.757678182312018
 10
7.174247847767006
 20
1.834021791004999
 10
7.146077123292002
 20
1.914285822069017
 10
7.116979845842007
 20
1.994218253492021
 10
7.085382825185008
 20
2.077998867131042
 10
7.051174185173007
 20
2.165572236498006
 10
7.015946834303008
 20
2.252740548207039
 10
6.977990319281003
 20
2.343627724039037
 10
6.937203565298999
 20
2.438176645459008
 10
6.893488598666007
 20
2.536330146023995
 10
6.846752798813
 20
2.638030484310035
 10
6.796908219870996
 20
2.743220224267019
 10
6.743872267650003
 20
2.851842725630031
 10
6.685534111251
 20
2.967830117967022
 10
6.623764780992995
 20
3.08709258512499
 10
6.556374777278007
 20
3.213515734521988
 10
6.483170719753997
 20
3.346974014376028
 10
6.403971973028999
 20
3.487342898714016
 10
6.318609161310007
 20
3.634500536343008
 10
6.224612727668994
 20
3.792161344437997
 10
6.121706145865999
 20
3.960130830870013
 10
6.007227452600003
 20
4.141991725758995
 10
6.000005384382006
 20
4.153303504749997
  0
LWPOLYLINE
  5
345
330
1E
100
AcDbEntity
  8
1
100
AcDbPolyline
 90
       51
 70
     0
 43
0.0
 10
5.999999999999999
 20
-4.153311931499954
 10
6.114617159174001
 20
-3.971538521957995
 10
6.219979655346006
 20
-3.799823336110988
 10
6.314068609591995
 20
-3.642217607220004
 10
6.401748354017995
 20
-3.491228404636955
 10
6.48099383427801
 20
-3.350885843094998
 10
6.554244916050007
 20
-3.217453340920997
 10
6.621682029703007
 20
-3.091055265397983
 10
6.683498095458999
 20
-2.971817005303988
 10
6.741884056742009
 20
-2.855853621450988
 10
6.794966837092005
 20
-2.747254003392979
 10
6.844858879610001
 20
-2.642086715829009
 10
6.891642457401997
 20
-2.54040836857797
 10
6.935405494440002
 20
-2.44227624755797
 10
6.976240314527002
 20
-2.347748082836004
 10
7.014244744408003
 20
-2.256880925534002
 10
7.049519678060008
 20
-2.169731827301974
 10
7.08377767475001
 20
-2.082177791237993
 10
7.115423479783003
 20
-1.998415562865998
 10
7.144568695578
 20
-1.918500599726995
 10
7.172788927004003
 20
-1.838253991654995
 10
7.198643026558997
 20
-1.761926737513985
 10
7.223613373657996
 20
-1.685305858769994
 10
7.246361327778997
 20
-1.612674448461973
 10
7.268275193411
 20
-1.539787058966965
 10
7.288117990347004
 20
-1.470956863018954
 10
7.307183426510007
 20
-1.401906993809005
 10
7.325453044221997
 20
-1.332642303414957
 10
7.341841679435006
 20
-1.267516182417979
 10
7.357499597592009
 20
-1.202210268941995
 10
7.372412214020997
 20
-1.136730073690956
 10
7.386565159064004
 20
-1.071081560759977
 10
7.399076540918003
 20
-1.009663060200979
 10
7.410902630389997
 20
-0.9481087876159801
 10
7.422032876347002
 20
-0.8864249611929729
 10
7.432456744329996
 20
-0.8246178187849871
 10
7.442164124476007
 20
-0.7626939168000046
 10
7.451145974389008
 20
-0.7006606125399923
 10
7.458828858363006
 20
-0.6429668381039742
 10
7.465871489663001
 20
-0.5851912277649955
 10
7.472267856528004
 20
-0.5273404141159981
 10
7.478012552191002
 20
-0.4694213845839963
 10
7.48310017848
 20
-0.4114411315279665
 10
7.487525768836007
 20
-0.3534066799009574
 10
7.491285689937001
 20
-0.2953251553479967
 10
7.494376565096002
 20
-0.2372037028949885
 10
7.496795064142997
 20
-0.1790495125179641
 10
7.498538924694003
 20
-0.120870805977007
 10
7.499606950980007
 20
-0.0626768356809757
 10
7.499997993514
 20
-0.0044768987629604
 10
7.499999999990007
 20
-0.0000099999999757
  0
LWPOLYLINE
  5
37A
330
1E
100
AcDbEntity
  8
1
100
AcDbPolyline
 90
       14
 70
     0
 43
0.0
 10
22.57887908579998
 20
0.9239136653999906
 10
22.57108232801097
 20
0.9331049467940003
 10
22.563119706936
 20
0.9427632274590079
 10
22.555001289127
 20
0.9528935479690375
 10
22.546736568673
 20
0.9634996898080288
 10
22.53833431237501
 20
0.9745840596920032
 10
22.52952848066398
 20
0.986523260873011
 10
22.52033763453
 20
0.9993286184389916
 10
22.51051458861199
 20
1.013390397805034
 10
22.49982756811601
 20
1.029108132438007
 10
22.487803723165
 20
1.047277782695002
 10
22.47374706492899
 20
1.069103103235018
 10
22.455282085713
 20
1.098561522707024
 10
22.32500375005101
 20
1.311203556138988
  0
TEXT
  5
446
330
1E
100
AcDbEntity
  8
6
100
AcDbText
 10
-11.29858161247696
 20
-30.45938227045235
 30
0.0
 40
5.0
  1
15B1D012028X5R00
100
AcDbText
  0
LINE
  5
550
330
1E
100
AcDbEntity
  8
SK4
100
AcDbLine
 10
0.0
 20
0.0
 30
0.0
 11
-20.5
 21
0.0000000000000025
 31
0.0
  0
SPLINE
  5
2011
330
1E
100
AcDbEntity
  8
CUT
100
AcDbSpline
210
0.0
220
0.0
230
1.0
 70
     8
 71
     3
 72
    36
 73
    32
 74
    30
 42
0.0000000001
 43
0.0000000001
 44
0.0000000001
 12
0.9999999734962912
 22
0.0002302333966351
 32
0.0
 13
-0.9999825306741435
 23
-0.0059108668176322
 33
0.0
 40
0.0
 40
0.0
 40
0.0
 40
0.0
 40
0.3247964934909158
 40
0.6496031337201555
 40
0.9743985552165074
 40
1.29916032700623
 40
1.623866204492303
 40
1.948492813460206
 40
2.273011986762813
 40
2.597396057657161
 40
2.921612526776176
 40
3.245627509690553
 40
3.569441146997562
 40
3.893014450658422
 40
4.216287395947691
 40
4.539184434857932
 40
4.861613434857932
 40
5.183454796303289
 40
5.504557588949191
 40
5.824722936921141
 40
6.143684983431371
 40
6.461104813158505
 40
6.77655801714922
 40
7.089472264458275
 40
7.399279168167665
 40
7.705899286180174
 40
8.010877913880541
 40
8.318253867112085
 40
8.63211393854041
 40
8.95269154864443
 40
9.277013569748447
 40
9.277013569748447
 40
9.277013569748447
 40
9.277013569748447
 10
25.004407
 20
6.0
 30
0.0
 10
25.11267249496087
 20
6.000024926333304
 30
0.0
 10
25.32938941316007
 20
5.988265959236446
 30
0.0
 10
25.65052047360895
 20
5.935729892268164
 30
0.0
 10
25.96413362691925
 20
5.848828544834771
 30
0.0
 10
26.26649360307596
 20
5.728602864009046
 30
0.0
 10
26.55406364953633
 20
5.576469226416251
 30
0.0
 10
26.82346092447895
 20
5.394224315689233
 30
0.0
 10
27.07152446551793
 20
5.184027073149612
 30
0.0
 10
27.29534404351986
 20
4.948369783755322
 30
0.0
 10
27.49229378294944
 20
4.690045882313
 30
0.0
 10
27.66007561272966
 20
4.412113707727249
 30
0.0
 10
27.79673040663141
 20
4.117862659234575
 30
0.0
 10
27.90065988235179
 20
3.810784582163765
 30
0.0
 10
27.97064078957392
 20
3.494551018570366
 30
0.0
 10
28.00585150941591
 20
3.17296853972149
 30
0.0
 10
28.00587991098484
 20
2.849938900454675
 30
0.0
 10
27.97073057908461
 20
2.529425189464257
 30
0.0
 10
27.90082500411745
 20
2.215426086184803
 30
0.0
 10
27.79699811531809
 20
1.911960161143653
 30
0.0
 10
27.66048653564714
 20
1.623066222917318
 30
0.0
 10
27.49291052712414
 20
1.352829314261152
 30
0.0
 10
27.29624224311722
 20
1.105482509376674
 30
0.0
 10
27.07275482838844
 20
0.8855679568306976
 30
0.0
 10
26.82488339186331
 20
0.6981828401951378
 30
0.0
 10
26.5549523719141
 20
0.5492158434064156
 30
0.0
 10
26.26539283353431
 20
0.4450868849722414
 30
0.0
 10
25.9607819311899
 20
0.3883316650452591
 30
0.0
 10
25.64707499568122
 20
0.3686935360553774
 30
0.0
 10
25.32747944648936
 20
0.3662225472285653
 30
0.0
 10
25.11251245180565
 20
0.3677850080909148
 30
0.0
 10
25.004407
 20
0.3671459999999911
 30
0.0
 11
25.004407
 21
6.0
 31
0.0
 11
25.32872899999999
 21
5.98245
 31
0.0
 11
25.649273
 21
5.93000099999999
 31
0.0
 11
25.96227399999999
 21
5.843268999999991
 31
0.0
 11
26.26405399999999
 21
5.723272999999991
 31
0.0
 11
26.55106899999999
 21
5.571429999999991
 31
0.0
 11
26.819948
 21
5.389533
 31
0.0
 11
27.067533
 21
5.179736999999987
 31
0.0
 11
27.29091999999998
 21
4.944527999999991
 31
0.0
 11
27.48748799999999
 21
4.686695999999995
 31
0.0
 11
27.654936
 21
4.409302999999994
 31
0.0
 11
27.79132099999999
 21
4.115611999999996
 31
0.0
 11
27.895042
 21
3.809112999999996
 31
0.0
 11
27.96487599999998
 21
3.493472999999993
 31
0.0
 11
27.99999999999998
 21
3.172491999999991
 31
0.0
 11
27.99999999999998
 21
2.850062999999991
 31
0.0
 11
27.96487599999998
 21
2.53014399999999
 31
0.0
 11
27.895042
 21
2.21672699999999
 31
0.0
 11
27.79132099999999
 21
1.913827999999995
 31
0.0
 11
27.654936
 21
1.625495
 31
0.0
 11
27.48748799999999
 21
1.355834999999999
 31
0.0
 11
27.29091999999998
 21
1.109112999999992
 31
0.0
 11
27.067533
 21
0.8899929999999898
 31
0.0
 11
26.819948
 21
0.7037619999999976
 31
0.0
 11
26.55106899999999
 21
0.5563849999999917
 31
0.0
 11
26.26405399999999
 21
0.4532619999999953
 31
0.0
 11
25.96227399999999
 21
0.3948769999999939
 31
0.0
 11
25.649273
 21
0.3716709999999921
 31
0.0
 11
25.32872899999999
 21
0.3670289999999881
 31
0.0
 11
25.004407
 21
0.3671459999999911
 31
0.0
  0
SPLINE
  5
2012
330
1E
100
AcDbEntity
  8
CUT
100
AcDbSpline
210
0.0
220
0.0
230
1.0
 70
     8
 71
     3
 72
    36
 73
    32
 74
    30
 42
0.0000000001
 43
0.0000000001
 44
0.0000000001
 12
-0.9999999734962912
 22
0.0002302333966351
 32
0.0
 13
0.9999825306741435
 23
-0.0059108668176322
 33
0.0
 40
0.0
 40
0.0
 40
0.0
 40
0.0
 40
0.3247964934909229
 40
0.649603133720166
 40
0.9743985552165181
 40
1.299160327006241
 40
1.62386620449231
 40
1.94849281346021
 40
2.273011986762814
 40
2.597396057657176
 40
2.921612526776184
 40
3.245627509690562
 40
3.569441146997572
 40
3.893014450658435
 40
4.216287395947706
 40
4.539184434857946
 40
4.861613434857947
 40
5.183454796303301
 40
5.504557588949205
 40
5.824722936921158
 40
6.143684983431389
 40
6.461104813158525
 40
6.776558017149232
 40
7.0894722644583
 40
7.399279168167687
 40
7.705899286180192
 40
8.010877913880557
 40
8.318253867112101
 40
8.632113938540426
 40
8.95269154864445
 40
9.277013569748474
 40
9.277013569748474
 40
9.277013569748474
 40
9.277013569748474
 10
25.004407
 20
6.0
 30
0.0
 10
24.89614150503913
 20
6.000024926333304
 30
0.0
 10
24.67942458683994
 20
5.988265959236447
 30
0.0
 10
24.35829352639105
 20
5.935729892268165
 30
0.0
 10
24.04468037308074
 20
5.848828544834768
 30
0.0
 10
23.74232039692403
 20
5.728602864009049
 30
0.0
 10
23.45475035046368
 20
5.576469226416248
 30
0.0
 10
23.18535307552104
 20
5.394224315689234
 30
0.0
 10
22.93728953448209
 20
5.184027073149605
 30
0.0
 10
22.71346995648011
 20
4.948369783755333
 30
0.0
 10
22.51652021705056
 20
4.690045882312994
 30
0.0
 10
22.34873838727033
 20
4.412113707727252
 30
0.0
 10
22.21208359336858
 20
4.117862659234573
 30
0.0
 10
22.10815411764819
 20
3.810784582163766
 30
0.0
 10
22.03817321042604
 20
3.494551018570369
 30
0.0
 10
22.00296249058408
 20
3.172968539721488
 30
0.0
 10
22.00293408901513
 20
2.849938900454677
 30
0.0
 10
22.03808342091537
 20
2.529425189464256
 30
0.0
 10
22.10798899588252
 20
2.215426086184802
 30
0.0
 10
22.21181588468191
 20
1.911960161143655
 30
0.0
 10
22.34832746435285
 20
1.623066222917316
 30
0.0
 10
22.51590347287585
 20
1.352829314261157
 30
0.0
 10
22.71257175688276
 20
1.105482509376664
 30
0.0
 10
22.93605917161156
 20
0.8855679568307049
 30
0.0
 10
23.18393060813669
 20
0.6981828401951369
 30
0.0
 10
23.45386162808591
 20
0.5492158434064156
 30
0.0
 10
23.74342116646569
 20
0.445086884972241
 30
0.0
 10
24.04803206881008
 20
0.3883316650452591
 30
0.0
 10
24.36173900431878
 20
0.3686935360553773
 30
0.0
 10
24.68133455351063
 20
0.3662225472285655
 30
0.0
 10
24.89630154819435
 20
0.3677850080909148
 30
0.0
 10
25.004407
 20
0.3671459999999911
 30
0.0
 11
25.004407
 21
6.0
 31
0.0
 11
24.680085
 21
5.98245
 31
0.0
 11
24.35954099999999
 21
5.93000099999999
 31
0.0
 11
24.04654
 21
5.843268999999991
 31
0.0
 11
23.74476
 21
5.723272999999991
 31
0.0
 11
23.457745
 21
5.571429999999991
 31
0.0
 11
23.188866
 21
5.389533
 31
0.0
 11
22.941281
 21
5.179736999999987
 31
0.0
 11
22.717894
 21
4.944527999999991
 31
0.0
 11
22.521326
 21
4.686695999999995
 31
0.0
 11
22.35387799999999
 21
4.409302999999994
 31
0.0
 11
22.217493
 21
4.115611999999996
 31
0.0
 11
22.11377199999998
 21
3.809112999999996
 31
0.0
 11
22.04393799999999
 21
3.493472999999993
 31
0.0
 11
22.008814
 21
3.172491999999991
 31
0.0
 11
22.008814
 21
2.850062999999991
 31
0.0
 11
22.04393799999999
 21
2.53014399999999
 31
0.0
 11
22.11377199999998
 21
2.21672699999999
 31
0.0
 11
22.217493
 21
1.913827999999995
 31
0.0
 11
22.35387799999999
 21
1.625495
 31
0.0
 11
22.521326
 21
1.355834999999999
 31
0.0
 11
22.717894
 21
1.109112999999992
 31
0.0
 11
22.941281
 21
0.8899929999999898
 31
0.0
 11
23.188866
 21
0.7037619999999976
 31
0.0
 11
23.457745
 21
0.5563849999999917
 31
0.0
 11
23.74476
 21
0.4532619999999953
 31
0.0
 11
24.04654
 21
0.3948769999999939
 31
0.0
 11
24.35954099999999
 21
0.3716709999999921
 31
0.0
 11
24.680085
 21
0.3670289999999881
 31
0.0
 11
25.004407
 21
0.3671459999999911
 31
0.0
  0
LINE
  5
2021
330
1E
100
AcDbEntity
  8
NOCUT
100
AcDbLine
 10
23.17038255370005
 20
5.000000000000012
 30
0.0
 11
7.5
 21
5.000000000000012
 31
0.0
  0
LINE
  5
2022
330
1E
100
AcDbEntity
  8
NOCUT
100
AcDbLine
 10
27.50000000000003
 20
0.0
 30
0.0
 11
0.0
 21
0.0
 31
0.0
  0
LINE
  5
2023
330
1E
100
AcDbEntity
  8
NOCUT
100
AcDbLine
 10
7.5
 20
5.000000000000012
 30
0.0
 11
6.0
 21
6.500000000000013
 31
0.0
  0
LINE
  5
2024
330
1E
100
AcDbEntity
  8
NOCUT
100
AcDbLine
 10
0.0
 20
0.0000000000000142
 30
0.0
 11
0.0
 21
6.300000000000013
 31
0.0
  0
LINE
  5
2025
330
1E
100
AcDbEntity
  8
NOCUT
100
AcDbLine
 10
6.0
 20
6.500000000000013
 30
0.0
 11
0.200000000000017
 21
6.500000000000013
 31
0.0
  0
ARC
  5
2026
330
1E
100
AcDbEntity
  8
NOCUT
100
AcDbCircle
 10
0.200000000000017
 20
6.300000000000013
 30
0.0
 40
0.2
100
AcDbArc
 50
90.0
 51
180.0
  0
ARC
  5
2027
330
1E
100
AcDbEntity
  8
NOCUT
100
AcDbCircle
 10
25.00000000000003
 20
3.150000000000004
 30
0.0
 40
2.5
100
AcDbArc
 50
0.0
 51
129.1167437796
  0
ARC
  5
2028
330
1E
100
AcDbEntity
  8
NOCUT
100
AcDbCircle
 10
23.17038255370005
 20
5.400000000000003
 30
0.0
 40
0.4
100
AcDbArc
 50
270.0
 51
309.1167437795999
  0
LINE
  5
2029
330
1E
100
AcDbEntity
  8
NOCUT
100
AcDbLine
 10
27.50000000000003
 20
3.150000000000004
 30
0.0
 11
27.49999999999996
 21
0.0
 31
0.0
  0
TEXT
  5
2031
330
1E
100
AcDbEntity
  8
6
100
AcDbText
 10
50.76099680320631
 20
-2.786830972862801
 30
0.0
 40
3.5
  1
Z=2
 50
90.0
100
AcDbText
  0
TEXT
  5
2032
330
1E
100
AcDbEntity
  8
6
100
AcDbText
 10
8.218947055197816
 20
12.23279046202558
 30
0.0
 40
2.5
  1
RHHW0602M0TN
100
AcDbText
  0
LWPOLYLINE
  5
21C6
330
1E
100
AcDbEntity
  8
1
100
AcDbPolyline
 90
        3
 70
     1
 43
0.0
 10
0.0000000000001279
 20
0.0
 10
-2.950972054112455
 20
0.0
 42
0.4142135623730966
 10
0.0000000000001279
 20
-2.950972054112583
  0
HATCH
  5
21C7
330
1E
100
AcDbEntity
  8
1
100
AcDbHatch
 10
0.0
 20
0.0
 30
0.0
210
0.0
220
0.0
230
1.0
  2
SOLID
 70
     1
 71
     0
 91
        2
 92
        7
 72
     1
 73
     1
 93
        3
 10
0.0000000000001279
 20
0.0
 42
0.0
 10
2.950972054112709
 20
0.0
 42
0.4142135623730966
 10
0.0000000000001279
 20
2.950972054112611
 42
0.0
 97
        0
 92
        7
 72
     1
 73
     1
 93
        3
 10
0.0000000000001279
 20
-2.950972054112496
 42
0.0
 10
0.0000000000001279
 20
0.0
 42
0.0
 10
-2.950972054112455
 20
0.0
 42
0.4142135623730953
 97
        0
 75
     0
 76
     1
 47
0.1190009775223266
 98
        2
 10
0.7445530588120306
 20
0.9212244733764975
 10
-1.279464601852807
 20
-1.696796923046291
  0
CIRCLE
  5
21C8
330
1E
100
AcDbEntity
  8
1
100
AcDbCircle
 10
0.0000000000001279
 20
0.0
 30
0.0
 40
2.950972054112601
  0
LINE
  5
21C9
330
1E
100
AcDbEntity
  8
1
100
AcDbLine
 10
0.0000000000001279
 20
2.950972054112611
 30
0.0
 11
0.0000000000001279
 21
-2.950972054112583
 31
0.0
  0
LINE
  5
21CB
330
1E
100
AcDbEntity
  8
1
100
AcDbLine
 10
-2.950972054112709
 20
0.0
 30
0.0
 11
2.950972054112709
 21
0.0
 31
0.0
  0
LWPOLYLINE
  5
21CC
330
1E
100
AcDbEntity
  8
1
100
AcDbPolyline
 90
        3
 70
     1
 43
0.0
 10
0.0000000000001279
 20
2.950972054112611
 10
0.0000000000001279
 20
0.0
 10
2.950972054112709
 20
0.0
 42
0.4142135623730966
  0
ENDSEC
  0
SECTION
  2
OBJECTS
  0
DICTIONARY
  5
C
330
0
100
AcDbDictionary
281
     1
  3
ACAD_COLOR
350
2336
  3
ACAD_GROUP
350
D
  3
ACAD_LAYOUT
350
19
  3
ACAD_MATERIAL
350
2335
  3
ACAD_MLINESTYLE
350
16
  3
ACAD_PLOTSETTINGS
350
18
  3
ACAD_PLOTSTYLENAME
350
1FDA
  3
ACAD_TABLESTYLE
350
2337
  3
ACDBHEADERROUNDTRIPXREC
350
2369
  3
AcDbVariableDictionary
350
235E
1001
ACAD
1000
TREAT_AS_HARD
1070
     0
  0
DICTIONARY
  5
1739
330
1E
100
AcDbDictionary
281
     1
  3
ACAD_LAYOUTSELFREF
350
173A
  0
DICTIONARY
  5
1737
330
1A
100
AcDbDictionary
281
     1
  3
ACAD_LAYOUTSELFREF
350
1738
  0
DICTIONARY
  5
2336
102
{ACAD_REACTORS
330
C
102
}
330
C
100
AcDbDictionary
281
     1
  0
DICTIONARY
  5
D
102
{ACAD_REACTORS
330
C
102
}
330
C
100
AcDbDictionary
281
     1
1001
ACAD
1000
TREAT_AS_HARD
1070
     0
  0
DICTIONARY
  5
19
102
{ACAD_REACTORS
330
C
102
}
330
C
100
AcDbDictionary
281
     1
  3
Layout1
350
1FDD
  3
Model
350
1FDC
1001
ACAD
1000
TREAT_AS_HARD
1070
     0
  0
DICTIONARY
  5
2335
102
{ACAD_REACTORS
330
C
102
}
330
C
100
AcDbDictionary
281
     1
  0
DICTIONARY
  5
16
102
{ACAD_REACTORS
330
C
102
}
330
C
100
AcDbDictionary
281
     1
  3
STANDARD
350
17
1001
ACAD
1000
TREAT_AS_HARD
1070
     0
  0
DICTIONARY
  5
18
102
{ACAD_REACTORS
330
C
102
}
330
C
100
AcDbDictionary
281
     1
1001
ACAD
1000
TREAT_AS_HARD
1070
     0
  0
ACDBDICTIONARYWDFLT
  5
1FDA
102
{ACAD_REACTORS
330
C
102
}
330
C
100
AcDbDictionary
281
     1
  3
Normal
350
1FDB
100
AcDbDictionaryWithDefault
340
1FDB
  0
DICTIONARY
  5
2337
102
{ACAD_REACTORS
330
C
102
}
330
C
100
AcDbDictionary
281
     1
  3
Standard
350
2338
  0
DICTIONARY
  5
2369
102
{ACAD_REACTORS
330
C
102
}
330
C
100
AcDbDictionary
281
     1
  0
DICTIONARY
  5
235E
102
{ACAD_REACTORS
330
C
102
}
330
C
100
AcDbDictionary
281
     1
  3
CTABLESTYLE
350
235F
  3
DIMASSOC
350
2360
  3
PROJECTNAME
350
2361
  0
XRECORD
  5
173A
102
{ACAD_REACTORS
330
1739
102
}
330
1739
100
AcDbXrecord
280
     1
340
1E
  0
XRECORD
  5
1738
102
{ACAD_REACTORS
330
1737
102
}
330
1737
100
AcDbXrecord
280
     1
340
1A
  0
LAYOUT
  5
1FDD
102
{ACAD_XDICTIONARY
360
236C
102
}
102
{ACAD_REACTORS
330
19
102
}
330
19
100
AcDbPlotSettings
  1

  2
\\ingdom02\ITB2
  4

  6

 40
0.0
 41
0.0
 42
0.0
 43
0.0
 44
0.0
 45
0.0
 46
0.0
 47
0.0
 48
0.0
 49
0.0
140
0.0
141
0.0
142
1.0
143
1.0
 70
   688
 72
     0
 73
     0
 74
     5
  7

 75
    16
147
1.0
148
0.0
149
0.0
100
AcDbLayout
  1
Layout1
 70
     1
 71
     1
 10
0.0
 20
0.0
 11
12.0
 21
9.0
 12
0.0
 22
0.0
 32
0.0
 14
100.0
 24
100.0
 34
100.0
 15
-100.0
 25
-100.0
 35
-100.0
146
0.0
 13
0.0
 23
0.0
 33
0.0
 16
1.0
 26
0.0
 36
0.0
 17
0.0
 27
1.0
 37
0.0
 76
     0
330
1A
  0
LAYOUT
  5
1FDC
102
{ACAD_XDICTIONARY
360
236A
102
}
102
{ACAD_REACTORS
330
19
102
}
330
19
100
AcDbPlotSettings
  1

  2
\\ingdom02\ITB2
  4

  6

 40
0.0
 41
0.0
 42
0.0
 43
0.0
 44
0.0
 45
0.0
 46
0.0
 47
0.0
 48
0.0
 49
0.0
140
0.0
141
0.0
142
1.0
143
1.0
 70
  1712
 72
     0
 73
     0
 74
     0
  7

 75
     0
147
1.0
148
0.0
149
0.0
100
AcDbLayout
  1
Model
 70
     1
 71
     0
 10
0.0
 20
0.0
 11
12.0
 21
9.0
 12
0.0
 22
0.0
 32
0.0
 14
0.0
 24
0.0
 34
0.0
 15
0.0
 25
0.0
 35
0.0
146
0.0
 13
0.0
 23
0.0
 33
0.0
 16
1.0
 26
0.0
 36
0.0
 17
0.0
 27
1.0
 37
0.0
 76
     0
330
1E
  0
MLINESTYLE
  5
17
102
{ACAD_REACTORS
330
16
102
}
330
16
100
AcDbMlineStyle
  2
STANDARD
 70
     0
  3

 62
   256
 51
90.0
 52
90.0
 71
     2
 49
0.5
 62
   256
  6
BYLAYER
 49
-0.5
 62
   256
  6
BYLAYER
  0
ACDBPLACEHOLDER
  5
1FDB
102
{ACAD_REACTORS
330
1FDA
102
}
330
1FDA
  0
TABLESTYLE
  5
2338
102
{ACAD_REACTORS
330
2337
102
}
330
2337
100
AcDbTableStyle
  3
Standard
 70
     0
 71
     0
 40
0.06
 41
0.06
280
     0
281
     0
  7
STANDARD
140
0.18
170
     2
 62
     0
 63
     7
283
     0
274
    -2
284
     1
 64
     0
275
    -2
285
     1
 65
     0
276
    -2
286
     1
 66
     0
277
    -2
287
     1
 67
     0
278
    -2
288
     1
 68
     0
279
    -2
289
     1
 69
     0
  7
STANDARD
140
0.25
170
     5
 62
     0
 63
     7
283
     0
274
    -2
284
     1
 64
     0
275
    -2
285
     1
 65
     0
276
    -2
286
     1
 66
     0
277
    -2
287
     1
 67
     0
278
    -2
288
     1
 68
     0
279
    -2
289
     1
 69
     0
  7
STANDARD
140
0.18
170
     5
 62
     0
 63
     7
283
     0
274
    -2
284
     1
 64
     0
275
    -2
285
     1
 65
     0
276
    -2
286
     1
 66
     0
277
    -2
287
     1
 67
     0
278
    -2
288
     1
 68
     0
279
    -2
289
     1
 69
     0
  0
DICTIONARYVAR
  5
235F
102
{ACAD_REACTORS
330
235E
102
}
330
235E
100
DictionaryVariables
280
     0
  1
STANDARD
  0
DICTIONARYVAR
  5
2360
102
{ACAD_REACTORS
330
235E
102
}
330
235E
100
DictionaryVariables
280
     0
  1
1
  0
DICTIONARYVAR
  5
2361
102
{ACAD_REACTORS
330
235E
102
}
330
235E
100
DictionaryVariables
280
     0
  1

  0
DICTIONARY
  5
236C
330
1FDD
100
AcDbDictionary
280
     1
281
     1
  3
ACAD_XREC_ROUNDTRIP
360
236D
  0
DICTIONARY
  5
236A
330
1FDC
100
AcDbDictionary
280
     1
281
     1
  3
ACAD_XREC_ROUNDTRIP
360
236B
  0
XRECORD
  5
236D
102
{ACAD_REACTORS
330
236C
102
}
330
236C
100
AcDbXrecord
280
     1
102
SHADEPLOT
 70
     0
102
SHADEPLOTRESLEVEL
 70
     2
102
SHADEPLOTCUSTOMDPI
 70
   300
  0
XRECORD
  5
236B
102
{ACAD_REACTORS
330
236A
102
}
330
236A
100
AcDbXrecord
280
     1
102
SHADEPLOT
 70
     0
102
SHADEPLOTRESLEVEL
 70
     2
102
SHADEPLOTCUSTOMDPI
 70
   300
  0
ENDSEC
  0
EOF
