  0
SECTION
  2
HEADER
  9
$ACADVER
  1
AC1015
  9
$ACADMAINTVER
 70
    20
  9
$DWGCODEPAGE
  3
ANSI_1252
  9
$INSBASE
 10
0.0
 20
0.0
 30
0.0
  9
$EXTMIN
 10
-29.41629602401622
 20
-28.87624012196295
 30
-0.0015258207003583
  9
$EXTMAX
 10
51.00195819674536
 20
12.3986341214719
 30
0.0000000349246037
  9
$LIMMIN
 10
0.0
 20
0.0
  9
$LIMMAX
 10
594.0
 20
420.0
  9
$ORTHOMODE
 70
     0
  9
$REGENMODE
 70
     1
  9
$FILLMODE
 70
     1
  9
$QTEXTMODE
 70
     0
  9
$MIRRTEXT
 70
     1
  9
$LTSCALE
 40
10.0
  9
$ATTMODE
 70
     1
  9
$TEXTSIZE
 40
0.2
  9
$TRACEWID
 40
0.05
  9
$TEXTSTYLE
  7
STANDARD
  9
$CLAYER
  8
0
  9
$CELTYPE
  6
BYLAYER
  9
$CECOLOR
 62
   256
  9
$CELTSCALE
 40
1.0
  9
$DISPSILH
 70
     0
  9
$DIMSCALE
 40
1.0
  9
$DIMASZ
 40
2.5
  9
$DIMEXO
 40
3.712499999999999
  9
$DIMDLI
 40
22.572
  9
$DIMRND
 40
0.0
  9
$DIMDLE
 40
0.0
  9
$DIMEXE
 40
10.692
  9
$DIMTP
 40
0.01
  9
$DIMTM
 40
0.01
  9
$DIMTXT
 40
3.5
  9
$DIMCEN
 40
5.346
  9
$DIMTSZ
 40
0.0
  9
$DIMTOL
 70
     1
  9
$DIMLIM
 70
     0
  9
$DIMTIH
 70
     1
  9
$DIMTOH
 70
     1
  9
$DIMSE1
 70
     0
  9
$DIMSE2
 70
     0
  9
$DIMTAD
 70
     0
  9
$DIMZIN
 70
     0
  9
$DIMBLK
  1
_FILLED
  9
$DIMASO
 70
     1
  9
$DIMSHO
 70
     1
  9
$DIMPOST
  1

  9
$DIMAPOST
  1

  9
$DIMALT
 70
     0
  9
$DIMALTD
 70
     2
  9
$DIMALTF
 40
25.4
  9
$DIMLFAC
 40
1.0
  9
$DIMTOFL
 70
     0
  9
$DIMTVP
 40
0.0
  9
$DIMTIX
 70
     0
  9
$DIMSOXD
 70
     0
  9
$DIMSAH
 70
     0
  9
$DIMBLK1
  1

  9
$DIMBLK2
  1

  9
$DIMSTYLE
  2
STANDARD
  9
$DIMCLRD
 70
     0
  9
$DIMCLRE
 70
     0
  9
$DIMCLRT
 70
     0
  9
$DIMTFAC
 40
1.0
  9
$DIMGAP
 40
0.09
  9
$DIMJUST
 70
     0
  9
$DIMSD1
 70
     0
  9
$DIMSD2
 70
     0
  9
$DIMTOLJ
 70
     1
  9
$DIMTZIN
 70
     0
  9
$DIMALTZ
 70
     0
  9
$DIMALTTZ
 70
     0
  9
$DIMUPT
 70
     0
  9
$DIMDEC
 70
     4
  9
$DIMTDEC
 70
     4
  9
$DIMALTU
 70
     2
  9
$DIMALTTD
 70
     2
  9
$DIMTXSTY
  7
STANDARD
  9
$DIMAUNIT
 70
     0
  9
$DIMADEC
 70
     0
  9
$DIMALTRND
 40
0.0
  9
$DIMAZIN
 70
     0
  9
$DIMDSEP
 70
    46
  9
$DIMATFIT
 70
     3
  9
$DIMFRAC
 70
     0
  9
$DIMLDRBLK
  1
_FILLED
  9
$DIMLUNIT
 70
     2
  9
$DIMLWD
 70
    -2
  9
$DIMLWE
 70
    -2
  9
$DIMTMOVE
 70
     0
  9
$LUNITS
 70
     2
  9
$LUPREC
 70
     4
  9
$SKETCHINC
 40
0.1
  9
$FILLETRAD
 40
0.0
  9
$AUNITS
 70
     0
  9
$AUPREC
 70
     0
  9
$MENU
  1

  9
$ELEVATION
 40
0.0
  9
$PELEVATION
 40
0.0
  9
$THICKNESS
 40
0.0
  9
$LIMCHECK
 70
     0
  9
$CHAMFERA
 40
0.0
  9
$CHAMFERB
 40
0.0
  9
$CHAMFERC
 40
0.0
  9
$CHAMFERD
 40
0.0
  9
$SKPOLY
 70
     0
  9
$TDCREATE
 40
2453431.688711134
  9
$TDUCREATE
 40
2453431.605377801
  9
$TDUPDATE
 40
2453909.270580394
  9
$TDUUPDATE
 40
2453909.187247060
  9
$TDINDWG
 40
0.7246972106
  9
$TDUSRTIMER
 40
0.7232556713
  9
$USRTIMER
 70
     1
  9
$ANGBASE
 50
0.0
  9
$ANGDIR
 70
     0
  9
$PDMODE
 70
     0
  9
$PDSIZE
 40
0.3125
  9
$PLINEWID
 40
0.0
  9
$SPLFRAME
 70
     0
  9
$SPLINETYPE
 70
     6
  9
$SPLINESEGS
 70
     8
  9
$HANDSEED
  5
21DA
  9
$SURFTAB1
 70
     6
  9
$SURFTAB2
 70
     6
  9
$SURFTYPE
 70
     6
  9
$SURFU
 70
     6
  9
$SURFV
 70
     6
  9
$UCSBASE
  2

  9
$UCSNAME
  2

  9
$UCSORG
 10
0.0
 20
0.0
 30
0.0
  9
$UCSXDIR
 10
1.0
 20
0.0
 30
0.0
  9
$UCSYDIR
 10
0.0
 20
1.0
 30
0.0
  9
$UCSORTHOREF
  2

  9
$UCSORTHOVIEW
 70
     0
  9
$UCSORGTOP
 10
0.0
 20
0.0
 30
0.0
  9
$UCSORGBOTTOM
 10
0.0
 20
0.0
 30
0.0
  9
$UCSORGLEFT
 10
0.0
 20
0.0
 30
0.0
  9
$UCSORGRIGHT
 10
0.0
 20
0.0
 30
0.0
  9
$UCSORGFRONT
 10
0.0
 20
0.0
 30
0.0
  9
$UCSORGBACK
 10
0.0
 20
0.0
 30
0.0
  9
$PUCSBASE
  2

  9
$PUCSNAME
  2

  9
$PUCSORG
 10
0.0
 20
0.0
 30
0.0
  9
$PUCSXDIR
 10
1.0
 20
0.0
 30
0.0
  9
$PUCSYDIR
 10
0.0
 20
1.0
 30
0.0
  9
$PUCSORTHOREF
  2

  9
$PUCSORTHOVIEW
 70
     0
  9
$PUCSORGTOP
 10
0.0
 20
0.0
 30
0.0
  9
$PUCSORGBOTTOM
 10
0.0
 20
0.0
 30
0.0
  9
$PUCSORGLEFT
 10
0.0
 20
0.0
 30
0.0
  9
$PUCSORGRIGHT
 10
0.0
 20
0.0
 30
0.0
  9
$PUCSORGFRONT
 10
0.0
 20
0.0
 30
0.0
  9
$PUCSORGBACK
 10
0.0
 20
0.0
 30
0.0
  9
$USERI1
 70
     0
  9
$USERI2
 70
     0
  9
$USERI3
 70
     0
  9
$USERI4
 70
     0
  9
$USERI5
 70
     0
  9
$USERR1
 40
0.0
  9
$USERR2
 40
0.0
  9
$USERR3
 40
0.0
  9
$USERR4
 40
0.0
  9
$USERR5
 40
0.0
  9
$WORLDVIEW
 70
     1
  9
$SHADEDGE
 70
     3
  9
$SHADEDIF
 70
    70
  9
$TILEMODE
 70
     1
  9
$MAXACTVP
 70
    64
  9
$PINSBASE
 10
0.0
 20
0.0
 30
0.0
  9
$PLIMCHECK
 70
     0
  9
$PEXTMIN
 10
100.0
 20
100.0
 30
100.0
  9
$PEXTMAX
 10
-100.0
 20
-100.0
 30
-100.0
  9
$PLIMMIN
 10
0.0
 20
0.0
  9
$PLIMMAX
 10
12.0
 20
9.0
  9
$UNITMODE
 70
     0
  9
$VISRETAIN
 70
     1
  9
$PLINEGEN
 70
     1
  9
$PSLTSCALE
 70
     1
  9
$TREEDEPTH
 70
  3020
  9
$CMLSTYLE
  2
STANDARD
  9
$CMLJUST
 70
     0
  9
$CMLSCALE
 40
1.0
  9
$PROXYGRAPHICS
 70
     1
  9
$MEASUREMENT
 70
     0
  9
$CELWEIGHT
370
    -1
  9
$ENDCAPS
280
     0
  9
$JOINSTYLE
280
     0
  9
$LWDISPLAY
290
     0
  9
$INSUNITS
 70
     0
  9
$HYPERLINKBASE
  1

  9
$STYLESHEET
  1

  9
$XEDIT
290
     1
  9
$CEPSNTYPE
380
     0
  9
$PSTYLEMODE
290
     1
  9
$FINGERPRINTGUID
  2
{31518D7D-FF7E-4B01-8CB9-59F2A36CE48D}
  9
$VERSIONGUID
  2
{11C1957D-1BBE-4DAA-A28F-3653751CF4B7}
  9
$EXTNAMES
290
     1
  9
$PSVPSCALE
 40
0.0
  9
$OLESTARTUP
290
     0
  0
ENDSEC
  0
SECTION
  2
CLASSES
  0
CLASS
  1
ACDBDICTIONARYWDFLT
  2
AcDbDictionaryWithDefault
  3
ObjectDBX Classes
 90
        0
280
     0
281
     0
  0
CLASS
  1
ACDBPLACEHOLDER
  2
AcDbPlaceHolder
  3
ObjectDBX Classes
 90
        0
280
     0
281
     0
  0
CLASS
  1
LAYOUT
  2
AcDbLayout
  3
ObjectDBX Classes
 90
        0
280
     0
281
     0
  0
CLASS
  1
TABLESTYLE
  2
AcDbTableStyle
  3
ObjectDBX Classes
 90
     2047
280
     0
281
     0
  0
CLASS
  1
DICTIONARYVAR
  2
AcDbDictionaryVar
  3
ObjectDBX Classes
 90
        0
280
     0
281
     0
  0
ENDSEC
  0
SECTION
  2
TABLES
  0
TABLE
  2
VPORT
  5
8
330
0
100
AcDbSymbolTable
 70
     2
  0
VPORT
  5
21D4
330
8
100
AcDbSymbolTableRecord
100
AcDbViewportTableRecord
  2
*Active
 70
     0
 10
0.0
 20
0.0
 11
1.0
 21
1.0
 12
10.79283108636457
 22
-8.238803000245525
 13
0.0
 23
0.0
 14
1.0
 24
1.0
 15
0.0
 25
0.0
 16
0.0
 26
0.0
 36
1.0
 17
0.0
 27
0.0
 37
0.0
 40
52.73933495990509
 41
1.532401524777636
 42
50.0
 43
0.0
 44
0.0
 50
0.0
 51
0.0
 71
     0
 72
  1000
 73
     1
 74
     1
 75
     0
 76
     0
 77
     0
 78
     0
281
     0
 65
     1
110
0.0
120
0.0
130
0.0
111
1.0
121
0.0
131
0.0
112
0.0
122
1.0
132
0.0
 79
     0
146
0.0
  0
ENDTAB
  0
TABLE
  2
LTYPE
  5
5
330
0
100
AcDbSymbolTable
 70
     2
  0
LTYPE
  5
13
330
5
100
AcDbSymbolTableRecord
100
AcDbLinetypeTableRecord
  2
BYBLOCK
 70
     0
  3

 72
    65
 73
     0
 40
0.0
  0
LTYPE
  5
14
330
5
100
AcDbSymbolTableRecord
100
AcDbLinetypeTableRecord
  2
BYLAYER
 70
     0
  3

 72
    65
 73
     0
 40
0.0
  0
LTYPE
  5
15
330
5
100
AcDbSymbolTableRecord
100
AcDbLinetypeTableRecord
  2
CONTINUOUS
 70
     0
  3
Solid line
 72
    65
 73
     0
 40
0.0
  0
LTYPE
  5
2A
330
5
100
AcDbSymbolTableRecord
100
AcDbLinetypeTableRecord
  2
CENTER
 70
     0
  3
____ _ ____ _ ____ _ ____ _ ____ _ ____ _ ____
 72
    65
 73
     4
 40
0.6
 49
0.375
 74
     0
 49
-0.075
 74
     0
 49
0.075
 74
     0
 49
-0.075
 74
     0
  0
ENDTAB
  0
TABLE
  2
LAYER
  5
2
330
0
100
AcDbSymbolTable
 70
    11
  0
LAYER
  5
10
330
2
100
AcDbSymbolTableRecord
100
AcDbLayerTableRecord
  2
1
 70
     0
 62
     4
  6
CONTINUOUS
370
    -3
390
1E4B
  0
LAYER
  5
2D
330
2
100
AcDbSymbolTableRecord
100
AcDbLayerTableRecord
  2
2
 70
     0
 62
     7
  6
CONTINUOUS
370
    -3
390
1E4B
  0
LAYER
  5
2F
330
2
100
AcDbSymbolTableRecord
100
AcDbLayerTableRecord
  2
4
 70
     0
 62
     2
  6
CENTER
370
    -3
390
1E4B
  0
LAYER
  5
32
330
2
100
AcDbSymbolTableRecord
100
AcDbLayerTableRecord
  2
0
 70
     0
 62
     7
  6
CONTINUOUS
370
    -3
390
1E4B
  0
LAYER
  5
33
330
2
100
AcDbSymbolTableRecord
100
AcDbLayerTableRecord
  2
DEFPOINTS
 70
     0
 62
     7
  6
CONTINUOUS
290
     0
370
    -3
390
1E4B
  0
LAYER
  5
357
330
2
100
AcDbSymbolTableRecord
100
AcDbLayerTableRecord
  2
SK1
 70
     0
 62
     4
  6
CONTINUOUS
370
    -3
390
1E4B
  0
LAYER
  5
358
330
2
100
AcDbSymbolTableRecord
100
AcDbLayerTableRecord
  2
SK4
 70
     0
 62
     2
  6
CENTER
370
    -3
390
1E4B
  0
LAYER
  5
359
330
2
100
AcDbSymbolTableRecord
100
AcDbLayerTableRecord
  2
SK2
 70
     0
 62
     7
  6
CONTINUOUS
370
    -3
390
1E4B
  0
LAYER
  5
1E75
330
2
100
AcDbSymbolTableRecord
100
AcDbLayerTableRecord
  2
CUT
 70
     0
 62
     1
  6
CONTINUOUS
370
    -3
390
1E4B
  0
LAYER
  5
1E83
330
2
100
AcDbSymbolTableRecord
100
AcDbLayerTableRecord
  2
NOCUT
 70
     0
 62
     7
  6
CONTINUOUS
370
    -3
390
1E4B
  0
LAYER
  5
1E9A
330
2
100
AcDbSymbolTableRecord
100
AcDbLayerTableRecord
  2
6
 70
     0
 62
     5
  6
CONTINUOUS
370
    -3
390
1E4B
  0
ENDTAB
  0
TABLE
  2
STYLE
  5
3
330
0
100
AcDbSymbolTable
 70
     1
  0
STYLE
  5
11
330
3
100
AcDbSymbolTableRecord
100
AcDbTextStyleTableRecord
  2
STANDARD
 70
     0
 40
0.0
 41
0.8
 50
0.0
 71
     0
 42
0.2
  3
ISOCP
  4

  0
ENDTAB
  0
TABLE
  2
VIEW
  5
6
330
0
100
AcDbSymbolTable
 70
     0
  0
ENDTAB
  0
TABLE
  2
UCS
  5
7
330
0
100
AcDbSymbolTable
 70
     0
  0
ENDTAB
  0
TABLE
  2
APPID
  5
9
330
0
100
AcDbSymbolTable
 70
     1
  0
APPID
  5
12
330
9
100
AcDbSymbolTableRecord
100
AcDbRegAppTableRecord
  2
ACAD
 70
     0
  0
ENDTAB
  0
TABLE
  2
DIMSTYLE
  5
A
330
0
100
AcDbSymbolTable
 70
     2
100
AcDbDimStyleTable
 71
     0
  0
DIMSTYLE
105
2C
330
A
100
AcDbSymbolTableRecord
100
AcDbDimStyleTableRecord
  2
STANDARD
 70
     0
340
11
  0
DIMSTYLE
105
35A
102
{ACAD_REACTORS
330
72
330
71
330
6F
330
70
102
}
330
A
100
AcDbSymbolTableRecord
100
AcDbDimStyleTableRecord
  2
ISO-25
 70
     0
 41
2.5
 42
0.625
 43
3.75
 44
1.25
 73
     0
 74
     0
 77
     1
 78
     8
140
2.5
141
2.5
143
0.03937007874016
147
0.625
171
     3
172
     1
271
     2
272
     2
274
     3
283
     0
284
     8
340
11
  0
ENDTAB
  0
TABLE
  2
BLOCK_RECORD
  5
1
330
0
100
AcDbSymbolTable
 70
     5
  0
BLOCK_RECORD
  5
1E
102
{ACAD_XDICTIONARY
360
1608
102
}
330
1
100
AcDbSymbolTableRecord
100
AcDbBlockTableRecord
  2
*MODEL_SPACE
340
1E4C
  0
BLOCK_RECORD
  5
1A
102
{ACAD_XDICTIONARY
360
1606
102
}
330
1
100
AcDbSymbolTableRecord
100
AcDbBlockTableRecord
  2
*PAPER_SPACE
340
1E4D
  0
BLOCK_RECORD
  5
23
330
1
100
AcDbSymbolTableRecord
100
AcDbBlockTableRecord
  2
_FILLED
340
0
  0
BLOCK_RECORD
  5
4B7
330
1
100
AcDbSymbolTableRecord
100
AcDbBlockTableRecord
  2
*D1
340
0
  0
BLOCK_RECORD
  5
4C3
330
1
100
AcDbSymbolTableRecord
100
AcDbBlockTableRecord
  2
*D2
340
0
  0
BLOCK_RECORD
  5
4D1
330
1
100
AcDbSymbolTableRecord
100
AcDbBlockTableRecord
  2
*D3
340
0
  0
BLOCK_RECORD
  5
4DD
330
1
100
AcDbSymbolTableRecord
100
AcDbBlockTableRecord
  2
*D4
340
0
  0
ENDTAB
  0
ENDSEC
  0
SECTION
  2
BLOCKS
  0
BLOCK
  5
36
330
1E
100
AcDbEntity
  8
0
100
AcDbBlockBegin
  2
*MODEL_SPACE
 70
     0
 10
0.0
 20
0.0
 30
0.0
  3
*MODEL_SPACE
  1

  0
ENDBLK
  5
37
330
1E
100
AcDbEntity
  8
0
100
AcDbBlockEnd
  0
BLOCK
  5
34
330
1A
100
AcDbEntity
 67
     1
  8
0
100
AcDbBlockBegin
  2
*PAPER_SPACE
 70
     0
 10
0.0
 20
0.0
 30
0.0
  3
*PAPER_SPACE
  1

  0
ENDBLK
  5
35
330
1A
100
AcDbEntity
 67
     1
  8
0
100
AcDbBlockEnd
  0
BLOCK
  5
3A
330
23
100
AcDbEntity
  8
0
100
AcDbBlockBegin
  2
_FILLED
 70
     0
 10
0.0
 20
0.0
 30
0.0
  3
_FILLED
  1

  0
SOLID
  5
3B
330
23
100
AcDbEntity
  8
0
  6
ByBlock
 62
     0
100
AcDbTrace
 10
0.0
 20
0.0
 30
0.0
 11
-1.0
 21
0.132
 31
0.0
 12
-1.0
 22
-0.132
 32
0.0
 13
-1.0
 23
-0.132
 33
0.0
  0
ENDBLK
  5
3C
330
23
100
AcDbEntity
  8
0
100
AcDbBlockEnd
  0
BLOCK
  5
4C1
330
4B7
100
AcDbEntity
  8
0
100
AcDbBlockBegin
  2
*D1
 70
     1
 10
0.0
 20
0.0
 30
0.0
  3
*D1
  1

  0
LINE
  5
21B5
330
4B7
100
AcDbEntity
  8
SK2
 62
     0
370
    -2
100
AcDbLine
 10
-0.4249999999999839
 20
-6.0
 30
0.0
 11
-26.05089033936323
 21
-5.999999999999992
 31
0.0
  0
LINE
  5
21B6
330
4B7
100
AcDbEntity
  8
SK2
 62
     0
370
    -2
100
AcDbLine
 10
-0.4249999999999823
 20
6.0
 30
0.0
 11
-26.05089033936323
 21
6.000000000000007
 31
0.0
  0
LINE
  5
21B7
330
4B7
100
AcDbEntity
  8
SK2
 62
     0
370
    -2
100
AcDbLine
 10
-24.80089033936323
 20
-3.499999999999992
 30
0.0
 11
-24.80089033936323
 21
3.500000000000007
 31
0.0
  0
SOLID
  5
21B8
330
4B7
100
AcDbEntity
  8
SK2
 62
     0
100
AcDbTrace
 10
-25.2175570060299
 20
-3.499999999999992
 30
0.0
 11
-24.38422367269657
 21
-3.499999999999992
 31
0.0
 12
-24.80089033936323
 22
-5.999999999999992
 32
0.0
 13
-24.80089033936323
 23
-5.999999999999992
 33
0.0
  0
SOLID
  5
21B9
330
4B7
100
AcDbEntity
  8
SK2
 62
     0
100
AcDbTrace
 10
-25.2175570060299
 20
3.500000000000007
 30
0.0
 11
-24.38422367269657
 21
3.500000000000007
 31
0.0
 12
-24.80089033936323
 22
6.000000000000007
 32
0.0
 13
-24.80089033936323
 23
6.000000000000007
 33
0.0
  0
MTEXT
  5
21BA
330
4B7
100
AcDbEntity
  8
SK2
 62
     0
100
AcDbMText
 10
-26.67613640235536
 20
-0.4155579100190037
 30
0.0
 40
2.5
 41
0.0
 71
     5
 72
     1
  1
%%c12
 11
0.0000000000000001
 21
1.0
 31
0.0
 73
     1
 44
1.0
1001
ACAD
1000
MTEXTBEGIN
1070
    73
1070
     1
1070
    44
1040
1.0
1070
    74
1070
     0
1000
MTEXTEND
  0
POINT
  5
21BB
330
4B7
100
AcDbEntity
  8
DEFPOINTS
 62
     0
100
AcDbPoint
 10
0.2000000000000162
 20
-6.0
 30
0.0
  0
POINT
  5
21BC
330
4B7
100
AcDbEntity
  8
DEFPOINTS
 62
     0
100
AcDbPoint
 10
0.2000000000000177
 20
6.0
 30
0.0
  0
POINT
  5
21BD
330
4B7
100
AcDbEntity
  8
DEFPOINTS
 62
     0
100
AcDbPoint
 10
-24.80089033936323
 20
6.000000000000007
 30
0.0
  0
ENDBLK
  5
4C2
330
4B7
100
AcDbEntity
  8
0
100
AcDbBlockEnd
  0
BLOCK
  5
4CF
330
4C3
100
AcDbEntity
  8
0
100
AcDbBlockBegin
  2
*D2
 70
     1
 10
0.0
 20
0.0
 30
0.0
  3
*D2
  1

  0
LINE
  5
21AA
330
4C3
100
AcDbEntity
  8
SK2
 62
     0
370
    -2
100
AcDbLine
 10
-14.125
 20
-2.999999999999998
 30
0.0
 11
-20.7592599587947
 21
-2.999999999999996
 31
0.0
  0
LINE
  5
21AB
330
4C3
100
AcDbEntity
  8
SK2
 62
     0
370
    -2
100
AcDbLine
 10
-14.125
 20
3.000000000000001
 30
0.0
 11
-20.7592599587947
 21
3.000000000000003
 31
0.0
  0
LINE
  5
21AC
330
4C3
100
AcDbEntity
  8
SK2
 62
     0
370
    -2
100
AcDbLine
 10
-19.5092599587947
 20
-5.499999999999996
 30
0.0
 11
-19.5092599587947
 21
-7.999999999999995
 31
0.0
  0
LINE
  5
21AD
330
4C3
100
AcDbEntity
  8
SK2
 62
     0
370
    -2
100
AcDbLine
 10
-19.5092599587947
 20
5.500000000000002
 30
0.0
 11
-19.5092599587947
 21
8.000000000000001
 31
0.0
  0
LINE
  5
21AE
330
4C3
100
AcDbEntity
  8
SK2
 62
     0
370
    -2
100
AcDbLine
 10
-19.5092599587947
 20
-2.999999999999996
 30
0.0
 11
-19.5092599587947
 21
3.000000000000003
 31
0.0
  0
SOLID
  5
21AF
330
4C3
100
AcDbEntity
  8
SK2
 62
     0
100
AcDbTrace
 10
-19.92592662546137
 20
-5.499999999999996
 30
0.0
 11
-19.09259329212803
 21
-5.499999999999996
 31
0.0
 12
-19.5092599587947
 22
-2.999999999999996
 32
0.0
 13
-19.5092599587947
 23
-2.999999999999996
 33
0.0
  0
SOLID
  5
21B0
330
4C3
100
AcDbEntity
  8
SK2
 62
     0
100
AcDbTrace
 10
-19.92592662546137
 20
5.500000000000002
 30
0.0
 11
-19.09259329212803
 21
5.500000000000002
 31
0.0
 12
-19.5092599587947
 22
3.000000000000003
 32
0.0
 13
-19.5092599587947
 23
3.000000000000003
 33
0.0
  0
MTEXT
  5
21B1
330
4C3
100
AcDbEntity
  8
SK2
 62
     0
100
AcDbMText
 10
-21.3842599587947
 20
0.0000000000000003
 30
0.0
 40
2.5
 41
0.0
 71
     5
 72
     1
  1
M6
 11
0.0000000000000001
 21
1.0
 31
0.0
 73
     1
 44
1.0
1001
ACAD
1000
MTEXTBEGIN
1070
    73
1070
     1
1070
    44
1040
1.0
1070
    74
1070
     0
1000
MTEXTEND
  0
POINT
  5
21B2
330
4C3
100
AcDbEntity
  8
DEFPOINTS
 62
     0
100
AcDbPoint
 10
-13.5
 20
-2.999999999999998
 30
0.0
  0
POINT
  5
21B3
330
4C3
100
AcDbEntity
  8
DEFPOINTS
 62
     0
100
AcDbPoint
 10
-13.5
 20
3.000000000000001
 30
0.0
  0
POINT
  5
21B4
330
4C3
100
AcDbEntity
  8
DEFPOINTS
 62
     0
100
AcDbPoint
 10
-19.5092599587947
 20
3.000000000000003
 30
0.0
  0
ENDBLK
  5
4D0
330
4C3
100
AcDbEntity
  8
0
100
AcDbBlockEnd
  0
BLOCK
  5
4DB
330
4D1
100
AcDbEntity
  8
0
100
AcDbBlockBegin
  2
*D3
 70
     1
 10
0.0
 20
0.0
 30
0.0
  3
*D3
  1

  0
LINE
  5
21C7
330
4D1
100
AcDbEntity
  8
2
 62
     0
370
    -2
100
AcDbLine
 10
28.0
 20
-4.503364290456491
 30
0.0
 11
28.0
 21
-14.03219142035215
 31
0.0
  0
LINE
  5
21C8
330
4D1
100
AcDbEntity
  8
2
 62
     0
370
    -2
100
AcDbLine
 10
-0.0000000000000004
 20
-3.625
 30
0.0
 11
-0.0000000000000011
 21
-14.03219142035215
 31
0.0
  0
LINE
  5
21C9
330
4D1
100
AcDbEntity
  8
2
 62
     0
370
    -2
100
AcDbLine
 10
25.5
 20
-12.78219142035215
 30
0.0
 11
2.499999999999999
 21
-12.78219142035215
 31
0.0
  0
SOLID
  5
21CA
330
4D1
100
AcDbEntity
  8
2
 62
     0
100
AcDbTrace
 10
25.5
 20
-12.36552475368548
 30
0.0
 11
25.5
 21
-13.19885808701881
 31
0.0
 12
28.0
 22
-12.78219142035215
 32
0.0
 13
28.0
 23
-12.78219142035215
 33
0.0
  0
SOLID
  5
21CB
330
4D1
100
AcDbEntity
  8
2
 62
     0
100
AcDbTrace
 10
2.499999999999999
 20
-12.36552475368548
 30
0.0
 11
2.499999999999999
 21
-13.19885808701881
 31
0.0
 12
-0.000000000000001
 22
-12.78219142035215
 32
0.0
 13
-0.000000000000001
 23
-12.78219142035215
 33
0.0
  0
MTEXT
  5
21CC
330
4D1
100
AcDbEntity
  8
2
 62
     0
100
AcDbMText
 10
13.34623643575358
 20
-10.90694535736002
 30
0.0
 40
2.5
 41
0.0
 71
     5
 72
     1
  1
28
 73
     1
 44
1.0
1001
ACAD
1000
MTEXTBEGIN
1070
    73
1070
     1
1070
    44
1040
1.0
1070
    74
1070
     0
1000
MTEXTEND
  0
POINT
  5
21CD
330
4D1
100
AcDbEntity
  8
DEFPOINTS
 62
     0
100
AcDbPoint
 10
28.0
 20
-3.878364290456491
 30
0.0
  0
POINT
  5
21CE
330
4D1
100
AcDbEntity
  8
DEFPOINTS
 62
     0
100
AcDbPoint
 10
-0.0000000000000004
 20
-3.0
 30
0.0
  0
POINT
  5
21CF
330
4D1
100
AcDbEntity
  8
DEFPOINTS
 62
     0
100
AcDbPoint
 10
-0.000000000000001
 20
-12.78219142035215
 30
0.0
  0
ENDBLK
  5
4DC
330
4D1
100
AcDbEntity
  8
0
100
AcDbBlockEnd
  0
BLOCK
  5
4E7
330
4DD
100
AcDbEntity
  8
0
100
AcDbBlockBegin
  2
*D4
 70
     1
 10
0.0
 20
0.0
 30
0.0
  3
*D4
  1

  0
LINE
  5
21BE
330
4DD
100
AcDbEntity
  8
2
 62
     0
370
    -2
100
AcDbLine
 10
26.15935647582181
 20
5.999999999999995
 30
0.0
 11
39.10893657164812
 21
5.999999999999992
 31
0.0
  0
LINE
  5
21BF
330
4DD
100
AcDbEntity
  8
2
 62
     0
370
    -2
100
AcDbLine
 10
26.27344859960523
 20
-6.000000000000003
 30
0.0
 11
39.10893657164812
 21
-6.000000000000007
 31
0.0
  0
LINE
  5
21C0
330
4DD
100
AcDbEntity
  8
2
 62
     0
370
    -2
100
AcDbLine
 10
37.85893657164812
 20
3.499999999999992
 30
0.0
 11
37.85893657164812
 21
-3.500000000000006
 31
0.0
  0
SOLID
  5
21C1
330
4DD
100
AcDbEntity
  8
2
 62
     0
100
AcDbTrace
 10
37.44226990498145
 20
3.499999999999992
 30
0.0
 11
38.27560323831478
 21
3.499999999999992
 31
0.0
 12
37.85893657164812
 22
5.999999999999992
 32
0.0
 13
37.85893657164812
 23
5.999999999999992
 33
0.0
  0
SOLID
  5
21C2
330
4DD
100
AcDbEntity
  8
2
 62
     0
100
AcDbTrace
 10
37.44226990498145
 20
-3.500000000000006
 30
0.0
 11
38.27560323831478
 21
-3.500000000000006
 31
0.0
 12
37.85893657164812
 22
-6.000000000000006
 32
0.0
 13
37.85893657164812
 23
-6.000000000000006
 33
0.0
  0
MTEXT
  5
21C3
330
4DD
100
AcDbEntity
  8
2
 62
     0
100
AcDbMText
 10
35.98369050865599
 20
0.2854845366796612
 30
0.0
 40
2.5
 41
0.0
 71
     5
 72
     1
  1
%%c12
 11
0.0000000000000001
 21
1.0
 31
0.0
 73
     1
 44
1.0
1001
ACAD
1000
MTEXTBEGIN
1070
    73
1070
     1
1070
    44
1040
1.0
1070
    74
1070
     0
1000
MTEXTEND
  0
POINT
  5
21C4
330
4DD
100
AcDbEntity
  8
DEFPOINTS
 62
     0
100
AcDbPoint
 10
25.53435647582181
 20
5.999999999999996
 30
0.0
  0
POINT
  5
21C5
330
4DD
100
AcDbEntity
  8
DEFPOINTS
 62
     0
100
AcDbPoint
 10
25.64844859960523
 20
-6.000000000000002
 30
0.0
  0
POINT
  5
21C6
330
4DD
100
AcDbEntity
  8
DEFPOINTS
 62
     0
100
AcDbPoint
 10
37.85893657164812
 20
-6.000000000000006
 30
0.0
  0
ENDBLK
  5
4E8
330
4DD
100
AcDbEntity
  8
0
100
AcDbBlockEnd
  0
ENDSEC
  0
SECTION
  2
ENTITIES
  0
DIMENSION
  5
6F
330
1E
100
AcDbEntity
  8
2
100
AcDbDimension
  2
*D3
 10
-0.000000000000001
 20
-12.78219142035215
 30
0.0
 11
13.34623643575358
 21
-12.78219142035215
 31
0.0
 70
   160
 71
     5
 42
28.0
  3
ISO-25
100
AcDbAlignedDimension
 13
28.0
 23
-3.878364290456491
 33
0.0
 14
-0.0000000000000004
 24
-3.0
 34
0.0
 50
180.0
100
AcDbRotatedDimension
  0
DIMENSION
  5
70
330
1E
100
AcDbEntity
  8
2
100
AcDbDimension
  2
*D4
 10
37.85893657164812
 20
-6.000000000000006
 30
0.0
 11
37.85893657164812
 21
0.285484536679661
 31
0.0
 70
   160
  1
%%c<>
 71
     5
 42
12.0
  3
ISO-25
100
AcDbAlignedDimension
 13
25.53435647582181
 23
5.999999999999996
 33
0.0
 14
25.64844859960523
 24
-6.000000000000002
 34
0.0
 50
270.0
100
AcDbRotatedDimension
  0
DIMENSION
  5
71
330
1E
100
AcDbEntity
  8
SK2
100
AcDbDimension
  2
*D2
 10
-19.5092599587947
 20
3.000000000000003
 30
0.0
 11
-19.5092599587947
 21
0.0000000000000001
 31
0.0
 70
   160
  1
M<>
 71
     5
 42
6.0
  3
ISO-25
100
AcDbAlignedDimension
 13
-13.5
 23
-2.999999999999998
 33
0.0
 14
-13.5
 24
3.000000000000001
 34
0.0
 50
89.99999999999998
100
AcDbRotatedDimension
  0
DIMENSION
  5
72
330
1E
100
AcDbEntity
  8
SK2
100
AcDbDimension
  2
*D1
 10
-24.80089033936323
 20
6.000000000000007
 30
0.0
 11
-24.80089033936323
 21
-0.4155579100190039
 31
0.0
 70
   160
  1
%%c<>
 71
     5
 42
12.0
  3
ISO-25
100
AcDbAlignedDimension
 13
0.2000000000000162
 23
-6.0
 33
0.0
 14
0.2000000000000177
 24
6.0
 34
0.0
 50
89.99999999999998
100
AcDbRotatedDimension
  0
LINE
  5
73
330
1E
100
AcDbEntity
  8
1
100
AcDbLine
 10
27.5
 20
-2.45673727230002
 30
0.0
 11
27.5
 21
-2.325928266600044
 31
0.0
  0
LINE
  5
74
330
1E
100
AcDbEntity
  8
SK4
100
AcDbLine
 10
25.004407
 20
0.1158737254569897
 30
0.0
 11
25.004407
 21
6.690867309918982
 31
0.0
  0
LINE
  5
75
330
1E
100
AcDbEntity
  8
SK4
100
AcDbLine
 10
25.004407
 20
-0.1336176060220313
 30
0.0
 11
25.004407
 21
-6.726564893782043
 31
0.0
  0
LINE
  5
76
330
1E
100
AcDbEntity
  8
1
100
AcDbLine
 10
6.0
 20
5.999999999999999
 30
0.0
 11
0.2000000000000177
 21
6.0
 31
0.0
  0
LINE
  5
77
330
1E
100
AcDbEntity
  8
1
100
AcDbLine
 10
13.9875374665
 20
4.999999999999998
 30
0.0
 11
7.0
 21
4.999999999999999
 31
0.0
  0
LINE
  5
78
330
1E
100
AcDbEntity
  8
1
100
AcDbLine
 10
22.52855291779999
 20
4.995998398699949
 30
0.0
 11
14.64081963160001
 21
4.995998398699951
 31
0.0
  0
LINE
  5
79
330
1E
100
AcDbEntity
  8
1
100
AcDbLine
 10
6.0
 20
4.472135954999997
 30
0.0
 11
2.0
 21
4.472135954999997
 31
0.0
  0
LINE
  5
7A
330
1E
100
AcDbEntity
  8
1
100
AcDbLine
 10
6.999999999999999
 20
-5.0
 30
0.0
 11
5.999999999999999
 21
-6.0
 31
0.0
  0
LINE
  5
7B
330
1E
100
AcDbEntity
  8
SK1
100
AcDbLine
 10
-1.999999999999999
 20
3.25
 30
0.0
 11
-4.066987298099999
 21
3.25
 31
0.0
  0
LINE
  5
7C
330
1E
100
AcDbEntity
  8
SK1
100
AcDbLine
 10
-0.2999999999999825
 20
3.04999999999995
 30
0.0
 11
-1.20092883949999
 21
3.04999999999995
 31
0.0
  0
LINE
  5
7D
330
1E
100
AcDbEntity
  8
SK4
100
AcDbLine
 10
21.62189426372698
 20
3.011211999999996
 30
0.0
 11
28.311163649815
 21
3.011211999999996
 31
0.0
  0
LINE
  5
7E
330
1E
100
AcDbEntity
  8
1
100
AcDbLine
 10
8.0
 20
2.999999999999998
 30
0.0
 11
7.0
 21
2.999999999999998
 31
0.0
  0
LINE
  5
7F
330
1E
100
AcDbEntity
  8
SK1
100
AcDbLine
 10
-4.5
 20
3.0
 30
0.0
 11
-13.5
 21
3.000000000000001
 31
0.0
  0
LINE
  5
80
330
1E
100
AcDbEntity
  8
1
100
AcDbLine
 10
7.0
 20
4.999999999999999
 30
0.0
 11
6.0
 21
5.999999999999999
 31
0.0
  0
LINE
  5
81
330
1E
100
AcDbEntity
  8
SK1
100
AcDbLine
 10
-14.0
 20
2.5
 30
0.0
 11
-5.5
 21
2.5
 31
0.0
  0
LINE
  5
82
330
1E
100
AcDbEntity
  8
1
100
AcDbLine
 10
8.0
 20
-3.0
 30
0.0
 11
8.0
 21
2.999999999999998
 31
0.0
  0
LINE
  5
83
330
1E
100
AcDbEntity
  8
1
100
AcDbLine
 10
7.0
 20
2.999999999999998
 30
0.0
 11
7.0
 21
4.999999999999999
 31
0.0
  0
LINE
  5
84
330
1E
100
AcDbEntity
  8
1
100
AcDbLine
 10
7.0
 20
-3.0
 30
0.0
 11
6.999999999999999
 21
-5.0
 31
0.0
  0
LINE
  5
85
330
1E
100
AcDbEntity
  8
1
100
AcDbLine
 10
24.504407
 20
0.5112119999999976
 30
0.0
 11
22.004407
 21
0.5112119999999979
 31
0.0
  0
LINE
  5
86
330
1E
100
AcDbEntity
  8
4
100
AcDbLine
 10
31.0
 20
-0.0000000000000038
 30
0.0
 11
0.2284645054949124
 21
0.0
 31
0.0
  0
LINE
  5
87
330
1E
100
AcDbEntity
  8
SK1
100
AcDbLine
 10
-1.304456457500007
 20
3.06362966949996
 30
0.0
 11
-1.999999999999999
 21
3.25
 31
0.0
  0
LINE
  5
88
330
1E
100
AcDbEntity
  8
1
100
AcDbLine
 10
6.0
 20
4.472135954999997
 30
0.0
 11
6.0
 21
5.999999999999999
 31
0.0
  0
LINE
  5
89
330
1E
100
AcDbEntity
  8
1
100
AcDbLine
 10
5.999999999999999
 20
-4.472135954999997
 30
0.0
 11
5.999999999999999
 21
-6.0
 31
0.0
  0
LINE
  5
8A
330
1E
100
AcDbEntity
  8
SK1
100
AcDbLine
 10
-1.304456457500009
 20
-3.063629669500016
 30
0.0
 11
-2.0
 21
-3.249999999999998
 31
0.0
  0
LINE
  5
8B
330
1E
100
AcDbEntity
  8
SK1
100
AcDbLine
 10
-14.0
 20
-2.499999999999996
 30
0.0
 11
-5.5
 21
-2.499999999999999
 31
0.0
  0
LINE
  5
8C
330
1E
100
AcDbEntity
  8
1
100
AcDbLine
 10
8.0
 20
-3.0
 30
0.0
 11
7.0
 21
-3.0
 31
0.0
  0
LINE
  5
8D
330
1E
100
AcDbEntity
  8
SK1
100
AcDbLine
 10
-4.5
 20
-2.999999999999998
 30
0.0
 11
-13.5
 21
-2.999999999999998
 31
0.0
  0
LINE
  5
8E
330
1E
100
AcDbEntity
  8
SK4
100
AcDbLine
 10
22.3665873373
 20
-3.011212000000001
 30
0.0
 11
28.42532771242801
 21
-3.011212000000003
 31
0.0
  0
LINE
  5
8F
330
1E
100
AcDbEntity
  8
SK1
100
AcDbLine
 10
-0.2999999999999833
 20
-3.050000000000011
 30
0.0
 11
-1.200928839499991
 21
-3.050000000000011
 31
0.0
  0
LINE
  5
90
330
1E
100
AcDbEntity
  8
SK1
100
AcDbLine
 10
-2.0
 20
-3.249999999999998
 30
0.0
 11
-4.066987298099999
 21
-3.249999999999998
 31
0.0
  0
LINE
  5
91
330
1E
100
AcDbEntity
  8
1
100
AcDbLine
 10
5.999999999999999
 20
-4.472135954999997
 30
0.0
 11
1.999999999999999
 21
-4.472135954999997
 31
0.0
  0
LINE
  5
92
330
1E
100
AcDbEntity
  8
1
100
AcDbLine
 10
23.17038255359998
 20
-4.582575694900016
 30
0.0
 11
23.1198782508
 21
-4.582575694900016
 31
0.0
  0
LINE
  5
93
330
1E
100
AcDbEntity
  8
1
100
AcDbLine
 10
1.999999999999999
 20
-4.472135954999997
 30
0.0
 11
2.0
 21
4.472135954999997
 31
0.0
  0
LINE
  5
94
330
1E
100
AcDbEntity
  8
1
100
AcDbLine
 10
22.8434567756
 20
-4.990991885400037
 30
0.0
 11
22.7504168479
 21
-4.990991885400037
 31
0.0
  0
LINE
  5
95
330
1E
100
AcDbEntity
  8
1
100
AcDbLine
 10
22.52855291779999
 20
-4.995998398700011
 30
0.0
 11
14.64081963160001
 21
-4.995998398700009
 31
0.0
  0
LINE
  5
96
330
1E
100
AcDbEntity
  8
1
100
AcDbLine
 10
13.9875374665
 20
-5.0
 30
0.0
 11
6.999999999999999
 21
-5.0
 31
0.0
  0
LINE
  5
97
330
1E
100
AcDbEntity
  8
1
100
AcDbLine
 10
5.999999999999999
 20
-6.0
 30
0.0
 11
0.2000000000000162
 21
-6.0
 31
0.0
  0
LINE
  5
98
330
1E
100
AcDbEntity
  8
1
100
AcDbLine
 10
0.0000000000000007
 20
5.799999999999952
 30
0.0
 11
-0.0000000000000007
 21
-5.799999623400026
 31
0.0
  0
LINE
  5
99
330
1E
100
AcDbEntity
  8
SK1
100
AcDbLine
 10
-1.999999999999999
 20
3.25
 30
0.0
 11
-2.0
 21
-3.249999999999998
 31
0.0
  0
LINE
  5
9A
330
1E
100
AcDbEntity
  8
SK1
100
AcDbLine
 10
-4.066987298099999
 20
3.25
 30
0.0
 11
-4.5
 21
3.0
 31
0.0
  0
LINE
  5
9B
330
1E
100
AcDbEntity
  8
SK1
100
AcDbLine
 10
-4.066987298099999
 20
-3.249999999999998
 30
0.0
 11
-4.5
 21
-2.999999999999998
 31
0.0
  0
LINE
  5
9C
330
1E
100
AcDbEntity
  8
SK1
100
AcDbLine
 10
-4.066987298099999
 20
3.25
 30
0.0
 11
-4.066987298099999
 21
-3.249999999999998
 31
0.0
  0
LINE
  5
9D
330
1E
100
AcDbEntity
  8
SK1
100
AcDbLine
 10
-4.5
 20
3.0
 30
0.0
 11
-4.5
 21
-2.999999999999998
 31
0.0
  0
LINE
  5
9E
330
1E
100
AcDbEntity
  8
SK1
100
AcDbLine
 10
-5.5
 20
-2.999999999999998
 30
0.0
 11
-5.5
 21
3.0
 31
0.0
  0
LINE
  5
9F
330
1E
100
AcDbEntity
  8
SK1
100
AcDbLine
 10
-13.5
 20
3.000000000000001
 30
0.0
 11
-14.5
 21
2.0
 31
0.0
  0
LINE
  5
A0
330
1E
100
AcDbEntity
  8
SK1
100
AcDbLine
 10
-13.5
 20
-2.999999999999998
 30
0.0
 11
-14.5
 21
-1.999999999999998
 31
0.0
  0
LINE
  5
A1
330
1E
100
AcDbEntity
  8
SK1
100
AcDbLine
 10
-13.5
 20
3.000000000000001
 30
0.0
 11
-13.5
 21
-2.999999999999998
 31
0.0
  0
LINE
  5
A2
330
1E
100
AcDbEntity
  8
SK1
100
AcDbLine
 10
-14.0
 20
2.5
 30
0.0
 11
-14.0
 21
-2.499999999999996
 31
0.0
  0
LINE
  5
A3
330
1E
100
AcDbEntity
  8
SK1
100
AcDbLine
 10
-14.5
 20
1.999999623299969
 30
0.0
 11
-14.5
 21
-1.999999623300024
 31
0.0
  0
ARC
  5
A4
330
1E
100
AcDbEntity
  8
1
100
AcDbCircle
 10
25.00002095156383
 20
2.999999999999995
 30
0.0
 40
3.0
100
AcDbArc
 50
288.1298002475552
 51
235.7890881983606
  0
CIRCLE
  5
A5
330
1E
100
AcDbEntity
  8
1
100
AcDbCircle
 10
25.004407
 20
3.011211999999996
 30
0.0
 40
1.9
  0
ARC
  5
A7
330
1E
100
AcDbEntity
  8
1
100
AcDbCircle
 10
25.004407
 20
-3.011212000000003
 30
0.0
 40
2.553271980999999
100
AcDbArc
 50
218.3130318859
 51
12.20430014789998
  0
ARC
  5
A8
330
1E
100
AcDbEntity
  8
1
100
AcDbCircle
 10
25.004407
 20
-3.011212000000003
 30
0.0
 40
2.488263617699999
100
AcDbArc
 50
219.2031902196
 51
4.929782663900003
  0
ARC
  5
A9
330
1E
100
AcDbEntity
  8
1
100
AcDbCircle
 10
22.004407
 20
10.51121199999998
 30
0.0
 40
10.0
100
AcDbArc
 50
213.6924128199999
 51
270.0
  0
ARC
  5
AA
330
1E
100
AcDbEntity
  8
1
100
AcDbCircle
 10
25.004407
 20
-3.011212000000003
 30
0.0
 40
2.6536977133
100
AcDbArc
 50
218.5437091315
 51
221.5026147654
  0
ARC
  5
AB
330
1E
100
AcDbEntity
  8
1
100
AcDbCircle
 10
25.004407
 20
3.011211999999996
 30
0.0
 40
3.2
100
AcDbArc
 50
220.7137806397
 51
229.7299396585998
  0
ARC
  5
AC
330
1E
100
AcDbEntity
  8
1
100
AcDbCircle
 10
24.504407
 20
2.488787999999996
 30
0.0
 40
3.0
100
AcDbArc
 50
303.9356052245
 51
322.7029123632585
  0
ARC
  5
AD
330
1E
100
AcDbEntity
  8
1
100
AcDbCircle
 10
0.2000000000000162
 20
-5.800000000000013
 30
0.0
 40
0.2
100
AcDbArc
 50
180.0
 51
270.0
  0
ARC
  5
AE
330
1E
100
AcDbEntity
  8
1
100
AcDbCircle
 10
0.2000000000000177
 20
5.799999999999952
 30
0.0
 40
0.2
100
AcDbArc
 50
90.0
 51
180.0
  0
ARC
  5
AF
330
1E
100
AcDbEntity
  8
SK1
100
AcDbCircle
 10
-0.2999999999999833
 20
-3.450000000000044
 30
0.0
 40
0.4
100
AcDbArc
 50
41.40051060540003
 51
90.0
  0
ARC
  5
B0
330
1E
100
AcDbEntity
  8
SK1
100
AcDbCircle
 10
-1.200928839499991
 20
-3.450000000000044
 30
0.0
 40
0.4
100
AcDbArc
 50
90.0
 51
104.9999999999997
  0
ARC
  5
B1
330
1E
100
AcDbEntity
  8
SK1
100
AcDbCircle
 10
-0.2999999999999825
 20
3.449999999999988
 30
0.0
 40
0.4
100
AcDbArc
 50
270.0
 51
318.5994893945998
  0
ARC
  5
B2
330
1E
100
AcDbEntity
  8
SK1
100
AcDbCircle
 10
-1.20092883949999
 20
3.449999999999988
 30
0.0
 40
0.4
100
AcDbArc
 50
255.0
 51
270.0
  0
ARC
  5
B3
330
1E
100
AcDbEntity
  8
1
100
AcDbCircle
 10
24.504407
 20
-2.488788000000002
 30
0.0
 40
3.0
100
AcDbArc
 50
3.106069164900011
 51
90.0
  0
ARC
  5
B4
330
1E
100
AcDbEntity
  8
1
100
AcDbCircle
 10
25.004407
 20
3.011211999999996
 30
0.0
 40
3.173205080799998
100
AcDbArc
 50
141.2823397645999
 51
212.3938346809999
  0
LWPOLYLINE
  5
B5
330
1E
100
AcDbEntity
  8
1
100
AcDbPolyline
 90
       16
 70
     0
 43
0.0
 10
27.45808093730001
 20
-3.000410268600038
 10
27.46347718441199
 20
-2.964198349171002
 10
27.468499221671
 20
-2.927931666386031
 10
27.47314868980101
 20
-2.891615153522994
 10
27.47748815451299
 20
-2.854710473385014
 10
27.48144650940401
 20
-2.817763318582026
 10
27.48502474651299
 20
-2.78077751082003
 10
27.488223383659
 20
-2.743756921610045
 10
27.491042195117
 20
-2.706705500543025
 10
27.49348072607701
 20
-2.669627191513995
 10
27.495537475402
 20
-2.632525858608008
 10
27.49718864581
 20
-2.595951344626997
 10
27.49844801763199
 20
-2.559908058527017
 10
27.499339268111
 20
-2.52385374527802
 10
27.499852418119
 20
-2.488338701362013
 10
27.49999998204398
 20
-2.456109306800044
  0
LWPOLYLINE
  5
C7
330
1E
100
AcDbEntity
  8
1
100
AcDbPolyline
 90
      151
 70
     0
 43
0.0
 10
23.4227435807
 20
-4.680233944400016
 10
23.455281952578
 20
-4.70850776170903
 10
23.488310766178
 20
-4.73621399998905
 10
23.517605100349
 20
-4.759982133882036
 10
23.547259967845
 20
-4.783298856643003
 10
23.57726859704299
 20
-4.806156729338002
 10
23.60762477364799
 20
-4.828549448554043
 10
23.63832237477601
 20
-4.850470897121001
 10
23.66935527753898
 20
-4.871914957871013
 10
23.700717175989
 20
-4.892875531893028
 10
23.732401080071
 20
-4.913346588515993
 10
23.764399839962
 20
-4.933322113008046
 10
23.79670630583901
 20
-4.952796090632999
 10
23.82931326501
 20
-4.971762591645018
 10
23.862213201043
 20
-4.990216096905045
 10
23.89539850589498
 20
-5.008151211121004
 10
23.92886157150198
 20
-5.025562539025999
 10
23.95775947245299
 20
-5.040065589346001
 10
23.98685077600798
 20
-5.054176751952012
 10
24.01613035594901
 20
-5.067892976701044
 10
24.04559308587801
 20
-5.081211213638028
 10
24.075233839272
 20
-5.094128412983026
 10
24.10504742147399
 20
-5.106641621411028
 10
24.13502845684201
 20
-5.118748141821016
 10
24.16517154001001
 20
-5.130445319183026
 10
24.19547126561699
 20
-5.141730498469033
 10
24.225922224819
 20
-5.152601030674021
 10
24.25651890222801
 20
-5.16305445124999
 10
24.287255658696
 20
-5.17308850990503
 10
24.31812684813099
 20
-5.182700968371026
 10
24.349126824441
 20
-5.191889588381005
 10
24.380249926827
 20
-5.200652164378995
 10
24.41149037269301
 20
-5.208986761721009
 10
24.44284231926998
 20
-5.216891579617028
 10
24.474299923361
 20
-5.224364818223023
 10
24.50585734174099
 20
-5.231404677775005
 10
24.53750869646301
 20
-5.238009459469028
 10
24.56924800677799
 20
-5.244177763409994
 10
24.60106927300198
 20
-5.249908244755036
 10
24.63296649545001
 20
-5.255199558659001
 10
24.664933672895
 20
-5.260050367186011
 10
24.696964757546
 20
-5.264459540569023
 10
24.729053647943
 20
-5.268426188973026
 10
24.76119423965601
 20
-5.271949435858005
 10
24.793380428251
 20
-5.275028404687021
 10
24.825606103592
 20
-5.277662259613011
 10
24.857865113468
 20
-5.279850464921028
 10
24.890151286841
 20
-5.281592619186996
 10
24.922458452585
 20
-5.282888321618034
 10
24.95478043956799
 20
-5.283737171720018
 10
24.98711107363599
 20
-5.28413889134299
 10
25.019444173002
 20
-5.284093511649021
 10
25.051773554689
 20
-5.283601111933026
 10
25.084093035723
 20
-5.282661771489018
 10
25.11639643377999
 20
-5.281275580545012
 10
25.14867758052599
 20
-5.27944286340204
 10
25.180930321059
 20
-5.277164169195033
 10
25.21314850102401
 20
-5.274440056141034
 10
25.24532596606301
 20
-5.271271082458041
 10
25.27745657042499
 20
-5.267657858532006
 10
25.30953421928798
 20
-5.263601303493034
 10
25.34155283649598
 20
-5.259102449636031
 10
25.373506345923
 20
-5.254162329423992
 10
25.405388671669
 20
-5.248781976159027
 10
25.43719377493001
 20
-5.242962560532021
 10
25.46891569491001
 20
-5.236705542121002
 10
25.500548480667
 20
-5.230012416996999
 10
25.532086181257
 20
-5.222884681233042
 10
25.563522850722
 20
-5.215323844479996
 10
25.594852629
 20
-5.207331650415996
 10
25.626069728458
 20
-5.198910040068032
 10
25.657168363733
 20
-5.19006096063703
 10
25.68814274945999
 20
-5.180786359325
 10
25.718987126109
 20
-5.17108823479305
 10
25.74969587598001
 20
-5.160968868237037
 10
25.7802634298
 20
-5.150430637313039
 10
25.81068421833399
 20
-5.139475919758012
 10
25.840952672759
 20
-5.128107093982011
 10
25.871063297342
 20
-5.116326658147047
 10
25.90101075314401
 20
-5.104137367302999
 10
25.930789721497
 20
-5.091542009720003
 10
25.96039488373701
 20
-5.078543373665016
 10
25.98982092781902
 20
-5.065144255912002
 10
26.01906268617097
 20
-5.051347638794997
 10
26.048115131447
 20
-5.037156684756044
 10
26.076973242078
 20
-5.022574563654021
 10
26.110388721115
 20
-5.00507192625804
 10
26.143524958156
 20
-4.987046298431041
 10
26.176374406289
 20
-4.968503169529016
 10
26.20892961620699
 20
-4.949448133044032
 10
26.241183138609
 20
-4.929886782471045
 10
26.273127593151
 20
-4.909824771192006
 10
26.304755981416
 20
-4.889268084242021
 10
26.33606143645801
 20
-4.868222820830001
 10
26.367037091454
 20
-4.846695080268037
 10
26.397676133013
 20
-4.824690999059043
 10
26.427972148135
 20
-4.802216992396043
 10
26.45791890545901
 20
-4.779279601902036
 10
26.48751017452799
 20
-4.755885369827012
 10
26.51673975902399
 20
-4.732040857778999
 10
26.54560185251598
 20
-4.707752848447002
 10
26.57812998348001
 20
-4.679460947151032
 10
26.610162575811
 20
-4.650609165122037
 10
26.64169143895199
 20
-4.621207882864043
 10
26.672709072619
 20
-4.591267772838026
 10
26.70320826730101
 20
-4.560799630492001
 10
26.73318181513801
 20
-4.529814251906034
 10
26.762622790987
 20
-4.498322523008027
 10
26.791524995509
 20
-4.466335560403027
 10
26.819882344226
 20
-4.43386451719704
 10
26.847688769097
 20
-4.400920549744002
 10
26.874938719203
 20
-4.367514916598
 10
26.90162725227398
 20
-4.333658996592025
 10
26.92774946093702
 20
-4.29936417546003
 10
26.953300501374
 20
-4.26464184502203
 10
26.975185854578
 20
-4.233918121595992
 10
26.99662825291901
 20
-4.20288356431303
 10
27.017625218251
 20
-4.171545878258029
 10
27.03817428302
 20
-4.139912768420006
 10
27.058273337075
 20
-4.107991936551004
 10
27.077920705394
 20
-4.075791080461046
 10
27.09711473927602
 20
-4.043317897724026
 10
27.115853790021
 20
-4.010580085911047
 10
27.13413635273302
 20
-3.977585324934013
 10
27.15196148532498
 20
-3.944341225581015
 10
27.16932838337402
 20
-3.910855381735021
 10
27.186236242457
 20
-3.877135387277008
 10
27.20268427828
 20
-3.843188831767011
 10
27.218672124402
 20
-3.809023215068011
 10
27.234199808606
 20
-3.774645952410995
 10
27.24926737407701
 20
-3.740064455726044
 10
27.263874863997
 20
-3.705286136940006
 10
27.278022440057
 20
-3.670318366822018
 10
27.291710833709
 20
-3.635168318262006
 10
27.304940947424
 20
-3.599843104752041
 10
27.317713683704
 20
-3.564349839774026
 10
27.330029946653
 20
-3.528695636249042
 10
27.34189089452899
 20
-3.492887518159024
 10
27.35329821564401
 20
-3.456932323997026
 10
27.364253664624
 20
-3.420836869046016
 10
27.374758996099
 20
-3.384607968591015
 10
27.384815973803
 20
-3.348252430124037
 10
27.39442673257999
 20
-3.311776743558028
 10
27.40359389943
 20
-3.275186977641001
 10
27.413530901192
 20
-3.233238161044028
 10
27.42289596507601
 20
-3.191157247001005
 10
27.431693151009
 20
-3.148953317327995
 10
27.439927156859
 20
-3.106635934610042
 10
27.44760296182301
 20
-3.064214873449033
 10
27.45472554633201
 20
-3.021699909375004
 10
27.45807941209799
 20
-3.000420151604032
  0
LWPOLYLINE
  5
160
330
1E
100
AcDbEntity
  8
1
100
AcDbPolyline
 90
        7
 70
     0
 43
0.0
 10
22.52855291779999
 20
4.995998398699949
 10
22.547393700411
 20
4.99503705249196
 10
22.576000593048
 20
4.993866387546965
 10
22.614600485022
 20
4.99267312747298
 10
22.66186430082699
 20
4.991684148580983
 10
22.716015517503
 20
4.991093598268999
 10
22.75591396479801
 20
4.99097559802948
  0
LWPOLYLINE
  5
169
330
1E
100
AcDbEntity
  8
1
100
AcDbPolyline
 90
        7
 70
     0
 43
0.0
 10
22.52855291779999
 20
-4.995998398700011
 10
22.54739370040501
 20
-4.995037052369013
 10
22.576000593048
 20
-4.993866387558003
 10
22.614600485018
 20
-4.992673127372031
 10
22.66186430082699
 20
-4.991684148585023
 10
22.716015517503
 20
-4.991093598258033
 10
22.75040684789999
 20
-4.990991885407995
  0
LWPOLYLINE
  5
172
330
1E
100
AcDbEntity
  8
1
100
AcDbPolyline
 90
      124
 70
     0
 43
0.0
 10
22.92886236009997
 20
-4.664761515900011
 10
22.92826921041501
 20
-4.664001344511008
 10
22.92769151531401
 20
-4.66322816346201
 10
22.92713059836501
 20
-4.662441961317997
 10
22.92658778314
 20
-4.661642726644005
 10
22.92619334718599
 20
-4.661034741161018
 10
22.925810396342
 20
-4.660419413622038
 10
22.92543948898702
 20
-4.659796739204011
 10
22.925081183502
 20
-4.659166713080995
 10
22.924736038269
 20
-4.658529330430043
 10
22.924404611669
 20
-4.657884586426009
 10
22.924087462083
 20
-4.657232476244021
 10
22.92378514839499
 20
-4.656572997694015
 10
22.923498257234
 20
-4.655906293603037
 10
22.923227416855
 20
-4.655232724412032
 10
22.92297325894199
 20
-4.654552668466012
 10
22.922736415177
 20
-4.653866504112047
 10
22.92251751724398
 20
-4.65317460969601
 10
22.922317196823
 20
-4.652477363565028
 10
22.92213608559899
 20
-4.651775144064004
 10
22.921974815253
 20
-4.651068329540011
 10
22.921834017468
 20
-4.650357298339033
 10
22.921714323927
 20
-4.649642428806997
 10
22.92164656475399
 20
-4.64916390355103
 10
22.921588641837
 20
-4.648683959115034
 10
22.921540616313
 20
-4.648202779825
 10
22.921502482635
 20
-4.647720588224045
 10
22.921474234431
 20
-4.647237607326021
 10
22.92145586532901
 20
-4.646754060147033
 10
22.921447368955
 20
-4.646270169702005
 10
22.92144873893799
 20
-4.645786159007005
 10
22.921459968904
 20
-4.645302251077001
 10
22.921481052482
 20
-4.644818668926006
 10
22.921511983299
 20
-4.644335635570032
 10
22.92155275498199
 20
-4.643853374025012
 10
22.92160336116001
 20
-4.643372107305028
 10
22.92166379545899
 20
-4.642892058426013
 10
22.921734051507
 20
-4.642413450403013
 10
22.92181412293102
 20
-4.641936506252023
 10
22.921904003242
 20
-4.641461448912994
 10
22.92200363799198
 20
-4.640988471755012
 10
22.92217098942002
 20
-4.640283162102038
 10
22.92235923623799
 20
-4.639583160553002
 10
22.92256772170599
 20
-4.638888828011035
 10
22.92279578907999
 20
-4.638200525379033
 10
22.92304278161898
 20
-4.637518613560021
 10
22.923308042579
 20
-4.636843453456036
 10
22.92359091522
 20
-4.636175405969995
 10
22.923890742798
 20
-4.635514832006037
 10
22.924206868571
 20
-4.634862092467018
 10
22.92453863614297
 20
-4.634217546805022
 10
22.92488542154399
 20
-4.633581418631026
 10
22.92524665923699
 20
-4.632953686761028
 10
22.92562178980701
 20
-4.632334304368042
 10
22.92601025383598
 20
-4.631723224626001
 10
22.92641149191
 20
-4.631120400708994
 10
22.926824944611
 20
-4.630525785792032
 10
22.92725005252399
 20
-4.629939333048016
 10
22.927834026514
 20
-4.629170011836039
 10
22.928436400339
 20
-4.628415006913033
 10
22.92905584797698
 20
-4.627674207284033
 10
22.929691107961
 20
-4.626947479731997
 10
22.93034131510298
 20
-4.626234554639043
 10
22.9310057545
 20
-4.625535110656016
 10
22.931683711532
 20
-4.624848826336005
 10
22.93254907832098
 20
-4.624008987008041
 10
22.933433054087
 20
-4.623188579567
 10
22.934334243091
 20
-4.622386976187046
 10
22.935251249593
 20
-4.621603549041995
 10
22.93618268121601
 20
-4.620837670890011
 10
22.93712740106298
 20
-4.620088758868009
 10
22.93808470277602
 20
-4.619356304900011
 10
22.93905392138599
 20
-4.618639808100001
 10
22.940034391924
 20
-4.617938767584006
 10
22.941224872838
 20
-4.617117216011026
 10
22.942429449906
 20
-4.616316334679028
 10
22.94364697406199
 20
-4.615535258058002
 10
22.944876296817
 20
-4.614773120907044
 10
22.94611643304
 20
-4.61402913987803
 10
22.947576131679
 20
-4.613183325091028
 10
22.94904887386
 20
-4.612360529480041
 10
22.95053379885402
 20
-4.611559861850028
 10
22.952030045936
 20
-4.610780431009003
 10
22.95353675437799
 20
-4.610021345761992
 10
22.95527041257197
 20
-4.609177589515015
 10
22.957015410234
 20
-4.608357978028039
 10
22.958770982185
 20
-4.607561581255028
 10
22.960757860864
 20
-4.606692359265994
 10
22.962756439326
 20
-4.605850305633
 10
22.964765826454
 20
-4.605034248927041
 10
22.96701007180498
 20
-4.604156584687021
 10
22.96926535041901
 20
-4.603307974369045
 10
22.97153073511798
 20
-4.602487114011013
 10
22.97403357189701
 20
-4.601615019329018
 10
22.97654703781998
 20
-4.600773965320001
 10
22.979300148678
 20
-4.59989030233203
 10
22.982063845527
 20
-4.599040295246028
 10
22.985068576238
 20
-4.598155482257994
 10
22.98808351814499
 20
-4.597306509730002
 10
22.99134096370098
 20
-4.596430746488011
 10
22.994608505077
 20
-4.595593266287041
 10
22.998119619901
 20
-4.594736518556032
 10
23.001640179961
 20
-4.593919682248045
 10
23.005404810834
 20
-4.593090342286018
 10
23.00941448077396
 20
-4.592254800965007
 10
23.013433325853
 20
-4.591464379919044
 10
23.017697588035
 20
-4.590674495054033
 10
23.02220767399401
 20
-4.58989072708499
 10
23.02696392784501
 20
-4.589118689782027
 10
23.031728365926
 20
-4.588398940841047
 10
23.03673893187399
 20
-4.587697247029042
 10
23.04199575876001
 20
-4.587018983385006
 10
23.04749877961298
 20
-4.586369255824991
 10
23.053248000118
 20
-4.585753457820033
 10
23.05924339415998
 20
-4.585177038472012
 10
23.06548474595699
 20
-4.584645158344018
 10
23.071971640678
 20
-4.584162657316995
 10
23.07870369469501
 20
-4.583734559815012
 10
23.08568055694898
 20
-4.583366065720043
 10
23.092901713074
 20
-4.583062097963023
 10
23.10036648207101
 20
-4.582827330008003
 10
23.108074125733
 20
-4.582666733675011
 10
23.11602378055498
 20
-4.582585286517032
 10
23.11986825080001
 20
-4.582575694964021
  0
LWPOLYLINE
  5
1F0
330
1E
100
AcDbEntity
  8
1
100
AcDbPolyline
 90
       96
 70
     0
 43
0.0
 10
22.8434567756
 20
-4.990991885400037
 10
22.84670475632001
 20
-4.990215938587028
 10
22.849945215828
 20
-4.989402510207016
 10
22.853177257332
 20
-4.98855103532003
 10
22.856399984043
 20
-4.987660948985026
 10
22.859612499169
 20
-4.986731686263
 10
22.86281390591998
 20
-4.985762682211032
 10
22.866003307504
 20
-4.984753371891033
 10
22.86889159115898
 20
-4.983800365158002
 10
22.871768538268
 20
-4.98281315611803
 10
22.87463347505798
 20
-4.981791320322996
 10
22.877485727757
 20
-4.980734433325038
 10
22.880324622593
 20
-4.979642070675028
 10
22.883149485794
 20
-4.978513807925027
 10
22.88595964358699
 20
-4.977349220628012
 10
22.888754422201
 20
-4.976147884335036
 10
22.89153314786402
 20
-4.97490937459804
 10
22.894295146802
 20
-4.973633266969046
 10
22.896766071748
 20
-4.972452307876038
 10
22.89922229672999
 20
-4.971240491806041
 10
22.90166320526999
 20
-4.969997783785006
 10
22.904088180875
 20
-4.968724148871046
 10
22.906496607055
 20
-4.967419552122011
 10
22.908887867317
 20
-4.966083958596018
 10
22.911261345169
 20
-4.964717333351018
 10
22.91361642411799
 20
-4.963319641445028
 10
22.915952487674
 20
-4.961890847935021
 10
22.918268919344
 20
-4.960430917880047
 10
22.920565102635
 20
-4.958939816337023
 10
22.922840421057
 20
-4.957417508364018
 10
22.925094258117
 20
-4.95586395901904
 10
22.92732599732302
 20
-4.954279133360047
 10
22.92953502218201
 20
-4.952662996445043
 10
22.931720716204
 20
-4.951015513332039
 10
22.933882462896
 20
-4.949336649078021
 10
22.93601964576601
 20
-4.947626368742024
 10
22.938131686059
 20
-4.945884721260997
 10
22.940218160037
 20
-4.944112100122028
 10
22.942506012287
 20
-4.94210678012604
 10
22.94476130050397
 20
-4.940064477135026
 10
22.946983498016
 20
-4.937985852251018
 10
22.94917207815101
 20
-4.935871566570996
 10
22.95132651423398
 20
-4.933722281196994
 10
22.95344627959301
 20
-4.931538657227007
 10
22.95553084755599
 20
-4.929321355762001
 10
22.95757969144899
 20
-4.927071037900021
 10
22.95959228459899
 20
-4.92478836474203
 10
22.96156810033298
 20
-4.922473997388011
 10
22.96350661198001
 20
-4.920128596936025
 10
22.96521894216998
 20
-4.91799174963103
 10
22.96690024550001
 20
-4.915830782949003
 10
22.96855013804401
 20
-4.913646178838008
 10
22.97016834232699
 20
-4.911438448905018
 10
22.97175493531401
 20
-4.909208203519031
 10
22.97331006765201
 20
-4.906956073575996
 10
22.97483388998899
 20
-4.904682689973013
 10
22.97632655297
 20
-4.902388683609046
 10
22.97778820724198
 20
-4.900074685379993
 10
22.97921900345301
 20
-4.897741326182996
 10
22.98077276869398
 20
-4.895126764894032
 10
22.98228883019401
 20
-4.892489945489047
 10
22.98376739460199
 20
-4.889831733399035
 10
22.985208668566
 20
-4.887152994051009
 10
22.98661285873499
 20
-4.884454592874023
 10
22.987980171756
 20
-4.881737395297023
 10
22.989310814279
 20
-4.879002266748044
 10
22.99060499295199
 20
-4.876250072655014
 10
22.99186291442302
 20
-4.873481678447038
 10
22.993084802601
 20
-4.870697932811028
 10
22.994271073788
 20
-4.867899497822007
 10
22.995422264587
 20
-4.865086918865018
 10
22.996538913446
 20
-4.862260739541
 10
22.99762155881001
 20
-4.859421503451016
 10
22.99877383730899
 20
-4.856283911972012
 10
22.99988633977198
 20
-4.853131903093016
 10
23.00095978286801
 20
-4.849966200346044
 10
23.00199488327101
 20
-4.846787527261996
 10
23.002992357652
 20
-4.843596607374025
 10
23.004038441329
 20
-4.840102486620028
 10
23.005041530263
 20
-4.836595591560014
 10
23.00600255488999
 20
-4.833076861536031
 10
23.006922445643
 20
-4.829547235889037
 10
23.007802132958
 20
-4.826007653958016
 10
23.008710833397
 20
-4.822162940222031
 10
23.00957454068201
 20
-4.818308473685021
 10
23.01039429817699
 20
-4.814444848870039
 10
23.01122915789
 20
-4.810274453960007
 10
23.012015555528
 20
-4.80609485282804
 10
23.012754792201
 20
-4.80190677928704
 10
23.013495975466
 20
-4.797410989553045
 10
23.01418611378998
 20
-4.792907218785048
 10
23.01486780155799
 20
-4.788095416688007
 10
23.015495174497
 20
-4.783276656231011
 10
23.01610441770201
 20
-4.778150324155038
 10
23.016656866664
 20
-4.773018687173021
 10
23.01698421495
 20
-4.769705961881016
  0
LWPOLYLINE
  5
252
330
1E
100
AcDbEntity
  8
1
100
AcDbPolyline
 90
       62
 70
     0
 43
0.0
 10
23.17038255359998
 20
-4.582575694900016
 10
23.174530886295
 20
-4.582599199607044
 10
23.178679222899
 20
-4.58266968849904
 10
23.18282693492599
 20
-4.582787123730041
 10
23.18697339389
 20
-4.582951467453995
 10
23.19111797130401
 20
-4.583162681824036
 10
23.195260038683
 20
-4.583420728996032
 10
23.19939896754
 20
-4.583725571122045
 10
23.20353412938899
 20
-4.584077170358002
 10
23.207664905917
 20
-4.584475483511027
 10
23.21179076423999
 20
-4.584920422485028
 10
23.215911214173
 20
-4.585411876742001
 10
23.22002576584698
 20
-4.585949735578995
 10
23.224133929393
 20
-4.586533888291
 10
23.228235214944
 20
-4.587164224174046
 10
23.232329132628
 20
-4.587840632524033
 10
23.23641519257999
 20
-4.588563002636023
 10
23.240492904695
 20
-4.58933122168304
 10
23.244561775047
 20
-4.590145141968039
 10
23.24862130658202
 20
-4.591004587282045
 10
23.25267100215
 20
-4.591909380578043
 10
23.25671036460601
 20
-4.592859344813009
 10
23.26073889680201
 20
-4.593854302939009
 10
23.26475610159
 20
-4.59489407791
 10
23.268761481824
 20
-4.595978492682037
 10
23.27302029468599
 20
-4.597184204353028
 10
23.277264509757
 20
-4.598440257573999
 10
23.28149357628298
 20
-4.599746369276998
 10
23.28570694520398
 20
-4.601102254192997
 10
23.289904067459
 20
-4.602507627055048
 10
23.29408439398799
 20
-4.603962202594003
 10
23.29824737572999
 20
-4.605465695542021
 10
23.30239246362598
 20
-4.607017820631996
 10
23.30651911142101
 20
-4.608618289523009
 10
23.31062680281799
 20
-4.610266781079022
 10
23.314715039654
 20
-4.611962954309037
 10
23.31903691794001
 20
-4.613817001608992
 10
23.32333567453101
 20
-4.615724082456042
 10
23.32761071220101
 20
-4.617683787510999
 10
23.33186143372598
 20
-4.619695707438042
 10
23.33608724191698
 20
-4.621759432866044
 10
23.34028755540699
 20
-4.623874539423012
 10
23.34446183309101
 20
-4.626040564568994
 10
23.348609540175
 20
-4.628257039780011
 10
23.352971674661
 20
-4.630658364020009
 10
23.357302786264
 20
-4.633115166762993
 10
23.361602240159
 20
-4.635626891843005
 10
23.365869401514
 20
-4.638192983097042
 10
23.37010365157201
 20
-4.640812882656008
 10
23.37430444946298
 20
-4.643486024398042
 10
23.37870176194499
 20
-4.646364806904045
 10
23.38306061733999
 20
-4.649301609410998
 10
23.387380407259
 20
-4.652295763165001
 10
23.39166052331
 20
-4.655346599414033
 10
23.395900357084
 20
-4.658453449348033
 10
23.400319137881
 20
-4.661783552022995
 10
23.404691828606
 20
-4.665173988246011
 10
23.40901765518599
 20
-4.668623790210006
 10
23.413508488581
 20
-4.672308915689031
 10
23.417945904759
 20
-4.676057304536018
 10
23.422329007637
 20
-4.679867836394011
 10
23.42273608947202
 20
-4.680227320086033
  0
LWPOLYLINE
  5
292
330
1E
100
AcDbEntity
  8
1
100
AcDbPolyline
 90
        5
 70
     0
 43
0.0
 10
23.53471315429997
 20
0.5112119999999977
 10
23.50337207937398
 20
0.5113694121869771
 10
23.47192100553699
 20
0.5118434856659606
 10
23.440476622058
 20
0.5126335994789856
 10
23.4228108676
 20
0.5132160815749644
  0
LWPOLYLINE
  5
299
330
1E
100
AcDbEntity
  8
1
100
AcDbPolyline
 90
        2
 70
     0
 43
0.0
 10
23.422800874
 20
0.5132164392999785
 10
23.41450794101699
 20
0.5135242828139867
  0
LWPOLYLINE
  5
29D
330
1E
100
AcDbEntity
  8
1
100
AcDbPolyline
 90
       17
 70
     0
 43
0.0
 10
23.41449794839999
 20
0.5135246669999533
 10
23.382214635056
 20
0.5149325132679765
 10
23.35042780743199
 20
0.516644939965997
 10
23.31865943676799
 20
0.5186809242690033
 10
23.286913424786
 20
0.5210408774229877
 10
23.25519354071301
 20
0.5237254316019718
 10
23.22350323371499
 20
0.5267357526599854
 10
23.19184590559199
 20
0.5300730854389684
 10
23.16070377673401
 20
0.5336806839050015
 10
23.129600294499
 20
0.5376081132440022
 10
23.098538992512
 20
0.5418572231689584
 10
23.06800021902201
 20
0.5463570918399771
 10
23.037509183842
 20
0.5511724565519645
 10
23.007069788522
 20
0.556305315093991
 10
22.97716079746
 20
0.5616702202059943
 10
22.94731049110199
 20
0.5673470541719868
 10
22.93596508697298
 20
0.5695901919719946
  0
LWPOLYLINE
  5
2B0
330
1E
100
AcDbEntity
  8
1
100
AcDbPolyline
 90
        2
 70
     0
 43
0.0
 10
13.9870588837
 20
-5.000000114399997
 10
14.6408096316
 20
-4.995998398701035
  0
LWPOLYLINE
  5
2B4
330
1E
100
AcDbEntity
  8
1
100
AcDbPolyline
 90
        2
 70
     0
 43
0.0
 10
13.9870588837
 20
5.000000114499978
 10
14.6408096316
 20
4.995998398701996
  0
LWPOLYLINE
  5
2B8
330
1E
100
AcDbEntity
  8
1
100
AcDbPolyline
 90
       67
 70
     0
 43
0.0
 10
13.68413111960001
 20
4.96386945839998
 10
13.68378716623701
 20
4.964411141216997
 10
13.68346387297499
 20
4.964975795903963
 10
13.683165743315
 20
4.965560211134
 10
13.68289728075799
 20
4.966161175582952
 10
13.682662988806
 20
4.96677547792296
 10
13.682467370961
 20
4.967399906828967
 10
13.68231493072499
 20
4.968031250973976
 10
13.682210171599
 20
4.968666299032006
 10
13.682157597084
 20
4.969301839677994
 10
13.68216171068201
 20
4.969934661583971
 10
13.68222659814
 20
4.970561623603996
 10
13.68235116949199
 20
4.971180454048973
 10
13.68253083746501
 20
4.971789468741005
 10
13.682760948961
 20
4.972386994558005
 10
13.68303685088299
 20
4.972971358378
 10
13.68335389013298
 20
4.973540887080955
 10
13.68370741361399
 20
4.974093907544951
 10
13.684092768227
 20
4.974628746648986
 10
13.68450530087599
 20
4.975143731270007
 10
13.684940358462
 20
4.975637188287971
 10
13.68539345579
 20
4.976107577768967
 10
13.685862185838
 20
4.976555008272951
 10
13.686345544865
 20
4.976980701498971
 10
13.686842555489
 20
4.977385900062981
 10
13.687352240334
 20
4.977771846575988
 10
13.68787362201899
 20
4.978139783652974
 10
13.68840572316599
 20
4.978490953906995
 10
13.68894756639601
 20
4.978826599950988
 10
13.68949817432999
 20
4.979147964398975
 10
13.690338382036
 20
4.979605951292962
 10
13.69119281256899
 20
4.980038794296999
 10
13.69205816727699
 20
4.980450687228992
 10
13.692931147874
 20
4.980845823462966
 10
13.694102767817
 20
4.981352056350996
 10
13.69528209151199
 20
4.981836413783978
 10
13.696468638072
 20
4.982299949870988
 10
13.69766192661001
 20
4.982743718720993
 10
13.69886147624099
 20
4.983168774442956
 10
13.700066806077
 20
4.983576171144986
 10
13.70158086418699
 20
4.984062189894981
 10
13.70310226325299
 20
4.984524322276966
 10
13.70463006404401
 20
4.984964627098971
 10
13.706470580366
 20
4.985467028693958
 10
13.708317917864
 20
4.985943458206971
 10
13.71017147252898
 20
4.986395600354962
 10
13.71234102703799
 20
4.986894610026976
 10
13.71451731131799
 20
4.987365440593971
 10
13.71701153719897
 20
4.987872397544999
 10
13.719824857728
 20
4.988407714055992
 10
13.72327108901999
 20
4.989019510732985
 10
13.72703717261301
 20
4.98964281204496
 10
13.73112364622699
 20
4.990271056387994
 10
13.73553125008901
 20
4.990897632726952
 10
13.74057596448899
 20
4.991556771414987
 10
13.746259113663
 20
4.992234993833958
 10
13.752581490251
 20
4.992921065601988
 10
13.75986058762799
 20
4.993632055490988
 10
13.768414563942
 20
4.994374224863006
 10
13.77887835823701
 20
4.995169584552
 10
13.79093585844898
 20
4.995959277381981
 10
13.80554077230699
 20
4.996762705827959
 10
13.82364732481301
 20
4.997572750014962
 10
13.846528217054
 20
4.998360747161994
 10
13.87704484649199
 20
4.999102619580979
 10
13.92092094384
 20
4.999721103649958
 10
13.98704888369999
 20
5.000000114953988
  0
LWPOLYLINE
  5
2FD
330
1E
100
AcDbEntity
  8
1
100
AcDbPolyline
 90
       10
 70
     0
 43
0.0
 10
7.0
 20
2.999999999999998
 10
6.920432908842997
 20
3.130815208986004
 10
6.832699386600013
 20
3.271237842874993
 10
6.735587106042002
 20
3.422578478969966
 10
6.627831945275005
 20
3.586111022400983
 10
6.507118044297017
 20
3.764539122287998
 10
6.371020291210014
 20
3.960481437633971
 10
6.215970334394993
 20
4.177918063047001
 10
6.038239870094002
 20
4.420699652186953
 10
6.000005976142007
 20
4.472127937161983
  0
LWPOLYLINE
  5
309
330
1E
100
AcDbEntity
  8
1
100
AcDbPolyline
 90
       10
 70
     0
 43
0.0
 10
5.999999999999999
 20
-4.472135954999997
 10
6.183599088029011
 20
-4.222620068483021
 10
6.342285260881991
 20
-4.001217130548013
 10
6.481911740011012
 20
-3.801223663926009
 10
6.605055831805002
 20
-3.620141460344995
 10
6.715170340757992
 20
-3.453899913617021
 10
6.814571816723997
 20
-3.299798133307032
 10
6.903584973421999
 20
-3.158076546581013
 10
6.984396560611996
 20
-3.025934276621002
 10
6.999994855039004
 20
-3.000008574926993
  0
LWPOLYLINE
  5
315
330
1E
100
AcDbEntity
  8
1
100
AcDbPolyline
 90
       14
 70
     0
 43
0.0
 10
22.57887908579998
 20
0.9239136653999906
 10
22.571082328009
 20
0.9331049467759811
 10
22.563119706952
 20
0.9427632273699911
 10
22.555001289222
 20
0.9528935477439944
 10
22.54673656895498
 20
0.9634996893680039
 10
22.538334312948
 20
0.9745840589919763
 10
22.52952848133998
 20
0.9865232601029532
 10
22.520337635131
 20
0.9993286177559607
 10
22.510514589053
 20
1.013390397234954
 10
22.49982756844699
 20
1.029108131875997
 10
22.48780372344298
 20
1.047277782244971
 10
22.473747065145
 20
1.069103103045957
 10
22.455282085554
 20
1.098561522589986
 10
22.32500375005101
 20
1.311203556138988
  0
TEXT
  5
3E1
330
1E
100
AcDbEntity
  8
6
100
AcDbText
 10
-30.13716953044291
 20
-28.83678597256785
 30
0.0
 40
5.0
  1
15B1D012028X4R00
100
AcDbText
  0
LINE
  5
4F4
330
1E
100
AcDbEntity
  8
SK4
100
AcDbLine
 10
0.0
 20
0.0
 30
0.0
 11
-17.5
 21
0.0000000000000021
 31
0.0
  0
SPLINE
  5
1E81
330
1E
100
AcDbEntity
  8
CUT
100
AcDbSpline
210
0.0
220
0.0
230
1.0
 70
     8
 71
     3
 72
    36
 73
    32
 74
    30
 42
0.0000000001
 43
0.0000000001
 44
0.0000000001
 12
0.9999999734962912
 22
0.0002302333966351
 32
0.0
 13
-0.9999825306741435
 23
-0.0059108668176322
 33
0.0
 40
0.0
 40
0.0
 40
0.0
 40
0.0
 40
0.3247964934909442
 40
0.6496031337201642
 40
0.9743985552165401
 40
1.299160327006253
 40
1.623866204492316
 40
1.948492813460216
 40
2.273011986762816
 40
2.597396057657195
 40
2.921612526776193
 40
3.245627509690571
 40
3.569441146997581
 40
3.893014450658439
 40
4.216287395947714
 40
4.539184434857955
 40
4.861613434857956
 40
5.183454796303312
 40
5.504557588949221
 40
5.824722936921169
 40
6.143684983431399
 40
6.461104813158535
 40
6.776558017149232
 40
7.089472264458298
 40
7.3992791681677
 40
7.705899286180205
 40
8.010877913880563
 40
8.318253867112096
 40
8.632113938540442
 40
8.952691548644445
 40
9.27701356974849
 40
9.27701356974849
 40
9.27701356974849
 40
9.27701356974849
 10
25.00440699999998
 20
6.0
 30
0.0
 10
25.11267249496086
 20
6.000024926333304
 30
0.0
 10
25.32938941316006
 20
5.988265959236445
 30
0.0
 10
25.65052047360896
 20
5.935729892268179
 30
0.0
 10
25.96413362691924
 20
5.848828544834769
 30
0.0
 10
26.26649360307597
 20
5.72860286400905
 30
0.0
 10
26.55406364953631
 20
5.576469226416246
 30
0.0
 10
26.82346092447894
 20
5.394224315689231
 30
0.0
 10
27.07152446551792
 20
5.184027073149618
 30
0.0
 10
27.29534404351988
 20
4.94836978375534
 30
0.0
 10
27.49229378294942
 20
4.69004588231299
 30
0.0
 10
27.66007561272965
 20
4.412113707727251
 30
0.0
 10
27.79673040663141
 20
4.117862659234575
 30
0.0
 10
27.90065988235178
 20
3.810784582163761
 30
0.0
 10
27.97064078957395
 20
3.49455101857037
 30
0.0
 10
28.00585150941593
 20
3.172968539721489
 30
0.0
 10
28.00587991098486
 20
2.849938900454676
 30
0.0
 10
27.97073057908463
 20
2.529425189464253
 30
0.0
 10
27.90082500411744
 20
2.215426086184808
 30
0.0
 10
27.79699811531809
 20
1.911960161143652
 30
0.0
 10
27.66048653564714
 20
1.623066222917316
 30
0.0
 10
27.49291052712412
 20
1.352829314261165
 30
0.0
 10
27.29624224311726
 20
1.105482509376654
 30
0.0
 10
27.07275482838842
 20
0.885567956830723
 30
0.0
 10
26.82488339186331
 20
0.6981828401951358
 30
0.0
 10
26.55495237191409
 20
0.5492158434064184
 30
0.0
 10
26.26539283353431
 20
0.4450868849722405
 30
0.0
 10
25.9607819311899
 20
0.3883316650452586
 30
0.0
 10
25.64707499568123
 20
0.3686935360553718
 30
0.0
 10
25.32747944648935
 20
0.3662225472285913
 30
0.0
 10
25.11251245180564
 20
0.3677850080909148
 30
0.0
 10
25.00440699999998
 20
0.3671459999999911
 30
0.0
 11
25.00440699999998
 21
6.0
 31
0.0
 11
25.328729
 21
5.98245
 31
0.0
 11
25.64927299999999
 21
5.930001000000002
 31
0.0
 11
25.962274
 21
5.843268999999991
 31
0.0
 11
26.26405399999999
 21
5.723272999999991
 31
0.0
 11
26.55106899999998
 21
5.571429999999991
 31
0.0
 11
26.81994799999998
 21
5.389533
 31
0.0
 11
27.06753299999999
 21
5.179737000000002
 31
0.0
 11
27.29092
 21
4.944527999999991
 31
0.0
 11
27.48748799999998
 21
4.686695999999995
 31
0.0
 11
27.65493599999999
 21
4.409302999999994
 31
0.0
 11
27.79132099999998
 21
4.115611999999996
 31
0.0
 11
27.89504199999999
 21
3.809112999999996
 31
0.0
 11
27.964876
 21
3.493472999999993
 31
0.0
 11
28.0
 21
3.172491999999991
 31
0.0
 11
28.0
 21
2.850062999999991
 31
0.0
 11
27.964876
 21
2.53014399999999
 31
0.0
 11
27.89504199999999
 21
2.21672699999999
 31
0.0
 11
27.79132099999998
 21
1.913827999999995
 31
0.0
 11
27.65493599999999
 21
1.625495
 31
0.0
 11
27.48748799999998
 21
1.355834999999999
 31
0.0
 11
27.29092
 21
1.109112999999992
 31
0.0
 11
27.06753299999999
 21
0.889993000000004
 31
0.0
 11
26.81994799999998
 21
0.7037619999999976
 31
0.0
 11
26.55106899999998
 21
0.5563849999999917
 31
0.0
 11
26.26405399999999
 21
0.4532619999999953
 31
0.0
 11
25.962274
 21
0.3948769999999939
 31
0.0
 11
25.64927299999999
 21
0.3716709999999921
 31
0.0
 11
25.328729
 21
0.3670290000000023
 31
0.0
 11
25.00440699999998
 21
0.3671459999999911
 31
0.0
  0
SPLINE
  5
1E82
330
1E
100
AcDbEntity
  8
CUT
100
AcDbSpline
210
0.0
220
0.0
230
1.0
 70
     8
 71
     3
 72
    36
 73
    32
 74
    30
 42
0.0000000001
 43
0.0000000001
 44
0.0000000001
 12
-0.9999999734962912
 22
0.0002302333966351
 32
0.0
 13
0.9999825306741435
 23
-0.0059108668176322
 33
0.0
 40
0.0
 40
0.0
 40
0.0
 40
0.0
 40
0.3247964934909123
 40
0.6496031337201324
 40
0.9743985552165151
 40
1.299160327006238
 40
1.62386620449231
 40
1.948492813460201
 40
2.273011986762788
 40
2.59739605765716
 40
2.921612526776175
 40
3.245627509690538
 40
3.56944114699756
 40
3.893014450658419
 40
4.21628739594769
 40
4.53918443485793
 40
4.861613434857931
 40
5.183454796303285
 40
5.50455758894919
 40
5.824722936921139
 40
6.143684983431382
 40
6.461104813158503
 40
6.776558017149218
 40
7.089472264458276
 40
7.399279168167663
 40
7.70589928618016
 40
8.010877913880527
 40
8.318253867112071
 40
8.632113938540424
 40
8.952691548644427
 40
9.27701356974844
 40
9.27701356974844
 40
9.27701356974844
 40
9.27701356974844
 10
25.00440699999998
 20
6.0
 30
0.0
 10
24.89614150503911
 20
6.000024926333304
 30
0.0
 10
24.67942458683992
 20
5.988265959236439
 30
0.0
 10
24.35829352639104
 20
5.935729892268179
 30
0.0
 10
24.04468037308074
 20
5.848828544834771
 30
0.0
 10
23.74232039692402
 20
5.728602864009047
 30
0.0
 10
23.45475035046366
 20
5.576469226416254
 30
0.0
 10
23.18535307552104
 20
5.394224315689232
 30
0.0
 10
22.93728953448207
 20
5.184027073149618
 30
0.0
 10
22.71346995648012
 20
4.948369783755325
 30
0.0
 10
22.51652021705055
 20
4.690045882313011
 30
0.0
 10
22.34873838727037
 20
4.412113707727232
 30
0.0
 10
22.21208359336856
 20
4.117862659234585
 30
0.0
 10
22.1081541176482
 20
3.81078458216376
 30
0.0
 10
22.03817321042604
 20
3.494551018570371
 30
0.0
 10
22.00296249058407
 20
3.172968539721487
 30
0.0
 10
22.00293408901514
 20
2.849938900454677
 30
0.0
 10
22.03808342091536
 20
2.529425189464254
 30
0.0
 10
22.10798899588253
 20
2.215426086184805
 30
0.0
 10
22.21181588468188
 20
1.911960161143643
 30
0.0
 10
22.34832746435289
 20
1.623066222917333
 30
0.0
 10
22.51590347287584
 20
1.352829314261145
 30
0.0
 10
22.71257175688275
 20
1.105482509376667
 30
0.0
 10
22.93605917161157
 20
0.8855679568307238
 30
0.0
 10
23.18393060813666
 20
0.6981828401951348
 30
0.0
 10
23.45386162808589
 20
0.5492158434064139
 30
0.0
 10
23.74342116646567
 20
0.4450868849722411
 30
0.0
 10
24.04803206881007
 20
0.3883316650452588
 30
0.0
 10
24.36173900431878
 20
0.368693536055372
 30
0.0
 10
24.68133455351062
 20
0.3662225472285912
 30
0.0
 10
24.89630154819433
 20
0.3677850080909148
 30
0.0
 10
25.00440699999998
 20
0.3671459999999911
 30
0.0
 11
25.00440699999998
 21
6.0
 31
0.0
 11
24.68008499999999
 21
5.98245
 31
0.0
 11
24.359541
 21
5.930001000000002
 31
0.0
 11
24.04653999999998
 21
5.843268999999991
 31
0.0
 11
23.74475999999998
 21
5.723272999999991
 31
0.0
 11
23.45774499999998
 21
5.571429999999991
 31
0.0
 11
23.18886599999999
 21
5.389533
 31
0.0
 11
22.941281
 21
5.179737000000002
 31
0.0
 11
22.717894
 21
4.944527999999991
 31
0.0
 11
22.52132599999999
 21
4.686695999999995
 31
0.0
 11
22.35387800000001
 21
4.409302999999994
 31
0.0
 11
22.21749299999999
 21
4.115611999999996
 31
0.0
 11
22.11377199999998
 21
3.809112999999996
 31
0.0
 11
22.04393799999999
 21
3.493472999999993
 31
0.0
 11
22.008814
 21
3.172491999999991
 31
0.0
 11
22.008814
 21
2.850062999999991
 31
0.0
 11
22.04393799999999
 21
2.53014399999999
 31
0.0
 11
22.11377199999998
 21
2.21672699999999
 31
0.0
 11
22.21749299999999
 21
1.913827999999995
 31
0.0
 11
22.35387800000001
 21
1.625495
 31
0.0
 11
22.52132599999999
 21
1.355834999999999
 31
0.0
 11
22.717894
 21
1.109112999999992
 31
0.0
 11
22.941281
 21
0.889993000000004
 31
0.0
 11
23.18886599999999
 21
0.7037619999999976
 31
0.0
 11
23.45774499999998
 21
0.5563849999999917
 31
0.0
 11
23.74475999999998
 21
0.4532619999999953
 31
0.0
 11
24.04653999999998
 21
0.3948769999999939
 31
0.0
 11
24.359541
 21
0.3716709999999921
 31
0.0
 11
24.68008499999999
 21
0.3670290000000023
 31
0.0
 11
25.00440699999998
 21
0.3671459999999911
 31
0.0
  0
LINE
  5
1E91
330
1E
100
AcDbEntity
  8
NOCUT
100
AcDbLine
 10
23.17038255360003
 20
5.0
 30
0.0
 11
7.000000000000027
 21
5.0
 31
0.0
  0
LINE
  5
1E92
330
1E
100
AcDbEntity
  8
NOCUT
100
AcDbLine
 10
27.5
 20
-0.0000000000000142
 30
0.0
 11
0.0
 21
0.0
 31
0.0
  0
LINE
  5
1E93
330
1E
100
AcDbEntity
  8
NOCUT
100
AcDbLine
 10
0.0000000000000284
 20
0.0
 30
0.0
 11
0.0000000000000284
 21
5.799999999999998
 31
0.0
  0
LINE
  5
1E94
330
1E
100
AcDbEntity
  8
NOCUT
100
AcDbLine
 10
6.000000000000027
 20
6.0
 30
0.0
 11
0.2000000000000455
 21
6.0
 31
0.0
  0
ARC
  5
1E95
330
1E
100
AcDbEntity
  8
NOCUT
100
AcDbCircle
 10
0.2000000000000455
 20
5.799999999999998
 30
0.0
 40
0.2
100
AcDbArc
 50
90.0
 51
180.0
  0
LINE
  5
1E96
330
1E
100
AcDbEntity
  8
NOCUT
100
AcDbLine
 10
7.000000000000027
 20
5.0
 30
0.0
 11
6.000000000000027
 21
6.0
 31
0.0
  0
ARC
  5
1E97
330
1E
100
AcDbEntity
  8
NOCUT
100
AcDbCircle
 10
25.00000000000005
 20
3.149999999999991
 30
0.0
 40
2.5
100
AcDbArc
 50
0.0
 51
129.1167437796
  0
LINE
  5
1E98
330
1E
100
AcDbEntity
  8
NOCUT
100
AcDbLine
 10
27.50000000000005
 20
3.149999999999991
 30
0.0
 11
27.5
 21
-0.0000000000000142
 31
0.0
  0
ARC
  5
1E99
330
1E
100
AcDbEntity
  8
NOCUT
100
AcDbCircle
 10
23.17038255360003
 20
5.399999999999991
 30
0.0
 40
0.4
100
AcDbArc
 50
270.0
 51
309.1167437795999
  0
TEXT
  5
1EA1
330
1E
100
AcDbEntity
  8
6
100
AcDbText
 10
51.1340630959831
 20
-3.368438002063653
 30
0.0
 40
3.5
  1
Z=2
 50
90.0
100
AcDbText
  0
TEXT
  5
1EA2
330
1E
100
AcDbEntity
  8
6
100
AcDbText
 10
23.41895436426931
 20
9.870588620652199
 30
0.0
 40
2.5
  1
RHHW0602M0TN
100
AcDbText
  0
LWPOLYLINE
  5
2036
330
1E
100
AcDbEntity
  8
1
100
AcDbPolyline
 90
        3
 70
     1
 43
0.0
 10
0.0
 20
0.0
 10
-2.950972054112583
 20
0.0
 42
0.4142135623730966
 10
0.0
 20
-2.950972054112583
  0
HATCH
  5
2037
330
1E
100
AcDbEntity
  8
1
100
AcDbHatch
 10
0.0
 20
0.0
 30
0.0
210
0.0
220
0.0
230
1.0
  2
SOLID
 70
     1
 71
     0
 91
        2
 92
        7
 72
     1
 73
     1
 93
        3
 10
0.0
 20
0.0
 42
0.0
 10
2.950972054112583
 20
0.0
 42
0.4142135623730966
 10
0.0
 20
2.950972054112611
 42
0.0
 97
        0
 92
        7
 72
     1
 73
     1
 93
        3
 10
0.0
 20
-2.950972054112496
 42
0.0
 10
0.0
 20
0.0
 42
0.0
 10
-2.950972054112583
 20
0.0
 42
0.4142135623730953
 97
        0
 75
     0
 76
     1
 47
0.1190009775223266
 98
        2
 10
0.7445530588119027
 20
0.9212244733764975
 10
-1.279464601852936
 20
-1.696796923046291
  0
CIRCLE
  5
2038
330
1E
100
AcDbEntity
  8
1
100
AcDbCircle
 10
0.0
 20
0.0
 30
0.0
 40
2.950972054112601
  0
LINE
  5
2039
330
1E
100
AcDbEntity
  8
1
100
AcDbLine
 10
0.0
 20
2.950972054112611
 30
0.0
 11
0.0
 21
-2.950972054112583
 31
0.0
  0
LINE
  5
203B
330
1E
100
AcDbEntity
  8
1
100
AcDbLine
 10
-2.950972054112837
 20
0.0
 30
0.0
 11
2.950972054112583
 21
0.0
 31
0.0
  0
LWPOLYLINE
  5
203C
330
1E
100
AcDbEntity
  8
1
100
AcDbPolyline
 90
        3
 70
     1
 43
0.0
 10
0.0
 20
2.950972054112611
 10
0.0
 20
0.0
 10
2.950972054112583
 20
0.0
 42
0.4142135623730966
  0
ENDSEC
  0
SECTION
  2
OBJECTS
  0
DICTIONARY
  5
C
330
0
100
AcDbDictionary
281
     1
  3
ACAD_COLOR
350
21A6
  3
ACAD_GROUP
350
D
  3
ACAD_LAYOUT
350
19
  3
ACAD_MATERIAL
350
21A5
  3
ACAD_MLINESTYLE
350
16
  3
ACAD_PLOTSETTINGS
350
18
  3
ACAD_PLOTSTYLENAME
350
1E4A
  3
ACAD_TABLESTYLE
350
21A7
  3
ACDBHEADERROUNDTRIPXREC
350
21D5
  3
AcDbVariableDictionary
350
21D0
1001
ACAD
1000
TREAT_AS_HARD
1070
     0
  0
DICTIONARY
  5
1608
330
1E
100
AcDbDictionary
281
     1
  3
ACAD_LAYOUTSELFREF
350
1609
  0
DICTIONARY
  5
1606
330
1A
100
AcDbDictionary
281
     1
  3
ACAD_LAYOUTSELFREF
350
1607
  0
DICTIONARY
  5
21A6
102
{ACAD_REACTORS
330
C
102
}
330
C
100
AcDbDictionary
281
     1
  0
DICTIONARY
  5
D
102
{ACAD_REACTORS
330
C
102
}
330
C
100
AcDbDictionary
281
     1
1001
ACAD
1000
TREAT_AS_HARD
1070
     0
  0
DICTIONARY
  5
19
102
{ACAD_REACTORS
330
C
102
}
330
C
100
AcDbDictionary
281
     1
  3
Layout1
350
1E4D
  3
Model
350
1E4C
1001
ACAD
1000
TREAT_AS_HARD
1070
     0
  0
DICTIONARY
  5
21A5
102
{ACAD_REACTORS
330
C
102
}
330
C
100
AcDbDictionary
281
     1
  0
DICTIONARY
  5
16
102
{ACAD_REACTORS
330
C
102
}
330
C
100
AcDbDictionary
281
     1
  3
STANDARD
350
17
1001
ACAD
1000
TREAT_AS_HARD
1070
     0
  0
DICTIONARY
  5
18
102
{ACAD_REACTORS
330
C
102
}
330
C
100
AcDbDictionary
281
     1
1001
ACAD
1000
TREAT_AS_HARD
1070
     0
  0
ACDBDICTIONARYWDFLT
  5
1E4A
102
{ACAD_REACTORS
330
C
102
}
330
C
100
AcDbDictionary
281
     1
  3
Normal
350
1E4B
100
AcDbDictionaryWithDefault
340
1E4B
  0
DICTIONARY
  5
21A7
102
{ACAD_REACTORS
330
C
102
}
330
C
100
AcDbDictionary
281
     1
  3
Standard
350
21A8
  0
DICTIONARY
  5
21D5
102
{ACAD_REACTORS
330
C
102
}
330
C
100
AcDbDictionary
281
     1
  0
DICTIONARY
  5
21D0
102
{ACAD_REACTORS
330
C
102
}
330
C
100
AcDbDictionary
281
     1
  3
CTABLESTYLE
350
21D1
  3
DIMASSOC
350
21D2
  3
PROJECTNAME
350
21D3
  0
XRECORD
  5
1609
102
{ACAD_REACTORS
330
1608
102
}
330
1608
100
AcDbXrecord
280
     1
340
1E
  0
XRECORD
  5
1607
102
{ACAD_REACTORS
330
1606
102
}
330
1606
100
AcDbXrecord
280
     1
340
1A
  0
LAYOUT
  5
1E4D
102
{ACAD_XDICTIONARY
360
21D8
102
}
102
{ACAD_REACTORS
330
19
102
}
330
19
100
AcDbPlotSettings
  1

  2
\\ingdom02\ITB2
  4

  6

 40
0.0
 41
0.0
 42
0.0
 43
0.0
 44
0.0
 45
0.0
 46
0.0
 47
0.0
 48
0.0
 49
0.0
140
0.0
141
0.0
142
1.0
143
1.0
 70
   688
 72
     0
 73
     0
 74
     5
  7

 75
    16
147
1.0
148
0.0
149
0.0
100
AcDbLayout
  1
Layout1
 70
     1
 71
     1
 10
0.0
 20
0.0
 11
12.0
 21
9.0
 12
0.0
 22
0.0
 32
0.0
 14
100.0
 24
100.0
 34
100.0
 15
-100.0
 25
-100.0
 35
-100.0
146
0.0
 13
0.0
 23
0.0
 33
0.0
 16
1.0
 26
0.0
 36
0.0
 17
0.0
 27
1.0
 37
0.0
 76
     0
330
1A
  0
LAYOUT
  5
1E4C
102
{ACAD_XDICTIONARY
360
21D6
102
}
102
{ACAD_REACTORS
330
19
102
}
330
19
100
AcDbPlotSettings
  1

  2
\\ingdom02\ITB2
  4

  6

 40
0.0
 41
0.0
 42
0.0
 43
0.0
 44
0.0
 45
0.0
 46
0.0
 47
0.0
 48
0.0
 49
0.0
140
0.0
141
0.0
142
1.0
143
1.0
 70
  1712
 72
     0
 73
     0
 74
     0
  7

 75
     0
147
1.0
148
0.0
149
0.0
100
AcDbLayout
  1
Model
 70
     1
 71
     0
 10
0.0
 20
0.0
 11
12.0
 21
9.0
 12
0.0
 22
0.0
 32
0.0
 14
0.0
 24
0.0
 34
0.0
 15
0.0
 25
0.0
 35
0.0
146
0.0
 13
0.0
 23
0.0
 33
0.0
 16
1.0
 26
0.0
 36
0.0
 17
0.0
 27
1.0
 37
0.0
 76
     0
330
1E
  0
MLINESTYLE
  5
17
102
{ACAD_REACTORS
330
16
102
}
330
16
100
AcDbMlineStyle
  2
STANDARD
 70
     0
  3

 62
   256
 51
90.0
 52
90.0
 71
     2
 49
0.5
 62
   256
  6
BYLAYER
 49
-0.5
 62
   256
  6
BYLAYER
  0
ACDBPLACEHOLDER
  5
1E4B
102
{ACAD_REACTORS
330
1E4A
102
}
330
1E4A
  0
TABLESTYLE
  5
21A8
102
{ACAD_REACTORS
330
21A7
102
}
330
21A7
100
AcDbTableStyle
  3
Standard
 70
     0
 71
     0
 40
0.06
 41
0.06
280
     0
281
     0
  7
STANDARD
140
0.18
170
     2
 62
     0
 63
     7
283
     0
274
    -2
284
     1
 64
     0
275
    -2
285
     1
 65
     0
276
    -2
286
     1
 66
     0
277
    -2
287
     1
 67
     0
278
    -2
288
     1
 68
     0
279
    -2
289
     1
 69
     0
  7
STANDARD
140
0.25
170
     5
 62
     0
 63
     7
283
     0
274
    -2
284
     1
 64
     0
275
    -2
285
     1
 65
     0
276
    -2
286
     1
 66
     0
277
    -2
287
     1
 67
     0
278
    -2
288
     1
 68
     0
279
    -2
289
     1
 69
     0
  7
STANDARD
140
0.18
170
     5
 62
     0
 63
     7
283
     0
274
    -2
284
     1
 64
     0
275
    -2
285
     1
 65
     0
276
    -2
286
     1
 66
     0
277
    -2
287
     1
 67
     0
278
    -2
288
     1
 68
     0
279
    -2
289
     1
 69
     0
  0
DICTIONARYVAR
  5
21D1
102
{ACAD_REACTORS
330
21D0
102
}
330
21D0
100
DictionaryVariables
280
     0
  1
STANDARD
  0
DICTIONARYVAR
  5
21D2
102
{ACAD_REACTORS
330
21D0
102
}
330
21D0
100
DictionaryVariables
280
     0
  1
1
  0
DICTIONARYVAR
  5
21D3
102
{ACAD_REACTORS
330
21D0
102
}
330
21D0
100
DictionaryVariables
280
     0
  1

  0
DICTIONARY
  5
21D8
330
1E4D
100
AcDbDictionary
280
     1
281
     1
  3
ACAD_XREC_ROUNDTRIP
360
21D9
  0
DICTIONARY
  5
21D6
330
1E4C
100
AcDbDictionary
280
     1
281
     1
  3
ACAD_XREC_ROUNDTRIP
360
21D7
  0
XRECORD
  5
21D9
102
{ACAD_REACTORS
330
21D8
102
}
330
21D8
100
AcDbXrecord
280
     1
102
SHADEPLOT
 70
     0
102
SHADEPLOTRESLEVEL
 70
     2
102
SHADEPLOTCUSTOMDPI
 70
   300
  0
XRECORD
  5
21D7
102
{ACAD_REACTORS
330
21D6
102
}
330
21D6
100
AcDbXrecord
280
     1
102
SHADEPLOT
 70
     0
102
SHADEPLOTRESLEVEL
 70
     2
102
SHADEPLOTCUSTOMDPI
 70
   300
  0
ENDSEC
  0
EOF
