  0
SECTION
  2
HEADER
  9
$ACADVER
  1
AC1018
  9
$ACADMAINTVER
 70
   104
  9
$DWGCODEPAGE
  3
ANSI_1252
  9
$LASTSAVEDBY
  1
Bernd Dutschke
  9
$CUSTOMPROPERTYTAG
  1
AmdtFileType
  9
$CUSTOMPROPERTY
  1
84
  9
$INSBASE
 10
0.0
 20
0.0
 30
0.0
  9
$EXTMIN
 10
-83.86914398514518
 20
-32.55082819528206
 30
-0.00000001
  9
$EXTMAX
 10
82.02431955086979
 20
95.0
 30
0.00000001
  9
$LIMMIN
 10
0.0
 20
0.0
  9
$LIMMAX
 10
420.0
 20
297.0
  9
$ORTHOMODE
 70
     0
  9
$REGENMODE
 70
     1
  9
$FILLMODE
 70
     1
  9
$QTEXTMODE
 70
     0
  9
$MIRRTEXT
 70
     1
  9
$LTSCALE
 40
1.0
  9
$ATTMODE
 70
     1
  9
$TEXTSIZE
 40
2.5
  9
$TRACEWID
 40
1.0
  9
$TEXTSTYLE
  7
STANDARD
  9
$CLAYER
  8
2
  9
$CELTYPE
  6
ByLayer
  9
$CECOLOR
 62
   256
  9
$CELTSCALE
 40
0.3
  9
$DISPSILH
 70
     0
  9
$DIMSCALE
 40
1.0
  9
$DIMASZ
 40
2.5
  9
$DIMEXO
 40
0.0
  9
$DIMDLI
 40
10.0
  9
$DIMRND
 40
0.0
  9
$DIMDLE
 40
0.0
  9
$DIMEXE
 40
1.0
  9
$DIMTP
 40
0.1
  9
$DIMTM
 40
0.1
  9
$DIMTXT
 40
3.5
  9
$DIMCEN
 40
0.0
  9
$DIMTSZ
 40
0.0
  9
$DIMTOL
 70
     0
  9
$DIMLIM
 70
     0
  9
$DIMTIH
 70
     0
  9
$DIMTOH
 70
     0
  9
$DIMSE1
 70
     0
  9
$DIMSE2
 70
     0
  9
$DIMTAD
 70
     1
  9
$DIMZIN
 70
     8
  9
$DIMBLK
  1

  9
$DIMASO
 70
     1
  9
$DIMSHO
 70
     1
  9
$DIMPOST
  1

  9
$DIMAPOST
  1
"
  9
$DIMALT
 70
     0
  9
$DIMALTD
 70
     2
  9
$DIMALTF
 40
0.0393701
  9
$DIMLFAC
 40
1.0
  9
$DIMTOFL
 70
     1
  9
$DIMTVP
 40
0.0
  9
$DIMTIX
 70
     0
  9
$DIMSOXD
 70
     0
  9
$DIMSAH
 70
     0
  9
$DIMBLK1
  1

  9
$DIMBLK2
  1

  9
$DIMSTYLE
  2
AM_DIN
  9
$DIMCLRD
 70
   256
  9
$DIMCLRE
 70
   256
  9
$DIMCLRT
 70
     2
  9
$DIMTFAC
 40
0.71
  9
$DIMGAP
 40
1.5
  9
$DIMJUST
 70
     0
  9
$DIMSD1
 70
     0
  9
$DIMSD2
 70
     0
  9
$DIMTOLJ
 70
     0
  9
$DIMTZIN
 70
     8
  9
$DIMALTZ
 70
     0
  9
$DIMALTTZ
 70
     0
  9
$DIMUPT
 70
     0
  9
$DIMDEC
 70
     2
  9
$DIMTDEC
 70
     2
  9
$DIMALTU
 70
     2
  9
$DIMALTTD
 70
     2
  9
$DIMTXSTY
  7
STANDARD
  9
$DIMAUNIT
 70
     0
  9
$DIMADEC
 70
     0
  9
$DIMALTRND
 40
0.0
  9
$DIMAZIN
 70
     2
  9
$DIMDSEP
 70
    46
  9
$DIMATFIT
 70
     3
  9
$DIMFRAC
 70
     0
  9
$DIMLDRBLK
  1

  9
$DIMLUNIT
 70
     2
  9
$DIMLWD
 70
    -1
  9
$DIMLWE
 70
    -1
  9
$DIMTMOVE
 70
     0
  9
$LUNITS
 70
     2
  9
$LUPREC
 70
     2
  9
$SKETCHINC
 40
1.0
  9
$FILLETRAD
 40
5.0
  9
$AUNITS
 70
     0
  9
$AUPREC
 70
     0
  9
$MENU
  1
.
  9
$ELEVATION
 40
0.0
  9
$PELEVATION
 40
0.0
  9
$THICKNESS
 40
0.0
  9
$LIMCHECK
 70
     0
  9
$CHAMFERA
 40
2.5
  9
$CHAMFERB
 40
2.5
  9
$CHAMFERC
 40
20.0
  9
$CHAMFERD
 40
0.0
  9
$SKPOLY
 70
     0
  9
$TDCREATE
 40
2453599.324339375
  9
$TDUCREATE
 40
2453599.282672708
  9
$TDUPDATE
 40
2454798.592615011
  9
$TDUUPDATE
 40
2454798.550948345
  9
$TDINDWG
 40
0.1959957060
  9
$TDUSRTIMER
 40
0.1959713657
  9
$USRTIMER
 70
     1
  9
$ANGBASE
 50
0.0
  9
$ANGDIR
 70
     0
  9
$PDMODE
 70
     0
  9
$PDSIZE
 40
0.0
  9
$PLINEWID
 40
0.0
  9
$SPLFRAME
 70
     0
  9
$SPLINETYPE
 70
     6
  9
$SPLINESEGS
 70
     8
  9
$HANDSEED
  5
4E2C
  9
$SURFTAB1
 70
     6
  9
$SURFTAB2
 70
     6
  9
$SURFTYPE
 70
     6
  9
$SURFU
 70
     6
  9
$SURFV
 70
     6
  9
$UCSBASE
  2

  9
$UCSNAME
  2

  9
$UCSORG
 10
0.0
 20
0.0
 30
0.0
  9
$UCSXDIR
 10
1.0
 20
0.0
 30
0.0
  9
$UCSYDIR
 10
0.0
 20
1.0
 30
0.0
  9
$UCSORTHOREF
  2

  9
$UCSORTHOVIEW
 70
     0
  9
$UCSORGTOP
 10
0.0
 20
0.0
 30
0.0
  9
$UCSORGBOTTOM
 10
0.0
 20
0.0
 30
0.0
  9
$UCSORGLEFT
 10
0.0
 20
0.0
 30
0.0
  9
$UCSORGRIGHT
 10
0.0
 20
0.0
 30
0.0
  9
$UCSORGFRONT
 10
0.0
 20
0.0
 30
0.0
  9
$UCSORGBACK
 10
0.0
 20
0.0
 30
0.0
  9
$PUCSBASE
  2

  9
$PUCSNAME
  2

  9
$PUCSORG
 10
0.0
 20
0.0
 30
0.0
  9
$PUCSXDIR
 10
1.0
 20
0.0
 30
0.0
  9
$PUCSYDIR
 10
0.0
 20
1.0
 30
0.0
  9
$PUCSORTHOREF
  2

  9
$PUCSORTHOVIEW
 70
     0
  9
$PUCSORGTOP
 10
0.0
 20
0.0
 30
0.0
  9
$PUCSORGBOTTOM
 10
0.0
 20
0.0
 30
0.0
  9
$PUCSORGLEFT
 10
0.0
 20
0.0
 30
0.0
  9
$PUCSORGRIGHT
 10
0.0
 20
0.0
 30
0.0
  9
$PUCSORGFRONT
 10
0.0
 20
0.0
 30
0.0
  9
$PUCSORGBACK
 10
0.0
 20
0.0
 30
0.0
  9
$USERI1
 70
     0
  9
$USERI2
 70
     0
  9
$USERI3
 70
     0
  9
$USERI4
 70
     0
  9
$USERI5
 70
     0
  9
$USERR1
 40
0.0
  9
$USERR2
 40
0.0
  9
$USERR3
 40
0.0
  9
$USERR4
 40
0.0
  9
$USERR5
 40
0.0
  9
$WORLDVIEW
 70
     1
  9
$SHADEDGE
 70
     3
  9
$SHADEDIF
 70
    70
  9
$TILEMODE
 70
     1
  9
$MAXACTVP
 70
    64
  9
$PINSBASE
 10
0.0
 20
0.0
 30
0.0
  9
$PLIMCHECK
 70
     0
  9
$PEXTMIN
 10
1.000000000000000E+20
 20
1.000000000000000E+20
 30
1.000000000000000E+20
  9
$PEXTMAX
 10
-1.000000000000000E+20
 20
-1.000000000000000E+20
 30
-1.000000000000000E+20
  9
$PLIMMIN
 10
0.0
 20
0.0
  9
$PLIMMAX
 10
420.0
 20
297.0
  9
$UNITMODE
 70
     0
  9
$VISRETAIN
 70
     1
  9
$PLINEGEN
 70
     0
  9
$PSLTSCALE
 70
     1
  9
$TREEDEPTH
 70
  3020
  9
$CMLSTYLE
  2
Standard
  9
$CMLJUST
 70
     0
  9
$CMLSCALE
 40
20.0
  9
$PROXYGRAPHICS
 70
     1
  9
$MEASUREMENT
 70
     1
  9
$CELWEIGHT
370
    -1
  9
$ENDCAPS
280
     0
  9
$JOINSTYLE
280
     0
  9
$LWDISPLAY
290
     0
  9
$INSUNITS
 70
     4
  9
$HYPERLINKBASE
  1

  9
$STYLESHEET
  1

  9
$XEDIT
290
     1
  9
$CEPSNTYPE
380
     0
  9
$PSTYLEMODE
290
     1
  9
$FINGERPRINTGUID
  2
{03052709-208C-44F1-88CB-F8F0E550BC5D}
  9
$VERSIONGUID
  2
{443F19A0-AB23-4235-BFDB-BABD14267ACD}
  9
$EXTNAMES
290
     1
  9
$PSVPSCALE
 40
0.0
  9
$OLESTARTUP
290
     0
  9
$SORTENTS
280
   127
  9
$INDEXCTL
280
     0
  9
$HIDETEXT
280
     1
  9
$XCLIPFRAME
290
     0
  9
$HALOGAP
280
     0
  9
$OBSCOLOR
 70
   257
  9
$OBSLTYPE
280
     0
  9
$INTERSECTIONDISPLAY
280
     0
  9
$INTERSECTIONCOLOR
 70
   257
  9
$DIMASSOC
280
     1
  9
$PROJECTNAME
  1

  0
ENDSEC
  0
SECTION
  2
CLASSES
  0
CLASS
  1
ACDBDICTIONARYWDFLT
  2
AcDbDictionaryWithDefault
  3
ObjectDBX Classes
 90
        0
 91
        1
280
     0
281
     0
  0
CLASS
  1
ACME_DOCUMENT
  2
AcMeDbDoc
  3
AcMeServices
 90
     1024
 91
        2
280
     0
281
     0
  0
CLASS
  1
ACMESCOPE
  2
AcMeScope
  3
AcMeServices
 90
     1024
 91
        1
280
     0
281
     0
  0
CLASS
  1
ACMECOMMANDHISTORY
  2
AcMeCommandHistory
  3
AcMeServices
 90
     1024
 91
        1
280
     0
281
     0
  0
CLASS
  1
ACIMSYSVARMAN
  2
AcImSysVarManager
  3
AcMeServices
 90
     1024
 91
        5
280
     0
281
     0
  0
CLASS
  1
ACIMREALSYSVAR
  2
AcImRealSysVar
  3
AcMeServices
 90
     1024
 91
        1
280
     0
281
     0
  0
CLASS
  1
ACIMINTSYSVAR
  2
AcImIntSysVar
  3
AcMeServices
 90
     1024
 91
       27
280
     0
281
     0
  0
CLASS
  1
ACMEDRAWINGMAN
  2
AcMeDrawingMan
  3
AcMeServices
 90
     1024
 91
        1
280
     0
281
     0
  0
CLASS
  1
ACMEVIEW
  2
AcMeView
  3
AcMeServices
 90
     1024
 91
        1
280
     0
281
     0
  0
CLASS
  1
ACDBENTITYCACHE
  2
AcMeEntityCache
  3
AcMeServices
 90
     1024
 91
        1
280
     0
281
     0
  0
CLASS
  1
GSMANAGER
  2
AcMeGSManager
  3
AcMeServices
 90
     1024
 91
        1
280
     0
281
     0
  0
CLASS
  1
AMDTINTERNALREACTOR
  2
AmdtInternalReactor
  3
AcMeServices
 90
     1024
 91
        2
280
     0
281
     0
  0
CLASS
  1
ACMESTATEMGR
  2
AcMeStateMgr
  3
AcMeServices
 90
     1024
 91
        1
280
     0
281
     0
  0
CLASS
  1
ACGREFMASTER
  2
AcGrefMaster
  3
AcAttribServices
 90
     1024
 91
        1
280
     0
281
     0
  0
CLASS
  1
ACME_DATABASE
  2
AcMeDbDatabase
  3
AcMeServices
 90
     1024
 91
        1
280
     0
281
     0
  0
CLASS
  1
ACRFINSADJUSTERMGR
  2
AcRfInsAdjusterMgr
  3
AcMeServices
 90
     1024
 91
        1
280
     0
281
     0
  0
CLASS
  1
ACGREFACADMASTER
  2
AcGrefacadMaster
  3
AcGrefServices
 90
     1024
 91
        1
280
     0
281
     0
  0
CLASS
  1
AMIMASTER
  2
AmiMaster
  3
AmiServices
 90
     1024
 91
        1
280
     0
281
     0
  0
CLASS
  1
AMGSETTINGSOBJ
  2
AmgSettingsObj
  3
"AcadM|Product Description: AutoCAD Mechanical|Company: Autodesk, Inc."
 90
     1024
 91
        2
280
     0
281
     0
  0
CLASS
  1
ACMDATADICTIONARY
  2
AcmDataDictionary
  3
"AcmSymBB|Product Description: AutoCAD Mechanical|Company: Autodesk, Inc."
 90
     1024
 91
        1
280
     0
281
     0
  0
CLASS
  1
ACMDATAENTRYBLOCK
  2
AcmDataEntryBlock
  3
AcmSymBB|Product Description: AutoCAD Mechanical|Company: Autodesk, Inc.
 90
     1024
 91
        0
280
     0
281
     0
  0
CLASS
  1
ACIMSTRSYSVAR
  2
AcImStrSysVar
  3
AcMeServices
 90
     1024
 91
        4
280
     0
281
     0
  0
CLASS
  1
ACMSTANDARDDIN
  2
AcmStandardDIN
  3
"Amdt_StdImp|Product Description: AutoCAD Mechanical|Company: Autodesk, Inc."
 90
     1024
 91
        0
280
     0
281
     0
  0
CLASS
  1
AMGOBJPROPCFG
  2
AmgObjPropCfg
  3
"AmgLay|Product Description: AutoCAD Mechanical|Company: Autodesk, Inc."
 90
     1025
 91
        1
280
     0
281
     0
  0
CLASS
  1
AMDTEDGESTANDARDDIN
  2
AmdtEdgeStdDIN
  3
"Amdt_StdImp|Product Description: AutoCAD Mechanical|Company: Autodesk, Inc."
 90
     1024
 91
        0
280
     0
281
     0
  0
CLASS
  1
ACMSURFSTANDARDDIN
  2
AcmSurfTextStdDIN
  3
"Amdt_StdImp|Product Description: AutoCAD Mechanical|Company: Autodesk, Inc."
 90
     1024
 91
        0
280
     0
281
     0
  0
CLASS
  1
ACMFCFSTANDARDDIN
  2
AcmFCFStdDIN
  3
"Amdt_StdImp|Product Description: AutoCAD Mechanical|Company: Autodesk, Inc."
 90
     1024
 91
        0
280
     0
281
     0
  0
CLASS
  1
ACMWELDSTANDARDDIN
  2
AcmWeldingStdDIN
  3
"Amdt_StdImp|Product Description: AutoCAD Mechanical|Company: Autodesk, Inc."
 90
     1024
 91
        0
280
     0
281
     0
  0
CLASS
  1
ACMIDSTANDARDDIN
  2
AcmIdStdDIN
  3
"Amdt_StdImp|Product Description: AutoCAD Mechanical|Company: Autodesk, Inc."
 90
     1024
 91
        0
280
     0
281
     0
  0
CLASS
  1
ACMDATUMSTANDARDDIN
  2
AcmDatumStdDIN
  3
"Amdt_StdImp|Product Description: AutoCAD Mechanical|Company: Autodesk, Inc."
 90
     1024
 91
        0
280
     0
281
     0
  0
CLASS
  1
ACMBOMSTANDARDDIN
  2
AcmBOMStdDIN
  3
"Amdt_StdImp|Product Description: AutoCAD Mechanical|Company: Autodesk, Inc."
 90
     1024
 91
        0
280
     0
281
     0
  0
CLASS
  1
ACMDETAILSTANDARDDIN
  2
AmdtDetailSymStdDIN
  3
"Amdt_StdImp|Product Description: AutoCAD Mechanical|Company: Autodesk, Inc."
 90
     1024
 91
        0
280
     0
281
     0
  0
CLASS
  1
ACMSECTIONSTANDARDDIN
  2
AmdtSectionSymStdDIN
  3
"Amdt_StdImp|Product Description: AutoCAD Mechanical|Company: Autodesk, Inc."
 90
     1024
 91
        0
280
     0
281
     0
  0
CLASS
  1
ACMCENTERLINESTANDARDDIN
  2
AmdtCenterLineStdDIN
  3
"Amdt_StdImp|Product Description: AutoCAD Mechanical|Company: Autodesk, Inc."
 90
     1024
 91
        0
280
     0
281
     0
  0
CLASS
  1
ACMNOTESTANDARDDIN
  2
AmdtNoteStdDIN
  3
"Amdt_StdImp|Product Description: AutoCAD Mechanical|Company: Autodesk, Inc."
 90
     1024
 91
        0
280
     0
281
     0
  0
CLASS
  1
ACAMGLAYSTD
  2
AcAmgLayStd
  3
"AmgLay|Product Description: AutoCAD Mechanical|Company: Autodesk, Inc."
 90
     1024
 91
        0
280
     0
281
     0
  0
CLASS
  1
ACAMGDIMSTD
  2
AcAmgDimStd
  3
"AmgDim|Product Description: AutoCAD Mechanical|Company: Autodesk, Inc."
 90
     1024
 91
        0
280
     0
281
     0
  0
CLASS
  1
ACAMGHOLECHARTSTDDIN
  2
AcAmgHoleChartStdDIN
  3
AmgDim|Product Description: AutoCAD Mechanical|Company: Autodesk, Inc.
 90
     1024
 91
        0
280
     0
281
     0
  0
CLASS
  1
ACAMGTITLESTD
  2
AcAmgTitleStd
  3
"AmgTitle|Product Description: AutoCAD Mechanical|Company: Autodesk, Inc."
 90
     4095
 91
        0
280
     0
281
     0
  0
CLASS
  1
ACMSTANDARDANSI
  2
AcmStandardANSI
  3
"Amdt_StdImp|Product Description: AutoCAD Mechanical|Company: Autodesk, Inc."
 90
     1024
 91
        0
280
     0
281
     0
  0
CLASS
  1
ACMSURFSTANDARDANSI
  2
AcmSurfTextStdANSI
  3
"Amdt_StdImp|Product Description: AutoCAD Mechanical|Company: Autodesk, Inc."
 90
     1024
 91
        0
280
     0
281
     0
  0
CLASS
  1
ACMFCFSTANDARDANSI
  2
AcmFCFStdANSI
  3
"Amdt_StdImp|Product Description: AutoCAD Mechanical|Company: Autodesk, Inc."
 90
     1024
 91
        0
280
     0
281
     0
  0
CLASS
  1
ACMWELDSTANDARDANSI
  2
AcmWeldingStdANSI
  3
"Amdt_StdImp|Product Description: AutoCAD Mechanical|Company: Autodesk, Inc."
 90
     1024
 91
        0
280
     0
281
     0
  0
CLASS
  1
ACMIDSTANDARDANSI
  2
AcmIdStdANSI
  3
"Amdt_StdImp|Product Description: AutoCAD Mechanical|Company: Autodesk, Inc."
 90
     1024
 91
        0
280
     0
281
     0
  0
CLASS
  1
ACMDATUMSTANDARDANSI
  2
AcmDatumStdANSI
  3
"Amdt_StdImp|Product Description: AutoCAD Mechanical|Company: Autodesk, Inc."
 90
     1024
 91
        0
280
     0
281
     0
  0
CLASS
  1
ACMBOMSTANDARDANSI
  2
AcmBOMStdANSI
  3
"Amdt_StdImp|Product Description: AutoCAD Mechanical|Company: Autodesk, Inc."
 90
     1024
 91
        0
280
     0
281
     0
  0
CLASS
  1
ACMDETAILSTANDARDANSI
  2
AmdtDetailSymStdANSI
  3
"Amdt_StdImp|Product Description: AutoCAD Mechanical|Company: Autodesk, Inc."
 90
     1024
 91
        0
280
     0
281
     0
  0
CLASS
  1
ACMSECTIONSTANDARDANSI
  2
AmdtSectionSymStdANSI
  3
"Amdt_StdImp|Product Description: AutoCAD Mechanical|Company: Autodesk, Inc."
 90
     1024
 91
        0
280
     0
281
     0
  0
CLASS
  1
ACMCENTERLINESTANDARDANSI
  2
AmdtCenterLineStdANSI
  3
"Amdt_StdImp|Product Description: AutoCAD Mechanical|Company: Autodesk, Inc."
 90
     1024
 91
        0
280
     0
281
     0
  0
CLASS
  1
ACMNOTESTANDARDANSI
  2
AmdtNoteStdANSI
  3
"Amdt_StdImp|Product Description: AutoCAD Mechanical|Company: Autodesk, Inc."
 90
     1024
 91
        0
280
     0
281
     0
  0
CLASS
  1
ACAMGHOLECHARTSTDANSI
  2
AcAmgHoleChartStdANSI
  3
AmgDim|Product Description: AutoCAD Mechanical|Company: Autodesk, Inc.
 90
     1024
 91
        0
280
     0
281
     0
  0
CLASS
  1
ACAMGFILTERDAT
  2
AcAmgFilterDat
  3
"AcadM|Product Description: AutoCAD Mechanical|Company: Autodesk, Inc."
 90
     1024
 91
        0
280
     0
281
     0
  0
CLASS
  1
AMDTFORMULAUPDATEDISPATCHER
  2
AmdtFormulaUpdateDispatcher
  3
AcMeServices
 90
     1024
 91
        0
280
     0
281
     0
  0
CLASS
  1
LAYER_INDEX
  2
AcDbLayerIndex
  3
ObjectDBX Classes
 90
        0
 91
        0
280
     0
281
     0
  0
CLASS
  1
IDBUFFER
  2
AcDbIdBuffer
  3
ObjectDBX Classes
 90
        0
 91
        0
280
     0
281
     0
  0
CLASS
  1
DICTIONARYVAR
  2
AcDbDictionaryVar
  3
ObjectDBX Classes
 90
        0
 91
       11
280
     0
281
     0
  0
CLASS
  1
DIMASSOC
  2
AcDbDimAssoc
  3
"AcDbDimAssoc|Product Desc:     AcDim ARX App For Dimension|Company:          Autodesk, Inc.|WEB Address:      www.autodesk.com"
 90
        0
 91
        0
280
     0
281
     0
  0
CLASS
  1
ACMDIMBREAKPERSREACTOR
  2
AcmDimBreakPersReactor
  3
AmgDim|Product Description: AutoCAD Mechanical|Company: Autodesk, Inc.
 90
     4095
 91
        0
280
     0
281
     0
  0
CLASS
  1
ACMSURFSYM
  2
AcmSurfaceTexture
  3
"AcmSymBB|Product Description: AutoCAD Mechanical|Company: Autodesk, Inc."
 90
     4095
 91
        0
280
     0
281
     1
  0
CLASS
  1
ACMFCFRAME
  2
AcmFCF
  3
"AcmSymBB|Product Description: AutoCAD Mechanical|Company: Autodesk, Inc."
 90
     4095
 91
        0
280
     0
281
     1
  0
CLASS
  1
TABLESTYLE
  2
AcDbTableStyle
  3
ObjectDBX Classes
 90
     4095
 91
        1
280
     0
281
     0
  0
CLASS
  1
AM_DRAWING_MGR
  2
AcDmDwgMgr
  3
AcMechDwgViewMgmt
 90
     1024
 91
        1
280
     0
281
     0
  0
CLASS
  1
AM_DWG_DOCUMENT
  2
AcDmDwgDocument
  3
AcMechDwgViewMgmt
 90
     1024
 91
        1
280
     0
281
     0
  0
CLASS
  1
AM_DWG_SHEET
  2
AcDmSheet
  3
AcMechDwgViewMgmt
 90
     1024
 91
        2
280
     0
281
     0
  0
CLASS
  1
AM_VIEWDIMPARMAP
  2
AcDmViewDimParMap
  3
AcMechDwgViewMgmt
 90
     1024
 91
        2
280
     0
281
     0
  0
CLASS
  1
AM_DWGMGR_NAME
  2
AcDmDwgMgrName
  3
AcMechDwgViewMgmt
 90
     1024
 91
        1
280
     0
281
     0
  0
CLASS
  1
AMDTMENUSTATEMGR
  2
AmdtMenuStateMgr
  3
McadcomServices
 90
     1024
 91
        1
280
     0
281
     0
  0
CLASS
  1
AMDTMCOMMENUSTATE
  2
AmdtMcomMenuState
  3
McadcomServices
 90
     1024
 91
        1
280
     0
281
     0
  0
CLASS
  1
MAPIAMMOUDLE
  2
MApiAmModule
  3
MApiAmServices
 90
     1024
 91
        1
280
     0
281
     0
  0
CLASS
  1
AMDTADMENUSTATE
  2
AmdtAdMenuState
  3
DesignerServices
 90
     1024
 91
        1
280
     0
281
     0
  0
CLASS
  1
ADAPPL
  2
AcAdAppl
  3
DesignerServices
 90
     1024
 91
        1
280
     0
281
     0
  0
CLASS
  1
DEPMGR
  2
AcAdDepMgr
  3
DesignerServices
 90
     1024
 91
        1
280
     0
281
     0
  0
CLASS
  1
PARAMMGR
  2
AcAdParamMgr
  3
DesignerServices
 90
     1024
 91
        1
280
     0
281
     0
  0
CLASS
  1
PARAMSCOPE
  2
AcAdParamScope
  3
DesignerServices
 90
     1024
 91
        1
280
     0
281
     0
  0
CLASS
  1
NAMEDAPPL
  2
AcAdNamedAppl
  3
DesignerServices
 90
     1024
 91
        1
280
     0
281
     0
  0
CLASS
  1
AMDTDMMENUSTATE
  2
AmdtDmMenuState
  3
AcMechDwgViewMgmt
 90
     1024
 91
        1
280
     0
281
     0
  0
CLASS
  1
AMDTAMMENUSTATE
  2
AmdtAmMenuState
  3
DesignerAssemblies
 90
     1024
 91
        1
280
     0
281
     0
  0
CLASS
  1
ACAMPROJECT
  2
AcAmProject
  3
DesignerAssemblies
 90
     1024
 91
        1
280
     0
281
     0
  0
CLASS
  1
ACAMGRCOMPDEF
  2
AcAmGrCompDef
  3
DesignerAssemblies
 90
     1024
 91
        1
280
     0
281
     0
  0
CLASS
  1
ACCMCONTEXT
  2
AcCmContext
  3
DesignerAssemblies
 90
     1024
 91
        1
280
     0
281
     0
  0
CLASS
  1
ACAMCOMPDEF
  2
AcAmCompDef
  3
DesignerAssemblies
 90
     1024
 91
        1
280
     0
281
     0
  0
CLASS
  1
ACAMCOMPDEFMGR
  2
AcAmCompDefMgr
  3
DesignerAssemblies
 90
     1024
 91
        1
280
     0
281
     0
  0
CLASS
  1
AMCONTEXTMGR
  2
AcAmContextMgr
  3
DesignerAssemblies
 90
     1024
 91
        1
280
     0
281
     0
  0
CLASS
  1
ACAMCONTEXTMODELER
  2
AcAmContextModeler
  3
DesignerAssemblies
 90
     1024
 91
        1
280
     0
281
     0
  0
CLASS
  1
ACMTHREADLINESTANDARDDIN
  2
AmdtThreadLineStdDIN
  3
"Amdt_StdImp|Product Description: AutoCAD Mechanical|Company: Autodesk, Inc."
 90
     1024
 91
        0
280
     0
281
     0
  0
CLASS
  1
ACMTHREADLINESTANDARDANSI
  2
AmdtThreadLineStdANSI
  3
"Amdt_StdImp|Product Description: AutoCAD Mechanical|Company: Autodesk, Inc."
 90
     1024
 91
        0
280
     0
281
     0
  0
CLASS
  1
CATALOGSTATE
  2
AcAmCatalogState
  3
DesignerAssemblies
 90
     1024
 91
        1
280
     0
281
     0
  0
CLASS
  1
ACAMGRCOMPDEFSET
  2
AcAmGrCompDefSet
  3
DesignerAssemblies
 90
     1024
 91
        1
280
     0
281
     0
  0
CLASS
  1
AMDTBROWSERDBTAB
  2
AmdtBrowserDbTab
  3
McadcomServices
 90
     1024
 91
        1
280
     0
281
     0
  0
CLASS
  1
CBROWSERAPPOBJECT
  2
CBrowserAppObject
  3
McadcomServices
 90
     1024
 91
        3
280
     0
281
     0
  0
CLASS
  1
DM_PLACEHOLDER
  2
AcDmSelsetPlaceholder
  3
AcMechDwgViewMgmt
 90
     1024
 91
        1
280
     0
281
     0
  0
CLASS
  1
SORTENTSTABLE
  2
AcDbSortentsTable
  3
ObjectDBX Classes
 90
        0
 91
        1
280
     0
281
     0
  0
CLASS
  1
AMDTEDGESTANDARDDIN13715
  2
AmdtEdgeStdDIN13715
  3
"Amdt_StdImp|Product Description: AutoCAD Mechanical|Company: Autodesk, Inc."
 90
     1024
 91
        0
280
     0
281
     0
  0
CLASS
  1
AMDTNOTETEMPLATEDB
  2
AmdtNoteTemplateDB
  3
AcmSymBB|Product Description: AutoCAD Mechanical|Company: Autodesk, Inc.
 90
     1024
 91
        0
280
     0
281
     0
  0
CLASS
  1
MATERIAL
  2
AcDbMaterial
  3
ObjectDBX Classes
 90
     1153
 91
        3
280
     0
281
     0
  0
CLASS
  1
VISUALSTYLE
  2
AcDbVisualStyle
  3
ObjectDBX Classes
 90
     4095
 91
       16
280
     0
281
     0
  0
CLASS
  1
SCALE
  2
AcDbScale
  3
ObjectDBX Classes
 90
     1153
 91
       17
280
     0
281
     0
  0
CLASS
  1
MLEADERSTYLE
  2
AcDbMLeaderStyle
  3
ACDB_MLEADERSTYLE_CLASS
 90
     4095
 91
        1
280
     0
281
     0
  0
CLASS
  1
ACMSURFSTANDARDDIN2002
  2
AcmSurfTextStdDIN2002
  3
"Amdt_StdImp|Product Description: AutoCAD Mechanical|Company: Autodesk, Inc."
 90
     1024
 91
        0
280
     0
281
     0
  0
CLASS
  1
ACMTAPERSTANDARDDIN
  2
AcmTaperStdDIN
  3
"Amdt_StdImp|Product Description: AutoCAD Mechanical|Company: Autodesk, Inc."
 90
     1024
 91
        0
280
     0
281
     0
  0
CLASS
  1
ACMANOOTATIONVIEWSTANDARDDIN
  2
AmdtAnViewStdDIN
  3
"Amdt_StdImp|Product Description: AutoCAD Mechanical|Company: Autodesk, Inc."
 90
     1024
 91
        0
280
     0
281
     0
  0
CLASS
  1
CAMSSTRUCTBTNSTATE
  2
StructBtnState
  3
DesignerAssemblies
 90
     1024
 91
        0
280
     0
281
     0
  0
CLASS
  1
CELLSTYLEMAP
  2
AcDbCellStyleMap
  3
ObjectDBX Classes
 90
     1152
 91
        2
280
     0
281
     0
  0
CLASS
  1
ACRFATTGENMGR
  2
AcRfAttGeneralMgr
  3
AcAttribServices
 90
     1024
 91
        0
280
     0
281
     0
  0
CLASS
  1
ACRFMCADAPIATTHOLDER
  2
AcRfMCADAPIAttHolder
  3
AcAttribServices
 90
     1024
 91
        0
280
     0
281
     0
  0
CLASS
  1
AMDTSYSATTR
  2
AmdtSystemAttribute
  3
AcAttribServices
 90
     1024
 91
        0
280
     0
281
     0
  0
CLASS
  1
ACMTAPERSTANDARDANSI
  2
AcmTaperStdANSI
  3
"Amdt_StdImp|Product Description: AutoCAD Mechanical|Company: Autodesk, Inc."
 90
     1024
 91
        0
280
     0
281
     0
  0
CLASS
  1
ACMANOOTATIONVIEWSTANDARDANSI
  2
AmdtAnViewStdANSI
  3
"Amdt_StdImp|Product Description: AutoCAD Mechanical|Company: Autodesk, Inc."
 90
     1024
 91
        0
280
     0
281
     0
  0
ENDSEC
  0
SECTION
  2
TABLES
  0
TABLE
  2
VPORT
  5
8
102
{ACAD_XDICTIONARY
360
4AB6
102
}
330
0
100
AcDbSymbolTable
 70
     1
  0
VPORT
  5
3BB6
330
8
100
AcDbSymbolTableRecord
100
AcDbViewportTableRecord
  2
*Active
 70
     0
 10
0.0
 20
0.0
 11
1.0
 21
1.0
 12
168.1346244909375
 22
132.2889059594218
 13
0.0
 23
0.0
 14
2.5
 24
2.5
 15
10.0
 25
10.0
 16
0.0
 26
0.0
 36
1.0
 17
0.0
 27
0.0
 37
0.0
 40
333.3283800346877
 41
1.784158415841584
 42
50.0
 43
0.0
 44
0.0
 50
0.0
 51
0.0
 71
     0
 72
 10000
 73
     1
 74
     3
 75
     0
 76
     0
 77
     0
 78
     0
281
     0
 65
     1
110
0.0
120
0.0
130
0.0
111
1.0
121
0.0
131
0.0
112
0.0
122
1.0
132
0.0
 79
     0
146
0.0
  0
ENDTAB
  0
TABLE
  2
LTYPE
  5
5
330
0
100
AcDbSymbolTable
 70
    22
  0
LTYPE
  5
14
330
5
100
AcDbSymbolTableRecord
100
AcDbLinetypeTableRecord
  2
ByBlock
 70
     0
  3

 72
    65
 73
     0
 40
0.0
  0
LTYPE
  5
15
330
5
100
AcDbSymbolTableRecord
100
AcDbLinetypeTableRecord
  2
ByLayer
 70
     0
  3

 72
    65
 73
     0
 40
0.0
  0
LTYPE
  5
16
330
5
100
AcDbSymbolTableRecord
100
AcDbLinetypeTableRecord
  2
Continuous
 70
     0
  3
Solid line
 72
    65
 73
     0
 40
0.0
  0
LTYPE
  5
50
330
5
100
AcDbSymbolTableRecord
100
AcDbLinetypeTableRecord
  2
Amconstr
 70
     0
  3
_______________________
 72
    65
 73
     2
 40
9999.0
 49
9999.0
 74
     0
 49
0.0
 74
     0
  0
LTYPE
  5
55
330
5
100
AcDbSymbolTableRecord
100
AcDbLinetypeTableRecord
  2
Amzigzag
 70
     0
  3
/\/-/\/-/\/-/\/-/\/-/\/
 72
    65
 73
     2
 40
11.0001
 49
0.0001
 74
     4
 75
   135
340
54
 46
0.04
 50
0.0
 44
0.0
 45
0.0
 49
-11.0
 74
     0
  0
LTYPE
  5
56
330
5
100
AcDbSymbolTableRecord
100
AcDbLinetypeTableRecord
  2
AM_DIN_F_W050
 70
     0
  3
__ __ __ __ __ __ __ __ __ __ __ __ __ __ __
 72
    65
 73
     2
 40
6.25
 49
4.75
 74
     0
 49
-1.5
 74
     0
  0
LTYPE
  5
57
330
5
100
AcDbSymbolTableRecord
100
AcDbLinetypeTableRecord
  2
AM_DIN_G_W050
 70
     0
  3
____ . ____ . ____ . ____ . ____ . ____ . ____
 72
    65
 73
     4
 40
13.75
 49
9.75
 74
     0
 49
-1.5
 74
     0
 49
1.0
 74
     0
 49
-1.5
 74
     0
  0
LTYPE
  5
58
330
5
100
AcDbSymbolTableRecord
100
AcDbLinetypeTableRecord
  2
AM_DIN_K_W050
 70
     0
  3
_____ . . _____ . . _____ . . ____ .. ____
 72
    65
 73
     6
 40
16.25
 49
9.75
 74
     0
 49
-1.5
 74
     0
 49
1.0
 74
     0
 49
-1.5
 74
     0
 49
1.0
 74
     0
 49
-1.5
 74
     0
  0
LTYPE
  5
59
330
5
100
AcDbSymbolTableRecord
100
AcDbLinetypeTableRecord
  2
AM_DIN_G_W050x2
 70
     0
  3
__ . __ . __ . __ . __ . __
 72
    65
 73
     4
 40
6.875
 49
4.75
 74
     0
 49
-0.875
 74
     0
 49
0.375
 74
     0
 49
-0.875
 74
     0
  0
LTYPE
  5
5A
330
5
100
AcDbSymbolTableRecord
100
AcDbLinetypeTableRecord
  2
AM_DIN_F_W050x2
 70
     0
  3
 _ _ _ _ _ _ _ _ _ _ _ _
 72
    65
 73
     2
 40
3.125
 49
2.25
 74
     0
 49
-0.875
 74
     0
  0
LTYPE
  5
68
330
5
100
AcDbSymbolTableRecord
100
AcDbLinetypeTableRecord
  2
ACDINWELD
 70
     0
  3
_ _ _ _ _
 72
    65
 73
     2
 40
2.0
 49
2.0
 74
     0
 49
-1.0
 74
     0
  0
LTYPE
  5
69
330
5
100
AcDbSymbolTableRecord
100
AcDbLinetypeTableRecord
  2
ACDINTGB
 70
     0
  3
__ . . __ . .
 72
    65
 73
     6
 40
9.0
 49
4.0
 74
     0
 49
-1.0
 74
     0
 49
1.0
 74
     0
 49
-1.0
 74
     0
 49
1.0
 74
     0
 49
-1.0
 74
     0
  0
LTYPE
  5
6A
330
5
100
AcDbSymbolTableRecord
100
AcDbLinetypeTableRecord
  2
ACDINTGL
 70
     0
  3
_ _ _ _ _
 72
    65
 73
     2
 40
3.0
 49
2.0
 74
     0
 49
-1.0
 74
     0
  0
LTYPE
  5
6C
330
5
100
AcDbSymbolTableRecord
100
AcDbLinetypeTableRecord
  2
CENTER
 70
     0
  3
__ . __
 72
    65
 73
     4
 40
7.0
 49
4.0
 74
     0
 49
-1.0
 74
     0
 49
1.0
 74
     0
 49
-1.0
 74
     0
  0
LTYPE
  5
1E2C
330
5
100
AcDbSymbolTableRecord
100
AcDbLinetypeTableRecord
  2
PHANTOM2
 70
     0
  3
Phantom (.5x) ___ _ _ ___ _ _ ___ _ _ ___ _ _
 72
    65
 73
     6
 40
1.25
 49
0.625
 74
     0
 49
-0.125
 74
     0
 49
0.125
 74
     0
 49
-0.125
 74
     0
 49
0.125
 74
     0
 49
-0.125
 74
     0
  0
LTYPE
  5
1E2F
330
5
100
AcDbSymbolTableRecord
100
AcDbLinetypeTableRecord
  2
DASHED
 70
     0
  3
__ __ __ __ __ __ __ __ __ __ __ __ __ __ __ __
 72
    65
 73
     2
 40
19.05
 49
12.7
 74
     0
 49
-6.349999999999998
 74
     0
  0
LTYPE
  5
2C6C
330
5
100
AcDbSymbolTableRecord
100
AcDbLinetypeTableRecord
  2
HIDDEN
 70
     0
  3
Verdeckt
 72
    65
 73
     2
 40
9.525
 49
6.349999999999999
 74
     0
 49
-3.174999999999999
 74
     0
  0
LTYPE
  5
48BC
330
5
100
AcDbSymbolTableRecord
100
AcDbLinetypeTableRecord
  2
ACANSTGB
 70
     0
  3
__ . . __ . .
 72
    65
 73
     6
 40
0.35433070866
 49
0.15748031496
 74
     0
 49
-0.03937007874
 74
     0
 49
0.03937007874
 74
     0
 49
-0.03937007874
 74
     0
 49
0.03937007874
 74
     0
 49
-0.03937007874
 74
     0
  0
LTYPE
  5
48BD
330
5
100
AcDbSymbolTableRecord
100
AcDbLinetypeTableRecord
  2
ACANSTGL
 70
     0
  3
_ _ _ _ _
 72
    65
 73
     2
 40
0.11811023622
 49
0.07874015748
 74
     0
 49
-0.03937007874
 74
     0
  0
LTYPE
  5
4E20
330
5
100
AcDbSymbolTableRecord
100
AcDbLinetypeTableRecord
  2
AM_ISO02W050
 70
     0
  3
__ __ __ __ __ __ __ __ __ __ __ __ __ __ __
 72
    65
 73
     2
 40
7.5
 49
6.0
 74
     0
 49
-1.5
 74
     0
  0
LTYPE
  5
4E21
330
5
100
AcDbSymbolTableRecord
100
AcDbLinetypeTableRecord
  2
AM_ISO08W050
 70
     0
  3
____ . ____ . ____ . ____ . ____ . ____ . ____
 72
    65
 73
     4
 40
18.0
 49
12.0
 74
     0
 49
-1.5
 74
     0
 49
3.0
 74
     0
 49
-1.5
 74
     0
  0
LTYPE
  5
4E22
330
5
100
AcDbSymbolTableRecord
100
AcDbLinetypeTableRecord
  2
AM_ISO09W050
 70
     0
  3
_____ . . _____ . . _____ . . ____ .. ____
 72
    65
 73
     6
 40
22.5
 49
12.0
 74
     0
 49
-1.5
 74
     0
 49
3.0
 74
     0
 49
-1.5
 74
     0
 49
3.0
 74
     0
 49
-1.5
 74
     0
  0
LTYPE
  5
4E23
330
5
100
AcDbSymbolTableRecord
100
AcDbLinetypeTableRecord
  2
AM_ISO08W050x2
 70
     0
  3
__ . __ . __ . __ . __ . __
 72
    65
 73
     4
 40
9.0
 49
6.0
 74
     0
 49
-0.75
 74
     0
 49
1.5
 74
     0
 49
-0.75
 74
     0
  0
LTYPE
  5
4E24
330
5
100
AcDbSymbolTableRecord
100
AcDbLinetypeTableRecord
  2
AM_ISO02W050x2
 70
     0
  3
 _ _ _ _ _ _ _ _ _ _ _ _
 72
    65
 73
     2
 40
3.75
 49
3.0
 74
     0
 49
-0.75
 74
     0
  0
ENDTAB
  0
TABLE
  2
LAYER
  5
2
330
0
100
AcDbSymbolTable
 70
    12
  0
LAYER
  5
10
102
{ACAD_XDICTIONARY
360
4005
102
}
330
2
100
AcDbSymbolTableRecord
100
AcDbLayerTableRecord
  2
0
 70
     0
 62
     7
  6
Continuous
370
    -3
390
F
  0
LAYER
  5
263
330
2
100
AcDbSymbolTableRecord
100
AcDbLayerTableRecord
  2
Defpoints
 70
     0
 62
     7
  6
Continuous
290
     0
370
    -3
390
F
  0
LAYER
  5
1E30
102
{ACAD_XDICTIONARY
360
4007
102
}
330
2
100
AcDbSymbolTableRecord
100
AcDbLayerTableRecord
  2
1
 70
     0
 62
     4
  6
Continuous
370
    -3
390
F
  0
LAYER
  5
1E31
102
{ACAD_XDICTIONARY
360
4009
102
}
330
2
100
AcDbSymbolTableRecord
100
AcDbLayerTableRecord
  2
2
 70
     0
 62
     7
  6
Continuous
370
    -3
390
F
  0
LAYER
  5
1E32
102
{ACAD_XDICTIONARY
360
400B
102
}
330
2
100
AcDbSymbolTableRecord
100
AcDbLayerTableRecord
  2
4
 70
     0
 62
     2
  6
CENTER
370
    -3
390
F
  0
LAYER
  5
1E33
102
{ACAD_XDICTIONARY
360
400D
102
}
330
2
100
AcDbSymbolTableRecord
100
AcDbLayerTableRecord
  2
6
 70
     0
 62
     5
  6
Continuous
370
    -3
390
F
  0
LAYER
  5
1E34
102
{ACAD_XDICTIONARY
360
400F
102
}
330
2
100
AcDbSymbolTableRecord
100
AcDbLayerTableRecord
  2
SK1
 70
     0
 62
     4
  6
Continuous
370
    -3
390
F
  0
LAYER
  5
1E35
102
{ACAD_XDICTIONARY
360
4011
102
}
330
2
100
AcDbSymbolTableRecord
100
AcDbLayerTableRecord
  2
SK2
 70
     0
 62
     7
  6
Continuous
370
    -3
390
F
  0
LAYER
  5
1E36
102
{ACAD_XDICTIONARY
360
4013
102
}
330
2
100
AcDbSymbolTableRecord
100
AcDbLayerTableRecord
  2
SK3
 70
     0
 62
     1
  6
DASHED
370
    -3
390
F
  0
LAYER
  5
1E37
102
{ACAD_XDICTIONARY
360
4015
102
}
330
2
100
AcDbSymbolTableRecord
100
AcDbLayerTableRecord
  2
CUT
 70
     0
 62
     1
  6
Continuous
370
    -3
390
F
  0
LAYER
  5
1E38
102
{ACAD_XDICTIONARY
360
4017
102
}
330
2
100
AcDbSymbolTableRecord
100
AcDbLayerTableRecord
  2
NOCUT
 70
     0
 62
     7
  6
Continuous
370
    -3
390
F
  0
LAYER
  5
39B0
102
{ACAD_XDICTIONARY
360
4019
102
}
330
2
100
AcDbSymbolTableRecord
100
AcDbLayerTableRecord
  2
SK4
 70
     0
 62
     2
  6
CENTER
370
    -3
390
F
  0
ENDTAB
  0
TABLE
  2
STYLE
  5
3
330
0
100
AcDbSymbolTable
 70
     5
  0
STYLE
  5
11
330
3
100
AcDbSymbolTableRecord
100
AcDbTextStyleTableRecord
  2
STANDARD
 70
     0
 40
0.0
 41
1.0
 50
0.0
 71
     0
 42
2.5
  3
ISOCP.SHX
  4

  0
STYLE
  5
54
330
3
100
AcDbSymbolTableRecord
100
AcDbTextStyleTableRecord
  2

 70
     1
 40
0.0
 41
1.0
 50
0.0
 71
     0
 42
2.5
  3
ltypeshp.shx
  4

  0
STYLE
  5
67
330
3
100
AcDbSymbolTableRecord
100
AcDbTextStyleTableRecord
  2
ACDINGDT
 70
     0
 40
0.0
 41
1.0
 50
0.0
 71
     0
 42
2.5
  3
amgdt.shx
  4

  0
STYLE
  5
48BE
330
3
100
AcDbSymbolTableRecord
100
AcDbTextStyleTableRecord
  2
ACANSTS
 70
     0
 40
1.0
 41
1.0
 50
0.0
 71
     0
 42
0.2
  3
romans.shx
  4

  0
STYLE
  5
48BF
330
3
100
AcDbSymbolTableRecord
100
AcDbTextStyleTableRecord
  2
ACANSGDT
 70
     0
 40
0.0
 41
1.0
 50
0.0
 71
     0
 42
0.2
  3
amgdtans.shx
  4

  0
ENDTAB
  0
TABLE
  2
VIEW
  5
6
330
0
100
AcDbSymbolTable
 70
     0
  0
ENDTAB
  0
TABLE
  2
UCS
  5
7
330
0
100
AcDbSymbolTable
 70
     0
  0
ENDTAB
  0
TABLE
  2
APPID
  5
9
330
0
100
AcDbSymbolTable
 70
    72
  0
APPID
  5
12
330
9
100
AcDbSymbolTableRecord
100
AcDbRegAppTableRecord
  2
ACAD
 70
     0
  0
APPID
  5
2C
330
9
100
AcDbSymbolTableRecord
100
AcDbRegAppTableRecord
  2
MCAD_NO_VIS
 70
     0
  0
APPID
  5
2D
330
9
100
AcDbSymbolTableRecord
100
AcDbRegAppTableRecord
  2
ACAD_TEMP_GRAPHIC
 70
     0
  0
APPID
  5
3E
330
9
100
AcDbSymbolTableRecord
100
AcDbRegAppTableRecord
  2
ACATTRIBSERVICES
 70
     0
  0
APPID
  5
29A
330
9
100
AcDbSymbolTableRecord
100
AcDbRegAppTableRecord
  2
GENIUS_GENDIMSH_14
 70
     0
  0
APPID
  5
588
330
9
100
AcDbSymbolTableRecord
100
AcDbRegAppTableRecord
  2
GENIUS12
 70
     0
  0
APPID
  5
589
330
9
100
AcDbSymbolTableRecord
100
AcDbRegAppTableRecord
  2
GENIUS_GENOENT_13
 70
     0
  0
APPID
  5
58A
330
9
100
AcDbSymbolTableRecord
100
AcDbRegAppTableRecord
  2
GENIUS_GENODEF_13
 70
     0
  0
APPID
  5
58B
330
9
100
AcDbSymbolTableRecord
100
AcDbRegAppTableRecord
  2
GENIUS_GENOBJ-N-RSBK_13
 70
     0
  0
APPID
  5
58C
330
9
100
AcDbSymbolTableRecord
100
AcDbRegAppTableRecord
  2
GENIUS_GENOBJ-N-DIM12_13
 70
     0
  0
APPID
  5
58D
330
9
100
AcDbSymbolTableRecord
100
AcDbRegAppTableRecord
  2
GENIUS_GENSCALE_13
 70
     0
  0
APPID
  5
58E
330
9
100
AcDbSymbolTableRecord
100
AcDbRegAppTableRecord
  2
GENIUS_GENCFG_13
 70
     0
  0
APPID
  5
58F
330
9
100
AcDbSymbolTableRecord
100
AcDbRegAppTableRecord
  2
GENIUS_GENCFG0_13
 70
     0
  0
APPID
  5
590
330
9
100
AcDbSymbolTableRecord
100
AcDbRegAppTableRecord
  2
GENIUS_GENCFG1_13
 70
     0
  0
APPID
  5
591
330
9
100
AcDbSymbolTableRecord
100
AcDbRegAppTableRecord
  2
GENIUS_GENCFG2_13
 70
     0
  0
APPID
  5
592
330
9
100
AcDbSymbolTableRecord
100
AcDbRegAppTableRecord
  2
GENIUS_GENCFG3_13
 70
     0
  0
APPID
  5
593
330
9
100
AcDbSymbolTableRecord
100
AcDbRegAppTableRecord
  2
GENIUS_GENCFG4_13
 70
     0
  0
APPID
  5
594
330
9
100
AcDbSymbolTableRecord
100
AcDbRegAppTableRecord
  2
GENIUS_GEVCFG0_13
 70
     0
  0
APPID
  5
595
330
9
100
AcDbSymbolTableRecord
100
AcDbRegAppTableRecord
  2
GENIUS_GENOBJ-F-SUF_13
 70
     0
  0
APPID
  5
596
330
9
100
AcDbSymbolTableRecord
100
AcDbRegAppTableRecord
  2
GENIUS_GEFCFG0_13
 70
     0
  0
APPID
  5
597
330
9
100
AcDbSymbolTableRecord
100
AcDbRegAppTableRecord
  2
GEV_VCCNULL_SWITCH_OFF
 70
     0
  0
APPID
  5
598
330
9
100
AcDbSymbolTableRecord
100
AcDbRegAppTableRecord
  2
GENIUS_GENDTOL_13
 70
     0
  0
APPID
  5
599
330
9
100
AcDbSymbolTableRecord
100
AcDbRegAppTableRecord
  2
GENIUS_GENDIM_13
 70
     0
  0
APPID
  5
59A
330
9
100
AcDbSymbolTableRecord
100
AcDbRegAppTableRecord
  2
GENIUS_GE3DTOL_13
 70
     0
  0
APPID
  5
59B
330
9
100
AcDbSymbolTableRecord
100
AcDbRegAppTableRecord
  2
AD_DRAW
 70
     0
  0
APPID
  5
59C
330
9
100
AcDbSymbolTableRecord
100
AcDbRegAppTableRecord
  2
ASURF_PCURVE_APPNAME
 70
     0
  0
APPID
  5
59D
330
9
100
AcDbSymbolTableRecord
100
AcDbRegAppTableRecord
  2
AMG_3D2D_5.0
 70
     0
  0
APPID
  5
59E
330
9
100
AcDbSymbolTableRecord
100
AcDbRegAppTableRecord
  2
DESIGNERASSEMBLIES
 70
     0
  0
APPID
  5
59F
330
9
100
AcDbSymbolTableRecord
100
AcDbRegAppTableRecord
  2
ACADM_DIM_EDIT
 70
     0
  0
APPID
  5
5A0
330
9
100
AcDbSymbolTableRecord
100
AcDbRegAppTableRecord
  2
AMDT_DM_ADJ
 70
     0
  0
APPID
  5
5A1
330
9
100
AcDbSymbolTableRecord
100
AcDbRegAppTableRecord
  2
GENIUS_GENSCREG_15
 70
     0
  0
APPID
  5
5A2
330
9
100
AcDbSymbolTableRecord
100
AcDbRegAppTableRecord
  2
GENIUS_GENOBJ-N-SDF_13
 70
     0
  0
APPID
  5
6E4
330
9
100
AcDbSymbolTableRecord
100
AcDbRegAppTableRecord
  2
GENIUS_GENOBJ-N-FIL_13
 70
     0
  0
APPID
  5
C65
330
9
100
AcDbSymbolTableRecord
100
AcDbRegAppTableRecord
  2
GENIUS_GENHINW_13
 70
     0
  0
APPID
  5
C66
330
9
100
AcDbSymbolTableRecord
100
AcDbRegAppTableRecord
  2
GENIUS_GENOBJ-F-TOLL_13
 70
     0
  0
APPID
  5
C67
330
9
100
AcDbSymbolTableRecord
100
AcDbRegAppTableRecord
  2
GENIUS_GENOREF_13
 70
     0
  0
APPID
  5
C68
330
9
100
AcDbSymbolTableRecord
100
AcDbRegAppTableRecord
  2
GENIUS_GENOLIS_13
 70
     0
  0
APPID
  5
C69
330
9
100
AcDbSymbolTableRecord
100
AcDbRegAppTableRecord
  2
GENIUS_GEFTOLC_13
 70
     0
  0
APPID
  5
C6A
330
9
100
AcDbSymbolTableRecord
100
AcDbRegAppTableRecord
  2
GENIUS_GENOBJ-F-TOL_13
 70
     0
  0
APPID
  5
C6B
330
9
100
AcDbSymbolTableRecord
100
AcDbRegAppTableRecord
  2
GENIUS_GENOBJ-N-RSSYM_13
 70
     0
  0
APPID
  5
C6C
330
9
100
AcDbSymbolTableRecord
100
AcDbRegAppTableRecord
  2
GENIUS_GENSYMENT_13
 70
     0
  0
APPID
  5
C6D
330
9
100
AcDbSymbolTableRecord
100
AcDbRegAppTableRecord
  2
GENIUS_GENSCSYM_13
 70
     0
  0
APPID
  5
1E42
330
9
100
AcDbSymbolTableRecord
100
AcDbRegAppTableRecord
  2
GENIUS_GENBLLY_14
 70
     0
  0
APPID
  5
1E43
330
9
100
AcDbSymbolTableRecord
100
AcDbRegAppTableRecord
  2
GENIUS_GENTRA_14
 70
     0
  0
APPID
  5
1E44
330
9
100
AcDbSymbolTableRecord
100
AcDbRegAppTableRecord
  2
GENIUS_GENOBJ-N-TIT_13
 70
     0
  0
APPID
  5
1E45
330
9
100
AcDbSymbolTableRecord
100
AcDbRegAppTableRecord
  2
GENIUS_GENTITLE_13
 70
     0
  0
APPID
  5
1E46
330
9
100
AcDbSymbolTableRecord
100
AcDbRegAppTableRecord
  2
ACADIGES
 70
     0
  0
APPID
  5
1E47
330
9
100
AcDbSymbolTableRecord
100
AcDbRegAppTableRecord
  2
GENIUS_GENOBJ-N-HTC_13
 70
     0
  0
APPID
  5
1E48
330
9
100
AcDbSymbolTableRecord
100
AcDbRegAppTableRecord
  2
GENIUS_GENHATCH_13
 70
     0
  0
APPID
  5
1E49
330
9
100
AcDbSymbolTableRecord
100
AcDbRegAppTableRecord
  2
GENIUS_GENOBJ-N-CRS_13
 70
     0
  0
APPID
  5
1E4A
330
9
100
AcDbSymbolTableRecord
100
AcDbRegAppTableRecord
  2
GENIUS_GENFIL_13
 70
     0
  0
APPID
  5
1E4B
330
9
100
AcDbSymbolTableRecord
100
AcDbRegAppTableRecord
  2
GENIUS_GENOBJ-N-CHA_13
 70
     0
  0
APPID
  5
1E4C
330
9
100
AcDbSymbolTableRecord
100
AcDbRegAppTableRecord
  2
GENIUS_GENOBJ-N-CEN_13
 70
     0
  0
APPID
  5
2C8D
330
9
100
AcDbSymbolTableRecord
100
AcDbRegAppTableRecord
  2
ACAD_DSTYLE_DIMARC_LENGTH_SYMBOL
 70
     0
  0
APPID
  5
2C8E
330
9
100
AcDbSymbolTableRecord
100
AcDbRegAppTableRecord
  2
ACAD_DSTYLE_DIMJOGGED_JOGANGLE_SYMBOL
 70
     0
  0
APPID
  5
2CC5
330
9
100
AcDbSymbolTableRecord
100
AcDbRegAppTableRecord
  2
AcAecLayerStandard
 70
     0
  0
APPID
  5
3272
330
9
100
AcDbSymbolTableRecord
100
AcDbRegAppTableRecord
  2
ACAD_PSEXT
 70
     0
  0
APPID
  5
3273
330
9
100
AcDbSymbolTableRecord
100
AcDbRegAppTableRecord
  2
GENIUS_GENREC_14
 70
     0
  0
APPID
  5
3274
330
9
100
AcDbSymbolTableRecord
100
AcDbRegAppTableRecord
  2
GENIUS_GENOBJ-N-REC_13
 70
     0
  0
APPID
  5
3275
330
9
100
AcDbSymbolTableRecord
100
AcDbRegAppTableRecord
  2
ACAD_DSTYLE_DIMTEXT_FILL
 70
     0
  0
APPID
  5
3276
330
9
100
AcDbSymbolTableRecord
100
AcDbRegAppTableRecord
  2
ACAD_DSTYLE_DIMEXT_LENGTH
 70
     0
  0
APPID
  5
3277
330
9
100
AcDbSymbolTableRecord
100
AcDbRegAppTableRecord
  2
ACAD_DSTYLE_DIMEXT_ENABLED
 70
     0
  0
APPID
  5
3278
330
9
100
AcDbSymbolTableRecord
100
AcDbRegAppTableRecord
  2
ACAD_DSTYLE_DIM_LINETYPE
 70
     0
  0
APPID
  5
3279
330
9
100
AcDbSymbolTableRecord
100
AcDbRegAppTableRecord
  2
ACAD_DSTYLE_DIM_EXT1_LINETYPE
 70
     0
  0
APPID
  5
327A
330
9
100
AcDbSymbolTableRecord
100
AcDbRegAppTableRecord
  2
ACAD_DSTYLE_DIM_EXT2_LINETYPE
 70
     0
  0
APPID
  5
39B1
330
9
100
AcDbSymbolTableRecord
100
AcDbRegAppTableRecord
  2
ACAD_DSTYLE_DIMARC_LENGTH_
 70
     0
  0
APPID
  5
39B2
330
9
100
AcDbSymbolTableRecord
100
AcDbRegAppTableRecord
  2
ACAD_DSTYLE_DIMJOGGED_JOGA
 70
     0
  0
APPID
  5
39B3
330
9
100
AcDbSymbolTableRecord
100
AcDbRegAppTableRecord
  2
AMG_3D2D_5_0
 70
     0
  0
APPID
  5
3BFD
330
9
100
AcDbSymbolTableRecord
100
AcDbRegAppTableRecord
  2
ACAD_MLEADERVER
 70
     0
  0
APPID
  5
41B2
330
9
100
AcDbSymbolTableRecord
100
AcDbRegAppTableRecord
  2
ACAD_EXEMPT_FROM_CAD_STANDARDS
 70
     0
  0
APPID
  5
429A
330
9
100
AcDbSymbolTableRecord
100
AcDbRegAppTableRecord
  2
ACAD_DSTYLE_DIMINSPECT
 70
     0
  0
APPID
  5
474D
330
9
100
AcDbSymbolTableRecord
100
AcDbRegAppTableRecord
  2
ACAD_DSTYLE_DIMANGULAR_EXTENSION
 70
     0
  0
ENDTAB
  0
TABLE
  2
DIMSTYLE
  5
A
330
0
100
AcDbSymbolTable
 70
    16
100
AcDbDimStyleTable
 71
     1
340
6F
  0
DIMSTYLE
105
6F
330
A
100
AcDbSymbolTableRecord
100
AcDbDimStyleTableRecord
  2
AM_DIN
 70
     0
  4
"
 41
2.5
 42
0.0
 43
10.0
 44
1.0
 47
0.1
 48
0.1
 73
     0
 74
     0
 77
     1
 78
     8
 79
     2
140
3.5
141
0.0
143
0.0393701
146
0.71
147
1.5
172
     1
176
   256
177
   256
178
     2
271
     2
272
     2
283
     0
284
     8
340
11
371
    -1
372
    -1
1001
ACAD_DSTYLE_DIMJOGGED_JOGANGLE_SYMBOL
1070
   384
1040
1.570796326794896
  0
DIMSTYLE
105
70
330
A
100
AcDbSymbolTableRecord
100
AcDbDimStyleTableRecord
  2
AM_DIN$3
 70
     0
  4
"
 41
3.5
 42
0.0
 43
10.0
 44
1.0
 47
0.1
 48
0.1
 73
     0
 77
     1
 78
     8
 79
     2
140
3.5
141
0.0
143
0.0393701
146
0.71
147
1.5
176
   256
177
   256
178
     2
271
     2
272
     2
283
     0
284
     8
288
     1
289
     0
340
11
371
    -1
372
    -1
1001
ACAD_DSTYLE_DIMJOGGED_JOGANGLE_SYMBOL
1070
   384
1040
1.570796326794896
  0
DIMSTYLE
105
71
330
A
100
AcDbSymbolTableRecord
100
AcDbDimStyleTableRecord
  2
AM_DIN$4
 70
     0
  4
"
 41
3.5
 42
0.0
 43
10.0
 44
1.0
 47
0.1
 48
0.1
 73
     0
 77
     1
 78
     8
 79
     2
140
3.5
141
0.0
143
0.0393701
146
0.71
147
1.5
176
   256
177
   256
178
     2
271
     2
272
     2
283
     0
284
     8
288
     1
289
     0
340
11
371
    -1
372
    -1
1001
ACAD_DSTYLE_DIMJOGGED_JOGANGLE_SYMBOL
1070
   384
1040
1.570796326794896
  0
DIMSTYLE
105
72
330
A
100
AcDbSymbolTableRecord
100
AcDbDimStyleTableRecord
  2
AM_DIN$6
 70
     0
  4
"
 41
3.5
 42
0.0
 43
0.0
 44
1.0
 47
0.1
 48
0.1
 73
     0
 74
     0
 78
     8
 79
     2
140
3.5
141
0.0
143
0.0393701
146
0.71
147
1.5
172
     1
176
   256
177
   256
178
     2
271
     2
272
     2
283
     0
284
     8
340
11
371
    -1
372
    -1
1001
ACAD_DSTYLE_DIMJOGGED_JOGANGLE_SYMBOL
1070
   384
1040
1.570796326794896
  0
DIMSTYLE
105
73
330
A
100
AcDbSymbolTableRecord
100
AcDbDimStyleTableRecord
  2
AM_DIN$7
 70
     0
  4
"
 41
3.5
 42
0.0
 43
10.0
 44
1.0
 47
0.1
 48
0.1
 73
     0
 74
     0
 77
     1
 78
     8
 79
     2
140
3.5
141
0.0
143
0.0393701
146
0.71
147
1.5
172
     1
176
   256
177
   256
178
     2
271
     2
272
     2
283
     0
284
     8
340
11
371
    -1
372
    -1
1001
ACAD_DSTYLE_DIMJOGGED_JOGANGLE_SYMBOL
1070
   384
1040
1.570796326794896
  0
DIMSTYLE
105
74
330
A
100
AcDbSymbolTableRecord
100
AcDbDimStyleTableRecord
  2
AM_DIN$SF
 70
     0
  4
"
 41
2.5
 42
1.0
 43
10.0
 44
1.0
 47
0.1
 48
0.1
 73
     0
 74
     0
 75
     1
 76
     1
 77
     1
 78
     8
 79
     2
140
3.5
141
0.0
143
0.0393701
146
0.71
147
1.5
172
     1
176
   256
177
   256
178
     2
271
     2
272
     3
274
     4
283
     0
284
     8
340
11
371
    -1
372
    -1
1001
ACAD_DSTYLE_DIMJOGGED_JOGANGLE_SYMBOL
1070
   384
1040
1.570796326794896
  0
DIMSTYLE
105
79
330
A
100
AcDbSymbolTableRecord
100
AcDbDimStyleTableRecord
  2
AM_DIN$SH
 70
     0
  4
"
 41
2.5
 42
1.0
 43
10.0
 44
1.0
 47
0.1
 48
0.1
 73
     0
 74
     0
 75
     1
 76
     1
 77
     1
 78
     8
 79
     2
140
3.5
141
0.0
143
0.0393701
144
2.0
146
0.71
147
1.5
172
     1
173
     1
176
   256
177
   256
178
     2
271
     2
272
     3
274
     4
283
     0
284
     8
340
11
343
75
371
    -1
372
    -1
1001
ACAD_DSTYLE_DIMJOGGED_JOGANGLE_SYMBOL
1070
   384
1040
1.570796326794896
  0
DIMSTYLE
105
1E3B
330
A
100
AcDbSymbolTableRecord
100
AcDbDimStyleTableRecord
  2
STANDARD
 70
     0
271
     2
272
     2
279
     2
284
     8
285
     8
286
     8
340
11
  0
DIMSTYLE
105
2CD1
102
{ACAD_REACTORS
330
4BF3
330
4C40
330
4C41
330
4C42
330
4C43
330
4D0B
102
}
330
A
100
AcDbSymbolTableRecord
100
AcDbDimStyleTableRecord
  2
AM_DIN$0
 70
     0
  4
"
 41
2.5
 42
0.0
 43
10.0
 44
1.0
 47
0.1
 48
0.1
 73
     0
 74
     0
 77
     1
 78
     8
 79
     2
140
3.5
141
0.0
143
0.0393701
146
0.71
147
1.5
172
     1
176
   256
177
   256
178
     2
271
     2
272
     2
283
     0
284
     8
340
11
371
    -1
372
    -1
1001
ACAD_DSTYLE_DIMJOGGED_JOGANGLE_SYMBOL
1070
   384
1040
1.570796326794896
  0
DIMSTYLE
105
471E
102
{ACAD_REACTORS
330
4C44
102
}
330
A
100
AcDbSymbolTableRecord
100
AcDbDimStyleTableRecord
  2
AM_DIN$2
 70
     0
  4
"
 41
2.5
 42
0.0
 43
10.0
 44
1.0
 47
0.1
 48
0.1
 73
     0
 74
     0
 77
     1
 78
     8
 79
     2
140
3.5
141
0.0
143
0.0393701
146
0.71
147
1.5
172
     1
176
   256
177
   256
178
     2
271
     2
272
     2
283
     0
284
     8
340
11
371
    -1
372
    -1
1001
ACAD_DSTYLE_DIMJOGGED_JOGANGLE_SYMBOL
1070
   384
1040
1.570796326794896
  0
DIMSTYLE
105
48C1
330
A
100
AcDbSymbolTableRecord
100
AcDbDimStyleTableRecord
  2
AM_ANSI
 70
     0
  4
mm
 41
0.1
 42
0.05
 43
0.5
 44
0.1
 47
0.1
 48
0.1
 78
     7
140
0.12
141
0.0
146
0.71
147
0.06
176
   256
177
   256
178
     2
271
     2
272
     2
279
     2
284
     8
285
     8
286
     8
340
11
1001
ACAD_DSTYLE_DIMJOGGED_JOGANGLE_SYMBOL
1070
   384
1040
0.7853981633974483
1001
ACAD_DSTYLE_DIMARC_LENGTH_SYMBOL
1070
   379
1070
     1
  0
DIMSTYLE
105
48C2
330
A
100
AcDbSymbolTableRecord
100
AcDbDimStyleTableRecord
  2
AM_ANSI$3
 70
     0
  4
mm
 41
0.1
 42
0.05
 43
0.5
 44
0.1
 47
0.1
 48
0.1
 78
     7
140
0.12
141
0.0
146
0.71
147
0.06
176
   256
177
   256
178
     2
271
     2
272
     2
279
     2
284
     8
285
     8
286
     8
340
11
1001
ACAD_DSTYLE_DIMJOGGED_JOGANGLE_SYMBOL
1070
   384
1040
0.7853981633974483
1001
ACAD_DSTYLE_DIMARC_LENGTH_SYMBOL
1070
   379
1070
     1
  0
DIMSTYLE
105
48C3
330
A
100
AcDbSymbolTableRecord
100
AcDbDimStyleTableRecord
  2
AM_ANSI$4
 70
     0
  4
mm
 41
0.1
 42
0.05
 43
0.5
 44
0.1
 47
0.1
 48
0.1
 78
     7
140
0.12
141
0.0
146
0.71
147
0.06
176
   256
177
   256
178
     2
271
     2
272
     2
279
     2
284
     8
285
     8
286
     8
340
11
1001
ACAD_DSTYLE_DIMJOGGED_JOGANGLE_SYMBOL
1070
   384
1040
0.7853981633974483
1001
ACAD_DSTYLE_DIMARC_LENGTH_SYMBOL
1070
   379
1070
     1
  0
DIMSTYLE
105
48C4
330
A
100
AcDbSymbolTableRecord
100
AcDbDimStyleTableRecord
  2
AM_ANSI$7
 70
     0
  4
mm
 41
0.1
 42
0.05
 43
0.5
 44
0.1
 47
0.1
 48
0.1
 78
     7
140
0.24
141
0.0
146
0.71
147
0.06
176
   256
177
   256
178
     2
271
     2
272
     2
279
     2
284
     8
285
     8
286
     8
340
11
1001
ACAD_DSTYLE_DIMJOGGED_JOGANGLE_SYMBOL
1070
   384
1040
0.7853981633974483
1001
ACAD_DSTYLE_DIMARC_LENGTH_SYMBOL
1070
   379
1070
     1
  0
DIMSTYLE
105
48C5
330
A
100
AcDbSymbolTableRecord
100
AcDbDimStyleTableRecord
  2
AM_ANSI$SF
 70
     0
  4
mm
 41
0.1
 42
0.05
 43
0.5
 44
0.1
 47
0.1
 48
0.1
 75
     1
 76
     1
 78
     7
140
0.12
141
0.0
146
0.71
147
0.06
176
   256
177
   256
178
     2
271
     2
272
     2
279
     2
284
     8
285
     8
286
     8
340
11
1001
ACAD_DSTYLE_DIMJOGGED_JOGANGLE_SYMBOL
1070
   384
1040
0.7853981633974483
1001
ACAD_DSTYLE_DIMARC_LENGTH_SYMBOL
1070
   379
1070
     1
  0
DIMSTYLE
105
48C6
330
A
100
AcDbSymbolTableRecord
100
AcDbDimStyleTableRecord
  2
AM_ANSI$SH
 70
     0
  4
mm
 41
0.1
 42
0.05
 43
0.5
 44
0.1
 47
0.1
 48
0.1
 75
     1
 76
     1
 78
     7
140
0.12
141
0.0
146
0.71
147
0.06
173
     1
176
   256
177
   256
178
     2
271
     2
272
     2
279
     2
284
     8
285
     8
286
     8
340
11
1001
ACAD_DSTYLE_DIMJOGGED_JOGANGLE_SYMBOL
1070
   384
1040
0.7853981633974483
1001
ACAD_DSTYLE_DIMARC_LENGTH_SYMBOL
1070
   379
1070
     1
  0
ENDTAB
  0
TABLE
  2
BLOCK_RECORD
  5
1
330
0
100
AcDbSymbolTable
 70
    10
  0
BLOCK_RECORD
  5
1F
102
{ACAD_XDICTIONARY
360
1F1
102
}
330
1
100
AcDbSymbolTableRecord
100
AcDbBlockTableRecord
  2
*Model_Space
340
22
  0
BLOCK_RECORD
  5
1B
330
1
100
AcDbSymbolTableRecord
100
AcDbBlockTableRecord
  2
*Paper_Space
340
1E
  0
BLOCK_RECORD
  5
23
330
1
100
AcDbSymbolTableRecord
100
AcDbBlockTableRecord
  2
*Paper_Space0
340
26
  0
BLOCK_RECORD
  5
75
330
1
100
AcDbSymbolTableRecord
100
AcDbBlockTableRecord
  2
GENAXEH
340
0
  0
BLOCK_RECORD
  5
4C49
330
1
100
AcDbSymbolTableRecord
100
AcDbBlockTableRecord
  2
*D2
340
0
  0
BLOCK_RECORD
  5
4C55
330
1
100
AcDbSymbolTableRecord
100
AcDbBlockTableRecord
  2
*D3
340
0
  0
BLOCK_RECORD
  5
4C61
330
1
100
AcDbSymbolTableRecord
100
AcDbBlockTableRecord
  2
*D4
340
0
  0
BLOCK_RECORD
  5
4C6D
330
1
100
AcDbSymbolTableRecord
100
AcDbBlockTableRecord
  2
*D5
340
0
  0
BLOCK_RECORD
  5
4C79
330
1
100
AcDbSymbolTableRecord
100
AcDbBlockTableRecord
  2
*D6
340
0
  0
BLOCK_RECORD
  5
4C85
330
1
100
AcDbSymbolTableRecord
100
AcDbBlockTableRecord
  2
*D7
340
0
  0
BLOCK_RECORD
  5
4D0C
330
1
100
AcDbSymbolTableRecord
100
AcDbBlockTableRecord
  2
*D8
340
0
  0
ENDTAB
  0
ENDSEC
  0
SECTION
  2
BLOCKS
  0
BLOCK
  5
20
330
1F
100
AcDbEntity
  8
0
100
AcDbBlockBegin
  2
*Model_Space
 70
     0
 10
0.0
 20
0.0
 30
0.0
  3
*Model_Space
  1

  0
ENDBLK
  5
21
330
1F
100
AcDbEntity
  8
0
100
AcDbBlockEnd
  0
BLOCK
  5
1C
330
1B
100
AcDbEntity
 67
     1
  8
0
100
AcDbBlockBegin
  2
*Paper_Space
 70
     0
 10
0.0
 20
0.0
 30
0.0
  3
*Paper_Space
  1

  0
ENDBLK
  5
1D
330
1B
100
AcDbEntity
 67
     1
  8
0
100
AcDbBlockEnd
  0
BLOCK
  5
24
330
23
100
AcDbEntity
 67
     1
  8
0
100
AcDbBlockBegin
  2
*Paper_Space0
 70
     0
 10
0.0
 20
0.0
 30
0.0
  3
*Paper_Space0
  1

  0
ENDBLK
  5
25
330
23
100
AcDbEntity
 67
     1
  8
0
100
AcDbBlockEnd
  0
BLOCK
  5
77
330
75
100
AcDbEntity
  8
0
100
AcDbBlockBegin
  2
GENAXEH
 70
     0
 10
0.0
 20
0.0
 30
0.0
  3
GENAXEH
  1

  0
LINE
  5
76
330
75
100
AcDbEntity
  8
0
100
AcDbLine
 10
-1.0
 20
0.0
 30
0.0
 11
1.0
 21
0.0
 31
0.0
  0
ENDBLK
  5
78
330
75
100
AcDbEntity
  8
0
100
AcDbBlockEnd
  0
BLOCK
  5
4C4A
330
4C49
100
AcDbEntity
  8
0
 48
0.3
100
AcDbBlockBegin
  2
*D2
 70
     1
 10
0.0
 20
0.0
 30
0.0
  3
*D2
  1

  0
LINE
  5
4D5F
330
4C49
100
AcDbEntity
  8
SK2
100
AcDbLine
 10
-55.0
 20
12.50000000000001
 30
0.0
 11
-79.86845500876722
 21
12.50000000000002
 31
0.0
  0
LINE
  5
4D60
330
4C49
100
AcDbEntity
  8
SK2
100
AcDbLine
 10
-55.0
 20
-12.5
 30
0.0
 11
-79.86845500876722
 21
-12.49999999999999
 31
0.0
  0
LINE
  5
4D61
330
4C49
100
AcDbEntity
  8
SK2
100
AcDbLine
 10
-78.86845500876723
 20
10.00000000000002
 30
0.0
 11
-78.86845500876723
 21
-9.999999999999992
 31
0.0
  0
SOLID
  5
4D62
330
4C49
100
AcDbEntity
  8
SK2
100
AcDbTrace
 10
-79.2851216754339
 20
10.00000000000002
 30
0.0
 11
-78.45178834210056
 21
10.00000000000002
 31
0.0
 12
-78.86845500876723
 22
12.50000000000002
 32
0.0
 13
-78.86845500876723
 23
12.50000000000002
 33
0.0
  0
SOLID
  5
4D63
330
4C49
100
AcDbEntity
  8
SK2
100
AcDbTrace
 10
-79.2851216754339
 20
-9.999999999999992
 30
0.0
 11
-78.45178834210056
 21
-9.999999999999992
 31
0.0
 12
-78.86845500876723
 22
-12.49999999999999
 32
0.0
 13
-78.86845500876723
 23
-12.49999999999999
 33
0.0
  0
MTEXT
  5
4D64
330
4C49
100
AcDbEntity
  8
SK2
 62
     2
100
AcDbMText
 10
-82.11879949695619
 20
0.0000000000000017
 30
0.0
 40
3.5
 41
0.0
 71
     5
 72
     1
  1
%%c25
 11
0.0000000000000001
 21
1.0
 31
0.0
 73
     1
 44
1.0
  0
POINT
  5
4D65
330
4C49
100
AcDbEntity
  8
Defpoints
 62
     0
100
AcDbPoint
 10
-55.0
 20
12.50000000000001
 30
0.0
  0
POINT
  5
4D66
330
4C49
100
AcDbEntity
  8
Defpoints
 62
     0
100
AcDbPoint
 10
-55.0
 20
-12.5
 30
0.0
  0
POINT
  5
4D67
330
4C49
100
AcDbEntity
  8
Defpoints
 62
     0
100
AcDbPoint
 10
-78.86845500876723
 20
-12.49999999999999
 30
0.0
  0
ENDBLK
  5
4C4B
330
4C49
100
AcDbEntity
  8
0
 48
0.3
100
AcDbBlockEnd
  0
BLOCK
  5
4C56
330
4C55
100
AcDbEntity
  8
0
 48
0.3
100
AcDbBlockBegin
  2
*D3
 70
     1
 10
0.0
 20
0.0
 30
0.0
  3
*D3
  1

  0
LINE
  5
4D68
330
4C55
100
AcDbEntity
  8
2
100
AcDbLine
 10
44.0
 20
10.0
 30
0.0
 11
62.94526689324448
 21
9.999999999999994
 31
0.0
  0
LINE
  5
4D69
330
4C55
100
AcDbEntity
  8
2
100
AcDbLine
 10
44.0
 20
-10.0
 30
0.0
 11
62.94526689324448
 21
-10.0
 31
0.0
  0
LINE
  5
4D6A
330
4C55
100
AcDbEntity
  8
2
100
AcDbLine
 10
61.94526689324447
 20
7.499999999999995
 30
0.0
 11
61.94526689324447
 21
-7.500000000000004
 31
0.0
  0
SOLID
  5
4D6B
330
4C55
100
AcDbEntity
  8
2
100
AcDbTrace
 10
61.52860022657781
 20
7.499999999999995
 30
0.0
 11
62.36193355991114
 21
7.499999999999994
 31
0.0
 12
61.94526689324447
 22
9.999999999999994
 32
0.0
 13
61.94526689324447
 23
9.999999999999994
 33
0.0
  0
SOLID
  5
4D6C
330
4C55
100
AcDbEntity
  8
2
100
AcDbTrace
 10
61.52860022657781
 20
-7.500000000000004
 30
0.0
 11
62.36193355991114
 21
-7.500000000000005
 31
0.0
 12
61.94526689324447
 22
-10.0
 32
0.0
 13
61.94526689324447
 23
-10.0
 33
0.0
  0
MTEXT
  5
4D6D
330
4C55
100
AcDbEntity
  8
2
 62
     2
100
AcDbMText
 10
58.6949224050555
 20
0.336865261695721
 30
0.0
 40
3.5
 41
0.0
 71
     5
 72
     1
  1
%%c20
 11
0.0000000000000001
 21
1.0
 31
0.0
 73
     1
 44
1.0
  0
POINT
  5
4D6E
330
4C55
100
AcDbEntity
  8
Defpoints
 62
     0
100
AcDbPoint
 10
44.0
 20
10.0
 30
0.0
  0
POINT
  5
4D6F
330
4C55
100
AcDbEntity
  8
Defpoints
 62
     0
100
AcDbPoint
 10
44.0
 20
-10.0
 30
0.0
  0
POINT
  5
4D70
330
4C55
100
AcDbEntity
  8
Defpoints
 62
     0
100
AcDbPoint
 10
61.94526689324447
 20
-10.0
 30
0.0
  0
ENDBLK
  5
4C57
330
4C55
100
AcDbEntity
  8
0
 48
0.3
100
AcDbBlockEnd
  0
BLOCK
  5
4C62
330
4C61
100
AcDbEntity
  8
0
 48
0.3
100
AcDbBlockBegin
  2
*D4
 70
     1
 10
0.0
 20
0.0
 30
0.0
  3
*D4
  1

  0
LINE
  5
4D71
330
4C61
100
AcDbEntity
  8
2
100
AcDbLine
 10
41.05327189580015
 20
21.05
 30
0.0
 11
82.02431955086979
 21
21.04999999999999
 31
0.0
  0
LINE
  5
4D72
330
4C61
100
AcDbEntity
  8
2
100
AcDbLine
 10
41.05327189580015
 20
-21.05
 30
0.0
 11
82.02431955086979
 21
-21.05000000000001
 31
0.0
  0
LINE
  5
4D73
330
4C61
100
AcDbEntity
  8
2
100
AcDbLine
 10
81.02431955086979
 20
18.54999999999998
 30
0.0
 11
81.02431955086979
 21
-18.55000000000001
 31
0.0
  0
SOLID
  5
4D74
330
4C61
100
AcDbEntity
  8
2
100
AcDbTrace
 10
80.60765288420311
 20
18.54999999999998
 30
0.0
 11
81.44098621753647
 21
18.54999999999998
 31
0.0
 12
81.02431955086979
 22
21.04999999999999
 32
0.0
 13
81.02431955086979
 23
21.04999999999999
 33
0.0
  0
SOLID
  5
4D75
330
4C61
100
AcDbEntity
  8
2
100
AcDbTrace
 10
80.60765288420311
 20
-18.55000000000001
 30
0.0
 11
81.44098621753647
 21
-18.55000000000001
 31
0.0
 12
81.02431955086979
 22
-21.05000000000001
 32
0.0
 13
81.02431955086979
 23
-21.05000000000001
 33
0.0
  0
MTEXT
  5
4D76
330
4C61
100
AcDbEntity
  8
2
 62
     2
100
AcDbMText
 10
77.77397506268082
 20
0.0000000000000025
 30
0.0
 40
3.5
 41
0.0
 71
     5
 72
     1
  1
%%c42.1
 11
0.0000000000000001
 21
1.0
 31
0.0
 73
     1
 44
1.0
  0
POINT
  5
4D77
330
4C61
100
AcDbEntity
  8
Defpoints
 62
     0
100
AcDbPoint
 10
41.05327189580015
 20
21.05
 30
0.0
  0
POINT
  5
4D78
330
4C61
100
AcDbEntity
  8
Defpoints
 62
     0
100
AcDbPoint
 10
41.05327189580015
 20
-21.05
 30
0.0
  0
POINT
  5
4D79
330
4C61
100
AcDbEntity
  8
Defpoints
 62
     0
100
AcDbPoint
 10
81.02431955086979
 20
-21.05000000000001
 30
0.0
  0
ENDBLK
  5
4C63
330
4C61
100
AcDbEntity
  8
0
 48
0.3
100
AcDbBlockEnd
  0
BLOCK
  5
4C6E
330
4C6D
100
AcDbEntity
  8
0
 48
0.3
100
AcDbBlockBegin
  2
*D5
 70
     1
 10
0.0
 20
0.0
 30
0.0
  3
*D5
  1

  0
LINE
  5
4D7A
330
4C6D
100
AcDbEntity
  8
SK2
100
AcDbLine
 10
44.0
 20
10.0
 30
0.0
 11
44.00000000000001
 21
91.0
 31
0.0
  0
LINE
  5
4D7B
330
4C6D
100
AcDbEntity
  8
SK2
100
AcDbLine
 10
-56.0
 20
11.50000000000001
 30
0.0
 11
-55.99999999999999
 21
91.0
 31
0.0
  0
LINE
  5
4D7C
330
4C6D
100
AcDbEntity
  8
SK2
100
AcDbLine
 10
41.50000000000001
 20
90.0
 30
0.0
 11
-53.49999999999999
 21
90.0
 31
0.0
  0
SOLID
  5
4D7D
330
4C6D
100
AcDbEntity
  8
SK2
100
AcDbTrace
 10
41.50000000000001
 20
90.41666666666667
 30
0.0
 11
41.50000000000001
 21
89.58333333333333
 31
0.0
 12
44.00000000000001
 22
90.0
 32
0.0
 13
44.00000000000001
 23
90.0
 33
0.0
  0
SOLID
  5
4D7E
330
4C6D
100
AcDbEntity
  8
SK2
100
AcDbTrace
 10
-53.49999999999999
 20
90.41666666666667
 30
0.0
 11
-53.49999999999999
 21
89.58333333333333
 31
0.0
 12
-55.99999999999999
 22
90.0
 32
0.0
 13
-55.99999999999999
 23
90.0
 33
0.0
  0
MTEXT
  5
4D7F
330
4C6D
100
AcDbEntity
  8
SK2
 62
     2
100
AcDbMText
 10
-5.920134795021681
 20
93.25000000000001
 30
0.0
 40
3.5
 41
0.0
 71
     5
 72
     1
  1
100
 73
     1
 44
1.0
  0
POINT
  5
4D80
330
4C6D
100
AcDbEntity
  8
Defpoints
 62
     0
100
AcDbPoint
 10
44.0
 20
10.0
 30
0.0
  0
POINT
  5
4D81
330
4C6D
100
AcDbEntity
  8
Defpoints
 62
     0
100
AcDbPoint
 10
-56.0
 20
11.50000000000001
 30
0.0
  0
POINT
  5
4D82
330
4C6D
100
AcDbEntity
  8
Defpoints
 62
     0
100
AcDbPoint
 10
-55.99999999999999
 20
90.0
 30
0.0
  0
ENDBLK
  5
4C6F
330
4C6D
100
AcDbEntity
  8
0
 48
0.3
100
AcDbBlockEnd
  0
BLOCK
  5
4C7A
330
4C79
100
AcDbEntity
  8
0
 48
0.3
100
AcDbBlockBegin
  2
*D6
 70
     1
 10
0.0
 20
0.0
 30
0.0
  3
*D6
  1

  0
LINE
  5
4D83
330
4C79
100
AcDbEntity
  8
2
100
AcDbLine
 10
44.0
 20
10.0
 30
0.0
 11
44.00000000000001
 21
76.0
 31
0.0
  0
LINE
  5
4D84
330
4C79
100
AcDbEntity
  8
2
100
AcDbLine
 10
0.0
 20
12.5
 30
0.0
 11
0.0000000000000039
 21
76.0
 31
0.0
  0
LINE
  5
4D85
330
4C79
100
AcDbEntity
  8
2
100
AcDbLine
 10
41.50000000000001
 20
75.0
 30
0.0
 11
2.500000000000003
 21
75.0
 31
0.0
  0
SOLID
  5
4D86
330
4C79
100
AcDbEntity
  8
2
100
AcDbTrace
 10
41.50000000000001
 20
75.41666666666667
 30
0.0
 11
41.50000000000001
 21
74.58333333333333
 31
0.0
 12
44.00000000000001
 22
75.0
 32
0.0
 13
44.00000000000001
 23
75.0
 33
0.0
  0
SOLID
  5
4D87
330
4C79
100
AcDbEntity
  8
2
100
AcDbTrace
 10
2.500000000000003
 20
75.41666666666667
 30
0.0
 11
2.500000000000003
 21
74.58333333333333
 31
0.0
 12
0.0000000000000038
 22
75.0
 32
0.0
 13
0.0000000000000038
 23
75.0
 33
0.0
  0
MTEXT
  5
4D88
330
4C79
100
AcDbEntity
  8
2
 62
     2
100
AcDbMText
 10
22.00000000000001
 20
78.25
 30
0.0
 40
3.5
 41
0.0
 71
     5
 72
     1
  1
44
 73
     1
 44
1.0
  0
POINT
  5
4D89
330
4C79
100
AcDbEntity
  8
Defpoints
 62
     0
100
AcDbPoint
 10
44.0
 20
10.0
 30
0.0
  0
POINT
  5
4D8A
330
4C79
100
AcDbEntity
  8
Defpoints
 62
     0
100
AcDbPoint
 10
0.0
 20
12.5
 30
0.0
  0
POINT
  5
4D8B
330
4C79
100
AcDbEntity
  8
Defpoints
 62
     0
100
AcDbPoint
 10
0.0000000000000038
 20
75.0
 30
0.0
  0
ENDBLK
  5
4C7B
330
4C79
100
AcDbEntity
  8
0
 48
0.3
100
AcDbBlockEnd
  0
BLOCK
  5
4C86
330
4C85
100
AcDbEntity
  8
0
 48
0.3
100
AcDbBlockBegin
  2
*D7
 70
     1
 10
0.0
 20
0.0
 30
0.0
  3
*D7
  1

  0
LINE
  5
4D8C
330
4C85
100
AcDbEntity
  8
2
100
AcDbLine
 10
43.99999999999999
 20
35.60405232105791
 30
0.0
 11
44.0
 21
61.39199335411138
 31
0.0
  0
LINE
  5
4D8D
330
4C85
100
AcDbEntity
  8
2
100
AcDbLine
 10
40.84880551309732
 20
21.81307892868677
 30
0.0
 11
30.71240302365818
 21
59.64264802524124
 31
0.0
  0
ARC
  5
4D8E
330
4C85
100
AcDbEntity
  8
2
100
AcDbCircle
 10
44.0
 20
10.05266099903507
 30
0.0
 40
50.33933235507631
100
AcDbArc
 50
84.30845954995115
 51
87.15422977497558
  0
ARC
  5
4D8F
330
4C85
100
AcDbEntity
  8
2
100
AcDbCircle
 10
44.0
 20
10.05266099903507
 30
0.0
 40
50.33933235507631
100
AcDbArc
 50
107.8457702250244
 51
110.6915404500488
  0
ARC
  5
4D90
330
4C85
100
AcDbEntity
  8
2
100
AcDbCircle
 10
44.0
 20
10.05266099903507
 30
0.0
 40
50.33933235507631
100
AcDbArc
 50
90.0
 51
105.0
  0
SOLID
  5
4D91
330
4C85
100
AcDbEntity
  8
2
100
AcDbTrace
 10
46.48888267933751
 20
59.91337647224776
 30
0.0
 11
46.50957557727504
 21
60.74645284834985
 31
0.0
 12
44.0
 22
60.39199335411137
 32
0.0
 13
44.0
 23
60.39199335411137
 33
0.0
  0
SOLID
  5
4D92
330
4C85
100
AcDbEntity
  8
2
100
AcDbTrace
 10
28.45541733782012
 20
58.36957782428755
 30
0.0
 11
28.69102117451896
 21
57.57024355342383
 31
0.0
 12
30.97122206876071
 22
58.67672219895218
 32
0.0
 13
30.97122206876071
 23
58.67672219895218
 33
0.0
  0
MTEXT
  5
4D93
330
4C85
100
AcDbEntity
  8
2
 62
     2
100
AcDbMText
 10
37.42098078944996
 20
63.23661580205853
 30
0.0
 40
3.5
 41
0.0
 71
     5
 72
     1
  1
15°
 11
0.9924354804540785
 21
0.1227673292691594
 31
0.0
 73
     1
 44
1.0
  0
POINT
  5
4D94
330
4C85
100
AcDbEntity
  8
Defpoints
 62
     0
100
AcDbPoint
 10
35.25866667157104
 20
59.62722578377252
 30
0.0
  0
POINT
  5
4D95
330
4C85
100
AcDbEntity
  8
Defpoints
 62
     0
100
AcDbPoint
 10
43.98637033051563
 20
10.10352761804108
 30
0.0
  0
POINT
  5
4D96
330
4C85
100
AcDbEntity
  8
Defpoints
 62
     0
100
AcDbPoint
 10
44.0
 20
29.39379174648548
 30
0.0
  0
POINT
  5
4D97
330
4C85
100
AcDbEntity
  8
Defpoints
 62
     0
100
AcDbPoint
 10
43.99999999999999
 20
35.60405232105791
 30
0.0
  0
POINT
  5
4D98
330
4C85
100
AcDbEntity
  8
Defpoints
 62
     0
100
AcDbPoint
 10
40.84880551309732
 20
21.81307892868677
 30
0.0
  0
ENDBLK
  5
4C87
330
4C85
100
AcDbEntity
  8
0
 48
0.3
100
AcDbBlockEnd
  0
BLOCK
  5
4D0D
330
4D0C
100
AcDbEntity
  8
0
 48
0.3
100
AcDbBlockBegin
  2
*D8
 70
     1
 10
0.0
 20
0.0
 30
0.0
  3
*D8
  1

  0
LINE
  5
4D99
330
4D0C
100
AcDbEntity
  8
2
100
AcDbLine
 10
41.09999999999999
 20
21.05
 30
0.0
 11
41.09999999999999
 21
46.74516839539285
 31
0.0
  0
LINE
  5
4D9A
330
4D0C
100
AcDbEntity
  8
2
100
AcDbLine
 10
44.0
 20
21.05
 30
0.0
 11
44.0
 21
46.74516839539285
 31
0.0
  0
LINE
  5
4D9B
330
4D0C
100
AcDbEntity
  8
2
100
AcDbLine
 10
38.59999999999999
 20
45.74516839539285
 30
0.0
 11
36.09999999999999
 21
45.74516839539285
 31
0.0
  0
LINE
  5
4D9C
330
4D0C
100
AcDbEntity
  8
2
100
AcDbLine
 10
46.5
 20
45.74516839539285
 30
0.0
 11
57.23945512926206
 21
45.74516839539285
 31
0.0
  0
LINE
  5
4D9D
330
4D0C
100
AcDbEntity
  8
2
100
AcDbLine
 10
41.09999999999999
 20
45.74516839539285
 30
0.0
 11
44.0
 21
45.74516839539285
 31
0.0
  0
SOLID
  5
4D9E
330
4D0C
100
AcDbEntity
  8
2
100
AcDbTrace
 10
38.59999999999999
 20
46.16183506205952
 30
0.0
 11
38.59999999999999
 21
45.32850172872619
 31
0.0
 12
41.09999999999999
 22
45.74516839539285
 32
0.0
 13
41.09999999999999
 23
45.74516839539285
 33
0.0
  0
SOLID
  5
4D9F
330
4D0C
100
AcDbEntity
  8
2
100
AcDbTrace
 10
46.5
 20
46.16183506205952
 30
0.0
 11
46.5
 21
45.32850172872619
 31
0.0
 12
44.0
 22
45.74516839539285
 32
0.0
 13
44.0
 23
45.74516839539285
 33
0.0
  0
MTEXT
  5
4DA0
330
4D0C
100
AcDbEntity
  8
2
 62
     2
100
AcDbMText
 10
53.11972756463102
 20
48.99551288358183
 30
0.0
 40
3.5
 41
0.0
 71
     5
 72
     1
  1
2.9
 73
     1
 44
1.0
  0
POINT
  5
4DA1
330
4D0C
100
AcDbEntity
  8
Defpoints
 62
     0
100
AcDbPoint
 10
41.09999999999999
 20
21.05
 30
0.0
  0
POINT
  5
4DA2
330
4D0C
100
AcDbEntity
  8
Defpoints
 62
     0
100
AcDbPoint
 10
44.0
 20
21.05
 30
0.0
  0
POINT
  5
4DA3
330
4D0C
100
AcDbEntity
  8
Defpoints
 62
     0
100
AcDbPoint
 10
44.0
 20
45.74516839539285
 30
0.0
  0
ENDBLK
  5
4D0E
330
4D0C
100
AcDbEntity
  8
0
 48
0.3
100
AcDbBlockEnd
  0
ENDSEC
  0
SECTION
  2
ENTITIES
  0
LINE
  5
4BD2
330
1F
100
AcDbEntity
  8
1
 48
0.1
100
AcDbLine
 10
0.0
 20
-12.5
 30
0.0
 11
0.0
 21
12.5
 31
0.0
  0
LINE
  5
4BD3
330
1F
100
AcDbEntity
  8
1
 48
0.1
100
AcDbLine
 10
0.9142135624000502
 20
12.0
 30
0.0
 11
0.0
 21
12.5
 31
0.0
  0
LINE
  5
4BD4
330
1F
100
AcDbEntity
  8
1
 48
0.1
100
AcDbLine
 10
0.9142135624000502
 20
12.0
 30
0.0
 11
21.72594076857774
 21
12.00000000000003
 31
0.0
  0
LINE
  5
4BD5
330
1F
100
AcDbEntity
  8
1
 48
0.1
100
AcDbLine
 10
25.55616298413156
 20
13.7860619515184
 30
0.0
 11
28.01045297773078
 21
16.71097086858242
 31
0.0
  0
ARC
  5
4BD6
330
1F
100
AcDbEntity
  8
1
 48
0.1
100
AcDbCircle
 10
21.72594076857774
 20
17.00000000000003
 30
0.0
 40
5.0
100
AcDbArc
 50
270.0
 51
319.9999999992694
1001
GENIUS_GENOBJ-N-FIL_13
1002
{
1000
OWNER
1000
GEN
1002
}
1001
GENIUS_GENODEF_13
1002
{
1000
HIER
1070
     0
1002
}
1002
{
1000
MANEDIT
1070
     0
1002
}
1002
{
1000
NOSEL
1070
     0
1002
}
1002
{
1000
BEHIND
1070
     0
1002
}
1002
{
1000
OTHER
1070
     0
1002
}
1002
{
1000
REACTOR
1002
}
  0
LINE
  5
4BD7
330
1F
100
AcDbEntity
  8
1
 48
0.1
100
AcDbLine
 10
30.54657996781134
 20
18.32666195155667
 30
0.0
 11
33.28690796625824
 21
19.06093062571301
 31
0.0
  0
ARC
  5
4BD8
330
1F
100
AcDbEntity
  8
1
 48
0.1
100
AcDbCircle
 10
31.84067519328465
 20
13.4970328201008
 30
0.0
 40
5.0
100
AcDbArc
 50
104.9999999995325
 51
139.9999999992693
1001
GENIUS_GENODEF_13
1002
{
1000
HIER
1070
     0
1002
}
1002
{
1000
MANEDIT
1070
     0
1002
}
1002
{
1000
NOSEL
1070
     0
1002
}
1002
{
1000
BEHIND
1070
     0
1002
}
1002
{
1000
OTHER
1070
     0
1002
}
1002
{
1000
REACTOR
1002
}
1001
GENIUS_GENOBJ-N-FIL_13
1002
{
1000
OWNER
1000
GEN
1002
}
  0
LINE
  5
4BD9
330
1F
100
AcDbEntity
  8
1
 48
0.1
100
AcDbLine
 10
43.02380375180007
 20
0.0
 30
0.0
 11
43.02380375180013
 21
9.431498208449028
 31
0.0
  0
LINE
  5
4BDA
330
1F
100
AcDbEntity
  8
SK1
100
AcDbLine
 10
0.0
 20
-12.5
 30
0.0
 11
-55.0
 21
-12.5
 31
0.0
  0
LINE
  5
4BDB
330
1F
100
AcDbEntity
  8
SK1
100
AcDbLine
 10
-55.0
 20
-12.5
 30
0.0
 11
-56.0
 21
-11.5
 31
0.0
  0
LINE
  5
4BDC
330
1F
100
AcDbEntity
  8
SK1
100
AcDbLine
 10
-56.0
 20
-11.5
 30
0.0
 11
-56.0
 21
11.50000000000001
 31
0.0
  0
LINE
  5
4BDD
330
1F
100
AcDbEntity
  8
SK3
 48
0.3
100
AcDbLine
 10
21.0
 20
-3.0
 30
0.0
 11
21.0
 21
3.000000000000014
 31
0.0
  0
LINE
  5
4BDE
330
1F
100
AcDbEntity
  8
SK1
100
AcDbLine
 10
-56.0
 20
11.50000000000001
 30
0.0
 11
-55.0
 21
12.50000000000001
 31
0.0
  0
LINE
  5
4BDF
330
1F
100
AcDbEntity
  8
SK1
100
AcDbLine
 10
-55.0
 20
12.50000000000001
 30
0.0
 11
0.0
 21
12.5
 31
0.0
  0
LINE
  5
4BE0
330
1F
100
AcDbEntity
  8
SK1
100
AcDbLine
 10
-55.0
 20
12.50000000000001
 30
0.0
 11
-55.0
 21
6.780000000000043
 31
0.0
  0
LINE
  5
4BE1
330
1F
100
AcDbEntity
  8
SK1
100
AcDbLine
 10
-55.0
 20
-12.5
 30
0.0
 11
-55.0
 21
-6.779999999999972
 31
0.0
  0
LINE
  5
4BE2
330
1F
100
AcDbEntity
  8
SK1
100
AcDbLine
 10
-56.0
 20
-6.779999999999972
 30
0.0
 11
-38.99999999999773
 21
-6.780000000000001
 31
0.0
  0
LINE
  5
4BE3
330
1F
100
AcDbEntity
  8
SK1
100
AcDbLine
 10
-38.99999999999773
 20
-6.780000000000001
 30
0.0
 11
-38.99999999999773
 21
6.780000000000057
 31
0.0
  0
LINE
  5
4BE4
330
1F
100
AcDbEntity
  8
SK1
100
AcDbLine
 10
-38.99999999999773
 20
6.780000000000057
 30
0.0
 11
-56.0
 21
6.780000000000043
 31
0.0
  0
LINE
  5
4BE5
330
1F
100
AcDbEntity
  8
SK1
100
AcDbLine
 10
-29.99999999999772
 20
6.780000000000086
 30
0.0
 11
-29.99999999999772
 21
-6.780000000000029
 31
0.0
  0
LINE
  5
4BE6
330
1F
100
AcDbEntity
  8
SK1
100
AcDbLine
 10
-29.99999999999772
 20
-6.780000000000029
 30
0.0
 11
-17.99999999999772
 21
-6.779999999999986
 31
0.0
  0
LINE
  5
4BE7
330
1F
100
AcDbEntity
  8
SK1
100
AcDbLine
 10
-17.99999999999772
 20
-6.779999999999986
 30
0.0
 11
-17.99999999999772
 21
6.780000000000029
 31
0.0
  0
LINE
  5
4BE8
330
1F
100
AcDbEntity
  8
SK1
100
AcDbLine
 10
-17.99999999999772
 20
6.780000000000029
 30
0.0
 11
-29.99999999999772
 21
6.780000000000015
 31
0.0
  0
ARC
  5
4BE9
330
1F
100
AcDbEntity
  8
SK1
100
AcDbCircle
 10
-49.49209999999766
 20
-0.0000000000000284
 30
0.0
 40
12.49209999999995
100
AcDbArc
 50
327.1294363887073
 51
32.87056361129272
  0
ARC
  5
4BEA
330
1F
100
AcDbEntity
  8
SK1
100
AcDbCircle
 10
-19.50789999999767
 20
0.0000000000000284
 30
0.0
 40
12.49210000000003
100
AcDbArc
 50
147.1294363887073
 51
212.8705636112927
  0
ARC
  5
4BEB
330
1F
100
AcDbEntity
  8
SK1
100
AcDbCircle
 10
-28.49209999999767
 20
0.0000000000000426
 30
0.0
 40
12.49209999999994
100
AcDbArc
 50
327.1294363887073
 51
32.87056361129272
  0
LINE
  5
4BEC
330
1F
100
AcDbEntity
  8
4
100
AcDbLine
 10
46.34216317127595
 20
0.0
 30
0.0
 11
-58.18243276131932
 21
0.0
 31
0.0
  0
LINE
  5
4BED
330
1F
100
AcDbEntity
  8
SK3
 48
0.3
100
AcDbLine
 10
21.0
 20
-3.000000000000014
 30
0.0
 11
-56.0
 21
-2.999999999999985
 31
0.0
  0
LINE
  5
4BEE
330
1F
100
AcDbEntity
  8
SK3
 48
0.3
100
AcDbLine
 10
21.0
 20
3.000000000000014
 30
0.0
 11
-56.0
 21
3.0
 31
0.0
  0
LINE
  5
4BEF
330
1F
100
AcDbEntity
  8
SK3
100
AcDbLine
 10
21.0
 20
-3.0
 30
0.0
 11
23.08301323206717
 21
0.0
 31
0.0
  0
LINE
  5
4BF0
330
1F
100
AcDbEntity
  8
SK3
 48
0.3
100
AcDbLine
 10
23.08301323206717
 20
0.0
 30
0.0
 11
21.0
 21
3.0
 31
0.0
  0
TEXT
  5
4BF1
330
1F
100
AcDbEntity
  8
6
100
AcDbText
 10
48.64931855086979
 20
14.34929528326185
 30
0.0
 40
2.5
  1
BOMT130404R
100
AcDbText
  0
TEXT
  5
4BF2
330
1F
100
AcDbEntity
  8
6
100
AcDbText
 10
66.88076332960964
 20
-3.79229173430383
 30
0.0
 40
3.5
  1
Z=3
 50
90.0
100
AcDbText
  0
DIMENSION
  5
4BF3
330
1F
100
AcDbEntity
  8
SK2
100
AcDbDimension
  2
*D2
 10
-78.86845500876723
 20
-12.49999999999999
 30
0.0
 11
-82.11879949695619
 21
0.0000000000000017
 31
0.0
 70
    32
  1
%%c<>
 71
     5
 42
25.00000000000002
  3
AM_DIN$0
100
AcDbAlignedDimension
 13
-55.0
 23
12.50000000000001
 33
0.0
 14
-55.0
 24
-12.5
 34
0.0
 50
90.0
100
AcDbRotatedDimension
1001
ACAD_DSTYLE_DIMINSPECT
1070
   396
1000
100%
1070
   395
1000

1070
   394
1070
    33
1070
   393
1070
     0
  0
TEXT
  5
4BF4
330
1F
100
AcDbEntity
  8
6
100
AcDbText
 10
0.1882577174005746
 20
-32.58085344845148
 30
0.0
 40
3.5
  1
12Q1R020044W5R00
100
AcDbText
  0
LINE
  5
4BF5
330
1F
100
AcDbEntity
  8
SK1
100
AcDbLine
 10
-1.344770318134237
 20
-1.344770318134209
 30
0.0
 11
1.344770318134237
 21
1.344770318134209
 31
0.0
  0
CIRCLE
  5
4BF6
330
1F
100
AcDbEntity
  8
SK1
100
AcDbCircle
 10
0.0
 20
0.0
 30
0.0
 40
1.901792422182175
  0
LINE
  5
4BF7
330
1F
100
AcDbEntity
  8
SK1
100
AcDbLine
 10
-1.344770318134237
 20
1.344770318134209
 30
0.0
 11
1.344770318134237
 21
-1.344770318134209
 31
0.0
  0
LINE
  5
4BF8
330
1F
100
AcDbEntity
  8
1
 48
0.1
100
AcDbLine
 10
0.9142135624000502
 20
-12.0
 30
0.0
 11
0.0
 21
-12.5
 31
0.0
  0
LINE
  5
4BF9
330
1F
100
AcDbEntity
  8
1
 48
0.1
100
AcDbLine
 10
0.9142135624000502
 20
-12.0
 30
0.0
 11
21.72594076857774
 21
-12.00000000000003
 31
0.0
  0
LINE
  5
4BFA
330
1F
100
AcDbEntity
  8
1
 48
0.1
100
AcDbLine
 10
25.55616298413156
 20
-13.7860619515184
 30
0.0
 11
28.01045297773078
 21
-16.71097086858242
 31
0.0
  0
ARC
  5
4BFB
330
1F
100
AcDbEntity
  8
1
 48
0.1
100
AcDbCircle
 10
21.72594076857774
 20
-17.00000000000003
 30
0.0
 40
5.0
100
AcDbArc
 50
40.00000000073068
 51
90.0
1001
GENIUS_GENOBJ-N-FIL_13
1002
{
1000
OWNER
1000
GEN
1002
}
1001
GENIUS_GENODEF_13
1002
{
1000
HIER
1070
     0
1002
}
1002
{
1000
MANEDIT
1070
     0
1002
}
1002
{
1000
NOSEL
1070
     0
1002
}
1002
{
1000
BEHIND
1070
     0
1002
}
1002
{
1000
OTHER
1070
     0
1002
}
1002
{
1000
REACTOR
1002
}
  0
LINE
  5
4BFC
330
1F
100
AcDbEntity
  8
1
 48
0.1
100
AcDbLine
 10
30.54657996781134
 20
-18.32666195155667
 30
0.0
 11
36.68412986655756
 21
-19.97121349037792
 31
0.0
  0
ARC
  5
4BFD
330
1F
100
AcDbEntity
  8
1
 48
0.1
100
AcDbCircle
 10
31.84067519328465
 20
-13.4970328201008
 30
0.0
 40
5.0
100
AcDbArc
 50
220.0000000007307
 51
255.0000000004676
1001
GENIUS_GENODEF_13
1002
{
1000
HIER
1070
     0
1002
}
1002
{
1000
MANEDIT
1070
     0
1002
}
1002
{
1000
NOSEL
1070
     0
1002
}
1002
{
1000
BEHIND
1070
     0
1002
}
1002
{
1000
OTHER
1070
     0
1002
}
1002
{
1000
REACTOR
1002
}
1001
GENIUS_GENOBJ-N-FIL_13
1002
{
1000
OWNER
1000
GEN
1002
}
  0
LINE
  5
4BFE
330
1F
100
AcDbEntity
  8
1
 48
0.1
100
AcDbLine
 10
36.68412986655756
 20
-19.97121349037792
 30
0.0
 11
40.18412986673121
 21
-20.15464071788512
 31
0.0
  0
LINE
  5
4BFF
330
1F
100
AcDbEntity
  8
1
 48
0.1
100
AcDbLine
 10
40.18412986673121
 20
-20.15464071788512
 30
0.0
 11
43.02380375180007
 21
-10.55650968422583
 31
0.0
  0
LINE
  5
4C00
330
1F
100
AcDbEntity
  8
1
 48
0.1
100
AcDbLine
 10
43.02380375180007
 20
0.0
 30
0.0
 11
43.02380375180007
 21
-10.55650968422583
 31
0.0
  0
LINE
  5
4C01
330
1F
100
AcDbEntity
  8
NOCUT
 48
0.1
100
AcDbLine
 10
0.0
 20
-12.5
 30
0.0
 11
0.0
 21
0.0
 31
0.0
  0
LINE
  5
4C02
330
1F
100
AcDbEntity
  8
NOCUT
100
AcDbLine
 10
43.02380375180007
 20
0.0
 30
0.0
 11
0.0
 21
0.0
 31
0.0
  0
LINE
  5
4C03
330
1F
100
AcDbEntity
  8
NOCUT
 48
0.1
100
AcDbLine
 10
0.9142135624000502
 20
-12.0
 30
0.0
 11
0.0
 21
-12.5
 31
0.0
  0
LINE
  5
4C04
330
1F
100
AcDbEntity
  8
NOCUT
 48
0.1
100
AcDbLine
 10
0.9142135624000502
 20
-12.0
 30
0.0
 11
21.72594076857774
 21
-12.00000000000003
 31
0.0
  0
LINE
  5
4C05
330
1F
100
AcDbEntity
  8
NOCUT
 48
0.1
100
AcDbLine
 10
25.55616298413156
 20
-13.7860619515184
 30
0.0
 11
28.01045297773078
 21
-16.71097086858242
 31
0.0
  0
ARC
  5
4C06
330
1F
100
AcDbEntity
  8
NOCUT
 48
0.1
100
AcDbCircle
 10
21.72594076857774
 20
-17.00000000000003
 30
0.0
 40
5.0
100
AcDbArc
 50
40.00000000073068
 51
90.0
1001
GENIUS_GENOBJ-N-FIL_13
1002
{
1000
OWNER
1000
GEN
1002
}
1001
GENIUS_GENODEF_13
1002
{
1000
HIER
1070
     0
1002
}
1002
{
1000
MANEDIT
1070
     0
1002
}
1002
{
1000
NOSEL
1070
     0
1002
}
1002
{
1000
BEHIND
1070
     0
1002
}
1002
{
1000
OTHER
1070
     0
1002
}
1002
{
1000
REACTOR
1002
}
  0
LINE
  5
4C07
330
1F
100
AcDbEntity
  8
NOCUT
 48
0.1
100
AcDbLine
 10
30.54657996781134
 20
-18.32666195155667
 30
0.0
 11
36.68412986655756
 21
-19.97121349037792
 31
0.0
  0
ARC
  5
4C08
330
1F
100
AcDbEntity
  8
NOCUT
 48
0.1
100
AcDbCircle
 10
31.84067519328465
 20
-13.4970328201008
 30
0.0
 40
5.0
100
AcDbArc
 50
220.0000000007307
 51
255.0000000004676
1001
GENIUS_GENODEF_13
1002
{
1000
HIER
1070
     0
1002
}
1002
{
1000
MANEDIT
1070
     0
1002
}
1002
{
1000
NOSEL
1070
     0
1002
}
1002
{
1000
BEHIND
1070
     0
1002
}
1002
{
1000
OTHER
1070
     0
1002
}
1002
{
1000
REACTOR
1002
}
1001
GENIUS_GENOBJ-N-FIL_13
1002
{
1000
OWNER
1000
GEN
1002
}
  0
LINE
  5
4C09
330
1F
100
AcDbEntity
  8
NOCUT
 48
0.1
100
AcDbLine
 10
36.68412986655756
 20
-19.97121349037792
 30
0.0
 11
40.18412986673121
 21
-20.15464071788512
 31
0.0
  0
LINE
  5
4C0A
330
1F
100
AcDbEntity
  8
NOCUT
 48
0.1
100
AcDbLine
 10
40.18412986673121
 20
-20.15464071788512
 30
0.0
 11
43.02380375180007
 21
-10.55650968422583
 31
0.0
  0
LINE
  5
4C0B
330
1F
100
AcDbEntity
  8
NOCUT
 48
0.1
100
AcDbLine
 10
43.02380375180007
 20
0.0
 30
0.0
 11
43.02380375180007
 21
-10.55650968422583
 31
0.0
  0
LINE
  5
4C0C
330
1F
100
AcDbEntity
  8
SK1
100
AcDbLine
 10
44.40163605578618
 20
10.23188468492441
 30
0.0
 11
43.59836394421381
 21
9.76811531507559
 31
0.0
  0
LINE
  5
4C0D
330
1F
100
AcDbEntity
  8
SK1
100
AcDbLine
 10
43.76811531507558
 20
10.40163605578618
 30
0.0
 11
44.2318846849244
 21
9.598363944213815
 31
0.0
  0
CIRCLE
  5
4C0E
330
1F
100
AcDbEntity
  8
SK1
100
AcDbCircle
 10
44.0
 20
10.0
 30
0.0
 40
0.4637693698488208
  0
LINE
  5
4C0F
330
1F
100
AcDbEntity
  8
1
100
AcDbLine
 10
40.54253556420462
 20
22.05024435266773
 30
0.0
 11
36.1323074139209
 21
22.08919804788889
 31
0.0
  0
LINE
  5
4C10
330
1F
100
AcDbEntity
  8
1
100
AcDbLine
 10
34.954641777073
 20
21.93944330537187
 30
0.0
 11
33.06536710880858
 21
21.43321368372995
 31
0.0
  0
ARC
  5
4C11
330
1F
100
AcDbEntity
  8
1
100
AcDbCircle
 10
36.09344557552407
 20
17.68936966969988
 30
0.0
 40
4.4
100
AcDbArc
 50
89.49394357398935
 51
105.0000000000011
1001
GENIUS_GENODEF_13
1002
{
1000
HIER
1070
     0
1002
}
1002
{
1000
MANEDIT
1070
     0
1002
}
1002
{
1000
NOSEL
1070
     0
1002
}
1002
{
1000
BEHIND
1070
     0
1002
}
1002
{
1000
OTHER
1070
     0
1002
}
1002
{
1000
REACTOR
1002
}
1001
GENIUS_GENOBJ-N-FIL_13
1002
{
1000
OWNER
1000
GEN
1002
}
  0
CIRCLE
  5
4C12
330
1F
100
AcDbEntity
  8
1
100
AcDbCircle
 10
38.38444736342484
 20
15.52342167660714
 30
0.0
 40
2.426060010566603
  0
LINE
  5
4C13
330
1F
100
AcDbEntity
  8
1
100
AcDbLine
 10
43.98637033051563
 20
10.10352761804108
 30
0.0
 11
40.84880551309732
 21
21.81307892868677
 31
0.0
  0
ARC
  5
4C14
330
1F
100
AcDbEntity
  8
1
100
AcDbCircle
 10
40.53970924868486
 20
21.73025683425397
 30
0.0
 40
0.3200000000000001
100
AcDbArc
 50
14.99999999999802
 51
89.49394357398935
1001
GENIUS_GENODEF_13
1002
{
1000
HIER
1070
     0
1002
}
1002
{
1000
MANEDIT
1070
     0
1002
}
1002
{
1000
NOSEL
1070
     0
1002
}
1002
{
1000
BEHIND
1070
     0
1002
}
1002
{
1000
OTHER
1070
     0
1002
}
1002
{
1000
REACTOR
1002
}
1001
GENIUS_GENOBJ-N-FIL_13
1002
{
1000
OWNER
1000
GEN
1002
}
  0
LINE
  5
4C15
330
1F
100
AcDbEntity
  8
1
100
AcDbLine
 10
36.22635916264505
 20
8.996599000546666
 30
0.0
 11
40.63658731292878
 21
8.957645305325456
 31
0.0
  0
LINE
  5
4C16
330
1F
100
AcDbEntity
  8
1
100
AcDbLine
 10
41.81425294977668
 20
9.107400047842418
 30
0.0
 11
43.70352761804099
 21
9.613629669484453
 31
0.0
  0
ARC
  5
4C17
330
1F
100
AcDbEntity
  8
1
100
AcDbCircle
 10
43.60000000000002
 20
10.0
 30
0.0
 40
0.4
100
AcDbArc
 50
284.9999999999978
 51
14.99999999999802
1001
GENIUS_GENOBJ-N-FIL_13
1002
{
1000
OWNER
1000
GEN
1002
}
1001
GENIUS_GENODEF_13
1002
{
1000
HIER
1070
     0
1002
}
1002
{
1000
MANEDIT
1070
     0
1002
}
1002
{
1000
NOSEL
1070
     0
1002
}
1002
{
1000
BEHIND
1070
     0
1002
}
1002
{
1000
OTHER
1070
     0
1002
}
1002
{
1000
REACTOR
1002
}
  0
ARC
  5
4C18
330
1F
100
AcDbEntity
  8
1
100
AcDbCircle
 10
40.67544915132566
 20
13.3574736835144
 30
0.0
 40
4.4
100
AcDbArc
 50
269.4939435740024
 51
284.9999999999978
1001
GENIUS_GENODEF_13
1002
{
1000
HIER
1070
     0
1002
}
1002
{
1000
MANEDIT
1070
     0
1002
}
1002
{
1000
NOSEL
1070
     0
1002
}
1002
{
1000
BEHIND
1070
     0
1002
}
1002
{
1000
OTHER
1070
     0
1002
}
1002
{
1000
REACTOR
1002
}
1001
GENIUS_GENOBJ-N-FIL_13
1002
{
1000
OWNER
1000
GEN
1002
}
  0
LINE
  5
4C19
330
1F
100
AcDbEntity
  8
1
100
AcDbLine
 10
32.782524396334
 20
20.94331573517337
 30
0.0
 11
35.92008921375231
 21
9.233764424527635
 31
0.0
  0
ARC
  5
4C1A
330
1F
100
AcDbEntity
  8
1
100
AcDbCircle
 10
33.1688947268496
 20
21.04684335321434
 30
0.0
 40
0.4
100
AcDbArc
 50
105.0000000000011
 51
194.999999999998
1001
GENIUS_GENOBJ-N-FIL_13
1002
{
1000
OWNER
1000
GEN
1002
}
1001
GENIUS_GENODEF_13
1002
{
1000
HIER
1070
     0
1002
}
1002
{
1000
MANEDIT
1070
     0
1002
}
1002
{
1000
NOSEL
1070
     0
1002
}
1002
{
1000
BEHIND
1070
     0
1002
}
1002
{
1000
OTHER
1070
     0
1002
}
1002
{
1000
REACTOR
1002
}
  0
ARC
  5
4C1B
330
1F
100
AcDbEntity
  8
1
100
AcDbCircle
 10
36.22918547816482
 20
9.316586518960377
 30
0.0
 40
0.3200000000000001
100
AcDbArc
 50
194.999999999998
 51
269.4939435740024
1001
GENIUS_GENODEF_13
1002
{
1000
HIER
1070
     0
1002
}
1002
{
1000
MANEDIT
1070
     0
1002
}
1002
{
1000
NOSEL
1070
     0
1002
}
1002
{
1000
BEHIND
1070
     0
1002
}
1002
{
1000
OTHER
1070
     0
1002
}
1002
{
1000
REACTOR
1002
}
1001
GENIUS_GENOBJ-N-FIL_13
1002
{
1000
OWNER
1000
GEN
1002
}
  0
LINE
  5
4C1C
330
1F
100
AcDbEntity
  8
CUT
100
AcDbLine
 10
40.54253556420462
 20
22.05024435266773
 30
0.0
 11
36.1323074139209
 21
22.08919804788889
 31
0.0
  0
LINE
  5
4C1D
330
1F
100
AcDbEntity
  8
CUT
100
AcDbLine
 10
34.954641777073
 20
21.93944330537187
 30
0.0
 11
33.06536710880858
 21
21.43321368372995
 31
0.0
  0
ARC
  5
4C1E
330
1F
100
AcDbEntity
  8
CUT
100
AcDbCircle
 10
36.09344557552407
 20
17.68936966969988
 30
0.0
 40
4.4
100
AcDbArc
 50
89.49394357398935
 51
105.0000000000011
1001
GENIUS_GENODEF_13
1002
{
1000
HIER
1070
     0
1002
}
1002
{
1000
MANEDIT
1070
     0
1002
}
1002
{
1000
NOSEL
1070
     0
1002
}
1002
{
1000
BEHIND
1070
     0
1002
}
1002
{
1000
OTHER
1070
     0
1002
}
1002
{
1000
REACTOR
1002
}
1001
GENIUS_GENOBJ-N-FIL_13
1002
{
1000
OWNER
1000
GEN
1002
}
  0
LINE
  5
4C1F
330
1F
100
AcDbEntity
  8
CUT
100
AcDbLine
 10
43.98637033051563
 20
10.10352761804108
 30
0.0
 11
40.84880551309732
 21
21.81307892868677
 31
0.0
  0
ARC
  5
4C20
330
1F
100
AcDbEntity
  8
CUT
100
AcDbCircle
 10
40.53970924868486
 20
21.73025683425397
 30
0.0
 40
0.3200000000000001
100
AcDbArc
 50
14.99999999999802
 51
89.49394357398935
1001
GENIUS_GENODEF_13
1002
{
1000
HIER
1070
     0
1002
}
1002
{
1000
MANEDIT
1070
     0
1002
}
1002
{
1000
NOSEL
1070
     0
1002
}
1002
{
1000
BEHIND
1070
     0
1002
}
1002
{
1000
OTHER
1070
     0
1002
}
1002
{
1000
REACTOR
1002
}
1001
GENIUS_GENOBJ-N-FIL_13
1002
{
1000
OWNER
1000
GEN
1002
}
  0
LINE
  5
4C21
330
1F
100
AcDbEntity
  8
CUT
100
AcDbLine
 10
36.22635916264505
 20
8.996599000546666
 30
0.0
 11
40.63658731292878
 21
8.957645305325456
 31
0.0
  0
LINE
  5
4C22
330
1F
100
AcDbEntity
  8
CUT
100
AcDbLine
 10
41.81425294977668
 20
9.107400047842418
 30
0.0
 11
43.70352761804099
 21
9.613629669484453
 31
0.0
  0
ARC
  5
4C23
330
1F
100
AcDbEntity
  8
CUT
100
AcDbCircle
 10
43.60000000000002
 20
10.0
 30
0.0
 40
0.4
100
AcDbArc
 50
284.9999999999978
 51
14.99999999999802
1001
GENIUS_GENOBJ-N-FIL_13
1002
{
1000
OWNER
1000
GEN
1002
}
1001
GENIUS_GENODEF_13
1002
{
1000
HIER
1070
     0
1002
}
1002
{
1000
MANEDIT
1070
     0
1002
}
1002
{
1000
NOSEL
1070
     0
1002
}
1002
{
1000
BEHIND
1070
     0
1002
}
1002
{
1000
OTHER
1070
     0
1002
}
1002
{
1000
REACTOR
1002
}
  0
ARC
  5
4C24
330
1F
100
AcDbEntity
  8
CUT
100
AcDbCircle
 10
40.67544915132566
 20
13.3574736835144
 30
0.0
 40
4.4
100
AcDbArc
 50
269.4939435740024
 51
284.9999999999978
1001
GENIUS_GENODEF_13
1002
{
1000
HIER
1070
     0
1002
}
1002
{
1000
MANEDIT
1070
     0
1002
}
1002
{
1000
NOSEL
1070
     0
1002
}
1002
{
1000
BEHIND
1070
     0
1002
}
1002
{
1000
OTHER
1070
     0
1002
}
1002
{
1000
REACTOR
1002
}
1001
GENIUS_GENOBJ-N-FIL_13
1002
{
1000
OWNER
1000
GEN
1002
}
  0
LINE
  5
4C25
330
1F
100
AcDbEntity
  8
CUT
100
AcDbLine
 10
32.782524396334
 20
20.94331573517337
 30
0.0
 11
35.92008921375231
 21
9.233764424527635
 31
0.0
  0
ARC
  5
4C26
330
1F
100
AcDbEntity
  8
CUT
100
AcDbCircle
 10
33.1688947268496
 20
21.04684335321434
 30
0.0
 40
0.4
100
AcDbArc
 50
105.0000000000011
 51
194.999999999998
1001
GENIUS_GENOBJ-N-FIL_13
1002
{
1000
OWNER
1000
GEN
1002
}
1001
GENIUS_GENODEF_13
1002
{
1000
HIER
1070
     0
1002
}
1002
{
1000
MANEDIT
1070
     0
1002
}
1002
{
1000
NOSEL
1070
     0
1002
}
1002
{
1000
BEHIND
1070
     0
1002
}
1002
{
1000
OTHER
1070
     0
1002
}
1002
{
1000
REACTOR
1002
}
  0
ARC
  5
4C27
330
1F
100
AcDbEntity
  8
CUT
100
AcDbCircle
 10
36.22918547816482
 20
9.316586518960377
 30
0.0
 40
0.3200000000000001
100
AcDbArc
 50
194.999999999998
 51
269.4939435740024
1001
GENIUS_GENODEF_13
1002
{
1000
HIER
1070
     0
1002
}
1002
{
1000
MANEDIT
1070
     0
1002
}
1002
{
1000
NOSEL
1070
     0
1002
}
1002
{
1000
BEHIND
1070
     0
1002
}
1002
{
1000
OTHER
1070
     0
1002
}
1002
{
1000
REACTOR
1002
}
1001
GENIUS_GENOBJ-N-FIL_13
1002
{
1000
OWNER
1000
GEN
1002
}
  0
LINE
  5
4C28
330
1F
100
AcDbEntity
  8
1
 48
0.1
100
AcDbLine
 10
35.56992559938658
 20
6.604600749057738
 30
0.0
 11
32.36652996140754
 21
18.81431608258991
 31
0.0
  0
LINE
  5
4C29
330
1F
100
AcDbEntity
  8
SK4
 48
0.5
100
AcDbLine
 10
20.2871188267377
 20
0.6714702348300677
 30
0.0
 11
36.88693568846498
 21
11.02702130645286
 31
0.0
  0
LINE
  5
4C2A
330
1F
100
AcDbEntity
  8
SK4
 48
0.5
100
AcDbLine
 10
20.2871188267377
 20
-0.6714702348300677
 30
0.0
 11
36.88693568846498
 21
-11.02702130645286
 31
0.0
  0
ARC
  5
4C2B
330
1F
100
AcDbEntity
  8
1
 48
0.5
100
AcDbCircle
 10
42.13742217926778
 20
8.87487829231145
 30
0.0
 40
6.948825184889419
100
AcDbArc
 50
199.0694414453101
 51
277.32852884447
  0
LINE
  5
4C2C
330
1F
100
AcDbEntity
  8
SK1
100
AcDbLine
 10
44.40163605578618
 20
-10.23188468492441
 30
0.0
 11
43.59836394421381
 21
-9.76811531507559
 31
0.0
  0
LINE
  5
4C2D
330
1F
100
AcDbEntity
  8
SK1
100
AcDbLine
 10
43.76811531507558
 20
-10.40163605578618
 30
0.0
 11
44.2318846849244
 21
-9.598363944213815
 31
0.0
  0
CIRCLE
  5
4C2E
330
1F
100
AcDbEntity
  8
SK1
100
AcDbCircle
 10
44.0
 20
-10.0
 30
0.0
 40
0.4637693698488208
  0
LINE
  5
4C2F
330
1F
100
AcDbEntity
  8
1
100
AcDbLine
 10
40.54253556420462
 20
-22.05024435266773
 30
0.0
 11
36.1323074139209
 21
-22.08919804788889
 31
0.0
  0
LINE
  5
4C30
330
1F
100
AcDbEntity
  8
1
100
AcDbLine
 10
34.954641777073
 20
-21.93944330537187
 30
0.0
 11
33.06536710880858
 21
-21.43321368372995
 31
0.0
  0
ARC
  5
4C31
330
1F
100
AcDbEntity
  8
1
100
AcDbCircle
 10
36.09344557552407
 20
-17.68936966969988
 30
0.0
 40
4.4
100
AcDbArc
 50
254.9999999999988
 51
270.5060564260106
1001
GENIUS_GENODEF_13
1002
{
1000
HIER
1070
     0
1002
}
1002
{
1000
MANEDIT
1070
     0
1002
}
1002
{
1000
NOSEL
1070
     0
1002
}
1002
{
1000
BEHIND
1070
     0
1002
}
1002
{
1000
OTHER
1070
     0
1002
}
1002
{
1000
REACTOR
1002
}
1001
GENIUS_GENOBJ-N-FIL_13
1002
{
1000
OWNER
1000
GEN
1002
}
  0
CIRCLE
  5
4C32
330
1F
100
AcDbEntity
  8
SK3
100
AcDbCircle
 10
38.38444736342484
 20
-15.52342167660714
 30
0.0
 40
2.426060010566603
  0
LINE
  5
4C33
330
1F
100
AcDbEntity
  8
1
100
AcDbLine
 10
43.98637033051563
 20
-10.10352761804108
 30
0.0
 11
40.84880551309732
 21
-21.81307892868677
 31
0.0
  0
ARC
  5
4C34
330
1F
100
AcDbEntity
  8
1
100
AcDbCircle
 10
40.53970924868486
 20
-21.73025683425397
 30
0.0
 40
0.3200000000000001
100
AcDbArc
 50
270.5060564260106
 51
345.000000000002
1001
GENIUS_GENODEF_13
1002
{
1000
HIER
1070
     0
1002
}
1002
{
1000
MANEDIT
1070
     0
1002
}
1002
{
1000
NOSEL
1070
     0
1002
}
1002
{
1000
BEHIND
1070
     0
1002
}
1002
{
1000
OTHER
1070
     0
1002
}
1002
{
1000
REACTOR
1002
}
1001
GENIUS_GENOBJ-N-FIL_13
1002
{
1000
OWNER
1000
GEN
1002
}
  0
LINE
  5
4C35
330
1F
100
AcDbEntity
  8
SK3
100
AcDbLine
 10
36.22635916264505
 20
-8.996599000546666
 30
0.0
 11
40.63658731292878
 21
-8.957645305325456
 31
0.0
  0
LINE
  5
4C36
330
1F
100
AcDbEntity
  8
SK3
100
AcDbLine
 10
41.81425294977668
 20
-9.107400047842418
 30
0.0
 11
42.59046961649324
 21
-9.315386676840716
 31
0.0
  0
LINE
  5
4C37
330
1F
100
AcDbEntity
  8
1
100
AcDbLine
 10
43.02380375180002
 20
-9.431498208449028
 30
0.0
 11
43.70352761804099
 21
-9.613629669484453
 31
0.0
  0
ARC
  5
4C38
330
1F
100
AcDbEntity
  8
1
100
AcDbCircle
 10
43.60000000000002
 20
-10.0
 30
0.0
 40
0.4
100
AcDbArc
 50
345.000000000002
 51
75.00000000000219
1001
GENIUS_GENOBJ-N-FIL_13
1002
{
1000
OWNER
1000
GEN
1002
}
1001
GENIUS_GENODEF_13
1002
{
1000
HIER
1070
     0
1002
}
1002
{
1000
MANEDIT
1070
     0
1002
}
1002
{
1000
NOSEL
1070
     0
1002
}
1002
{
1000
BEHIND
1070
     0
1002
}
1002
{
1000
OTHER
1070
     0
1002
}
1002
{
1000
REACTOR
1002
}
  0
ARC
  5
4C39
330
1F
100
AcDbEntity
  8
SK3
100
AcDbCircle
 10
40.67544915132566
 20
-13.3574736835144
 30
0.0
 40
4.4
100
AcDbArc
 50
75.00000000000219
 51
90.50605642599759
1001
GENIUS_GENODEF_13
1002
{
1000
HIER
1070
     0
1002
}
1002
{
1000
MANEDIT
1070
     0
1002
}
1002
{
1000
NOSEL
1070
     0
1002
}
1002
{
1000
BEHIND
1070
     0
1002
}
1002
{
1000
OTHER
1070
     0
1002
}
1002
{
1000
REACTOR
1002
}
1001
GENIUS_GENOBJ-N-FIL_13
1002
{
1000
OWNER
1000
GEN
1002
}
  0
LINE
  5
4C3A
330
1F
100
AcDbEntity
  8
1
100
AcDbLine
 10
32.782524396334
 20
-20.94331573517337
 30
0.0
 11
33.28690796625824
 21
-19.06093062571304
 31
0.0
  0
LINE
  5
4C3B
330
1F
100
AcDbEntity
  8
SK3
100
AcDbLine
 10
33.28690796625824
 20
-19.06093062571304
 30
0.0
 11
35.92008921375231
 21
-9.233764424527635
 31
0.0
  0
ARC
  5
4C3C
330
1F
100
AcDbEntity
  8
1
100
AcDbCircle
 10
33.1688947268496
 20
-21.04684335321434
 30
0.0
 40
0.4
100
AcDbArc
 50
165.000000000002
 51
254.9999999999988
1001
GENIUS_GENOBJ-N-FIL_13
1002
{
1000
OWNER
1000
GEN
1002
}
1001
GENIUS_GENODEF_13
1002
{
1000
HIER
1070
     0
1002
}
1002
{
1000
MANEDIT
1070
     0
1002
}
1002
{
1000
NOSEL
1070
     0
1002
}
1002
{
1000
BEHIND
1070
     0
1002
}
1002
{
1000
OTHER
1070
     0
1002
}
1002
{
1000
REACTOR
1002
}
  0
ARC
  5
4C3D
330
1F
100
AcDbEntity
  8
SK3
100
AcDbCircle
 10
36.22918547816482
 20
-9.316586518960377
 30
0.0
 40
0.3200000000000001
100
AcDbArc
 50
90.50605642599759
 51
165.000000000002
1001
GENIUS_GENODEF_13
1002
{
1000
HIER
1070
     0
1002
}
1002
{
1000
MANEDIT
1070
     0
1002
}
1002
{
1000
NOSEL
1070
     0
1002
}
1002
{
1000
BEHIND
1070
     0
1002
}
1002
{
1000
OTHER
1070
     0
1002
}
1002
{
1000
REACTOR
1002
}
1001
GENIUS_GENOBJ-N-FIL_13
1002
{
1000
OWNER
1000
GEN
1002
}
  0
LINE
  5
4C3E
330
1F
100
AcDbEntity
  8
SK3
 48
0.1
100
AcDbLine
 10
35.56992559938658
 20
-6.604600749057738
 30
0.0
 11
32.36652996140754
 21
-18.81431608258991
 31
0.0
  0
ARC
  5
4C3F
330
1F
100
AcDbEntity
  8
SK3
 48
0.3
100
AcDbCircle
 10
42.13742217926778
 20
-8.87487829231145
 30
0.0
 40
6.948825184889419
100
AcDbArc
 50
82.67147115553004
 51
160.9305585546898
  0
DIMENSION
  5
4C40
330
1F
100
AcDbEntity
  8
2
100
AcDbDimension
  2
*D3
 10
61.94526689324447
 20
-10.0
 30
0.0
 11
61.94526689324447
 21
0.3368652616957206
 31
0.0
 70
   160
  1
%%c<>
 71
     5
 42
20.0
  3
AM_DIN$0
100
AcDbAlignedDimension
 13
44.0
 23
10.0
 33
0.0
 14
44.0
 24
-10.0
 34
0.0
 50
90.0
100
AcDbRotatedDimension
1001
ACAD_DSTYLE_DIMINSPECT
1070
   396
1000
100%
1070
   395
1000

1070
   394
1070
    33
1070
   393
1070
     0
  0
DIMENSION
  5
4C41
330
1F
100
AcDbEntity
  8
2
100
AcDbDimension
  2
*D4
 10
81.02431955086979
 20
-21.05000000000001
 30
0.0
 11
77.77397506268082
 21
0.0000000000000025
 31
0.0
 70
    32
  1
%%c<>
 71
     5
 42
42.09999999999999
  3
AM_DIN$0
100
AcDbAlignedDimension
 13
41.05327189580015
 23
21.05
 33
0.0
 14
41.05327189580015
 24
-21.05
 34
0.0
 50
90.0
100
AcDbRotatedDimension
1001
ACAD_DSTYLE_DIMINSPECT
1070
   396
1000
100%
1070
   395
1000

1070
   394
1070
    33
1070
   393
1070
     0
  0
DIMENSION
  5
4C42
330
1F
100
AcDbEntity
  8
SK2
100
AcDbDimension
  2
*D5
 10
-55.99999999999999
 20
90.0
 30
0.0
 11
-5.920134795021681
 21
90.0
 31
0.0
 70
   160
 71
     5
 42
100.0
  3
AM_DIN$0
100
AcDbAlignedDimension
 13
44.0
 23
10.0
 33
0.0
 14
-56.0
 24
11.50000000000001
 34
0.0
100
AcDbRotatedDimension
1001
ACAD
1000
DSTYLE
1002
{
1070
   271
1070
     0
1002
}
1001
ACAD_DSTYLE_DIMINSPECT
1070
   396
1000
100%
1070
   395
1000

1070
   394
1070
    33
1070
   393
1070
     0
  0
DIMENSION
  5
4C43
330
1F
100
AcDbEntity
  8
2
100
AcDbDimension
  2
*D6
 10
0.0000000000000038
 20
75.0
 30
0.0
 11
22.00000000000001
 21
78.25
 31
0.0
 70
    32
 71
     5
 42
44.0
  3
AM_DIN$0
100
AcDbAlignedDimension
 13
44.0
 23
10.0
 33
0.0
 14
0.0
 24
12.5
 34
0.0
100
AcDbRotatedDimension
1001
ACAD
1000
DSTYLE
1002
{
1070
   271
1070
     0
1002
}
1001
ACAD_DSTYLE_DIMINSPECT
1070
   396
1000
100%
1070
   395
1000

1070
   394
1070
    33
1070
   393
1070
     0
  0
DIMENSION
  5
4C44
330
1F
100
AcDbEntity
  8
2
100
AcDbDimension
  2
*D7
 10
40.84880551309732
 20
21.81307892868677
 30
0.0
 11
37.81997460957472
 21
60.01120049058277
 31
0.0
 70
   162
 71
     5
 42
0.2617993877991498
  3
AM_DIN$2
100
AcDb2LineAngularDimension
 13
44.0
 23
29.39379174648548
 33
0.0
 14
44.0
 24
35.60405232105791
 34
0.0
 15
43.98637033051563
 25
10.10352761804108
 35
0.0
 16
35.25866667157104
 26
59.62722578377252
 36
0.0
1001
ACAD_DSTYLE_DIMINSPECT
1070
   396
1000
100%
1070
   395
1000

1070
   394
1070
    33
1070
   393
1070
     0
  0
LINE
  5
4C45
330
1F
100
AcDbEntity
  8
1
 48
0.3
100
AcDbLine
 10
24.72540819555275
 20
11.29503046948935
 30
0.0
 11
24.72540819555275
 21
-11.14074156120739
 31
0.0
  0
LINE
  5
4C46
330
1F
100
AcDbEntity
  8
1
 48
0.3
100
AcDbLine
 10
29.9570453660906
 20
17.70046572509375
 30
0.0
 11
29.9570453660906
 21
-16.24373461913978
 31
0.0
  0
LINE
  5
4C47
330
1F
100
AcDbEntity
  8
SK2
 48
0.3
100
AcDbLine
 10
44.0
 20
16.01202995295398
 30
0.0
 11
44.0
 21
3.830467984103052
 31
0.0
  0
DIMENSION
  5
4D0B
330
1F
100
AcDbEntity
  8
2
100
AcDbDimension
  2
*D8
 10
44.0
 20
45.74516839539285
 30
0.0
 11
53.11972756463102
 21
45.74516839539285
 31
0.0
 70
   160
 71
     5
 42
2.900000000000005
  3
AM_DIN$0
100
AcDbAlignedDimension
 13
41.09999999999999
 23
21.05
 33
0.0
 14
44.0
 24
21.05
 34
0.0
100
AcDbRotatedDimension
1001
ACAD
1000
DSTYLE
1002
{
1070
    50
1040
0.7853981633974483
1070
    90
1070
     1
1002
}
1001
ACAD_DSTYLE_DIMINSPECT
1070
   396
1000
100%
1070
   395
1000

1070
   394
1070
    33
1070
   393
1070
     0
  0
ENDSEC
  0
SECTION
  2
OBJECTS
  0
DICTIONARY
  5
C
330
0
100
AcDbDictionary
281
     1
  3
ACAD_2007HEADERVARS_RT
350
4E26
  3
ACAD_COLOR
350
2C3C
  3
ACAD_GROUP
350
D
  3
ACAD_LAYOUT
350
1A
  3
ACAD_MATERIAL
350
2C3B
  3
ACAD_MLEADERSTYLE
350
3BFB
  3
ACAD_MLINESTYLE
350
17
  3
ACAD_PLOTSETTINGS
350
19
  3
ACAD_PLOTSTYLENAME
350
E
  3
ACAD_SCALELIST
350
3BE9
  3
ACAD_TABLESTYLE
350
2C3D
  3
ACAD_VISUALSTYLE
350
3BD8
  3
ACDB_RECOMPOSE_DATA
350
442D
  3
AcDbVariableDictionary
350
216
  3
AcmDictionary
350
45
  3
AMG
350
41
  3
AMGSNAPSETTINGS
350
23D
  0
DICTIONARY
  5
4AB6
330
8
100
AcDbDictionary
280
     1
281
     1
  0
DICTIONARY
  5
4005
330
10
100
AcDbDictionary
280
     1
281
     1
  3
ADSK_XREC_LAYER_RECONCILED
360
4006
  0
DICTIONARY
  5
4007
330
1E30
100
AcDbDictionary
280
     1
281
     1
  3
ADSK_XREC_LAYER_RECONCILED
360
4008
  0
DICTIONARY
  5
4009
330
1E31
100
AcDbDictionary
280
     1
281
     1
  3
ADSK_XREC_LAYER_RECONCILED
360
400A
  0
DICTIONARY
  5
400B
330
1E32
100
AcDbDictionary
280
     1
281
     1
  3
ADSK_XREC_LAYER_RECONCILED
360
400C
  0
DICTIONARY
  5
400D
330
1E33
100
AcDbDictionary
280
     1
281
     1
  3
ADSK_XREC_LAYER_RECONCILED
360
400E
  0
DICTIONARY
  5
400F
330
1E34
100
AcDbDictionary
280
     1
281
     1
  3
ADSK_XREC_LAYER_RECONCILED
360
4010
  0
DICTIONARY
  5
4011
330
1E35
100
AcDbDictionary
280
     1
281
     1
  3
ADSK_XREC_LAYER_RECONCILED
360
4012
  0
DICTIONARY
  5
4013
330
1E36
100
AcDbDictionary
280
     1
281
     1
  3
ADSK_XREC_LAYER_RECONCILED
360
4014
  0
DICTIONARY
  5
4015
330
1E37
100
AcDbDictionary
280
     1
281
     1
  3
ADSK_XREC_LAYER_RECONCILED
360
4016
  0
DICTIONARY
  5
4017
330
1E38
100
AcDbDictionary
280
     1
281
     1
  3
ADSK_XREC_LAYER_RECONCILED
360
4018
  0
DICTIONARY
  5
4019
330
39B0
100
AcDbDictionary
280
     1
281
     1
  3
ADSK_XREC_LAYER_RECONCILED
360
401A
  0
DICTIONARY
  5
1F1
330
1F
100
AcDbDictionary
280
     1
281
     1
  3
ACAD_SORTENTS
360
2CC1
  0
DICTIONARY
  5
4E26
102
{ACAD_REACTORS
330
C
102
}
330
C
100
AcDbDictionary
281
     1
  3
DIMARCSYM
350
4E27
  0
DICTIONARY
  5
2C3C
102
{ACAD_REACTORS
330
C
102
}
330
C
100
AcDbDictionary
281
     1
  0
DICTIONARY
  5
D
102
{ACAD_REACTORS
330
C
102
}
330
C
100
AcDbDictionary
281
     1
  0
DICTIONARY
  5
1A
102
{ACAD_REACTORS
330
C
102
}
330
C
100
AcDbDictionary
281
     1
  3
Layout1
350
1E
  3
Layout2
350
26
  3
Model
350
22
  0
DICTIONARY
  5
2C3B
102
{ACAD_REACTORS
330
C
102
}
330
C
100
AcDbDictionary
281
     1
  3
ByBlock
350
3BC8
  3
ByLayer
350
3BC0
  3
Global
350
3BD0
  0
DICTIONARY
  5
3BFB
102
{ACAD_REACTORS
330
C
102
}
330
C
100
AcDbDictionary
281
     1
  3
Standard
350
3BFC
  0
DICTIONARY
  5
17
102
{ACAD_REACTORS
330
C
102
}
330
C
100
AcDbDictionary
281
     1
  3
Standard
350
18
  0
DICTIONARY
  5
19
102
{ACAD_REACTORS
330
C
102
}
330
C
100
AcDbDictionary
281
     1
  0
ACDBDICTIONARYWDFLT
  5
E
102
{ACAD_REACTORS
330
C
102
}
330
C
100
AcDbDictionary
281
     1
  3
Normal
350
F
100
AcDbDictionaryWithDefault
340
F
  0
DICTIONARY
  5
3BE9
102
{ACAD_REACTORS
330
C
102
}
330
C
100
AcDbDictionary
281
     1
  3
A0
350
3BEA
  3
A1
350
3BEB
  3
A2
350
3BEC
  3
A3
350
3BED
  3
A4
350
3BEE
  3
A5
350
3BEF
  3
A6
350
3BF0
  3
A7
350
3BF1
  3
A8
350
3BF2
  3
A9
350
3BF3
  3
B0
350
3BF4
  3
B1
350
3BF5
  3
B2
350
3BF6
  3
B3
350
3BF7
  3
B4
350
3BF8
  3
B5
350
3BF9
  3
B6
350
3BFA
  0
DICTIONARY
  5
2C3D
102
{ACAD_REACTORS
330
C
102
}
330
C
100
AcDbDictionary
281
     1
  3
Standard
350
2C3E
  0
DICTIONARY
  5
3BD8
102
{ACAD_REACTORS
330
C
102
}
330
C
100
AcDbDictionary
281
     1
  3
2dWireframe
350
3BDE
  3
3D Hidden
350
3BE0
  3
3dWireframe
350
3BDF
  3
Basic
350
3BDD
  3
Brighten
350
3BE4
  3
ColorChange
350
3BE8
  3
Conceptual
350
3BE1
  3
Dim
350
3BE3
  3
Facepattern
350
3BE7
  3
Flat
350
3BD9
  3
FlatWithEdges
350
3BDA
  3
Gouraud
350
3BDB
  3
GouraudWithEdges
350
3BDC
  3
Linepattern
350
3BE6
  3
Realistic
350
3BE2
  3
Thicken
350
3BE5
  0
XRECORD
  5
442D
102
{ACAD_REACTORS
330
C
102
}
330
C
100
AcDbXrecord
280
     1
 90
        1
330
2C3E
  0
DICTIONARY
  5
216
102
{ACAD_REACTORS
330
C
102
}
330
C
100
AcDbDictionary
281
     1
  3
CANNOSCALE
350
4430
  3
CMLEADERSTYLE
350
442E
  3
CTABLESTYLE
350
2CB1
  3
DIMASSOC
350
219
  3
HIDETEXT
350
218
  3
INDEXCTL
350
217
  3
LAYEREVAL
350
4432
  3
LAYERNOTIFY
350
4433
  3
LIGHTINGUNITS
350
4431
  3
MSLTSCALE
350
442F
  3
PROJECTNAME
350
2FE0
  0
DICTIONARY
  5
45
102
{ACAD_REACTORS
330
C
102
}
330
C
100
AcDbDictionary
281
     1
  3
AcmStdDictionary
350
4A
  3
AMDTSECTSYM_ARROWCOLOR
350
2C8C
  0
DICTIONARY
  5
41
102
{ACAD_REACTORS
330
C
102
}
330
C
100
AcDbDictionary
281
     1
  0
DICTIONARY
  5
23D
102
{ACAD_REACTORS
330
C
102
}
330
C
100
AcDbDictionary
281
     1
  0
XRECORD
  5
4006
102
{ACAD_REACTORS
330
4005
102
}
330
4005
100
AcDbXrecord
280
     1
290
     1
  0
XRECORD
  5
4008
102
{ACAD_REACTORS
330
4007
102
}
330
4007
100
AcDbXrecord
280
     1
290
     1
  0
XRECORD
  5
400A
102
{ACAD_REACTORS
330
4009
102
}
330
4009
100
AcDbXrecord
280
     1
290
     1
  0
XRECORD
  5
400C
102
{ACAD_REACTORS
330
400B
102
}
330
400B
100
AcDbXrecord
280
     1
290
     1
  0
XRECORD
  5
400E
102
{ACAD_REACTORS
330
400D
102
}
330
400D
100
AcDbXrecord
280
     1
290
     1
  0
XRECORD
  5
4010
102
{ACAD_REACTORS
330
400F
102
}
330
400F
100
AcDbXrecord
280
     1
290
     1
  0
XRECORD
  5
4012
102
{ACAD_REACTORS
330
4011
102
}
330
4011
100
AcDbXrecord
280
     1
290
     1
  0
XRECORD
  5
4014
102
{ACAD_REACTORS
330
4013
102
}
330
4013
100
AcDbXrecord
280
     1
290
     1
  0
XRECORD
  5
4016
102
{ACAD_REACTORS
330
4015
102
}
330
4015
100
AcDbXrecord
280
     1
290
     1
  0
XRECORD
  5
4018
102
{ACAD_REACTORS
330
4017
102
}
330
4017
100
AcDbXrecord
280
     1
290
     1
  0
XRECORD
  5
401A
102
{ACAD_REACTORS
330
4019
102
}
330
4019
100
AcDbXrecord
280
     1
290
     1
  0
SORTENTSTABLE
  5
2CC1
102
{ACAD_REACTORS
330
1F1
102
}
330
1F1
100
AcDbSortentsTable
330
1F
331
4BEA
  5
4BEA
331
4BF2
  5
4BF2
331
4BFA
  5
4BFA
331
4C02
  5
4C02
331
4C27
  5
4C27
331
4C2F
  5
4C2F
331
4C37
  5
4C37
331
4C3F
  5
4C3F
331
4C0A
  5
4C0A
331
4BD3
  5
4BD3
331
4C12
  5
4C12
331
4BDB
  5
4BDB
331
4C1A
  5
4C1A
331
4BE3
  5
4BE3
331
4C47
  5
4C47
331
4BEB
  5
4BEB
331
4BF3
  5
4BF3
331
4BFB
  5
4BFB
331
4C03
  5
4C03
331
4C20
  5
4C20
331
4C28
  5
4C28
331
4C30
  5
4C30
331
4C38
  5
4C38
331
4C0B
  5
4C0B
331
4C13
  5
4C13
331
4BD4
  5
4BD4
331
4C1B
  5
4C1B
331
4BDC
  5
4BDC
331
4BE4
  5
4BE4
331
4C40
  5
4C40
331
4BEC
  5
4BEC
331
4BF4
  5
4BF4
331
4BFC
  5
4BFC
331
4C04
  5
4C04
331
4C21
  5
4C21
331
4C29
  5
4C29
331
4C31
  5
4C31
331
4C39
  5
4C39
331
4C0C
  5
4C0C
331
4BD5
  5
4BD5
331
4C14
  5
4C14
331
4BDD
  5
4BDD
331
4C1C
  5
4C1C
331
4BE5
  5
4BE5
331
4C41
  5
4C41
331
4BED
  5
4BED
331
4BF5
  5
4BF5
331
4BFD
  5
4BFD
331
4C05
  5
4C05
331
4C22
  5
4C22
331
4C2A
  5
4C2A
331
4C32
  5
4C32
331
4C3A
  5
4C3A
331
4C0D
  5
4C0D
331
4C15
  5
4C15
331
4BD6
  5
4BD6
331
4C1D
  5
4C1D
331
4BDE
  5
4BDE
331
4BE6
  5
4BE6
331
4C42
  5
4C42
331
4BEE
  5
4BEE
331
4BF6
  5
4BF6
331
4BFE
  5
4BFE
331
4C06
  5
4C06
331
4C23
  5
4C23
331
4C2B
  5
4C2B
331
4C33
  5
4C33
331
4C3B
  5
4C3B
331
4C0E
  5
4C0E
331
4BD7
  5
4BD7
331
4C16
  5
4C16
331
4BDF
  5
4BDF
331
4C1E
  5
4C1E
331
4BE7
  5
4BE7
331
4C43
  5
4C43
331
4BEF
  5
4BEF
331
4BF7
  5
4BF7
331
4BFF
  5
4BFF
331
4C07
  5
4C07
331
4C24
  5
4C24
331
4C2C
  5
4C2C
331
4C34
  5
4C34
331
4C3C
  5
4C3C
331
4C0F
  5
4C0F
331
4C17
  5
4C17
331
4BD8
  5
4BD8
331
4C1F
  5
4C1F
331
4BE0
  5
4BE0
331
4C44
  5
4C44
331
4BE8
  5
4BE8
331
4BF0
  5
4BF0
331
4BF8
  5
4BF8
331
4C00
  5
4C00
331
4C25
  5
4C25
331
4C2D
  5
4C2D
331
4C35
  5
4C35
331
4C3D
  5
4C3D
331
4C08
  5
4C08
331
4C10
  5
4C10
331
4BD9
  5
4BD9
331
4C18
  5
4C18
331
4BE1
  5
4BE1
331
4C45
  5
4C45
331
4BE9
  5
4BE9
331
4BF1
  5
4BF1
331
4BF9
  5
4BF9
331
4C01
  5
4C01
331
4C26
  5
4C26
331
4C2E
  5
4C2E
331
4C36
  5
4C36
331
4C3E
  5
4C3E
331
4C09
  5
4C09
331
4C11
  5
4C11
331
4BD2
  5
4BD2
331
4C19
  5
4C19
331
4BDA
  5
4BDA
331
4BE2
  5
4BE2
331
4C46
  5
4C46
  0
XRECORD
  5
4E27
102
{ACAD_REACTORS
330
4E26
102
}
330
4E26
100
AcDbXrecord
280
     1
 70
     1
  0
LAYOUT
  5
1E
102
{ACAD_REACTORS
330
1A
102
}
330
1A
100
AcDbPlotSettings
  1

  2
HP DesignJet 220 (D/A1) by HP
  4

  6

 40
0.0
 41
0.0
 42
0.0
 43
0.0
 44
0.0
 45
0.0
 46
0.0
 47
0.0
 48
0.0
 49
0.0
140
0.0
141
0.0
142
1.0
143
1.0
 70
   688
 72
     0
 73
     0
 74
     5
  7
monochrome2.ctb
 75
    16
147
1.0
 76
     0
 77
     2
 78
   300
148
0.0
149
0.0
100
AcDbLayout
  1
Layout1
 70
     1
 71
     1
 10
0.0
 20
0.0
 11
420.0
 21
297.0
 12
0.0
 22
0.0
 32
0.0
 14
1.000000000000000E+20
 24
1.000000000000000E+20
 34
1.000000000000000E+20
 15
-1.000000000000000E+20
 25
-1.000000000000000E+20
 35
-1.000000000000000E+20
146
0.0
 13
0.0
 23
0.0
 33
0.0
 16
1.0
 26
0.0
 36
0.0
 17
0.0
 27
1.0
 37
0.0
 76
     0
330
1B
  0
LAYOUT
  5
26
102
{ACAD_REACTORS
330
1A
102
}
330
1A
100
AcDbPlotSettings
  1

  2
HP DesignJet 220 (D/A1) by HP
  4

  6

 40
0.0
 41
0.0
 42
0.0
 43
0.0
 44
0.0
 45
0.0
 46
0.0
 47
0.0
 48
0.0
 49
0.0
140
0.0
141
0.0
142
1.0
143
1.0
 70
   688
 72
     0
 73
     0
 74
     5
  7
monochrome2.ctb
 75
    16
147
1.0
 76
     0
 77
     2
 78
   300
148
0.0
149
0.0
100
AcDbLayout
  1
Layout2
 70
     1
 71
     2
 10
0.0
 20
0.0
 11
12.0
 21
9.0
 12
0.0
 22
0.0
 32
0.0
 14
0.0
 24
0.0
 34
0.0
 15
0.0
 25
0.0
 35
0.0
146
0.0
 13
0.0
 23
0.0
 33
0.0
 16
1.0
 26
0.0
 36
0.0
 17
0.0
 27
1.0
 37
0.0
 76
     0
330
23
  0
LAYOUT
  5
22
102
{ACAD_REACTORS
330
1A
102
}
330
1A
100
AcDbPlotSettings
  1

  2
HP DesignJet 220 (D/A1) by HP
  4

  6

 40
0.0
 41
0.0
 42
0.0
 43
0.0
 44
0.0
 45
0.0
 46
0.0
 47
0.0
 48
0.0
 49
0.0
140
0.0
141
0.0
142
1.0
143
1.0
 70
  1712
 72
     0
 73
     0
 74
     0
  7
monochrome2.ctb
 75
     0
147
1.0
 76
     0
 77
     2
 78
   300
148
0.0
149
0.0
100
AcDbLayout
  1
Model
 70
     1
 71
     0
 10
0.0
 20
0.0
 11
12.0
 21
9.0
 12
0.0
 22
0.0
 32
0.0
 14
0.0
 24
0.0
 34
0.0
 15
0.0
 25
0.0
 35
0.0
146
0.0
 13
0.0
 23
0.0
 33
0.0
 16
1.0
 26
0.0
 36
0.0
 17
0.0
 27
1.0
 37
0.0
 76
     0
330
1F
331
3BB6
  0
MATERIAL
  5
3BC8
102
{ACAD_XDICTIONARY
360
3BC9
102
}
102
{ACAD_REACTORS
330
2C3B
102
}
330
2C3B
100
AcDbMaterial
  1
ByBlock
 72
     0
 43
0.0008202099737533
 43
0.0
 43
0.0
 43
0.0
 43
0.0
 43
0.0008202099737533
 43
0.0
 43
0.0
 43
0.0
 43
0.0
 43
1.0
 43
0.0
 43
0.0
 43
0.0
 43
0.0
 43
1.0
 77
     0
 47
0.0008202099737533
 47
0.0
 47
0.0
 47
0.0
 47
0.0
 47
0.0008202099737533
 47
0.0
 47
0.0
 47
0.0
 47
0.0
 47
1.0
 47
0.0
 47
0.0
 47
0.0
 47
0.0
 47
1.0
171
     0
 49
0.0008202099737533
 49
0.0
 49
0.0
 49
0.0
 49
0.0
 49
0.0008202099737533
 49
0.0
 49
0.0
 49
0.0
 49
0.0
 49
1.0
 49
0.0
 49
0.0
 49
0.0
 49
0.0
 49
1.0
175
     0
142
0.0008202099737533
142
0.0
142
0.0
142
0.0
142
0.0
142
0.0008202099737533
142
0.0
142
0.0
142
0.0
142
0.0
142
1.0
142
0.0
142
0.0
142
0.0
142
0.0
142
1.0
179
     0
144
0.0008202099737533
144
0.0
144
0.0
144
0.0
144
0.0
144
0.0008202099737533
144
0.0
144
0.0
144
0.0
144
0.0
144
1.0
144
0.0
144
0.0
144
0.0
144
0.0
144
1.0
147
0.0008202099737533
147
0.0
147
0.0
147
0.0
147
0.0
147
0.0008202099737533
147
0.0
147
0.0
147
0.0
147
0.0
147
1.0
147
0.0
147
0.0
147
0.0
147
0.0
147
1.0
  0
MATERIAL
  5
3BC0
102
{ACAD_XDICTIONARY
360
3BC1
102
}
102
{ACAD_REACTORS
330
2C3B
102
}
330
2C3B
100
AcDbMaterial
  1
ByLayer
 72
     0
 43
0.0008202099737533
 43
0.0
 43
0.0
 43
0.0
 43
0.0
 43
0.0008202099737533
 43
0.0
 43
0.0
 43
0.0
 43
0.0
 43
1.0
 43
0.0
 43
0.0
 43
0.0
 43
0.0
 43
1.0
 77
     0
 47
0.0008202099737533
 47
0.0
 47
0.0
 47
0.0
 47
0.0
 47
0.0008202099737533
 47
0.0
 47
0.0
 47
0.0
 47
0.0
 47
1.0
 47
0.0
 47
0.0
 47
0.0
 47
0.0
 47
1.0
171
     0
 49
0.0008202099737533
 49
0.0
 49
0.0
 49
0.0
 49
0.0
 49
0.0008202099737533
 49
0.0
 49
0.0
 49
0.0
 49
0.0
 49
1.0
 49
0.0
 49
0.0
 49
0.0
 49
0.0
 49
1.0
175
     0
142
0.0008202099737533
142
0.0
142
0.0
142
0.0
142
0.0
142
0.0008202099737533
142
0.0
142
0.0
142
0.0
142
0.0
142
1.0
142
0.0
142
0.0
142
0.0
142
0.0
142
1.0
179
     0
144
0.0008202099737533
144
0.0
144
0.0
144
0.0
144
0.0
144
0.0008202099737533
144
0.0
144
0.0
144
0.0
144
0.0
144
1.0
144
0.0
144
0.0
144
0.0
144
0.0
144
1.0
147
0.0008202099737533
147
0.0
147
0.0
147
0.0
147
0.0
147
0.0008202099737533
147
0.0
147
0.0
147
0.0
147
0.0
147
1.0
147
0.0
147
0.0
147
0.0
147
0.0
147
1.0
  0
MATERIAL
  5
3BD0
102
{ACAD_XDICTIONARY
360
3BD1
102
}
102
{ACAD_REACTORS
330
2C3B
102
}
330
2C3B
100
AcDbMaterial
  1
Global
 72
     0
 43
0.0008202099737533
 43
0.0
 43
0.0
 43
0.0
 43
0.0
 43
0.0008202099737533
 43
0.0
 43
0.0
 43
0.0
 43
0.0
 43
1.0
 43
0.0
 43
0.0
 43
0.0
 43
0.0
 43
1.0
 77
     0
 47
0.0008202099737533
 47
0.0
 47
0.0
 47
0.0
 47
0.0
 47
0.0008202099737533
 47
0.0
 47
0.0
 47
0.0
 47
0.0
 47
1.0
 47
0.0
 47
0.0
 47
0.0
 47
0.0
 47
1.0
171
     0
 49
0.0008202099737533
 49
0.0
 49
0.0
 49
0.0
 49
0.0
 49
0.0008202099737533
 49
0.0
 49
0.0
 49
0.0
 49
0.0
 49
1.0
 49
0.0
 49
0.0
 49
0.0
 49
0.0
 49
1.0
175
     0
142
0.0008202099737533
142
0.0
142
0.0
142
0.0
142
0.0
142
0.0008202099737533
142
0.0
142
0.0
142
0.0
142
0.0
142
1.0
142
0.0
142
0.0
142
0.0
142
0.0
142
1.0
179
     0
144
0.0008202099737533
144
0.0
144
0.0
144
0.0
144
0.0
144
0.0008202099737533
144
0.0
144
0.0
144
0.0
144
0.0
144
1.0
144
0.0
144
0.0
144
0.0
144
0.0
144
1.0
147
0.0008202099737533
147
0.0
147
0.0
147
0.0
147
0.0
147
0.0008202099737533
147
0.0
147
0.0
147
0.0
147
0.0
147
1.0
147
0.0
147
0.0
147
0.0
147
0.0
147
1.0
  0
MLEADERSTYLE
  5
3BFC
102
{ACAD_REACTORS
330
3BFB
102
}
330
3BFB
100
AcDbMLeaderStyle
170
     2
171
     1
172
     0
 90
        2
 40
0.0
 41
0.0
173
     1
 91
-1056964608
340
14
 92
       -2
290
     1
 42
2.0
291
     1
 43
0.36
  3
Standard
 44
4.0
300

342
11
174
     1
178
     6
175
     1
176
     0
 93
-1056964608
 45
4.0
292
     0
297
     0
 46
4.0
 94
-1056964608
 47
1.0
 49
1.0
140
1.0
293
     1
141
0.0
294
     1
177
     0
142
1.0
295
     0
296
     0
143
0.125
1001
ACAD_MLEADERVER
1070
     2
  0
MLINESTYLE
  5
18
102
{ACAD_REACTORS
330
17
102
}
330
17
100
AcDbMlineStyle
  2
STANDARD
 70
     0
  3

 62
   256
 51
90.0
 52
90.0
 71
     2
 49
0.5
 62
   256
  6
BYLAYER
 49
-0.5
 62
   256
  6
BYLAYER
  0
ACDBPLACEHOLDER
  5
F
102
{ACAD_REACTORS
330
E
102
}
330
E
  0
SCALE
  5
3BEA
102
{ACAD_REACTORS
330
3BE9
102
}
330
3BE9
100
AcDbScale
 70
     0
300
1:1
140
1.0
141
1.0
290
     1
  0
SCALE
  5
3BEB
102
{ACAD_REACTORS
330
3BE9
102
}
330
3BE9
100
AcDbScale
 70
     0
300
1:2
140
1.0
141
2.0
290
     0
  0
SCALE
  5
3BEC
102
{ACAD_REACTORS
330
3BE9
102
}
330
3BE9
100
AcDbScale
 70
     0
300
1:4
140
1.0
141
4.0
290
     0
  0
SCALE
  5
3BED
102
{ACAD_REACTORS
330
3BE9
102
}
330
3BE9
100
AcDbScale
 70
     0
300
1:5
140
1.0
141
5.0
290
     0
  0
SCALE
  5
3BEE
102
{ACAD_REACTORS
330
3BE9
102
}
330
3BE9
100
AcDbScale
 70
     0
300
1:8
140
1.0
141
8.0
290
     0
  0
SCALE
  5
3BEF
102
{ACAD_REACTORS
330
3BE9
102
}
330
3BE9
100
AcDbScale
 70
     0
300
1:10
140
1.0
141
10.0
290
     0
  0
SCALE
  5
3BF0
102
{ACAD_REACTORS
330
3BE9
102
}
330
3BE9
100
AcDbScale
 70
     0
300
1:16
140
1.0
141
16.0
290
     0
  0
SCALE
  5
3BF1
102
{ACAD_REACTORS
330
3BE9
102
}
330
3BE9
100
AcDbScale
 70
     0
300
1:20
140
1.0
141
20.0
290
     0
  0
SCALE
  5
3BF2
102
{ACAD_REACTORS
330
3BE9
102
}
330
3BE9
100
AcDbScale
 70
     0
300
1:30
140
1.0
141
30.0
290
     0
  0
SCALE
  5
3BF3
102
{ACAD_REACTORS
330
3BE9
102
}
330
3BE9
100
AcDbScale
 70
     0
300
1:40
140
1.0
141
40.0
290
     0
  0
SCALE
  5
3BF4
102
{ACAD_REACTORS
330
3BE9
102
}
330
3BE9
100
AcDbScale
 70
     0
300
1:50
140
1.0
141
50.0
290
     0
  0
SCALE
  5
3BF5
102
{ACAD_REACTORS
330
3BE9
102
}
330
3BE9
100
AcDbScale
 70
     0
300
1:100
140
1.0
141
100.0
290
     0
  0
SCALE
  5
3BF6
102
{ACAD_REACTORS
330
3BE9
102
}
330
3BE9
100
AcDbScale
 70
     0
300
2:1
140
2.0
141
1.0
290
     0
  0
SCALE
  5
3BF7
102
{ACAD_REACTORS
330
3BE9
102
}
330
3BE9
100
AcDbScale
 70
     0
300
4:1
140
4.0
141
1.0
290
     0
  0
SCALE
  5
3BF8
102
{ACAD_REACTORS
330
3BE9
102
}
330
3BE9
100
AcDbScale
 70
     0
300
8:1
140
8.0
141
1.0
290
     0
  0
SCALE
  5
3BF9
102
{ACAD_REACTORS
330
3BE9
102
}
330
3BE9
100
AcDbScale
 70
     0
300
10:1
140
10.0
141
1.0
290
     0
  0
SCALE
  5
3BFA
102
{ACAD_REACTORS
330
3BE9
102
}
330
3BE9
100
AcDbScale
 70
     0
300
100:1
140
100.0
141
1.0
290
     0
  0
TABLESTYLE
  5
2C3E
102
{ACAD_XDICTIONARY
360
442B
102
}
102
{ACAD_REACTORS
330
2C3D
102
}
330
2C3D
100
AcDbTableStyle
  3
Standard
 70
     0
 71
     0
 40
1.5
 41
1.5
280
     0
281
     0
  7
STANDARD
140
4.5
170
     2
 62
     0
 63
     7
283
     0
274
    -2
284
     1
 64
     0
275
    -2
285
     1
 65
     0
276
    -2
286
     1
 66
     0
277
    -2
287
     1
 67
     0
278
    -2
288
     1
 68
     0
279
    -2
289
     1
 69
     0
  7
STANDARD
140
6.0
170
     5
 62
     0
 63
     7
283
     0
274
    -2
284
     1
 64
     0
275
    -2
285
     1
 65
     0
276
    -2
286
     1
 66
     0
277
    -2
287
     1
 67
     0
278
    -2
288
     1
 68
     0
279
    -2
289
     1
 69
     0
  7
STANDARD
140
4.5
170
     5
 62
     0
 63
     7
283
     0
274
    -2
284
     1
 64
     0
275
    -2
285
     1
 65
     0
276
    -2
286
     1
 66
     0
277
    -2
287
     1
 67
     0
278
    -2
288
     1
 68
     0
279
    -2
289
     1
 69
     0
  0
VISUALSTYLE
  5
3BDE
102
{ACAD_REACTORS
330
3BD8
102
}
330
3BD8
100
AcDbVisualStyle
  2
2dWireframe
 70
     4
 71
     0
 72
     2
 73
     0
 90
        0
 40
-0.6
 41
-30.0
 62
     5
 63
     7
421
 16777215
 74
     1
 91
        4
 64
     7
 65
   257
 75
     1
175
     1
 42
1.0
 92
        0
 66
   257
 43
1.0
 76
     1
 77
     6
 78
     2
 67
     7
 79
     5
170
     0
171
     0
290
     0
174
     0
 93
        1
 44
0.0
173
     0
291
     0
 45
0.0
1001
ACAD
1000
AcDbSavedByObjectVersion
1070
     0
  0
VISUALSTYLE
  5
3BE0
102
{ACAD_REACTORS
330
3BD8
102
}
330
3BD8
100
AcDbVisualStyle
  2
3D Hidden
 70
     6
 71
     1
 72
     2
 73
     2
 90
        0
 40
-0.6
 41
-30.0
 62
     5
 63
     7
421
 16777215
 74
     2
 91
        2
 64
     7
 65
   257
 75
     2
175
     1
 42
40.0
 92
        0
 66
   257
 43
1.0
 76
     1
 77
     6
 78
     2
 67
     7
 79
     3
170
     0
171
     0
290
     0
174
     0
 93
        1
 44
0.0
173
     0
291
     0
 45
0.0
1001
ACAD
1000
AcDbSavedByObjectVersion
1070
     0
  0
VISUALSTYLE
  5
3BDF
102
{ACAD_REACTORS
330
3BD8
102
}
330
3BD8
100
AcDbVisualStyle
  2
3dWireframe
 70
     5
 71
     0
 72
     2
 73
     0
 90
        0
 40
-0.6
 41
-30.0
 62
     5
 63
     7
421
 16777215
 74
     1
 91
        4
 64
     7
 65
   257
 75
     1
175
     1
 42
1.0
 92
        0
 66
   257
 43
1.0
 76
     1
 77
     6
 78
     2
 67
     7
 79
     5
170
     0
171
     0
290
     0
174
     0
 93
        1
 44
0.0
173
     0
291
     0
 45
0.0
1001
ACAD
1000
AcDbSavedByObjectVersion
1070
     0
  0
VISUALSTYLE
  5
3BDD
102
{ACAD_REACTORS
330
3BD8
102
}
330
3BD8
100
AcDbVisualStyle
  2
Basic
 70
     7
 71
     1
 72
     0
 73
     1
 90
        0
 40
-0.6
 41
-30.0
 62
     5
 63
     7
421
 16777215
 74
     0
 91
        4
 64
     7
 65
   257
 75
     1
175
     1
 42
1.0
 92
        8
 66
     7
 43
1.0
 76
     1
 77
     6
 78
     2
 67
     7
 79
     5
170
     0
171
     0
290
     0
174
     0
 93
        1
 44
0.0
173
     0
291
     1
 45
0.0
1001
ACAD
1000
AcDbSavedByObjectVersion
1070
     0
  0
VISUALSTYLE
  5
3BE4
102
{ACAD_REACTORS
330
3BD8
102
}
330
3BD8
100
AcDbVisualStyle
  2
Brighten
 70
    12
 71
     2
 72
     2
 73
     0
 90
        0
 40
-0.6
 41
-30.0
 62
     5
 63
     7
421
 16777215
 74
     1
 91
        4
 64
     7
 65
   257
 75
     1
175
     1
 42
1.0
 92
        8
 66
     7
 43
1.0
 76
     1
 77
     6
 78
     2
 67
     7
 79
     5
170
     0
171
     0
290
     0
174
     0
 93
        1
 44
50.0
173
     0
291
     1
 45
0.0
1001
ACAD
1000
AcDbSavedByObjectVersion
1070
     0
  0
VISUALSTYLE
  5
3BE8
102
{ACAD_REACTORS
330
3BD8
102
}
330
3BD8
100
AcDbVisualStyle
  2
ColorChange
 70
    16
 71
     2
 72
     2
 73
     3
 90
        0
 40
-0.6
 41
-30.0
 62
     5
 63
     8
421
  8421504
 74
     1
 91
        4
 64
     7
 65
   257
 75
     1
175
     1
 42
1.0
 92
        8
 66
     8
424
  8421504
 43
1.0
 76
     1
 77
     6
 78
     2
 67
     7
 79
     5
170
     0
171
     0
290
     0
174
     0
 93
        1
 44
0.0
173
     0
291
     1
 45
0.0
1001
ACAD
1000
AcDbSavedByObjectVersion
1070
     0
  0
VISUALSTYLE
  5
3BE1
102
{ACAD_REACTORS
330
3BD8
102
}
330
3BD8
100
AcDbVisualStyle
  2
Conceptual
 70
     9
 71
     3
 72
     2
 73
     0
 90
        0
 40
-0.6
 41
-30.0
 62
     5
 63
     7
421
 16777215
 74
     2
 91
        2
 64
     7
 65
   257
 75
     1
175
     1
 42
40.0
 92
        8
 66
     7
 43
1.0
 76
     1
 77
     6
 78
     2
 67
     7
 79
     3
170
     0
171
     0
290
     0
174
     0
 93
        1
 44
0.0
173
     0
291
     0
 45
0.0
1001
ACAD
1000
AcDbSavedByObjectVersion
1070
     0
  0
VISUALSTYLE
  5
3BE3
102
{ACAD_REACTORS
330
3BD8
102
}
330
3BD8
100
AcDbVisualStyle
  2
Dim
 70
    11
 71
     2
 72
     2
 73
     0
 90
        0
 40
-0.6
 41
-30.0
 62
     5
 63
     7
421
 16777215
 74
     1
 91
        4
 64
     7
 65
   257
 75
     1
175
     1
 42
1.0
 92
        8
 66
     7
 43
1.0
 76
     1
 77
     6
 78
     2
 67
     7
 79
     5
170
     0
171
     0
290
     0
174
     0
 93
        1
 44
-50.0
173
     0
291
     1
 45
0.0
1001
ACAD
1000
AcDbSavedByObjectVersion
1070
     0
  0
VISUALSTYLE
  5
3BE7
102
{ACAD_REACTORS
330
3BD8
102
}
330
3BD8
100
AcDbVisualStyle
  2
Facepattern
 70
    15
 71
     2
 72
     2
 73
     0
 90
        0
 40
-0.6
 41
-30.0
 62
     5
 63
     7
421
 16777215
 74
     1
 91
        4
 64
     7
 65
   257
 75
     1
175
     1
 42
1.0
 92
        8
 66
     7
 43
1.0
 76
     1
 77
     6
 78
     2
 67
     7
 79
     5
170
     0
171
     0
290
     0
174
     0
 93
        1
 44
0.0
173
     0
291
     1
 45
0.0
1001
ACAD
1000
AcDbSavedByObjectVersion
1070
     0
  0
VISUALSTYLE
  5
3BD9
102
{ACAD_REACTORS
330
3BD8
102
}
330
3BD8
100
AcDbVisualStyle
  2
Flat
 70
     0
 71
     2
 72
     1
 73
     1
 90
        2
 40
-0.6
 41
30.0
 62
     5
 63
     7
421
 16777215
 74
     0
 91
        4
 64
     7
 65
   257
 75
     1
175
     1
 42
1.0
 92
        8
 66
     7
 43
1.0
 76
     1
 77
     6
 78
     2
 67
     7
 79
     5
170
     0
171
     0
290
     0
174
     0
 93
       13
 44
0.0
173
     0
291
     1
 45
0.0
1001
ACAD
1000
AcDbSavedByObjectVersion
1070
     0
  0
VISUALSTYLE
  5
3BDA
102
{ACAD_REACTORS
330
3BD8
102
}
330
3BD8
100
AcDbVisualStyle
  2
FlatWithEdges
 70
     1
 71
     2
 72
     1
 73
     1
 90
        2
 40
-0.6
 41
30.0
 62
     5
 63
     7
421
 16777215
 74
     1
 91
        4
 64
     7
 65
   257
 75
     1
175
     1
 42
1.0
 92
        0
 66
   257
 43
1.0
 76
     1
 77
     6
 78
     2
 67
     7
 79
     5
170
     0
171
     0
290
     0
174
     0
 93
       13
 44
0.0
173
     0
291
     1
 45
0.0
1001
ACAD
1000
AcDbSavedByObjectVersion
1070
     0
  0
VISUALSTYLE
  5
3BDB
102
{ACAD_REACTORS
330
3BD8
102
}
330
3BD8
100
AcDbVisualStyle
  2
Gouraud
 70
     2
 71
     2
 72
     2
 73
     1
 90
        2
 40
-0.6
 41
30.0
 62
     5
 63
     7
421
 16777215
 74
     0
 91
        4
 64
     7
 65
   257
 75
     1
175
     1
 42
1.0
 92
        0
 66
     7
 43
1.0
 76
     1
 77
     6
 78
     2
 67
     7
 79
     5
170
     0
171
     0
290
     0
174
     0
 93
       13
 44
0.0
173
     0
291
     1
 45
0.0
1001
ACAD
1000
AcDbSavedByObjectVersion
1070
     0
  0
VISUALSTYLE
  5
3BDC
102
{ACAD_REACTORS
330
3BD8
102
}
330
3BD8
100
AcDbVisualStyle
  2
GouraudWithEdges
 70
     3
 71
     2
 72
     2
 73
     1
 90
        2
 40
-0.6
 41
30.0
 62
     5
 63
     7
421
 16777215
 74
     1
 91
        4
 64
     7
 65
   257
 75
     1
175
     1
 42
1.0
 92
        0
 66
   257
 43
1.0
 76
     1
 77
     6
 78
     2
 67
     7
 79
     5
170
     0
171
     0
290
     0
174
     0
 93
       13
 44
0.0
173
     0
291
     1
 45
0.0
1001
ACAD
1000
AcDbSavedByObjectVersion
1070
     0
  0
VISUALSTYLE
  5
3BE6
102
{ACAD_REACTORS
330
3BD8
102
}
330
3BD8
100
AcDbVisualStyle
  2
Linepattern
 70
    14
 71
     2
 72
     2
 73
     0
 90
        0
 40
-0.6
 41
-30.0
 62
     5
 63
     7
421
 16777215
 74
     1
 91
        4
 64
     7
 65
   257
 75
     7
175
     7
 42
1.0
 92
        8
 66
     7
 43
1.0
 76
     1
 77
     6
 78
     2
 67
     7
 79
     5
170
     0
171
     0
290
     0
174
     0
 93
        1
 44
0.0
173
     0
291
     1
 45
0.0
1001
ACAD
1000
AcDbSavedByObjectVersion
1070
     0
  0
VISUALSTYLE
  5
3BE2
102
{ACAD_REACTORS
330
3BD8
102
}
330
3BD8
100
AcDbVisualStyle
  2
Realistic
 70
     8
 71
     2
 72
     2
 73
     0
 90
        0
 40
-0.6
 41
-30.0
 62
     5
 63
     7
421
 16777215
 74
     1
 91
        0
 64
     7
 65
   257
 75
     1
175
     1
 42
1.0
 92
        8
 66
     8
424
  7895160
 43
1.0
 76
     1
 77
     6
 78
     2
 67
     7
 79
     5
170
     0
171
     0
290
     0
174
     0
 93
       13
 44
0.0
173
     0
291
     0
 45
0.0
1001
ACAD
1000
AcDbSavedByObjectVersion
1070
     0
  0
VISUALSTYLE
  5
3BE5
102
{ACAD_REACTORS
330
3BD8
102
}
330
3BD8
100
AcDbVisualStyle
  2
Thicken
 70
    13
 71
     2
 72
     2
 73
     0
 90
        0
 40
-0.6
 41
-30.0
 62
     5
 63
     7
421
 16777215
 74
     1
 91
        4
 64
     7
 65
   257
 75
     1
175
     1
 42
1.0
 92
       12
 66
     7
 43
1.0
 76
     1
 77
     6
 78
     2
 67
     7
 79
     5
170
     0
171
     0
290
     0
174
     0
 93
        1
 44
0.0
173
     0
291
     1
 45
0.0
1001
ACAD
1000
AcDbSavedByObjectVersion
1070
     0
  0
DICTIONARYVAR
  5
4430
102
{ACAD_REACTORS
330
216
102
}
330
216
100
DictionaryVariables
280
     0
  1
1:1
  0
DICTIONARYVAR
  5
442E
102
{ACAD_REACTORS
330
216
102
}
330
216
100
DictionaryVariables
280
     0
  1
STANDARD
  0
DICTIONARYVAR
  5
2CB1
102
{ACAD_REACTORS
330
216
102
}
330
216
100
DictionaryVariables
280
     0
  1
STANDARD
  0
DICTIONARYVAR
  5
219
102
{ACAD_REACTORS
330
216
102
}
330
216
100
DictionaryVariables
280
     0
  1
1
  0
DICTIONARYVAR
  5
218
102
{ACAD_REACTORS
330
216
102
}
330
216
100
DictionaryVariables
280
     0
  1
1
  0
DICTIONARYVAR
  5
217
102
{ACAD_REACTORS
330
216
102
}
330
216
100
DictionaryVariables
280
     0
  1
0
  0
DICTIONARYVAR
  5
4432
102
{ACAD_REACTORS
330
216
102
}
330
216
100
DictionaryVariables
280
     0
  1
1
  0
DICTIONARYVAR
  5
4433
102
{ACAD_REACTORS
330
216
102
}
330
216
100
DictionaryVariables
280
     0
  1
15
  0
DICTIONARYVAR
  5
4431
102
{ACAD_REACTORS
330
216
102
}
330
216
100
DictionaryVariables
280
     0
  1
0
  0
DICTIONARYVAR
  5
442F
102
{ACAD_REACTORS
330
216
102
}
330
216
100
DictionaryVariables
280
     0
  1
0
  0
DICTIONARYVAR
  5
2FE0
102
{ACAD_REACTORS
330
216
102
}
330
216
100
DictionaryVariables
280
     0
  1

  0
DICTIONARY
  5
4A
102
{ACAD_REACTORS
330
45
102
}
330
45
100
AcDbDictionary
281
     1
  0
XRECORD
  5
2C8C
102
{ACAD_REACTORS
330
45
102
}
330
45
100
AcDbXrecord
280
     1
 90
-1023410169
  0
DICTIONARY
  5
3BC9
330
3BC8
100
AcDbDictionary
280
     1
281
     1
  3
ACAD_XREC_ROUNDTRIP
360
4E2A
  3
BUMPTILE
360
3BCB
  3
DIFFUSETILE
360
3BCA
  3
OPACITYTILE
360
3BCE
  3
REFLECTIONTILE
360
3BCD
  3
REFRACTIONTILE
360
3BCF
  3
SPECULARTILE
360
3BCC
  0
DICTIONARY
  5
3BC1
330
3BC0
100
AcDbDictionary
280
     1
281
     1
  3
ACAD_XREC_ROUNDTRIP
360
4E29
  3
BUMPTILE
360
3BC3
  3
DIFFUSETILE
360
3BC2
  3
OPACITYTILE
360
3BC6
  3
REFLECTIONTILE
360
3BC5
  3
REFRACTIONTILE
360
3BC7
  3
SPECULARTILE
360
3BC4
  0
DICTIONARY
  5
3BD1
330
3BD0
100
AcDbDictionary
280
     1
281
     1
  3
ACAD_XREC_ROUNDTRIP
360
4E2B
  3
BUMPTILE
360
3BD3
  3
DIFFUSETILE
360
3BD2
  3
OPACITYTILE
360
3BD6
  3
REFLECTIONTILE
360
3BD5
  3
REFRACTIONTILE
360
3BD7
  3
SPECULARTILE
360
3BD4
  0
DICTIONARY
  5
442B
330
2C3E
100
AcDbDictionary
280
     1
281
     1
  3
ACAD_ROUNDTRIP_2008_TABLESTYLE_CELLSTYLEMAP
360
4E25
  3
ACAD_XREC_ROUNDTRIP
360
4E28
  0
XRECORD
  5
4E2A
102
{ACAD_REACTORS
330
3BC9
102
}
330
3BC9
100
AcDbXrecord
280
     1
102
MATERIAL
148
0.0
149
0.0
149
0.0
 93
        0
 94
      127
282
     0
 72
     0
 77
     0
171
     0
175
     0
179
     0
273
     0
  0
XRECORD
  5
3BCB
102
{ACAD_REACTORS
330
3BC9
102
}
330
3BC9
100
AcDbXrecord
280
     1
270
     1
271
     1
  0
XRECORD
  5
3BCA
102
{ACAD_REACTORS
330
3BC9
102
}
330
3BC9
100
AcDbXrecord
280
     1
270
     1
271
     1
  0
XRECORD
  5
3BCE
102
{ACAD_REACTORS
330
3BC9
102
}
330
3BC9
100
AcDbXrecord
280
     1
270
     1
271
     1
  0
XRECORD
  5
3BCD
102
{ACAD_REACTORS
330
3BC9
102
}
330
3BC9
100
AcDbXrecord
280
     1
270
     1
271
     1
  0
XRECORD
  5
3BCF
102
{ACAD_REACTORS
330
3BC9
102
}
330
3BC9
100
AcDbXrecord
280
     1
270
     1
271
     1
  0
XRECORD
  5
3BCC
102
{ACAD_REACTORS
330
3BC9
102
}
330
3BC9
100
AcDbXrecord
280
     1
270
     1
271
     1
  0
XRECORD
  5
4E29
102
{ACAD_REACTORS
330
3BC1
102
}
330
3BC1
100
AcDbXrecord
280
     1
102
MATERIAL
148
0.0
149
0.0
149
0.0
 93
        0
 94
      127
282
     0
 72
     0
 77
     0
171
     0
175
     0
179
     0
273
     0
  0
XRECORD
  5
3BC3
102
{ACAD_REACTORS
330
3BC1
102
}
330
3BC1
100
AcDbXrecord
280
     1
270
     1
271
     1
  0
XRECORD
  5
3BC2
102
{ACAD_REACTORS
330
3BC1
102
}
330
3BC1
100
AcDbXrecord
280
     1
270
     1
271
     1
  0
XRECORD
  5
3BC6
102
{ACAD_REACTORS
330
3BC1
102
}
330
3BC1
100
AcDbXrecord
280
     1
270
     1
271
     1
  0
XRECORD
  5
3BC5
102
{ACAD_REACTORS
330
3BC1
102
}
330
3BC1
100
AcDbXrecord
280
     1
270
     1
271
     1
  0
XRECORD
  5
3BC7
102
{ACAD_REACTORS
330
3BC1
102
}
330
3BC1
100
AcDbXrecord
280
     1
270
     1
271
     1
  0
XRECORD
  5
3BC4
102
{ACAD_REACTORS
330
3BC1
102
}
330
3BC1
100
AcDbXrecord
280
     1
270
     1
271
     1
  0
XRECORD
  5
4E2B
102
{ACAD_REACTORS
330
3BD1
102
}
330
3BD1
100
AcDbXrecord
280
     1
102
MATERIAL
148
0.0
149
0.0
149
0.0
 93
        0
 94
      127
282
     0
 72
     0
 77
     0
171
     0
175
     0
179
     0
273
     0
  0
XRECORD
  5
3BD3
102
{ACAD_REACTORS
330
3BD1
102
}
330
3BD1
100
AcDbXrecord
280
     1
270
     1
271
     1
  0
XRECORD
  5
3BD2
102
{ACAD_REACTORS
330
3BD1
102
}
330
3BD1
100
AcDbXrecord
280
     1
270
     1
271
     1
  0
XRECORD
  5
3BD6
102
{ACAD_REACTORS
330
3BD1
102
}
330
3BD1
100
AcDbXrecord
280
     1
270
     1
271
     1
  0
XRECORD
  5
3BD5
102
{ACAD_REACTORS
330
3BD1
102
}
330
3BD1
100
AcDbXrecord
280
     1
270
     1
271
     1
  0
XRECORD
  5
3BD7
102
{ACAD_REACTORS
330
3BD1
102
}
330
3BD1
100
AcDbXrecord
280
     1
270
     1
271
     1
  0
XRECORD
  5
3BD4
102
{ACAD_REACTORS
330
3BD1
102
}
330
3BD1
100
AcDbXrecord
280
     1
270
     1
271
     1
  0
CELLSTYLEMAP
  5
4E25
102
{ACAD_REACTORS
330
442B
102
}
330
442B
100
AcDbCellStyleMap
 90
        3
300
CELLSTYLE
  1
TABLEFORMAT_BEGIN
 90
        5
170
     1
 91
        0
 92
    32768
 62
   257
 93
        1
300
CONTENTFORMAT
  1
CONTENTFORMAT_BEGIN
 90
        0
 91
        0
 92
        4
 93
        0
300

 40
0.0
140
1.0
 94
        5
 62
     0
340
11
144
6.0
309
CONTENTFORMAT_END
171
     1
301
MARGIN
  1
CELLMARGIN_BEGIN
 40
1.5
 40
1.5
 40
1.5
 40
1.5
 40
0.18
 40
0.18
309
CELLMARGIN_END
 94
        6
 95
        1
302
GRIDFORMAT
  1
GRIDFORMAT_BEGIN
 90
        0
 91
        1
 62
     0
 92
       -2
340
0
 93
        0
 40
0.045
309
GRIDFORMAT_END
 95
        2
302
GRIDFORMAT
  1
GRIDFORMAT_BEGIN
 90
        0
 91
        1
 62
     0
 92
       -2
340
0
 93
        0
 40
0.045
309
GRIDFORMAT_END
 95
        4
302
GRIDFORMAT
  1
GRIDFORMAT_BEGIN
 90
        0
 91
        1
 62
     0
 92
       -2
340
0
 93
        0
 40
0.045
309
GRIDFORMAT_END
 95
        8
302
GRIDFORMAT
  1
GRIDFORMAT_BEGIN
 90
        0
 91
        1
 62
     0
 92
       -2
340
0
 93
        0
 40
0.045
309
GRIDFORMAT_END
 95
       16
302
GRIDFORMAT
  1
GRIDFORMAT_BEGIN
 90
        0
 91
        1
 62
     0
 92
       -2
340
0
 93
        0
 40
0.045
309
GRIDFORMAT_END
 95
       32
302
GRIDFORMAT
  1
GRIDFORMAT_BEGIN
 90
        0
 91
        1
 62
     0
 92
       -2
340
0
 93
        0
 40
0.045
309
GRIDFORMAT_END
309
TABLEFORMAT_END
  1
CELLSTYLE_BEGIN
 90
        1
 91
        1
300
_TITLE
309
CELLSTYLE_END
300
CELLSTYLE
  1
TABLEFORMAT_BEGIN
 90
        5
170
     1
 91
        0
 92
        0
 62
   257
 93
        1
300
CONTENTFORMAT
  1
CONTENTFORMAT_BEGIN
 90
        0
 91
        0
 92
        4
 93
        0
300

 40
0.0
140
1.0
 94
        5
 62
     0
340
11
144
4.5
309
CONTENTFORMAT_END
171
     1
301
MARGIN
  1
CELLMARGIN_BEGIN
 40
1.5
 40
1.5
 40
1.5
 40
1.5
 40
0.18
 40
0.18
309
CELLMARGIN_END
 94
        6
 95
        1
302
GRIDFORMAT
  1
GRIDFORMAT_BEGIN
 90
        0
 91
        1
 62
     0
 92
       -2
340
0
 93
        0
 40
0.045
309
GRIDFORMAT_END
 95
        2
302
GRIDFORMAT
  1
GRIDFORMAT_BEGIN
 90
        0
 91
        1
 62
     0
 92
       -2
340
0
 93
        0
 40
0.045
309
GRIDFORMAT_END
 95
        4
302
GRIDFORMAT
  1
GRIDFORMAT_BEGIN
 90
        0
 91
        1
 62
     0
 92
       -2
340
0
 93
        0
 40
0.045
309
GRIDFORMAT_END
 95
        8
302
GRIDFORMAT
  1
GRIDFORMAT_BEGIN
 90
        0
 91
        1
 62
     0
 92
       -2
340
0
 93
        0
 40
0.045
309
GRIDFORMAT_END
 95
       16
302
GRIDFORMAT
  1
GRIDFORMAT_BEGIN
 90
        0
 91
        1
 62
     0
 92
       -2
340
0
 93
        0
 40
0.045
309
GRIDFORMAT_END
 95
       32
302
GRIDFORMAT
  1
GRIDFORMAT_BEGIN
 90
        0
 91
        1
 62
     0
 92
       -2
340
0
 93
        0
 40
0.045
309
GRIDFORMAT_END
309
TABLEFORMAT_END
  1
CELLSTYLE_BEGIN
 90
        2
 91
        1
300
_HEADER
309
CELLSTYLE_END
300
CELLSTYLE
  1
TABLEFORMAT_BEGIN
 90
        5
170
     1
 91
        0
 92
        0
 62
   257
 93
        1
300
CONTENTFORMAT
  1
CONTENTFORMAT_BEGIN
 90
        0
 91
        0
 92
        4
 93
        0
300

 40
0.0
140
1.0
 94
        2
 62
     0
340
11
144
4.5
309
CONTENTFORMAT_END
171
     1
301
MARGIN
  1
CELLMARGIN_BEGIN
 40
1.5
 40
1.5
 40
1.5
 40
1.5
 40
0.18
 40
0.18
309
CELLMARGIN_END
 94
        6
 95
        1
302
GRIDFORMAT
  1
GRIDFORMAT_BEGIN
 90
        0
 91
        1
 62
     0
 92
       -2
340
0
 93
        0
 40
0.045
309
GRIDFORMAT_END
 95
        2
302
GRIDFORMAT
  1
GRIDFORMAT_BEGIN
 90
        0
 91
        1
 62
     0
 92
       -2
340
0
 93
        0
 40
0.045
309
GRIDFORMAT_END
 95
        4
302
GRIDFORMAT
  1
GRIDFORMAT_BEGIN
 90
        0
 91
        1
 62
     0
 92
       -2
340
0
 93
        0
 40
0.045
309
GRIDFORMAT_END
 95
        8
302
GRIDFORMAT
  1
GRIDFORMAT_BEGIN
 90
        0
 91
        1
 62
     0
 92
       -2
340
0
 93
        0
 40
0.045
309
GRIDFORMAT_END
 95
       16
302
GRIDFORMAT
  1
GRIDFORMAT_BEGIN
 90
        0
 91
        1
 62
     0
 92
       -2
340
0
 93
        0
 40
0.045
309
GRIDFORMAT_END
 95
       32
302
GRIDFORMAT
  1
GRIDFORMAT_BEGIN
 90
        0
 91
        1
 62
     0
 92
       -2
340
0
 93
        0
 40
0.045
309
GRIDFORMAT_END
309
TABLEFORMAT_END
  1
CELLSTYLE_BEGIN
 90
        3
 91
        2
300
_DATA
309
CELLSTYLE_END
  0
XRECORD
  5
4E28
102
{ACAD_REACTORS
330
442B
102
}
330
442B
100
AcDbXrecord
280
     1
102
ACAD_ROUNDTRIP_PRE2007_TABLESTYLE
 90
        4
 91
        0
  1

 92
        4
 93
        0
  2

 94
        4
 95
        0
  3

  0
ENDSEC
  0
EOF
