  0
SECTION
  2
HEADER
  9
$ACADVER
  1
AC1018
  9
$ACADMAINTVER
 70
   104
  9
$DWGCODEPAGE
  3
ANSI_1252
  9
$LASTSAVEDBY
  1
Bernd Dutschke
  9
$CUSTOMPROPERTYTAG
  1
AmdtFileType
  9
$CUSTOMPROPERTY
  1
84
  9
$INSBASE
 10
0.0
 20
0.0
 30
0.0
  9
$EXTMIN
 10
-83.86914398514518
 20
-32.55082819528206
 30
-0.00000001
  9
$EXTMAX
 10
88.99340332661791
 20
95.0
 30
0.00000001
  9
$LIMMIN
 10
0.0
 20
0.0
  9
$LIMMAX
 10
420.0
 20
297.0
  9
$ORTHOMODE
 70
     1
  9
$REGENMODE
 70
     1
  9
$FILLMODE
 70
     1
  9
$QTEXTMODE
 70
     0
  9
$MIRRTEXT
 70
     1
  9
$LTSCALE
 40
1.0
  9
$ATTMODE
 70
     1
  9
$TEXTSIZE
 40
2.5
  9
$TRACEWID
 40
1.0
  9
$TEXTSTYLE
  7
STANDARD
  9
$CLAYER
  8
0
  9
$CELTYPE
  6
ByLayer
  9
$CECOLOR
 62
   256
  9
$CELTSCALE
 40
0.3
  9
$DISPSILH
 70
     0
  9
$DIMSCALE
 40
1.0
  9
$DIMASZ
 40
2.5
  9
$DIMEXO
 40
0.0
  9
$DIMDLI
 40
10.0
  9
$DIMRND
 40
0.0
  9
$DIMDLE
 40
0.0
  9
$DIMEXE
 40
1.0
  9
$DIMTP
 40
0.1
  9
$DIMTM
 40
0.1
  9
$DIMTXT
 40
3.5
  9
$DIMCEN
 40
0.0
  9
$DIMTSZ
 40
0.0
  9
$DIMTOL
 70
     0
  9
$DIMLIM
 70
     0
  9
$DIMTIH
 70
     0
  9
$DIMTOH
 70
     0
  9
$DIMSE1
 70
     0
  9
$DIMSE2
 70
     0
  9
$DIMTAD
 70
     1
  9
$DIMZIN
 70
     8
  9
$DIMBLK
  1

  9
$DIMASO
 70
     1
  9
$DIMSHO
 70
     1
  9
$DIMPOST
  1

  9
$DIMAPOST
  1
"
  9
$DIMALT
 70
     0
  9
$DIMALTD
 70
     2
  9
$DIMALTF
 40
0.0393701
  9
$DIMLFAC
 40
1.0
  9
$DIMTOFL
 70
     1
  9
$DIMTVP
 40
0.0
  9
$DIMTIX
 70
     0
  9
$DIMSOXD
 70
     0
  9
$DIMSAH
 70
     0
  9
$DIMBLK1
  1

  9
$DIMBLK2
  1

  9
$DIMSTYLE
  2
AM_DIN
  9
$DIMCLRD
 70
   256
  9
$DIMCLRE
 70
   256
  9
$DIMCLRT
 70
     2
  9
$DIMTFAC
 40
0.71
  9
$DIMGAP
 40
1.5
  9
$DIMJUST
 70
     0
  9
$DIMSD1
 70
     0
  9
$DIMSD2
 70
     0
  9
$DIMTOLJ
 70
     0
  9
$DIMTZIN
 70
     8
  9
$DIMALTZ
 70
     0
  9
$DIMALTTZ
 70
     0
  9
$DIMUPT
 70
     0
  9
$DIMDEC
 70
     2
  9
$DIMTDEC
 70
     2
  9
$DIMALTU
 70
     2
  9
$DIMALTTD
 70
     2
  9
$DIMTXSTY
  7
STANDARD
  9
$DIMAUNIT
 70
     0
  9
$DIMADEC
 70
     0
  9
$DIMALTRND
 40
0.0
  9
$DIMAZIN
 70
     2
  9
$DIMDSEP
 70
    46
  9
$DIMATFIT
 70
     3
  9
$DIMFRAC
 70
     0
  9
$DIMLDRBLK
  1

  9
$DIMLUNIT
 70
     2
  9
$DIMLWD
 70
    -1
  9
$DIMLWE
 70
    -1
  9
$DIMTMOVE
 70
     0
  9
$LUNITS
 70
     2
  9
$LUPREC
 70
     2
  9
$SKETCHINC
 40
1.0
  9
$FILLETRAD
 40
3.0
  9
$AUNITS
 70
     0
  9
$AUPREC
 70
     0
  9
$MENU
  1
.
  9
$ELEVATION
 40
0.0
  9
$PELEVATION
 40
0.0
  9
$THICKNESS
 40
0.0
  9
$LIMCHECK
 70
     0
  9
$CHAMFERA
 40
2.5
  9
$CHAMFERB
 40
2.5
  9
$CHAMFERC
 40
20.0
  9
$CHAMFERD
 40
0.0
  9
$SKPOLY
 70
     0
  9
$TDCREATE
 40
2453599.324339375
  9
$TDUCREATE
 40
2453599.282672708
  9
$TDUPDATE
 40
2454798.591932685
  9
$TDUUPDATE
 40
2454798.550266019
  9
$TDINDWG
 40
0.2139068634
  9
$TDUSRTIMER
 40
0.2138825231
  9
$USRTIMER
 70
     1
  9
$ANGBASE
 50
0.0
  9
$ANGDIR
 70
     0
  9
$PDMODE
 70
     0
  9
$PDSIZE
 40
0.0
  9
$PLINEWID
 40
0.0
  9
$SPLFRAME
 70
     0
  9
$SPLINETYPE
 70
     6
  9
$SPLINESEGS
 70
     8
  9
$HANDSEED
  5
5215
  9
$SURFTAB1
 70
     6
  9
$SURFTAB2
 70
     6
  9
$SURFTYPE
 70
     6
  9
$SURFU
 70
     6
  9
$SURFV
 70
     6
  9
$UCSBASE
  2

  9
$UCSNAME
  2

  9
$UCSORG
 10
0.0
 20
0.0
 30
0.0
  9
$UCSXDIR
 10
1.0
 20
0.0
 30
0.0
  9
$UCSYDIR
 10
0.0
 20
1.0
 30
0.0
  9
$UCSORTHOREF
  2

  9
$UCSORTHOVIEW
 70
     0
  9
$UCSORGTOP
 10
0.0
 20
0.0
 30
0.0
  9
$UCSORGBOTTOM
 10
0.0
 20
0.0
 30
0.0
  9
$UCSORGLEFT
 10
0.0
 20
0.0
 30
0.0
  9
$UCSORGRIGHT
 10
0.0
 20
0.0
 30
0.0
  9
$UCSORGFRONT
 10
0.0
 20
0.0
 30
0.0
  9
$UCSORGBACK
 10
0.0
 20
0.0
 30
0.0
  9
$PUCSBASE
  2

  9
$PUCSNAME
  2

  9
$PUCSORG
 10
0.0
 20
0.0
 30
0.0
  9
$PUCSXDIR
 10
1.0
 20
0.0
 30
0.0
  9
$PUCSYDIR
 10
0.0
 20
1.0
 30
0.0
  9
$PUCSORTHOREF
  2

  9
$PUCSORTHOVIEW
 70
     0
  9
$PUCSORGTOP
 10
0.0
 20
0.0
 30
0.0
  9
$PUCSORGBOTTOM
 10
0.0
 20
0.0
 30
0.0
  9
$PUCSORGLEFT
 10
0.0
 20
0.0
 30
0.0
  9
$PUCSORGRIGHT
 10
0.0
 20
0.0
 30
0.0
  9
$PUCSORGFRONT
 10
0.0
 20
0.0
 30
0.0
  9
$PUCSORGBACK
 10
0.0
 20
0.0
 30
0.0
  9
$USERI1
 70
     0
  9
$USERI2
 70
     0
  9
$USERI3
 70
     0
  9
$USERI4
 70
     0
  9
$USERI5
 70
     0
  9
$USERR1
 40
0.0
  9
$USERR2
 40
0.0
  9
$USERR3
 40
0.0
  9
$USERR4
 40
0.0
  9
$USERR5
 40
0.0
  9
$WORLDVIEW
 70
     1
  9
$SHADEDGE
 70
     3
  9
$SHADEDIF
 70
    70
  9
$TILEMODE
 70
     1
  9
$MAXACTVP
 70
    64
  9
$PINSBASE
 10
0.0
 20
0.0
 30
0.0
  9
$PLIMCHECK
 70
     0
  9
$PEXTMIN
 10
1.000000000000000E+20
 20
1.000000000000000E+20
 30
1.000000000000000E+20
  9
$PEXTMAX
 10
-1.000000000000000E+20
 20
-1.000000000000000E+20
 30
-1.000000000000000E+20
  9
$PLIMMIN
 10
0.0
 20
0.0
  9
$PLIMMAX
 10
420.0
 20
297.0
  9
$UNITMODE
 70
     0
  9
$VISRETAIN
 70
     1
  9
$PLINEGEN
 70
     0
  9
$PSLTSCALE
 70
     1
  9
$TREEDEPTH
 70
  3020
  9
$CMLSTYLE
  2
Standard
  9
$CMLJUST
 70
     0
  9
$CMLSCALE
 40
20.0
  9
$PROXYGRAPHICS
 70
     1
  9
$MEASUREMENT
 70
     1
  9
$CELWEIGHT
370
    -1
  9
$ENDCAPS
280
     0
  9
$JOINSTYLE
280
     0
  9
$LWDISPLAY
290
     0
  9
$INSUNITS
 70
     4
  9
$HYPERLINKBASE
  1

  9
$STYLESHEET
  1

  9
$XEDIT
290
     1
  9
$CEPSNTYPE
380
     0
  9
$PSTYLEMODE
290
     1
  9
$FINGERPRINTGUID
  2
{03052709-208C-44F1-88CB-F8F0E550BC5D}
  9
$VERSIONGUID
  2
{BA096385-2F30-4C18-A6D6-E56CB4FD60B5}
  9
$EXTNAMES
290
     1
  9
$PSVPSCALE
 40
0.0
  9
$OLESTARTUP
290
     0
  9
$SORTENTS
280
   127
  9
$INDEXCTL
280
     0
  9
$HIDETEXT
280
     1
  9
$XCLIPFRAME
290
     0
  9
$HALOGAP
280
     0
  9
$OBSCOLOR
 70
   257
  9
$OBSLTYPE
280
     0
  9
$INTERSECTIONDISPLAY
280
     0
  9
$INTERSECTIONCOLOR
 70
   257
  9
$DIMASSOC
280
     1
  9
$PROJECTNAME
  1

  0
ENDSEC
  0
SECTION
  2
CLASSES
  0
CLASS
  1
ACDBDICTIONARYWDFLT
  2
AcDbDictionaryWithDefault
  3
ObjectDBX Classes
 90
        0
 91
        1
280
     0
281
     0
  0
CLASS
  1
ACME_DOCUMENT
  2
AcMeDbDoc
  3
AcMeServices
 90
     1024
 91
        2
280
     0
281
     0
  0
CLASS
  1
ACMESCOPE
  2
AcMeScope
  3
AcMeServices
 90
     1024
 91
        1
280
     0
281
     0
  0
CLASS
  1
ACMECOMMANDHISTORY
  2
AcMeCommandHistory
  3
AcMeServices
 90
     1024
 91
        1
280
     0
281
     0
  0
CLASS
  1
ACIMSYSVARMAN
  2
AcImSysVarManager
  3
AcMeServices
 90
     1024
 91
        5
280
     0
281
     0
  0
CLASS
  1
ACIMREALSYSVAR
  2
AcImRealSysVar
  3
AcMeServices
 90
     1024
 91
        1
280
     0
281
     0
  0
CLASS
  1
ACIMINTSYSVAR
  2
AcImIntSysVar
  3
AcMeServices
 90
     1024
 91
       27
280
     0
281
     0
  0
CLASS
  1
ACMEDRAWINGMAN
  2
AcMeDrawingMan
  3
AcMeServices
 90
     1024
 91
        1
280
     0
281
     0
  0
CLASS
  1
ACMEVIEW
  2
AcMeView
  3
AcMeServices
 90
     1024
 91
        1
280
     0
281
     0
  0
CLASS
  1
ACDBENTITYCACHE
  2
AcMeEntityCache
  3
AcMeServices
 90
     1024
 91
        1
280
     0
281
     0
  0
CLASS
  1
GSMANAGER
  2
AcMeGSManager
  3
AcMeServices
 90
     1024
 91
        1
280
     0
281
     0
  0
CLASS
  1
AMDTINTERNALREACTOR
  2
AmdtInternalReactor
  3
AcMeServices
 90
     1024
 91
        2
280
     0
281
     0
  0
CLASS
  1
ACMESTATEMGR
  2
AcMeStateMgr
  3
AcMeServices
 90
     1024
 91
        1
280
     0
281
     0
  0
CLASS
  1
ACGREFMASTER
  2
AcGrefMaster
  3
AcAttribServices
 90
     1024
 91
        1
280
     0
281
     0
  0
CLASS
  1
ACME_DATABASE
  2
AcMeDbDatabase
  3
AcMeServices
 90
     1024
 91
        1
280
     0
281
     0
  0
CLASS
  1
ACRFINSADJUSTERMGR
  2
AcRfInsAdjusterMgr
  3
AcMeServices
 90
     1024
 91
        1
280
     0
281
     0
  0
CLASS
  1
ACGREFACADMASTER
  2
AcGrefacadMaster
  3
AcGrefServices
 90
     1024
 91
        1
280
     0
281
     0
  0
CLASS
  1
AMIMASTER
  2
AmiMaster
  3
AmiServices
 90
     1024
 91
        1
280
     0
281
     0
  0
CLASS
  1
AMGSETTINGSOBJ
  2
AmgSettingsObj
  3
"AcadM|Product Description: AutoCAD Mechanical|Company: Autodesk, Inc."
 90
     1024
 91
        2
280
     0
281
     0
  0
CLASS
  1
ACMDATADICTIONARY
  2
AcmDataDictionary
  3
"AcmSymBB|Product Description: AutoCAD Mechanical|Company: Autodesk, Inc."
 90
     1024
 91
        1
280
     0
281
     0
  0
CLASS
  1
ACMDATAENTRYBLOCK
  2
AcmDataEntryBlock
  3
AcmSymBB|Product Description: AutoCAD Mechanical|Company: Autodesk, Inc.
 90
     1024
 91
        0
280
     0
281
     0
  0
CLASS
  1
ACIMSTRSYSVAR
  2
AcImStrSysVar
  3
AcMeServices
 90
     1024
 91
        4
280
     0
281
     0
  0
CLASS
  1
ACMSTANDARDDIN
  2
AcmStandardDIN
  3
"Amdt_StdImp|Product Description: AutoCAD Mechanical|Company: Autodesk, Inc."
 90
     1024
 91
        0
280
     0
281
     0
  0
CLASS
  1
AMGOBJPROPCFG
  2
AmgObjPropCfg
  3
"AmgLay|Product Description: AutoCAD Mechanical|Company: Autodesk, Inc."
 90
     1025
 91
        1
280
     0
281
     0
  0
CLASS
  1
AMDTEDGESTANDARDDIN
  2
AmdtEdgeStdDIN
  3
"Amdt_StdImp|Product Description: AutoCAD Mechanical|Company: Autodesk, Inc."
 90
     1024
 91
        0
280
     0
281
     0
  0
CLASS
  1
ACMSURFSTANDARDDIN
  2
AcmSurfTextStdDIN
  3
"Amdt_StdImp|Product Description: AutoCAD Mechanical|Company: Autodesk, Inc."
 90
     1024
 91
        0
280
     0
281
     0
  0
CLASS
  1
ACMFCFSTANDARDDIN
  2
AcmFCFStdDIN
  3
"Amdt_StdImp|Product Description: AutoCAD Mechanical|Company: Autodesk, Inc."
 90
     1024
 91
        0
280
     0
281
     0
  0
CLASS
  1
ACMWELDSTANDARDDIN
  2
AcmWeldingStdDIN
  3
"Amdt_StdImp|Product Description: AutoCAD Mechanical|Company: Autodesk, Inc."
 90
     1024
 91
        0
280
     0
281
     0
  0
CLASS
  1
ACMIDSTANDARDDIN
  2
AcmIdStdDIN
  3
"Amdt_StdImp|Product Description: AutoCAD Mechanical|Company: Autodesk, Inc."
 90
     1024
 91
        0
280
     0
281
     0
  0
CLASS
  1
ACMDATUMSTANDARDDIN
  2
AcmDatumStdDIN
  3
"Amdt_StdImp|Product Description: AutoCAD Mechanical|Company: Autodesk, Inc."
 90
     1024
 91
        0
280
     0
281
     0
  0
CLASS
  1
ACMBOMSTANDARDDIN
  2
AcmBOMStdDIN
  3
"Amdt_StdImp|Product Description: AutoCAD Mechanical|Company: Autodesk, Inc."
 90
     1024
 91
        0
280
     0
281
     0
  0
CLASS
  1
ACMDETAILSTANDARDDIN
  2
AmdtDetailSymStdDIN
  3
"Amdt_StdImp|Product Description: AutoCAD Mechanical|Company: Autodesk, Inc."
 90
     1024
 91
        0
280
     0
281
     0
  0
CLASS
  1
ACMSECTIONSTANDARDDIN
  2
AmdtSectionSymStdDIN
  3
"Amdt_StdImp|Product Description: AutoCAD Mechanical|Company: Autodesk, Inc."
 90
     1024
 91
        0
280
     0
281
     0
  0
CLASS
  1
ACMCENTERLINESTANDARDDIN
  2
AmdtCenterLineStdDIN
  3
"Amdt_StdImp|Product Description: AutoCAD Mechanical|Company: Autodesk, Inc."
 90
     1024
 91
        0
280
     0
281
     0
  0
CLASS
  1
ACMNOTESTANDARDDIN
  2
AmdtNoteStdDIN
  3
"Amdt_StdImp|Product Description: AutoCAD Mechanical|Company: Autodesk, Inc."
 90
     1024
 91
        0
280
     0
281
     0
  0
CLASS
  1
ACAMGLAYSTD
  2
AcAmgLayStd
  3
"AmgLay|Product Description: AutoCAD Mechanical|Company: Autodesk, Inc."
 90
     1024
 91
        0
280
     0
281
     0
  0
CLASS
  1
ACAMGDIMSTD
  2
AcAmgDimStd
  3
"AmgDim|Product Description: AutoCAD Mechanical|Company: Autodesk, Inc."
 90
     1024
 91
        0
280
     0
281
     0
  0
CLASS
  1
ACAMGHOLECHARTSTDDIN
  2
AcAmgHoleChartStdDIN
  3
AmgDim|Product Description: AutoCAD Mechanical|Company: Autodesk, Inc.
 90
     1024
 91
        0
280
     0
281
     0
  0
CLASS
  1
ACAMGTITLESTD
  2
AcAmgTitleStd
  3
"AmgTitle|Product Description: AutoCAD Mechanical|Company: Autodesk, Inc."
 90
     4095
 91
        0
280
     0
281
     0
  0
CLASS
  1
ACMSTANDARDANSI
  2
AcmStandardANSI
  3
"Amdt_StdImp|Product Description: AutoCAD Mechanical|Company: Autodesk, Inc."
 90
     1024
 91
        0
280
     0
281
     0
  0
CLASS
  1
ACMSURFSTANDARDANSI
  2
AcmSurfTextStdANSI
  3
"Amdt_StdImp|Product Description: AutoCAD Mechanical|Company: Autodesk, Inc."
 90
     1024
 91
        0
280
     0
281
     0
  0
CLASS
  1
ACMFCFSTANDARDANSI
  2
AcmFCFStdANSI
  3
"Amdt_StdImp|Product Description: AutoCAD Mechanical|Company: Autodesk, Inc."
 90
     1024
 91
        0
280
     0
281
     0
  0
CLASS
  1
ACMWELDSTANDARDANSI
  2
AcmWeldingStdANSI
  3
"Amdt_StdImp|Product Description: AutoCAD Mechanical|Company: Autodesk, Inc."
 90
     1024
 91
        0
280
     0
281
     0
  0
CLASS
  1
ACMIDSTANDARDANSI
  2
AcmIdStdANSI
  3
"Amdt_StdImp|Product Description: AutoCAD Mechanical|Company: Autodesk, Inc."
 90
     1024
 91
        0
280
     0
281
     0
  0
CLASS
  1
ACMDATUMSTANDARDANSI
  2
AcmDatumStdANSI
  3
"Amdt_StdImp|Product Description: AutoCAD Mechanical|Company: Autodesk, Inc."
 90
     1024
 91
        0
280
     0
281
     0
  0
CLASS
  1
ACMBOMSTANDARDANSI
  2
AcmBOMStdANSI
  3
"Amdt_StdImp|Product Description: AutoCAD Mechanical|Company: Autodesk, Inc."
 90
     1024
 91
        0
280
     0
281
     0
  0
CLASS
  1
ACMDETAILSTANDARDANSI
  2
AmdtDetailSymStdANSI
  3
"Amdt_StdImp|Product Description: AutoCAD Mechanical|Company: Autodesk, Inc."
 90
     1024
 91
        0
280
     0
281
     0
  0
CLASS
  1
ACMSECTIONSTANDARDANSI
  2
AmdtSectionSymStdANSI
  3
"Amdt_StdImp|Product Description: AutoCAD Mechanical|Company: Autodesk, Inc."
 90
     1024
 91
        0
280
     0
281
     0
  0
CLASS
  1
ACMCENTERLINESTANDARDANSI
  2
AmdtCenterLineStdANSI
  3
"Amdt_StdImp|Product Description: AutoCAD Mechanical|Company: Autodesk, Inc."
 90
     1024
 91
        0
280
     0
281
     0
  0
CLASS
  1
ACMNOTESTANDARDANSI
  2
AmdtNoteStdANSI
  3
"Amdt_StdImp|Product Description: AutoCAD Mechanical|Company: Autodesk, Inc."
 90
     1024
 91
        0
280
     0
281
     0
  0
CLASS
  1
ACAMGHOLECHARTSTDANSI
  2
AcAmgHoleChartStdANSI
  3
AmgDim|Product Description: AutoCAD Mechanical|Company: Autodesk, Inc.
 90
     1024
 91
        0
280
     0
281
     0
  0
CLASS
  1
ACAMGFILTERDAT
  2
AcAmgFilterDat
  3
"AcadM|Product Description: AutoCAD Mechanical|Company: Autodesk, Inc."
 90
     1024
 91
        0
280
     0
281
     0
  0
CLASS
  1
AMDTFORMULAUPDATEDISPATCHER
  2
AmdtFormulaUpdateDispatcher
  3
AcMeServices
 90
     1024
 91
        0
280
     0
281
     0
  0
CLASS
  1
LAYER_INDEX
  2
AcDbLayerIndex
  3
ObjectDBX Classes
 90
        0
 91
        0
280
     0
281
     0
  0
CLASS
  1
IDBUFFER
  2
AcDbIdBuffer
  3
ObjectDBX Classes
 90
        0
 91
        0
280
     0
281
     0
  0
CLASS
  1
DICTIONARYVAR
  2
AcDbDictionaryVar
  3
ObjectDBX Classes
 90
        0
 91
       11
280
     0
281
     0
  0
CLASS
  1
DIMASSOC
  2
AcDbDimAssoc
  3
"AcDbDimAssoc|Product Desc:     AcDim ARX App For Dimension|Company:          Autodesk, Inc.|WEB Address:      www.autodesk.com"
 90
        0
 91
        0
280
     0
281
     0
  0
CLASS
  1
ACMDIMBREAKPERSREACTOR
  2
AcmDimBreakPersReactor
  3
AmgDim|Product Description: AutoCAD Mechanical|Company: Autodesk, Inc.
 90
     4095
 91
        0
280
     0
281
     0
  0
CLASS
  1
ACMSURFSYM
  2
AcmSurfaceTexture
  3
"AcmSymBB|Product Description: AutoCAD Mechanical|Company: Autodesk, Inc."
 90
     4095
 91
        0
280
     0
281
     1
  0
CLASS
  1
ACMFCFRAME
  2
AcmFCF
  3
"AcmSymBB|Product Description: AutoCAD Mechanical|Company: Autodesk, Inc."
 90
     4095
 91
        0
280
     0
281
     1
  0
CLASS
  1
TABLESTYLE
  2
AcDbTableStyle
  3
ObjectDBX Classes
 90
     4095
 91
        1
280
     0
281
     0
  0
CLASS
  1
AM_DRAWING_MGR
  2
AcDmDwgMgr
  3
AcMechDwgViewMgmt
 90
     1024
 91
        1
280
     0
281
     0
  0
CLASS
  1
AM_DWG_DOCUMENT
  2
AcDmDwgDocument
  3
AcMechDwgViewMgmt
 90
     1024
 91
        1
280
     0
281
     0
  0
CLASS
  1
AM_DWG_SHEET
  2
AcDmSheet
  3
AcMechDwgViewMgmt
 90
     1024
 91
        2
280
     0
281
     0
  0
CLASS
  1
AM_VIEWDIMPARMAP
  2
AcDmViewDimParMap
  3
AcMechDwgViewMgmt
 90
     1024
 91
        2
280
     0
281
     0
  0
CLASS
  1
AM_DWGMGR_NAME
  2
AcDmDwgMgrName
  3
AcMechDwgViewMgmt
 90
     1024
 91
        1
280
     0
281
     0
  0
CLASS
  1
AMDTMENUSTATEMGR
  2
AmdtMenuStateMgr
  3
McadcomServices
 90
     1024
 91
        1
280
     0
281
     0
  0
CLASS
  1
AMDTMCOMMENUSTATE
  2
AmdtMcomMenuState
  3
McadcomServices
 90
     1024
 91
        1
280
     0
281
     0
  0
CLASS
  1
MAPIAMMOUDLE
  2
MApiAmModule
  3
MApiAmServices
 90
     1024
 91
        1
280
     0
281
     0
  0
CLASS
  1
AMDTADMENUSTATE
  2
AmdtAdMenuState
  3
DesignerServices
 90
     1024
 91
        1
280
     0
281
     0
  0
CLASS
  1
ADAPPL
  2
AcAdAppl
  3
DesignerServices
 90
     1024
 91
        1
280
     0
281
     0
  0
CLASS
  1
DEPMGR
  2
AcAdDepMgr
  3
DesignerServices
 90
     1024
 91
        1
280
     0
281
     0
  0
CLASS
  1
PARAMMGR
  2
AcAdParamMgr
  3
DesignerServices
 90
     1024
 91
        1
280
     0
281
     0
  0
CLASS
  1
PARAMSCOPE
  2
AcAdParamScope
  3
DesignerServices
 90
     1024
 91
        1
280
     0
281
     0
  0
CLASS
  1
NAMEDAPPL
  2
AcAdNamedAppl
  3
DesignerServices
 90
     1024
 91
        1
280
     0
281
     0
  0
CLASS
  1
AMDTDMMENUSTATE
  2
AmdtDmMenuState
  3
AcMechDwgViewMgmt
 90
     1024
 91
        1
280
     0
281
     0
  0
CLASS
  1
AMDTAMMENUSTATE
  2
AmdtAmMenuState
  3
DesignerAssemblies
 90
     1024
 91
        1
280
     0
281
     0
  0
CLASS
  1
ACAMPROJECT
  2
AcAmProject
  3
DesignerAssemblies
 90
     1024
 91
        1
280
     0
281
     0
  0
CLASS
  1
ACAMGRCOMPDEF
  2
AcAmGrCompDef
  3
DesignerAssemblies
 90
     1024
 91
        1
280
     0
281
     0
  0
CLASS
  1
ACCMCONTEXT
  2
AcCmContext
  3
DesignerAssemblies
 90
     1024
 91
        1
280
     0
281
     0
  0
CLASS
  1
ACAMCOMPDEF
  2
AcAmCompDef
  3
DesignerAssemblies
 90
     1024
 91
        1
280
     0
281
     0
  0
CLASS
  1
ACAMCOMPDEFMGR
  2
AcAmCompDefMgr
  3
DesignerAssemblies
 90
     1024
 91
        1
280
     0
281
     0
  0
CLASS
  1
AMCONTEXTMGR
  2
AcAmContextMgr
  3
DesignerAssemblies
 90
     1024
 91
        1
280
     0
281
     0
  0
CLASS
  1
ACAMCONTEXTMODELER
  2
AcAmContextModeler
  3
DesignerAssemblies
 90
     1024
 91
        1
280
     0
281
     0
  0
CLASS
  1
ACMTHREADLINESTANDARDDIN
  2
AmdtThreadLineStdDIN
  3
"Amdt_StdImp|Product Description: AutoCAD Mechanical|Company: Autodesk, Inc."
 90
     1024
 91
        0
280
     0
281
     0
  0
CLASS
  1
ACMTHREADLINESTANDARDANSI
  2
AmdtThreadLineStdANSI
  3
"Amdt_StdImp|Product Description: AutoCAD Mechanical|Company: Autodesk, Inc."
 90
     1024
 91
        0
280
     0
281
     0
  0
CLASS
  1
CATALOGSTATE
  2
AcAmCatalogState
  3
DesignerAssemblies
 90
     1024
 91
        1
280
     0
281
     0
  0
CLASS
  1
ACAMGRCOMPDEFSET
  2
AcAmGrCompDefSet
  3
DesignerAssemblies
 90
     1024
 91
        1
280
     0
281
     0
  0
CLASS
  1
AMDTBROWSERDBTAB
  2
AmdtBrowserDbTab
  3
McadcomServices
 90
     1024
 91
        1
280
     0
281
     0
  0
CLASS
  1
CBROWSERAPPOBJECT
  2
CBrowserAppObject
  3
McadcomServices
 90
     1024
 91
        3
280
     0
281
     0
  0
CLASS
  1
DM_PLACEHOLDER
  2
AcDmSelsetPlaceholder
  3
AcMechDwgViewMgmt
 90
     1024
 91
        1
280
     0
281
     0
  0
CLASS
  1
SORTENTSTABLE
  2
AcDbSortentsTable
  3
ObjectDBX Classes
 90
        0
 91
        1
280
     0
281
     0
  0
CLASS
  1
AMDTEDGESTANDARDDIN13715
  2
AmdtEdgeStdDIN13715
  3
"Amdt_StdImp|Product Description: AutoCAD Mechanical|Company: Autodesk, Inc."
 90
     1024
 91
        0
280
     0
281
     0
  0
CLASS
  1
AMDTNOTETEMPLATEDB
  2
AmdtNoteTemplateDB
  3
AcmSymBB|Product Description: AutoCAD Mechanical|Company: Autodesk, Inc.
 90
     1024
 91
        0
280
     0
281
     0
  0
CLASS
  1
MATERIAL
  2
AcDbMaterial
  3
ObjectDBX Classes
 90
     1153
 91
        3
280
     0
281
     0
  0
CLASS
  1
VISUALSTYLE
  2
AcDbVisualStyle
  3
ObjectDBX Classes
 90
     4095
 91
       16
280
     0
281
     0
  0
CLASS
  1
SCALE
  2
AcDbScale
  3
ObjectDBX Classes
 90
     1153
 91
       17
280
     0
281
     0
  0
CLASS
  1
MLEADERSTYLE
  2
AcDbMLeaderStyle
  3
ACDB_MLEADERSTYLE_CLASS
 90
     4095
 91
        1
280
     0
281
     0
  0
CLASS
  1
ACMSURFSTANDARDDIN2002
  2
AcmSurfTextStdDIN2002
  3
"Amdt_StdImp|Product Description: AutoCAD Mechanical|Company: Autodesk, Inc."
 90
     1024
 91
        0
280
     0
281
     0
  0
CLASS
  1
ACMTAPERSTANDARDDIN
  2
AcmTaperStdDIN
  3
"Amdt_StdImp|Product Description: AutoCAD Mechanical|Company: Autodesk, Inc."
 90
     1024
 91
        0
280
     0
281
     0
  0
CLASS
  1
ACMANOOTATIONVIEWSTANDARDDIN
  2
AmdtAnViewStdDIN
  3
"Amdt_StdImp|Product Description: AutoCAD Mechanical|Company: Autodesk, Inc."
 90
     1024
 91
        0
280
     0
281
     0
  0
CLASS
  1
CAMSSTRUCTBTNSTATE
  2
StructBtnState
  3
DesignerAssemblies
 90
     1024
 91
        0
280
     0
281
     0
  0
CLASS
  1
CELLSTYLEMAP
  2
AcDbCellStyleMap
  3
ObjectDBX Classes
 90
     1152
 91
        2
280
     0
281
     0
  0
CLASS
  1
ACRFATTGENMGR
  2
AcRfAttGeneralMgr
  3
AcAttribServices
 90
     1024
 91
        0
280
     0
281
     0
  0
CLASS
  1
ACRFMCADAPIATTHOLDER
  2
AcRfMCADAPIAttHolder
  3
AcAttribServices
 90
     1024
 91
        0
280
     0
281
     0
  0
CLASS
  1
AMDTSYSATTR
  2
AmdtSystemAttribute
  3
AcAttribServices
 90
     1024
 91
        0
280
     0
281
     0
  0
CLASS
  1
ACMTAPERSTANDARDANSI
  2
AcmTaperStdANSI
  3
"Amdt_StdImp|Product Description: AutoCAD Mechanical|Company: Autodesk, Inc."
 90
     1024
 91
        0
280
     0
281
     0
  0
CLASS
  1
ACMANOOTATIONVIEWSTANDARDANSI
  2
AmdtAnViewStdANSI
  3
"Amdt_StdImp|Product Description: AutoCAD Mechanical|Company: Autodesk, Inc."
 90
     1024
 91
        0
280
     0
281
     0
  0
ENDSEC
  0
SECTION
  2
TABLES
  0
TABLE
  2
VPORT
  5
8
102
{ACAD_XDICTIONARY
360
519D
102
}
330
0
100
AcDbSymbolTable
 70
     1
  0
VPORT
  5
3BB6
330
8
100
AcDbSymbolTableRecord
100
AcDbViewportTableRecord
  2
*Active
 70
     0
 10
0.0
 20
0.0
 11
1.0
 21
1.0
 12
168.1383093209071
 22
132.2951106879435
 13
0.0
 23
0.0
 14
2.5
 24
2.5
 15
10.0
 25
10.0
 16
0.0
 26
0.0
 36
1.0
 17
0.0
 27
0.0
 37
0.0
 40
333.3158234299324
 41
1.784158415841583
 42
50.0
 43
0.0
 44
0.0
 50
0.0
 51
0.0
 71
     0
 72
 10000
 73
     1
 74
     3
 75
     0
 76
     0
 77
     0
 78
     0
281
     0
 65
     1
110
0.0
120
0.0
130
0.0
111
1.0
121
0.0
131
0.0
112
0.0
122
1.0
132
0.0
 79
     0
146
0.0
  0
ENDTAB
  0
TABLE
  2
LTYPE
  5
5
330
0
100
AcDbSymbolTable
 70
    22
  0
LTYPE
  5
14
330
5
100
AcDbSymbolTableRecord
100
AcDbLinetypeTableRecord
  2
ByBlock
 70
     0
  3

 72
    65
 73
     0
 40
0.0
  0
LTYPE
  5
15
330
5
100
AcDbSymbolTableRecord
100
AcDbLinetypeTableRecord
  2
ByLayer
 70
     0
  3

 72
    65
 73
     0
 40
0.0
  0
LTYPE
  5
16
330
5
100
AcDbSymbolTableRecord
100
AcDbLinetypeTableRecord
  2
Continuous
 70
     0
  3
Solid line
 72
    65
 73
     0
 40
0.0
  0
LTYPE
  5
50
330
5
100
AcDbSymbolTableRecord
100
AcDbLinetypeTableRecord
  2
Amconstr
 70
     0
  3
_______________________
 72
    65
 73
     2
 40
9999.0
 49
9999.0
 74
     0
 49
0.0
 74
     0
  0
LTYPE
  5
55
330
5
100
AcDbSymbolTableRecord
100
AcDbLinetypeTableRecord
  2
Amzigzag
 70
     0
  3
/\/-/\/-/\/-/\/-/\/-/\/
 72
    65
 73
     2
 40
11.0001
 49
0.0001
 74
     4
 75
   135
340
54
 46
0.04
 50
0.0
 44
0.0
 45
0.0
 49
-11.0
 74
     0
  0
LTYPE
  5
56
330
5
100
AcDbSymbolTableRecord
100
AcDbLinetypeTableRecord
  2
AM_DIN_F_W050
 70
     0
  3
__ __ __ __ __ __ __ __ __ __ __ __ __ __ __
 72
    65
 73
     2
 40
6.25
 49
4.75
 74
     0
 49
-1.5
 74
     0
  0
LTYPE
  5
57
330
5
100
AcDbSymbolTableRecord
100
AcDbLinetypeTableRecord
  2
AM_DIN_G_W050
 70
     0
  3
____ . ____ . ____ . ____ . ____ . ____ . ____
 72
    65
 73
     4
 40
13.75
 49
9.75
 74
     0
 49
-1.5
 74
     0
 49
1.0
 74
     0
 49
-1.5
 74
     0
  0
LTYPE
  5
58
330
5
100
AcDbSymbolTableRecord
100
AcDbLinetypeTableRecord
  2
AM_DIN_K_W050
 70
     0
  3
_____ . . _____ . . _____ . . ____ .. ____
 72
    65
 73
     6
 40
16.25
 49
9.75
 74
     0
 49
-1.5
 74
     0
 49
1.0
 74
     0
 49
-1.5
 74
     0
 49
1.0
 74
     0
 49
-1.5
 74
     0
  0
LTYPE
  5
59
330
5
100
AcDbSymbolTableRecord
100
AcDbLinetypeTableRecord
  2
AM_DIN_G_W050x2
 70
     0
  3
__ . __ . __ . __ . __ . __
 72
    65
 73
     4
 40
6.875
 49
4.75
 74
     0
 49
-0.875
 74
     0
 49
0.375
 74
     0
 49
-0.875
 74
     0
  0
LTYPE
  5
5A
330
5
100
AcDbSymbolTableRecord
100
AcDbLinetypeTableRecord
  2
AM_DIN_F_W050x2
 70
     0
  3
 _ _ _ _ _ _ _ _ _ _ _ _
 72
    65
 73
     2
 40
3.125
 49
2.25
 74
     0
 49
-0.875
 74
     0
  0
LTYPE
  5
68
330
5
100
AcDbSymbolTableRecord
100
AcDbLinetypeTableRecord
  2
ACDINWELD
 70
     0
  3
_ _ _ _ _
 72
    65
 73
     2
 40
2.0
 49
2.0
 74
     0
 49
-1.0
 74
     0
  0
LTYPE
  5
69
330
5
100
AcDbSymbolTableRecord
100
AcDbLinetypeTableRecord
  2
ACDINTGB
 70
     0
  3
__ . . __ . .
 72
    65
 73
     6
 40
9.0
 49
4.0
 74
     0
 49
-1.0
 74
     0
 49
1.0
 74
     0
 49
-1.0
 74
     0
 49
1.0
 74
     0
 49
-1.0
 74
     0
  0
LTYPE
  5
6A
330
5
100
AcDbSymbolTableRecord
100
AcDbLinetypeTableRecord
  2
ACDINTGL
 70
     0
  3
_ _ _ _ _
 72
    65
 73
     2
 40
3.0
 49
2.0
 74
     0
 49
-1.0
 74
     0
  0
LTYPE
  5
6C
330
5
100
AcDbSymbolTableRecord
100
AcDbLinetypeTableRecord
  2
CENTER
 70
     0
  3
__ . __
 72
    65
 73
     4
 40
7.0
 49
4.0
 74
     0
 49
-1.0
 74
     0
 49
1.0
 74
     0
 49
-1.0
 74
     0
  0
LTYPE
  5
1E2C
330
5
100
AcDbSymbolTableRecord
100
AcDbLinetypeTableRecord
  2
PHANTOM2
 70
     0
  3
Phantom (.5x) ___ _ _ ___ _ _ ___ _ _ ___ _ _
 72
    65
 73
     6
 40
1.25
 49
0.625
 74
     0
 49
-0.125
 74
     0
 49
0.125
 74
     0
 49
-0.125
 74
     0
 49
0.125
 74
     0
 49
-0.125
 74
     0
  0
LTYPE
  5
1E2F
330
5
100
AcDbSymbolTableRecord
100
AcDbLinetypeTableRecord
  2
DASHED
 70
     0
  3
__ __ __ __ __ __ __ __ __ __ __ __ __ __ __ __
 72
    65
 73
     2
 40
19.05
 49
12.7
 74
     0
 49
-6.349999999999998
 74
     0
  0
LTYPE
  5
2C6C
330
5
100
AcDbSymbolTableRecord
100
AcDbLinetypeTableRecord
  2
HIDDEN
 70
     0
  3
Verdeckt
 72
    65
 73
     2
 40
9.525
 49
6.349999999999999
 74
     0
 49
-3.174999999999999
 74
     0
  0
LTYPE
  5
4F8B
330
5
100
AcDbSymbolTableRecord
100
AcDbLinetypeTableRecord
  2
ACANSTGB
 70
     0
  3
__ . . __ . .
 72
    65
 73
     6
 40
0.35433070866
 49
0.15748031496
 74
     0
 49
-0.03937007874
 74
     0
 49
0.03937007874
 74
     0
 49
-0.03937007874
 74
     0
 49
0.03937007874
 74
     0
 49
-0.03937007874
 74
     0
  0
LTYPE
  5
4F8C
330
5
100
AcDbSymbolTableRecord
100
AcDbLinetypeTableRecord
  2
ACANSTGL
 70
     0
  3
_ _ _ _ _
 72
    65
 73
     2
 40
0.11811023622
 49
0.07874015748
 74
     0
 49
-0.03937007874
 74
     0
  0
LTYPE
  5
5209
330
5
100
AcDbSymbolTableRecord
100
AcDbLinetypeTableRecord
  2
AM_ISO02W050
 70
     0
  3
__ __ __ __ __ __ __ __ __ __ __ __ __ __ __
 72
    65
 73
     2
 40
7.5
 49
6.0
 74
     0
 49
-1.5
 74
     0
  0
LTYPE
  5
520A
330
5
100
AcDbSymbolTableRecord
100
AcDbLinetypeTableRecord
  2
AM_ISO08W050
 70
     0
  3
____ . ____ . ____ . ____ . ____ . ____ . ____
 72
    65
 73
     4
 40
18.0
 49
12.0
 74
     0
 49
-1.5
 74
     0
 49
3.0
 74
     0
 49
-1.5
 74
     0
  0
LTYPE
  5
520B
330
5
100
AcDbSymbolTableRecord
100
AcDbLinetypeTableRecord
  2
AM_ISO09W050
 70
     0
  3
_____ . . _____ . . _____ . . ____ .. ____
 72
    65
 73
     6
 40
22.5
 49
12.0
 74
     0
 49
-1.5
 74
     0
 49
3.0
 74
     0
 49
-1.5
 74
     0
 49
3.0
 74
     0
 49
-1.5
 74
     0
  0
LTYPE
  5
520C
330
5
100
AcDbSymbolTableRecord
100
AcDbLinetypeTableRecord
  2
AM_ISO08W050x2
 70
     0
  3
__ . __ . __ . __ . __ . __
 72
    65
 73
     4
 40
9.0
 49
6.0
 74
     0
 49
-0.75
 74
     0
 49
1.5
 74
     0
 49
-0.75
 74
     0
  0
LTYPE
  5
520D
330
5
100
AcDbSymbolTableRecord
100
AcDbLinetypeTableRecord
  2
AM_ISO02W050x2
 70
     0
  3
 _ _ _ _ _ _ _ _ _ _ _ _
 72
    65
 73
     2
 40
3.75
 49
3.0
 74
     0
 49
-0.75
 74
     0
  0
ENDTAB
  0
TABLE
  2
LAYER
  5
2
330
0
100
AcDbSymbolTable
 70
    12
  0
LAYER
  5
10
102
{ACAD_XDICTIONARY
360
4005
102
}
330
2
100
AcDbSymbolTableRecord
100
AcDbLayerTableRecord
  2
0
 70
     0
 62
     7
  6
Continuous
370
    -3
390
F
  0
LAYER
  5
263
330
2
100
AcDbSymbolTableRecord
100
AcDbLayerTableRecord
  2
Defpoints
 70
     0
 62
     7
  6
Continuous
290
     0
370
    -3
390
F
  0
LAYER
  5
1E30
102
{ACAD_XDICTIONARY
360
4007
102
}
330
2
100
AcDbSymbolTableRecord
100
AcDbLayerTableRecord
  2
1
 70
     0
 62
     4
  6
Continuous
370
    -3
390
F
  0
LAYER
  5
1E31
102
{ACAD_XDICTIONARY
360
4009
102
}
330
2
100
AcDbSymbolTableRecord
100
AcDbLayerTableRecord
  2
2
 70
     0
 62
     7
  6
Continuous
370
    -3
390
F
  0
LAYER
  5
1E32
102
{ACAD_XDICTIONARY
360
400B
102
}
330
2
100
AcDbSymbolTableRecord
100
AcDbLayerTableRecord
  2
4
 70
     0
 62
     2
  6
CENTER
370
    -3
390
F
  0
LAYER
  5
1E33
102
{ACAD_XDICTIONARY
360
400D
102
}
330
2
100
AcDbSymbolTableRecord
100
AcDbLayerTableRecord
  2
6
 70
     0
 62
     5
  6
Continuous
370
    -3
390
F
  0
LAYER
  5
1E34
102
{ACAD_XDICTIONARY
360
400F
102
}
330
2
100
AcDbSymbolTableRecord
100
AcDbLayerTableRecord
  2
SK1
 70
     0
 62
     4
  6
Continuous
370
    -3
390
F
  0
LAYER
  5
1E35
102
{ACAD_XDICTIONARY
360
4011
102
}
330
2
100
AcDbSymbolTableRecord
100
AcDbLayerTableRecord
  2
SK2
 70
     0
 62
     7
  6
Continuous
370
    -3
390
F
  0
LAYER
  5
1E36
102
{ACAD_XDICTIONARY
360
4013
102
}
330
2
100
AcDbSymbolTableRecord
100
AcDbLayerTableRecord
  2
SK3
 70
     0
 62
     1
  6
DASHED
370
    -3
390
F
  0
LAYER
  5
1E37
102
{ACAD_XDICTIONARY
360
4015
102
}
330
2
100
AcDbSymbolTableRecord
100
AcDbLayerTableRecord
  2
CUT
 70
     0
 62
     1
  6
Continuous
370
    -3
390
F
  0
LAYER
  5
1E38
102
{ACAD_XDICTIONARY
360
4017
102
}
330
2
100
AcDbSymbolTableRecord
100
AcDbLayerTableRecord
  2
NOCUT
 70
     0
 62
     7
  6
Continuous
370
    -3
390
F
  0
LAYER
  5
39B0
102
{ACAD_XDICTIONARY
360
4019
102
}
330
2
100
AcDbSymbolTableRecord
100
AcDbLayerTableRecord
  2
SK4
 70
     0
 62
     2
  6
CENTER
370
    -3
390
F
  0
ENDTAB
  0
TABLE
  2
STYLE
  5
3
330
0
100
AcDbSymbolTable
 70
     5
  0
STYLE
  5
11
330
3
100
AcDbSymbolTableRecord
100
AcDbTextStyleTableRecord
  2
STANDARD
 70
     0
 40
0.0
 41
1.0
 50
0.0
 71
     0
 42
2.5
  3
ISOCP.SHX
  4

  0
STYLE
  5
54
330
3
100
AcDbSymbolTableRecord
100
AcDbTextStyleTableRecord
  2

 70
     1
 40
0.0
 41
1.0
 50
0.0
 71
     0
 42
2.5
  3
ltypeshp.shx
  4

  0
STYLE
  5
67
330
3
100
AcDbSymbolTableRecord
100
AcDbTextStyleTableRecord
  2
ACDINGDT
 70
     0
 40
0.0
 41
1.0
 50
0.0
 71
     0
 42
2.5
  3
amgdt.shx
  4

  0
STYLE
  5
4F8D
330
3
100
AcDbSymbolTableRecord
100
AcDbTextStyleTableRecord
  2
ACANSTS
 70
     0
 40
1.0
 41
1.0
 50
0.0
 71
     0
 42
0.2
  3
romans.shx
  4

  0
STYLE
  5
4F8E
330
3
100
AcDbSymbolTableRecord
100
AcDbTextStyleTableRecord
  2
ACANSGDT
 70
     0
 40
0.0
 41
1.0
 50
0.0
 71
     0
 42
0.2
  3
amgdtans.shx
  4

  0
ENDTAB
  0
TABLE
  2
VIEW
  5
6
330
0
100
AcDbSymbolTable
 70
     0
  0
ENDTAB
  0
TABLE
  2
UCS
  5
7
330
0
100
AcDbSymbolTable
 70
     0
  0
ENDTAB
  0
TABLE
  2
APPID
  5
9
330
0
100
AcDbSymbolTable
 70
    72
  0
APPID
  5
12
330
9
100
AcDbSymbolTableRecord
100
AcDbRegAppTableRecord
  2
ACAD
 70
     0
  0
APPID
  5
2C
330
9
100
AcDbSymbolTableRecord
100
AcDbRegAppTableRecord
  2
MCAD_NO_VIS
 70
     0
  0
APPID
  5
2D
330
9
100
AcDbSymbolTableRecord
100
AcDbRegAppTableRecord
  2
ACAD_TEMP_GRAPHIC
 70
     0
  0
APPID
  5
3E
330
9
100
AcDbSymbolTableRecord
100
AcDbRegAppTableRecord
  2
ACATTRIBSERVICES
 70
     0
  0
APPID
  5
29A
330
9
100
AcDbSymbolTableRecord
100
AcDbRegAppTableRecord
  2
GENIUS_GENDIMSH_14
 70
     0
  0
APPID
  5
588
330
9
100
AcDbSymbolTableRecord
100
AcDbRegAppTableRecord
  2
GENIUS12
 70
     0
  0
APPID
  5
589
330
9
100
AcDbSymbolTableRecord
100
AcDbRegAppTableRecord
  2
GENIUS_GENOENT_13
 70
     0
  0
APPID
  5
58A
330
9
100
AcDbSymbolTableRecord
100
AcDbRegAppTableRecord
  2
GENIUS_GENODEF_13
 70
     0
  0
APPID
  5
58B
330
9
100
AcDbSymbolTableRecord
100
AcDbRegAppTableRecord
  2
GENIUS_GENOBJ-N-RSBK_13
 70
     0
  0
APPID
  5
58C
330
9
100
AcDbSymbolTableRecord
100
AcDbRegAppTableRecord
  2
GENIUS_GENOBJ-N-DIM12_13
 70
     0
  0
APPID
  5
58D
330
9
100
AcDbSymbolTableRecord
100
AcDbRegAppTableRecord
  2
GENIUS_GENSCALE_13
 70
     0
  0
APPID
  5
58E
330
9
100
AcDbSymbolTableRecord
100
AcDbRegAppTableRecord
  2
GENIUS_GENCFG_13
 70
     0
  0
APPID
  5
58F
330
9
100
AcDbSymbolTableRecord
100
AcDbRegAppTableRecord
  2
GENIUS_GENCFG0_13
 70
     0
  0
APPID
  5
590
330
9
100
AcDbSymbolTableRecord
100
AcDbRegAppTableRecord
  2
GENIUS_GENCFG1_13
 70
     0
  0
APPID
  5
591
330
9
100
AcDbSymbolTableRecord
100
AcDbRegAppTableRecord
  2
GENIUS_GENCFG2_13
 70
     0
  0
APPID
  5
592
330
9
100
AcDbSymbolTableRecord
100
AcDbRegAppTableRecord
  2
GENIUS_GENCFG3_13
 70
     0
  0
APPID
  5
593
330
9
100
AcDbSymbolTableRecord
100
AcDbRegAppTableRecord
  2
GENIUS_GENCFG4_13
 70
     0
  0
APPID
  5
594
330
9
100
AcDbSymbolTableRecord
100
AcDbRegAppTableRecord
  2
GENIUS_GEVCFG0_13
 70
     0
  0
APPID
  5
595
330
9
100
AcDbSymbolTableRecord
100
AcDbRegAppTableRecord
  2
GENIUS_GENOBJ-F-SUF_13
 70
     0
  0
APPID
  5
596
330
9
100
AcDbSymbolTableRecord
100
AcDbRegAppTableRecord
  2
GENIUS_GEFCFG0_13
 70
     0
  0
APPID
  5
597
330
9
100
AcDbSymbolTableRecord
100
AcDbRegAppTableRecord
  2
GEV_VCCNULL_SWITCH_OFF
 70
     0
  0
APPID
  5
598
330
9
100
AcDbSymbolTableRecord
100
AcDbRegAppTableRecord
  2
GENIUS_GENDTOL_13
 70
     0
  0
APPID
  5
599
330
9
100
AcDbSymbolTableRecord
100
AcDbRegAppTableRecord
  2
GENIUS_GENDIM_13
 70
     0
  0
APPID
  5
59A
330
9
100
AcDbSymbolTableRecord
100
AcDbRegAppTableRecord
  2
GENIUS_GE3DTOL_13
 70
     0
  0
APPID
  5
59B
330
9
100
AcDbSymbolTableRecord
100
AcDbRegAppTableRecord
  2
AD_DRAW
 70
     0
  0
APPID
  5
59C
330
9
100
AcDbSymbolTableRecord
100
AcDbRegAppTableRecord
  2
ASURF_PCURVE_APPNAME
 70
     0
  0
APPID
  5
59D
330
9
100
AcDbSymbolTableRecord
100
AcDbRegAppTableRecord
  2
AMG_3D2D_5.0
 70
     0
  0
APPID
  5
59E
330
9
100
AcDbSymbolTableRecord
100
AcDbRegAppTableRecord
  2
DESIGNERASSEMBLIES
 70
     0
  0
APPID
  5
59F
330
9
100
AcDbSymbolTableRecord
100
AcDbRegAppTableRecord
  2
ACADM_DIM_EDIT
 70
     0
  0
APPID
  5
5A0
330
9
100
AcDbSymbolTableRecord
100
AcDbRegAppTableRecord
  2
AMDT_DM_ADJ
 70
     0
  0
APPID
  5
5A1
330
9
100
AcDbSymbolTableRecord
100
AcDbRegAppTableRecord
  2
GENIUS_GENSCREG_15
 70
     0
  0
APPID
  5
5A2
330
9
100
AcDbSymbolTableRecord
100
AcDbRegAppTableRecord
  2
GENIUS_GENOBJ-N-SDF_13
 70
     0
  0
APPID
  5
6E4
330
9
100
AcDbSymbolTableRecord
100
AcDbRegAppTableRecord
  2
GENIUS_GENOBJ-N-FIL_13
 70
     0
  0
APPID
  5
C65
330
9
100
AcDbSymbolTableRecord
100
AcDbRegAppTableRecord
  2
GENIUS_GENHINW_13
 70
     0
  0
APPID
  5
C66
330
9
100
AcDbSymbolTableRecord
100
AcDbRegAppTableRecord
  2
GENIUS_GENOBJ-F-TOLL_13
 70
     0
  0
APPID
  5
C67
330
9
100
AcDbSymbolTableRecord
100
AcDbRegAppTableRecord
  2
GENIUS_GENOREF_13
 70
     0
  0
APPID
  5
C68
330
9
100
AcDbSymbolTableRecord
100
AcDbRegAppTableRecord
  2
GENIUS_GENOLIS_13
 70
     0
  0
APPID
  5
C69
330
9
100
AcDbSymbolTableRecord
100
AcDbRegAppTableRecord
  2
GENIUS_GEFTOLC_13
 70
     0
  0
APPID
  5
C6A
330
9
100
AcDbSymbolTableRecord
100
AcDbRegAppTableRecord
  2
GENIUS_GENOBJ-F-TOL_13
 70
     0
  0
APPID
  5
C6B
330
9
100
AcDbSymbolTableRecord
100
AcDbRegAppTableRecord
  2
GENIUS_GENOBJ-N-RSSYM_13
 70
     0
  0
APPID
  5
C6C
330
9
100
AcDbSymbolTableRecord
100
AcDbRegAppTableRecord
  2
GENIUS_GENSYMENT_13
 70
     0
  0
APPID
  5
C6D
330
9
100
AcDbSymbolTableRecord
100
AcDbRegAppTableRecord
  2
GENIUS_GENSCSYM_13
 70
     0
  0
APPID
  5
1E42
330
9
100
AcDbSymbolTableRecord
100
AcDbRegAppTableRecord
  2
GENIUS_GENBLLY_14
 70
     0
  0
APPID
  5
1E43
330
9
100
AcDbSymbolTableRecord
100
AcDbRegAppTableRecord
  2
GENIUS_GENTRA_14
 70
     0
  0
APPID
  5
1E44
330
9
100
AcDbSymbolTableRecord
100
AcDbRegAppTableRecord
  2
GENIUS_GENOBJ-N-TIT_13
 70
     0
  0
APPID
  5
1E45
330
9
100
AcDbSymbolTableRecord
100
AcDbRegAppTableRecord
  2
GENIUS_GENTITLE_13
 70
     0
  0
APPID
  5
1E46
330
9
100
AcDbSymbolTableRecord
100
AcDbRegAppTableRecord
  2
ACADIGES
 70
     0
  0
APPID
  5
1E47
330
9
100
AcDbSymbolTableRecord
100
AcDbRegAppTableRecord
  2
GENIUS_GENOBJ-N-HTC_13
 70
     0
  0
APPID
  5
1E48
330
9
100
AcDbSymbolTableRecord
100
AcDbRegAppTableRecord
  2
GENIUS_GENHATCH_13
 70
     0
  0
APPID
  5
1E49
330
9
100
AcDbSymbolTableRecord
100
AcDbRegAppTableRecord
  2
GENIUS_GENOBJ-N-CRS_13
 70
     0
  0
APPID
  5
1E4A
330
9
100
AcDbSymbolTableRecord
100
AcDbRegAppTableRecord
  2
GENIUS_GENFIL_13
 70
     0
  0
APPID
  5
1E4B
330
9
100
AcDbSymbolTableRecord
100
AcDbRegAppTableRecord
  2
GENIUS_GENOBJ-N-CHA_13
 70
     0
  0
APPID
  5
1E4C
330
9
100
AcDbSymbolTableRecord
100
AcDbRegAppTableRecord
  2
GENIUS_GENOBJ-N-CEN_13
 70
     0
  0
APPID
  5
2C8D
330
9
100
AcDbSymbolTableRecord
100
AcDbRegAppTableRecord
  2
ACAD_DSTYLE_DIMARC_LENGTH_SYMBOL
 70
     0
  0
APPID
  5
2C8E
330
9
100
AcDbSymbolTableRecord
100
AcDbRegAppTableRecord
  2
ACAD_DSTYLE_DIMJOGGED_JOGANGLE_SYMBOL
 70
     0
  0
APPID
  5
2CC5
330
9
100
AcDbSymbolTableRecord
100
AcDbRegAppTableRecord
  2
AcAecLayerStandard
 70
     0
  0
APPID
  5
3272
330
9
100
AcDbSymbolTableRecord
100
AcDbRegAppTableRecord
  2
ACAD_PSEXT
 70
     0
  0
APPID
  5
3273
330
9
100
AcDbSymbolTableRecord
100
AcDbRegAppTableRecord
  2
GENIUS_GENREC_14
 70
     0
  0
APPID
  5
3274
330
9
100
AcDbSymbolTableRecord
100
AcDbRegAppTableRecord
  2
GENIUS_GENOBJ-N-REC_13
 70
     0
  0
APPID
  5
3275
330
9
100
AcDbSymbolTableRecord
100
AcDbRegAppTableRecord
  2
ACAD_DSTYLE_DIMTEXT_FILL
 70
     0
  0
APPID
  5
3276
330
9
100
AcDbSymbolTableRecord
100
AcDbRegAppTableRecord
  2
ACAD_DSTYLE_DIMEXT_LENGTH
 70
     0
  0
APPID
  5
3277
330
9
100
AcDbSymbolTableRecord
100
AcDbRegAppTableRecord
  2
ACAD_DSTYLE_DIMEXT_ENABLED
 70
     0
  0
APPID
  5
3278
330
9
100
AcDbSymbolTableRecord
100
AcDbRegAppTableRecord
  2
ACAD_DSTYLE_DIM_LINETYPE
 70
     0
  0
APPID
  5
3279
330
9
100
AcDbSymbolTableRecord
100
AcDbRegAppTableRecord
  2
ACAD_DSTYLE_DIM_EXT1_LINETYPE
 70
     0
  0
APPID
  5
327A
330
9
100
AcDbSymbolTableRecord
100
AcDbRegAppTableRecord
  2
ACAD_DSTYLE_DIM_EXT2_LINETYPE
 70
     0
  0
APPID
  5
39B1
330
9
100
AcDbSymbolTableRecord
100
AcDbRegAppTableRecord
  2
ACAD_DSTYLE_DIMARC_LENGTH_
 70
     0
  0
APPID
  5
39B2
330
9
100
AcDbSymbolTableRecord
100
AcDbRegAppTableRecord
  2
ACAD_DSTYLE_DIMJOGGED_JOGA
 70
     0
  0
APPID
  5
39B3
330
9
100
AcDbSymbolTableRecord
100
AcDbRegAppTableRecord
  2
AMG_3D2D_5_0
 70
     0
  0
APPID
  5
3BFD
330
9
100
AcDbSymbolTableRecord
100
AcDbRegAppTableRecord
  2
ACAD_MLEADERVER
 70
     0
  0
APPID
  5
41B2
330
9
100
AcDbSymbolTableRecord
100
AcDbRegAppTableRecord
  2
ACAD_EXEMPT_FROM_CAD_STANDARDS
 70
     0
  0
APPID
  5
429A
330
9
100
AcDbSymbolTableRecord
100
AcDbRegAppTableRecord
  2
ACAD_DSTYLE_DIMINSPECT
 70
     0
  0
APPID
  5
4A30
330
9
100
AcDbSymbolTableRecord
100
AcDbRegAppTableRecord
  2
ACAD_DSTYLE_DIMANGULAR_EXTENSION
 70
     0
  0
ENDTAB
  0
TABLE
  2
DIMSTYLE
  5
A
330
0
100
AcDbSymbolTable
 70
    16
100
AcDbDimStyleTable
 71
     1
340
6F
  0
DIMSTYLE
105
6F
330
A
100
AcDbSymbolTableRecord
100
AcDbDimStyleTableRecord
  2
AM_DIN
 70
     0
  4
"
 41
2.5
 42
0.0
 43
10.0
 44
1.0
 47
0.1
 48
0.1
 73
     0
 74
     0
 77
     1
 78
     8
 79
     2
140
3.5
141
0.0
143
0.0393701
146
0.71
147
1.5
172
     1
176
   256
177
   256
178
     2
271
     2
272
     2
283
     0
284
     8
340
11
371
    -1
372
    -1
1001
ACAD_DSTYLE_DIMJOGGED_JOGANGLE_SYMBOL
1070
   384
1040
1.570796326794896
  0
DIMSTYLE
105
70
330
A
100
AcDbSymbolTableRecord
100
AcDbDimStyleTableRecord
  2
AM_DIN$3
 70
     0
  4
"
 41
3.5
 42
0.0
 43
10.0
 44
1.0
 47
0.1
 48
0.1
 73
     0
 77
     1
 78
     8
 79
     2
140
3.5
141
0.0
143
0.0393701
146
0.71
147
1.5
176
   256
177
   256
178
     2
271
     2
272
     2
283
     0
284
     8
288
     1
289
     0
340
11
371
    -1
372
    -1
1001
ACAD_DSTYLE_DIMJOGGED_JOGANGLE_SYMBOL
1070
   384
1040
1.570796326794896
  0
DIMSTYLE
105
71
330
A
100
AcDbSymbolTableRecord
100
AcDbDimStyleTableRecord
  2
AM_DIN$4
 70
     0
  4
"
 41
3.5
 42
0.0
 43
10.0
 44
1.0
 47
0.1
 48
0.1
 73
     0
 77
     1
 78
     8
 79
     2
140
3.5
141
0.0
143
0.0393701
146
0.71
147
1.5
176
   256
177
   256
178
     2
271
     2
272
     2
283
     0
284
     8
288
     1
289
     0
340
11
371
    -1
372
    -1
1001
ACAD_DSTYLE_DIMJOGGED_JOGANGLE_SYMBOL
1070
   384
1040
1.570796326794896
  0
DIMSTYLE
105
72
330
A
100
AcDbSymbolTableRecord
100
AcDbDimStyleTableRecord
  2
AM_DIN$6
 70
     0
  4
"
 41
3.5
 42
0.0
 43
0.0
 44
1.0
 47
0.1
 48
0.1
 73
     0
 74
     0
 78
     8
 79
     2
140
3.5
141
0.0
143
0.0393701
146
0.71
147
1.5
172
     1
176
   256
177
   256
178
     2
271
     2
272
     2
283
     0
284
     8
340
11
371
    -1
372
    -1
1001
ACAD_DSTYLE_DIMJOGGED_JOGANGLE_SYMBOL
1070
   384
1040
1.570796326794896
  0
DIMSTYLE
105
73
330
A
100
AcDbSymbolTableRecord
100
AcDbDimStyleTableRecord
  2
AM_DIN$7
 70
     0
  4
"
 41
3.5
 42
0.0
 43
10.0
 44
1.0
 47
0.1
 48
0.1
 73
     0
 74
     0
 77
     1
 78
     8
 79
     2
140
3.5
141
0.0
143
0.0393701
146
0.71
147
1.5
172
     1
176
   256
177
   256
178
     2
271
     2
272
     2
283
     0
284
     8
340
11
371
    -1
372
    -1
1001
ACAD_DSTYLE_DIMJOGGED_JOGANGLE_SYMBOL
1070
   384
1040
1.570796326794896
  0
DIMSTYLE
105
74
330
A
100
AcDbSymbolTableRecord
100
AcDbDimStyleTableRecord
  2
AM_DIN$SF
 70
     0
  4
"
 41
2.5
 42
1.0
 43
10.0
 44
1.0
 47
0.1
 48
0.1
 73
     0
 74
     0
 75
     1
 76
     1
 77
     1
 78
     8
 79
     2
140
3.5
141
0.0
143
0.0393701
146
0.71
147
1.5
172
     1
176
   256
177
   256
178
     2
271
     2
272
     3
274
     4
283
     0
284
     8
340
11
371
    -1
372
    -1
1001
ACAD_DSTYLE_DIMJOGGED_JOGANGLE_SYMBOL
1070
   384
1040
1.570796326794896
  0
DIMSTYLE
105
79
330
A
100
AcDbSymbolTableRecord
100
AcDbDimStyleTableRecord
  2
AM_DIN$SH
 70
     0
  4
"
 41
2.5
 42
1.0
 43
10.0
 44
1.0
 47
0.1
 48
0.1
 73
     0
 74
     0
 75
     1
 76
     1
 77
     1
 78
     8
 79
     2
140
3.5
141
0.0
143
0.0393701
144
2.0
146
0.71
147
1.5
172
     1
173
     1
176
   256
177
   256
178
     2
271
     2
272
     3
274
     4
283
     0
284
     8
340
11
343
75
371
    -1
372
    -1
1001
ACAD_DSTYLE_DIMJOGGED_JOGANGLE_SYMBOL
1070
   384
1040
1.570796326794896
  0
DIMSTYLE
105
1E3B
330
A
100
AcDbSymbolTableRecord
100
AcDbDimStyleTableRecord
  2
STANDARD
 70
     0
271
     2
272
     2
279
     2
284
     8
285
     8
286
     8
340
11
  0
DIMSTYLE
105
2CD1
102
{ACAD_REACTORS
330
4C89
330
4CD6
330
4CD8
330
4CD9
330
4DCD
330
4E28
330
515C
102
}
330
A
100
AcDbSymbolTableRecord
100
AcDbDimStyleTableRecord
  2
AM_DIN$0
 70
     0
  4
"
 41
2.5
 42
0.0
 43
10.0
 44
1.0
 47
0.1
 48
0.1
 73
     0
 74
     0
 77
     1
 78
     8
 79
     2
140
3.5
141
0.0
143
0.0393701
146
0.71
147
1.5
172
     1
176
   256
177
   256
178
     2
271
     2
272
     2
283
     0
284
     8
340
11
371
    -1
372
    -1
1001
ACAD_DSTYLE_DIMJOGGED_JOGANGLE_SYMBOL
1070
   384
1040
1.570796326794896
  0
DIMSTYLE
105
4A01
102
{ACAD_REACTORS
330
4E7F
102
}
330
A
100
AcDbSymbolTableRecord
100
AcDbDimStyleTableRecord
  2
AM_DIN$2
 70
     0
  4
"
 41
2.5
 42
0.0
 43
10.0
 44
1.0
 47
0.1
 48
0.1
 73
     0
 74
     0
 77
     1
 78
     8
 79
     2
140
3.5
141
0.0
143
0.0393701
146
0.71
147
1.5
172
     1
176
   256
177
   256
178
     2
271
     2
272
     2
283
     0
284
     8
340
11
371
    -1
372
    -1
1001
ACAD_DSTYLE_DIMJOGGED_JOGANGLE_SYMBOL
1070
   384
1040
1.570796326794896
  0
DIMSTYLE
105
4F90
330
A
100
AcDbSymbolTableRecord
100
AcDbDimStyleTableRecord
  2
AM_ANSI
 70
     0
  4
mm
 41
0.1
 42
0.05
 43
0.5
 44
0.1
 47
0.1
 48
0.1
 78
     7
140
0.12
141
0.0
146
0.71
147
0.06
176
   256
177
   256
178
     2
271
     2
272
     2
279
     2
284
     8
285
     8
286
     8
340
11
1001
ACAD_DSTYLE_DIMJOGGED_JOGANGLE_SYMBOL
1070
   384
1040
0.7853981633974483
1001
ACAD_DSTYLE_DIMARC_LENGTH_SYMBOL
1070
   379
1070
     1
  0
DIMSTYLE
105
4F91
330
A
100
AcDbSymbolTableRecord
100
AcDbDimStyleTableRecord
  2
AM_ANSI$3
 70
     0
  4
mm
 41
0.1
 42
0.05
 43
0.5
 44
0.1
 47
0.1
 48
0.1
 78
     7
140
0.12
141
0.0
146
0.71
147
0.06
176
   256
177
   256
178
     2
271
     2
272
     2
279
     2
284
     8
285
     8
286
     8
340
11
1001
ACAD_DSTYLE_DIMJOGGED_JOGANGLE_SYMBOL
1070
   384
1040
0.7853981633974483
1001
ACAD_DSTYLE_DIMARC_LENGTH_SYMBOL
1070
   379
1070
     1
  0
DIMSTYLE
105
4F92
330
A
100
AcDbSymbolTableRecord
100
AcDbDimStyleTableRecord
  2
AM_ANSI$4
 70
     0
  4
mm
 41
0.1
 42
0.05
 43
0.5
 44
0.1
 47
0.1
 48
0.1
 78
     7
140
0.12
141
0.0
146
0.71
147
0.06
176
   256
177
   256
178
     2
271
     2
272
     2
279
     2
284
     8
285
     8
286
     8
340
11
1001
ACAD_DSTYLE_DIMJOGGED_JOGANGLE_SYMBOL
1070
   384
1040
0.7853981633974483
1001
ACAD_DSTYLE_DIMARC_LENGTH_SYMBOL
1070
   379
1070
     1
  0
DIMSTYLE
105
4F93
330
A
100
AcDbSymbolTableRecord
100
AcDbDimStyleTableRecord
  2
AM_ANSI$7
 70
     0
  4
mm
 41
0.1
 42
0.05
 43
0.5
 44
0.1
 47
0.1
 48
0.1
 78
     7
140
0.24
141
0.0
146
0.71
147
0.06
176
   256
177
   256
178
     2
271
     2
272
     2
279
     2
284
     8
285
     8
286
     8
340
11
1001
ACAD_DSTYLE_DIMJOGGED_JOGANGLE_SYMBOL
1070
   384
1040
0.7853981633974483
1001
ACAD_DSTYLE_DIMARC_LENGTH_SYMBOL
1070
   379
1070
     1
  0
DIMSTYLE
105
4F94
330
A
100
AcDbSymbolTableRecord
100
AcDbDimStyleTableRecord
  2
AM_ANSI$SF
 70
     0
  4
mm
 41
0.1
 42
0.05
 43
0.5
 44
0.1
 47
0.1
 48
0.1
 75
     1
 76
     1
 78
     7
140
0.12
141
0.0
146
0.71
147
0.06
176
   256
177
   256
178
     2
271
     2
272
     2
279
     2
284
     8
285
     8
286
     8
340
11
1001
ACAD_DSTYLE_DIMJOGGED_JOGANGLE_SYMBOL
1070
   384
1040
0.7853981633974483
1001
ACAD_DSTYLE_DIMARC_LENGTH_SYMBOL
1070
   379
1070
     1
  0
DIMSTYLE
105
4F95
330
A
100
AcDbSymbolTableRecord
100
AcDbDimStyleTableRecord
  2
AM_ANSI$SH
 70
     0
  4
mm
 41
0.1
 42
0.05
 43
0.5
 44
0.1
 47
0.1
 48
0.1
 75
     1
 76
     1
 78
     7
140
0.12
141
0.0
146
0.71
147
0.06
173
     1
176
   256
177
   256
178
     2
271
     2
272
     2
279
     2
284
     8
285
     8
286
     8
340
11
1001
ACAD_DSTYLE_DIMJOGGED_JOGANGLE_SYMBOL
1070
   384
1040
0.7853981633974483
1001
ACAD_DSTYLE_DIMARC_LENGTH_SYMBOL
1070
   379
1070
     1
  0
ENDTAB
  0
TABLE
  2
BLOCK_RECORD
  5
1
330
0
100
AcDbSymbolTable
 70
    11
  0
BLOCK_RECORD
  5
1F
102
{ACAD_XDICTIONARY
360
1F1
102
}
330
1
100
AcDbSymbolTableRecord
100
AcDbBlockTableRecord
  2
*Model_Space
340
22
  0
BLOCK_RECORD
  5
1B
330
1
100
AcDbSymbolTableRecord
100
AcDbBlockTableRecord
  2
*Paper_Space
340
1E
  0
BLOCK_RECORD
  5
23
330
1
100
AcDbSymbolTableRecord
100
AcDbBlockTableRecord
  2
*Paper_Space0
340
26
  0
BLOCK_RECORD
  5
75
330
1
100
AcDbSymbolTableRecord
100
AcDbBlockTableRecord
  2
GENAXEH
340
0
  0
BLOCK_RECORD
  5
4CDB
330
1
100
AcDbSymbolTableRecord
100
AcDbBlockTableRecord
  2
*D2
340
0
  0
BLOCK_RECORD
  5
4CE7
330
1
100
AcDbSymbolTableRecord
100
AcDbBlockTableRecord
  2
*D3
340
0
  0
BLOCK_RECORD
  5
4CFF
330
1
100
AcDbSymbolTableRecord
100
AcDbBlockTableRecord
  2
*D4
340
0
  0
BLOCK_RECORD
  5
4D0B
330
1
100
AcDbSymbolTableRecord
100
AcDbBlockTableRecord
  2
*D5
340
0
  0
BLOCK_RECORD
  5
4DCE
330
1
100
AcDbSymbolTableRecord
100
AcDbBlockTableRecord
  2
*D6
340
0
  0
BLOCK_RECORD
  5
4E29
330
1
100
AcDbSymbolTableRecord
100
AcDbBlockTableRecord
  2
*D7
340
0
  0
BLOCK_RECORD
  5
4E80
330
1
100
AcDbSymbolTableRecord
100
AcDbBlockTableRecord
  2
*D8
340
0
  0
BLOCK_RECORD
  5
515D
330
1
100
AcDbSymbolTableRecord
100
AcDbBlockTableRecord
  2
*D9
340
0
  0
ENDTAB
  0
ENDSEC
  0
SECTION
  2
BLOCKS
  0
BLOCK
  5
20
330
1F
100
AcDbEntity
  8
0
100
AcDbBlockBegin
  2
*Model_Space
 70
     0
 10
0.0
 20
0.0
 30
0.0
  3
*Model_Space
  1

  0
ENDBLK
  5
21
330
1F
100
AcDbEntity
  8
0
100
AcDbBlockEnd
  0
BLOCK
  5
1C
330
1B
100
AcDbEntity
 67
     1
  8
0
100
AcDbBlockBegin
  2
*Paper_Space
 70
     0
 10
0.0
 20
0.0
 30
0.0
  3
*Paper_Space
  1

  0
ENDBLK
  5
1D
330
1B
100
AcDbEntity
 67
     1
  8
0
100
AcDbBlockEnd
  0
BLOCK
  5
24
330
23
100
AcDbEntity
 67
     1
  8
0
100
AcDbBlockBegin
  2
*Paper_Space0
 70
     0
 10
0.0
 20
0.0
 30
0.0
  3
*Paper_Space0
  1

  0
ENDBLK
  5
25
330
23
100
AcDbEntity
 67
     1
  8
0
100
AcDbBlockEnd
  0
BLOCK
  5
77
330
75
100
AcDbEntity
  8
0
100
AcDbBlockBegin
  2
GENAXEH
 70
     0
 10
0.0
 20
0.0
 30
0.0
  3
GENAXEH
  1

  0
LINE
  5
76
330
75
100
AcDbEntity
  8
0
100
AcDbLine
 10
-1.0
 20
0.0
 30
0.0
 11
1.0
 21
0.0
 31
0.0
  0
ENDBLK
  5
78
330
75
100
AcDbEntity
  8
0
100
AcDbBlockEnd
  0
BLOCK
  5
4CDC
330
4CDB
100
AcDbEntity
  8
0
 48
0.3
100
AcDbBlockBegin
  2
*D2
 70
     1
 10
0.0
 20
0.0
 30
0.0
  3
*D2
  1

  0
LINE
  5
512D
330
4CDB
100
AcDbEntity
  8
SK2
100
AcDbLine
 10
-55.0
 20
12.50000000000001
 30
0.0
 11
-79.86845500876722
 21
12.50000000000002
 31
0.0
  0
LINE
  5
512E
330
4CDB
100
AcDbEntity
  8
SK2
100
AcDbLine
 10
-55.0
 20
-12.5
 30
0.0
 11
-79.86845500876722
 21
-12.49999999999999
 31
0.0
  0
LINE
  5
512F
330
4CDB
100
AcDbEntity
  8
SK2
100
AcDbLine
 10
-78.86845500876723
 20
10.00000000000002
 30
0.0
 11
-78.86845500876723
 21
-9.999999999999992
 31
0.0
  0
SOLID
  5
5130
330
4CDB
100
AcDbEntity
  8
SK2
100
AcDbTrace
 10
-79.2851216754339
 20
10.00000000000002
 30
0.0
 11
-78.45178834210056
 21
10.00000000000002
 31
0.0
 12
-78.86845500876723
 22
12.50000000000002
 32
0.0
 13
-78.86845500876723
 23
12.50000000000002
 33
0.0
  0
SOLID
  5
5131
330
4CDB
100
AcDbEntity
  8
SK2
100
AcDbTrace
 10
-79.2851216754339
 20
-9.999999999999992
 30
0.0
 11
-78.45178834210056
 21
-9.999999999999992
 31
0.0
 12
-78.86845500876723
 22
-12.49999999999999
 32
0.0
 13
-78.86845500876723
 23
-12.49999999999999
 33
0.0
  0
MTEXT
  5
5132
330
4CDB
100
AcDbEntity
  8
SK2
 62
     2
100
AcDbMText
 10
-82.11879949695619
 20
0.0000000000000017
 30
0.0
 40
3.5
 41
0.0
 71
     5
 72
     1
  1
%%c25
 11
0.0000000000000001
 21
1.0
 31
0.0
 73
     1
 44
1.0
  0
POINT
  5
5133
330
4CDB
100
AcDbEntity
  8
Defpoints
 62
     0
100
AcDbPoint
 10
-55.0
 20
12.50000000000001
 30
0.0
  0
POINT
  5
5134
330
4CDB
100
AcDbEntity
  8
Defpoints
 62
     0
100
AcDbPoint
 10
-55.0
 20
-12.5
 30
0.0
  0
POINT
  5
5135
330
4CDB
100
AcDbEntity
  8
Defpoints
 62
     0
100
AcDbPoint
 10
-78.86845500876723
 20
-12.49999999999999
 30
0.0
  0
ENDBLK
  5
4CDD
330
4CDB
100
AcDbEntity
  8
0
 48
0.3
100
AcDbBlockEnd
  0
BLOCK
  5
4CE8
330
4CE7
100
AcDbEntity
  8
0
 48
0.3
100
AcDbBlockBegin
  2
*D3
 70
     1
 10
0.0
 20
0.0
 30
0.0
  3
*D3
  1

  0
LINE
  5
4EDB
330
4CE7
100
AcDbEntity
  8
2
100
AcDbLine
 10
44.0
 20
10.0
 30
0.0
 11
62.94526689324448
 21
9.999999999999994
 31
0.0
  0
LINE
  5
4EDC
330
4CE7
100
AcDbEntity
  8
2
100
AcDbLine
 10
44.0
 20
-10.0
 30
0.0
 11
62.94526689324448
 21
-10.0
 31
0.0
  0
LINE
  5
4EDD
330
4CE7
100
AcDbEntity
  8
2
100
AcDbLine
 10
61.94526689324447
 20
7.499999999999995
 30
0.0
 11
61.94526689324447
 21
-7.500000000000004
 31
0.0
  0
SOLID
  5
4EDE
330
4CE7
100
AcDbEntity
  8
2
100
AcDbTrace
 10
61.52860022657781
 20
7.499999999999995
 30
0.0
 11
62.36193355991114
 21
7.499999999999994
 31
0.0
 12
61.94526689324447
 22
9.999999999999994
 32
0.0
 13
61.94526689324447
 23
9.999999999999994
 33
0.0
  0
SOLID
  5
4EDF
330
4CE7
100
AcDbEntity
  8
2
100
AcDbTrace
 10
61.52860022657781
 20
-7.500000000000004
 30
0.0
 11
62.36193355991114
 21
-7.500000000000005
 31
0.0
 12
61.94526689324447
 22
-10.0
 32
0.0
 13
61.94526689324447
 23
-10.0
 33
0.0
  0
MTEXT
  5
4EE0
330
4CE7
100
AcDbEntity
  8
2
 62
     2
100
AcDbMText
 10
58.6949224050555
 20
0.336865261695721
 30
0.0
 40
3.5
 41
0.0
 71
     5
 72
     1
  1
%%c20
 11
0.0000000000000001
 21
1.0
 31
0.0
 73
     1
 44
1.0
  0
POINT
  5
4EE1
330
4CE7
100
AcDbEntity
  8
Defpoints
 62
     0
100
AcDbPoint
 10
44.0
 20
10.0
 30
0.0
  0
POINT
  5
4EE2
330
4CE7
100
AcDbEntity
  8
Defpoints
 62
     0
100
AcDbPoint
 10
44.0
 20
-10.0
 30
0.0
  0
POINT
  5
4EE3
330
4CE7
100
AcDbEntity
  8
Defpoints
 62
     0
100
AcDbPoint
 10
61.94526689324447
 20
-10.0
 30
0.0
  0
ENDBLK
  5
4CE9
330
4CE7
100
AcDbEntity
  8
0
 48
0.3
100
AcDbBlockEnd
  0
BLOCK
  5
4D00
330
4CFF
100
AcDbEntity
  8
0
 48
0.3
100
AcDbBlockBegin
  2
*D4
 70
     1
 10
0.0
 20
0.0
 30
0.0
  3
*D4
  1

  0
LINE
  5
4EE4
330
4CFF
100
AcDbEntity
  8
SK2
100
AcDbLine
 10
44.0
 20
10.0
 30
0.0
 11
44.00000000000001
 21
91.0
 31
0.0
  0
LINE
  5
4EE5
330
4CFF
100
AcDbEntity
  8
SK2
100
AcDbLine
 10
-56.0
 20
11.50000000000001
 30
0.0
 11
-55.99999999999999
 21
91.0
 31
0.0
  0
LINE
  5
4EE6
330
4CFF
100
AcDbEntity
  8
SK2
100
AcDbLine
 10
41.50000000000001
 20
90.0
 30
0.0
 11
-53.49999999999999
 21
90.0
 31
0.0
  0
SOLID
  5
4EE7
330
4CFF
100
AcDbEntity
  8
SK2
100
AcDbTrace
 10
41.50000000000001
 20
90.41666666666667
 30
0.0
 11
41.50000000000001
 21
89.58333333333333
 31
0.0
 12
44.00000000000001
 22
90.0
 32
0.0
 13
44.00000000000001
 23
90.0
 33
0.0
  0
SOLID
  5
4EE8
330
4CFF
100
AcDbEntity
  8
SK2
100
AcDbTrace
 10
-53.49999999999999
 20
90.41666666666667
 30
0.0
 11
-53.49999999999999
 21
89.58333333333333
 31
0.0
 12
-55.99999999999999
 22
90.0
 32
0.0
 13
-55.99999999999999
 23
90.0
 33
0.0
  0
MTEXT
  5
4EE9
330
4CFF
100
AcDbEntity
  8
SK2
 62
     2
100
AcDbMText
 10
-5.920134795021681
 20
93.25000000000001
 30
0.0
 40
3.5
 41
0.0
 71
     5
 72
     1
  1
100
 73
     1
 44
1.0
  0
POINT
  5
4EEA
330
4CFF
100
AcDbEntity
  8
Defpoints
 62
     0
100
AcDbPoint
 10
44.0
 20
10.0
 30
0.0
  0
POINT
  5
4EEB
330
4CFF
100
AcDbEntity
  8
Defpoints
 62
     0
100
AcDbPoint
 10
-56.0
 20
11.50000000000001
 30
0.0
  0
POINT
  5
4EEC
330
4CFF
100
AcDbEntity
  8
Defpoints
 62
     0
100
AcDbPoint
 10
-55.99999999999999
 20
90.0
 30
0.0
  0
ENDBLK
  5
4D01
330
4CFF
100
AcDbEntity
  8
0
 48
0.3
100
AcDbBlockEnd
  0
BLOCK
  5
4D0C
330
4D0B
100
AcDbEntity
  8
0
 48
0.3
100
AcDbBlockBegin
  2
*D5
 70
     1
 10
0.0
 20
0.0
 30
0.0
  3
*D5
  1

  0
LINE
  5
4EED
330
4D0B
100
AcDbEntity
  8
2
100
AcDbLine
 10
44.0
 20
10.0
 30
0.0
 11
44.00000000000001
 21
76.0
 31
0.0
  0
LINE
  5
4EEE
330
4D0B
100
AcDbEntity
  8
2
100
AcDbLine
 10
0.0
 20
12.5
 30
0.0
 11
0.0000000000000039
 21
76.0
 31
0.0
  0
LINE
  5
4EEF
330
4D0B
100
AcDbEntity
  8
2
100
AcDbLine
 10
41.50000000000001
 20
75.0
 30
0.0
 11
2.500000000000003
 21
75.0
 31
0.0
  0
SOLID
  5
4EF0
330
4D0B
100
AcDbEntity
  8
2
100
AcDbTrace
 10
41.50000000000001
 20
75.41666666666667
 30
0.0
 11
41.50000000000001
 21
74.58333333333333
 31
0.0
 12
44.00000000000001
 22
75.0
 32
0.0
 13
44.00000000000001
 23
75.0
 33
0.0
  0
SOLID
  5
4EF1
330
4D0B
100
AcDbEntity
  8
2
100
AcDbTrace
 10
2.500000000000003
 20
75.41666666666667
 30
0.0
 11
2.500000000000003
 21
74.58333333333333
 31
0.0
 12
0.0000000000000038
 22
75.0
 32
0.0
 13
0.0000000000000038
 23
75.0
 33
0.0
  0
MTEXT
  5
4EF2
330
4D0B
100
AcDbEntity
  8
2
 62
     2
100
AcDbMText
 10
22.00000000000001
 20
78.25
 30
0.0
 40
3.5
 41
0.0
 71
     5
 72
     1
  1
44
 73
     1
 44
1.0
  0
POINT
  5
4EF3
330
4D0B
100
AcDbEntity
  8
Defpoints
 62
     0
100
AcDbPoint
 10
44.0
 20
10.0
 30
0.0
  0
POINT
  5
4EF4
330
4D0B
100
AcDbEntity
  8
Defpoints
 62
     0
100
AcDbPoint
 10
0.0
 20
12.5
 30
0.0
  0
POINT
  5
4EF5
330
4D0B
100
AcDbEntity
  8
Defpoints
 62
     0
100
AcDbPoint
 10
0.0000000000000038
 20
75.0
 30
0.0
  0
ENDBLK
  5
4D0D
330
4D0B
100
AcDbEntity
  8
0
 48
0.3
100
AcDbBlockEnd
  0
BLOCK
  5
4DCF
330
4DCE
100
AcDbEntity
  8
0
 48
0.3
100
AcDbBlockBegin
  2
*D6
 70
     1
 10
0.0
 20
0.0
 30
0.0
  3
*D6
  1

  0
LINE
  5
4EF6
330
4DCE
100
AcDbEntity
  8
2
100
AcDbLine
 10
35.51568542494931
 20
18.45
 30
0.0
 11
76.57788369155969
 21
18.44999999999999
 31
0.0
  0
LINE
  5
4EF7
330
4DCE
100
AcDbEntity
  8
2
100
AcDbLine
 10
35.51568542494948
 20
-18.44999999999999
 30
0.0
 11
76.57788369155969
 21
-18.45
 31
0.0
  0
LINE
  5
4EF8
330
4DCE
100
AcDbEntity
  8
2
100
AcDbLine
 10
75.57788369155969
 20
15.94999999999999
 30
0.0
 11
75.57788369155969
 21
-15.95
 31
0.0
  0
SOLID
  5
4EF9
330
4DCE
100
AcDbEntity
  8
2
100
AcDbTrace
 10
75.16121702489302
 20
15.94999999999999
 30
0.0
 11
75.99455035822636
 21
15.94999999999999
 31
0.0
 12
75.57788369155969
 22
18.44999999999999
 32
0.0
 13
75.57788369155969
 23
18.44999999999999
 33
0.0
  0
SOLID
  5
4EFA
330
4DCE
100
AcDbEntity
  8
2
100
AcDbTrace
 10
75.16121702489302
 20
-15.95
 30
0.0
 11
75.99455035822636
 21
-15.95
 31
0.0
 12
75.57788369155969
 22
-18.45
 32
0.0
 13
75.57788369155969
 23
-18.45
 33
0.0
  0
MTEXT
  5
4EFB
330
4DCE
100
AcDbEntity
  8
2
 62
     2
100
AcDbMText
 10
72.32788369155969
 20
0.4156846447211823
 30
0.0
 40
3.5
 41
0.0
 71
     5
 72
     1
  1
%%c36.9
 11
0.0000000000000001
 21
1.0
 31
0.0
 73
     1
 44
1.0
  0
POINT
  5
4EFC
330
4DCE
100
AcDbEntity
  8
Defpoints
 62
     0
100
AcDbPoint
 10
35.51568542494931
 20
18.45
 30
0.0
  0
POINT
  5
4EFD
330
4DCE
100
AcDbEntity
  8
Defpoints
 62
     0
100
AcDbPoint
 10
35.51568542494948
 20
-18.44999999999999
 30
0.0
  0
POINT
  5
4EFE
330
4DCE
100
AcDbEntity
  8
Defpoints
 62
     0
100
AcDbPoint
 10
75.57788369155969
 20
-18.45
 30
0.0
  0
ENDBLK
  5
4DD0
330
4DCE
100
AcDbEntity
  8
0
 48
0.3
100
AcDbBlockEnd
  0
BLOCK
  5
4E2A
330
4E29
100
AcDbEntity
  8
0
 48
0.3
100
AcDbBlockBegin
  2
*D7
 70
     1
 10
0.0
 20
0.0
 30
0.0
  3
*D7
  1

  0
LINE
  5
4EFF
330
4E29
100
AcDbEntity
  8
2
100
AcDbLine
 10
32.38372397077001
 20
-19.75
 30
0.0
 11
88.99340332661791
 21
-19.75000000000002
 31
0.0
  0
LINE
  5
4F00
330
4E29
100
AcDbEntity
  8
2
100
AcDbLine
 10
32.56404942327595
 20
19.75
 30
0.0
 11
88.99340332661791
 21
19.74999999999998
 31
0.0
  0
LINE
  5
4F01
330
4E29
100
AcDbEntity
  8
2
100
AcDbLine
 10
87.9934033266179
 20
-17.25000000000001
 30
0.0
 11
87.9934033266179
 21
17.24999999999998
 31
0.0
  0
SOLID
  5
4F02
330
4E29
100
AcDbEntity
  8
2
100
AcDbTrace
 10
87.57673665995124
 20
-17.25000000000001
 30
0.0
 11
88.41006999328458
 21
-17.25000000000002
 31
0.0
 12
87.9934033266179
 22
-19.75000000000001
 32
0.0
 13
87.9934033266179
 23
-19.75000000000001
 33
0.0
  0
SOLID
  5
4F03
330
4E29
100
AcDbEntity
  8
2
100
AcDbTrace
 10
87.57673665995124
 20
17.24999999999998
 30
0.0
 11
88.41006999328458
 21
17.24999999999998
 31
0.0
 12
87.9934033266179
 22
19.74999999999998
 32
0.0
 13
87.9934033266179
 23
19.74999999999998
 33
0.0
  0
MTEXT
  5
4F04
330
4E29
100
AcDbEntity
  8
2
 62
     2
100
AcDbMText
 10
84.74340332661791
 20
-0.3361179350274592
 30
0.0
 40
3.5
 41
0.0
 71
     5
 72
     1
  1
%%c39.5
 11
0.0000000000000001
 21
1.0
 31
0.0
 73
     1
 44
1.0
  0
POINT
  5
4F05
330
4E29
100
AcDbEntity
  8
Defpoints
 62
     0
100
AcDbPoint
 10
32.38372397077001
 20
-19.75
 30
0.0
  0
POINT
  5
4F06
330
4E29
100
AcDbEntity
  8
Defpoints
 62
     0
100
AcDbPoint
 10
32.56404942327595
 20
19.75
 30
0.0
  0
POINT
  5
4F07
330
4E29
100
AcDbEntity
  8
Defpoints
 62
     0
100
AcDbPoint
 10
87.9934033266179
 20
19.74999999999998
 30
0.0
  0
ENDBLK
  5
4E2B
330
4E29
100
AcDbEntity
  8
0
 48
0.3
100
AcDbBlockEnd
  0
BLOCK
  5
4E81
330
4E80
100
AcDbEntity
  8
0
 48
0.3
100
AcDbBlockBegin
  2
*D8
 70
     1
 10
0.0
 20
0.0
 30
0.0
  3
*D8
  1

  0
LINE
  5
4F08
330
4E80
100
AcDbEntity
  8
2
100
AcDbLine
 10
43.99999999999999
 20
36.26973285657118
 30
0.0
 11
44.00000000000001
 21
58.17056230191674
 31
0.0
  0
LINE
  5
4F09
330
4E80
100
AcDbEntity
  8
2
100
AcDbLine
 10
35.31085621924722
 20
18.65482920570205
 30
0.0
 11
9.914004674033698
 21
44.05168075091557
 31
0.0
  0
ARC
  5
4F0A
330
4E80
100
AcDbEntity
  8
2
100
AcDbCircle
 10
44.00000000000001
 20
9.965685424949271
 30
0.0
 40
47.20487687696748
100
AcDbArc
 50
93.03477529506658
 51
131.9652247049334
  0
SOLID
  5
4F0B
330
4E80
100
AcDbEntity
  8
2
100
AcDbTrace
 10
41.48984319804583
 20
57.52088207114809
 30
0.0
 11
41.5119101270494
 21
56.68784095866396
 31
0.0
 12
44.00000000000001
 22
57.17056230191674
 32
0.0
 13
44.00000000000001
 23
57.17056230191674
 33
0.0
  0
SOLID
  5
4F0C
330
4E80
100
AcDbEntity
  8
2
100
AcDbTrace
 10
12.72179221182272
 20
44.76258365585644
 30
0.0
 11
12.1483468673164
 21
45.36723635063955
 31
0.0
 12
10.62111145522025
 22
43.34457396972903
 32
0.0
 13
10.62111145522025
 23
43.34457396972903
 33
0.0
  0
MTEXT
  5
4F0D
330
4E80
100
AcDbEntity
  8
2
 62
     2
100
AcDbMText
 10
24.69175453716409
 20
56.57991348695652
 30
0.0
 40
3.5
 41
0.0
 71
     5
 72
     1
  1
45°
 11
0.9238795325112867
 21
0.3826834323650898
 31
0.0
 73
     1
 44
1.0
  0
POINT
  5
4F0E
330
4E80
100
AcDbEntity
  8
Defpoints
 62
     0
100
AcDbPoint
 10
31.78247884252123
 20
55.56209512720782
 30
0.0
  0
POINT
  5
4F0F
330
4E80
100
AcDbEntity
  8
Defpoints
 62
     0
100
AcDbPoint
 10
43.88284271247459
 20
10.08284271247467
 30
0.0
  0
POINT
  5
4F10
330
4E80
100
AcDbEntity
  8
Defpoints
 62
     0
100
AcDbPoint
 10
43.99999999999999
 20
28.42737974811166
 30
0.0
  0
POINT
  5
4F11
330
4E80
100
AcDbEntity
  8
Defpoints
 62
     0
100
AcDbPoint
 10
43.99999999999999
 20
36.26973285657118
 30
0.0
  0
POINT
  5
4F12
330
4E80
100
AcDbEntity
  8
Defpoints
 62
     0
100
AcDbPoint
 10
35.31085621924722
 20
18.65482920570205
 30
0.0
  0
ENDBLK
  5
4E82
330
4E80
100
AcDbEntity
  8
0
 48
0.3
100
AcDbBlockEnd
  0
BLOCK
  5
515E
330
515D
100
AcDbEntity
  8
0
 48
0.3
100
AcDbBlockBegin
  2
*D9
 70
     1
 10
0.0
 20
0.0
 30
0.0
  3
*D9
  1

  0
LINE
  5
518E
330
515D
100
AcDbEntity
  8
2
100
AcDbLine
 10
44.0
 20
10.0
 30
0.0
 11
44.0
 21
38.90201849973096
 31
0.0
  0
LINE
  5
518F
330
515D
100
AcDbEntity
  8
2
100
AcDbLine
 10
35.6
 20
18.45
 30
0.0
 11
35.6
 21
38.90201849973096
 31
0.0
  0
LINE
  5
5190
330
515D
100
AcDbEntity
  8
2
100
AcDbLine
 10
41.5
 20
37.90201849973096
 30
0.0
 11
38.1
 21
37.90201849973096
 31
0.0
  0
SOLID
  5
5191
330
515D
100
AcDbEntity
  8
2
100
AcDbTrace
 10
41.5
 20
38.31868516639762
 30
0.0
 11
41.5
 21
37.48535183306429
 31
0.0
 12
44.0
 22
37.90201849973096
 32
0.0
 13
44.0
 23
37.90201849973096
 33
0.0
  0
SOLID
  5
5192
330
515D
100
AcDbEntity
  8
2
100
AcDbTrace
 10
38.1
 20
38.31868516639762
 30
0.0
 11
38.1
 21
37.48535183306429
 31
0.0
 12
35.6
 22
37.90201849973096
 32
0.0
 13
35.6
 23
37.90201849973096
 33
0.0
  0
MTEXT
  5
5193
330
515D
100
AcDbEntity
  8
2
 62
     2
100
AcDbMText
 10
39.8
 20
41.15201849973096
 30
0.0
 40
3.5
 41
0.0
 71
     5
 72
     1
  1
8.4
 73
     1
 44
1.0
  0
POINT
  5
5194
330
515D
100
AcDbEntity
  8
Defpoints
 62
     0
100
AcDbPoint
 10
44.0
 20
10.0
 30
0.0
  0
POINT
  5
5195
330
515D
100
AcDbEntity
  8
Defpoints
 62
     0
100
AcDbPoint
 10
35.6
 20
18.45
 30
0.0
  0
POINT
  5
5196
330
515D
100
AcDbEntity
  8
Defpoints
 62
     0
100
AcDbPoint
 10
35.6
 20
37.90201849973096
 30
0.0
  0
ENDBLK
  5
515F
330
515D
100
AcDbEntity
  8
0
 48
0.3
100
AcDbBlockEnd
  0
ENDSEC
  0
SECTION
  2
ENTITIES
  0
LINE
  5
4C70
330
1F
100
AcDbEntity
  8
SK1
100
AcDbLine
 10
0.0
 20
-12.5
 30
0.0
 11
-55.0
 21
-12.5
 31
0.0
  0
LINE
  5
4C71
330
1F
100
AcDbEntity
  8
SK1
100
AcDbLine
 10
-55.0
 20
-12.5
 30
0.0
 11
-56.0
 21
-11.5
 31
0.0
  0
LINE
  5
4C72
330
1F
100
AcDbEntity
  8
SK1
100
AcDbLine
 10
-56.0
 20
-11.5
 30
0.0
 11
-56.0
 21
11.50000000000001
 31
0.0
  0
LINE
  5
4C73
330
1F
100
AcDbEntity
  8
SK3
 48
0.3
100
AcDbLine
 10
21.0
 20
-3.0
 30
0.0
 11
21.0
 21
3.000000000000014
 31
0.0
  0
LINE
  5
4C74
330
1F
100
AcDbEntity
  8
SK1
100
AcDbLine
 10
-56.0
 20
11.50000000000001
 30
0.0
 11
-55.0
 21
12.50000000000001
 31
0.0
  0
LINE
  5
4C75
330
1F
100
AcDbEntity
  8
SK1
100
AcDbLine
 10
-55.0
 20
12.50000000000001
 30
0.0
 11
0.0
 21
12.5
 31
0.0
  0
LINE
  5
4C76
330
1F
100
AcDbEntity
  8
SK1
100
AcDbLine
 10
-55.0
 20
12.50000000000001
 30
0.0
 11
-55.0
 21
6.780000000000043
 31
0.0
  0
LINE
  5
4C77
330
1F
100
AcDbEntity
  8
SK1
100
AcDbLine
 10
-55.0
 20
-12.5
 30
0.0
 11
-55.0
 21
-6.779999999999972
 31
0.0
  0
LINE
  5
4C78
330
1F
100
AcDbEntity
  8
SK1
100
AcDbLine
 10
-56.0
 20
-6.779999999999972
 30
0.0
 11
-38.99999999999773
 21
-6.780000000000001
 31
0.0
  0
LINE
  5
4C79
330
1F
100
AcDbEntity
  8
SK1
100
AcDbLine
 10
-38.99999999999773
 20
-6.780000000000001
 30
0.0
 11
-38.99999999999773
 21
6.780000000000057
 31
0.0
  0
LINE
  5
4C7A
330
1F
100
AcDbEntity
  8
SK1
100
AcDbLine
 10
-38.99999999999773
 20
6.780000000000057
 30
0.0
 11
-56.0
 21
6.780000000000043
 31
0.0
  0
LINE
  5
4C7B
330
1F
100
AcDbEntity
  8
SK1
100
AcDbLine
 10
-29.99999999999772
 20
6.780000000000086
 30
0.0
 11
-29.99999999999772
 21
-6.780000000000029
 31
0.0
  0
LINE
  5
4C7C
330
1F
100
AcDbEntity
  8
SK1
100
AcDbLine
 10
-29.99999999999772
 20
-6.780000000000029
 30
0.0
 11
-17.99999999999772
 21
-6.779999999999986
 31
0.0
  0
LINE
  5
4C7D
330
1F
100
AcDbEntity
  8
SK1
100
AcDbLine
 10
-17.99999999999772
 20
-6.779999999999986
 30
0.0
 11
-17.99999999999772
 21
6.780000000000029
 31
0.0
  0
LINE
  5
4C7E
330
1F
100
AcDbEntity
  8
SK1
100
AcDbLine
 10
-17.99999999999772
 20
6.780000000000029
 30
0.0
 11
-29.99999999999772
 21
6.780000000000015
 31
0.0
  0
ARC
  5
4C7F
330
1F
100
AcDbEntity
  8
SK1
100
AcDbCircle
 10
-49.49209999999766
 20
-0.0000000000000284
 30
0.0
 40
12.49209999999995
100
AcDbArc
 50
327.1294363887073
 51
32.87056361129272
  0
ARC
  5
4C80
330
1F
100
AcDbEntity
  8
SK1
100
AcDbCircle
 10
-19.50789999999767
 20
0.0000000000000284
 30
0.0
 40
12.49210000000003
100
AcDbArc
 50
147.1294363887073
 51
212.8705636112927
  0
ARC
  5
4C81
330
1F
100
AcDbEntity
  8
SK1
100
AcDbCircle
 10
-28.49209999999767
 20
0.0000000000000426
 30
0.0
 40
12.49209999999994
100
AcDbArc
 50
327.1294363887073
 51
32.87056361129272
  0
LINE
  5
4C82
330
1F
100
AcDbEntity
  8
4
100
AcDbLine
 10
46.34216317127595
 20
0.0
 30
0.0
 11
-58.18243276131932
 21
0.0
 31
0.0
  0
LINE
  5
4C83
330
1F
100
AcDbEntity
  8
SK3
 48
0.3
100
AcDbLine
 10
21.0
 20
-3.000000000000014
 30
0.0
 11
-56.0
 21
-2.999999999999985
 31
0.0
  0
LINE
  5
4C84
330
1F
100
AcDbEntity
  8
SK3
 48
0.3
100
AcDbLine
 10
21.0
 20
3.000000000000014
 30
0.0
 11
-56.0
 21
3.0
 31
0.0
  0
LINE
  5
4C85
330
1F
100
AcDbEntity
  8
SK3
100
AcDbLine
 10
21.0
 20
-3.0
 30
0.0
 11
23.08301323206717
 21
0.0
 31
0.0
  0
LINE
  5
4C86
330
1F
100
AcDbEntity
  8
SK3
 48
0.3
100
AcDbLine
 10
23.08301323206717
 20
0.0
 30
0.0
 11
21.0
 21
3.0
 31
0.0
  0
TEXT
  5
4C87
330
1F
100
AcDbEntity
  8
6
100
AcDbText
 10
46.81025565886648
 20
13.37651979526944
 30
0.0
 40
2.5
  1
BOMT130404R
100
AcDbText
  0
TEXT
  5
4C88
330
1F
100
AcDbEntity
  8
6
100
AcDbText
 10
66.88076332960964
 20
-3.79229173430383
 30
0.0
 40
3.5
  1
Z=3
 50
90.0
100
AcDbText
  0
DIMENSION
  5
4C89
330
1F
100
AcDbEntity
  8
SK2
100
AcDbDimension
  2
*D2
 10
-78.86845500876723
 20
-12.49999999999999
 30
0.0
 11
-82.11879949695619
 21
0.0000000000000017
 31
0.0
 70
    32
  1
%%c<>
 71
     5
 42
25.00000000000002
  3
AM_DIN$0
100
AcDbAlignedDimension
 13
-55.0
 23
12.50000000000001
 33
0.0
 14
-55.0
 24
-12.5
 34
0.0
 50
90.0
100
AcDbRotatedDimension
1001
ACAD_DSTYLE_DIMINSPECT
1070
   396
1000
100%
1070
   395
1000

1070
   394
1070
    33
1070
   393
1070
     0
  0
TEXT
  5
4C8A
330
1F
100
AcDbEntity
  8
6
100
AcDbText
 10
0.1882577174005746
 20
-32.58085344845148
 30
0.0
 40
3.5
  1
12N1R020044W5R00
100
AcDbText
  0
LINE
  5
4C8B
330
1F
100
AcDbEntity
  8
SK1
100
AcDbLine
 10
-1.344770318134237
 20
-1.344770318134209
 30
0.0
 11
1.344770318134237
 21
1.344770318134209
 31
0.0
  0
CIRCLE
  5
4C8C
330
1F
100
AcDbEntity
  8
SK1
100
AcDbCircle
 10
0.0
 20
0.0
 30
0.0
 40
1.901792422182175
  0
LINE
  5
4C8D
330
1F
100
AcDbEntity
  8
SK1
100
AcDbLine
 10
-1.344770318134237
 20
1.344770318134209
 30
0.0
 11
1.344770318134237
 21
-1.344770318134209
 31
0.0
  0
LINE
  5
4C98
330
1F
100
AcDbEntity
  8
NOCUT
100
AcDbLine
 10
43.02380375180007
 20
0.0
 30
0.0
 11
0.0
 21
0.0
 31
0.0
  0
LINE
  5
4CBF
330
1F
100
AcDbEntity
  8
SK4
 48
0.5
100
AcDbLine
 10
20.2871188267377
 20
0.6714702348300677
 30
0.0
 11
34.24429377932034
 21
9.378448103380193
 31
0.0
  0
DIMENSION
  5
4CD6
330
1F
100
AcDbEntity
  8
2
100
AcDbDimension
  2
*D3
 10
61.94526689324447
 20
-10.0
 30
0.0
 11
61.94526689324447
 21
0.3368652616957206
 31
0.0
 70
   160
  1
%%c<>
 71
     5
 42
20.0
  3
AM_DIN$0
100
AcDbAlignedDimension
 13
44.0
 23
10.0
 33
0.0
 14
44.0
 24
-10.0
 34
0.0
 50
90.0
100
AcDbRotatedDimension
1001
ACAD_DSTYLE_DIMINSPECT
1070
   396
1000
100%
1070
   395
1000

1070
   394
1070
    33
1070
   393
1070
     0
  0
DIMENSION
  5
4CD8
330
1F
100
AcDbEntity
  8
SK2
100
AcDbDimension
  2
*D4
 10
-55.99999999999999
 20
90.0
 30
0.0
 11
-5.920134795021681
 21
90.0
 31
0.0
 70
   160
 71
     5
 42
100.0
  3
AM_DIN$0
100
AcDbAlignedDimension
 13
44.0
 23
10.0
 33
0.0
 14
-56.0
 24
11.50000000000001
 34
0.0
100
AcDbRotatedDimension
1001
ACAD
1000
DSTYLE
1002
{
1070
   271
1070
     0
1002
}
1001
ACAD_DSTYLE_DIMINSPECT
1070
   396
1000
100%
1070
   395
1000

1070
   394
1070
    33
1070
   393
1070
     0
  0
DIMENSION
  5
4CD9
330
1F
100
AcDbEntity
  8
2
100
AcDbDimension
  2
*D5
 10
0.0000000000000038
 20
75.0
 30
0.0
 11
22.00000000000001
 21
78.25
 31
0.0
 70
    32
 71
     5
 42
44.0
  3
AM_DIN$0
100
AcDbAlignedDimension
 13
44.0
 23
10.0
 33
0.0
 14
0.0
 24
12.5
 34
0.0
100
AcDbRotatedDimension
1001
ACAD
1000
DSTYLE
1002
{
1070
   271
1070
     0
1002
}
1001
ACAD_DSTYLE_DIMINSPECT
1070
   396
1000
100%
1070
   395
1000

1070
   394
1070
    33
1070
   393
1070
     0
  0
LINE
  5
4D62
330
1F
100
AcDbEntity
  8
1
 48
0.3
100
AcDbLine
 10
0.0
 20
12.5
 30
0.0
 11
0.0
 21
-12.5
 31
0.0
  0
LINE
  5
4D63
330
1F
100
AcDbEntity
  8
1
 48
0.3
100
AcDbLine
 10
0.9142135624000502
 20
12.0
 30
0.0
 11
15.10920685119998
 21
11.99999999999997
 31
0.0
  0
LINE
  5
4D64
330
1F
100
AcDbEntity
  8
1
 48
0.3
100
AcDbLine
 10
17.60920685119311
 20
12.66987298107381
 30
0.0
 11
29.18313028520413
 21
19.35208079125564
 31
0.0
  0
LINE
  5
4D65
330
1F
100
AcDbEntity
  8
1
 48
0.3
100
AcDbLine
 10
30.68313028520004
 20
19.75400457989997
 30
0.0
 11
31.66168287307176
 21
19.75400457989994
 31
0.0
  0
LINE
  5
4D66
330
1F
100
AcDbEntity
  8
1
 48
0.3
100
AcDbLine
 10
33.75247169545571
 20
18.90542320494583
 30
0.0
 11
34.3136016182516
 21
18.36010666039762
 31
0.0
  0
LINE
  5
4D67
330
1F
100
AcDbEntity
  8
1
 48
0.3
100
AcDbLine
 10
42.55275315480008
 20
8.187067729850824
 30
0.0
 11
42.55275315480003
 21
-10.35314523596759
 31
0.0
  0
ARC
  5
4D69
330
1F
100
AcDbEntity
  8
1
 48
0.3
100
AcDbCircle
 10
15.10920685119998
 20
16.99999999999997
 30
0.0
 40
5.0
100
AcDbArc
 50
270.0
 51
299.9999999999096
1001
GENIUS_GENODEF_13
1002
{
1000
HIER
1070
     0
1002
}
1002
{
1000
MANEDIT
1070
     0
1002
}
1002
{
1000
NOSEL
1070
     0
1002
}
1002
{
1000
BEHIND
1070
     0
1002
}
1002
{
1000
OTHER
1070
     0
1002
}
1002
{
1000
REACTOR
1002
}
1001
GENIUS_GENOBJ-N-FIL_13
1002
{
1000
OWNER
1000
GEN
1002
}
  0
ARC
  5
4D6A
330
1F
100
AcDbEntity
  8
1
 48
0.3
100
AcDbCircle
 10
30.68313028519998
 20
16.75400457989994
 30
0.0
 40
3.0
100
AcDbArc
 50
90.0
 51
119.9999999999096
1001
GENIUS_GENODEF_13
1002
{
1000
HIER
1070
     0
1002
}
1002
{
1000
MANEDIT
1070
     0
1002
}
1002
{
1000
NOSEL
1070
     0
1002
}
1002
{
1000
BEHIND
1070
     0
1002
}
1002
{
1000
OTHER
1070
     0
1002
}
1002
{
1000
REACTOR
1002
}
1001
GENIUS_GENOBJ-N-FIL_13
1002
{
1000
OWNER
1000
GEN
1002
}
  0
ARC
  5
4D6B
330
1F
100
AcDbEntity
  8
1
 48
0.3
100
AcDbCircle
 10
31.66168287307176
 20
16.75400457989994
 30
0.0
 40
3.0
100
AcDbArc
 50
45.81881788027242
 51
90.0
1001
GENIUS_GENODEF_13
1002
{
1000
HIER
1070
     0
1002
}
1002
{
1000
MANEDIT
1070
     0
1002
}
1002
{
1000
NOSEL
1070
     0
1002
}
1002
{
1000
BEHIND
1070
     0
1002
}
1002
{
1000
OTHER
1070
     0
1002
}
1002
{
1000
REACTOR
1002
}
1001
GENIUS_GENOBJ-N-FIL_13
1002
{
1000
OWNER
1000
GEN
1002
}
  0
LINE
  5
4D6C
330
1F
100
AcDbEntity
  8
1
 48
0.3
100
AcDbLine
 10
0.9142135624000502
 20
12.0
 30
0.0
 11
0.0
 21
12.5
 31
0.0
  0
LINE
  5
4D6D
330
1F
100
AcDbEntity
  8
1
 48
0.3
100
AcDbLine
 10
0.9142135624000502
 20
-12.0
 30
0.0
 11
15.10920685119998
 21
-11.99999999999997
 31
0.0
  0
ARC
  5
4D6E
330
1F
100
AcDbEntity
  8
1
 48
0.3
100
AcDbCircle
 10
15.10920685119998
 20
-16.99999999999997
 30
0.0
 40
5.0
100
AcDbArc
 50
60.00000000009036
 51
90.0
1001
GENIUS_GENODEF_13
1002
{
1000
HIER
1070
     0
1002
}
1002
{
1000
MANEDIT
1070
     0
1002
}
1002
{
1000
NOSEL
1070
     0
1002
}
1002
{
1000
BEHIND
1070
     0
1002
}
1002
{
1000
OTHER
1070
     0
1002
}
1002
{
1000
REACTOR
1002
}
1001
GENIUS_GENOBJ-N-FIL_13
1002
{
1000
OWNER
1000
GEN
1002
}
  0
LINE
  5
4D6F
330
1F
100
AcDbEntity
  8
1
 48
0.3
100
AcDbLine
 10
17.60920685119311
 20
-12.66987298107381
 30
0.0
 11
29.18313028520413
 21
-19.35208079125564
 31
0.0
  0
ARC
  5
4D70
330
1F
100
AcDbEntity
  8
1
 48
0.3
100
AcDbCircle
 10
30.68313028519998
 20
-16.75400457989994
 30
0.0
 40
3.0
100
AcDbArc
 50
240.0000000000904
 51
270.0
1001
GENIUS_GENODEF_13
1002
{
1000
HIER
1070
     0
1002
}
1002
{
1000
MANEDIT
1070
     0
1002
}
1002
{
1000
NOSEL
1070
     0
1002
}
1002
{
1000
BEHIND
1070
     0
1002
}
1002
{
1000
OTHER
1070
     0
1002
}
1002
{
1000
REACTOR
1002
}
1001
GENIUS_GENOBJ-N-FIL_13
1002
{
1000
OWNER
1000
GEN
1002
}
  0
LINE
  5
4D71
330
1F
100
AcDbEntity
  8
1
 48
0.3
100
AcDbLine
 10
30.68313028520004
 20
-19.75400457989997
 30
0.0
 11
31.66168287307176
 21
-19.75400457989994
 31
0.0
  0
LINE
  5
4D72
330
1F
100
AcDbEntity
  8
1
 48
0.3
100
AcDbLine
 10
33.75247169545571
 20
-18.90542320494583
 30
0.0
 11
42.55275315480003
 21
-10.35314523596759
 31
0.0
  0
ARC
  5
4D73
330
1F
100
AcDbEntity
  8
1
 48
0.3
100
AcDbCircle
 10
31.66168287307176
 20
-16.75400457989994
 30
0.0
 40
3.0
100
AcDbArc
 50
270.0
 51
314.1811821197293
1001
GENIUS_GENODEF_13
1002
{
1000
HIER
1070
     0
1002
}
1002
{
1000
MANEDIT
1070
     0
1002
}
1002
{
1000
NOSEL
1070
     0
1002
}
1002
{
1000
BEHIND
1070
     0
1002
}
1002
{
1000
OTHER
1070
     0
1002
}
1002
{
1000
REACTOR
1002
}
1001
GENIUS_GENOBJ-N-FIL_13
1002
{
1000
OWNER
1000
GEN
1002
}
  0
LINE
  5
4D74
330
1F
100
AcDbEntity
  8
1
 48
0.3
100
AcDbLine
 10
0.9142135624000502
 20
-12.0
 30
0.0
 11
0.0
 21
-12.5
 31
0.0
  0
LINE
  5
4D75
330
1F
100
AcDbEntity
  8
NOCUT
 48
0.3
100
AcDbLine
 10
0.0
 20
0.0
 30
0.0
 11
0.0
 21
-12.50000000000003
 31
0.0
  0
LINE
  5
4D7D
330
1F
100
AcDbEntity
  8
NOCUT
 48
0.3
100
AcDbLine
 10
42.55275315480003
 20
0.0
 30
0.0
 11
42.55275315480003
 21
-10.35314523596759
 31
0.0
  0
LINE
  5
4D7E
330
1F
100
AcDbEntity
  8
NOCUT
 48
0.3
100
AcDbLine
 10
42.55275315480003
 20
0.0
 30
0.0
 11
0.0
 21
0.0
 31
0.0
  0
LINE
  5
4D80
330
1F
100
AcDbEntity
  8
NOCUT
 48
0.3
100
AcDbLine
 10
0.9142135624000502
 20
-12.0
 30
0.0
 11
15.10920685119998
 21
-11.99999999999997
 31
0.0
  0
ARC
  5
4D81
330
1F
100
AcDbEntity
  8
NOCUT
 48
0.3
100
AcDbCircle
 10
15.10920685119998
 20
-16.99999999999997
 30
0.0
 40
5.0
100
AcDbArc
 50
60.00000000009036
 51
90.0
1001
GENIUS_GENODEF_13
1002
{
1000
HIER
1070
     0
1002
}
1002
{
1000
MANEDIT
1070
     0
1002
}
1002
{
1000
NOSEL
1070
     0
1002
}
1002
{
1000
BEHIND
1070
     0
1002
}
1002
{
1000
OTHER
1070
     0
1002
}
1002
{
1000
REACTOR
1002
}
1001
GENIUS_GENOBJ-N-FIL_13
1002
{
1000
OWNER
1000
GEN
1002
}
  0
LINE
  5
4D82
330
1F
100
AcDbEntity
  8
NOCUT
 48
0.3
100
AcDbLine
 10
17.60920685119311
 20
-12.66987298107381
 30
0.0
 11
29.18313028520413
 21
-19.35208079125564
 31
0.0
  0
ARC
  5
4D83
330
1F
100
AcDbEntity
  8
NOCUT
 48
0.3
100
AcDbCircle
 10
30.68313028519998
 20
-16.75400457989994
 30
0.0
 40
3.0
100
AcDbArc
 50
240.0000000000904
 51
270.0
1001
GENIUS_GENODEF_13
1002
{
1000
HIER
1070
     0
1002
}
1002
{
1000
MANEDIT
1070
     0
1002
}
1002
{
1000
NOSEL
1070
     0
1002
}
1002
{
1000
BEHIND
1070
     0
1002
}
1002
{
1000
OTHER
1070
     0
1002
}
1002
{
1000
REACTOR
1002
}
1001
GENIUS_GENOBJ-N-FIL_13
1002
{
1000
OWNER
1000
GEN
1002
}
  0
LINE
  5
4D84
330
1F
100
AcDbEntity
  8
NOCUT
 48
0.3
100
AcDbLine
 10
30.68313028520004
 20
-19.75400457989997
 30
0.0
 11
31.66168287307176
 21
-19.75400457989994
 31
0.0
  0
LINE
  5
4D85
330
1F
100
AcDbEntity
  8
NOCUT
 48
0.3
100
AcDbLine
 10
33.75247169545571
 20
-18.90542320494583
 30
0.0
 11
42.55275315480003
 21
-10.35314523596759
 31
0.0
  0
ARC
  5
4D86
330
1F
100
AcDbEntity
  8
NOCUT
 48
0.3
100
AcDbCircle
 10
31.66168287307176
 20
-16.75400457989994
 30
0.0
 40
3.0
100
AcDbArc
 50
270.0
 51
314.1811821197293
1001
GENIUS_GENODEF_13
1002
{
1000
HIER
1070
     0
1002
}
1002
{
1000
MANEDIT
1070
     0
1002
}
1002
{
1000
NOSEL
1070
     0
1002
}
1002
{
1000
BEHIND
1070
     0
1002
}
1002
{
1000
OTHER
1070
     0
1002
}
1002
{
1000
REACTOR
1002
}
1001
GENIUS_GENOBJ-N-FIL_13
1002
{
1000
OWNER
1000
GEN
1002
}
  0
LINE
  5
4D87
330
1F
100
AcDbEntity
  8
NOCUT
 48
0.3
100
AcDbLine
 10
0.9142135624000502
 20
-12.0
 30
0.0
 11
0.0
 21
-12.5
 31
0.0
  0
LINE
  5
4D8A
330
1F
100
AcDbEntity
  8
SK1
100
AcDbLine
 10
44.0
 20
10.4637693698488
 30
0.0
 11
43.99999999999994
 21
9.536230630151138
 31
0.0
  0
LINE
  5
4D8B
330
1F
100
AcDbEntity
  8
SK1
100
AcDbLine
 10
43.53623063015112
 20
9.999999999999985
 30
0.0
 11
44.46376936984882
 21
9.999999999999985
 31
0.0
  0
CIRCLE
  5
4D8C
330
1F
100
AcDbEntity
  8
SK1
100
AcDbCircle
 10
44.0
 20
10.0
 30
0.0
 40
0.4637693698488208
  0
LINE
  5
4D8D
330
1F
100
AcDbEntity
  8
1
100
AcDbLine
 10
34.92703595109992
 20
18.70708551332252
 30
0.0
 11
31.08818948885835
 21
16.53570632781345
 31
0.0
  0
LINE
  5
4D8E
330
1F
100
AcDbEntity
  8
1
100
AcDbLine
 10
30.14317850144261
 20
15.81718209803257
 30
0.0
 11
28.76013345482017
 21
14.43413705141027
 31
0.0
  0
ARC
  5
4D8F
330
1F
100
AcDbEntity
  8
1
100
AcDbCircle
 10
33.25444833866345
 20
12.70591226081168
 30
0.0
 40
4.4
100
AcDbArc
 50
119.4939435739896
 51
135.0000000000011
1001
GENIUS_GENODEF_13
1002
{
1000
HIER
1070
     0
1002
}
1002
{
1000
MANEDIT
1070
     0
1002
}
1002
{
1000
NOSEL
1070
     0
1002
}
1002
{
1000
BEHIND
1070
     0
1002
}
1002
{
1000
OTHER
1070
     0
1002
}
1002
{
1000
REACTOR
1002
}
1001
GENIUS_GENOBJ-N-FIL_13
1002
{
1000
OWNER
1000
GEN
1002
}
  0
CIRCLE
  5
4D90
330
1F
100
AcDbEntity
  8
1
100
AcDbCircle
 10
36.32148808364747
 20
11.97564716946783
 30
0.0
 40
2.426060010566603
  0
LINE
  5
4D91
330
1F
100
AcDbEntity
  8
1
100
AcDbLine
 10
43.88284271247459
 20
10.08284271247467
 30
0.0
 11
35.31085621924723
 21
18.65482920570206
 31
0.0
  0
ARC
  5
4D92
330
1F
100
AcDbEntity
  8
1
100
AcDbCircle
 10
35.08458204926757
 20
18.42855503572238
 30
0.0
 40
0.3200000000000001
100
AcDbArc
 50
44.99999999999769
 51
119.4939435739896
1001
GENIUS_GENODEF_13
1002
{
1000
HIER
1070
     0
1002
}
1002
{
1000
MANEDIT
1070
     0
1002
}
1002
{
1000
NOSEL
1070
     0
1002
}
1002
{
1000
BEHIND
1070
     0
1002
}
1002
{
1000
OTHER
1070
     0
1002
}
1002
{
1000
REACTOR
1002
}
1001
GENIUS_GENOBJ-N-FIL_13
1002
{
1000
OWNER
1000
GEN
1002
}
  0
LINE
  5
4D93
330
1F
100
AcDbEntity
  8
1
100
AcDbLine
 10
37.71594021619495
 20
5.244208825613242
 30
0.0
 11
41.55478667843652
 21
7.415588011122252
 31
0.0
  0
LINE
  5
4D94
330
1F
100
AcDbEntity
  8
1
100
AcDbLine
 10
42.49979766585233
 20
8.134112240903093
 30
0.0
 11
43.88284271247459
 21
9.517157287525435
 31
0.0
  0
ARC
  5
4D95
330
1F
100
AcDbEntity
  8
1
100
AcDbCircle
 10
43.60000000000002
 20
9.800000000000011
 30
0.0
 40
0.4
100
AcDbArc
 50
314.9999999999977
 51
44.99999999999769
1001
GENIUS_GENOBJ-N-FIL_13
1002
{
1000
OWNER
1000
GEN
1002
}
1001
GENIUS_GENODEF_13
1002
{
1000
HIER
1070
     0
1002
}
1002
{
1000
MANEDIT
1070
     0
1002
}
1002
{
1000
NOSEL
1070
     0
1002
}
1002
{
1000
BEHIND
1070
     0
1002
}
1002
{
1000
OTHER
1070
     0
1002
}
1002
{
1000
REACTOR
1002
}
  0
ARC
  5
4D96
330
1F
100
AcDbEntity
  8
1
100
AcDbCircle
 10
39.38852782863154
 20
11.24538207812401
 30
0.0
 40
4.4
100
AcDbArc
 50
299.4939435740024
 51
314.9999999999977
1001
GENIUS_GENODEF_13
1002
{
1000
HIER
1070
     0
1002
}
1002
{
1000
MANEDIT
1070
     0
1002
}
1002
{
1000
NOSEL
1070
     0
1002
}
1002
{
1000
BEHIND
1070
     0
1002
}
1002
{
1000
OTHER
1070
     0
1002
}
1002
{
1000
REACTOR
1002
}
1001
GENIUS_GENOBJ-N-FIL_13
1002
{
1000
OWNER
1000
GEN
1002
}
  0
LINE
  5
4D97
330
1F
100
AcDbEntity
  8
1
100
AcDbLine
 10
28.76013345482017
 20
13.86845162646111
 30
0.0
 11
37.33211994804759
 21
5.296465133233695
 31
0.0
  0
ARC
  5
4D98
330
1F
100
AcDbEntity
  8
1
100
AcDbCircle
 10
29.04297616729479
 20
14.15129433893568
 30
0.0
 40
0.4
100
AcDbArc
 50
135.0000000000011
 51
224.9999999999977
1001
GENIUS_GENOBJ-N-FIL_13
1002
{
1000
OWNER
1000
GEN
1002
}
1001
GENIUS_GENODEF_13
1002
{
1000
HIER
1070
     0
1002
}
1002
{
1000
MANEDIT
1070
     0
1002
}
1002
{
1000
NOSEL
1070
     0
1002
}
1002
{
1000
BEHIND
1070
     0
1002
}
1002
{
1000
OTHER
1070
     0
1002
}
1002
{
1000
REACTOR
1002
}
  0
ARC
  5
4D99
330
1F
100
AcDbEntity
  8
1
100
AcDbCircle
 10
37.55839411802731
 20
5.522739303213342
 30
0.0
 40
0.3200000000000001
100
AcDbArc
 50
224.9999999999977
 51
299.4939435740024
1001
GENIUS_GENODEF_13
1002
{
1000
HIER
1070
     0
1002
}
1002
{
1000
MANEDIT
1070
     0
1002
}
1002
{
1000
NOSEL
1070
     0
1002
}
1002
{
1000
BEHIND
1070
     0
1002
}
1002
{
1000
OTHER
1070
     0
1002
}
1002
{
1000
REACTOR
1002
}
1001
GENIUS_GENOBJ-N-FIL_13
1002
{
1000
OWNER
1000
GEN
1002
}
  0
LINE
  5
4D9A
330
1F
100
AcDbEntity
  8
CUT
100
AcDbLine
 10
34.92703595109992
 20
18.70708551332252
 30
0.0
 11
31.08818948885835
 21
16.53570632781345
 31
0.0
  0
LINE
  5
4D9B
330
1F
100
AcDbEntity
  8
CUT
100
AcDbLine
 10
30.14317850144261
 20
15.81718209803257
 30
0.0
 11
28.76013345482017
 21
14.43413705141027
 31
0.0
  0
ARC
  5
4D9C
330
1F
100
AcDbEntity
  8
CUT
100
AcDbCircle
 10
33.25444833866345
 20
12.70591226081168
 30
0.0
 40
4.4
100
AcDbArc
 50
119.4939435739896
 51
135.0000000000011
1001
GENIUS_GENODEF_13
1002
{
1000
HIER
1070
     0
1002
}
1002
{
1000
MANEDIT
1070
     0
1002
}
1002
{
1000
NOSEL
1070
     0
1002
}
1002
{
1000
BEHIND
1070
     0
1002
}
1002
{
1000
OTHER
1070
     0
1002
}
1002
{
1000
REACTOR
1002
}
1001
GENIUS_GENOBJ-N-FIL_13
1002
{
1000
OWNER
1000
GEN
1002
}
  0
LINE
  5
4D9D
330
1F
100
AcDbEntity
  8
CUT
100
AcDbLine
 10
43.88284271247459
 20
10.08284271247467
 30
0.0
 11
35.31085621924723
 21
18.65482920570206
 31
0.0
  0
ARC
  5
4D9E
330
1F
100
AcDbEntity
  8
CUT
100
AcDbCircle
 10
35.08458204926757
 20
18.42855503572238
 30
0.0
 40
0.3200000000000001
100
AcDbArc
 50
44.99999999999769
 51
119.4939435739896
1001
GENIUS_GENODEF_13
1002
{
1000
HIER
1070
     0
1002
}
1002
{
1000
MANEDIT
1070
     0
1002
}
1002
{
1000
NOSEL
1070
     0
1002
}
1002
{
1000
BEHIND
1070
     0
1002
}
1002
{
1000
OTHER
1070
     0
1002
}
1002
{
1000
REACTOR
1002
}
1001
GENIUS_GENOBJ-N-FIL_13
1002
{
1000
OWNER
1000
GEN
1002
}
  0
LINE
  5
4D9F
330
1F
100
AcDbEntity
  8
CUT
100
AcDbLine
 10
37.71594021619495
 20
5.244208825613242
 30
0.0
 11
41.55478667843652
 21
7.415588011122252
 31
0.0
  0
LINE
  5
4DA0
330
1F
100
AcDbEntity
  8
CUT
100
AcDbLine
 10
42.49979766585233
 20
8.134112240903093
 30
0.0
 11
43.88284271247459
 21
9.517157287525435
 31
0.0
  0
ARC
  5
4DA1
330
1F
100
AcDbEntity
  8
CUT
100
AcDbCircle
 10
43.60000000000002
 20
9.800000000000011
 30
0.0
 40
0.4
100
AcDbArc
 50
314.9999999999977
 51
44.99999999999769
1001
GENIUS_GENOBJ-N-FIL_13
1002
{
1000
OWNER
1000
GEN
1002
}
1001
GENIUS_GENODEF_13
1002
{
1000
HIER
1070
     0
1002
}
1002
{
1000
MANEDIT
1070
     0
1002
}
1002
{
1000
NOSEL
1070
     0
1002
}
1002
{
1000
BEHIND
1070
     0
1002
}
1002
{
1000
OTHER
1070
     0
1002
}
1002
{
1000
REACTOR
1002
}
  0
ARC
  5
4DA2
330
1F
100
AcDbEntity
  8
CUT
100
AcDbCircle
 10
39.38852782863154
 20
11.24538207812401
 30
0.0
 40
4.4
100
AcDbArc
 50
299.4939435740024
 51
314.9999999999977
1001
GENIUS_GENODEF_13
1002
{
1000
HIER
1070
     0
1002
}
1002
{
1000
MANEDIT
1070
     0
1002
}
1002
{
1000
NOSEL
1070
     0
1002
}
1002
{
1000
BEHIND
1070
     0
1002
}
1002
{
1000
OTHER
1070
     0
1002
}
1002
{
1000
REACTOR
1002
}
1001
GENIUS_GENOBJ-N-FIL_13
1002
{
1000
OWNER
1000
GEN
1002
}
  0
LINE
  5
4DA3
330
1F
100
AcDbEntity
  8
CUT
100
AcDbLine
 10
28.76013345482017
 20
13.86845162646111
 30
0.0
 11
37.33211994804759
 21
5.296465133233695
 31
0.0
  0
ARC
  5
4DA4
330
1F
100
AcDbEntity
  8
CUT
100
AcDbCircle
 10
29.04297616729479
 20
14.15129433893568
 30
0.0
 40
0.4
100
AcDbArc
 50
135.0000000000011
 51
224.9999999999977
1001
GENIUS_GENOBJ-N-FIL_13
1002
{
1000
OWNER
1000
GEN
1002
}
1001
GENIUS_GENODEF_13
1002
{
1000
HIER
1070
     0
1002
}
1002
{
1000
MANEDIT
1070
     0
1002
}
1002
{
1000
NOSEL
1070
     0
1002
}
1002
{
1000
BEHIND
1070
     0
1002
}
1002
{
1000
OTHER
1070
     0
1002
}
1002
{
1000
REACTOR
1002
}
  0
ARC
  5
4DA5
330
1F
100
AcDbEntity
  8
CUT
100
AcDbCircle
 10
37.55839411802731
 20
5.522739303213342
 30
0.0
 40
0.3200000000000001
100
AcDbArc
 50
224.9999999999977
 51
299.4939435740024
1001
GENIUS_GENODEF_13
1002
{
1000
HIER
1070
     0
1002
}
1002
{
1000
MANEDIT
1070
     0
1002
}
1002
{
1000
NOSEL
1070
     0
1002
}
1002
{
1000
BEHIND
1070
     0
1002
}
1002
{
1000
OTHER
1070
     0
1002
}
1002
{
1000
REACTOR
1002
}
1001
GENIUS_GENOBJ-N-FIL_13
1002
{
1000
OWNER
1000
GEN
1002
}
  0
LINE
  5
4DA6
330
1F
100
AcDbEntity
  8
1
 48
0.1
100
AcDbLine
 10
38.34345120026086
 20
2.844460792386627
 30
0.0
 11
24.61642397574838
 21
16.7154916741911
 31
0.0
  0
ARC
  5
4DA7
330
1F
100
AcDbEntity
  8
1
 48
0.5
100
AcDbCircle
 10
42.89593130607852
 20
8.09432710842627
 30
0.0
 40
6.948825184889419
100
AcDbArc
 50
229.0694414453102
 51
267.1692104911329
  0
LINE
  5
4DA8
330
1F
100
AcDbEntity
  8
SK4
 48
0.5
100
AcDbLine
 10
20.2871188267377
 20
-0.6714702348300677
 30
0.0
 11
34.24429377932034
 21
-9.378448103380193
 31
0.0
  0
LINE
  5
4DA9
330
1F
100
AcDbEntity
  8
SK1
100
AcDbLine
 10
44.00000000000011
 20
-10.46376936984872
 30
0.0
 11
44.00000000000005
 21
-9.536230630151052
 31
0.0
  0
LINE
  5
4DAA
330
1F
100
AcDbEntity
  8
SK1
100
AcDbLine
 10
43.53623063015123
 20
-9.999999999999914
 30
0.0
 11
44.46376936984893
 21
-9.9999999999999
 31
0.0
  0
CIRCLE
  5
4DAB
330
1F
100
AcDbEntity
  8
SK1
100
AcDbCircle
 10
44.00000000000011
 20
-9.999999999999914
 30
0.0
 40
0.4637693698488208
  0
LINE
  5
4DAC
330
1F
100
AcDbEntity
  8
1
100
AcDbLine
 10
34.9270359511001
 20
-18.70708551332254
 30
0.0
 11
34.31360161825165
 21
-18.36010666039752
 31
0.0
  0
CIRCLE
  5
4DAF
330
1F
100
AcDbEntity
  8
SK3
 48
0.3
100
AcDbCircle
 10
36.32148808364758
 20
-11.97564716946783
 30
0.0
 40
2.426060010566603
  0
LINE
  5
4DB0
330
1F
100
AcDbEntity
  8
1
100
AcDbLine
 10
43.88284271247471
 20
-10.08284271247458
 30
0.0
 11
35.3108562192474
 21
-18.65482920570207
 31
0.0
  0
ARC
  5
4DB1
330
1F
100
AcDbEntity
  8
1
100
AcDbCircle
 10
35.08458204926774
 20
-18.42855503572241
 30
0.0
 40
0.3200000000000001
100
AcDbArc
 50
240.5060564260108
 51
315.0000000000023
1001
GENIUS_GENODEF_13
1002
{
1000
HIER
1070
     0
1002
}
1002
{
1000
MANEDIT
1070
     0
1002
}
1002
{
1000
NOSEL
1070
     0
1002
}
1002
{
1000
BEHIND
1070
     0
1002
}
1002
{
1000
OTHER
1070
     0
1002
}
1002
{
1000
REACTOR
1002
}
1001
GENIUS_GENOBJ-N-FIL_13
1002
{
1000
OWNER
1000
GEN
1002
}
  0
LINE
  5
4DB3
330
1F
100
AcDbEntity
  8
1
100
AcDbLine
 10
42.49979766585238
 20
-8.134112240903021
 30
0.0
 11
43.88284271247471
 21
-9.51715728752535
 31
0.0
  0
ARC
  5
4DB4
330
1F
100
AcDbEntity
  8
1
100
AcDbCircle
 10
43.60000000000013
 20
-9.79999999999994
 30
0.0
 40
0.4
100
AcDbArc
 50
315.0000000000023
 51
45.0000000000023
1001
GENIUS_GENOBJ-N-FIL_13
1002
{
1000
OWNER
1000
GEN
1002
}
1001
GENIUS_GENODEF_13
1002
{
1000
HIER
1070
     0
1002
}
1002
{
1000
MANEDIT
1070
     0
1002
}
1002
{
1000
NOSEL
1070
     0
1002
}
1002
{
1000
BEHIND
1070
     0
1002
}
1002
{
1000
OTHER
1070
     0
1002
}
1002
{
1000
REACTOR
1002
}
  0
LINE
  5
4DB9
330
1F
100
AcDbEntity
  8
SK3
 48
0.3
100
AcDbLine
 10
34.31360161825165
 20
-18.36010666039752
 30
0.0
 11
31.08818948885852
 21
-16.5357063278135
 31
0.0
  0
LINE
  5
4DBA
330
1F
100
AcDbEntity
  8
SK3
100
AcDbLine
 10
30.14317850144278
 20
-15.81718209803264
 30
0.0
 11
28.76013345482034
 21
-14.43413705141034
 31
0.0
  0
ARC
  5
4DBB
330
1F
100
AcDbEntity
  8
SK3
100
AcDbCircle
 10
33.25444833866356
 20
-12.70591226081171
 30
0.0
 40
4.4
100
AcDbArc
 50
224.9999999999989
 51
240.5060564260108
1001
GENIUS_GENODEF_13
1002
{
1000
HIER
1070
     0
1002
}
1002
{
1000
MANEDIT
1070
     0
1002
}
1002
{
1000
NOSEL
1070
     0
1002
}
1002
{
1000
BEHIND
1070
     0
1002
}
1002
{
1000
OTHER
1070
     0
1002
}
1002
{
1000
REACTOR
1002
}
1001
GENIUS_GENOBJ-N-FIL_13
1002
{
1000
OWNER
1000
GEN
1002
}
  0
LINE
  5
4DBE
330
1F
100
AcDbEntity
  8
SK3
100
AcDbLine
 10
37.71594021619501
 20
-5.244208825613227
 30
0.0
 11
41.55478667843659
 21
-7.415588011122196
 31
0.0
  0
LINE
  5
4DBF
330
1F
100
AcDbEntity
  8
CUT
100
AcDbLine
 10
42.49979766585238
 20
-8.134112240903021
 30
0.0
 11
42.55275315480003
 21
-8.187067729850653
 31
0.0
  0
ARC
  5
4DC1
330
1F
100
AcDbEntity
  8
SK3
100
AcDbCircle
 10
39.38852782863165
 20
-11.24538207812398
 30
0.0
 40
4.4
100
AcDbArc
 50
45.0000000000023
 51
60.5060564259976
1001
GENIUS_GENODEF_13
1002
{
1000
HIER
1070
     0
1002
}
1002
{
1000
MANEDIT
1070
     0
1002
}
1002
{
1000
NOSEL
1070
     0
1002
}
1002
{
1000
BEHIND
1070
     0
1002
}
1002
{
1000
OTHER
1070
     0
1002
}
1002
{
1000
REACTOR
1002
}
1001
GENIUS_GENOBJ-N-FIL_13
1002
{
1000
OWNER
1000
GEN
1002
}
  0
LINE
  5
4DC2
330
1F
100
AcDbEntity
  8
SK3
100
AcDbLine
 10
28.76013345482028
 20
-13.86845162646119
 30
0.0
 11
37.33211994804765
 21
-5.296465133233681
 31
0.0
  0
ARC
  5
4DC3
330
1F
100
AcDbEntity
  8
SK3
100
AcDbCircle
 10
29.04297616729497
 20
-14.15129433893577
 30
0.0
 40
0.4
100
AcDbArc
 50
135.0000000000023
 51
224.9999999999989
1001
GENIUS_GENOBJ-N-FIL_13
1002
{
1000
OWNER
1000
GEN
1002
}
1001
GENIUS_GENODEF_13
1002
{
1000
HIER
1070
     0
1002
}
1002
{
1000
MANEDIT
1070
     0
1002
}
1002
{
1000
NOSEL
1070
     0
1002
}
1002
{
1000
BEHIND
1070
     0
1002
}
1002
{
1000
OTHER
1070
     0
1002
}
1002
{
1000
REACTOR
1002
}
  0
ARC
  5
4DC4
330
1F
100
AcDbEntity
  8
SK3
100
AcDbCircle
 10
37.55839411802737
 20
-5.522739303213327
 30
0.0
 40
0.3200000000000001
100
AcDbArc
 50
60.5060564259976
 51
135.0000000000023
1001
GENIUS_GENODEF_13
1002
{
1000
HIER
1070
     0
1002
}
1002
{
1000
MANEDIT
1070
     0
1002
}
1002
{
1000
NOSEL
1070
     0
1002
}
1002
{
1000
BEHIND
1070
     0
1002
}
1002
{
1000
OTHER
1070
     0
1002
}
1002
{
1000
REACTOR
1002
}
1001
GENIUS_GENOBJ-N-FIL_13
1002
{
1000
OWNER
1000
GEN
1002
}
  0
LINE
  5
4DC5
330
1F
100
AcDbEntity
  8
SK3
 48
0.3
100
AcDbLine
 10
38.34345120026086
 20
-2.844460792386612
 30
0.0
 11
24.61642397574855
 21
-16.71549167419124
 31
0.0
  0
ARC
  5
4DC6
330
1F
100
AcDbEntity
  8
SK3
 48
0.5
100
AcDbCircle
 10
42.89593130607857
 20
-8.094327108426199
 30
0.0
 40
6.948825184889419
100
AcDbArc
 50
92.83078950886707
 51
130.930558554691
  0
DIMENSION
  5
4DCD
330
1F
100
AcDbEntity
  8
2
100
AcDbDimension
  2
*D6
 10
75.57788369155969
 20
-18.45
 30
0.0
 11
75.57788369155969
 21
0.415684644721182
 31
0.0
 70
   160
  1
%%c<>
 71
     5
 42
36.89999999999999
  3
AM_DIN$0
100
AcDbAlignedDimension
 13
35.51568542494931
 23
18.45
 33
0.0
 14
35.51568542494948
 24
-18.44999999999999
 34
0.0
 50
90.0
100
AcDbRotatedDimension
1001
ACAD_DSTYLE_DIMINSPECT
1070
   396
1000
100%
1070
   395
1000

1070
   394
1070
    33
1070
   393
1070
     0
  0
DIMENSION
  5
4E28
330
1F
100
AcDbEntity
  8
2
100
AcDbDimension
  2
*D7
 10
87.9934033266179
 20
19.74999999999998
 30
0.0
 11
87.9934033266179
 21
-0.3361179350274597
 31
0.0
 70
   160
  1
%%c<>
 71
     5
 42
39.5
  3
AM_DIN$0
100
AcDbAlignedDimension
 13
32.38372397077001
 23
-19.75
 33
0.0
 14
32.56404942327595
 24
19.75
 34
0.0
 50
90.0
100
AcDbRotatedDimension
1001
ACAD_DSTYLE_DIMINSPECT
1070
   396
1000
100%
1070
   395
1000

1070
   394
1070
    33
1070
   393
1070
     0
  0
DIMENSION
  5
4E7F
330
1F
100
AcDbEntity
  8
2
100
AcDbDimension
  2
*D8
 10
35.31085621924723
 20
18.65482920570206
 30
0.0
 11
24.6917545371641
 21
56.57991348695651
 31
0.0
 70
    34
 71
     5
 42
0.7853981633974483
  3
AM_DIN$2
100
AcDb2LineAngularDimension
 13
44.0
 23
28.42737974811166
 33
0.0
 14
44.0
 24
36.26973285657118
 34
0.0
 15
43.88284271247459
 25
10.08284271247467
 35
0.0
 16
31.78247884252123
 26
55.56209512720782
 36
0.0
1001
ACAD_DSTYLE_DIMINSPECT
1070
   396
1000
100%
1070
   395
1000

1070
   394
1070
    33
1070
   393
1070
     0
  0
LINE
  5
4F2D
330
1F
100
AcDbEntity
  8
1
 48
0.3
100
AcDbLine
 10
16.88830146584814
 20
11.19240336112602
 30
0.0
 11
16.88830146584814
 21
-11.16883969410582
 31
0.0
  0
DIMENSION
  5
515C
330
1F
100
AcDbEntity
  8
2
100
AcDbDimension
  2
*D9
 10
35.6
 20
37.90201849973096
 30
0.0
 11
39.8
 21
41.15201849973096
 31
0.0
 70
    32
 71
     5
 42
8.399999999999998
  3
AM_DIN$0
100
AcDbAlignedDimension
 13
44.0
 23
10.0
 33
0.0
 14
35.6
 24
18.45
 34
0.0
100
AcDbRotatedDimension
1001
ACAD_DSTYLE_DIMINSPECT
1070
   396
1000
100%
1070
   395
1000

1070
   394
1070
    33
1070
   393
1070
     0
  0
LINE
  5
5198
330
1F
100
AcDbEntity
  8
1
 48
0.3
100
AcDbLine
 10
31.07705716952137
 20
-19.30519895493285
 30
0.0
 11
31.07705716952137
 21
8.33036237018473
 31
0.0
  0
ENDSEC
  0
SECTION
  2
OBJECTS
  0
DICTIONARY
  5
C
330
0
100
AcDbDictionary
281
     1
  3
ACAD_2007HEADERVARS_RT
350
520F
  3
ACAD_COLOR
350
2C3C
  3
ACAD_GROUP
350
D
  3
ACAD_LAYOUT
350
1A
  3
ACAD_MATERIAL
350
2C3B
  3
ACAD_MLEADERSTYLE
350
3BFB
  3
ACAD_MLINESTYLE
350
17
  3
ACAD_PLOTSETTINGS
350
19
  3
ACAD_PLOTSTYLENAME
350
E
  3
ACAD_SCALELIST
350
3BE9
  3
ACAD_TABLESTYLE
350
2C3D
  3
ACAD_VISUALSTYLE
350
3BD8
  3
ACDB_RECOMPOSE_DATA
350
442D
  3
AcDbVariableDictionary
350
216
  3
AcmDictionary
350
45
  3
AMG
350
41
  3
AMGSNAPSETTINGS
350
23D
  0
DICTIONARY
  5
519D
330
8
100
AcDbDictionary
280
     1
281
     1
  0
DICTIONARY
  5
4005
330
10
100
AcDbDictionary
280
     1
281
     1
  3
ADSK_XREC_LAYER_RECONCILED
360
4006
  0
DICTIONARY
  5
4007
330
1E30
100
AcDbDictionary
280
     1
281
     1
  3
ADSK_XREC_LAYER_RECONCILED
360
4008
  0
DICTIONARY
  5
4009
330
1E31
100
AcDbDictionary
280
     1
281
     1
  3
ADSK_XREC_LAYER_RECONCILED
360
400A
  0
DICTIONARY
  5
400B
330
1E32
100
AcDbDictionary
280
     1
281
     1
  3
ADSK_XREC_LAYER_RECONCILED
360
400C
  0
DICTIONARY
  5
400D
330
1E33
100
AcDbDictionary
280
     1
281
     1
  3
ADSK_XREC_LAYER_RECONCILED
360
400E
  0
DICTIONARY
  5
400F
330
1E34
100
AcDbDictionary
280
     1
281
     1
  3
ADSK_XREC_LAYER_RECONCILED
360
4010
  0
DICTIONARY
  5
4011
330
1E35
100
AcDbDictionary
280
     1
281
     1
  3
ADSK_XREC_LAYER_RECONCILED
360
4012
  0
DICTIONARY
  5
4013
330
1E36
100
AcDbDictionary
280
     1
281
     1
  3
ADSK_XREC_LAYER_RECONCILED
360
4014
  0
DICTIONARY
  5
4015
330
1E37
100
AcDbDictionary
280
     1
281
     1
  3
ADSK_XREC_LAYER_RECONCILED
360
4016
  0
DICTIONARY
  5
4017
330
1E38
100
AcDbDictionary
280
     1
281
     1
  3
ADSK_XREC_LAYER_RECONCILED
360
4018
  0
DICTIONARY
  5
4019
330
39B0
100
AcDbDictionary
280
     1
281
     1
  3
ADSK_XREC_LAYER_RECONCILED
360
401A
  0
DICTIONARY
  5
1F1
330
1F
100
AcDbDictionary
280
     1
281
     1
  3
ACAD_SORTENTS
360
2CC1
  0
DICTIONARY
  5
520F
102
{ACAD_REACTORS
330
C
102
}
330
C
100
AcDbDictionary
281
     1
  3
DIMARCSYM
350
5210
  0
DICTIONARY
  5
2C3C
102
{ACAD_REACTORS
330
C
102
}
330
C
100
AcDbDictionary
281
     1
  0
DICTIONARY
  5
D
102
{ACAD_REACTORS
330
C
102
}
330
C
100
AcDbDictionary
281
     1
  0
DICTIONARY
  5
1A
102
{ACAD_REACTORS
330
C
102
}
330
C
100
AcDbDictionary
281
     1
  3
Layout1
350
1E
  3
Layout2
350
26
  3
Model
350
22
  0
DICTIONARY
  5
2C3B
102
{ACAD_REACTORS
330
C
102
}
330
C
100
AcDbDictionary
281
     1
  3
ByBlock
350
3BC8
  3
ByLayer
350
3BC0
  3
Global
350
3BD0
  0
DICTIONARY
  5
3BFB
102
{ACAD_REACTORS
330
C
102
}
330
C
100
AcDbDictionary
281
     1
  3
Standard
350
3BFC
  0
DICTIONARY
  5
17
102
{ACAD_REACTORS
330
C
102
}
330
C
100
AcDbDictionary
281
     1
  3
Standard
350
18
  0
DICTIONARY
  5
19
102
{ACAD_REACTORS
330
C
102
}
330
C
100
AcDbDictionary
281
     1
  0
ACDBDICTIONARYWDFLT
  5
E
102
{ACAD_REACTORS
330
C
102
}
330
C
100
AcDbDictionary
281
     1
  3
Normal
350
F
100
AcDbDictionaryWithDefault
340
F
  0
DICTIONARY
  5
3BE9
102
{ACAD_REACTORS
330
C
102
}
330
C
100
AcDbDictionary
281
     1
  3
A0
350
3BEA
  3
A1
350
3BEB
  3
A2
350
3BEC
  3
A3
350
3BED
  3
A4
350
3BEE
  3
A5
350
3BEF
  3
A6
350
3BF0
  3
A7
350
3BF1
  3
A8
350
3BF2
  3
A9
350
3BF3
  3
B0
350
3BF4
  3
B1
350
3BF5
  3
B2
350
3BF6
  3
B3
350
3BF7
  3
B4
350
3BF8
  3
B5
350
3BF9
  3
B6
350
3BFA
  0
DICTIONARY
  5
2C3D
102
{ACAD_REACTORS
330
C
102
}
330
C
100
AcDbDictionary
281
     1
  3
Standard
350
2C3E
  0
DICTIONARY
  5
3BD8
102
{ACAD_REACTORS
330
C
102
}
330
C
100
AcDbDictionary
281
     1
  3
2dWireframe
350
3BDE
  3
3D Hidden
350
3BE0
  3
3dWireframe
350
3BDF
  3
Basic
350
3BDD
  3
Brighten
350
3BE4
  3
ColorChange
350
3BE8
  3
Conceptual
350
3BE1
  3
Dim
350
3BE3
  3
Facepattern
350
3BE7
  3
Flat
350
3BD9
  3
FlatWithEdges
350
3BDA
  3
Gouraud
350
3BDB
  3
GouraudWithEdges
350
3BDC
  3
Linepattern
350
3BE6
  3
Realistic
350
3BE2
  3
Thicken
350
3BE5
  0
XRECORD
  5
442D
102
{ACAD_REACTORS
330
C
102
}
330
C
100
AcDbXrecord
280
     1
 90
        1
330
2C3E
  0
DICTIONARY
  5
216
102
{ACAD_REACTORS
330
C
102
}
330
C
100
AcDbDictionary
281
     1
  3
CANNOSCALE
350
4430
  3
CMLEADERSTYLE
350
442E
  3
CTABLESTYLE
350
2CB1
  3
DIMASSOC
350
219
  3
HIDETEXT
350
218
  3
INDEXCTL
350
217
  3
LAYEREVAL
350
4432
  3
LAYERNOTIFY
350
4433
  3
LIGHTINGUNITS
350
4431
  3
MSLTSCALE
350
442F
  3
PROJECTNAME
350
2FE0
  0
DICTIONARY
  5
45
102
{ACAD_REACTORS
330
C
102
}
330
C
100
AcDbDictionary
281
     1
  3
AcmStdDictionary
350
4A
  3
AMDTSECTSYM_ARROWCOLOR
350
2C8C
  0
DICTIONARY
  5
41
102
{ACAD_REACTORS
330
C
102
}
330
C
100
AcDbDictionary
281
     1
  0
DICTIONARY
  5
23D
102
{ACAD_REACTORS
330
C
102
}
330
C
100
AcDbDictionary
281
     1
  0
XRECORD
  5
4006
102
{ACAD_REACTORS
330
4005
102
}
330
4005
100
AcDbXrecord
280
     1
290
     1
  0
XRECORD
  5
4008
102
{ACAD_REACTORS
330
4007
102
}
330
4007
100
AcDbXrecord
280
     1
290
     1
  0
XRECORD
  5
400A
102
{ACAD_REACTORS
330
4009
102
}
330
4009
100
AcDbXrecord
280
     1
290
     1
  0
XRECORD
  5
400C
102
{ACAD_REACTORS
330
400B
102
}
330
400B
100
AcDbXrecord
280
     1
290
     1
  0
XRECORD
  5
400E
102
{ACAD_REACTORS
330
400D
102
}
330
400D
100
AcDbXrecord
280
     1
290
     1
  0
XRECORD
  5
4010
102
{ACAD_REACTORS
330
400F
102
}
330
400F
100
AcDbXrecord
280
     1
290
     1
  0
XRECORD
  5
4012
102
{ACAD_REACTORS
330
4011
102
}
330
4011
100
AcDbXrecord
280
     1
290
     1
  0
XRECORD
  5
4014
102
{ACAD_REACTORS
330
4013
102
}
330
4013
100
AcDbXrecord
280
     1
290
     1
  0
XRECORD
  5
4016
102
{ACAD_REACTORS
330
4015
102
}
330
4015
100
AcDbXrecord
280
     1
290
     1
  0
XRECORD
  5
4018
102
{ACAD_REACTORS
330
4017
102
}
330
4017
100
AcDbXrecord
280
     1
290
     1
  0
XRECORD
  5
401A
102
{ACAD_REACTORS
330
4019
102
}
330
4019
100
AcDbXrecord
280
     1
290
     1
  0
SORTENTSTABLE
  5
2CC1
102
{ACAD_REACTORS
330
1F1
102
}
330
1F1
100
AcDbSortentsTable
330
1F
331
4D81
  5
4D84
331
4D94
  5
4D97
331
4D6C
  5
4D6F
331
4DA2
  5
4DA5
331
4D8D
  5
4D90
331
4C7A
  5
4C7A
331
4D65
  5
4D6A
331
4DC3
  5
4DC6
331
4C88
  5
4C8B
331
4C73
  5
4C73
331
4D86
  5
4D8B
331
4D99
  5
4D9C
331
4D71
  5
4D74
331
4CD9
  5
4D64
331
4C81
  5
4C81
331
4DA7
  5
4DAA
331
4DBA
  5
4DBF
331
4C7F
  5
4C7F
331
4D92
  5
4D95
331
4D6A
  5
4D69
331
4D7D
  5
4D81
331
4C8D
  5
4CD6
331
4DA0
  5
4DA3
331
4DB3
  5
4DBA
331
4C78
  5
4C78
331
4D8B
  5
4D8E
331
4D63
  5
4D66
331
4D9E
  5
4DA1
331
4DC1
  5
4DC4
331
4C86
  5
4C89
331
4DAC
  5
4DB1
331
4D84
  5
4D87
331
4DBF
  5
4DC3
331
4C71
  5
4C71
331
4D97
  5
4D9A
331
4D6F
  5
4D72
331
4DCD
  5
4DFF
331
4DA5
  5
4DA8
331
4C7D
  5
4C7D
331
4D90
  5
4D93
331
4DC6
  5
4DFE
331
4C8B
  5
4C98
331
4DB1
  5
4DB9
331
4C76
  5
4C76
331
4D9C
  5
4D9F
331
4D74
  5
4D7E
331
4C84
  5
4C87
331
4DAA
  5
4DAF
331
4D82
  5
4D85
331
4D95
  5
4D98
331
4D6D
  5
4D70
331
4E28
  5
4E28
331
4DA3
  5
4DA6
331
4C98
  5
4CD8
331
4C7B
  5
4C7B
331
4D8E
  5
4D91
331
4D66
  5
4D6C
331
4DC4
  5
4DCA
331
4C89
  5
4C8C
331
4DAF
  5
4DB3
331
4C74
  5
4C74
331
4D87
  5
4D8C
331
4D9A
  5
4D9D
331
4D72
  5
4D75
331
4C82
  5
4C82
331
4DA8
  5
4DAB
331
4DBB
  5
4DC1
331
4D80
  5
4D83
331
4D93
  5
4D96
331
4D6B
  5
4D6D
331
4D7E
  5
4D82
331
4DA1
  5
4DA4
331
4DB4
  5
4DBB
331
4D8C
  5
4D8F
331
4C79
  5
4C79
331
4D64
  5
4D68
331
4D9F
  5
4DA2
331
4DC2
  5
4DC5
331
4C87
  5
4C8A
331
4D85
  5
4D8A
331
4C72
  5
4C72
331
4D98
  5
4D9B
331
4D70
  5
4D73
331
4CD8
  5
4D63
331
4C80
  5
4C80
331
4DA6
  5
4DA9
331
4DB9
  5
4DBE
331
4C7E
  5
4C7E
331
4D91
  5
4D94
331
4D69
  5
4D67
331
4E7F
  5
4E7F
331
4C8C
  5
4CBF
331
4CBF
  5
4CD9
331
4C77
  5
4C77
331
4D8A
  5
4D8D
331
4D9D
  5
4DA0
331
4D62
  5
4D65
331
4D75
  5
4D80
331
4C85
  5
4C88
331
4DAB
  5
4DB0
331
4C70
  5
4C70
331
4D83
  5
4D86
331
4DBE
  5
4DC2
331
4D96
  5
4D99
331
4D6E
  5
4D71
331
4CD6
  5
4D62
331
4DA4
  5
4DA7
331
4C7C
  5
4C7C
331
4F2D
  5
4F2D
331
4D8F
  5
4D92
331
4D67
  5
4D6E
331
4DC5
  5
4DCD
331
4C8A
  5
4C8D
331
4DB0
  5
4DB4
331
4C75
  5
4C75
331
4D9B
  5
4D9E
331
4D73
  5
4D7D
331
4C83
  5
4C86
331
4DA9
  5
4DAC
  0
XRECORD
  5
5210
102
{ACAD_REACTORS
330
520F
102
}
330
520F
100
AcDbXrecord
280
     1
 70
     1
  0
LAYOUT
  5
1E
102
{ACAD_REACTORS
330
1A
102
}
330
1A
100
AcDbPlotSettings
  1

  2
HP DesignJet 220 (D/A1) by HP
  4

  6

 40
0.0
 41
0.0
 42
0.0
 43
0.0
 44
0.0
 45
0.0
 46
0.0
 47
0.0
 48
0.0
 49
0.0
140
0.0
141
0.0
142
1.0
143
1.0
 70
   688
 72
     0
 73
     0
 74
     5
  7
monochrome2.ctb
 75
    16
147
1.0
 76
     0
 77
     2
 78
   300
148
0.0
149
0.0
100
AcDbLayout
  1
Layout1
 70
     1
 71
     1
 10
0.0
 20
0.0
 11
420.0
 21
297.0
 12
0.0
 22
0.0
 32
0.0
 14
1.000000000000000E+20
 24
1.000000000000000E+20
 34
1.000000000000000E+20
 15
-1.000000000000000E+20
 25
-1.000000000000000E+20
 35
-1.000000000000000E+20
146
0.0
 13
0.0
 23
0.0
 33
0.0
 16
1.0
 26
0.0
 36
0.0
 17
0.0
 27
1.0
 37
0.0
 76
     0
330
1B
  0
LAYOUT
  5
26
102
{ACAD_REACTORS
330
1A
102
}
330
1A
100
AcDbPlotSettings
  1

  2
HP DesignJet 220 (D/A1) by HP
  4

  6

 40
0.0
 41
0.0
 42
0.0
 43
0.0
 44
0.0
 45
0.0
 46
0.0
 47
0.0
 48
0.0
 49
0.0
140
0.0
141
0.0
142
1.0
143
1.0
 70
   688
 72
     0
 73
     0
 74
     5
  7
monochrome2.ctb
 75
    16
147
1.0
 76
     0
 77
     2
 78
   300
148
0.0
149
0.0
100
AcDbLayout
  1
Layout2
 70
     1
 71
     2
 10
0.0
 20
0.0
 11
12.0
 21
9.0
 12
0.0
 22
0.0
 32
0.0
 14
0.0
 24
0.0
 34
0.0
 15
0.0
 25
0.0
 35
0.0
146
0.0
 13
0.0
 23
0.0
 33
0.0
 16
1.0
 26
0.0
 36
0.0
 17
0.0
 27
1.0
 37
0.0
 76
     0
330
23
  0
LAYOUT
  5
22
102
{ACAD_REACTORS
330
1A
102
}
330
1A
100
AcDbPlotSettings
  1

  2
HP DesignJet 220 (D/A1) by HP
  4

  6

 40
0.0
 41
0.0
 42
0.0
 43
0.0
 44
0.0
 45
0.0
 46
0.0
 47
0.0
 48
0.0
 49
0.0
140
0.0
141
0.0
142
1.0
143
1.0
 70
  1712
 72
     0
 73
     0
 74
     0
  7
monochrome2.ctb
 75
     0
147
1.0
 76
     0
 77
     2
 78
   300
148
0.0
149
0.0
100
AcDbLayout
  1
Model
 70
     1
 71
     0
 10
0.0
 20
0.0
 11
12.0
 21
9.0
 12
0.0
 22
0.0
 32
0.0
 14
0.0
 24
0.0
 34
0.0
 15
0.0
 25
0.0
 35
0.0
146
0.0
 13
0.0
 23
0.0
 33
0.0
 16
1.0
 26
0.0
 36
0.0
 17
0.0
 27
1.0
 37
0.0
 76
     0
330
1F
331
3BB6
  0
MATERIAL
  5
3BC8
102
{ACAD_XDICTIONARY
360
3BC9
102
}
102
{ACAD_REACTORS
330
2C3B
102
}
330
2C3B
100
AcDbMaterial
  1
ByBlock
 72
     0
 43
0.0008202099737533
 43
0.0
 43
0.0
 43
0.0
 43
0.0
 43
0.0008202099737533
 43
0.0
 43
0.0
 43
0.0
 43
0.0
 43
1.0
 43
0.0
 43
0.0
 43
0.0
 43
0.0
 43
1.0
 77
     0
 47
0.0008202099737533
 47
0.0
 47
0.0
 47
0.0
 47
0.0
 47
0.0008202099737533
 47
0.0
 47
0.0
 47
0.0
 47
0.0
 47
1.0
 47
0.0
 47
0.0
 47
0.0
 47
0.0
 47
1.0
171
     0
 49
0.0008202099737533
 49
0.0
 49
0.0
 49
0.0
 49
0.0
 49
0.0008202099737533
 49
0.0
 49
0.0
 49
0.0
 49
0.0
 49
1.0
 49
0.0
 49
0.0
 49
0.0
 49
0.0
 49
1.0
175
     0
142
0.0008202099737533
142
0.0
142
0.0
142
0.0
142
0.0
142
0.0008202099737533
142
0.0
142
0.0
142
0.0
142
0.0
142
1.0
142
0.0
142
0.0
142
0.0
142
0.0
142
1.0
179
     0
144
0.0008202099737533
144
0.0
144
0.0
144
0.0
144
0.0
144
0.0008202099737533
144
0.0
144
0.0
144
0.0
144
0.0
144
1.0
144
0.0
144
0.0
144
0.0
144
0.0
144
1.0
147
0.0008202099737533
147
0.0
147
0.0
147
0.0
147
0.0
147
0.0008202099737533
147
0.0
147
0.0
147
0.0
147
0.0
147
1.0
147
0.0
147
0.0
147
0.0
147
0.0
147
1.0
  0
MATERIAL
  5
3BC0
102
{ACAD_XDICTIONARY
360
3BC1
102
}
102
{ACAD_REACTORS
330
2C3B
102
}
330
2C3B
100
AcDbMaterial
  1
ByLayer
 72
     0
 43
0.0008202099737533
 43
0.0
 43
0.0
 43
0.0
 43
0.0
 43
0.0008202099737533
 43
0.0
 43
0.0
 43
0.0
 43
0.0
 43
1.0
 43
0.0
 43
0.0
 43
0.0
 43
0.0
 43
1.0
 77
     0
 47
0.0008202099737533
 47
0.0
 47
0.0
 47
0.0
 47
0.0
 47
0.0008202099737533
 47
0.0
 47
0.0
 47
0.0
 47
0.0
 47
1.0
 47
0.0
 47
0.0
 47
0.0
 47
0.0
 47
1.0
171
     0
 49
0.0008202099737533
 49
0.0
 49
0.0
 49
0.0
 49
0.0
 49
0.0008202099737533
 49
0.0
 49
0.0
 49
0.0
 49
0.0
 49
1.0
 49
0.0
 49
0.0
 49
0.0
 49
0.0
 49
1.0
175
     0
142
0.0008202099737533
142
0.0
142
0.0
142
0.0
142
0.0
142
0.0008202099737533
142
0.0
142
0.0
142
0.0
142
0.0
142
1.0
142
0.0
142
0.0
142
0.0
142
0.0
142
1.0
179
     0
144
0.0008202099737533
144
0.0
144
0.0
144
0.0
144
0.0
144
0.0008202099737533
144
0.0
144
0.0
144
0.0
144
0.0
144
1.0
144
0.0
144
0.0
144
0.0
144
0.0
144
1.0
147
0.0008202099737533
147
0.0
147
0.0
147
0.0
147
0.0
147
0.0008202099737533
147
0.0
147
0.0
147
0.0
147
0.0
147
1.0
147
0.0
147
0.0
147
0.0
147
0.0
147
1.0
  0
MATERIAL
  5
3BD0
102
{ACAD_XDICTIONARY
360
3BD1
102
}
102
{ACAD_REACTORS
330
2C3B
102
}
330
2C3B
100
AcDbMaterial
  1
Global
 72
     0
 43
0.0008202099737533
 43
0.0
 43
0.0
 43
0.0
 43
0.0
 43
0.0008202099737533
 43
0.0
 43
0.0
 43
0.0
 43
0.0
 43
1.0
 43
0.0
 43
0.0
 43
0.0
 43
0.0
 43
1.0
 77
     0
 47
0.0008202099737533
 47
0.0
 47
0.0
 47
0.0
 47
0.0
 47
0.0008202099737533
 47
0.0
 47
0.0
 47
0.0
 47
0.0
 47
1.0
 47
0.0
 47
0.0
 47
0.0
 47
0.0
 47
1.0
171
     0
 49
0.0008202099737533
 49
0.0
 49
0.0
 49
0.0
 49
0.0
 49
0.0008202099737533
 49
0.0
 49
0.0
 49
0.0
 49
0.0
 49
1.0
 49
0.0
 49
0.0
 49
0.0
 49
0.0
 49
1.0
175
     0
142
0.0008202099737533
142
0.0
142
0.0
142
0.0
142
0.0
142
0.0008202099737533
142
0.0
142
0.0
142
0.0
142
0.0
142
1.0
142
0.0
142
0.0
142
0.0
142
0.0
142
1.0
179
     0
144
0.0008202099737533
144
0.0
144
0.0
144
0.0
144
0.0
144
0.0008202099737533
144
0.0
144
0.0
144
0.0
144
0.0
144
1.0
144
0.0
144
0.0
144
0.0
144
0.0
144
1.0
147
0.0008202099737533
147
0.0
147
0.0
147
0.0
147
0.0
147
0.0008202099737533
147
0.0
147
0.0
147
0.0
147
0.0
147
1.0
147
0.0
147
0.0
147
0.0
147
0.0
147
1.0
  0
MLEADERSTYLE
  5
3BFC
102
{ACAD_REACTORS
330
3BFB
102
}
330
3BFB
100
AcDbMLeaderStyle
170
     2
171
     1
172
     0
 90
        2
 40
0.0
 41
0.0
173
     1
 91
-1056964608
340
14
 92
       -2
290
     1
 42
2.0
291
     1
 43
0.36
  3
Standard
 44
4.0
300

342
11
174
     1
178
     6
175
     1
176
     0
 93
-1056964608
 45
4.0
292
     0
297
     0
 46
4.0
 94
-1056964608
 47
1.0
 49
1.0
140
1.0
293
     1
141
0.0
294
     1
177
     0
142
1.0
295
     0
296
     0
143
0.125
1001
ACAD_MLEADERVER
1070
     2
  0
MLINESTYLE
  5
18
102
{ACAD_REACTORS
330
17
102
}
330
17
100
AcDbMlineStyle
  2
STANDARD
 70
     0
  3

 62
   256
 51
90.0
 52
90.0
 71
     2
 49
0.5
 62
   256
  6
BYLAYER
 49
-0.5
 62
   256
  6
BYLAYER
  0
ACDBPLACEHOLDER
  5
F
102
{ACAD_REACTORS
330
E
102
}
330
E
  0
SCALE
  5
3BEA
102
{ACAD_REACTORS
330
3BE9
102
}
330
3BE9
100
AcDbScale
 70
     0
300
1:1
140
1.0
141
1.0
290
     1
  0
SCALE
  5
3BEB
102
{ACAD_REACTORS
330
3BE9
102
}
330
3BE9
100
AcDbScale
 70
     0
300
1:2
140
1.0
141
2.0
290
     0
  0
SCALE
  5
3BEC
102
{ACAD_REACTORS
330
3BE9
102
}
330
3BE9
100
AcDbScale
 70
     0
300
1:4
140
1.0
141
4.0
290
     0
  0
SCALE
  5
3BED
102
{ACAD_REACTORS
330
3BE9
102
}
330
3BE9
100
AcDbScale
 70
     0
300
1:5
140
1.0
141
5.0
290
     0
  0
SCALE
  5
3BEE
102
{ACAD_REACTORS
330
3BE9
102
}
330
3BE9
100
AcDbScale
 70
     0
300
1:8
140
1.0
141
8.0
290
     0
  0
SCALE
  5
3BEF
102
{ACAD_REACTORS
330
3BE9
102
}
330
3BE9
100
AcDbScale
 70
     0
300
1:10
140
1.0
141
10.0
290
     0
  0
SCALE
  5
3BF0
102
{ACAD_REACTORS
330
3BE9
102
}
330
3BE9
100
AcDbScale
 70
     0
300
1:16
140
1.0
141
16.0
290
     0
  0
SCALE
  5
3BF1
102
{ACAD_REACTORS
330
3BE9
102
}
330
3BE9
100
AcDbScale
 70
     0
300
1:20
140
1.0
141
20.0
290
     0
  0
SCALE
  5
3BF2
102
{ACAD_REACTORS
330
3BE9
102
}
330
3BE9
100
AcDbScale
 70
     0
300
1:30
140
1.0
141
30.0
290
     0
  0
SCALE
  5
3BF3
102
{ACAD_REACTORS
330
3BE9
102
}
330
3BE9
100
AcDbScale
 70
     0
300
1:40
140
1.0
141
40.0
290
     0
  0
SCALE
  5
3BF4
102
{ACAD_REACTORS
330
3BE9
102
}
330
3BE9
100
AcDbScale
 70
     0
300
1:50
140
1.0
141
50.0
290
     0
  0
SCALE
  5
3BF5
102
{ACAD_REACTORS
330
3BE9
102
}
330
3BE9
100
AcDbScale
 70
     0
300
1:100
140
1.0
141
100.0
290
     0
  0
SCALE
  5
3BF6
102
{ACAD_REACTORS
330
3BE9
102
}
330
3BE9
100
AcDbScale
 70
     0
300
2:1
140
2.0
141
1.0
290
     0
  0
SCALE
  5
3BF7
102
{ACAD_REACTORS
330
3BE9
102
}
330
3BE9
100
AcDbScale
 70
     0
300
4:1
140
4.0
141
1.0
290
     0
  0
SCALE
  5
3BF8
102
{ACAD_REACTORS
330
3BE9
102
}
330
3BE9
100
AcDbScale
 70
     0
300
8:1
140
8.0
141
1.0
290
     0
  0
SCALE
  5
3BF9
102
{ACAD_REACTORS
330
3BE9
102
}
330
3BE9
100
AcDbScale
 70
     0
300
10:1
140
10.0
141
1.0
290
     0
  0
SCALE
  5
3BFA
102
{ACAD_REACTORS
330
3BE9
102
}
330
3BE9
100
AcDbScale
 70
     0
300
100:1
140
100.0
141
1.0
290
     0
  0
TABLESTYLE
  5
2C3E
102
{ACAD_XDICTIONARY
360
442B
102
}
102
{ACAD_REACTORS
330
2C3D
102
}
330
2C3D
100
AcDbTableStyle
  3
Standard
 70
     0
 71
     0
 40
1.5
 41
1.5
280
     0
281
     0
  7
STANDARD
140
4.5
170
     2
 62
     0
 63
     7
283
     0
274
    -2
284
     1
 64
     0
275
    -2
285
     1
 65
     0
276
    -2
286
     1
 66
     0
277
    -2
287
     1
 67
     0
278
    -2
288
     1
 68
     0
279
    -2
289
     1
 69
     0
  7
STANDARD
140
6.0
170
     5
 62
     0
 63
     7
283
     0
274
    -2
284
     1
 64
     0
275
    -2
285
     1
 65
     0
276
    -2
286
     1
 66
     0
277
    -2
287
     1
 67
     0
278
    -2
288
     1
 68
     0
279
    -2
289
     1
 69
     0
  7
STANDARD
140
4.5
170
     5
 62
     0
 63
     7
283
     0
274
    -2
284
     1
 64
     0
275
    -2
285
     1
 65
     0
276
    -2
286
     1
 66
     0
277
    -2
287
     1
 67
     0
278
    -2
288
     1
 68
     0
279
    -2
289
     1
 69
     0
  0
VISUALSTYLE
  5
3BDE
102
{ACAD_REACTORS
330
3BD8
102
}
330
3BD8
100
AcDbVisualStyle
  2
2dWireframe
 70
     4
 71
     0
 72
     2
 73
     0
 90
        0
 40
-0.6
 41
-30.0
 62
     5
 63
     7
421
 16777215
 74
     1
 91
        4
 64
     7
 65
   257
 75
     1
175
     1
 42
1.0
 92
        0
 66
   257
 43
1.0
 76
     1
 77
     6
 78
     2
 67
     7
 79
     5
170
     0
171
     0
290
     0
174
     0
 93
        1
 44
0.0
173
     0
291
     0
 45
0.0
1001
ACAD
1000
AcDbSavedByObjectVersion
1070
     0
  0
VISUALSTYLE
  5
3BE0
102
{ACAD_REACTORS
330
3BD8
102
}
330
3BD8
100
AcDbVisualStyle
  2
3D Hidden
 70
     6
 71
     1
 72
     2
 73
     2
 90
        0
 40
-0.6
 41
-30.0
 62
     5
 63
     7
421
 16777215
 74
     2
 91
        2
 64
     7
 65
   257
 75
     2
175
     1
 42
40.0
 92
        0
 66
   257
 43
1.0
 76
     1
 77
     6
 78
     2
 67
     7
 79
     3
170
     0
171
     0
290
     0
174
     0
 93
        1
 44
0.0
173
     0
291
     0
 45
0.0
1001
ACAD
1000
AcDbSavedByObjectVersion
1070
     0
  0
VISUALSTYLE
  5
3BDF
102
{ACAD_REACTORS
330
3BD8
102
}
330
3BD8
100
AcDbVisualStyle
  2
3dWireframe
 70
     5
 71
     0
 72
     2
 73
     0
 90
        0
 40
-0.6
 41
-30.0
 62
     5
 63
     7
421
 16777215
 74
     1
 91
        4
 64
     7
 65
   257
 75
     1
175
     1
 42
1.0
 92
        0
 66
   257
 43
1.0
 76
     1
 77
     6
 78
     2
 67
     7
 79
     5
170
     0
171
     0
290
     0
174
     0
 93
        1
 44
0.0
173
     0
291
     0
 45
0.0
1001
ACAD
1000
AcDbSavedByObjectVersion
1070
     0
  0
VISUALSTYLE
  5
3BDD
102
{ACAD_REACTORS
330
3BD8
102
}
330
3BD8
100
AcDbVisualStyle
  2
Basic
 70
     7
 71
     1
 72
     0
 73
     1
 90
        0
 40
-0.6
 41
-30.0
 62
     5
 63
     7
421
 16777215
 74
     0
 91
        4
 64
     7
 65
   257
 75
     1
175
     1
 42
1.0
 92
        8
 66
     7
 43
1.0
 76
     1
 77
     6
 78
     2
 67
     7
 79
     5
170
     0
171
     0
290
     0
174
     0
 93
        1
 44
0.0
173
     0
291
     1
 45
0.0
1001
ACAD
1000
AcDbSavedByObjectVersion
1070
     0
  0
VISUALSTYLE
  5
3BE4
102
{ACAD_REACTORS
330
3BD8
102
}
330
3BD8
100
AcDbVisualStyle
  2
Brighten
 70
    12
 71
     2
 72
     2
 73
     0
 90
        0
 40
-0.6
 41
-30.0
 62
     5
 63
     7
421
 16777215
 74
     1
 91
        4
 64
     7
 65
   257
 75
     1
175
     1
 42
1.0
 92
        8
 66
     7
 43
1.0
 76
     1
 77
     6
 78
     2
 67
     7
 79
     5
170
     0
171
     0
290
     0
174
     0
 93
        1
 44
50.0
173
     0
291
     1
 45
0.0
1001
ACAD
1000
AcDbSavedByObjectVersion
1070
     0
  0
VISUALSTYLE
  5
3BE8
102
{ACAD_REACTORS
330
3BD8
102
}
330
3BD8
100
AcDbVisualStyle
  2
ColorChange
 70
    16
 71
     2
 72
     2
 73
     3
 90
        0
 40
-0.6
 41
-30.0
 62
     5
 63
     8
421
  8421504
 74
     1
 91
        4
 64
     7
 65
   257
 75
     1
175
     1
 42
1.0
 92
        8
 66
     8
424
  8421504
 43
1.0
 76
     1
 77
     6
 78
     2
 67
     7
 79
     5
170
     0
171
     0
290
     0
174
     0
 93
        1
 44
0.0
173
     0
291
     1
 45
0.0
1001
ACAD
1000
AcDbSavedByObjectVersion
1070
     0
  0
VISUALSTYLE
  5
3BE1
102
{ACAD_REACTORS
330
3BD8
102
}
330
3BD8
100
AcDbVisualStyle
  2
Conceptual
 70
     9
 71
     3
 72
     2
 73
     0
 90
        0
 40
-0.6
 41
-30.0
 62
     5
 63
     7
421
 16777215
 74
     2
 91
        2
 64
     7
 65
   257
 75
     1
175
     1
 42
40.0
 92
        8
 66
     7
 43
1.0
 76
     1
 77
     6
 78
     2
 67
     7
 79
     3
170
     0
171
     0
290
     0
174
     0
 93
        1
 44
0.0
173
     0
291
     0
 45
0.0
1001
ACAD
1000
AcDbSavedByObjectVersion
1070
     0
  0
VISUALSTYLE
  5
3BE3
102
{ACAD_REACTORS
330
3BD8
102
}
330
3BD8
100
AcDbVisualStyle
  2
Dim
 70
    11
 71
     2
 72
     2
 73
     0
 90
        0
 40
-0.6
 41
-30.0
 62
     5
 63
     7
421
 16777215
 74
     1
 91
        4
 64
     7
 65
   257
 75
     1
175
     1
 42
1.0
 92
        8
 66
     7
 43
1.0
 76
     1
 77
     6
 78
     2
 67
     7
 79
     5
170
     0
171
     0
290
     0
174
     0
 93
        1
 44
-50.0
173
     0
291
     1
 45
0.0
1001
ACAD
1000
AcDbSavedByObjectVersion
1070
     0
  0
VISUALSTYLE
  5
3BE7
102
{ACAD_REACTORS
330
3BD8
102
}
330
3BD8
100
AcDbVisualStyle
  2
Facepattern
 70
    15
 71
     2
 72
     2
 73
     0
 90
        0
 40
-0.6
 41
-30.0
 62
     5
 63
     7
421
 16777215
 74
     1
 91
        4
 64
     7
 65
   257
 75
     1
175
     1
 42
1.0
 92
        8
 66
     7
 43
1.0
 76
     1
 77
     6
 78
     2
 67
     7
 79
     5
170
     0
171
     0
290
     0
174
     0
 93
        1
 44
0.0
173
     0
291
     1
 45
0.0
1001
ACAD
1000
AcDbSavedByObjectVersion
1070
     0
  0
VISUALSTYLE
  5
3BD9
102
{ACAD_REACTORS
330
3BD8
102
}
330
3BD8
100
AcDbVisualStyle
  2
Flat
 70
     0
 71
     2
 72
     1
 73
     1
 90
        2
 40
-0.6
 41
30.0
 62
     5
 63
     7
421
 16777215
 74
     0
 91
        4
 64
     7
 65
   257
 75
     1
175
     1
 42
1.0
 92
        8
 66
     7
 43
1.0
 76
     1
 77
     6
 78
     2
 67
     7
 79
     5
170
     0
171
     0
290
     0
174
     0
 93
       13
 44
0.0
173
     0
291
     1
 45
0.0
1001
ACAD
1000
AcDbSavedByObjectVersion
1070
     0
  0
VISUALSTYLE
  5
3BDA
102
{ACAD_REACTORS
330
3BD8
102
}
330
3BD8
100
AcDbVisualStyle
  2
FlatWithEdges
 70
     1
 71
     2
 72
     1
 73
     1
 90
        2
 40
-0.6
 41
30.0
 62
     5
 63
     7
421
 16777215
 74
     1
 91
        4
 64
     7
 65
   257
 75
     1
175
     1
 42
1.0
 92
        0
 66
   257
 43
1.0
 76
     1
 77
     6
 78
     2
 67
     7
 79
     5
170
     0
171
     0
290
     0
174
     0
 93
       13
 44
0.0
173
     0
291
     1
 45
0.0
1001
ACAD
1000
AcDbSavedByObjectVersion
1070
     0
  0
VISUALSTYLE
  5
3BDB
102
{ACAD_REACTORS
330
3BD8
102
}
330
3BD8
100
AcDbVisualStyle
  2
Gouraud
 70
     2
 71
     2
 72
     2
 73
     1
 90
        2
 40
-0.6
 41
30.0
 62
     5
 63
     7
421
 16777215
 74
     0
 91
        4
 64
     7
 65
   257
 75
     1
175
     1
 42
1.0
 92
        0
 66
     7
 43
1.0
 76
     1
 77
     6
 78
     2
 67
     7
 79
     5
170
     0
171
     0
290
     0
174
     0
 93
       13
 44
0.0
173
     0
291
     1
 45
0.0
1001
ACAD
1000
AcDbSavedByObjectVersion
1070
     0
  0
VISUALSTYLE
  5
3BDC
102
{ACAD_REACTORS
330
3BD8
102
}
330
3BD8
100
AcDbVisualStyle
  2
GouraudWithEdges
 70
     3
 71
     2
 72
     2
 73
     1
 90
        2
 40
-0.6
 41
30.0
 62
     5
 63
     7
421
 16777215
 74
     1
 91
        4
 64
     7
 65
   257
 75
     1
175
     1
 42
1.0
 92
        0
 66
   257
 43
1.0
 76
     1
 77
     6
 78
     2
 67
     7
 79
     5
170
     0
171
     0
290
     0
174
     0
 93
       13
 44
0.0
173
     0
291
     1
 45
0.0
1001
ACAD
1000
AcDbSavedByObjectVersion
1070
     0
  0
VISUALSTYLE
  5
3BE6
102
{ACAD_REACTORS
330
3BD8
102
}
330
3BD8
100
AcDbVisualStyle
  2
Linepattern
 70
    14
 71
     2
 72
     2
 73
     0
 90
        0
 40
-0.6
 41
-30.0
 62
     5
 63
     7
421
 16777215
 74
     1
 91
        4
 64
     7
 65
   257
 75
     7
175
     7
 42
1.0
 92
        8
 66
     7
 43
1.0
 76
     1
 77
     6
 78
     2
 67
     7
 79
     5
170
     0
171
     0
290
     0
174
     0
 93
        1
 44
0.0
173
     0
291
     1
 45
0.0
1001
ACAD
1000
AcDbSavedByObjectVersion
1070
     0
  0
VISUALSTYLE
  5
3BE2
102
{ACAD_REACTORS
330
3BD8
102
}
330
3BD8
100
AcDbVisualStyle
  2
Realistic
 70
     8
 71
     2
 72
     2
 73
     0
 90
        0
 40
-0.6
 41
-30.0
 62
     5
 63
     7
421
 16777215
 74
     1
 91
        0
 64
     7
 65
   257
 75
     1
175
     1
 42
1.0
 92
        8
 66
     8
424
  7895160
 43
1.0
 76
     1
 77
     6
 78
     2
 67
     7
 79
     5
170
     0
171
     0
290
     0
174
     0
 93
       13
 44
0.0
173
     0
291
     0
 45
0.0
1001
ACAD
1000
AcDbSavedByObjectVersion
1070
     0
  0
VISUALSTYLE
  5
3BE5
102
{ACAD_REACTORS
330
3BD8
102
}
330
3BD8
100
AcDbVisualStyle
  2
Thicken
 70
    13
 71
     2
 72
     2
 73
     0
 90
        0
 40
-0.6
 41
-30.0
 62
     5
 63
     7
421
 16777215
 74
     1
 91
        4
 64
     7
 65
   257
 75
     1
175
     1
 42
1.0
 92
       12
 66
     7
 43
1.0
 76
     1
 77
     6
 78
     2
 67
     7
 79
     5
170
     0
171
     0
290
     0
174
     0
 93
        1
 44
0.0
173
     0
291
     1
 45
0.0
1001
ACAD
1000
AcDbSavedByObjectVersion
1070
     0
  0
DICTIONARYVAR
  5
4430
102
{ACAD_REACTORS
330
216
102
}
330
216
100
DictionaryVariables
280
     0
  1
1:1
  0
DICTIONARYVAR
  5
442E
102
{ACAD_REACTORS
330
216
102
}
330
216
100
DictionaryVariables
280
     0
  1
STANDARD
  0
DICTIONARYVAR
  5
2CB1
102
{ACAD_REACTORS
330
216
102
}
330
216
100
DictionaryVariables
280
     0
  1
STANDARD
  0
DICTIONARYVAR
  5
219
102
{ACAD_REACTORS
330
216
102
}
330
216
100
DictionaryVariables
280
     0
  1
1
  0
DICTIONARYVAR
  5
218
102
{ACAD_REACTORS
330
216
102
}
330
216
100
DictionaryVariables
280
     0
  1
1
  0
DICTIONARYVAR
  5
217
102
{ACAD_REACTORS
330
216
102
}
330
216
100
DictionaryVariables
280
     0
  1
0
  0
DICTIONARYVAR
  5
4432
102
{ACAD_REACTORS
330
216
102
}
330
216
100
DictionaryVariables
280
     0
  1
1
  0
DICTIONARYVAR
  5
4433
102
{ACAD_REACTORS
330
216
102
}
330
216
100
DictionaryVariables
280
     0
  1
15
  0
DICTIONARYVAR
  5
4431
102
{ACAD_REACTORS
330
216
102
}
330
216
100
DictionaryVariables
280
     0
  1
0
  0
DICTIONARYVAR
  5
442F
102
{ACAD_REACTORS
330
216
102
}
330
216
100
DictionaryVariables
280
     0
  1
0
  0
DICTIONARYVAR
  5
2FE0
102
{ACAD_REACTORS
330
216
102
}
330
216
100
DictionaryVariables
280
     0
  1

  0
DICTIONARY
  5
4A
102
{ACAD_REACTORS
330
45
102
}
330
45
100
AcDbDictionary
281
     1
  0
XRECORD
  5
2C8C
102
{ACAD_REACTORS
330
45
102
}
330
45
100
AcDbXrecord
280
     1
 90
-1023410169
  0
DICTIONARY
  5
3BC9
330
3BC8
100
AcDbDictionary
280
     1
281
     1
  3
ACAD_XREC_ROUNDTRIP
360
5213
  3
BUMPTILE
360
3BCB
  3
DIFFUSETILE
360
3BCA
  3
OPACITYTILE
360
3BCE
  3
REFLECTIONTILE
360
3BCD
  3
REFRACTIONTILE
360
3BCF
  3
SPECULARTILE
360
3BCC
  0
DICTIONARY
  5
3BC1
330
3BC0
100
AcDbDictionary
280
     1
281
     1
  3
ACAD_XREC_ROUNDTRIP
360
5212
  3
BUMPTILE
360
3BC3
  3
DIFFUSETILE
360
3BC2
  3
OPACITYTILE
360
3BC6
  3
REFLECTIONTILE
360
3BC5
  3
REFRACTIONTILE
360
3BC7
  3
SPECULARTILE
360
3BC4
  0
DICTIONARY
  5
3BD1
330
3BD0
100
AcDbDictionary
280
     1
281
     1
  3
ACAD_XREC_ROUNDTRIP
360
5214
  3
BUMPTILE
360
3BD3
  3
DIFFUSETILE
360
3BD2
  3
OPACITYTILE
360
3BD6
  3
REFLECTIONTILE
360
3BD5
  3
REFRACTIONTILE
360
3BD7
  3
SPECULARTILE
360
3BD4
  0
DICTIONARY
  5
442B
330
2C3E
100
AcDbDictionary
280
     1
281
     1
  3
ACAD_ROUNDTRIP_2008_TABLESTYLE_CELLSTYLEMAP
360
520E
  3
ACAD_XREC_ROUNDTRIP
360
5211
  0
XRECORD
  5
5213
102
{ACAD_REACTORS
330
3BC9
102
}
330
3BC9
100
AcDbXrecord
280
     1
102
MATERIAL
148
0.0
149
0.0
149
0.0
 93
        0
 94
      127
282
     0
 72
     0
 77
     0
171
     0
175
     0
179
     0
273
     0
  0
XRECORD
  5
3BCB
102
{ACAD_REACTORS
330
3BC9
102
}
330
3BC9
100
AcDbXrecord
280
     1
270
     1
271
     1
  0
XRECORD
  5
3BCA
102
{ACAD_REACTORS
330
3BC9
102
}
330
3BC9
100
AcDbXrecord
280
     1
270
     1
271
     1
  0
XRECORD
  5
3BCE
102
{ACAD_REACTORS
330
3BC9
102
}
330
3BC9
100
AcDbXrecord
280
     1
270
     1
271
     1
  0
XRECORD
  5
3BCD
102
{ACAD_REACTORS
330
3BC9
102
}
330
3BC9
100
AcDbXrecord
280
     1
270
     1
271
     1
  0
XRECORD
  5
3BCF
102
{ACAD_REACTORS
330
3BC9
102
}
330
3BC9
100
AcDbXrecord
280
     1
270
     1
271
     1
  0
XRECORD
  5
3BCC
102
{ACAD_REACTORS
330
3BC9
102
}
330
3BC9
100
AcDbXrecord
280
     1
270
     1
271
     1
  0
XRECORD
  5
5212
102
{ACAD_REACTORS
330
3BC1
102
}
330
3BC1
100
AcDbXrecord
280
     1
102
MATERIAL
148
0.0
149
0.0
149
0.0
 93
        0
 94
      127
282
     0
 72
     0
 77
     0
171
     0
175
     0
179
     0
273
     0
  0
XRECORD
  5
3BC3
102
{ACAD_REACTORS
330
3BC1
102
}
330
3BC1
100
AcDbXrecord
280
     1
270
     1
271
     1
  0
XRECORD
  5
3BC2
102
{ACAD_REACTORS
330
3BC1
102
}
330
3BC1
100
AcDbXrecord
280
     1
270
     1
271
     1
  0
XRECORD
  5
3BC6
102
{ACAD_REACTORS
330
3BC1
102
}
330
3BC1
100
AcDbXrecord
280
     1
270
     1
271
     1
  0
XRECORD
  5
3BC5
102
{ACAD_REACTORS
330
3BC1
102
}
330
3BC1
100
AcDbXrecord
280
     1
270
     1
271
     1
  0
XRECORD
  5
3BC7
102
{ACAD_REACTORS
330
3BC1
102
}
330
3BC1
100
AcDbXrecord
280
     1
270
     1
271
     1
  0
XRECORD
  5
3BC4
102
{ACAD_REACTORS
330
3BC1
102
}
330
3BC1
100
AcDbXrecord
280
     1
270
     1
271
     1
  0
XRECORD
  5
5214
102
{ACAD_REACTORS
330
3BD1
102
}
330
3BD1
100
AcDbXrecord
280
     1
102
MATERIAL
148
0.0
149
0.0
149
0.0
 93
        0
 94
      127
282
     0
 72
     0
 77
     0
171
     0
175
     0
179
     0
273
     0
  0
XRECORD
  5
3BD3
102
{ACAD_REACTORS
330
3BD1
102
}
330
3BD1
100
AcDbXrecord
280
     1
270
     1
271
     1
  0
XRECORD
  5
3BD2
102
{ACAD_REACTORS
330
3BD1
102
}
330
3BD1
100
AcDbXrecord
280
     1
270
     1
271
     1
  0
XRECORD
  5
3BD6
102
{ACAD_REACTORS
330
3BD1
102
}
330
3BD1
100
AcDbXrecord
280
     1
270
     1
271
     1
  0
XRECORD
  5
3BD5
102
{ACAD_REACTORS
330
3BD1
102
}
330
3BD1
100
AcDbXrecord
280
     1
270
     1
271
     1
  0
XRECORD
  5
3BD7
102
{ACAD_REACTORS
330
3BD1
102
}
330
3BD1
100
AcDbXrecord
280
     1
270
     1
271
     1
  0
XRECORD
  5
3BD4
102
{ACAD_REACTORS
330
3BD1
102
}
330
3BD1
100
AcDbXrecord
280
     1
270
     1
271
     1
  0
CELLSTYLEMAP
  5
520E
102
{ACAD_REACTORS
330
442B
102
}
330
442B
100
AcDbCellStyleMap
 90
        3
300
CELLSTYLE
  1
TABLEFORMAT_BEGIN
 90
        5
170
     1
 91
        0
 92
    32768
 62
   257
 93
        1
300
CONTENTFORMAT
  1
CONTENTFORMAT_BEGIN
 90
        0
 91
        0
 92
        4
 93
        0
300

 40
0.0
140
1.0
 94
        5
 62
     0
340
11
144
6.0
309
CONTENTFORMAT_END
171
     1
301
MARGIN
  1
CELLMARGIN_BEGIN
 40
1.5
 40
1.5
 40
1.5
 40
1.5
 40
0.18
 40
0.18
309
CELLMARGIN_END
 94
        6
 95
        1
302
GRIDFORMAT
  1
GRIDFORMAT_BEGIN
 90
        0
 91
        1
 62
     0
 92
       -2
340
0
 93
        0
 40
0.045
309
GRIDFORMAT_END
 95
        2
302
GRIDFORMAT
  1
GRIDFORMAT_BEGIN
 90
        0
 91
        1
 62
     0
 92
       -2
340
0
 93
        0
 40
0.045
309
GRIDFORMAT_END
 95
        4
302
GRIDFORMAT
  1
GRIDFORMAT_BEGIN
 90
        0
 91
        1
 62
     0
 92
       -2
340
0
 93
        0
 40
0.045
309
GRIDFORMAT_END
 95
        8
302
GRIDFORMAT
  1
GRIDFORMAT_BEGIN
 90
        0
 91
        1
 62
     0
 92
       -2
340
0
 93
        0
 40
0.045
309
GRIDFORMAT_END
 95
       16
302
GRIDFORMAT
  1
GRIDFORMAT_BEGIN
 90
        0
 91
        1
 62
     0
 92
       -2
340
0
 93
        0
 40
0.045
309
GRIDFORMAT_END
 95
       32
302
GRIDFORMAT
  1
GRIDFORMAT_BEGIN
 90
        0
 91
        1
 62
     0
 92
       -2
340
0
 93
        0
 40
0.045
309
GRIDFORMAT_END
309
TABLEFORMAT_END
  1
CELLSTYLE_BEGIN
 90
        1
 91
        1
300
_TITLE
309
CELLSTYLE_END
300
CELLSTYLE
  1
TABLEFORMAT_BEGIN
 90
        5
170
     1
 91
        0
 92
        0
 62
   257
 93
        1
300
CONTENTFORMAT
  1
CONTENTFORMAT_BEGIN
 90
        0
 91
        0
 92
        4
 93
        0
300

 40
0.0
140
1.0
 94
        5
 62
     0
340
11
144
4.5
309
CONTENTFORMAT_END
171
     1
301
MARGIN
  1
CELLMARGIN_BEGIN
 40
1.5
 40
1.5
 40
1.5
 40
1.5
 40
0.18
 40
0.18
309
CELLMARGIN_END
 94
        6
 95
        1
302
GRIDFORMAT
  1
GRIDFORMAT_BEGIN
 90
        0
 91
        1
 62
     0
 92
       -2
340
0
 93
        0
 40
0.045
309
GRIDFORMAT_END
 95
        2
302
GRIDFORMAT
  1
GRIDFORMAT_BEGIN
 90
        0
 91
        1
 62
     0
 92
       -2
340
0
 93
        0
 40
0.045
309
GRIDFORMAT_END
 95
        4
302
GRIDFORMAT
  1
GRIDFORMAT_BEGIN
 90
        0
 91
        1
 62
     0
 92
       -2
340
0
 93
        0
 40
0.045
309
GRIDFORMAT_END
 95
        8
302
GRIDFORMAT
  1
GRIDFORMAT_BEGIN
 90
        0
 91
        1
 62
     0
 92
       -2
340
0
 93
        0
 40
0.045
309
GRIDFORMAT_END
 95
       16
302
GRIDFORMAT
  1
GRIDFORMAT_BEGIN
 90
        0
 91
        1
 62
     0
 92
       -2
340
0
 93
        0
 40
0.045
309
GRIDFORMAT_END
 95
       32
302
GRIDFORMAT
  1
GRIDFORMAT_BEGIN
 90
        0
 91
        1
 62
     0
 92
       -2
340
0
 93
        0
 40
0.045
309
GRIDFORMAT_END
309
TABLEFORMAT_END
  1
CELLSTYLE_BEGIN
 90
        2
 91
        1
300
_HEADER
309
CELLSTYLE_END
300
CELLSTYLE
  1
TABLEFORMAT_BEGIN
 90
        5
170
     1
 91
        0
 92
        0
 62
   257
 93
        1
300
CONTENTFORMAT
  1
CONTENTFORMAT_BEGIN
 90
        0
 91
        0
 92
        4
 93
        0
300

 40
0.0
140
1.0
 94
        2
 62
     0
340
11
144
4.5
309
CONTENTFORMAT_END
171
     1
301
MARGIN
  1
CELLMARGIN_BEGIN
 40
1.5
 40
1.5
 40
1.5
 40
1.5
 40
0.18
 40
0.18
309
CELLMARGIN_END
 94
        6
 95
        1
302
GRIDFORMAT
  1
GRIDFORMAT_BEGIN
 90
        0
 91
        1
 62
     0
 92
       -2
340
0
 93
        0
 40
0.045
309
GRIDFORMAT_END
 95
        2
302
GRIDFORMAT
  1
GRIDFORMAT_BEGIN
 90
        0
 91
        1
 62
     0
 92
       -2
340
0
 93
        0
 40
0.045
309
GRIDFORMAT_END
 95
        4
302
GRIDFORMAT
  1
GRIDFORMAT_BEGIN
 90
        0
 91
        1
 62
     0
 92
       -2
340
0
 93
        0
 40
0.045
309
GRIDFORMAT_END
 95
        8
302
GRIDFORMAT
  1
GRIDFORMAT_BEGIN
 90
        0
 91
        1
 62
     0
 92
       -2
340
0
 93
        0
 40
0.045
309
GRIDFORMAT_END
 95
       16
302
GRIDFORMAT
  1
GRIDFORMAT_BEGIN
 90
        0
 91
        1
 62
     0
 92
       -2
340
0
 93
        0
 40
0.045
309
GRIDFORMAT_END
 95
       32
302
GRIDFORMAT
  1
GRIDFORMAT_BEGIN
 90
        0
 91
        1
 62
     0
 92
       -2
340
0
 93
        0
 40
0.045
309
GRIDFORMAT_END
309
TABLEFORMAT_END
  1
CELLSTYLE_BEGIN
 90
        3
 91
        2
300
_DATA
309
CELLSTYLE_END
  0
XRECORD
  5
5211
102
{ACAD_REACTORS
330
442B
102
}
330
442B
100
AcDbXrecord
280
     1
102
ACAD_ROUNDTRIP_PRE2007_TABLESTYLE
 90
        4
 91
        0
  1

 92
        4
 93
        0
  2

 94
        4
 95
        0
  3

  0
ENDSEC
  0
EOF
