  0
SECTION
  2
HEADER
  9
$ACADVER
  1
AC1015
  9
$ACADMAINTVER
 70
    20
  9
$DWGCODEPAGE
  3
ANSI_1252
  9
$INSBASE
 10
0.0
 20
0.0
 30
0.0
  9
$EXTMIN
 10
-62.19944638405912
 20
-23.31371156697924
 30
-0.0015258207003583
  9
$EXTMAX
 10
62.92228284280168
 20
80.00698576489197
 30
0.0000000349246037
  9
$LIMMIN
 10
0.0
 20
0.0
  9
$LIMMAX
 10
210.0
 20
297.0
  9
$ORTHOMODE
 70
     0
  9
$REGENMODE
 70
     1
  9
$FILLMODE
 70
     1
  9
$QTEXTMODE
 70
     0
  9
$MIRRTEXT
 70
     1
  9
$LTSCALE
 40
1.0
  9
$ATTMODE
 70
     1
  9
$TEXTSIZE
 40
2.5
  9
$TRACEWID
 40
1.0
  9
$TEXTSTYLE
  7
STANDARD
  9
$CLAYER
  8
NOCUT
  9
$CELTYPE
  6
ByLayer
  9
$CECOLOR
 62
   256
  9
$CELTSCALE
 40
1.0
  9
$DISPSILH
 70
     0
  9
$DIMSCALE
 40
1.0
  9
$DIMASZ
 40
2.5
  9
$DIMEXO
 40
0.0
  9
$DIMDLI
 40
10.0
  9
$DIMRND
 40
0.0
  9
$DIMDLE
 40
0.0
  9
$DIMEXE
 40
1.0
  9
$DIMTP
 40
0.1
  9
$DIMTM
 40
0.1
  9
$DIMTXT
 40
3.5
  9
$DIMCEN
 40
0.0
  9
$DIMTSZ
 40
0.0
  9
$DIMTOL
 70
     0
  9
$DIMLIM
 70
     0
  9
$DIMTIH
 70
     0
  9
$DIMTOH
 70
     0
  9
$DIMSE1
 70
     0
  9
$DIMSE2
 70
     0
  9
$DIMTAD
 70
     1
  9
$DIMZIN
 70
     8
  9
$DIMBLK
  1

  9
$DIMASO
 70
     1
  9
$DIMSHO
 70
     1
  9
$DIMPOST
  1

  9
$DIMAPOST
  1
"
  9
$DIMALT
 70
     0
  9
$DIMALTD
 70
     2
  9
$DIMALTF
 40
0.0393701
  9
$DIMLFAC
 40
1.0
  9
$DIMTOFL
 70
     1
  9
$DIMTVP
 40
0.0
  9
$DIMTIX
 70
     0
  9
$DIMSOXD
 70
     0
  9
$DIMSAH
 70
     0
  9
$DIMBLK1
  1

  9
$DIMBLK2
  1

  9
$DIMSTYLE
  2
AM_DIN
  9
$DIMCLRD
 70
   256
  9
$DIMCLRE
 70
   256
  9
$DIMCLRT
 70
     2
  9
$DIMTFAC
 40
0.71
  9
$DIMGAP
 40
1.5
  9
$DIMJUST
 70
     0
  9
$DIMSD1
 70
     0
  9
$DIMSD2
 70
     0
  9
$DIMTOLJ
 70
     1
  9
$DIMTZIN
 70
     8
  9
$DIMALTZ
 70
     8
  9
$DIMALTTZ
 70
     8
  9
$DIMUPT
 70
     0
  9
$DIMDEC
 70
     1
  9
$DIMTDEC
 70
     2
  9
$DIMALTU
 70
     2
  9
$DIMALTTD
 70
     2
  9
$DIMTXSTY
  7
STANDARD
  9
$DIMAUNIT
 70
     0
  9
$DIMADEC
 70
     0
  9
$DIMALTRND
 40
0.0
  9
$DIMAZIN
 70
     0
  9
$DIMDSEP
 70
    46
  9
$DIMATFIT
 70
     3
  9
$DIMFRAC
 70
     0
  9
$DIMLDRBLK
  1

  9
$DIMLUNIT
 70
     2
  9
$DIMLWD
 70
    -2
  9
$DIMLWE
 70
    -2
  9
$DIMTMOVE
 70
     2
  9
$LUNITS
 70
     2
  9
$LUPREC
 70
     2
  9
$SKETCHINC
 40
1.0
  9
$FILLETRAD
 40
2.5
  9
$AUNITS
 70
     0
  9
$AUPREC
 70
     0
  9
$MENU
  1
.
  9
$ELEVATION
 40
0.0
  9
$PELEVATION
 40
0.0
  9
$THICKNESS
 40
0.0
  9
$LIMCHECK
 70
     0
  9
$CHAMFERA
 40
1.0
  9
$CHAMFERB
 40
1.0
  9
$CHAMFERC
 40
0.0
  9
$CHAMFERD
 40
0.0
  9
$SKPOLY
 70
     0
  9
$TDCREATE
 40
2453447.430070810
  9
$TDUCREATE
 40
2453447.388404144
  9
$TDUPDATE
 40
2454134.409291991
  9
$TDUUPDATE
 40
2454134.367625324
  9
$TDINDWG
 40
0.2549171759
  9
$TDUSRTIMER
 40
0.2548928356
  9
$USRTIMER
 70
     1
  9
$ANGBASE
 50
0.0
  9
$ANGDIR
 70
     0
  9
$PDMODE
 70
     0
  9
$PDSIZE
 40
0.0
  9
$PLINEWID
 40
0.0
  9
$SPLFRAME
 70
     0
  9
$SPLINETYPE
 70
     6
  9
$SPLINESEGS
 70
     8
  9
$HANDSEED
  5
9B2F
  9
$SURFTAB1
 70
     6
  9
$SURFTAB2
 70
     6
  9
$SURFTYPE
 70
     6
  9
$SURFU
 70
     6
  9
$SURFV
 70
     6
  9
$UCSBASE
  2

  9
$UCSNAME
  2

  9
$UCSORG
 10
0.0
 20
0.0
 30
0.0
  9
$UCSXDIR
 10
1.0
 20
0.0
 30
0.0
  9
$UCSYDIR
 10
0.0
 20
1.0
 30
0.0
  9
$UCSORTHOREF
  2

  9
$UCSORTHOVIEW
 70
     0
  9
$UCSORGTOP
 10
0.0
 20
0.0
 30
0.0
  9
$UCSORGBOTTOM
 10
0.0
 20
0.0
 30
0.0
  9
$UCSORGLEFT
 10
0.0
 20
0.0
 30
0.0
  9
$UCSORGRIGHT
 10
0.0
 20
0.0
 30
0.0
  9
$UCSORGFRONT
 10
0.0
 20
0.0
 30
0.0
  9
$UCSORGBACK
 10
0.0
 20
0.0
 30
0.0
  9
$PUCSBASE
  2

  9
$PUCSNAME
  2

  9
$PUCSORG
 10
0.0
 20
0.0
 30
0.0
  9
$PUCSXDIR
 10
1.0
 20
0.0
 30
0.0
  9
$PUCSYDIR
 10
0.0
 20
1.0
 30
0.0
  9
$PUCSORTHOREF
  2

  9
$PUCSORTHOVIEW
 70
     0
  9
$PUCSORGTOP
 10
0.0
 20
0.0
 30
0.0
  9
$PUCSORGBOTTOM
 10
0.0
 20
0.0
 30
0.0
  9
$PUCSORGLEFT
 10
0.0
 20
0.0
 30
0.0
  9
$PUCSORGRIGHT
 10
0.0
 20
0.0
 30
0.0
  9
$PUCSORGFRONT
 10
0.0
 20
0.0
 30
0.0
  9
$PUCSORGBACK
 10
0.0
 20
0.0
 30
0.0
  9
$USERI1
 70
     0
  9
$USERI2
 70
     0
  9
$USERI3
 70
     0
  9
$USERI4
 70
     0
  9
$USERI5
 70
     0
  9
$USERR1
 40
0.0
  9
$USERR2
 40
0.0
  9
$USERR3
 40
0.0
  9
$USERR4
 40
0.0
  9
$USERR5
 40
0.0
  9
$WORLDVIEW
 70
     1
  9
$SHADEDGE
 70
     3
  9
$SHADEDIF
 70
    70
  9
$TILEMODE
 70
     1
  9
$MAXACTVP
 70
    64
  9
$PINSBASE
 10
0.0
 20
0.0
 30
0.0
  9
$PLIMCHECK
 70
     0
  9
$PEXTMIN
 10
1.000000000000000E+20
 20
1.000000000000000E+20
 30
1.000000000000000E+20
  9
$PEXTMAX
 10
-1.000000000000000E+20
 20
-1.000000000000000E+20
 30
-1.000000000000000E+20
  9
$PLIMMIN
 10
0.0
 20
0.0
  9
$PLIMMAX
 10
420.0
 20
297.0
  9
$UNITMODE
 70
     0
  9
$VISRETAIN
 70
     1
  9
$PLINEGEN
 70
     0
  9
$PSLTSCALE
 70
     1
  9
$TREEDEPTH
 70
  3020
  9
$CMLSTYLE
  2
Standard
  9
$CMLJUST
 70
     0
  9
$CMLSCALE
 40
1.0
  9
$PROXYGRAPHICS
 70
     1
  9
$MEASUREMENT
 70
     1
  9
$CELWEIGHT
370
    -1
  9
$ENDCAPS
280
     0
  9
$JOINSTYLE
280
     0
  9
$LWDISPLAY
290
     0
  9
$INSUNITS
 70
     4
  9
$HYPERLINKBASE
  1

  9
$STYLESHEET
  1

  9
$XEDIT
290
     1
  9
$CEPSNTYPE
380
     0
  9
$PSTYLEMODE
290
     1
  9
$FINGERPRINTGUID
  2
{5E8163B8-4D8F-4110-B677-A6458ADDE735}
  9
$VERSIONGUID
  2
{8A3C6D1B-CA92-4F41-AE4D-F165C2B8D37C}
  9
$EXTNAMES
290
     1
  9
$PSVPSCALE
 40
0.0
  9
$OLESTARTUP
290
     0
  0
ENDSEC
  0
SECTION
  2
CLASSES
  0
CLASS
  1
ACDBDICTIONARYWDFLT
  2
AcDbDictionaryWithDefault
  3
ObjectDBX Classes
 90
        0
280
     0
281
     0
  0
CLASS
  1
ACDBPLACEHOLDER
  2
AcDbPlaceHolder
  3
ObjectDBX Classes
 90
        0
280
     0
281
     0
  0
CLASS
  1
LAYOUT
  2
AcDbLayout
  3
ObjectDBX Classes
 90
        0
280
     0
281
     0
  0
CLASS
  1
AMGSETTINGSOBJ
  2
AmgSettingsObj
  3
"AcadM|Product Description: AutoCAD Mechanical 2000|Company: Autodesk"
 90
        0
280
     0
281
     0
  0
CLASS
  1
ACME_DOCUMENT
  2
AcMeDbDoc
  3
AcMeServices
 90
        0
280
     0
281
     0
  0
CLASS
  1
ACMESCOPE
  2
AcMeScope
  3
AcMeServices
 90
        0
280
     0
281
     0
  0
CLASS
  1
ACMECOMMANDHISTORY
  2
AcMeCommandHistory
  3
AcMeServices
 90
        0
280
     0
281
     0
  0
CLASS
  1
ACIMSYSVARMAN
  2
AcImSysVarManager
  3
AcMeServices
 90
        0
280
     0
281
     0
  0
CLASS
  1
ACIMREALSYSVAR
  2
AcImRealSysVar
  3
AcMeServices
 90
        0
280
     0
281
     0
  0
CLASS
  1
ACIMINTSYSVAR
  2
AcImIntSysVar
  3
AcMeServices
 90
        0
280
     0
281
     0
  0
CLASS
  1
ACMEDRAWINGMAN
  2
AcMeDrawingMan
  3
AcMeServices
 90
        0
280
     0
281
     0
  0
CLASS
  1
ACMEVIEW
  2
AcMeView
  3
AcMeServices
 90
        0
280
     0
281
     0
  0
CLASS
  1
ACDBENTITYCACHE
  2
AcMeEntityCache
  3
AcMeServices
 90
        0
280
     0
281
     0
  0
CLASS
  1
GSMANAGER
  2
AcMeGSManager
  3
AcMeServices
 90
        0
280
     0
281
     0
  0
CLASS
  1
AMDTINTERNALREACTOR
  2
AmdtInternalReactor
  3
AcMeServices
 90
        0
280
     0
281
     0
  0
CLASS
  1
ACMESTATEMGR
  2
AcMeStateMgr
  3
AcMeServices
 90
        0
280
     0
281
     0
  0
CLASS
  1
ACGREFMASTER
  2
AcGrefMaster
  3
AcAttribServices
 90
        0
280
     0
281
     0
  0
CLASS
  1
ACME_DATABASE
  2
AcMeDbDatabase
  3
AcMeServices
 90
        0
280
     0
281
     0
  0
CLASS
  1
ACRFINSADJUSTERMGR
  2
AcRfInsAdjusterMgr
  3
AcMeServices
 90
        0
280
     0
281
     0
  0
CLASS
  1
ACGREFACADMASTER
  2
AcGrefacadMaster
  3
AcGrefServices
 90
        0
280
     0
281
     0
  0
CLASS
  1
AMIMASTER
  2
AmiMaster
  3
AmiServices
 90
        0
280
     0
281
     0
  0
CLASS
  1
ACMDATADICTIONARY
  2
AcmDataDictionary
  3
"AcmSymBB|Product Description: AutoCAD Mechanical 2004 DX|Company: Autodesk"
 90
        0
280
     0
281
     0
  0
CLASS
  1
ACMDATAENTRYBLOCK
  2
AcmDataEntryBlock
  3
"AcmSymBB|Product Description: AutoCAD Mechanical 2004 DX|Company: Autodesk"
 90
        0
280
     0
281
     0
  0
CLASS
  1
ACIMSTRSYSVAR
  2
AcImStrSysVar
  3
AcMeServices
 90
        0
280
     0
281
     0
  0
CLASS
  1
ACMSTANDARDANSI
  2
AcmStandardANSI
  3
"Amdt_StdImp|Product Description: AutoCAD Mechanical 2004 DX|Company: Autodesk"
 90
        0
280
     0
281
     0
  0
CLASS
  1
AMGOBJPROPCFG
  2
AmgObjPropCfg
  3
"AmgLay|Product Description: AutoCAD Mechanical 2000|Company: Autodesk"
 90
        1
280
     0
281
     0
  0
CLASS
  1
ACMSURFSTANDARDANSI
  2
AcmSurfTextStdANSI
  3
"Amdt_StdImp|Product Description: AutoCAD Mechanical 2004 DX|Company: Autodesk"
 90
        0
280
     0
281
     0
  0
CLASS
  1
ACMFCFSTANDARDANSI
  2
AcmFCFStdANSI
  3
"Amdt_StdImp|Product Description: AutoCAD Mechanical 2004 DX|Company: Autodesk"
 90
        0
280
     0
281
     0
  0
CLASS
  1
ACMWELDSTANDARDANSI
  2
AcmWeldingStdANSI
  3
"Amdt_StdImp|Product Description: AutoCAD Mechanical 2004 DX|Company: Autodesk"
 90
        0
280
     0
281
     0
  0
CLASS
  1
ACMIDSTANDARDANSI
  2
AcmIdStdANSI
  3
"Amdt_StdImp|Product Description: AutoCAD Mechanical 2004 DX|Company: Autodesk"
 90
        0
280
     0
281
     0
  0
CLASS
  1
ACMDATUMSTANDARDANSI
  2
AcmDatumStdANSI
  3
"Amdt_StdImp|Product Description: AutoCAD Mechanical 2004 DX|Company: Autodesk"
 90
        0
280
     0
281
     0
  0
CLASS
  1
ACMBOMSTANDARDANSI
  2
AcmBOMStdANSI
  3
"Amdt_StdImp|Product Description: AutoCAD Mechanical 2004 DX|Company: Autodesk"
 90
        0
280
     0
281
     0
  0
CLASS
  1
ACMDETAILSTANDARDANSI
  2
AmdtDetailSymStdANSI
  3
"Amdt_StdImp|Product Description: AutoCAD Mechanical 2004 DX|Company: Autodesk"
 90
        0
280
     0
281
     0
  0
CLASS
  1
ACMSECTIONSTANDARDANSI
  2
AmdtSectionSymStdANSI
  3
"Amdt_StdImp|Product Description: AutoCAD Mechanical 2004 DX|Company: Autodesk"
 90
        0
280
     0
281
     0
  0
CLASS
  1
ACMCENTERLINESTANDARDANSI
  2
AmdtCenterLineStdANSI
  3
"Amdt_StdImp|Product Description: AutoCAD Mechanical 2004 DX|Company: Autodesk"
 90
        0
280
     0
281
     0
  0
CLASS
  1
ACMNOTESTANDARDANSI
  2
AmdtNoteStdANSI
  3
"Amdt_StdImp|Product Description: AutoCAD Mechanical 2004 DX|Company: Autodesk"
 90
        0
280
     0
281
     0
  0
CLASS
  1
ACAMGLAYSTD
  2
AcAmgLayStd
  3
"AcAmgLayStd|Product Description: AutoCAD Mechanical 2000|Company: Autodesk"
 90
        0
280
     0
281
     0
  0
CLASS
  1
ACAMGDIMSTD
  2
AcAmgDimStd
  3
"AcAmgDimStd|Product Description: AutoCAD Mechanical 2000|Company: Autodesk"
 90
        0
280
     0
281
     0
  0
CLASS
  1
ACAMGHOLECHARTSTDANSI
  2
AcAmgHoleChartStdANSI
  3
ACMSYMBB_MODULE_NAME
 90
        0
280
     0
281
     0
  0
CLASS
  1
ACAMGTITLESTD
  2
AcAmgTitleStd
  3
"TITLEAPP"
 90
        0
280
     0
281
     0
  0
CLASS
  1
ACAMGFILTERDAT
  2
AcAmgFilterDat
  3
"AcadM|Product Description: AutoCAD Mechanical 2000|Company: Autodesk"
 90
        0
280
     0
281
     0
  0
CLASS
  1
LAYER_INDEX
  2
AcDbLayerIndex
  3
ObjectDBX Classes
 90
        0
280
     0
281
     0
  0
CLASS
  1
IDBUFFER
  2
AcDbIdBuffer
  3
ObjectDBX Classes
 90
        0
280
     0
281
     0
  0
CLASS
  1
DICTIONARYVAR
  2
AcDbDictionaryVar
  3
ObjectDBX Classes
 90
        0
280
     0
281
     0
  0
CLASS
  1
ACMSTANDARDDIN
  2
AcmStandardDIN
  3
"Amdt_StdImp|Product Description: AutoCAD Mechanical 2004 DX|Company: Autodesk"
 90
        0
280
     0
281
     0
  0
CLASS
  1
AMDTEDGESTANDARDDIN
  2
AmdtEdgeStdDIN
  3
"Amdt_StdImp|Product Description: AutoCAD Mechanical 2004 DX|Company: Autodesk"
 90
        0
280
     0
281
     0
  0
CLASS
  1
ACMSURFSTANDARDDIN
  2
AcmSurfTextStdDIN
  3
"Amdt_StdImp|Product Description: AutoCAD Mechanical 2004 DX|Company: Autodesk"
 90
        0
280
     0
281
     0
  0
CLASS
  1
ACMFCFSTANDARDDIN
  2
AcmFCFStdDIN
  3
"Amdt_StdImp|Product Description: AutoCAD Mechanical 2004 DX|Company: Autodesk"
 90
        0
280
     0
281
     0
  0
CLASS
  1
ACMWELDSTANDARDDIN
  2
AcmWeldingStdDIN
  3
"Amdt_StdImp|Product Description: AutoCAD Mechanical 2004 DX|Company: Autodesk"
 90
        0
280
     0
281
     0
  0
CLASS
  1
ACMIDSTANDARDDIN
  2
AcmIdStdDIN
  3
"Amdt_StdImp|Product Description: AutoCAD Mechanical 2004 DX|Company: Autodesk"
 90
        0
280
     0
281
     0
  0
CLASS
  1
ACMDATUMSTANDARDDIN
  2
AcmDatumStdDIN
  3
"Amdt_StdImp|Product Description: AutoCAD Mechanical 2004 DX|Company: Autodesk"
 90
        0
280
     0
281
     0
  0
CLASS
  1
ACMBOMSTANDARDDIN
  2
AcmBOMStdDIN
  3
"Amdt_StdImp|Product Description: AutoCAD Mechanical 2004 DX|Company: Autodesk"
 90
        0
280
     0
281
     0
  0
CLASS
  1
ACMDETAILSTANDARDDIN
  2
AmdtDetailSymStdDIN
  3
"Amdt_StdImp|Product Description: AutoCAD Mechanical 2004 DX|Company: Autodesk"
 90
        0
280
     0
281
     0
  0
CLASS
  1
ACMSECTIONSTANDARDDIN
  2
AmdtSectionSymStdDIN
  3
"Amdt_StdImp|Product Description: AutoCAD Mechanical 2004 DX|Company: Autodesk"
 90
        0
280
     0
281
     0
  0
CLASS
  1
ACMCENTERLINESTANDARDDIN
  2
AmdtCenterLineStdDIN
  3
"Amdt_StdImp|Product Description: AutoCAD Mechanical 2004 DX|Company: Autodesk"
 90
        0
280
     0
281
     0
  0
CLASS
  1
ACMNOTESTANDARDDIN
  2
AmdtNoteStdDIN
  3
"Amdt_StdImp|Product Description: AutoCAD Mechanical 2004 DX|Company: Autodesk"
 90
        0
280
     0
281
     0
  0
CLASS
  1
ACAMGHOLECHARTSTDDIN
  2
AcAmgHoleChartStdDIN
  3
ACMSYMBB_MODULE_NAME
 90
        0
280
     0
281
     0
  0
CLASS
  1
AMDTFORMULAUPDATEDISPATCHER
  2
AmdtFormulaUpdateDispatcher
  3
AcMeServices
 90
        0
280
     0
281
     0
  0
CLASS
  1
ACMSURFSYM
  2
AcmSurfaceTexture
  3
"AcmSymBB|Product Description: AutoCAD Mechanical 2004 DX|Company: Autodesk"
 90
    33791
280
     0
281
     1
  0
CLASS
  1
ACMDIMBREAKPERSREACTOR
  2
AcmDimBreakPersReactor
  3
amgDimApp().moduleName()
 90
    33791
280
     0
281
     0
  0
CLASS
  1
TABLESTYLE
  2
AcDbTableStyle
  3
ObjectDBX Classes
 90
     2047
280
     0
281
     0
  0
CLASS
  1
AM_DRAWING_MGR
  2
AcDmDwgMgr
  3
AcMechDwgViewMgmt
 90
        0
280
     0
281
     0
  0
CLASS
  1
AM_DWG_DOCUMENT
  2
AcDmDwgDocument
  3
AcMechDwgViewMgmt
 90
        0
280
     0
281
     0
  0
CLASS
  1
AM_DWG_SHEET
  2
AcDmSheet
  3
AcMechDwgViewMgmt
 90
        0
280
     0
281
     0
  0
CLASS
  1
AM_VIEWDIMPARMAP
  2
AcDmViewDimParMap
  3
AcMechDwgViewMgmt
 90
        0
280
     0
281
     0
  0
CLASS
  1
AM_DWGMGR_NAME
  2
AcDmDwgMgrName
  3
AcMechDwgViewMgmt
 90
        0
280
     0
281
     0
  0
CLASS
  1
AMDTMENUSTATEMGR
  2
AmdtMenuStateMgr
  3
McadcomServices
 90
        0
280
     0
281
     0
  0
CLASS
  1
AMDTMCOMMENUSTATE
  2
AmdtMcomMenuState
  3
McadcomServices
 90
        0
280
     0
281
     0
  0
CLASS
  1
MAPIAMMOUDLE
  2
MApiAmModule
  3
MApiAmServices
 90
        0
280
     0
281
     0
  0
CLASS
  1
AMDTADMENUSTATE
  2
AmdtAdMenuState
  3
DesignerServices
 90
        0
280
     0
281
     0
  0
CLASS
  1
ADAPPL
  2
AcAdAppl
  3
DesignerServices
 90
        0
280
     0
281
     0
  0
CLASS
  1
DEPMGR
  2
AcAdDepMgr
  3
DesignerServices
 90
        0
280
     0
281
     0
  0
CLASS
  1
PARAMMGR
  2
AcAdParamMgr
  3
DesignerServices
 90
        0
280
     0
281
     0
  0
CLASS
  1
PARAMSCOPE
  2
AcAdParamScope
  3
DesignerServices
 90
        0
280
     0
281
     0
  0
CLASS
  1
NAMEDAPPL
  2
AcAdNamedAppl
  3
DesignerServices
 90
        0
280
     0
281
     0
  0
CLASS
  1
AMDTDMMENUSTATE
  2
AmdtDmMenuState
  3
AcMechDwgViewMgmt
 90
        0
280
     0
281
     0
  0
CLASS
  1
AMDTAMMENUSTATE
  2
AmdtAmMenuState
  3
DesignerAssemblies
 90
        0
280
     0
281
     0
  0
CLASS
  1
ACAMPROJECT
  2
AcAmProject
  3
DesignerAssemblies
 90
        0
280
     0
281
     0
  0
CLASS
  1
ACAMGRCOMPDEF
  2
AcAmGrCompDef
  3
DesignerAssemblies
 90
        0
280
     0
281
     0
  0
CLASS
  1
ACCMCONTEXT
  2
AcCmContext
  3
DesignerAssemblies
 90
        0
280
     0
281
     0
  0
CLASS
  1
ACAMCOMPDEF
  2
AcAmCompDef
  3
DesignerAssemblies
 90
        0
280
     0
281
     0
  0
CLASS
  1
ACAMCOMPDEFMGR
  2
AcAmCompDefMgr
  3
DesignerAssemblies
 90
        0
280
     0
281
     0
  0
CLASS
  1
AMCONTEXTMGR
  2
AcAmContextMgr
  3
DesignerAssemblies
 90
        0
280
     0
281
     0
  0
CLASS
  1
ACAMCONTEXTMODELER
  2
AcAmContextModeler
  3
DesignerAssemblies
 90
        0
280
     0
281
     0
  0
CLASS
  1
ACMTHREADLINESTANDARDANSI
  2
AmdtThreadLineStdANSI
  3
"Amdt_StdImp|Product Description: AutoCAD Mechanical 2004 DX|Company: Autodesk"
 90
        0
280
     0
281
     0
  0
CLASS
  1
ACMTHREADLINESTANDARDDIN
  2
AmdtThreadLineStdDIN
  3
"Amdt_StdImp|Product Description: AutoCAD Mechanical 2004 DX|Company: Autodesk"
 90
        0
280
     0
281
     0
  0
CLASS
  1
CATALOGSTATE
  2
AcAmCatalogState
  3
DesignerAssemblies
 90
        0
280
     0
281
     0
  0
CLASS
  1
ACAMGRCOMPDEFSET
  2
AcAmGrCompDefSet
  3
DesignerAssemblies
 90
        0
280
     0
281
     0
  0
CLASS
  1
AMDTBROWSERDBTAB
  2
AmdtBrowserDbTab
  3
McadcomServices
 90
        0
280
     0
281
     0
  0
CLASS
  1
CBROWSERAPPOBJECT
  2
CBrowserAppObject
  3
McadcomServices
 90
        0
280
     0
281
     0
  0
CLASS
  1
DM_PLACEHOLDER
  2
AcDmSelsetPlaceholder
  3
AcMechDwgViewMgmt
 90
        0
280
     0
281
     0
  0
ENDSEC
  0
SECTION
  2
TABLES
  0
TABLE
  2
VPORT
  5
6A1E
330
0
100
AcDbSymbolTable
 70
    51
  0
VPORT
  5
9B28
330
6A1E
100
AcDbSymbolTableRecord
100
AcDbViewportTableRecord
  2
*Active
 70
     0
 10
0.0
 20
0.0
 11
1.0
 21
1.0
 12
73.90027680797047
 22
136.8431442165104
 13
0.0
 23
0.0
 14
2.5
 24
2.5
 15
10.0
 25
10.0
 16
0.0
 26
0.0
 36
1.0
 17
0.0
 27
0.0
 37
0.0
 40
324.0455217988275
 41
1.80544747081712
 42
50.0
 43
0.0
 44
0.0
 50
0.0
 51
0.0
 71
     0
 72
 10000
 73
     1
 74
     3
 75
     0
 76
     0
 77
     0
 78
     0
281
     0
 65
     1
110
0.0
120
0.0
130
0.0
111
1.0
121
0.0
131
0.0
112
0.0
122
1.0
132
0.0
 79
     0
146
0.0
  0
ENDTAB
  0
TABLE
  2
LTYPE
  5
6A1B
330
0
100
AcDbSymbolTable
 70
    17
  0
LTYPE
  5
6A29
330
6A1B
100
AcDbSymbolTableRecord
100
AcDbLinetypeTableRecord
  2
ByBlock
 70
     0
  3

 72
    65
 73
     0
 40
0.0
  0
LTYPE
  5
6A2A
330
6A1B
100
AcDbSymbolTableRecord
100
AcDbLinetypeTableRecord
  2
ByLayer
 70
     0
  3

 72
    65
 73
     0
 40
0.0
  0
LTYPE
  5
6A2B
330
6A1B
100
AcDbSymbolTableRecord
100
AcDbLinetypeTableRecord
  2
CONTINUOUS
 70
     0
  3
Solid line
 72
    65
 73
     0
 40
0.0
  0
LTYPE
  5
6A39
330
6A1B
100
AcDbSymbolTableRecord
100
AcDbLinetypeTableRecord
  2
AMCONSTR
 70
     0
  3
_______________________
 72
    65
 73
     2
 40
9999.0
 49
9999.0
 74
     0
 49
0.0
 74
     0
  0
LTYPE
  5
6A43
330
6A1B
100
AcDbSymbolTableRecord
100
AcDbLinetypeTableRecord
  2
CENTER
 70
     0
  3
__ . __
 72
    65
 73
     4
 40
7.0
 49
4.0
 74
     0
 49
-1.0
 74
     0
 49
1.0
 74
     0
 49
-1.0
 74
     0
  0
LTYPE
  5
6A45
330
6A1B
100
AcDbSymbolTableRecord
100
AcDbLinetypeTableRecord
  2
PHANTOM2
 70
     0
  3
Phantom (.5x) ___ _ _ ___ _ _ ___ _ _ ___ _ _
 72
    65
 73
     6
 40
1.25
 49
0.625
 74
     0
 49
-0.125
 74
     0
 49
0.125
 74
     0
 49
-0.125
 74
     0
 49
0.125
 74
     0
 49
-0.125
 74
     0
  0
LTYPE
  5
6A46
330
6A1B
100
AcDbSymbolTableRecord
100
AcDbLinetypeTableRecord
  2
ACANSTGB
 70
     0
  3
__ . . __ . .
 72
    65
 73
     6
 40
0.35433070866
 49
0.15748031496
 74
     0
 49
-0.03937007874
 74
     0
 49
0.03937007874
 74
     0
 49
-0.03937007874
 74
     0
 49
0.03937007874
 74
     0
 49
-0.03937007874
 74
     0
  0
LTYPE
  5
6A47
330
6A1B
100
AcDbSymbolTableRecord
100
AcDbLinetypeTableRecord
  2
ACANSTGL
 70
     0
  3
_ _ _ _ _
 72
    65
 73
     2
 40
0.11811023622
 49
0.07874015748
 74
     0
 49
-0.03937007874
 74
     0
  0
LTYPE
  5
6D97
330
6A1B
100
AcDbSymbolTableRecord
100
AcDbLinetypeTableRecord
  2
ACDINWELD
 70
     0
  3
_ _ _ _ _
 72
    65
 73
     2
 40
2.0
 49
2.0
 74
     0
 49
-1.0
 74
     0
  0
LTYPE
  5
6D98
330
6A1B
100
AcDbSymbolTableRecord
100
AcDbLinetypeTableRecord
  2
ACDINTGB
 70
     0
  3
__ . . __ . .
 72
    65
 73
     6
 40
9.0
 49
4.0
 74
     0
 49
-1.0
 74
     0
 49
1.0
 74
     0
 49
-1.0
 74
     0
 49
1.0
 74
     0
 49
-1.0
 74
     0
  0
LTYPE
  5
6D99
330
6A1B
100
AcDbSymbolTableRecord
100
AcDbLinetypeTableRecord
  2
ACDINTGL
 70
     0
  3
_ _ _ _ _
 72
    65
 73
     2
 40
3.0
 49
2.0
 74
     0
 49
-1.0
 74
     0
  0
LTYPE
  5
8543
330
6A1B
100
AcDbSymbolTableRecord
100
AcDbLinetypeTableRecord
  2
Amzigzag
 70
     0
  3
/\/-/\/-/\/-/\/-/\/-/\/
 72
    65
 73
     2
 40
11.0001
 49
0.0001
 74
     4
 75
   135
340
6A5B
 46
0.04
 50
0.0
 44
0.0
 45
0.0
 49
-11.0
 74
     0
  0
LTYPE
  5
8544
330
6A1B
100
AcDbSymbolTableRecord
100
AcDbLinetypeTableRecord
  2
AM_DIN_F_W050
 70
     0
  3
__ __ __ __ __ __ __ __ __ __ __ __ __ __ __
 72
    65
 73
     2
 40
6.25
 49
4.75
 74
     0
 49
-1.5
 74
     0
  0
LTYPE
  5
8545
330
6A1B
100
AcDbSymbolTableRecord
100
AcDbLinetypeTableRecord
  2
AM_DIN_G_W050
 70
     0
  3
____ . ____ . ____ . ____ . ____ . ____ . ____
 72
    65
 73
     4
 40
13.75
 49
9.75
 74
     0
 49
-1.5
 74
     0
 49
1.0
 74
     0
 49
-1.5
 74
     0
  0
LTYPE
  5
8546
330
6A1B
100
AcDbSymbolTableRecord
100
AcDbLinetypeTableRecord
  2
AM_DIN_K_W050
 70
     0
  3
_____ . . _____ . . _____ . . ____ .. ____
 72
    65
 73
     6
 40
16.25
 49
9.75
 74
     0
 49
-1.5
 74
     0
 49
1.0
 74
     0
 49
-1.5
 74
     0
 49
1.0
 74
     0
 49
-1.5
 74
     0
  0
LTYPE
  5
8547
330
6A1B
100
AcDbSymbolTableRecord
100
AcDbLinetypeTableRecord
  2
AM_DIN_G_W050x2
 70
     0
  3
__ . __ . __ . __ . __ . __
 72
    65
 73
     4
 40
6.875
 49
4.75
 74
     0
 49
-0.875
 74
     0
 49
0.375
 74
     0
 49
-0.875
 74
     0
  0
LTYPE
  5
8548
330
6A1B
100
AcDbSymbolTableRecord
100
AcDbLinetypeTableRecord
  2
AM_DIN_F_W050x2
 70
     0
  3
 _ _ _ _ _ _ _ _ _ _ _ _
 72
    65
 73
     2
 40
3.125
 49
2.25
 74
     0
 49
-0.875
 74
     0
  0
LTYPE
  5
8C3D
330
6A1B
100
AcDbSymbolTableRecord
100
AcDbLinetypeTableRecord
  2
DASHED
 70
     0
  3
__ __ __ __ __ __ __ __ __ __ __ __ __ __ __ __
 72
    65
 73
     2
 40
19.05
 49
12.7
 74
     0
 49
-6.349999999999998
 74
     0
  0
LTYPE
  5
9950
330
6A1B
100
AcDbSymbolTableRecord
100
AcDbLinetypeTableRecord
  2
HIDDEN
 70
     0
  3
Verdeckt
 72
    65
 73
     2
 40
9.525
 49
6.349999999999999
 74
     0
 49
-3.174999999999999
 74
     0
  0
ENDTAB
  0
TABLE
  2
LAYER
  5
6A18
330
0
100
AcDbSymbolTable
 70
    13
  0
LAYER
  5
6A26
330
6A18
100
AcDbSymbolTableRecord
100
AcDbLayerTableRecord
  2
0
 70
     0
 62
     7
  6
CONTINUOUS
370
    -3
390
6A25
  0
LAYER
  5
6A4B
330
6A18
100
AcDbSymbolTableRecord
100
AcDbLayerTableRecord
  2
DEFPOINTS
 70
     0
 62
     7
  6
CONTINUOUS
290
     0
370
    -3
390
6A25
  0
LAYER
  5
6A4C
330
6A18
100
AcDbSymbolTableRecord
100
AcDbLayerTableRecord
  2
1
 70
     0
 62
     4
  6
CONTINUOUS
370
    -3
390
6A25
  0
LAYER
  5
6A4D
330
6A18
100
AcDbSymbolTableRecord
100
AcDbLayerTableRecord
  2
2
 70
     0
 62
     7
  6
CONTINUOUS
370
    -3
390
6A25
  0
LAYER
  5
6A4F
330
6A18
100
AcDbSymbolTableRecord
100
AcDbLayerTableRecord
  2
4
 70
     0
 62
     2
  6
CENTER
370
    -3
390
6A25
  0
LAYER
  5
6A50
330
6A18
100
AcDbSymbolTableRecord
100
AcDbLayerTableRecord
  2
6
 70
     0
 62
     5
  6
CONTINUOUS
370
    -3
390
6A25
  0
LAYER
  5
6A53
330
6A18
100
AcDbSymbolTableRecord
100
AcDbLayerTableRecord
  2
SK1
 70
     0
 62
     4
  6
CONTINUOUS
370
    -3
390
6A25
  0
LAYER
  5
6A56
330
6A18
100
AcDbSymbolTableRecord
100
AcDbLayerTableRecord
  2
SK4
 70
     0
 62
     2
  6
CENTER
370
    -3
390
6A25
  0
LAYER
  5
6A57
330
6A18
100
AcDbSymbolTableRecord
100
AcDbLayerTableRecord
  2
CUT
 70
     0
 62
     1
  6
CONTINUOUS
370
    -3
390
6A25
  0
LAYER
  5
6A58
330
6A18
100
AcDbSymbolTableRecord
100
AcDbLayerTableRecord
  2
NOCUT
 70
     0
 62
     7
  6
CONTINUOUS
370
    -3
390
6A25
  0
LAYER
  5
8C3E
330
6A18
100
AcDbSymbolTableRecord
100
AcDbLayerTableRecord
  2
SK3
 70
     0
 62
     1
  6
DASHED
370
    -3
390
6A25
  0
LAYER
  5
91F8
330
6A18
100
AcDbSymbolTableRecord
100
AcDbLayerTableRecord
  2
SK2
 70
     0
 62
     7
  6
CONTINUOUS
370
    -3
390
6A25
  0
LAYER
  5
9A70
330
6A18
100
AcDbSymbolTableRecord
100
AcDbLayerTableRecord
  2
AM_5
 70
     0
 62
     3
  6
CONTINUOUS
370
    25
390
6A25
1001
AcAecLayerStandard
1000

1000

  0
ENDTAB
  0
TABLE
  2
STYLE
  5
6A19
330
0
100
AcDbSymbolTable
 70
     6
  0
STYLE
  5
6A27
330
6A19
100
AcDbSymbolTableRecord
100
AcDbTextStyleTableRecord
  2
STANDARD
 70
     0
 40
0.0
 41
1.0
 50
0.0
 71
     0
 42
2.5
  3
ISOCP.SHX
  4

  0
STYLE
  5
6A5B
330
6A19
100
AcDbSymbolTableRecord
100
AcDbTextStyleTableRecord
  2

 70
     1
 40
0.0
 41
1.0
 50
0.0
 71
     0
 42
2.5
  3
ltypeshp.shx
  4

  0
STYLE
  5
6A5E
330
6A19
100
AcDbSymbolTableRecord
100
AcDbTextStyleTableRecord
  2
ACANSTS
 70
     0
 40
1.0
 41
1.0
 50
0.0
 71
     0
 42
0.2
  3
romans.shx
  4

  0
STYLE
  5
6A5F
330
6A19
100
AcDbSymbolTableRecord
100
AcDbTextStyleTableRecord
  2
ACANSGDT
 70
     0
 40
0.0
 41
1.0
 50
0.0
 71
     0
 42
0.2
  3
amgdtans.shx
  4

  0
STYLE
  5
6D9A
330
6A19
100
AcDbSymbolTableRecord
100
AcDbTextStyleTableRecord
  2
ACDINTS
 70
     0
 40
1.0
 41
1.0
 50
0.0
 71
     0
 42
2.5
  3
isocp.shx
  4

  0
STYLE
  5
6D9B
330
6A19
100
AcDbSymbolTableRecord
100
AcDbTextStyleTableRecord
  2
ACDINGDT
 70
     0
 40
0.0
 41
1.0
 50
0.0
 71
     0
 42
2.5
  3
amgdt.shx
  4

  0
ENDTAB
  0
TABLE
  2
VIEW
  5
6A1C
330
0
100
AcDbSymbolTable
 70
     6
  0
VIEW
  5
6A60
330
6A1C
100
AcDbSymbolTableRecord
100
AcDbViewTableRecord
  2
AM_VIEW1
 70
     0
 40
148.5
 10
131.508173076923
 20
222.75
 41
263.0163461538461
 11
0.0
 21
0.0
 31
1.0
 12
0.0
 22
0.0
 32
0.0
 42
50.0
 43
0.0
 44
0.0
 50
0.0
 71
    16
281
     0
 72
     0
  0
VIEW
  5
6A61
330
6A1C
100
AcDbSymbolTableRecord
100
AcDbViewTableRecord
  2
AM_VIEW2
 70
     0
 40
148.5
 10
78.4918269230769
 20
222.75
 41
263.0163461538461
 11
0.0
 21
0.0
 31
1.0
 12
0.0
 22
0.0
 32
0.0
 42
50.0
 43
0.0
 44
0.0
 50
0.0
 71
    16
281
     0
 72
     0
  0
VIEW
  5
6A62
330
6A1C
100
AcDbSymbolTableRecord
100
AcDbViewTableRecord
  2
AM_VIEW3
 70
     0
 40
148.5
 10
131.508173076923
 20
74.25
 41
263.0163461538461
 11
0.0
 21
0.0
 31
1.0
 12
0.0
 22
0.0
 32
0.0
 42
50.0
 43
0.0
 44
0.0
 50
0.0
 71
    16
281
     0
 72
     0
  0
VIEW
  5
6A63
330
6A1C
100
AcDbSymbolTableRecord
100
AcDbViewTableRecord
  2
AM_VIEW4
 70
     0
 40
148.5
 10
78.4918269230769
 20
74.25
 41
263.0163461538461
 11
0.0
 21
0.0
 31
1.0
 12
0.0
 22
0.0
 32
0.0
 42
50.0
 43
0.0
 44
0.0
 50
0.0
 71
    16
281
     0
 72
     0
  0
VIEW
  5
6A64
330
6A1C
100
AcDbSymbolTableRecord
100
AcDbViewTableRecord
  2
AM_VIEW5
 70
     0
 40
148.5
 10
105.0
 20
148.5
 41
263.0163461538461
 11
0.0
 21
0.0
 31
1.0
 12
0.0
 22
0.0
 32
0.0
 42
50.0
 43
0.0
 44
0.0
 50
0.0
 71
    16
281
     0
 72
     0
  0
VIEW
  5
6A65
330
6A1C
100
AcDbSymbolTableRecord
100
AcDbViewTableRecord
  2
AM_VIEW6
 70
     0
 40
296.9970299999999
 10
105.0
 20
148.5
 41
526.0274319807693
 11
0.0
 21
0.0
 31
1.0
 12
0.0
 22
0.0
 32
0.0
 42
50.0
 43
0.0
 44
0.0
 50
0.0
 71
    16
281
     0
 72
     0
  0
ENDTAB
  0
TABLE
  2
UCS
  5
6A1D
330
0
100
AcDbSymbolTable
 70
     0
  0
ENDTAB
  0
TABLE
  2
APPID
  5
6A1F
330
0
100
AcDbSymbolTable
 70
    45
  0
APPID
  5
6A28
330
6A1F
100
AcDbSymbolTableRecord
100
AcDbRegAppTableRecord
  2
ACAD
 70
     0
  0
APPID
  5
6A66
330
6A1F
100
AcDbSymbolTableRecord
100
AcDbRegAppTableRecord
  2
MCAD_NO_VIS
 70
     0
  0
APPID
  5
6A67
330
6A1F
100
AcDbSymbolTableRecord
100
AcDbRegAppTableRecord
  2
ACAD_TEMP_GRAPHIC
 70
     0
  0
APPID
  5
6A68
330
6A1F
100
AcDbSymbolTableRecord
100
AcDbRegAppTableRecord
  2
ACATTRIBSERVICES
 70
     0
  0
APPID
  5
6A69
330
6A1F
100
AcDbSymbolTableRecord
100
AcDbRegAppTableRecord
  2
GENIUS_GENDIMSH_14
 70
     0
  0
APPID
  5
6A6A
330
6A1F
100
AcDbSymbolTableRecord
100
AcDbRegAppTableRecord
  2
GENIUS_GENBLLY_14
 70
     0
  0
APPID
  5
6A6B
330
6A1F
100
AcDbSymbolTableRecord
100
AcDbRegAppTableRecord
  2
GENIUS_GENTRA_14
 70
     0
  0
APPID
  5
6A6C
330
6A1F
100
AcDbSymbolTableRecord
100
AcDbRegAppTableRecord
  2
GENIUS_GENODEF_13
 70
     0
  0
APPID
  5
6A6D
330
6A1F
100
AcDbSymbolTableRecord
100
AcDbRegAppTableRecord
  2
GENIUS_GENOLIS_13
 70
     0
  0
APPID
  5
6A6E
330
6A1F
100
AcDbSymbolTableRecord
100
AcDbRegAppTableRecord
  2
GENIUS_GENOENT_13
 70
     0
  0
APPID
  5
6A6F
330
6A1F
100
AcDbSymbolTableRecord
100
AcDbRegAppTableRecord
  2
GENIUS_GENOBJ-N-TIT_13
 70
     0
  0
APPID
  5
6A70
330
6A1F
100
AcDbSymbolTableRecord
100
AcDbRegAppTableRecord
  2
GENIUS_GENTITLE_13
 70
     0
  0
APPID
  5
6A71
330
6A1F
100
AcDbSymbolTableRecord
100
AcDbRegAppTableRecord
  2
GENIUS_GENOREF_13
 70
     0
  0
APPID
  5
6A72
330
6A1F
100
AcDbSymbolTableRecord
100
AcDbRegAppTableRecord
  2
GENIUS_GENSCREG_15
 70
     0
  0
APPID
  5
6A73
330
6A1F
100
AcDbSymbolTableRecord
100
AcDbRegAppTableRecord
  2
GENIUS_GENOBJ-N-SDF_13
 70
     0
  0
APPID
  5
6A74
330
6A1F
100
AcDbSymbolTableRecord
100
AcDbRegAppTableRecord
  2
ACADIGES
 70
     0
  0
APPID
  5
6A75
330
6A1F
100
AcDbSymbolTableRecord
100
AcDbRegAppTableRecord
  2
GENIUS_GENOBJ-N-HTC_13
 70
     0
  0
APPID
  5
6A76
330
6A1F
100
AcDbSymbolTableRecord
100
AcDbRegAppTableRecord
  2
GENIUS_GENHATCH_13
 70
     0
  0
APPID
  5
6DA2
330
6A1F
100
AcDbSymbolTableRecord
100
AcDbRegAppTableRecord
  2
GENIUS_GENOBJ-N-CRS_13
 70
     0
  0
APPID
  5
6DA3
330
6A1F
100
AcDbSymbolTableRecord
100
AcDbRegAppTableRecord
  2
GENIUS_GENOBJ-N-FIL_13
 70
     0
  0
APPID
  5
6DD2
330
6A1F
100
AcDbSymbolTableRecord
100
AcDbRegAppTableRecord
  2
GENIUS_GENFIL_13
 70
     0
  0
APPID
  5
6DD3
330
6A1F
100
AcDbSymbolTableRecord
100
AcDbRegAppTableRecord
  2
GENIUS_GENOBJ-N-CHA_13
 70
     0
  0
APPID
  5
7FA8
330
6A1F
100
AcDbSymbolTableRecord
100
AcDbRegAppTableRecord
  2
GENIUS12
 70
     0
  0
APPID
  5
7FA9
330
6A1F
100
AcDbSymbolTableRecord
100
AcDbRegAppTableRecord
  2
GENIUS_GENCFG_13
 70
     0
  0
APPID
  5
7FAA
330
6A1F
100
AcDbSymbolTableRecord
100
AcDbRegAppTableRecord
  2
GENIUS_GEFCFG0_13
 70
     0
  0
APPID
  5
7FAB
330
6A1F
100
AcDbSymbolTableRecord
100
AcDbRegAppTableRecord
  2
GENIUS_GENCFG0_13
 70
     0
  0
APPID
  5
7FAC
330
6A1F
100
AcDbSymbolTableRecord
100
AcDbRegAppTableRecord
  2
GENIUS_GENCFG1_13
 70
     0
  0
APPID
  5
7FAD
330
6A1F
100
AcDbSymbolTableRecord
100
AcDbRegAppTableRecord
  2
GENIUS_GENCFG2_13
 70
     0
  0
APPID
  5
7FAE
330
6A1F
100
AcDbSymbolTableRecord
100
AcDbRegAppTableRecord
  2
GENIUS_GENCFG3_13
 70
     0
  0
APPID
  5
7FAF
330
6A1F
100
AcDbSymbolTableRecord
100
AcDbRegAppTableRecord
  2
GENIUS_GENCFG4_13
 70
     0
  0
APPID
  5
7FB0
330
6A1F
100
AcDbSymbolTableRecord
100
AcDbRegAppTableRecord
  2
GENIUS_GEVCFG0_13
 70
     0
  0
APPID
  5
7FB1
330
6A1F
100
AcDbSymbolTableRecord
100
AcDbRegAppTableRecord
  2
GENIUS_GENOBJ-F-SUF_13
 70
     0
  0
APPID
  5
7FB2
330
6A1F
100
AcDbSymbolTableRecord
100
AcDbRegAppTableRecord
  2
GENIUS_GENDIM_13
 70
     0
  0
APPID
  5
7FB3
330
6A1F
100
AcDbSymbolTableRecord
100
AcDbRegAppTableRecord
  2
GENIUS_GENDTOL_13
 70
     0
  0
APPID
  5
7FB4
330
6A1F
100
AcDbSymbolTableRecord
100
AcDbRegAppTableRecord
  2
GENIUS_GE3DTOL_13
 70
     0
  0
APPID
  5
7FB5
330
6A1F
100
AcDbSymbolTableRecord
100
AcDbRegAppTableRecord
  2
AD_DRAW
 70
     0
  0
APPID
  5
7FB6
330
6A1F
100
AcDbSymbolTableRecord
100
AcDbRegAppTableRecord
  2
ASURF_PCURVE_APPNAME
 70
     0
  0
APPID
  5
7FB7
330
6A1F
100
AcDbSymbolTableRecord
100
AcDbRegAppTableRecord
  2
AMG_3D2D_5.0
 70
     0
  0
APPID
  5
7FB8
330
6A1F
100
AcDbSymbolTableRecord
100
AcDbRegAppTableRecord
  2
DESIGNERASSEMBLIES
 70
     0
  0
APPID
  5
7FB9
330
6A1F
100
AcDbSymbolTableRecord
100
AcDbRegAppTableRecord
  2
ACADM_DIM_EDIT
 70
     0
  0
APPID
  5
7FBA
330
6A1F
100
AcDbSymbolTableRecord
100
AcDbRegAppTableRecord
  2
AMDT_DM_ADJ
 70
     0
  0
APPID
  5
85F3
330
6A1F
100
AcDbSymbolTableRecord
100
AcDbRegAppTableRecord
  2
GENIUS_GENOBJ-N-CEN_13
 70
     0
  0
APPID
  5
9971
330
6A1F
100
AcDbSymbolTableRecord
100
AcDbRegAppTableRecord
  2
ACAD_DSTYLE_DIMARC_LENGTH_SYMBOL
 70
     0
  0
APPID
  5
9972
330
6A1F
100
AcDbSymbolTableRecord
100
AcDbRegAppTableRecord
  2
ACAD_DSTYLE_DIMJOGGED_JOGANGLE_SYMBOL
 70
     0
  0
APPID
  5
9A71
330
6A1F
100
AcDbSymbolTableRecord
100
AcDbRegAppTableRecord
  2
AcAecLayerStandard
 70
     0
  0
ENDTAB
  0
TABLE
  2
DIMSTYLE
  5
6A20
330
0
100
AcDbSymbolTable
 70
    15
100
AcDbDimStyleTable
 71
     2
340
6A77
340
6A7F
  0
DIMSTYLE
105
6A77
102
{ACAD_REACTORS
330
90ED
330
94DC
330
9798
330
97FD
330
989D
102
}
330
6A20
100
AcDbSymbolTableRecord
100
AcDbDimStyleTableRecord
  2
AM_DIN
 70
     0
  4
"
 41
2.5
 42
0.0
 43
10.0
 44
1.0
 47
0.1
 48
0.1
 73
     0
 74
     0
 77
     1
 78
     8
140
3.5
141
0.0
143
0.0393701
146
0.71
147
1.5
172
     1
176
   256
177
   256
178
     2
271
     2
272
     2
279
     2
284
     8
285
     8
286
     8
340
6A27
1001
ACAD_DSTYLE_DIMARC_LENGTH_SYMBOL
1070
   379
1070
     0
1001
ACAD_DSTYLE_DIMJOGGED_JOGANGLE_SYMBOL
1070
   384
1040
1.570796326794896
  0
DIMSTYLE
105
6A7E
330
6A20
100
AcDbSymbolTableRecord
100
AcDbDimStyleTableRecord
  2
STANDARD
 70
     0
271
     2
272
     2
279
     2
284
     8
285
     8
286
     8
340
6A27
  0
DIMSTYLE
105
6A7F
330
6A20
100
AcDbSymbolTableRecord
100
AcDbDimStyleTableRecord
  2
AM_ANSI
 70
     0
  4
mm
 41
0.1
 42
0.05
 43
0.5
 44
0.1
 47
0.1
 48
0.1
 78
     7
140
0.12
141
0.0
146
0.71
147
0.06
176
   256
177
   256
178
     2
271
     2
272
     2
279
     2
284
     8
285
     8
286
     8
340
6A27
1001
ACAD_DSTYLE_DIMARC_LENGTH_SYMBOL
1070
   379
1070
     1
1001
ACAD_DSTYLE_DIMJOGGED_JOGANGLE_SYMBOL
1070
   384
1040
0.7853981633974483
  0
DIMSTYLE
105
6A80
330
6A20
100
AcDbSymbolTableRecord
100
AcDbDimStyleTableRecord
  2
AM_ANSI$3
 70
     0
  4
mm
 41
0.1
 42
0.05
 43
0.5
 44
0.1
 47
0.1
 48
0.1
 78
     7
140
0.12
141
0.0
146
0.71
147
0.06
176
   256
177
   256
178
     2
271
     2
272
     2
279
     2
284
     8
285
     8
286
     8
340
6A27
1001
ACAD_DSTYLE_DIMARC_LENGTH_SYMBOL
1070
   379
1070
     1
1001
ACAD_DSTYLE_DIMJOGGED_JOGANGLE_SYMBOL
1070
   384
1040
0.7853981633974483
  0
DIMSTYLE
105
6A81
330
6A20
100
AcDbSymbolTableRecord
100
AcDbDimStyleTableRecord
  2
AM_ANSI$4
 70
     0
  4
mm
 41
0.1
 42
0.05
 43
0.5
 44
0.1
 47
0.1
 48
0.1
 78
     7
140
0.12
141
0.0
146
0.71
147
0.06
176
   256
177
   256
178
     2
271
     2
272
     2
279
     2
284
     8
285
     8
286
     8
340
6A27
1001
ACAD_DSTYLE_DIMARC_LENGTH_SYMBOL
1070
   379
1070
     1
1001
ACAD_DSTYLE_DIMJOGGED_JOGANGLE_SYMBOL
1070
   384
1040
0.7853981633974483
  0
DIMSTYLE
105
6A82
330
6A20
100
AcDbSymbolTableRecord
100
AcDbDimStyleTableRecord
  2
AM_ANSI$7
 70
     0
  4
mm
 41
0.1
 42
0.05
 43
0.5
 44
0.1
 47
0.1
 48
0.1
 78
     7
140
0.24
141
0.0
146
0.71
147
0.06
176
   256
177
   256
178
     2
271
     2
272
     2
279
     2
284
     8
285
     8
286
     8
340
6A27
1001
ACAD_DSTYLE_DIMARC_LENGTH_SYMBOL
1070
   379
1070
     1
1001
ACAD_DSTYLE_DIMJOGGED_JOGANGLE_SYMBOL
1070
   384
1040
0.7853981633974483
  0
DIMSTYLE
105
6A83
330
6A20
100
AcDbSymbolTableRecord
100
AcDbDimStyleTableRecord
  2
AM_ANSI$SF
 70
     0
  4
mm
 41
0.1
 42
0.05
 43
0.5
 44
0.1
 47
0.1
 48
0.1
 75
     1
 76
     1
 78
     7
140
0.12
141
0.0
146
0.71
147
0.06
176
   256
177
   256
178
     2
271
     2
272
     2
279
     2
284
     8
285
     8
286
     8
340
6A27
1001
ACAD_DSTYLE_DIMARC_LENGTH_SYMBOL
1070
   379
1070
     1
1001
ACAD_DSTYLE_DIMJOGGED_JOGANGLE_SYMBOL
1070
   384
1040
0.7853981633974483
  0
DIMSTYLE
105
6A84
330
6A20
100
AcDbSymbolTableRecord
100
AcDbDimStyleTableRecord
  2
AM_ANSI$SH
 70
     0
  4
mm
 41
0.1
 42
0.05
 43
0.5
 44
0.1
 47
0.1
 48
0.1
 75
     1
 76
     1
 78
     7
140
0.12
141
0.0
146
0.71
147
0.06
173
     1
176
   256
177
   256
178
     2
271
     2
272
     2
279
     2
284
     8
285
     8
286
     8
340
6A27
1001
ACAD_DSTYLE_DIMARC_LENGTH_SYMBOL
1070
   379
1070
     1
1001
ACAD_DSTYLE_DIMJOGGED_JOGANGLE_SYMBOL
1070
   384
1040
0.7853981633974483
  0
DIMSTYLE
105
6D9C
330
6A20
100
AcDbSymbolTableRecord
100
AcDbDimStyleTableRecord
  2
AM_DIN$3
 70
     0
  4
"
 41
3.5
 42
0.0
 43
10.0
 44
1.0
 47
0.1
 48
0.1
 73
     0
 77
     1
 78
     8
 79
     2
140
3.5
141
0.0
143
0.0393701
146
0.71
147
1.5
176
   256
177
   256
178
     2
271
     2
272
     2
283
     0
284
     8
288
     1
289
     0
340
6A27
371
    -1
372
    -1
1001
ACAD_DSTYLE_DIMARC_LENGTH_SYMBOL
1070
   379
1070
     0
1001
ACAD_DSTYLE_DIMJOGGED_JOGANGLE_SYMBOL
1070
   384
1040
1.570796326794896
  0
DIMSTYLE
105
6D9D
330
6A20
100
AcDbSymbolTableRecord
100
AcDbDimStyleTableRecord
  2
AM_DIN$4
 70
     0
  4
"
 41
3.5
 42
0.0
 43
10.0
 44
1.0
 47
0.1
 48
0.1
 73
     0
 77
     1
 78
     8
 79
     2
140
3.5
141
0.0
143
0.0393701
146
0.71
147
1.5
176
   256
177
   256
178
     2
271
     2
272
     2
283
     0
284
     8
288
     1
289
     0
340
6A27
371
    -1
372
    -1
1001
ACAD_DSTYLE_DIMARC_LENGTH_SYMBOL
1070
   379
1070
     0
1001
ACAD_DSTYLE_DIMJOGGED_JOGANGLE_SYMBOL
1070
   384
1040
1.570796326794896
  0
DIMSTYLE
105
6D9E
330
6A20
100
AcDbSymbolTableRecord
100
AcDbDimStyleTableRecord
  2
AM_DIN$6
 70
     0
  4
"
 41
3.5
 42
0.0
 43
0.0
 44
1.0
 47
0.1
 48
0.1
 73
     0
 74
     0
 78
     8
 79
     2
140
3.5
141
0.0
143
0.0393701
146
0.71
147
1.5
172
     1
176
   256
177
   256
178
     2
271
     2
272
     2
283
     0
284
     8
340
6A27
371
    -1
372
    -1
1001
ACAD_DSTYLE_DIMARC_LENGTH_SYMBOL
1070
   379
1070
     0
1001
ACAD_DSTYLE_DIMJOGGED_JOGANGLE_SYMBOL
1070
   384
1040
1.570796326794896
  0
DIMSTYLE
105
6D9F
330
6A20
100
AcDbSymbolTableRecord
100
AcDbDimStyleTableRecord
  2
AM_DIN$7
 70
     0
  4
"
 41
3.5
 42
0.0
 43
10.0
 44
1.0
 47
0.1
 48
0.1
 73
     0
 74
     0
 77
     1
 78
     8
 79
     2
140
3.5
141
0.0
143
0.0393701
146
0.71
147
1.5
172
     1
176
   256
177
   256
178
     2
271
     2
272
     2
283
     0
284
     8
340
6A27
371
    -1
372
    -1
1001
ACAD_DSTYLE_DIMARC_LENGTH_SYMBOL
1070
   379
1070
     0
1001
ACAD_DSTYLE_DIMJOGGED_JOGANGLE_SYMBOL
1070
   384
1040
1.570796326794896
  0
DIMSTYLE
105
6DA0
330
6A20
100
AcDbSymbolTableRecord
100
AcDbDimStyleTableRecord
  2
AM_DIN$SF
 70
     0
  4
"
 41
2.5
 42
1.0
 43
10.0
 44
1.0
 47
0.1
 48
0.1
 73
     0
 74
     0
 75
     1
 76
     1
 77
     1
 78
     8
 79
     2
140
3.5
141
0.0
143
0.0393701
146
0.71
147
1.5
172
     1
176
   256
177
   256
178
     2
271
     2
272
     3
274
     4
283
     0
284
     8
340
6A27
371
    -1
372
    -1
1001
ACAD_DSTYLE_DIMARC_LENGTH_SYMBOL
1070
   379
1070
     0
1001
ACAD_DSTYLE_DIMJOGGED_JOGANGLE_SYMBOL
1070
   384
1040
1.570796326794896
  0
DIMSTYLE
105
6DA1
330
6A20
100
AcDbSymbolTableRecord
100
AcDbDimStyleTableRecord
  2
AM_DIN$SH
 70
     0
  4
"
 41
2.5
 42
1.0
 43
10.0
 44
1.0
 47
0.1
 48
0.1
 73
     0
 74
     0
 75
     1
 76
     1
 77
     1
 78
     8
 79
     2
140
3.5
141
0.0
143
0.0393701
144
2.0
146
0.71
147
1.5
172
     1
173
     1
176
   256
177
   256
178
     2
271
     2
272
     3
274
     4
283
     0
284
     8
340
6A27
343
6D93
371
    -1
372
    -1
1001
ACAD_DSTYLE_DIMARC_LENGTH_SYMBOL
1070
   379
1070
     0
1001
ACAD_DSTYLE_DIMJOGGED_JOGANGLE_SYMBOL
1070
   384
1040
1.570796326794896
  0
DIMSTYLE
105
9A7D
102
{ACAD_REACTORS
330
90ED
330
94AA
330
94DC
330
958D
330
9798
330
97FD
330
989D
330
9A81
330
9AB9
102
}
330
6A20
100
AcDbSymbolTableRecord
100
AcDbDimStyleTableRecord
  2
AM_DIN$0
 70
     0
  4
"
 41
2.5
 42
0.0
 43
10.0
 44
1.0
 47
0.1
 48
0.1
 73
     0
 74
     0
 77
     1
 78
     8
140
3.5
141
0.0
143
0.0393701
146
0.71
147
1.5
172
     1
176
   256
177
   256
178
     2
271
     2
272
     2
279
     2
284
     8
285
     8
286
     8
340
6A27
1001
ACAD_DSTYLE_DIMARC_LENGTH_SYMBOL
1070
   379
1070
     0
1001
ACAD_DSTYLE_DIMJOGGED_JOGANGLE_SYMBOL
1070
   384
1040
1.570796326794896
  0
ENDTAB
  0
TABLE
  2
BLOCK_RECORD
  5
6A17
330
0
100
AcDbSymbolTable
 70
    11
  0
BLOCK_RECORD
  5
6A34
102
{ACAD_XDICTIONARY
360
6B62
102
}
330
6A17
100
AcDbSymbolTableRecord
100
AcDbBlockTableRecord
  2
*Model_Space
340
6A37
  0
BLOCK_RECORD
  5
6A30
330
6A17
100
AcDbSymbolTableRecord
100
AcDbBlockTableRecord
  2
*Paper_Space
340
6A33
  0
BLOCK_RECORD
  5
6D93
330
6A17
100
AcDbSymbolTableRecord
100
AcDbBlockTableRecord
  2
GENAXEH
340
0
  0
BLOCK_RECORD
  5
90EE
330
6A17
100
AcDbSymbolTableRecord
100
AcDbBlockTableRecord
  2
*D1
340
0
  0
BLOCK_RECORD
  5
94AB
330
6A17
100
AcDbSymbolTableRecord
100
AcDbBlockTableRecord
  2
*D2
340
0
  0
BLOCK_RECORD
  5
94DD
330
6A17
100
AcDbSymbolTableRecord
100
AcDbBlockTableRecord
  2
*D3
340
0
  0
BLOCK_RECORD
  5
958E
330
6A17
100
AcDbSymbolTableRecord
100
AcDbBlockTableRecord
  2
*D4
340
0
  0
BLOCK_RECORD
  5
9799
330
6A17
100
AcDbSymbolTableRecord
100
AcDbBlockTableRecord
  2
*D5
340
0
  0
BLOCK_RECORD
  5
97FE
330
6A17
100
AcDbSymbolTableRecord
100
AcDbBlockTableRecord
  2
*D6
340
0
  0
BLOCK_RECORD
  5
989E
330
6A17
100
AcDbSymbolTableRecord
100
AcDbBlockTableRecord
  2
*D7
340
0
  0
BLOCK_RECORD
  5
9A82
330
6A17
100
AcDbSymbolTableRecord
100
AcDbBlockTableRecord
  2
*D9
340
0
  0
BLOCK_RECORD
  5
9ABA
330
6A17
100
AcDbSymbolTableRecord
100
AcDbBlockTableRecord
  2
*D10
340
0
  0
ENDTAB
  0
ENDSEC
  0
SECTION
  2
BLOCKS
  0
BLOCK
  5
6A35
330
6A34
100
AcDbEntity
  8
0
100
AcDbBlockBegin
  2
*Model_Space
 70
     0
 10
0.0
 20
0.0
 30
0.0
  3
*Model_Space
  1

  0
ENDBLK
  5
6A36
330
6A34
100
AcDbEntity
  8
0
100
AcDbBlockEnd
  0
BLOCK
  5
6A31
330
6A30
100
AcDbEntity
 67
     1
  8
0
100
AcDbBlockBegin
  2
*Paper_Space
 70
     0
 10
0.0
 20
0.0
 30
0.0
  3
*Paper_Space
  1

  0
ENDBLK
  5
6A32
330
6A30
100
AcDbEntity
 67
     1
  8
0
100
AcDbBlockEnd
  0
BLOCK
  5
6D95
330
6D93
100
AcDbEntity
  8
0
100
AcDbBlockBegin
  2
GENAXEH
 70
     0
 10
0.0
 20
0.0
 30
0.0
  3
GENAXEH
  1

  0
LINE
  5
6D94
330
6D93
100
AcDbEntity
  8
0
100
AcDbLine
 10
-1.0
 20
0.0
 30
0.0
 11
1.0
 21
0.0
 31
0.0
  0
ENDBLK
  5
6D96
330
6D93
100
AcDbEntity
  8
0
100
AcDbBlockEnd
  0
BLOCK
  5
90F8
330
90EE
100
AcDbEntity
  8
0
100
AcDbBlockBegin
  2
*D1
 70
     1
 10
0.0
 20
0.0
 30
0.0
  3
*D1
  1

  0
LINE
  5
9AE2
330
90EE
100
AcDbEntity
  8
SK2
370
    -2
100
AcDbLine
 10
-43.99999999999393
 20
5.000000000000346
 30
0.0
 11
-58.19888146935245
 21
5.00000000000035
 31
0.0
  0
LINE
  5
9AE3
330
90EE
100
AcDbEntity
  8
SK2
370
    -2
100
AcDbLine
 10
-43.99999999999393
 20
-4.999999999999653
 30
0.0
 11
-58.19888146935245
 21
-4.999999999999649
 31
0.0
  0
LINE
  5
9AE4
330
90EE
100
AcDbEntity
  8
SK2
370
    -2
100
AcDbLine
 10
-57.19888146935246
 20
2.50000000000035
 30
0.0
 11
-57.19888146935246
 21
-2.499999999999649
 31
0.0
  0
SOLID
  5
9AE5
330
90EE
100
AcDbEntity
  8
SK2
100
AcDbTrace
 10
-57.61554813601912
 20
2.50000000000035
 30
0.0
 11
-56.78221480268579
 21
2.500000000000349
 31
0.0
 12
-57.19888146935246
 22
5.000000000000349
 32
0.0
 13
-57.19888146935246
 23
5.000000000000349
 33
0.0
  0
SOLID
  5
9AE6
330
90EE
100
AcDbEntity
  8
SK2
100
AcDbTrace
 10
-57.61554813601912
 20
-2.499999999999649
 30
0.0
 11
-56.78221480268579
 21
-2.49999999999965
 31
0.0
 12
-57.19888146935246
 22
-4.99999999999965
 32
0.0
 13
-57.19888146935246
 23
-4.99999999999965
 33
0.0
  0
MTEXT
  5
9AE7
330
90EE
100
AcDbEntity
  8
SK2
 62
     2
100
AcDbMText
 10
-60.44888146935246
 20
0.0000000000003414
 30
0.0
 40
3.5
 41
0.0
 71
     5
 72
     1
  1
\A1;%%c10
 11
0.0000000000000001
 21
1.0
 31
0.0
 73
     1
 44
1.0
1001
ACAD
1000
MTEXTBEGIN
1070
    73
1070
     1
1070
    44
1040
1.0
1070
    74
1070
     0
1000
MTEXTEND
  0
POINT
  5
9AE8
330
90EE
100
AcDbEntity
  8
DEFPOINTS
 62
     0
100
AcDbPoint
 10
-43.99999999999393
 20
5.000000000000346
 30
0.0
  0
POINT
  5
9AE9
330
90EE
100
AcDbEntity
  8
DEFPOINTS
 62
     0
100
AcDbPoint
 10
-43.99999999999393
 20
-4.999999999999653
 30
0.0
  0
POINT
  5
9AEA
330
90EE
100
AcDbEntity
  8
DEFPOINTS
 62
     0
100
AcDbPoint
 10
-57.19888146935246
 20
-4.99999999999965
 30
0.0
  0
ENDBLK
  5
90F9
330
90EE
100
AcDbEntity
  8
0
100
AcDbBlockEnd
  0
BLOCK
  5
94B5
330
94AB
100
AcDbEntity
  8
0
100
AcDbBlockBegin
  2
*D2
 70
     1
 10
0.0
 20
0.0
 30
0.0
  3
*D2
  1

  0
LINE
  5
9A5D
330
94AB
100
AcDbEntity
  8
SK2
370
    -2
100
AcDbLine
 10
-45.16568542494535
 20
-3.999999999999798
 30
0.0
 11
-45.16568542494535
 21
-23.30393741229978
 31
0.0
  0
LINE
  5
9A5E
330
94AB
100
AcDbEntity
  8
SK2
370
    -2
100
AcDbLine
 10
19.91715728752928
 20
-3.999999999999967
 30
0.0
 11
19.91715728752928
 21
-23.30393741229978
 31
0.0
  0
LINE
  5
9A5F
330
94AB
100
AcDbEntity
  8
SK2
370
    -2
100
AcDbLine
 10
-42.66568542494535
 20
-22.30393741229978
 30
0.0
 11
17.41715728752928
 21
-22.30393741229978
 31
0.0
  0
SOLID
  5
9A60
330
94AB
100
AcDbEntity
  8
SK2
100
AcDbTrace
 10
-42.66568542494535
 20
-21.88727074563311
 30
0.0
 11
-42.66568542494535
 21
-22.72060407896645
 31
0.0
 12
-45.16568542494535
 22
-22.30393741229978
 32
0.0
 13
-45.16568542494535
 23
-22.30393741229978
 33
0.0
  0
SOLID
  5
9A61
330
94AB
100
AcDbEntity
  8
SK2
100
AcDbTrace
 10
17.41715728752928
 20
-21.88727074563311
 30
0.0
 11
17.41715728752928
 21
-22.72060407896645
 31
0.0
 12
19.91715728752928
 22
-22.30393741229978
 32
0.0
 13
19.91715728752928
 23
-22.30393741229978
 33
0.0
  0
MTEXT
  5
9A62
330
94AB
100
AcDbEntity
  8
SK2
 62
     2
100
AcDbMText
 10
-12.62426406870804
 20
-19.05393741229978
 30
0.0
 40
3.5
 41
0.0
 71
     5
 72
     1
  1
\A1;65.08
 73
     1
 44
1.0
1001
ACAD
1000
MTEXTBEGIN
1070
    73
1070
     1
1070
    44
1040
1.0
1070
    74
1070
     0
1000
MTEXTEND
  0
POINT
  5
9A63
330
94AB
100
AcDbEntity
  8
DEFPOINTS
 62
     0
100
AcDbPoint
 10
-45.16568542494535
 20
-3.999999999999798
 30
0.0
  0
POINT
  5
9A64
330
94AB
100
AcDbEntity
  8
DEFPOINTS
 62
     0
100
AcDbPoint
 10
19.91715728752928
 20
-3.999999999999967
 30
0.0
  0
POINT
  5
9A65
330
94AB
100
AcDbEntity
  8
DEFPOINTS
 62
     0
100
AcDbPoint
 10
19.91715728752928
 20
-22.30393741229978
 30
0.0
  0
ENDBLK
  5
94B6
330
94AB
100
AcDbEntity
  8
0
100
AcDbBlockEnd
  0
BLOCK
  5
94E7
330
94DD
100
AcDbEntity
  8
0
100
AcDbBlockBegin
  2
*D3
 70
     1
 10
0.0
 20
0.0
 30
0.0
  3
*D3
  1

  0
LINE
  5
9AEB
330
94DD
100
AcDbEntity
  8
2
370
    -2
100
AcDbLine
 10
20.00000000000602
 20
-3.99999999999983
 30
0.0
 11
37.54527365416624
 21
-3.999999999999835
 31
0.0
  0
LINE
  5
9AEC
330
94DD
100
AcDbEntity
  8
2
370
    -2
100
AcDbLine
 10
20.00000000000607
 20
4.000000000000174
 30
0.0
 11
37.54527365416624
 21
4.00000000000017
 31
0.0
  0
LINE
  5
9AED
330
94DD
100
AcDbEntity
  8
2
370
    -2
100
AcDbLine
 10
36.54527365416625
 20
-1.499999999999835
 30
0.0
 11
36.54527365416625
 21
1.50000000000017
 31
0.0
  0
SOLID
  5
9AEE
330
94DD
100
AcDbEntity
  8
2
100
AcDbTrace
 10
36.12860698749958
 20
-1.499999999999835
 30
0.0
 11
36.96194032083291
 21
-1.499999999999835
 31
0.0
 12
36.54527365416625
 22
-3.999999999999835
 32
0.0
 13
36.54527365416625
 23
-3.999999999999835
 33
0.0
  0
SOLID
  5
9AEF
330
94DD
100
AcDbEntity
  8
2
100
AcDbTrace
 10
36.12860698749958
 20
1.50000000000017
 30
0.0
 11
36.96194032083291
 21
1.50000000000017
 31
0.0
 12
36.54527365416625
 22
4.00000000000017
 32
0.0
 13
36.54527365416625
 23
4.00000000000017
 33
0.0
  0
MTEXT
  5
9AF0
330
94DD
100
AcDbEntity
  8
2
 62
     2
100
AcDbMText
 10
33.29527365416625
 20
0.0000000000001738
 30
0.0
 40
3.5
 41
0.0
 71
     5
 72
     1
  1
\A1;%%c8
 11
0.0000000000000001
 21
1.0
 31
0.0
 73
     1
 44
1.0
1001
ACAD
1000
MTEXTBEGIN
1070
    73
1070
     1
1070
    44
1040
1.0
1070
    74
1070
     0
1000
MTEXTEND
  0
POINT
  5
9AF1
330
94DD
100
AcDbEntity
  8
DEFPOINTS
 62
     0
100
AcDbPoint
 10
20.00000000000602
 20
-3.99999999999983
 30
0.0
  0
POINT
  5
9AF2
330
94DD
100
AcDbEntity
  8
DEFPOINTS
 62
     0
100
AcDbPoint
 10
20.00000000000607
 20
4.000000000000174
 30
0.0
  0
POINT
  5
9AF3
330
94DD
100
AcDbEntity
  8
DEFPOINTS
 62
     0
100
AcDbPoint
 10
36.54527365416625
 20
4.00000000000017
 30
0.0
  0
ENDBLK
  5
94E8
330
94DD
100
AcDbEntity
  8
0
100
AcDbBlockEnd
  0
BLOCK
  5
9598
330
958E
100
AcDbEntity
  8
0
100
AcDbBlockBegin
  2
*D4
 70
     1
 10
0.0
 20
0.0
 30
0.0
  3
*D4
  1

  0
LINE
  5
9A54
330
958E
100
AcDbEntity
  8
2
370
    -2
100
AcDbLine
 10
19.91715728752932
 20
4.000000000000038
 30
0.0
 11
19.91715728752933
 21
76.00000000000012
 31
0.0
  0
LINE
  5
9A55
330
958E
100
AcDbEntity
  8
2
370
    -2
100
AcDbLine
 10
-0.1656854249493556
 20
5.000000000000056
 30
0.0
 11
-0.1656854249493513
 21
76.00000000000012
 31
0.0
  0
LINE
  5
9A56
330
958E
100
AcDbEntity
  8
2
370
    -2
100
AcDbLine
 10
17.41715728752933
 20
75.00000000000011
 30
0.0
 11
2.334314575050648
 21
75.00000000000011
 31
0.0
  0
SOLID
  5
9A57
330
958E
100
AcDbEntity
  8
2
100
AcDbTrace
 10
17.41715728752933
 20
75.41666666666678
 30
0.0
 11
17.41715728752933
 21
74.58333333333344
 31
0.0
 12
19.91715728752933
 22
75.00000000000011
 32
0.0
 13
19.91715728752933
 23
75.00000000000011
 33
0.0
  0
SOLID
  5
9A58
330
958E
100
AcDbEntity
  8
2
100
AcDbTrace
 10
2.334314575050648
 20
75.41666666666678
 30
0.0
 11
2.334314575050648
 21
74.58333333333344
 31
0.0
 12
-0.1656854249493513
 22
75.00000000000011
 32
0.0
 13
-0.1656854249493513
 23
75.00000000000011
 33
0.0
  0
MTEXT
  5
9A59
330
958E
100
AcDbEntity
  8
2
 62
     2
100
AcDbMText
 10
9.875735931289989
 20
78.25034448818908
 30
0.0
 40
3.5
 41
0.0
 71
     5
 72
     1
  1
\A1;20.08
 73
     1
 44
1.0
1001
ACAD
1000
MTEXTBEGIN
1070
    73
1070
     1
1070
    44
1040
1.0
1070
    74
1070
     0
1000
MTEXTEND
  0
POINT
  5
9A5A
330
958E
100
AcDbEntity
  8
DEFPOINTS
 62
     0
100
AcDbPoint
 10
19.91715728752932
 20
4.000000000000038
 30
0.0
  0
POINT
  5
9A5B
330
958E
100
AcDbEntity
  8
DEFPOINTS
 62
     0
100
AcDbPoint
 10
-0.1656854249493556
 20
5.000000000000056
 30
0.0
  0
POINT
  5
9A5C
330
958E
100
AcDbEntity
  8
DEFPOINTS
 62
     0
100
AcDbPoint
 10
-0.1656854249493513
 20
75.00000000000011
 30
0.0
  0
ENDBLK
  5
9599
330
958E
100
AcDbEntity
  8
0
100
AcDbBlockEnd
  0
BLOCK
  5
97A3
330
9799
100
AcDbEntity
  8
0
100
AcDbBlockBegin
  2
*D5
 70
     1
 10
0.0
 20
0.0
 30
0.0
  3
*D5
  1

  0
LINE
  5
9AF4
330
9799
100
AcDbEntity
  8
2
370
    -2
100
AcDbLine
 10
16.15617338259453
 20
7.991139237008398
 30
0.0
 11
48.25416093637842
 21
7.991139237008389
 31
0.0
  0
LINE
  5
9AF5
330
9799
100
AcDbEntity
  8
2
370
    -2
100
AcDbLine
 10
16.15617338259453
 20
-7.991139237008066
 30
0.0
 11
48.25416093637842
 21
-7.991139237008074
 31
0.0
  0
LINE
  5
9AF6
330
9799
100
AcDbEntity
  8
2
370
    -2
100
AcDbLine
 10
47.25416093637843
 20
5.491139237008389
 30
0.0
 11
47.25416093637843
 21
-5.491139237008074
 31
0.0
  0
SOLID
  5
9AF7
330
9799
100
AcDbEntity
  8
2
100
AcDbTrace
 10
46.83749426971177
 20
5.491139237008389
 30
0.0
 11
47.6708276030451
 21
5.491139237008389
 31
0.0
 12
47.25416093637843
 22
7.991139237008389
 32
0.0
 13
47.25416093637843
 23
7.991139237008389
 33
0.0
  0
SOLID
  5
9AF8
330
9799
100
AcDbEntity
  8
2
100
AcDbTrace
 10
46.83749426971177
 20
-5.491139237008074
 30
0.0
 11
47.6708276030451
 21
-5.491139237008074
 31
0.0
 12
47.25416093637843
 22
-7.991139237008074
 32
0.0
 13
47.25416093637843
 23
-7.991139237008074
 33
0.0
  0
MTEXT
  5
9AF9
330
9799
100
AcDbEntity
  8
2
 62
     2
100
AcDbMText
 10
44.00416093637843
 20
0.0000000000001654
 30
0.0
 40
3.5
 41
0.0
 71
     5
 72
     1
  1
\A1;%%c16
 11
0.0000000000000001
 21
1.0
 31
0.0
 73
     1
 44
1.0
1001
ACAD
1000
MTEXTBEGIN
1070
    73
1070
     1
1070
    44
1040
1.0
1070
    74
1070
     0
1000
MTEXTEND
  0
POINT
  5
9AFA
330
9799
100
AcDbEntity
  8
DEFPOINTS
 62
     0
100
AcDbPoint
 10
16.15617338259453
 20
7.991139237008398
 30
0.0
  0
POINT
  5
9AFB
330
9799
100
AcDbEntity
  8
DEFPOINTS
 62
     0
100
AcDbPoint
 10
16.15617338259453
 20
-7.991139237008066
 30
0.0
  0
POINT
  5
9AFC
330
9799
100
AcDbEntity
  8
DEFPOINTS
 62
     0
100
AcDbPoint
 10
47.25416093637843
 20
-7.991139237008074
 30
0.0
  0
ENDBLK
  5
97A4
330
9799
100
AcDbEntity
  8
0
100
AcDbBlockEnd
  0
BLOCK
  5
980A
330
97FE
100
AcDbEntity
  8
0
100
AcDbBlockBegin
  2
*D6
 70
     1
 10
0.0
 20
0.0
 30
0.0
  3
*D6
  1

  0
LINE
  5
9AFD
330
97FE
100
AcDbEntity
  8
2
370
    -2
100
AcDbLine
 10
20.00000000000607
 20
4.000000000000174
 30
0.0
 11
20.00000000000607
 21
61.00000000000026
 31
0.0
  0
LINE
  5
9AFE
330
97FE
100
AcDbEntity
  8
2
370
    -2
100
AcDbLine
 10
16.25893297619991
 20
7.991139237008398
 30
0.0
 11
16.25893297619991
 21
61.00000000000026
 31
0.0
  0
LINE
  5
9AFF
330
97FE
100
AcDbEntity
  8
2
370
    -2
100
AcDbLine
 10
22.50000000000607
 20
60.00000000000025
 30
0.0
 11
25.00000000000607
 21
60.00000000000025
 31
0.0
  0
LINE
  5
9B00
330
97FE
100
AcDbEntity
  8
2
370
    -2
100
AcDbLine
 10
13.75893297619991
 20
60.00000000000025
 30
0.0
 11
11.25893297619991
 21
60.00000000000025
 31
0.0
  0
MTEXT
  5
9B01
330
97FE
100
AcDbEntity
  8
2
 62
     2
100
AcDbMText
 10
12.69812537404685
 20
63.60311879673535
 30
0.0
 40
3.5
 41
0.0
 71
     5
 72
     1
  1
\A1;3.9
 73
     1
 44
1.0
1001
ACAD
1000
MTEXTBEGIN
1070
    73
1070
     1
1070
    44
1040
1.0
1070
    74
1070
     0
1000
MTEXTEND
  0
LINE
  5
9B02
330
97FE
100
AcDbEntity
  8
2
370
    -2
100
AcDbLine
 10
20.00000000000607
 20
60.00000000000025
 30
0.0
 11
16.25893297619991
 21
60.00000000000025
 31
0.0
  0
SOLID
  5
9B03
330
97FE
100
AcDbEntity
  8
2
100
AcDbTrace
 10
22.50000000000607
 20
60.41666666666692
 30
0.0
 11
22.50000000000607
 21
59.58333333333359
 31
0.0
 12
20.00000000000607
 22
60.00000000000025
 32
0.0
 13
20.00000000000607
 23
60.00000000000025
 33
0.0
  0
SOLID
  5
9B04
330
97FE
100
AcDbEntity
  8
2
100
AcDbTrace
 10
13.75893297619991
 20
60.41666666666692
 30
0.0
 11
13.75893297619991
 21
59.58333333333359
 31
0.0
 12
16.25893297619991
 22
60.00000000000025
 32
0.0
 13
16.25893297619991
 23
60.00000000000025
 33
0.0
  0
POINT
  5
9B05
330
97FE
100
AcDbEntity
  8
DEFPOINTS
 62
     0
100
AcDbPoint
 10
20.00000000000607
 20
4.000000000000174
 30
0.0
  0
POINT
  5
9B06
330
97FE
100
AcDbEntity
  8
DEFPOINTS
 62
     0
100
AcDbPoint
 10
16.25893297619991
 20
7.991139237008398
 30
0.0
  0
POINT
  5
9B07
330
97FE
100
AcDbEntity
  8
DEFPOINTS
 62
     0
100
AcDbPoint
 10
16.25893297619991
 20
60.00000000000025
 30
0.0
  0
ENDBLK
  5
980B
330
97FE
100
AcDbEntity
  8
0
100
AcDbBlockEnd
  0
BLOCK
  5
98AB
330
989E
100
AcDbEntity
  8
0
100
AcDbBlockBegin
  2
*D7
 70
     1
 10
0.0
 20
0.0
 30
0.0
  3
*D7
  1

  0
LINE
  5
9B08
330
989E
100
AcDbEntity
  8
2
370
    -2
100
AcDbLine
 10
20.00000000000607
 20
6.640844445358446
 30
0.0
 11
20.00000000000603
 21
31.71061051963442
 31
0.0
  0
LINE
  5
9B09
330
989E
100
AcDbEntity
  8
2
370
    -2
100
AcDbLine
 10
15.53577823798695
 20
8.46422176201929
 30
0.0
 11
0.4056393907534535
 21
23.59436060925288
 31
0.0
  0
ARC
  5
9B0A
330
989E
100
AcDbEntity
  8
2
370
    -2
100
AcDbCircle
 10
20.00000000000607
 20
4.000000000000145
 30
0.0
 40
26.71061051963428
100
AcDbArc
 50
95.36460159406408
 51
129.6353984059358
  0
SOLID
  5
9B0B
330
989E
100
AcDbEntity
  8
2
100
AcDbTrace
 10
17.4832399351791
 20
31.0098259724497
 30
0.0
 11
17.52223817020263
 21
30.17740565667797
 31
0.0
 12
20.00000000000603
 22
30.71061051963442
 32
0.0
 13
20.00000000000603
 23
30.71061051963442
 33
0.0
  0
SOLID
  5
9B0C
330
989E
100
AcDbEntity
  8
2
100
AcDbTrace
 10
3.241821138317327
 20
24.26226324572735
 30
0.0
 11
2.68078700467714
 21
24.87844921224643
 31
0.0
 12
1.112746171939998
 22
22.88725382806633
 32
0.0
 13
1.112746171939998
 23
22.88725382806633
 33
0.0
  0
MTEXT
  5
9B0D
330
989E
100
AcDbEntity
  8
2
 62
     2
100
AcDbMText
 10
8.534570730598833
 20
31.67999484063261
 30
0.0
 40
3.5
 41
0.0
 71
     5
 72
     1
  1
\A1;45°
 11
0.9238795325112867
 21
0.3826834323650898
 31
0.0
 73
     1
 44
1.0
1001
ACAD
1000
MTEXTBEGIN
1070
    73
1070
     1
1070
    44
1040
1.0
1070
    74
1070
     0
1000
MTEXTEND
  0
POINT
  5
9B0E
330
989E
100
AcDbEntity
  8
DEFPOINTS
 62
     0
100
AcDbPoint
 10
13.08678529120898
 20
29.80046853686337
 30
0.0
  0
POINT
  5
9B0F
330
989E
100
AcDbEntity
  8
DEFPOINTS
 62
     0
100
AcDbPoint
 10
15.89779454874229
 20
8.102205451263948
 30
0.0
  0
POINT
  5
9B10
330
989E
100
AcDbEntity
  8
DEFPOINTS
 62
     0
100
AcDbPoint
 10
20.00000000000607
 20
5.614024659729828
 30
0.0
  0
POINT
  5
9B11
330
989E
100
AcDbEntity
  8
DEFPOINTS
 62
     0
100
AcDbPoint
 10
20.00000000000607
 20
6.640844445358446
 30
0.0
  0
POINT
  5
9B12
330
989E
100
AcDbEntity
  8
DEFPOINTS
 62
     0
100
AcDbPoint
 10
15.53577823798695
 20
8.46422176201929
 30
0.0
  0
ENDBLK
  5
98AC
330
989E
100
AcDbEntity
  8
0
100
AcDbBlockEnd
  0
BLOCK
  5
9A8C
330
9A82
100
AcDbEntity
  8
0
100
AcDbBlockBegin
  2
*D9
 70
     1
 10
0.0
 20
0.0
 30
0.0
  3
*D9
  1

  0
LINE
  5
9B13
330
9A82
100
AcDbEntity
  8
SK2
370
    -2
100
AcDbLine
 10
-44.99999999999394
 20
-3.999999999999654
 30
0.0
 11
-44.99999999999394
 21
-23.30393741229971
 31
0.0
  0
LINE
  5
9B14
330
9A82
100
AcDbEntity
  8
SK2
370
    -2
100
AcDbLine
 10
20.00000000000602
 20
-3.99999999999983
 30
0.0
 11
20.00000000000602
 21
-23.30393741229971
 31
0.0
  0
LINE
  5
9B15
330
9A82
100
AcDbEntity
  8
SK2
370
    -2
100
AcDbLine
 10
-42.49999999999394
 20
-22.30393741229971
 30
0.0
 11
17.50000000000602
 21
-22.30393741229971
 31
0.0
  0
SOLID
  5
9B16
330
9A82
100
AcDbEntity
  8
SK2
100
AcDbTrace
 10
-42.49999999999394
 20
-21.88727074563304
 30
0.0
 11
-42.49999999999394
 21
-22.72060407896638
 31
0.0
 12
-44.99999999999394
 22
-22.30393741229971
 32
0.0
 13
-44.99999999999394
 23
-22.30393741229971
 33
0.0
  0
SOLID
  5
9B17
330
9A82
100
AcDbEntity
  8
SK2
100
AcDbTrace
 10
17.50000000000602
 20
-21.88727074563304
 30
0.0
 11
17.50000000000602
 21
-22.72060407896638
 31
0.0
 12
20.00000000000602
 22
-22.30393741229971
 32
0.0
 13
20.00000000000602
 23
-22.30393741229971
 33
0.0
  0
MTEXT
  5
9B18
330
9A82
100
AcDbEntity
  8
SK2
 62
     2
100
AcDbMText
 10
-12.49999999999396
 20
-19.05393741229971
 30
0.0
 40
3.5
 41
0.0
 71
     5
 72
     1
  1
\A1;65
 73
     1
 44
1.0
1001
ACAD
1000
MTEXTBEGIN
1070
    73
1070
     1
1070
    44
1040
1.0
1070
    74
1070
     0
1000
MTEXTEND
  0
POINT
  5
9B19
330
9A82
100
AcDbEntity
  8
DEFPOINTS
 62
     0
100
AcDbPoint
 10
-44.99999999999394
 20
-3.999999999999654
 30
0.0
  0
POINT
  5
9B1A
330
9A82
100
AcDbEntity
  8
DEFPOINTS
 62
     0
100
AcDbPoint
 10
20.00000000000602
 20
-3.99999999999983
 30
0.0
  0
POINT
  5
9B1B
330
9A82
100
AcDbEntity
  8
DEFPOINTS
 62
     0
100
AcDbPoint
 10
20.00000000000602
 20
-22.30393741229971
 30
0.0
  0
ENDBLK
  5
9A8D
330
9A82
100
AcDbEntity
  8
0
100
AcDbBlockEnd
  0
BLOCK
  5
9AC4
330
9ABA
100
AcDbEntity
  8
0
100
AcDbBlockBegin
  2
*D10
 70
     1
 10
0.0
 20
0.0
 30
0.0
  3
*D10
  1

  0
LINE
  5
9B1C
330
9ABA
100
AcDbEntity
  8
2
370
    -2
100
AcDbLine
 10
0.0000000000020606
 20
5.000000000000201
 30
0.0
 11
0.0000000000020649
 21
76.00000000000026
 31
0.0
  0
LINE
  5
9B1D
330
9ABA
100
AcDbEntity
  8
2
370
    -2
100
AcDbLine
 10
19.99998918039098
 20
3.997919680555104
 30
0.0
 11
19.99998918039099
 21
76.00000000000026
 31
0.0
  0
LINE
  5
9B1E
330
9ABA
100
AcDbEntity
  8
2
370
    -2
100
AcDbLine
 10
2.500000000002065
 20
75.00000000000025
 30
0.0
 11
17.49998918039099
 21
75.00000000000025
 31
0.0
  0
SOLID
  5
9B1F
330
9ABA
100
AcDbEntity
  8
2
100
AcDbTrace
 10
2.500000000002065
 20
75.41666666666692
 30
0.0
 11
2.500000000002065
 21
74.58333333333358
 31
0.0
 12
0.0000000000020649
 22
75.00000000000025
 32
0.0
 13
0.0000000000020649
 23
75.00000000000025
 33
0.0
  0
SOLID
  5
9B20
330
9ABA
100
AcDbEntity
  8
2
100
AcDbTrace
 10
17.49998918039099
 20
75.41666666666692
 30
0.0
 11
17.49998918039099
 21
74.58333333333358
 31
0.0
 12
19.99998918039099
 22
75.00000000000025
 32
0.0
 13
19.99998918039099
 23
75.00000000000025
 33
0.0
  0
MTEXT
  5
9B21
330
9ABA
100
AcDbEntity
  8
2
 62
     2
100
AcDbMText
 10
9.999994590196527
 20
78.25034448818922
 30
0.0
 40
3.5
 41
0.0
 71
     5
 72
     1
  1
\A1;20
 73
     1
 44
1.0
1001
ACAD
1000
MTEXTBEGIN
1070
    73
1070
     1
1070
    44
1040
1.0
1070
    74
1070
     0
1000
MTEXTEND
  0
POINT
  5
9B22
330
9ABA
100
AcDbEntity
  8
DEFPOINTS
 62
     0
100
AcDbPoint
 10
0.0000000000020606
 20
5.000000000000201
 30
0.0
  0
POINT
  5
9B23
330
9ABA
100
AcDbEntity
  8
DEFPOINTS
 62
     0
100
AcDbPoint
 10
19.99998918039098
 20
3.997919680555104
 30
0.0
  0
POINT
  5
9B24
330
9ABA
100
AcDbEntity
  8
DEFPOINTS
 62
     0
100
AcDbPoint
 10
19.99998918039099
 20
75.00000000000025
 30
0.0
  0
ENDBLK
  5
9AC5
330
9ABA
100
AcDbEntity
  8
0
100
AcDbBlockEnd
  0
ENDSEC
  0
SECTION
  2
ENTITIES
  0
LINE
  5
8035
330
6A34
100
AcDbEntity
  8
SK1
100
AcDbLine
 10
-43.99999999999393
 20
5.000000000000346
 30
0.0
 11
-44.99999999999394
 21
4.000000000000346
 31
0.0
  0
LINE
  5
8036
330
6A34
100
AcDbEntity
  8
SK1
100
AcDbLine
 10
-44.99999999999394
 20
4.000000000000346
 30
0.0
 11
-44.99999999999394
 21
-3.999999999999654
 31
0.0
  0
LINE
  5
8037
330
6A34
100
AcDbEntity
  8
SK1
100
AcDbLine
 10
-44.99999999999394
 20
-3.999999999999654
 30
0.0
 11
-43.99999999999393
 21
-4.999999999999653
 31
0.0
  0
LINE
  5
8038
330
6A34
100
AcDbEntity
  8
SK1
100
AcDbLine
 10
-43.99999999999393
 20
-4.999999999999653
 30
0.0
 11
0.0000000000020641
 21
-4.999999999999799
 31
0.0
  0
LINE
  5
8039
330
6A34
100
AcDbEntity
  8
SK1
100
AcDbLine
 10
-43.99999999999393
 20
-4.999999999999653
 30
0.0
 11
-43.99999999999393
 21
5.000000000000346
 31
0.0
  0
LINE
  5
8079
330
6A34
100
AcDbEntity
  8
1
100
AcDbLine
 10
0.0000000000041229
 20
-4.27113434341707
 30
0.0
 11
0.0000000000041247
 21
4.271134343416948
 31
0.0
  0
LINE
  5
8081
330
6A34
100
AcDbEntity
  8
SK1
100
AcDbLine
 10
0.0000000000020606
 20
5.000000000000201
 30
0.0
 11
-43.99999999999393
 21
5.000000000000346
 31
0.0
  0
LINE
  5
80B1
330
6A34
100
AcDbEntity
  8
SK1
100
AcDbLine
 10
20.32793446633278
 20
4.327934466326884
 30
0.0
 11
20.00000000000607
 21
4.000000000000178
 31
0.0
  0
LINE
  5
80B2
330
6A34
100
AcDbEntity
  8
SK1
100
AcDbLine
 10
20.00000000000607
 20
4.000000000000169
 30
0.0
 11
20.32793446633278
 21
3.672065533673459
 31
0.0
  0
CIRCLE
  5
80B3
330
6A34
100
AcDbEntity
  8
SK1
100
AcDbCircle
 10
20.00000000000607
 20
4.000000000000174
 30
0.0
 40
0.4637693698488208
  0
LINE
  5
80BA
330
6A34
100
AcDbEntity
  8
1
100
AcDbLine
 10
10.7547319069866
 20
4.999999999999998
 30
0.0
 11
0.0000000000039257
 21
4.999999999999993
 31
0.0
  0
LINE
  5
80E9
330
6A34
100
AcDbEntity
  8
1
100
AcDbLine
 10
19.07963751256459
 20
3.062605186580551
 30
0.0
 11
19.07963751256456
 21
0.000000000000186
 31
0.0
  0
LINE
  5
80EB
330
6A34
100
AcDbEntity
  8
SK4
100
AcDbLine
 10
0.0000000000020606
 20
0.0000000000004537
 30
0.0
 11
-46.86690870339809
 21
0.0000000000002911
 31
0.0
  0
LINE
  5
80EC
330
6A34
100
AcDbEntity
  8
4
100
AcDbLine
 10
20.14017144390697
 20
0.0000000000001797
 30
0.0
 11
0.0000000000041318
 21
0.0000000000002973
 31
0.0
  0
TEXT
  5
84D7
330
6A34
100
AcDbEntity
  8
6
100
AcDbText
 10
24.12038071481966
 20
-15.60123279005492
 30
0.0
 40
3.5
  1
12N1D008025T1R00
100
AcDbText
  0
LINE
  5
8A46
330
6A34
100
AcDbEntity
  8
1
100
AcDbLine
 10
0.0000000000039257
 20
4.999999999999993
 30
0.0
 11
0.0000000000043254
 21
-4.999999999999756
 31
0.0
  0
ARC
  5
8DCE
330
6A34
100
AcDbEntity
  8
CUT
100
AcDbCircle
 10
128.6014997217191
 20
113.6559922031663
 30
0.0
 40
158.3751292476171
100
AcDbArc
 50
222.9151181052114
 51
224.9493100169668
  0
ARC
  5
8DCF
330
6A34
100
AcDbEntity
  8
1
100
AcDbCircle
 10
128.6014997217191
 20
113.6559922031663
 30
0.0
 40
158.3751292476171
100
AcDbArc
 50
222.9151181052114
 51
224.9493100169668
  0
ARC
  5
8DD0
330
6A34
100
AcDbEntity
  8
CUT
100
AcDbCircle
 10
12.75984676376209
 20
5.952310963996669
 30
0.0
 40
0.2
100
AcDbArc
 50
135.8929251581096
 51
222.9151181052097
1001
GENIUS_GENODEF_13
1002
{
1000
HIER
1070
     0
1002
}
1002
{
1000
MANEDIT
1070
     0
1002
}
1002
{
1000
NOSEL
1070
     0
1002
}
1002
{
1000
BEHIND
1070
     0
1002
}
1002
{
1000
OTHER
1070
     0
1002
}
1002
{
1000
REACTOR
1002
}
1001
GENIUS_GENOBJ-N-FIL_13
1002
{
1000
OWNER
1000
GEN
1002
}
  0
ARC
  5
8DD1
330
6A34
100
AcDbEntity
  8
1
100
AcDbCircle
 10
12.75984676376209
 20
5.952310963996669
 30
0.0
 40
0.2
100
AcDbArc
 50
135.8929251581096
 51
222.9151181052097
1001
GENIUS_GENODEF_13
1002
{
1000
HIER
1070
     0
1002
}
1002
{
1000
MANEDIT
1070
     0
1002
}
1002
{
1000
NOSEL
1070
     0
1002
}
1002
{
1000
BEHIND
1070
     0
1002
}
1002
{
1000
OTHER
1070
     0
1002
}
1002
{
1000
REACTOR
1002
}
1001
GENIUS_GENOBJ-N-FIL_13
1002
{
1000
OWNER
1000
GEN
1002
}
  0
CIRCLE
  5
8DD3
330
6A34
100
AcDbEntity
  8
1
100
AcDbCircle
 10
16.27992338188408
 20
4.976155481998431
 30
0.0
 40
1.255206518985224
  0
ARC
  5
8DD4
330
6A34
100
AcDbEntity
  8
CUT
100
AcDbCircle
 10
13.89990527859436
 20
5.979046580266555
 30
0.0
 40
1.0
100
AcDbArc
 50
118.9637789131361
 51
135.8929251581054
1001
GENIUS_GENODEF_13
1002
{
1000
HIER
1070
     0
1002
}
1002
{
1000
MANEDIT
1070
     0
1002
}
1002
{
1000
NOSEL
1070
     0
1002
}
1002
{
1000
BEHIND
1070
     0
1002
}
1002
{
1000
OTHER
1070
     0
1002
}
1002
{
1000
REACTOR
1002
}
1001
GENIUS_GENOBJ-N-FIL_13
1002
{
1000
OWNER
1000
GEN
1002
}
  0
LINE
  5
8DD5
330
6A34
100
AcDbEntity
  8
CUT
100
AcDbLine
 10
12.61623869146731
 20
6.091511256998336
 30
0.0
 11
13.18186491712027
 21
6.675048045275168
 31
0.0
  0
LINE
  5
8DD6
330
6A34
100
AcDbEntity
  8
CUT
100
AcDbLine
 10
15.86670945218526
 20
8.210592881461943
 30
0.0
 11
13.41564866984669
 21
6.853972598215595
 31
0.0
  0
ARC
  5
8DD7
330
6A34
100
AcDbEntity
  8
1
100
AcDbCircle
 10
13.89990527859436
 20
5.979046580266555
 30
0.0
 40
1.0
100
AcDbArc
 50
118.9637789131361
 51
135.8929251581054
1001
GENIUS_GENODEF_13
1002
{
1000
HIER
1070
     0
1002
}
1002
{
1000
MANEDIT
1070
     0
1002
}
1002
{
1000
NOSEL
1070
     0
1002
}
1002
{
1000
BEHIND
1070
     0
1002
}
1002
{
1000
OTHER
1070
     0
1002
}
1002
{
1000
REACTOR
1002
}
1001
GENIUS_GENOBJ-N-FIL_13
1002
{
1000
OWNER
1000
GEN
1002
}
  0
LINE
  5
8DD8
330
6A34
100
AcDbEntity
  8
1
100
AcDbLine
 10
15.86670945218526
 20
8.210592881461943
 30
0.0
 11
13.41564866984669
 21
6.853972598215595
 31
0.0
  0
LINE
  5
8DD9
330
6A34
100
AcDbEntity
  8
1
100
AcDbLine
 10
12.61623869146731
 20
6.091511256998336
 30
0.0
 11
13.18186491712027
 21
6.675048045275168
 31
0.0
  0
ARC
  5
8DDA
330
6A34
100
AcDbEntity
  8
CUT
100
AcDbCircle
 10
-96.04165295795077
 20
-103.7036812391695
 30
0.0
 40
158.3751292476171
100
AcDbArc
 50
42.91511810521139
 51
44.94931001696682
  0
ARC
  5
8DDB
330
6A34
100
AcDbEntity
  8
1
100
AcDbCircle
 10
-96.04165295795077
 20
-103.7036812391695
 30
0.0
 40
158.3751292476171
100
AcDbArc
 50
42.91511810521139
 51
44.94931001696682
  0
ARC
  5
8DDC
330
6A34
100
AcDbEntity
  8
CUT
100
AcDbCircle
 10
15.93934794349741
 20
8.079353978769621
 30
0.0
 40
0.15
100
AcDbArc
 50
44.94931001695867
 51
118.9637789131396
1001
GENIUS_GENOBJ-N-FIL_13
1002
{
1000
OWNER
1000
GEN
1002
}
1001
GENIUS_GENODEF_13
1002
{
1000
HIER
1070
     0
1002
}
1002
{
1000
MANEDIT
1070
     0
1002
}
1002
{
1000
NOSEL
1070
     0
1002
}
1002
{
1000
BEHIND
1070
     0
1002
}
1002
{
1000
OTHER
1070
     0
1002
}
1002
{
1000
REACTOR
1002
}
  0
ARC
  5
8DDD
330
6A34
100
AcDbEntity
  8
1
100
AcDbCircle
 10
15.93934794349741
 20
8.079353978769621
 30
0.0
 40
0.15
100
AcDbArc
 50
44.94931001695867
 51
118.9637789131396
1001
GENIUS_GENOBJ-N-FIL_13
1002
{
1000
OWNER
1000
GEN
1002
}
1001
GENIUS_GENODEF_13
1002
{
1000
HIER
1070
     0
1002
}
1002
{
1000
MANEDIT
1070
     0
1002
}
1002
{
1000
NOSEL
1070
     0
1002
}
1002
{
1000
BEHIND
1070
     0
1002
}
1002
{
1000
OTHER
1070
     0
1002
}
1002
{
1000
REACTOR
1002
}
  0
ARC
  5
8DDE
330
6A34
100
AcDbEntity
  8
CUT
100
AcDbCircle
 10
16.62049882027091
 20
1.872956985227282
 30
0.0
 40
0.15
100
AcDbArc
 50
224.9493100169245
 51
298.9637789131318
1001
GENIUS_GENOBJ-N-FIL_13
1002
{
1000
OWNER
1000
GEN
1002
}
1001
GENIUS_GENODEF_13
1002
{
1000
HIER
1070
     0
1002
}
1002
{
1000
MANEDIT
1070
     0
1002
}
1002
{
1000
NOSEL
1070
     0
1002
}
1002
{
1000
BEHIND
1070
     0
1002
}
1002
{
1000
OTHER
1070
     0
1002
}
1002
{
1000
REACTOR
1002
}
  0
LINE
  5
8DDF
330
6A34
100
AcDbEntity
  8
CUT
100
AcDbLine
 10
16.69313731158306
 20
1.741718082534919
 30
0.0
 11
19.14419809392156
 21
3.098338365781227
 31
0.0
  0
ARC
  5
8DE0
330
6A34
100
AcDbEntity
  8
1
100
AcDbCircle
 10
16.62049882027091
 20
1.872956985227282
 30
0.0
 40
0.15
100
AcDbArc
 50
224.9493100169245
 51
298.9637789131318
1001
GENIUS_GENOBJ-N-FIL_13
1002
{
1000
OWNER
1000
GEN
1002
}
1001
GENIUS_GENODEF_13
1002
{
1000
HIER
1070
     0
1002
}
1002
{
1000
MANEDIT
1070
     0
1002
}
1002
{
1000
NOSEL
1070
     0
1002
}
1002
{
1000
BEHIND
1070
     0
1002
}
1002
{
1000
OTHER
1070
     0
1002
}
1002
{
1000
REACTOR
1002
}
  0
LINE
  5
8DE1
330
6A34
100
AcDbEntity
  8
1
100
AcDbLine
 10
16.69313731158306
 20
1.741718082534919
 30
0.0
 11
19.14419809392156
 21
3.098338365781227
 31
0.0
  0
ARC
  5
8DE2
330
6A34
100
AcDbEntity
  8
CUT
100
AcDbCircle
 10
18.65994148517384
 20
3.973264383730306
 30
0.0
 40
1.0
100
AcDbArc
 50
298.9637789131364
 51
315.8929251581055
1001
GENIUS_GENODEF_13
1002
{
1000
HIER
1070
     0
1002
}
1002
{
1000
MANEDIT
1070
     0
1002
}
1002
{
1000
NOSEL
1070
     0
1002
}
1002
{
1000
BEHIND
1070
     0
1002
}
1002
{
1000
OTHER
1070
     0
1002
}
1002
{
1000
REACTOR
1002
}
1001
GENIUS_GENOBJ-N-FIL_13
1002
{
1000
OWNER
1000
GEN
1002
}
  0
LINE
  5
8DE3
330
6A34
100
AcDbEntity
  8
CUT
100
AcDbLine
 10
19.94360807230091
 20
3.860799706998502
 30
0.0
 11
19.37798184664798
 21
3.277262918721653
 31
0.0
  0
ARC
  5
8DE4
330
6A34
100
AcDbEntity
  8
1
100
AcDbCircle
 10
18.65994148517384
 20
3.973264383730306
 30
0.0
 40
1.0
100
AcDbArc
 50
298.9637789131364
 51
315.8929251581055
1001
GENIUS_GENODEF_13
1002
{
1000
HIER
1070
     0
1002
}
1002
{
1000
MANEDIT
1070
     0
1002
}
1002
{
1000
NOSEL
1070
     0
1002
}
1002
{
1000
BEHIND
1070
     0
1002
}
1002
{
1000
OTHER
1070
     0
1002
}
1002
{
1000
REACTOR
1002
}
1001
GENIUS_GENOBJ-N-FIL_13
1002
{
1000
OWNER
1000
GEN
1002
}
  0
LINE
  5
8DE5
330
6A34
100
AcDbEntity
  8
1
100
AcDbLine
 10
19.94360807230091
 20
3.860799706998502
 30
0.0
 11
19.37798184664798
 21
3.277262918721653
 31
0.0
  0
ARC
  5
8DE8
330
6A34
100
AcDbEntity
  8
CUT
100
AcDbCircle
 10
19.80000000000613
 20
4.000000000000174
 30
0.0
 40
0.2
100
AcDbArc
 50
315.8929251581098
 51
42.91511810520975
1001
GENIUS_GENODEF_13
1002
{
1000
HIER
1070
     0
1002
}
1002
{
1000
MANEDIT
1070
     0
1002
}
1002
{
1000
NOSEL
1070
     0
1002
}
1002
{
1000
BEHIND
1070
     0
1002
}
1002
{
1000
OTHER
1070
     0
1002
}
1002
{
1000
REACTOR
1002
}
1001
GENIUS_GENOBJ-N-FIL_13
1002
{
1000
OWNER
1000
GEN
1002
}
  0
TEXT
  5
8E2B
330
6A34
100
AcDbEntity
  8
6
100
AcDbText
 10
22.42676540106835
 20
11.4195414102335
 30
0.0
 40
2.5
  1
AOMT060202R
100
AcDbText
  0
TEXT
  5
8E2C
330
6A34
100
AcDbEntity
  8
6
100
AcDbText
 10
53.69403168043111
 20
-3.755219086422262
 30
0.0
 40
3.5
  1
Z=2
 50
90.0
100
AcDbText
  0
LINE
  5
8EB4
330
6A34
100
AcDbEntity
  8
1
100
AcDbLine
 10
10.75473190698701
 20
-4.999999999999799
 30
0.0
 11
0.0000000000018918
 21
-4.999999999999799
 31
0.0
  0
LINE
  5
8EB7
330
6A34
100
AcDbEntity
  8
1
100
AcDbLine
 10
19.07963751256456
 20
0.000000000000186
 30
0.0
 11
19.07963751256455
 21
-3.418091961745537
 31
0.0
  0
CIRCLE
  5
9064
330
6A34
100
AcDbEntity
  8
SK1
100
AcDbCircle
 10
0.0
 20
0.0
 30
0.0
 40
1.159396655452817
  0
DIMENSION
  5
90ED
330
6A34
100
AcDbEntity
  8
SK2
100
AcDbDimension
  2
*D1
 10
-57.19888146935246
 20
-4.99999999999965
 30
0.0
 11
-60.44888146935246
 21
0.0000000000003414
 31
0.0
 70
    32
  1
%%c<>
 71
     5
 42
10.0
  3
AM_DIN
100
AcDbAlignedDimension
 13
-43.99999999999393
 23
5.000000000000346
 33
0.0
 14
-43.99999999999393
 24
-4.999999999999653
 34
0.0
 50
89.99999999999975
100
AcDbRotatedDimension
  0
ARC
  5
9365
330
6A34
100
AcDbEntity
  8
1
100
AcDbCircle
 10
19.80000000000607
 20
4.000000000000194
 30
0.0
 40
0.2
100
AcDbArc
 50
315.8929251581095
 51
42.91511810520971
1001
GENIUS_GENODEF_13
1002
{
1000
HIER
1070
     0
1002
}
1002
{
1000
MANEDIT
1070
     0
1002
}
1002
{
1000
NOSEL
1070
     0
1002
}
1002
{
1000
BEHIND
1070
     0
1002
}
1002
{
1000
OTHER
1070
     0
1002
}
1002
{
1000
REACTOR
1002
}
1001
GENIUS_GENOBJ-N-FIL_13
1002
{
1000
OWNER
1000
GEN
1002
}
  0
LINE
  5
940A
330
6A34
100
AcDbEntity
  8
1
100
AcDbLine
 10
15.86670945218517
 20
-8.210592881461533
 30
0.0
 11
13.41564866984661
 21
-6.853972598215156
 31
0.0
  0
CIRCLE
  5
940C
330
6A34
100
AcDbEntity
  8
SK3
 48
0.3
100
AcDbCircle
 10
16.27992338188403
 20
-4.976155481998029
 30
0.0
 40
1.255206518985224
  0
ARC
  5
940D
330
6A34
100
AcDbEntity
  8
SK3
 48
0.3
100
AcDbCircle
 10
128.6014997217178
 20
-113.6559922031672
 30
0.0
 40
158.3751292476171
100
AcDbArc
 50
135.0506899830325
 51
136.7114135157257
  0
ARC
  5
940F
330
6A34
100
AcDbEntity
  8
SK3
100
AcDbCircle
 10
12.75984676376203
 20
-5.952310963996223
 30
0.0
 40
0.2
100
AcDbArc
 50
137.0848818947896
 51
214.8559841135658
1001
GENIUS_GENODEF_13
1002
{
1000
HIER
1070
     0
1002
}
1002
{
1000
MANEDIT
1070
     0
1002
}
1002
{
1000
NOSEL
1070
     0
1002
}
1002
{
1000
BEHIND
1070
     0
1002
}
1002
{
1000
OTHER
1070
     0
1002
}
1002
{
1000
REACTOR
1002
}
1001
GENIUS_GENOBJ-N-FIL_13
1002
{
1000
OWNER
1000
GEN
1002
}
  0
LINE
  5
9411
330
6A34
100
AcDbEntity
  8
1
100
AcDbLine
 10
12.61623869146724
 20
-6.091511256997888
 30
0.0
 11
13.1818649171202
 21
-6.675048045274728
 31
0.0
  0
ARC
  5
9412
330
6A34
100
AcDbEntity
  8
1
100
AcDbCircle
 10
13.89990527859429
 20
-5.979046580266124
 30
0.0
 40
1.0
100
AcDbArc
 50
224.1070748418939
 51
241.0362210868633
1001
GENIUS_GENODEF_13
1002
{
1000
HIER
1070
     0
1002
}
1002
{
1000
MANEDIT
1070
     0
1002
}
1002
{
1000
NOSEL
1070
     0
1002
}
1002
{
1000
BEHIND
1070
     0
1002
}
1002
{
1000
OTHER
1070
     0
1002
}
1002
{
1000
REACTOR
1002
}
1001
GENIUS_GENOBJ-N-FIL_13
1002
{
1000
OWNER
1000
GEN
1002
}
  0
LINE
  5
9415
330
6A34
100
AcDbEntity
  8
SK3
 48
0.3
100
AcDbLine
 10
16.69313731158305
 20
-1.74171808253452
 30
0.0
 11
19.14419809392147
 21
-3.098338365780866
 31
0.0
  0
ARC
  5
9417
330
6A34
100
AcDbEntity
  8
SK3
100
AcDbCircle
 10
16.62049882027089
 20
-1.872956985226882
 30
0.0
 40
0.15
100
AcDbArc
 50
61.03622108686757
 51
135.0506899830748
1001
GENIUS_GENOBJ-N-FIL_13
1002
{
1000
OWNER
1000
GEN
1002
}
1001
GENIUS_GENODEF_13
1002
{
1000
HIER
1070
     0
1002
}
1002
{
1000
MANEDIT
1070
     0
1002
}
1002
{
1000
NOSEL
1070
     0
1002
}
1002
{
1000
BEHIND
1070
     0
1002
}
1002
{
1000
OTHER
1070
     0
1002
}
1002
{
1000
REACTOR
1002
}
  0
ARC
  5
9419
330
6A34
100
AcDbEntity
  8
1
100
AcDbCircle
 10
-96.04165295794956
 20
103.7036812391713
 30
0.0
 40
158.3751292476171
100
AcDbArc
 50
315.0506899830325
 51
317.084881894788
  0
ARC
  5
941B
330
6A34
100
AcDbEntity
  8
1
100
AcDbCircle
 10
15.93934794349732
 20
-8.079353978769212
 30
0.0
 40
0.15
100
AcDbArc
 50
241.0362210868597
 51
315.0506899830406
1001
GENIUS_GENOBJ-N-FIL_13
1002
{
1000
OWNER
1000
GEN
1002
}
1001
GENIUS_GENODEF_13
1002
{
1000
HIER
1070
     0
1002
}
1002
{
1000
MANEDIT
1070
     0
1002
}
1002
{
1000
NOSEL
1070
     0
1002
}
1002
{
1000
BEHIND
1070
     0
1002
}
1002
{
1000
OTHER
1070
     0
1002
}
1002
{
1000
REACTOR
1002
}
  0
ARC
  5
941D
330
6A34
100
AcDbEntity
  8
1
100
AcDbCircle
 10
19.80000000000602
 20
-3.99999999999983
 30
0.0
 40
0.2
100
AcDbArc
 50
317.0848818947896
 51
44.10707484188985
1001
GENIUS_GENODEF_13
1002
{
1000
HIER
1070
     0
1002
}
1002
{
1000
MANEDIT
1070
     0
1002
}
1002
{
1000
NOSEL
1070
     0
1002
}
1002
{
1000
BEHIND
1070
     0
1002
}
1002
{
1000
OTHER
1070
     0
1002
}
1002
{
1000
REACTOR
1002
}
1001
GENIUS_GENOBJ-N-FIL_13
1002
{
1000
OWNER
1000
GEN
1002
}
  0
LINE
  5
941F
330
6A34
100
AcDbEntity
  8
SK1
100
AcDbLine
 10
20.32793446633273
 20
-4.327934466326545
 30
0.0
 11
20.00000000000603
 21
-3.999999999999831
 31
0.0
  0
CIRCLE
  5
9420
330
6A34
100
AcDbEntity
  8
SK1
100
AcDbCircle
 10
20.00000000000602
 20
-3.99999999999983
 30
0.0
 40
0.4637693698488208
  0
LINE
  5
9421
330
6A34
100
AcDbEntity
  8
SK1
100
AcDbLine
 10
20.00000000000603
 20
-3.999999999999822
 30
0.0
 11
20.32793446633274
 21
-3.672065533673119
 31
0.0
  0
ARC
  5
9422
330
6A34
100
AcDbEntity
  8
1
100
AcDbCircle
 10
18.6599414851738
 20
-3.973264383729929
 30
0.0
 40
1.0
100
AcDbArc
 50
44.10707484189376
 51
61.03622108686402
1001
GENIUS_GENODEF_13
1002
{
1000
HIER
1070
     0
1002
}
1002
{
1000
MANEDIT
1070
     0
1002
}
1002
{
1000
NOSEL
1070
     0
1002
}
1002
{
1000
BEHIND
1070
     0
1002
}
1002
{
1000
OTHER
1070
     0
1002
}
1002
{
1000
REACTOR
1002
}
1001
GENIUS_GENOBJ-N-FIL_13
1002
{
1000
OWNER
1000
GEN
1002
}
  0
LINE
  5
9424
330
6A34
100
AcDbEntity
  8
1
100
AcDbLine
 10
19.94360807230087
 20
-3.860799706998142
 30
0.0
 11
19.37798184664794
 21
-3.277262918721286
 31
0.0
  0
LINE
  5
942D
330
6A34
100
AcDbEntity
  8
1
100
AcDbLine
 10
19.07963751256455
 20
-3.963684627236414
 30
0.0
 11
15.53015633990242
 21
-7.766726965927034
 31
0.0
  0
LINE
  5
942E
330
6A34
100
AcDbEntity
  8
1
100
AcDbLine
 10
15.53015633990242
 20
-7.766726965927034
 30
0.0
 11
13.78785983978645
 21
-6.757296542049801
 31
0.0
  0
LINE
  5
9438
330
6A34
100
AcDbEntity
  8
1
100
AcDbLine
 10
12.59572852997288
 20
6.066614093166037
 30
0.0
 11
10.7547319069866
 21
4.999999999999998
 31
0.0
  0
LINE
  5
9444
330
6A34
100
AcDbEntity
  8
NOCUT
100
AcDbLine
 10
0.0000000000041247
 20
-0.000000000000576
 30
0.0
 11
0.0000000000043272
 21
-4.999999999999758
 31
0.0
  0
LINE
  5
9445
330
6A34
100
AcDbEntity
  8
NOCUT
100
AcDbLine
 10
10.75473190698701
 20
-4.999999999999801
 30
0.0
 11
0.00000000000189
 21
-4.999999999999801
 31
0.0
  0
LINE
  5
9446
330
6A34
100
AcDbEntity
  8
NOCUT
100
AcDbLine
 10
15.53015633990242
 20
-7.766726965927034
 30
0.0
 11
13.78785983978645
 21
-6.7572965420498
 31
0.0
  0
LINE
  5
9447
330
6A34
100
AcDbEntity
  8
NOCUT
100
AcDbLine
 10
19.07963751256455
 20
-3.963684627236416
 30
0.0
 11
15.53015633990242
 21
-7.766726965927034
 31
0.0
  0
LINE
  5
9448
330
6A34
100
AcDbEntity
  8
NOCUT
100
AcDbLine
 10
19.07963751256456
 20
0.0000000000001843
 30
0.0
 11
19.07963751256455
 21
-3.963684627236416
 31
0.0
  0
LINE
  5
9449
330
6A34
100
AcDbEntity
  8
NOCUT
100
AcDbLine
 10
19.07963751256456
 20
0.0000000000001843
 30
0.0
 11
0.0000000000041283
 21
-0.000000000000576
 31
0.0
  0
ARC
  5
945B
330
6A34
100
AcDbEntity
  8
SK3
100
AcDbCircle
 10
128.6014997217178
 20
-113.6559922031672
 30
0.0
 40
158.3751292476171
100
AcDbArc
 50
136.7114135157257
 51
137.0848818947879
  0
LINE
  5
945C
330
6A34
100
AcDbEntity
  8
NOCUT
100
AcDbLine
 10
13.78785983978645
 20
-6.7572965420498
 30
0.0
 11
10.75473190698701
 21
-4.999999999999801
 31
0.0
  0
LINE
  5
945D
330
6A34
100
AcDbEntity
  8
1
100
AcDbLine
 10
13.78785983978645
 20
-6.757296542049801
 30
0.0
 11
12.59572852997281
 21
-6.06661409316558
 31
0.0
  0
LINE
  5
945F
330
6A34
100
AcDbEntity
  8
1
100
AcDbLine
 10
19.07963751256455
 20
-3.418091961745537
 30
0.0
 11
19.07963751256455
 21
-3.963684627236414
 31
0.0
  0
ARC
  5
9472
330
6A34
100
AcDbEntity
  8
1
100
AcDbCircle
 10
18.56757707037859
 20
4.593841513525954
 30
0.0
 40
4.256374530496634
100
AcDbArc
 50
230.5890696859923
 51
276.9096687633059
  0
LINE
  5
9473
330
6A34
100
AcDbEntity
  8
1
100
AcDbLine
 10
15.86529887869757
 20
1.305313466112399
 30
0.0
 11
10.99619021854058
 21
5.139893161562562
 31
0.0
  0
DIMENSION
  5
94DC
330
6A34
100
AcDbEntity
  8
2
100
AcDbDimension
  2
*D3
 10
36.54527365416625
 20
4.00000000000017
 30
0.0
 11
33.29527365416625
 21
0.0000000000001738
 31
0.0
 70
    32
  1
%%c<>
 71
     5
 42
8.000000000000005
  3
AM_DIN
100
AcDbAlignedDimension
 13
20.00000000000602
 23
-3.99999999999983
 33
0.0
 14
20.00000000000607
 24
4.000000000000174
 34
0.0
 50
90.0
100
AcDbRotatedDimension
  0
CIRCLE
  5
953B
330
6A34
100
AcDbEntity
  8
1
100
AcDbCircle
 10
16.23901609506921
 20
7.991139237008406
 30
0.0
 40
0.1027595936053767
  0
CIRCLE
  5
954A
330
6A34
100
AcDbEntity
  8
1
100
AcDbCircle
 10
16.23901609506921
 20
-7.991139237008058
 30
0.0
 40
0.1027595936053767
  0
LINE
  5
976F
330
6A34
100
AcDbEntity
  8
1
100
AcDbLine
 10
12.59572852997281
 20
-6.06661409316558
 30
0.0
 11
10.75473190698701
 21
-4.9999999999998
 31
0.0
  0
ARC
  5
9770
330
6A34
100
AcDbEntity
  8
1
100
AcDbCircle
 10
12.75984676376203
 20
-5.952310963996223
 30
0.0
 40
0.2
100
AcDbArc
 50
214.8559841135658
 51
224.1070748418898
1001
GENIUS_GENODEF_13
1002
{
1000
HIER
1070
     0
1002
}
1002
{
1000
MANEDIT
1070
     0
1002
}
1002
{
1000
NOSEL
1070
     0
1002
}
1002
{
1000
BEHIND
1070
     0
1002
}
1002
{
1000
OTHER
1070
     0
1002
}
1002
{
1000
REACTOR
1002
}
1001
GENIUS_GENOBJ-N-FIL_13
1002
{
1000
OWNER
1000
GEN
1002
}
  0
ARC
  5
9778
330
6A34
100
AcDbEntity
  8
SK3
 48
0.3
100
AcDbCircle
 10
18.56757707037854
 20
-4.593841513525576
 30
0.0
 40
4.256374530496634
100
AcDbArc
 50
83.09033123669346
 51
129.410930314007
  0
LINE
  5
9779
330
6A34
100
AcDbEntity
  8
SK3
 48
0.3
100
AcDbLine
 10
15.86529887869755
 20
-1.30531346611199
 30
0.0
 11
10.99619021854052
 21
-5.139893161562095
 31
0.0
  0
DIMENSION
  5
9798
330
6A34
100
AcDbEntity
  8
2
100
AcDbDimension
  2
*D5
 10
47.25416093637843
 20
-7.991139237008074
 30
0.0
 11
44.00416093637843
 21
0.0000000000001654
 31
0.0
 70
    32
  1
%%c<>
 71
     5
 42
15.98227847401646
  3
AM_DIN
100
AcDbAlignedDimension
 13
16.15617338259453
 23
7.991139237008398
 33
0.0
 14
16.15617338259453
 24
-7.991139237008066
 34
0.0
 50
90.00000000000003
100
AcDbRotatedDimension
1001
ACAD
1000
DSTYLE
1002
{
1070
   271
1070
     1
1002
}
  0
DIMENSION
  5
97FD
330
6A34
100
AcDbEntity
  8
2
100
AcDbDimension
  2
*D6
 10
16.25893297619991
 20
60.00000000000025
 30
0.0
 11
12.69812537404685
 21
63.60311879673535
 31
0.0
 70
   160
  1
3.9
 71
     5
 42
3.741067023806152
  3
AM_DIN
100
AcDbAlignedDimension
 13
20.00000000000607
 23
4.000000000000174
 33
0.0
 14
16.25893297619991
 24
7.991139237008398
 34
0.0
 50
0.0000000000000114
100
AcDbRotatedDimension
1001
ACAD
1000
DSTYLE
1002
{
1070
   271
1070
     1
1002
}
  0
DIMENSION
  5
989D
330
6A34
100
AcDbEntity
  8
2
100
AcDbDimension
  2
*D7
 10
15.53577823798695
 20
8.46422176201929
 30
0.0
 11
8.534570730598835
 21
31.67999484063261
 31
0.0
 70
    34
 71
     5
 42
0.7853981633974441
  3
AM_DIN
100
AcDb2LineAngularDimension
 13
20.00000000000607
 23
5.614024659729827
 33
0.0
 14
20.00000000000607
 24
6.640844445358445
 34
0.0
 15
15.89779454874229
 25
8.10220545126395
 35
0.0
 16
13.08678529120898
 26
29.80046853686337
 36
0.0
1001
ACAD
1000
DSTYLE
1002
{
1070
   271
1070
     1
1002
}
  0
DIMENSION
  5
9A81
330
6A34
100
AcDbEntity
  8
SK2
100
AcDbDimension
  2
*D9
 10
20.00000000000602
 20
-22.30393741229971
 30
0.0
 11
-12.49999999999396
 21
-19.05393741229971
 31
0.0
 70
    32
 71
     5
 42
64.99999999999996
  3
AM_DIN$0
100
AcDbAlignedDimension
 13
-44.99999999999394
 23
-3.999999999999654
 33
0.0
 14
20.00000000000602
 24
-3.99999999999983
 34
0.0
 50
0.0000000000001132
100
AcDbRotatedDimension
1001
ACAD
1000
DSTYLE
1002
{
1070
   271
1070
     1
1002
}
  0
DIMENSION
  5
9AB9
330
6A34
100
AcDbEntity
  8
2
100
AcDbDimension
  2
*D10
 10
19.99998918039099
 20
75.00000000000025
 30
0.0
 11
9.999994590196527
 21
78.25034448818922
 31
0.0
 70
    32
 71
     5
 42
19.99998918038892
  3
AM_DIN$0
100
AcDbAlignedDimension
 13
0.0000000000020606
 23
5.000000000000201
 33
0.0
 14
19.99998918039098
 24
3.997919680555104
 34
0.0
100
AcDbRotatedDimension
1001
ACAD
1000
DSTYLE
1002
{
1070
   271
1070
     1
1002
}
  0
ENDSEC
  0
SECTION
  2
OBJECTS
  0
DICTIONARY
  5
6A22
330
0
100
AcDbDictionary
281
     1
  3
ACAD_COLOR
350
9922
  3
ACAD_GROUP
350
6A23
  3
ACAD_LAYOUT
350
6A2F
  3
ACAD_MATERIAL
350
9921
  3
ACAD_MLINESTYLE
350
6A2C
  3
ACAD_PLOTSETTINGS
350
6A2E
  3
ACAD_PLOTSTYLENAME
350
6A24
  3
ACAD_TABLESTYLE
350
9923
  3
ACDBHEADERROUNDTRIPXREC
350
9B2A
  3
AcDbVariableDictionary
350
6B78
  3
AcmDictionary
350
6B39
  3
AMG
350
6B22
  3
AMGSNAPSETTINGS
350
6B59
  3
DWGPROPS
350
9B29
  0
DICTIONARY
  5
6B62
330
6A34
100
AcDbDictionary
280
     1
281
     1
  0
DICTIONARY
  5
9922
102
{ACAD_REACTORS
330
6A22
102
}
330
6A22
100
AcDbDictionary
281
     1
  0
DICTIONARY
  5
6A23
102
{ACAD_REACTORS
330
6A22
102
}
330
6A22
100
AcDbDictionary
281
     1
  0
DICTIONARY
  5
6A2F
102
{ACAD_REACTORS
330
6A22
102
}
330
6A22
100
AcDbDictionary
281
     1
  3
Layout1
350
6A33
  3
Model
350
6A37
  0
DICTIONARY
  5
9921
102
{ACAD_REACTORS
330
6A22
102
}
330
6A22
100
AcDbDictionary
281
     1
  0
DICTIONARY
  5
6A2C
102
{ACAD_REACTORS
330
6A22
102
}
330
6A22
100
AcDbDictionary
281
     1
  3
Standard
350
6A2D
  0
DICTIONARY
  5
6A2E
102
{ACAD_REACTORS
330
6A22
102
}
330
6A22
100
AcDbDictionary
281
     1
  0
ACDBDICTIONARYWDFLT
  5
6A24
102
{ACAD_REACTORS
330
6A22
102
}
330
6A22
100
AcDbDictionary
281
     1
  3
Normal
350
6A25
100
AcDbDictionaryWithDefault
340
6A25
  0
DICTIONARY
  5
9923
102
{ACAD_REACTORS
330
6A22
102
}
330
6A22
100
AcDbDictionary
281
     1
  3
Standard
350
9924
  0
DICTIONARY
  5
9B2A
102
{ACAD_REACTORS
330
6A22
102
}
330
6A22
100
AcDbDictionary
281
     1
  0
DICTIONARY
  5
6B78
102
{ACAD_REACTORS
330
6A22
102
}
330
6A22
100
AcDbDictionary
281
     1
  3
CTABLESTYLE
350
9B26
  3
DIMASSOC
350
6B7A
  3
INDEXCTL
350
6B79
  3
PROJECTNAME
350
9B27
  0
DICTIONARY
  5
6B39
102
{ACAD_REACTORS
330
6A22
102
}
330
6A22
100
AcDbDictionary
281
     1
  3
AcmStdDictionary
350
6B3F
  3
AMDTSECTSYM_ARROWCOLOR
350
9970
  0
DICTIONARY
  5
6B22
102
{ACAD_REACTORS
330
6A22
102
}
330
6A22
100
AcDbDictionary
281
     1
  0
DICTIONARY
  5
6B59
102
{ACAD_REACTORS
330
6A22
102
}
330
6A22
100
AcDbDictionary
281
     1
  0
XRECORD
  5
9B29
102
{ACAD_REACTORS
330
6A22
102
}
330
6A22
100
AcDbXrecord
280
     1
  1
DWGPROPS COOKIE
  2

  3

  4

  6

  7

  8

  9

300
AmdtFileType=84
301
=
302
=
303
=
304
=
305
=
306
=
307
=
308
=
309
=
 40
0.2549169907407407
 41
2453447.43007081
 42
2454134.409291991
  1

 90
        1
  0
LAYOUT
  5
6A33
102
{ACAD_XDICTIONARY
360
9B2B
102
}
102
{ACAD_REACTORS
330
6A2F
102
}
330
6A2F
100
AcDbPlotSettings
  1

  2
HP DesignJet 220 (D/A1) by HP
  4

  6

 40
0.0
 41
0.0
 42
0.0
 43
0.0
 44
0.0
 45
0.0
 46
0.0
 47
0.0
 48
0.0
 49
0.0
140
0.0
141
0.0
142
1.0
143
1.0
 70
   688
 72
     0
 73
     0
 74
     5
  7
monochrome2.ctb
 75
    16
147
1.0
148
0.0
149
0.0
100
AcDbLayout
  1
Layout1
 70
     1
 71
     1
 10
0.0
 20
0.0
 11
420.0
 21
297.0
 12
0.0
 22
0.0
 32
0.0
 14
1.000000000000000E+20
 24
1.000000000000000E+20
 34
1.000000000000000E+20
 15
-1.000000000000000E+20
 25
-1.000000000000000E+20
 35
-1.000000000000000E+20
146
0.0
 13
0.0
 23
0.0
 33
0.0
 16
1.0
 26
0.0
 36
0.0
 17
0.0
 27
1.0
 37
0.0
 76
     0
330
6A30
  0
LAYOUT
  5
6A37
102
{ACAD_XDICTIONARY
360
9B2D
102
}
102
{ACAD_REACTORS
330
6A2F
102
}
330
6A2F
100
AcDbPlotSettings
  1

  2
HP DesignJet 220 (D/A1) by HP
  4

  6

 40
0.0
 41
0.0
 42
0.0
 43
0.0
 44
0.0
 45
0.0
 46
0.0
 47
0.0
 48
0.0
 49
0.0
140
0.0
141
0.0
142
1.0
143
1.0
 70
  1712
 72
     0
 73
     0
 74
     0
  7
monochrome2.ctb
 75
     0
147
1.0
148
0.0
149
0.0
100
AcDbLayout
  1
Model
 70
     1
 71
     0
 10
0.0
 20
0.0
 11
12.0
 21
9.0
 12
0.0
 22
0.0
 32
0.0
 14
0.0
 24
0.0
 34
0.0
 15
0.0
 25
0.0
 35
0.0
146
0.0
 13
0.0
 23
0.0
 33
0.0
 16
1.0
 26
0.0
 36
0.0
 17
0.0
 27
1.0
 37
0.0
 76
     0
330
6A34
  0
MLINESTYLE
  5
6A2D
102
{ACAD_REACTORS
330
6A2C
102
}
330
6A2C
100
AcDbMlineStyle
  2
STANDARD
 70
     0
  3

 62
   256
 51
90.0
 52
90.0
 71
     2
 49
0.5
 62
   256
  6
BYLAYER
 49
-0.5
 62
   256
  6
BYLAYER
  0
ACDBPLACEHOLDER
  5
6A25
102
{ACAD_REACTORS
330
6A24
102
}
330
6A24
  0
TABLESTYLE
  5
9924
102
{ACAD_REACTORS
330
9923
102
}
330
9923
100
AcDbTableStyle
  3
Standard
 70
     0
 71
     0
 40
1.5
 41
1.5
280
     0
281
     0
  7
STANDARD
140
4.5
170
     2
 62
     0
 63
     7
283
     0
274
    -2
284
     1
 64
     0
275
    -2
285
     1
 65
     0
276
    -2
286
     1
 66
     0
277
    -2
287
     1
 67
     0
278
    -2
288
     1
 68
     0
279
    -2
289
     1
 69
     0
  7
STANDARD
140
6.0
170
     5
 62
     0
 63
     7
283
     0
274
    -2
284
     1
 64
     0
275
    -2
285
     1
 65
     0
276
    -2
286
     1
 66
     0
277
    -2
287
     1
 67
     0
278
    -2
288
     1
 68
     0
279
    -2
289
     1
 69
     0
  7
STANDARD
140
4.5
170
     5
 62
     0
 63
     7
283
     0
274
    -2
284
     1
 64
     0
275
    -2
285
     1
 65
     0
276
    -2
286
     1
 66
     0
277
    -2
287
     1
 67
     0
278
    -2
288
     1
 68
     0
279
    -2
289
     1
 69
     0
  0
DICTIONARYVAR
  5
9B26
102
{ACAD_REACTORS
330
6B78
102
}
330
6B78
100
DictionaryVariables
280
     0
  1
STANDARD
  0
DICTIONARYVAR
  5
6B7A
102
{ACAD_REACTORS
330
6B78
102
}
330
6B78
100
DictionaryVariables
280
     0
  1
1
  0
DICTIONARYVAR
  5
6B79
102
{ACAD_REACTORS
330
6B78
102
}
330
6B78
100
DictionaryVariables
280
     0
  1
0
  0
DICTIONARYVAR
  5
9B27
102
{ACAD_REACTORS
330
6B78
102
}
330
6B78
100
DictionaryVariables
280
     0
  1

  0
DICTIONARY
  5
6B3F
102
{ACAD_REACTORS
330
6B39
102
}
330
6B39
100
AcDbDictionary
281
     1
  0
XRECORD
  5
9970
102
{ACAD_REACTORS
330
6B39
102
}
330
6B39
100
AcDbXrecord
280
     1
 90
-1023410169
  0
DICTIONARY
  5
9B2B
330
6A33
100
AcDbDictionary
280
     1
281
     1
  3
ACAD_XREC_ROUNDTRIP
360
9B2C
  0
DICTIONARY
  5
9B2D
330
6A37
100
AcDbDictionary
280
     1
281
     1
  3
ACAD_XREC_ROUNDTRIP
360
9B2E
  0
XRECORD
  5
9B2C
102
{ACAD_REACTORS
330
9B2B
102
}
330
9B2B
100
AcDbXrecord
280
     1
102
SHADEPLOT
 70
     0
102
SHADEPLOTRESLEVEL
 70
     2
102
SHADEPLOTCUSTOMDPI
 70
   300
  0
XRECORD
  5
9B2E
102
{ACAD_REACTORS
330
9B2D
102
}
330
9B2D
100
AcDbXrecord
280
     1
102
SHADEPLOT
 70
     0
102
SHADEPLOTRESLEVEL
 70
     2
102
SHADEPLOTCUSTOMDPI
 70
   300
  0
ENDSEC
  0
EOF
