  0
SECTION
  2
HEADER
  9
$ACADVER
  1
AC1018
  9
$ACADMAINTVER
 70
   104
  9
$DWGCODEPAGE
  3
ANSI_1252
  9
$LASTSAVEDBY
  1
Bernd Dutschke
  9
$CUSTOMPROPERTYTAG
  1
AmdtFileType
  9
$CUSTOMPROPERTY
  1
84
  9
$INSBASE
 10
0.0
 20
0.0
 30
0.0
  9
$EXTMIN
 10
-83.86914398514518
 20
-26.53947360419999
 30
-0.00000001
  9
$EXTMAX
 10
77.23233234577344
 20
95.0
 30
0.00000001
  9
$LIMMIN
 10
0.0
 20
0.0
  9
$LIMMAX
 10
420.0
 20
297.0
  9
$ORTHOMODE
 70
     0
  9
$REGENMODE
 70
     1
  9
$FILLMODE
 70
     1
  9
$QTEXTMODE
 70
     0
  9
$MIRRTEXT
 70
     1
  9
$LTSCALE
 40
1.0
  9
$ATTMODE
 70
     1
  9
$TEXTSIZE
 40
2.5
  9
$TRACEWID
 40
1.0
  9
$TEXTSTYLE
  7
STANDARD
  9
$CLAYER
  8
2
  9
$CELTYPE
  6
ByLayer
  9
$CECOLOR
 62
   256
  9
$CELTSCALE
 40
0.1
  9
$DISPSILH
 70
     0
  9
$DIMSCALE
 40
1.0
  9
$DIMASZ
 40
2.5
  9
$DIMEXO
 40
0.0
  9
$DIMDLI
 40
10.0
  9
$DIMRND
 40
0.0
  9
$DIMDLE
 40
0.0
  9
$DIMEXE
 40
1.0
  9
$DIMTP
 40
0.1
  9
$DIMTM
 40
0.1
  9
$DIMTXT
 40
3.5
  9
$DIMCEN
 40
0.0
  9
$DIMTSZ
 40
0.0
  9
$DIMTOL
 70
     0
  9
$DIMLIM
 70
     0
  9
$DIMTIH
 70
     0
  9
$DIMTOH
 70
     0
  9
$DIMSE1
 70
     0
  9
$DIMSE2
 70
     0
  9
$DIMTAD
 70
     1
  9
$DIMZIN
 70
     8
  9
$DIMBLK
  1

  9
$DIMASO
 70
     1
  9
$DIMSHO
 70
     1
  9
$DIMPOST
  1

  9
$DIMAPOST
  1
"
  9
$DIMALT
 70
     0
  9
$DIMALTD
 70
     2
  9
$DIMALTF
 40
0.0393701
  9
$DIMLFAC
 40
1.0
  9
$DIMTOFL
 70
     1
  9
$DIMTVP
 40
0.0
  9
$DIMTIX
 70
     0
  9
$DIMSOXD
 70
     0
  9
$DIMSAH
 70
     0
  9
$DIMBLK1
  1

  9
$DIMBLK2
  1

  9
$DIMSTYLE
  2
AM_DIN
  9
$DIMCLRD
 70
   256
  9
$DIMCLRE
 70
   256
  9
$DIMCLRT
 70
     2
  9
$DIMTFAC
 40
0.71
  9
$DIMGAP
 40
1.5
  9
$DIMJUST
 70
     0
  9
$DIMSD1
 70
     0
  9
$DIMSD2
 70
     0
  9
$DIMTOLJ
 70
     0
  9
$DIMTZIN
 70
     8
  9
$DIMALTZ
 70
     0
  9
$DIMALTTZ
 70
     0
  9
$DIMUPT
 70
     0
  9
$DIMDEC
 70
     2
  9
$DIMTDEC
 70
     2
  9
$DIMALTU
 70
     2
  9
$DIMALTTD
 70
     2
  9
$DIMTXSTY
  7
STANDARD
  9
$DIMAUNIT
 70
     0
  9
$DIMADEC
 70
     0
  9
$DIMALTRND
 40
0.0
  9
$DIMAZIN
 70
     2
  9
$DIMDSEP
 70
    46
  9
$DIMATFIT
 70
     3
  9
$DIMFRAC
 70
     0
  9
$DIMLDRBLK
  1

  9
$DIMLUNIT
 70
     2
  9
$DIMLWD
 70
    -1
  9
$DIMLWE
 70
    -1
  9
$DIMTMOVE
 70
     0
  9
$LUNITS
 70
     2
  9
$LUPREC
 70
     2
  9
$SKETCHINC
 40
1.0
  9
$FILLETRAD
 40
0.5
  9
$AUNITS
 70
     0
  9
$AUPREC
 70
     0
  9
$MENU
  1
.
  9
$ELEVATION
 40
0.0
  9
$PELEVATION
 40
0.0
  9
$THICKNESS
 40
0.0
  9
$LIMCHECK
 70
     0
  9
$CHAMFERA
 40
2.5
  9
$CHAMFERB
 40
2.5
  9
$CHAMFERC
 40
20.0
  9
$CHAMFERD
 40
0.0
  9
$SKPOLY
 70
     0
  9
$TDCREATE
 40
2453599.324339375
  9
$TDUCREATE
 40
2453599.282672708
  9
$TDUPDATE
 40
2454798.591585822
  9
$TDUUPDATE
 40
2454798.549919155
  9
$TDINDWG
 40
0.1982031481
  9
$TDUSRTIMER
 40
0.1981788079
  9
$USRTIMER
 70
     1
  9
$ANGBASE
 50
0.0
  9
$ANGDIR
 70
     0
  9
$PDMODE
 70
     0
  9
$PDSIZE
 40
0.0
  9
$PLINEWID
 40
0.0
  9
$SPLFRAME
 70
     0
  9
$SPLINETYPE
 70
     6
  9
$SPLINESEGS
 70
     8
  9
$HANDSEED
  5
4C43
  9
$SURFTAB1
 70
     6
  9
$SURFTAB2
 70
     6
  9
$SURFTYPE
 70
     6
  9
$SURFU
 70
     6
  9
$SURFV
 70
     6
  9
$UCSBASE
  2

  9
$UCSNAME
  2

  9
$UCSORG
 10
0.0
 20
0.0
 30
0.0
  9
$UCSXDIR
 10
1.0
 20
0.0
 30
0.0
  9
$UCSYDIR
 10
0.0
 20
1.0
 30
0.0
  9
$UCSORTHOREF
  2

  9
$UCSORTHOVIEW
 70
     0
  9
$UCSORGTOP
 10
0.0
 20
0.0
 30
0.0
  9
$UCSORGBOTTOM
 10
0.0
 20
0.0
 30
0.0
  9
$UCSORGLEFT
 10
0.0
 20
0.0
 30
0.0
  9
$UCSORGRIGHT
 10
0.0
 20
0.0
 30
0.0
  9
$UCSORGFRONT
 10
0.0
 20
0.0
 30
0.0
  9
$UCSORGBACK
 10
0.0
 20
0.0
 30
0.0
  9
$PUCSBASE
  2

  9
$PUCSNAME
  2

  9
$PUCSORG
 10
0.0
 20
0.0
 30
0.0
  9
$PUCSXDIR
 10
1.0
 20
0.0
 30
0.0
  9
$PUCSYDIR
 10
0.0
 20
1.0
 30
0.0
  9
$PUCSORTHOREF
  2

  9
$PUCSORTHOVIEW
 70
     0
  9
$PUCSORGTOP
 10
0.0
 20
0.0
 30
0.0
  9
$PUCSORGBOTTOM
 10
0.0
 20
0.0
 30
0.0
  9
$PUCSORGLEFT
 10
0.0
 20
0.0
 30
0.0
  9
$PUCSORGRIGHT
 10
0.0
 20
0.0
 30
0.0
  9
$PUCSORGFRONT
 10
0.0
 20
0.0
 30
0.0
  9
$PUCSORGBACK
 10
0.0
 20
0.0
 30
0.0
  9
$USERI1
 70
     0
  9
$USERI2
 70
     0
  9
$USERI3
 70
     0
  9
$USERI4
 70
     0
  9
$USERI5
 70
     0
  9
$USERR1
 40
0.0
  9
$USERR2
 40
0.0
  9
$USERR3
 40
0.0
  9
$USERR4
 40
0.0
  9
$USERR5
 40
0.0
  9
$WORLDVIEW
 70
     1
  9
$SHADEDGE
 70
     3
  9
$SHADEDIF
 70
    70
  9
$TILEMODE
 70
     1
  9
$MAXACTVP
 70
    64
  9
$PINSBASE
 10
0.0
 20
0.0
 30
0.0
  9
$PLIMCHECK
 70
     0
  9
$PEXTMIN
 10
1.000000000000000E+20
 20
1.000000000000000E+20
 30
1.000000000000000E+20
  9
$PEXTMAX
 10
-1.000000000000000E+20
 20
-1.000000000000000E+20
 30
-1.000000000000000E+20
  9
$PLIMMIN
 10
0.0
 20
0.0
  9
$PLIMMAX
 10
420.0
 20
297.0
  9
$UNITMODE
 70
     0
  9
$VISRETAIN
 70
     1
  9
$PLINEGEN
 70
     0
  9
$PSLTSCALE
 70
     1
  9
$TREEDEPTH
 70
  3020
  9
$CMLSTYLE
  2
Standard
  9
$CMLJUST
 70
     0
  9
$CMLSCALE
 40
20.0
  9
$PROXYGRAPHICS
 70
     1
  9
$MEASUREMENT
 70
     1
  9
$CELWEIGHT
370
    -1
  9
$ENDCAPS
280
     0
  9
$JOINSTYLE
280
     0
  9
$LWDISPLAY
290
     0
  9
$INSUNITS
 70
     4
  9
$HYPERLINKBASE
  1

  9
$STYLESHEET
  1

  9
$XEDIT
290
     1
  9
$CEPSNTYPE
380
     0
  9
$PSTYLEMODE
290
     1
  9
$FINGERPRINTGUID
  2
{03052709-208C-44F1-88CB-F8F0E550BC5D}
  9
$VERSIONGUID
  2
{44AEADF8-FE27-47DB-9852-EE07C76E4AA4}
  9
$EXTNAMES
290
     1
  9
$PSVPSCALE
 40
0.0
  9
$OLESTARTUP
290
     0
  9
$SORTENTS
280
   127
  9
$INDEXCTL
280
     0
  9
$HIDETEXT
280
     1
  9
$XCLIPFRAME
290
     0
  9
$HALOGAP
280
     0
  9
$OBSCOLOR
 70
   257
  9
$OBSLTYPE
280
     0
  9
$INTERSECTIONDISPLAY
280
     0
  9
$INTERSECTIONCOLOR
 70
   257
  9
$DIMASSOC
280
     1
  9
$PROJECTNAME
  1

  0
ENDSEC
  0
SECTION
  2
CLASSES
  0
CLASS
  1
ACDBDICTIONARYWDFLT
  2
AcDbDictionaryWithDefault
  3
ObjectDBX Classes
 90
        0
 91
        1
280
     0
281
     0
  0
CLASS
  1
ACME_DOCUMENT
  2
AcMeDbDoc
  3
AcMeServices
 90
     1024
 91
        2
280
     0
281
     0
  0
CLASS
  1
ACMESCOPE
  2
AcMeScope
  3
AcMeServices
 90
     1024
 91
        1
280
     0
281
     0
  0
CLASS
  1
ACMECOMMANDHISTORY
  2
AcMeCommandHistory
  3
AcMeServices
 90
     1024
 91
        1
280
     0
281
     0
  0
CLASS
  1
ACIMSYSVARMAN
  2
AcImSysVarManager
  3
AcMeServices
 90
     1024
 91
        5
280
     0
281
     0
  0
CLASS
  1
ACIMREALSYSVAR
  2
AcImRealSysVar
  3
AcMeServices
 90
     1024
 91
        1
280
     0
281
     0
  0
CLASS
  1
ACIMINTSYSVAR
  2
AcImIntSysVar
  3
AcMeServices
 90
     1024
 91
       27
280
     0
281
     0
  0
CLASS
  1
ACMEDRAWINGMAN
  2
AcMeDrawingMan
  3
AcMeServices
 90
     1024
 91
        1
280
     0
281
     0
  0
CLASS
  1
ACMEVIEW
  2
AcMeView
  3
AcMeServices
 90
     1024
 91
        1
280
     0
281
     0
  0
CLASS
  1
ACDBENTITYCACHE
  2
AcMeEntityCache
  3
AcMeServices
 90
     1024
 91
        1
280
     0
281
     0
  0
CLASS
  1
GSMANAGER
  2
AcMeGSManager
  3
AcMeServices
 90
     1024
 91
        1
280
     0
281
     0
  0
CLASS
  1
AMDTINTERNALREACTOR
  2
AmdtInternalReactor
  3
AcMeServices
 90
     1024
 91
        2
280
     0
281
     0
  0
CLASS
  1
ACMESTATEMGR
  2
AcMeStateMgr
  3
AcMeServices
 90
     1024
 91
        1
280
     0
281
     0
  0
CLASS
  1
ACGREFMASTER
  2
AcGrefMaster
  3
AcAttribServices
 90
     1024
 91
        1
280
     0
281
     0
  0
CLASS
  1
ACME_DATABASE
  2
AcMeDbDatabase
  3
AcMeServices
 90
     1024
 91
        1
280
     0
281
     0
  0
CLASS
  1
ACRFINSADJUSTERMGR
  2
AcRfInsAdjusterMgr
  3
AcMeServices
 90
     1024
 91
        1
280
     0
281
     0
  0
CLASS
  1
ACGREFACADMASTER
  2
AcGrefacadMaster
  3
AcGrefServices
 90
     1024
 91
        1
280
     0
281
     0
  0
CLASS
  1
AMIMASTER
  2
AmiMaster
  3
AmiServices
 90
     1024
 91
        1
280
     0
281
     0
  0
CLASS
  1
AMGSETTINGSOBJ
  2
AmgSettingsObj
  3
"AcadM|Product Description: AutoCAD Mechanical|Company: Autodesk, Inc."
 90
     1024
 91
        2
280
     0
281
     0
  0
CLASS
  1
ACMDATADICTIONARY
  2
AcmDataDictionary
  3
"AcmSymBB|Product Description: AutoCAD Mechanical|Company: Autodesk, Inc."
 90
     1024
 91
        1
280
     0
281
     0
  0
CLASS
  1
ACMDATAENTRYBLOCK
  2
AcmDataEntryBlock
  3
AcmSymBB|Product Description: AutoCAD Mechanical|Company: Autodesk, Inc.
 90
     1024
 91
        0
280
     0
281
     0
  0
CLASS
  1
ACIMSTRSYSVAR
  2
AcImStrSysVar
  3
AcMeServices
 90
     1024
 91
        4
280
     0
281
     0
  0
CLASS
  1
ACMSTANDARDDIN
  2
AcmStandardDIN
  3
"Amdt_StdImp|Product Description: AutoCAD Mechanical|Company: Autodesk, Inc."
 90
     1024
 91
        0
280
     0
281
     0
  0
CLASS
  1
AMGOBJPROPCFG
  2
AmgObjPropCfg
  3
"AmgLay|Product Description: AutoCAD Mechanical|Company: Autodesk, Inc."
 90
     1025
 91
        1
280
     0
281
     0
  0
CLASS
  1
AMDTEDGESTANDARDDIN
  2
AmdtEdgeStdDIN
  3
"Amdt_StdImp|Product Description: AutoCAD Mechanical|Company: Autodesk, Inc."
 90
     1024
 91
        0
280
     0
281
     0
  0
CLASS
  1
ACMSURFSTANDARDDIN
  2
AcmSurfTextStdDIN
  3
"Amdt_StdImp|Product Description: AutoCAD Mechanical|Company: Autodesk, Inc."
 90
     1024
 91
        0
280
     0
281
     0
  0
CLASS
  1
ACMFCFSTANDARDDIN
  2
AcmFCFStdDIN
  3
"Amdt_StdImp|Product Description: AutoCAD Mechanical|Company: Autodesk, Inc."
 90
     1024
 91
        0
280
     0
281
     0
  0
CLASS
  1
ACMWELDSTANDARDDIN
  2
AcmWeldingStdDIN
  3
"Amdt_StdImp|Product Description: AutoCAD Mechanical|Company: Autodesk, Inc."
 90
     1024
 91
        0
280
     0
281
     0
  0
CLASS
  1
ACMIDSTANDARDDIN
  2
AcmIdStdDIN
  3
"Amdt_StdImp|Product Description: AutoCAD Mechanical|Company: Autodesk, Inc."
 90
     1024
 91
        0
280
     0
281
     0
  0
CLASS
  1
ACMDATUMSTANDARDDIN
  2
AcmDatumStdDIN
  3
"Amdt_StdImp|Product Description: AutoCAD Mechanical|Company: Autodesk, Inc."
 90
     1024
 91
        0
280
     0
281
     0
  0
CLASS
  1
ACMBOMSTANDARDDIN
  2
AcmBOMStdDIN
  3
"Amdt_StdImp|Product Description: AutoCAD Mechanical|Company: Autodesk, Inc."
 90
     1024
 91
        0
280
     0
281
     0
  0
CLASS
  1
ACMDETAILSTANDARDDIN
  2
AmdtDetailSymStdDIN
  3
"Amdt_StdImp|Product Description: AutoCAD Mechanical|Company: Autodesk, Inc."
 90
     1024
 91
        0
280
     0
281
     0
  0
CLASS
  1
ACMSECTIONSTANDARDDIN
  2
AmdtSectionSymStdDIN
  3
"Amdt_StdImp|Product Description: AutoCAD Mechanical|Company: Autodesk, Inc."
 90
     1024
 91
        0
280
     0
281
     0
  0
CLASS
  1
ACMCENTERLINESTANDARDDIN
  2
AmdtCenterLineStdDIN
  3
"Amdt_StdImp|Product Description: AutoCAD Mechanical|Company: Autodesk, Inc."
 90
     1024
 91
        0
280
     0
281
     0
  0
CLASS
  1
ACMNOTESTANDARDDIN
  2
AmdtNoteStdDIN
  3
"Amdt_StdImp|Product Description: AutoCAD Mechanical|Company: Autodesk, Inc."
 90
     1024
 91
        0
280
     0
281
     0
  0
CLASS
  1
ACAMGLAYSTD
  2
AcAmgLayStd
  3
"AmgLay|Product Description: AutoCAD Mechanical|Company: Autodesk, Inc."
 90
     1024
 91
        0
280
     0
281
     0
  0
CLASS
  1
ACAMGDIMSTD
  2
AcAmgDimStd
  3
"AmgDim|Product Description: AutoCAD Mechanical|Company: Autodesk, Inc."
 90
     1024
 91
        0
280
     0
281
     0
  0
CLASS
  1
ACAMGHOLECHARTSTDDIN
  2
AcAmgHoleChartStdDIN
  3
AmgDim|Product Description: AutoCAD Mechanical|Company: Autodesk, Inc.
 90
     1024
 91
        0
280
     0
281
     0
  0
CLASS
  1
ACAMGTITLESTD
  2
AcAmgTitleStd
  3
"AmgTitle|Product Description: AutoCAD Mechanical|Company: Autodesk, Inc."
 90
     4095
 91
        0
280
     0
281
     0
  0
CLASS
  1
ACMSTANDARDANSI
  2
AcmStandardANSI
  3
"Amdt_StdImp|Product Description: AutoCAD Mechanical|Company: Autodesk, Inc."
 90
     1024
 91
        0
280
     0
281
     0
  0
CLASS
  1
ACMSURFSTANDARDANSI
  2
AcmSurfTextStdANSI
  3
"Amdt_StdImp|Product Description: AutoCAD Mechanical|Company: Autodesk, Inc."
 90
     1024
 91
        0
280
     0
281
     0
  0
CLASS
  1
ACMFCFSTANDARDANSI
  2
AcmFCFStdANSI
  3
"Amdt_StdImp|Product Description: AutoCAD Mechanical|Company: Autodesk, Inc."
 90
     1024
 91
        0
280
     0
281
     0
  0
CLASS
  1
ACMWELDSTANDARDANSI
  2
AcmWeldingStdANSI
  3
"Amdt_StdImp|Product Description: AutoCAD Mechanical|Company: Autodesk, Inc."
 90
     1024
 91
        0
280
     0
281
     0
  0
CLASS
  1
ACMIDSTANDARDANSI
  2
AcmIdStdANSI
  3
"Amdt_StdImp|Product Description: AutoCAD Mechanical|Company: Autodesk, Inc."
 90
     1024
 91
        0
280
     0
281
     0
  0
CLASS
  1
ACMDATUMSTANDARDANSI
  2
AcmDatumStdANSI
  3
"Amdt_StdImp|Product Description: AutoCAD Mechanical|Company: Autodesk, Inc."
 90
     1024
 91
        0
280
     0
281
     0
  0
CLASS
  1
ACMBOMSTANDARDANSI
  2
AcmBOMStdANSI
  3
"Amdt_StdImp|Product Description: AutoCAD Mechanical|Company: Autodesk, Inc."
 90
     1024
 91
        0
280
     0
281
     0
  0
CLASS
  1
ACMDETAILSTANDARDANSI
  2
AmdtDetailSymStdANSI
  3
"Amdt_StdImp|Product Description: AutoCAD Mechanical|Company: Autodesk, Inc."
 90
     1024
 91
        0
280
     0
281
     0
  0
CLASS
  1
ACMSECTIONSTANDARDANSI
  2
AmdtSectionSymStdANSI
  3
"Amdt_StdImp|Product Description: AutoCAD Mechanical|Company: Autodesk, Inc."
 90
     1024
 91
        0
280
     0
281
     0
  0
CLASS
  1
ACMCENTERLINESTANDARDANSI
  2
AmdtCenterLineStdANSI
  3
"Amdt_StdImp|Product Description: AutoCAD Mechanical|Company: Autodesk, Inc."
 90
     1024
 91
        0
280
     0
281
     0
  0
CLASS
  1
ACMNOTESTANDARDANSI
  2
AmdtNoteStdANSI
  3
"Amdt_StdImp|Product Description: AutoCAD Mechanical|Company: Autodesk, Inc."
 90
     1024
 91
        0
280
     0
281
     0
  0
CLASS
  1
ACAMGHOLECHARTSTDANSI
  2
AcAmgHoleChartStdANSI
  3
AmgDim|Product Description: AutoCAD Mechanical|Company: Autodesk, Inc.
 90
     1024
 91
        0
280
     0
281
     0
  0
CLASS
  1
ACAMGFILTERDAT
  2
AcAmgFilterDat
  3
"AcadM|Product Description: AutoCAD Mechanical|Company: Autodesk, Inc."
 90
     1024
 91
        0
280
     0
281
     0
  0
CLASS
  1
AMDTFORMULAUPDATEDISPATCHER
  2
AmdtFormulaUpdateDispatcher
  3
AcMeServices
 90
     1024
 91
        0
280
     0
281
     0
  0
CLASS
  1
LAYER_INDEX
  2
AcDbLayerIndex
  3
ObjectDBX Classes
 90
        0
 91
        0
280
     0
281
     0
  0
CLASS
  1
IDBUFFER
  2
AcDbIdBuffer
  3
ObjectDBX Classes
 90
        0
 91
        0
280
     0
281
     0
  0
CLASS
  1
DICTIONARYVAR
  2
AcDbDictionaryVar
  3
ObjectDBX Classes
 90
        0
 91
       11
280
     0
281
     0
  0
CLASS
  1
DIMASSOC
  2
AcDbDimAssoc
  3
"AcDbDimAssoc|Product Desc:     AcDim ARX App For Dimension|Company:          Autodesk, Inc.|WEB Address:      www.autodesk.com"
 90
        0
 91
        0
280
     0
281
     0
  0
CLASS
  1
ACMDIMBREAKPERSREACTOR
  2
AcmDimBreakPersReactor
  3
AmgDim|Product Description: AutoCAD Mechanical|Company: Autodesk, Inc.
 90
     4095
 91
        0
280
     0
281
     0
  0
CLASS
  1
ACMSURFSYM
  2
AcmSurfaceTexture
  3
"AcmSymBB|Product Description: AutoCAD Mechanical|Company: Autodesk, Inc."
 90
     4095
 91
        0
280
     0
281
     1
  0
CLASS
  1
ACMFCFRAME
  2
AcmFCF
  3
"AcmSymBB|Product Description: AutoCAD Mechanical|Company: Autodesk, Inc."
 90
     4095
 91
        0
280
     0
281
     1
  0
CLASS
  1
TABLESTYLE
  2
AcDbTableStyle
  3
ObjectDBX Classes
 90
     4095
 91
        1
280
     0
281
     0
  0
CLASS
  1
AM_DRAWING_MGR
  2
AcDmDwgMgr
  3
AcMechDwgViewMgmt
 90
     1024
 91
        1
280
     0
281
     0
  0
CLASS
  1
AM_DWG_DOCUMENT
  2
AcDmDwgDocument
  3
AcMechDwgViewMgmt
 90
     1024
 91
        1
280
     0
281
     0
  0
CLASS
  1
AM_DWG_SHEET
  2
AcDmSheet
  3
AcMechDwgViewMgmt
 90
     1024
 91
        2
280
     0
281
     0
  0
CLASS
  1
AM_VIEWDIMPARMAP
  2
AcDmViewDimParMap
  3
AcMechDwgViewMgmt
 90
     1024
 91
        2
280
     0
281
     0
  0
CLASS
  1
AM_DWGMGR_NAME
  2
AcDmDwgMgrName
  3
AcMechDwgViewMgmt
 90
     1024
 91
        1
280
     0
281
     0
  0
CLASS
  1
AMDTMENUSTATEMGR
  2
AmdtMenuStateMgr
  3
McadcomServices
 90
     1024
 91
        1
280
     0
281
     0
  0
CLASS
  1
AMDTMCOMMENUSTATE
  2
AmdtMcomMenuState
  3
McadcomServices
 90
     1024
 91
        1
280
     0
281
     0
  0
CLASS
  1
MAPIAMMOUDLE
  2
MApiAmModule
  3
MApiAmServices
 90
     1024
 91
        1
280
     0
281
     0
  0
CLASS
  1
AMDTADMENUSTATE
  2
AmdtAdMenuState
  3
DesignerServices
 90
     1024
 91
        1
280
     0
281
     0
  0
CLASS
  1
ADAPPL
  2
AcAdAppl
  3
DesignerServices
 90
     1024
 91
        1
280
     0
281
     0
  0
CLASS
  1
DEPMGR
  2
AcAdDepMgr
  3
DesignerServices
 90
     1024
 91
        1
280
     0
281
     0
  0
CLASS
  1
PARAMMGR
  2
AcAdParamMgr
  3
DesignerServices
 90
     1024
 91
        1
280
     0
281
     0
  0
CLASS
  1
PARAMSCOPE
  2
AcAdParamScope
  3
DesignerServices
 90
     1024
 91
        1
280
     0
281
     0
  0
CLASS
  1
NAMEDAPPL
  2
AcAdNamedAppl
  3
DesignerServices
 90
     1024
 91
        1
280
     0
281
     0
  0
CLASS
  1
AMDTDMMENUSTATE
  2
AmdtDmMenuState
  3
AcMechDwgViewMgmt
 90
     1024
 91
        1
280
     0
281
     0
  0
CLASS
  1
AMDTAMMENUSTATE
  2
AmdtAmMenuState
  3
DesignerAssemblies
 90
     1024
 91
        1
280
     0
281
     0
  0
CLASS
  1
ACAMPROJECT
  2
AcAmProject
  3
DesignerAssemblies
 90
     1024
 91
        1
280
     0
281
     0
  0
CLASS
  1
ACAMGRCOMPDEF
  2
AcAmGrCompDef
  3
DesignerAssemblies
 90
     1024
 91
        1
280
     0
281
     0
  0
CLASS
  1
ACCMCONTEXT
  2
AcCmContext
  3
DesignerAssemblies
 90
     1024
 91
        1
280
     0
281
     0
  0
CLASS
  1
ACAMCOMPDEF
  2
AcAmCompDef
  3
DesignerAssemblies
 90
     1024
 91
        1
280
     0
281
     0
  0
CLASS
  1
ACAMCOMPDEFMGR
  2
AcAmCompDefMgr
  3
DesignerAssemblies
 90
     1024
 91
        1
280
     0
281
     0
  0
CLASS
  1
AMCONTEXTMGR
  2
AcAmContextMgr
  3
DesignerAssemblies
 90
     1024
 91
        1
280
     0
281
     0
  0
CLASS
  1
ACAMCONTEXTMODELER
  2
AcAmContextModeler
  3
DesignerAssemblies
 90
     1024
 91
        1
280
     0
281
     0
  0
CLASS
  1
ACMTHREADLINESTANDARDDIN
  2
AmdtThreadLineStdDIN
  3
"Amdt_StdImp|Product Description: AutoCAD Mechanical|Company: Autodesk, Inc."
 90
     1024
 91
        0
280
     0
281
     0
  0
CLASS
  1
ACMTHREADLINESTANDARDANSI
  2
AmdtThreadLineStdANSI
  3
"Amdt_StdImp|Product Description: AutoCAD Mechanical|Company: Autodesk, Inc."
 90
     1024
 91
        0
280
     0
281
     0
  0
CLASS
  1
CATALOGSTATE
  2
AcAmCatalogState
  3
DesignerAssemblies
 90
     1024
 91
        1
280
     0
281
     0
  0
CLASS
  1
ACAMGRCOMPDEFSET
  2
AcAmGrCompDefSet
  3
DesignerAssemblies
 90
     1024
 91
        1
280
     0
281
     0
  0
CLASS
  1
AMDTBROWSERDBTAB
  2
AmdtBrowserDbTab
  3
McadcomServices
 90
     1024
 91
        1
280
     0
281
     0
  0
CLASS
  1
CBROWSERAPPOBJECT
  2
CBrowserAppObject
  3
McadcomServices
 90
     1024
 91
        3
280
     0
281
     0
  0
CLASS
  1
DM_PLACEHOLDER
  2
AcDmSelsetPlaceholder
  3
AcMechDwgViewMgmt
 90
     1024
 91
        1
280
     0
281
     0
  0
CLASS
  1
SORTENTSTABLE
  2
AcDbSortentsTable
  3
ObjectDBX Classes
 90
        0
 91
        1
280
     0
281
     0
  0
CLASS
  1
AMDTEDGESTANDARDDIN13715
  2
AmdtEdgeStdDIN13715
  3
"Amdt_StdImp|Product Description: AutoCAD Mechanical|Company: Autodesk, Inc."
 90
     1024
 91
        0
280
     0
281
     0
  0
CLASS
  1
AMDTNOTETEMPLATEDB
  2
AmdtNoteTemplateDB
  3
AcmSymBB|Product Description: AutoCAD Mechanical|Company: Autodesk, Inc.
 90
     1024
 91
        0
280
     0
281
     0
  0
CLASS
  1
MATERIAL
  2
AcDbMaterial
  3
ObjectDBX Classes
 90
     1153
 91
        3
280
     0
281
     0
  0
CLASS
  1
VISUALSTYLE
  2
AcDbVisualStyle
  3
ObjectDBX Classes
 90
     4095
 91
       16
280
     0
281
     0
  0
CLASS
  1
SCALE
  2
AcDbScale
  3
ObjectDBX Classes
 90
     1153
 91
       17
280
     0
281
     0
  0
CLASS
  1
MLEADERSTYLE
  2
AcDbMLeaderStyle
  3
ACDB_MLEADERSTYLE_CLASS
 90
     4095
 91
        1
280
     0
281
     0
  0
CLASS
  1
ACMSURFSTANDARDDIN2002
  2
AcmSurfTextStdDIN2002
  3
"Amdt_StdImp|Product Description: AutoCAD Mechanical|Company: Autodesk, Inc."
 90
     1024
 91
        0
280
     0
281
     0
  0
CLASS
  1
ACMTAPERSTANDARDDIN
  2
AcmTaperStdDIN
  3
"Amdt_StdImp|Product Description: AutoCAD Mechanical|Company: Autodesk, Inc."
 90
     1024
 91
        0
280
     0
281
     0
  0
CLASS
  1
ACMANOOTATIONVIEWSTANDARDDIN
  2
AmdtAnViewStdDIN
  3
"Amdt_StdImp|Product Description: AutoCAD Mechanical|Company: Autodesk, Inc."
 90
     1024
 91
        0
280
     0
281
     0
  0
CLASS
  1
CAMSSTRUCTBTNSTATE
  2
StructBtnState
  3
DesignerAssemblies
 90
     1024
 91
        0
280
     0
281
     0
  0
CLASS
  1
CELLSTYLEMAP
  2
AcDbCellStyleMap
  3
ObjectDBX Classes
 90
     1152
 91
        2
280
     0
281
     0
  0
CLASS
  1
ACRFATTGENMGR
  2
AcRfAttGeneralMgr
  3
AcAttribServices
 90
     1024
 91
        0
280
     0
281
     0
  0
CLASS
  1
ACRFMCADAPIATTHOLDER
  2
AcRfMCADAPIAttHolder
  3
AcAttribServices
 90
     1024
 91
        0
280
     0
281
     0
  0
CLASS
  1
AMDTSYSATTR
  2
AmdtSystemAttribute
  3
AcAttribServices
 90
     1024
 91
        0
280
     0
281
     0
  0
CLASS
  1
ACMTAPERSTANDARDANSI
  2
AcmTaperStdANSI
  3
"Amdt_StdImp|Product Description: AutoCAD Mechanical|Company: Autodesk, Inc."
 90
     1024
 91
        0
280
     0
281
     0
  0
CLASS
  1
ACMANOOTATIONVIEWSTANDARDANSI
  2
AmdtAnViewStdANSI
  3
"Amdt_StdImp|Product Description: AutoCAD Mechanical|Company: Autodesk, Inc."
 90
     1024
 91
        0
280
     0
281
     0
  0
ENDSEC
  0
SECTION
  2
TABLES
  0
TABLE
  2
VPORT
  5
8
102
{ACAD_XDICTIONARY
360
4BCB
102
}
330
0
100
AcDbSymbolTable
 70
     1
  0
VPORT
  5
3BB6
330
8
100
AcDbSymbolTableRecord
100
AcDbViewportTableRecord
  2
*Active
 70
     0
 10
0.0
 20
0.0
 11
1.0
 21
1.0
 12
168.1364555656894
 22
135.2952384925699
 13
0.0
 23
0.0
 14
2.5
 24
2.5
 15
10.0
 25
10.0
 16
0.0
 26
0.0
 36
1.0
 17
0.0
 27
0.0
 37
0.0
 40
327.2444185446808
 41
1.784158415841584
 42
50.0
 43
0.0
 44
0.0
 50
0.0
 51
0.0
 71
     0
 72
 10000
 73
     1
 74
     3
 75
     0
 76
     0
 77
     0
 78
     0
281
     0
 65
     1
110
0.0
120
0.0
130
0.0
111
1.0
121
0.0
131
0.0
112
0.0
122
1.0
132
0.0
 79
     0
146
0.0
  0
ENDTAB
  0
TABLE
  2
LTYPE
  5
5
330
0
100
AcDbSymbolTable
 70
    22
  0
LTYPE
  5
14
330
5
100
AcDbSymbolTableRecord
100
AcDbLinetypeTableRecord
  2
ByBlock
 70
     0
  3

 72
    65
 73
     0
 40
0.0
  0
LTYPE
  5
15
330
5
100
AcDbSymbolTableRecord
100
AcDbLinetypeTableRecord
  2
ByLayer
 70
     0
  3

 72
    65
 73
     0
 40
0.0
  0
LTYPE
  5
16
330
5
100
AcDbSymbolTableRecord
100
AcDbLinetypeTableRecord
  2
Continuous
 70
     0
  3
Solid line
 72
    65
 73
     0
 40
0.0
  0
LTYPE
  5
50
330
5
100
AcDbSymbolTableRecord
100
AcDbLinetypeTableRecord
  2
Amconstr
 70
     0
  3
_______________________
 72
    65
 73
     2
 40
9999.0
 49
9999.0
 74
     0
 49
0.0
 74
     0
  0
LTYPE
  5
55
330
5
100
AcDbSymbolTableRecord
100
AcDbLinetypeTableRecord
  2
Amzigzag
 70
     0
  3
/\/-/\/-/\/-/\/-/\/-/\/
 72
    65
 73
     2
 40
11.0001
 49
0.0001
 74
     4
 75
   135
340
54
 46
0.04
 50
0.0
 44
0.0
 45
0.0
 49
-11.0
 74
     0
  0
LTYPE
  5
56
330
5
100
AcDbSymbolTableRecord
100
AcDbLinetypeTableRecord
  2
AM_DIN_F_W050
 70
     0
  3
__ __ __ __ __ __ __ __ __ __ __ __ __ __ __
 72
    65
 73
     2
 40
6.25
 49
4.75
 74
     0
 49
-1.5
 74
     0
  0
LTYPE
  5
57
330
5
100
AcDbSymbolTableRecord
100
AcDbLinetypeTableRecord
  2
AM_DIN_G_W050
 70
     0
  3
____ . ____ . ____ . ____ . ____ . ____ . ____
 72
    65
 73
     4
 40
13.75
 49
9.75
 74
     0
 49
-1.5
 74
     0
 49
1.0
 74
     0
 49
-1.5
 74
     0
  0
LTYPE
  5
58
330
5
100
AcDbSymbolTableRecord
100
AcDbLinetypeTableRecord
  2
AM_DIN_K_W050
 70
     0
  3
_____ . . _____ . . _____ . . ____ .. ____
 72
    65
 73
     6
 40
16.25
 49
9.75
 74
     0
 49
-1.5
 74
     0
 49
1.0
 74
     0
 49
-1.5
 74
     0
 49
1.0
 74
     0
 49
-1.5
 74
     0
  0
LTYPE
  5
59
330
5
100
AcDbSymbolTableRecord
100
AcDbLinetypeTableRecord
  2
AM_DIN_G_W050x2
 70
     0
  3
__ . __ . __ . __ . __ . __
 72
    65
 73
     4
 40
6.875
 49
4.75
 74
     0
 49
-0.875
 74
     0
 49
0.375
 74
     0
 49
-0.875
 74
     0
  0
LTYPE
  5
5A
330
5
100
AcDbSymbolTableRecord
100
AcDbLinetypeTableRecord
  2
AM_DIN_F_W050x2
 70
     0
  3
 _ _ _ _ _ _ _ _ _ _ _ _
 72
    65
 73
     2
 40
3.125
 49
2.25
 74
     0
 49
-0.875
 74
     0
  0
LTYPE
  5
68
330
5
100
AcDbSymbolTableRecord
100
AcDbLinetypeTableRecord
  2
ACDINWELD
 70
     0
  3
_ _ _ _ _
 72
    65
 73
     2
 40
2.0
 49
2.0
 74
     0
 49
-1.0
 74
     0
  0
LTYPE
  5
69
330
5
100
AcDbSymbolTableRecord
100
AcDbLinetypeTableRecord
  2
ACDINTGB
 70
     0
  3
__ . . __ . .
 72
    65
 73
     6
 40
9.0
 49
4.0
 74
     0
 49
-1.0
 74
     0
 49
1.0
 74
     0
 49
-1.0
 74
     0
 49
1.0
 74
     0
 49
-1.0
 74
     0
  0
LTYPE
  5
6A
330
5
100
AcDbSymbolTableRecord
100
AcDbLinetypeTableRecord
  2
ACDINTGL
 70
     0
  3
_ _ _ _ _
 72
    65
 73
     2
 40
3.0
 49
2.0
 74
     0
 49
-1.0
 74
     0
  0
LTYPE
  5
6C
330
5
100
AcDbSymbolTableRecord
100
AcDbLinetypeTableRecord
  2
CENTER
 70
     0
  3
__ . __
 72
    65
 73
     4
 40
7.0
 49
4.0
 74
     0
 49
-1.0
 74
     0
 49
1.0
 74
     0
 49
-1.0
 74
     0
  0
LTYPE
  5
1E2C
330
5
100
AcDbSymbolTableRecord
100
AcDbLinetypeTableRecord
  2
PHANTOM2
 70
     0
  3
Phantom (.5x) ___ _ _ ___ _ _ ___ _ _ ___ _ _
 72
    65
 73
     6
 40
1.25
 49
0.625
 74
     0
 49
-0.125
 74
     0
 49
0.125
 74
     0
 49
-0.125
 74
     0
 49
0.125
 74
     0
 49
-0.125
 74
     0
  0
LTYPE
  5
1E2F
330
5
100
AcDbSymbolTableRecord
100
AcDbLinetypeTableRecord
  2
DASHED
 70
     0
  3
__ __ __ __ __ __ __ __ __ __ __ __ __ __ __ __
 72
    65
 73
     2
 40
19.05
 49
12.7
 74
     0
 49
-6.349999999999998
 74
     0
  0
LTYPE
  5
2C6C
330
5
100
AcDbSymbolTableRecord
100
AcDbLinetypeTableRecord
  2
HIDDEN
 70
     0
  3
Verdeckt
 72
    65
 73
     2
 40
9.525
 49
6.349999999999999
 74
     0
 49
-3.174999999999999
 74
     0
  0
LTYPE
  5
498A
330
5
100
AcDbSymbolTableRecord
100
AcDbLinetypeTableRecord
  2
ACANSTGB
 70
     0
  3
__ . . __ . .
 72
    65
 73
     6
 40
0.35433070866
 49
0.15748031496
 74
     0
 49
-0.03937007874
 74
     0
 49
0.03937007874
 74
     0
 49
-0.03937007874
 74
     0
 49
0.03937007874
 74
     0
 49
-0.03937007874
 74
     0
  0
LTYPE
  5
498B
330
5
100
AcDbSymbolTableRecord
100
AcDbLinetypeTableRecord
  2
ACANSTGL
 70
     0
  3
_ _ _ _ _
 72
    65
 73
     2
 40
0.11811023622
 49
0.07874015748
 74
     0
 49
-0.03937007874
 74
     0
  0
LTYPE
  5
4C37
330
5
100
AcDbSymbolTableRecord
100
AcDbLinetypeTableRecord
  2
AM_ISO02W050
 70
     0
  3
__ __ __ __ __ __ __ __ __ __ __ __ __ __ __
 72
    65
 73
     2
 40
7.5
 49
6.0
 74
     0
 49
-1.5
 74
     0
  0
LTYPE
  5
4C38
330
5
100
AcDbSymbolTableRecord
100
AcDbLinetypeTableRecord
  2
AM_ISO08W050
 70
     0
  3
____ . ____ . ____ . ____ . ____ . ____ . ____
 72
    65
 73
     4
 40
18.0
 49
12.0
 74
     0
 49
-1.5
 74
     0
 49
3.0
 74
     0
 49
-1.5
 74
     0
  0
LTYPE
  5
4C39
330
5
100
AcDbSymbolTableRecord
100
AcDbLinetypeTableRecord
  2
AM_ISO09W050
 70
     0
  3
_____ . . _____ . . _____ . . ____ .. ____
 72
    65
 73
     6
 40
22.5
 49
12.0
 74
     0
 49
-1.5
 74
     0
 49
3.0
 74
     0
 49
-1.5
 74
     0
 49
3.0
 74
     0
 49
-1.5
 74
     0
  0
LTYPE
  5
4C3A
330
5
100
AcDbSymbolTableRecord
100
AcDbLinetypeTableRecord
  2
AM_ISO08W050x2
 70
     0
  3
__ . __ . __ . __ . __ . __
 72
    65
 73
     4
 40
9.0
 49
6.0
 74
     0
 49
-0.75
 74
     0
 49
1.5
 74
     0
 49
-0.75
 74
     0
  0
LTYPE
  5
4C3B
330
5
100
AcDbSymbolTableRecord
100
AcDbLinetypeTableRecord
  2
AM_ISO02W050x2
 70
     0
  3
 _ _ _ _ _ _ _ _ _ _ _ _
 72
    65
 73
     2
 40
3.75
 49
3.0
 74
     0
 49
-0.75
 74
     0
  0
ENDTAB
  0
TABLE
  2
LAYER
  5
2
330
0
100
AcDbSymbolTable
 70
    12
  0
LAYER
  5
10
102
{ACAD_XDICTIONARY
360
4005
102
}
330
2
100
AcDbSymbolTableRecord
100
AcDbLayerTableRecord
  2
0
 70
     0
 62
     7
  6
Continuous
370
    -3
390
F
  0
LAYER
  5
263
330
2
100
AcDbSymbolTableRecord
100
AcDbLayerTableRecord
  2
Defpoints
 70
     0
 62
     7
  6
Continuous
290
     0
370
    -3
390
F
  0
LAYER
  5
1E30
102
{ACAD_XDICTIONARY
360
4007
102
}
330
2
100
AcDbSymbolTableRecord
100
AcDbLayerTableRecord
  2
1
 70
     0
 62
     4
  6
Continuous
370
    -3
390
F
  0
LAYER
  5
1E31
102
{ACAD_XDICTIONARY
360
4009
102
}
330
2
100
AcDbSymbolTableRecord
100
AcDbLayerTableRecord
  2
2
 70
     0
 62
     7
  6
Continuous
370
    -3
390
F
  0
LAYER
  5
1E32
102
{ACAD_XDICTIONARY
360
400B
102
}
330
2
100
AcDbSymbolTableRecord
100
AcDbLayerTableRecord
  2
4
 70
     0
 62
     2
  6
CENTER
370
    -3
390
F
  0
LAYER
  5
1E33
102
{ACAD_XDICTIONARY
360
400D
102
}
330
2
100
AcDbSymbolTableRecord
100
AcDbLayerTableRecord
  2
6
 70
     0
 62
     5
  6
Continuous
370
    -3
390
F
  0
LAYER
  5
1E34
102
{ACAD_XDICTIONARY
360
400F
102
}
330
2
100
AcDbSymbolTableRecord
100
AcDbLayerTableRecord
  2
SK1
 70
     0
 62
     4
  6
Continuous
370
    -3
390
F
  0
LAYER
  5
1E35
102
{ACAD_XDICTIONARY
360
4011
102
}
330
2
100
AcDbSymbolTableRecord
100
AcDbLayerTableRecord
  2
SK2
 70
     0
 62
     7
  6
Continuous
370
    -3
390
F
  0
LAYER
  5
1E36
102
{ACAD_XDICTIONARY
360
4013
102
}
330
2
100
AcDbSymbolTableRecord
100
AcDbLayerTableRecord
  2
SK3
 70
     0
 62
     1
  6
DASHED
370
    -3
390
F
  0
LAYER
  5
1E37
102
{ACAD_XDICTIONARY
360
4015
102
}
330
2
100
AcDbSymbolTableRecord
100
AcDbLayerTableRecord
  2
CUT
 70
     0
 62
     1
  6
Continuous
370
    -3
390
F
  0
LAYER
  5
1E38
102
{ACAD_XDICTIONARY
360
4017
102
}
330
2
100
AcDbSymbolTableRecord
100
AcDbLayerTableRecord
  2
NOCUT
 70
     0
 62
     7
  6
Continuous
370
    -3
390
F
  0
LAYER
  5
39B0
102
{ACAD_XDICTIONARY
360
4019
102
}
330
2
100
AcDbSymbolTableRecord
100
AcDbLayerTableRecord
  2
SK4
 70
     0
 62
     2
  6
CENTER
370
    -3
390
F
  0
ENDTAB
  0
TABLE
  2
STYLE
  5
3
330
0
100
AcDbSymbolTable
 70
     5
  0
STYLE
  5
11
330
3
100
AcDbSymbolTableRecord
100
AcDbTextStyleTableRecord
  2
STANDARD
 70
     0
 40
0.0
 41
1.0
 50
0.0
 71
     0
 42
2.5
  3
ISOCP.SHX
  4

  0
STYLE
  5
54
330
3
100
AcDbSymbolTableRecord
100
AcDbTextStyleTableRecord
  2

 70
     1
 40
0.0
 41
1.0
 50
0.0
 71
     0
 42
2.5
  3
ltypeshp.shx
  4

  0
STYLE
  5
67
330
3
100
AcDbSymbolTableRecord
100
AcDbTextStyleTableRecord
  2
ACDINGDT
 70
     0
 40
0.0
 41
1.0
 50
0.0
 71
     0
 42
2.5
  3
amgdt.shx
  4

  0
STYLE
  5
498C
330
3
100
AcDbSymbolTableRecord
100
AcDbTextStyleTableRecord
  2
ACANSTS
 70
     0
 40
1.0
 41
1.0
 50
0.0
 71
     0
 42
0.2
  3
romans.shx
  4

  0
STYLE
  5
498D
330
3
100
AcDbSymbolTableRecord
100
AcDbTextStyleTableRecord
  2
ACANSGDT
 70
     0
 40
0.0
 41
1.0
 50
0.0
 71
     0
 42
0.2
  3
amgdtans.shx
  4

  0
ENDTAB
  0
TABLE
  2
VIEW
  5
6
330
0
100
AcDbSymbolTable
 70
     0
  0
ENDTAB
  0
TABLE
  2
UCS
  5
7
330
0
100
AcDbSymbolTable
 70
     0
  0
ENDTAB
  0
TABLE
  2
APPID
  5
9
330
0
100
AcDbSymbolTable
 70
    72
  0
APPID
  5
12
330
9
100
AcDbSymbolTableRecord
100
AcDbRegAppTableRecord
  2
ACAD
 70
     0
  0
APPID
  5
2C
330
9
100
AcDbSymbolTableRecord
100
AcDbRegAppTableRecord
  2
MCAD_NO_VIS
 70
     0
  0
APPID
  5
2D
330
9
100
AcDbSymbolTableRecord
100
AcDbRegAppTableRecord
  2
ACAD_TEMP_GRAPHIC
 70
     0
  0
APPID
  5
3E
330
9
100
AcDbSymbolTableRecord
100
AcDbRegAppTableRecord
  2
ACATTRIBSERVICES
 70
     0
  0
APPID
  5
29A
330
9
100
AcDbSymbolTableRecord
100
AcDbRegAppTableRecord
  2
GENIUS_GENDIMSH_14
 70
     0
  0
APPID
  5
588
330
9
100
AcDbSymbolTableRecord
100
AcDbRegAppTableRecord
  2
GENIUS12
 70
     0
  0
APPID
  5
589
330
9
100
AcDbSymbolTableRecord
100
AcDbRegAppTableRecord
  2
GENIUS_GENOENT_13
 70
     0
  0
APPID
  5
58A
330
9
100
AcDbSymbolTableRecord
100
AcDbRegAppTableRecord
  2
GENIUS_GENODEF_13
 70
     0
  0
APPID
  5
58B
330
9
100
AcDbSymbolTableRecord
100
AcDbRegAppTableRecord
  2
GENIUS_GENOBJ-N-RSBK_13
 70
     0
  0
APPID
  5
58C
330
9
100
AcDbSymbolTableRecord
100
AcDbRegAppTableRecord
  2
GENIUS_GENOBJ-N-DIM12_13
 70
     0
  0
APPID
  5
58D
330
9
100
AcDbSymbolTableRecord
100
AcDbRegAppTableRecord
  2
GENIUS_GENSCALE_13
 70
     0
  0
APPID
  5
58E
330
9
100
AcDbSymbolTableRecord
100
AcDbRegAppTableRecord
  2
GENIUS_GENCFG_13
 70
     0
  0
APPID
  5
58F
330
9
100
AcDbSymbolTableRecord
100
AcDbRegAppTableRecord
  2
GENIUS_GENCFG0_13
 70
     0
  0
APPID
  5
590
330
9
100
AcDbSymbolTableRecord
100
AcDbRegAppTableRecord
  2
GENIUS_GENCFG1_13
 70
     0
  0
APPID
  5
591
330
9
100
AcDbSymbolTableRecord
100
AcDbRegAppTableRecord
  2
GENIUS_GENCFG2_13
 70
     0
  0
APPID
  5
592
330
9
100
AcDbSymbolTableRecord
100
AcDbRegAppTableRecord
  2
GENIUS_GENCFG3_13
 70
     0
  0
APPID
  5
593
330
9
100
AcDbSymbolTableRecord
100
AcDbRegAppTableRecord
  2
GENIUS_GENCFG4_13
 70
     0
  0
APPID
  5
594
330
9
100
AcDbSymbolTableRecord
100
AcDbRegAppTableRecord
  2
GENIUS_GEVCFG0_13
 70
     0
  0
APPID
  5
595
330
9
100
AcDbSymbolTableRecord
100
AcDbRegAppTableRecord
  2
GENIUS_GENOBJ-F-SUF_13
 70
     0
  0
APPID
  5
596
330
9
100
AcDbSymbolTableRecord
100
AcDbRegAppTableRecord
  2
GENIUS_GEFCFG0_13
 70
     0
  0
APPID
  5
597
330
9
100
AcDbSymbolTableRecord
100
AcDbRegAppTableRecord
  2
GEV_VCCNULL_SWITCH_OFF
 70
     0
  0
APPID
  5
598
330
9
100
AcDbSymbolTableRecord
100
AcDbRegAppTableRecord
  2
GENIUS_GENDTOL_13
 70
     0
  0
APPID
  5
599
330
9
100
AcDbSymbolTableRecord
100
AcDbRegAppTableRecord
  2
GENIUS_GENDIM_13
 70
     0
  0
APPID
  5
59A
330
9
100
AcDbSymbolTableRecord
100
AcDbRegAppTableRecord
  2
GENIUS_GE3DTOL_13
 70
     0
  0
APPID
  5
59B
330
9
100
AcDbSymbolTableRecord
100
AcDbRegAppTableRecord
  2
AD_DRAW
 70
     0
  0
APPID
  5
59C
330
9
100
AcDbSymbolTableRecord
100
AcDbRegAppTableRecord
  2
ASURF_PCURVE_APPNAME
 70
     0
  0
APPID
  5
59D
330
9
100
AcDbSymbolTableRecord
100
AcDbRegAppTableRecord
  2
AMG_3D2D_5.0
 70
     0
  0
APPID
  5
59E
330
9
100
AcDbSymbolTableRecord
100
AcDbRegAppTableRecord
  2
DESIGNERASSEMBLIES
 70
     0
  0
APPID
  5
59F
330
9
100
AcDbSymbolTableRecord
100
AcDbRegAppTableRecord
  2
ACADM_DIM_EDIT
 70
     0
  0
APPID
  5
5A0
330
9
100
AcDbSymbolTableRecord
100
AcDbRegAppTableRecord
  2
AMDT_DM_ADJ
 70
     0
  0
APPID
  5
5A1
330
9
100
AcDbSymbolTableRecord
100
AcDbRegAppTableRecord
  2
GENIUS_GENSCREG_15
 70
     0
  0
APPID
  5
5A2
330
9
100
AcDbSymbolTableRecord
100
AcDbRegAppTableRecord
  2
GENIUS_GENOBJ-N-SDF_13
 70
     0
  0
APPID
  5
6E4
330
9
100
AcDbSymbolTableRecord
100
AcDbRegAppTableRecord
  2
GENIUS_GENOBJ-N-FIL_13
 70
     0
  0
APPID
  5
C65
330
9
100
AcDbSymbolTableRecord
100
AcDbRegAppTableRecord
  2
GENIUS_GENHINW_13
 70
     0
  0
APPID
  5
C66
330
9
100
AcDbSymbolTableRecord
100
AcDbRegAppTableRecord
  2
GENIUS_GENOBJ-F-TOLL_13
 70
     0
  0
APPID
  5
C67
330
9
100
AcDbSymbolTableRecord
100
AcDbRegAppTableRecord
  2
GENIUS_GENOREF_13
 70
     0
  0
APPID
  5
C68
330
9
100
AcDbSymbolTableRecord
100
AcDbRegAppTableRecord
  2
GENIUS_GENOLIS_13
 70
     0
  0
APPID
  5
C69
330
9
100
AcDbSymbolTableRecord
100
AcDbRegAppTableRecord
  2
GENIUS_GEFTOLC_13
 70
     0
  0
APPID
  5
C6A
330
9
100
AcDbSymbolTableRecord
100
AcDbRegAppTableRecord
  2
GENIUS_GENOBJ-F-TOL_13
 70
     0
  0
APPID
  5
C6B
330
9
100
AcDbSymbolTableRecord
100
AcDbRegAppTableRecord
  2
GENIUS_GENOBJ-N-RSSYM_13
 70
     0
  0
APPID
  5
C6C
330
9
100
AcDbSymbolTableRecord
100
AcDbRegAppTableRecord
  2
GENIUS_GENSYMENT_13
 70
     0
  0
APPID
  5
C6D
330
9
100
AcDbSymbolTableRecord
100
AcDbRegAppTableRecord
  2
GENIUS_GENSCSYM_13
 70
     0
  0
APPID
  5
1E42
330
9
100
AcDbSymbolTableRecord
100
AcDbRegAppTableRecord
  2
GENIUS_GENBLLY_14
 70
     0
  0
APPID
  5
1E43
330
9
100
AcDbSymbolTableRecord
100
AcDbRegAppTableRecord
  2
GENIUS_GENTRA_14
 70
     0
  0
APPID
  5
1E44
330
9
100
AcDbSymbolTableRecord
100
AcDbRegAppTableRecord
  2
GENIUS_GENOBJ-N-TIT_13
 70
     0
  0
APPID
  5
1E45
330
9
100
AcDbSymbolTableRecord
100
AcDbRegAppTableRecord
  2
GENIUS_GENTITLE_13
 70
     0
  0
APPID
  5
1E46
330
9
100
AcDbSymbolTableRecord
100
AcDbRegAppTableRecord
  2
ACADIGES
 70
     0
  0
APPID
  5
1E47
330
9
100
AcDbSymbolTableRecord
100
AcDbRegAppTableRecord
  2
GENIUS_GENOBJ-N-HTC_13
 70
     0
  0
APPID
  5
1E48
330
9
100
AcDbSymbolTableRecord
100
AcDbRegAppTableRecord
  2
GENIUS_GENHATCH_13
 70
     0
  0
APPID
  5
1E49
330
9
100
AcDbSymbolTableRecord
100
AcDbRegAppTableRecord
  2
GENIUS_GENOBJ-N-CRS_13
 70
     0
  0
APPID
  5
1E4A
330
9
100
AcDbSymbolTableRecord
100
AcDbRegAppTableRecord
  2
GENIUS_GENFIL_13
 70
     0
  0
APPID
  5
1E4B
330
9
100
AcDbSymbolTableRecord
100
AcDbRegAppTableRecord
  2
GENIUS_GENOBJ-N-CHA_13
 70
     0
  0
APPID
  5
1E4C
330
9
100
AcDbSymbolTableRecord
100
AcDbRegAppTableRecord
  2
GENIUS_GENOBJ-N-CEN_13
 70
     0
  0
APPID
  5
2C8D
330
9
100
AcDbSymbolTableRecord
100
AcDbRegAppTableRecord
  2
ACAD_DSTYLE_DIMARC_LENGTH_SYMBOL
 70
     0
  0
APPID
  5
2C8E
330
9
100
AcDbSymbolTableRecord
100
AcDbRegAppTableRecord
  2
ACAD_DSTYLE_DIMJOGGED_JOGANGLE_SYMBOL
 70
     0
  0
APPID
  5
2CC5
330
9
100
AcDbSymbolTableRecord
100
AcDbRegAppTableRecord
  2
AcAecLayerStandard
 70
     0
  0
APPID
  5
3272
330
9
100
AcDbSymbolTableRecord
100
AcDbRegAppTableRecord
  2
ACAD_PSEXT
 70
     0
  0
APPID
  5
3273
330
9
100
AcDbSymbolTableRecord
100
AcDbRegAppTableRecord
  2
GENIUS_GENREC_14
 70
     0
  0
APPID
  5
3274
330
9
100
AcDbSymbolTableRecord
100
AcDbRegAppTableRecord
  2
GENIUS_GENOBJ-N-REC_13
 70
     0
  0
APPID
  5
3275
330
9
100
AcDbSymbolTableRecord
100
AcDbRegAppTableRecord
  2
ACAD_DSTYLE_DIMTEXT_FILL
 70
     0
  0
APPID
  5
3276
330
9
100
AcDbSymbolTableRecord
100
AcDbRegAppTableRecord
  2
ACAD_DSTYLE_DIMEXT_LENGTH
 70
     0
  0
APPID
  5
3277
330
9
100
AcDbSymbolTableRecord
100
AcDbRegAppTableRecord
  2
ACAD_DSTYLE_DIMEXT_ENABLED
 70
     0
  0
APPID
  5
3278
330
9
100
AcDbSymbolTableRecord
100
AcDbRegAppTableRecord
  2
ACAD_DSTYLE_DIM_LINETYPE
 70
     0
  0
APPID
  5
3279
330
9
100
AcDbSymbolTableRecord
100
AcDbRegAppTableRecord
  2
ACAD_DSTYLE_DIM_EXT1_LINETYPE
 70
     0
  0
APPID
  5
327A
330
9
100
AcDbSymbolTableRecord
100
AcDbRegAppTableRecord
  2
ACAD_DSTYLE_DIM_EXT2_LINETYPE
 70
     0
  0
APPID
  5
39B1
330
9
100
AcDbSymbolTableRecord
100
AcDbRegAppTableRecord
  2
ACAD_DSTYLE_DIMARC_LENGTH_
 70
     0
  0
APPID
  5
39B2
330
9
100
AcDbSymbolTableRecord
100
AcDbRegAppTableRecord
  2
ACAD_DSTYLE_DIMJOGGED_JOGA
 70
     0
  0
APPID
  5
39B3
330
9
100
AcDbSymbolTableRecord
100
AcDbRegAppTableRecord
  2
AMG_3D2D_5_0
 70
     0
  0
APPID
  5
3BFD
330
9
100
AcDbSymbolTableRecord
100
AcDbRegAppTableRecord
  2
ACAD_MLEADERVER
 70
     0
  0
APPID
  5
41B2
330
9
100
AcDbSymbolTableRecord
100
AcDbRegAppTableRecord
  2
ACAD_EXEMPT_FROM_CAD_STANDARDS
 70
     0
  0
APPID
  5
429A
330
9
100
AcDbSymbolTableRecord
100
AcDbRegAppTableRecord
  2
ACAD_DSTYLE_DIMINSPECT
 70
     0
  0
APPID
  5
447E
330
9
100
AcDbSymbolTableRecord
100
AcDbRegAppTableRecord
  2
ACAD_DSTYLE_DIMANGULAR_EXTENSION
 70
     0
  0
ENDTAB
  0
TABLE
  2
DIMSTYLE
  5
A
330
0
100
AcDbSymbolTable
 70
    16
100
AcDbDimStyleTable
 71
     1
340
6F
  0
DIMSTYLE
105
6F
330
A
100
AcDbSymbolTableRecord
100
AcDbDimStyleTableRecord
  2
AM_DIN
 70
     0
  4
"
 41
2.5
 42
0.0
 43
10.0
 44
1.0
 47
0.1
 48
0.1
 73
     0
 74
     0
 77
     1
 78
     8
 79
     2
140
3.5
141
0.0
143
0.0393701
146
0.71
147
1.5
172
     1
176
   256
177
   256
178
     2
271
     2
272
     2
283
     0
284
     8
340
11
371
    -1
372
    -1
1001
ACAD_DSTYLE_DIMJOGGED_JOGANGLE_SYMBOL
1070
   384
1040
1.570796326794896
  0
DIMSTYLE
105
70
330
A
100
AcDbSymbolTableRecord
100
AcDbDimStyleTableRecord
  2
AM_DIN$3
 70
     0
  4
"
 41
3.5
 42
0.0
 43
10.0
 44
1.0
 47
0.1
 48
0.1
 73
     0
 77
     1
 78
     8
 79
     2
140
3.5
141
0.0
143
0.0393701
146
0.71
147
1.5
176
   256
177
   256
178
     2
271
     2
272
     2
283
     0
284
     8
288
     1
289
     0
340
11
371
    -1
372
    -1
1001
ACAD_DSTYLE_DIMJOGGED_JOGANGLE_SYMBOL
1070
   384
1040
1.570796326794896
  0
DIMSTYLE
105
71
330
A
100
AcDbSymbolTableRecord
100
AcDbDimStyleTableRecord
  2
AM_DIN$4
 70
     0
  4
"
 41
3.5
 42
0.0
 43
10.0
 44
1.0
 47
0.1
 48
0.1
 73
     0
 77
     1
 78
     8
 79
     2
140
3.5
141
0.0
143
0.0393701
146
0.71
147
1.5
176
   256
177
   256
178
     2
271
     2
272
     2
283
     0
284
     8
288
     1
289
     0
340
11
371
    -1
372
    -1
1001
ACAD_DSTYLE_DIMJOGGED_JOGANGLE_SYMBOL
1070
   384
1040
1.570796326794896
  0
DIMSTYLE
105
72
330
A
100
AcDbSymbolTableRecord
100
AcDbDimStyleTableRecord
  2
AM_DIN$6
 70
     0
  4
"
 41
3.5
 42
0.0
 43
0.0
 44
1.0
 47
0.1
 48
0.1
 73
     0
 74
     0
 78
     8
 79
     2
140
3.5
141
0.0
143
0.0393701
146
0.71
147
1.5
172
     1
176
   256
177
   256
178
     2
271
     2
272
     2
283
     0
284
     8
340
11
371
    -1
372
    -1
1001
ACAD_DSTYLE_DIMJOGGED_JOGANGLE_SYMBOL
1070
   384
1040
1.570796326794896
  0
DIMSTYLE
105
73
330
A
100
AcDbSymbolTableRecord
100
AcDbDimStyleTableRecord
  2
AM_DIN$7
 70
     0
  4
"
 41
3.5
 42
0.0
 43
10.0
 44
1.0
 47
0.1
 48
0.1
 73
     0
 74
     0
 77
     1
 78
     8
 79
     2
140
3.5
141
0.0
143
0.0393701
146
0.71
147
1.5
172
     1
176
   256
177
   256
178
     2
271
     2
272
     2
283
     0
284
     8
340
11
371
    -1
372
    -1
1001
ACAD_DSTYLE_DIMJOGGED_JOGANGLE_SYMBOL
1070
   384
1040
1.570796326794896
  0
DIMSTYLE
105
74
330
A
100
AcDbSymbolTableRecord
100
AcDbDimStyleTableRecord
  2
AM_DIN$SF
 70
     0
  4
"
 41
2.5
 42
1.0
 43
10.0
 44
1.0
 47
0.1
 48
0.1
 73
     0
 74
     0
 75
     1
 76
     1
 77
     1
 78
     8
 79
     2
140
3.5
141
0.0
143
0.0393701
146
0.71
147
1.5
172
     1
176
   256
177
   256
178
     2
271
     2
272
     3
274
     4
283
     0
284
     8
340
11
371
    -1
372
    -1
1001
ACAD_DSTYLE_DIMJOGGED_JOGANGLE_SYMBOL
1070
   384
1040
1.570796326794896
  0
DIMSTYLE
105
79
330
A
100
AcDbSymbolTableRecord
100
AcDbDimStyleTableRecord
  2
AM_DIN$SH
 70
     0
  4
"
 41
2.5
 42
1.0
 43
10.0
 44
1.0
 47
0.1
 48
0.1
 73
     0
 74
     0
 75
     1
 76
     1
 77
     1
 78
     8
 79
     2
140
3.5
141
0.0
143
0.0393701
144
2.0
146
0.71
147
1.5
172
     1
173
     1
176
   256
177
   256
178
     2
271
     2
272
     3
274
     4
283
     0
284
     8
340
11
343
75
371
    -1
372
    -1
1001
ACAD_DSTYLE_DIMJOGGED_JOGANGLE_SYMBOL
1070
   384
1040
1.570796326794896
  0
DIMSTYLE
105
1E3B
330
A
100
AcDbSymbolTableRecord
100
AcDbDimStyleTableRecord
  2
STANDARD
 70
     0
271
     2
272
     2
279
     2
284
     8
285
     8
286
     8
340
11
  0
DIMSTYLE
105
2CD1
102
{ACAD_REACTORS
330
4703
330
4704
330
4705
330
4707
330
47EC
330
4B71
102
}
330
A
100
AcDbSymbolTableRecord
100
AcDbDimStyleTableRecord
  2
AM_DIN$0
 70
     0
  4
"
 41
2.5
 42
0.0
 43
10.0
 44
1.0
 47
0.1
 48
0.1
 73
     0
 74
     0
 77
     1
 78
     8
 79
     2
140
3.5
141
0.0
143
0.0393701
146
0.71
147
1.5
172
     1
176
   256
177
   256
178
     2
271
     2
272
     2
283
     0
284
     8
340
11
371
    -1
372
    -1
1001
ACAD_DSTYLE_DIMJOGGED_JOGANGLE_SYMBOL
1070
   384
1040
1.570796326794896
  0
DIMSTYLE
105
444F
102
{ACAD_REACTORS
330
4844
102
}
330
A
100
AcDbSymbolTableRecord
100
AcDbDimStyleTableRecord
  2
AM_DIN$2
 70
     0
  4
"
 41
2.5
 42
0.0
 43
10.0
 44
1.0
 47
0.1
 48
0.1
 73
     0
 74
     0
 77
     1
 78
     8
 79
     2
140
3.5
141
0.0
143
0.0393701
146
0.71
147
1.5
172
     1
176
   256
177
   256
178
     2
271
     2
272
     2
283
     0
284
     8
340
11
371
    -1
372
    -1
1001
ACAD_DSTYLE_DIMJOGGED_JOGANGLE_SYMBOL
1070
   384
1040
1.570796326794896
  0
DIMSTYLE
105
498F
330
A
100
AcDbSymbolTableRecord
100
AcDbDimStyleTableRecord
  2
AM_ANSI
 70
     0
  4
mm
 41
0.1
 42
0.05
 43
0.5
 44
0.1
 47
0.1
 48
0.1
 78
     7
140
0.12
141
0.0
146
0.71
147
0.06
176
   256
177
   256
178
     2
271
     2
272
     2
279
     2
284
     8
285
     8
286
     8
340
11
1001
ACAD_DSTYLE_DIMJOGGED_JOGANGLE_SYMBOL
1070
   384
1040
0.7853981633974483
1001
ACAD_DSTYLE_DIMARC_LENGTH_SYMBOL
1070
   379
1070
     1
  0
DIMSTYLE
105
4990
330
A
100
AcDbSymbolTableRecord
100
AcDbDimStyleTableRecord
  2
AM_ANSI$3
 70
     0
  4
mm
 41
0.1
 42
0.05
 43
0.5
 44
0.1
 47
0.1
 48
0.1
 78
     7
140
0.12
141
0.0
146
0.71
147
0.06
176
   256
177
   256
178
     2
271
     2
272
     2
279
     2
284
     8
285
     8
286
     8
340
11
1001
ACAD_DSTYLE_DIMJOGGED_JOGANGLE_SYMBOL
1070
   384
1040
0.7853981633974483
1001
ACAD_DSTYLE_DIMARC_LENGTH_SYMBOL
1070
   379
1070
     1
  0
DIMSTYLE
105
4991
330
A
100
AcDbSymbolTableRecord
100
AcDbDimStyleTableRecord
  2
AM_ANSI$4
 70
     0
  4
mm
 41
0.1
 42
0.05
 43
0.5
 44
0.1
 47
0.1
 48
0.1
 78
     7
140
0.12
141
0.0
146
0.71
147
0.06
176
   256
177
   256
178
     2
271
     2
272
     2
279
     2
284
     8
285
     8
286
     8
340
11
1001
ACAD_DSTYLE_DIMJOGGED_JOGANGLE_SYMBOL
1070
   384
1040
0.7853981633974483
1001
ACAD_DSTYLE_DIMARC_LENGTH_SYMBOL
1070
   379
1070
     1
  0
DIMSTYLE
105
4992
330
A
100
AcDbSymbolTableRecord
100
AcDbDimStyleTableRecord
  2
AM_ANSI$7
 70
     0
  4
mm
 41
0.1
 42
0.05
 43
0.5
 44
0.1
 47
0.1
 48
0.1
 78
     7
140
0.24
141
0.0
146
0.71
147
0.06
176
   256
177
   256
178
     2
271
     2
272
     2
279
     2
284
     8
285
     8
286
     8
340
11
1001
ACAD_DSTYLE_DIMJOGGED_JOGANGLE_SYMBOL
1070
   384
1040
0.7853981633974483
1001
ACAD_DSTYLE_DIMARC_LENGTH_SYMBOL
1070
   379
1070
     1
  0
DIMSTYLE
105
4993
330
A
100
AcDbSymbolTableRecord
100
AcDbDimStyleTableRecord
  2
AM_ANSI$SF
 70
     0
  4
mm
 41
0.1
 42
0.05
 43
0.5
 44
0.1
 47
0.1
 48
0.1
 75
     1
 76
     1
 78
     7
140
0.12
141
0.0
146
0.71
147
0.06
176
   256
177
   256
178
     2
271
     2
272
     2
279
     2
284
     8
285
     8
286
     8
340
11
1001
ACAD_DSTYLE_DIMJOGGED_JOGANGLE_SYMBOL
1070
   384
1040
0.7853981633974483
1001
ACAD_DSTYLE_DIMARC_LENGTH_SYMBOL
1070
   379
1070
     1
  0
DIMSTYLE
105
4994
330
A
100
AcDbSymbolTableRecord
100
AcDbDimStyleTableRecord
  2
AM_ANSI$SH
 70
     0
  4
mm
 41
0.1
 42
0.05
 43
0.5
 44
0.1
 47
0.1
 48
0.1
 75
     1
 76
     1
 78
     7
140
0.12
141
0.0
146
0.71
147
0.06
173
     1
176
   256
177
   256
178
     2
271
     2
272
     2
279
     2
284
     8
285
     8
286
     8
340
11
1001
ACAD_DSTYLE_DIMJOGGED_JOGANGLE_SYMBOL
1070
   384
1040
0.7853981633974483
1001
ACAD_DSTYLE_DIMARC_LENGTH_SYMBOL
1070
   379
1070
     1
  0
ENDTAB
  0
TABLE
  2
BLOCK_RECORD
  5
1
330
0
100
AcDbSymbolTable
 70
    10
  0
BLOCK_RECORD
  5
1F
102
{ACAD_XDICTIONARY
360
1F1
102
}
330
1
100
AcDbSymbolTableRecord
100
AcDbBlockTableRecord
  2
*Model_Space
340
22
  0
BLOCK_RECORD
  5
1B
330
1
100
AcDbSymbolTableRecord
100
AcDbBlockTableRecord
  2
*Paper_Space
340
1E
  0
BLOCK_RECORD
  5
23
330
1
100
AcDbSymbolTableRecord
100
AcDbBlockTableRecord
  2
*Paper_Space0
340
26
  0
BLOCK_RECORD
  5
75
330
1
100
AcDbSymbolTableRecord
100
AcDbBlockTableRecord
  2
GENAXEH
340
0
  0
BLOCK_RECORD
  5
470D
330
1
100
AcDbSymbolTableRecord
100
AcDbBlockTableRecord
  2
*D2
340
0
  0
BLOCK_RECORD
  5
4719
330
1
100
AcDbSymbolTableRecord
100
AcDbBlockTableRecord
  2
*D3
340
0
  0
BLOCK_RECORD
  5
4725
330
1
100
AcDbSymbolTableRecord
100
AcDbBlockTableRecord
  2
*D4
340
0
  0
BLOCK_RECORD
  5
473D
330
1
100
AcDbSymbolTableRecord
100
AcDbBlockTableRecord
  2
*D5
340
0
  0
BLOCK_RECORD
  5
47ED
330
1
100
AcDbSymbolTableRecord
100
AcDbBlockTableRecord
  2
*D6
340
0
  0
BLOCK_RECORD
  5
4845
330
1
100
AcDbSymbolTableRecord
100
AcDbBlockTableRecord
  2
*D7
340
0
  0
BLOCK_RECORD
  5
4B72
330
1
100
AcDbSymbolTableRecord
100
AcDbBlockTableRecord
  2
*D8
340
0
  0
ENDTAB
  0
ENDSEC
  0
SECTION
  2
BLOCKS
  0
BLOCK
  5
20
330
1F
100
AcDbEntity
  8
0
100
AcDbBlockBegin
  2
*Model_Space
 70
     0
 10
0.0
 20
0.0
 30
0.0
  3
*Model_Space
  1

  0
ENDBLK
  5
21
330
1F
100
AcDbEntity
  8
0
100
AcDbBlockEnd
  0
BLOCK
  5
1C
330
1B
100
AcDbEntity
 67
     1
  8
0
100
AcDbBlockBegin
  2
*Paper_Space
 70
     0
 10
0.0
 20
0.0
 30
0.0
  3
*Paper_Space
  1

  0
ENDBLK
  5
1D
330
1B
100
AcDbEntity
 67
     1
  8
0
100
AcDbBlockEnd
  0
BLOCK
  5
24
330
23
100
AcDbEntity
 67
     1
  8
0
100
AcDbBlockBegin
  2
*Paper_Space0
 70
     0
 10
0.0
 20
0.0
 30
0.0
  3
*Paper_Space0
  1

  0
ENDBLK
  5
25
330
23
100
AcDbEntity
 67
     1
  8
0
100
AcDbBlockEnd
  0
BLOCK
  5
77
330
75
100
AcDbEntity
  8
0
100
AcDbBlockBegin
  2
GENAXEH
 70
     0
 10
0.0
 20
0.0
 30
0.0
  3
GENAXEH
  1

  0
LINE
  5
76
330
75
100
AcDbEntity
  8
0
100
AcDbLine
 10
-1.0
 20
0.0
 30
0.0
 11
1.0
 21
0.0
 31
0.0
  0
ENDBLK
  5
78
330
75
100
AcDbEntity
  8
0
100
AcDbBlockEnd
  0
BLOCK
  5
470E
330
470D
100
AcDbEntity
  8
0
 48
0.1
100
AcDbBlockBegin
  2
*D2
 70
     1
 10
0.0
 20
0.0
 30
0.0
  3
*D2
  1

  0
LINE
  5
48DC
330
470D
100
AcDbEntity
  8
2
100
AcDbLine
 10
44.0
 20
10.0
 30
0.0
 11
61.73601728249867
 21
9.999999999999994
 31
0.0
  0
LINE
  5
48DD
330
470D
100
AcDbEntity
  8
2
100
AcDbLine
 10
44.0
 20
-10.0
 30
0.0
 11
61.73601728249867
 21
-10.0
 31
0.0
  0
LINE
  5
48DE
330
470D
100
AcDbEntity
  8
2
100
AcDbLine
 10
60.73601728249866
 20
7.499999999999995
 30
0.0
 11
60.73601728249866
 21
-7.500000000000004
 31
0.0
  0
SOLID
  5
48DF
330
470D
100
AcDbEntity
  8
2
100
AcDbTrace
 10
60.319350615832
 20
7.499999999999995
 30
0.0
 11
61.15268394916533
 21
7.499999999999995
 31
0.0
 12
60.73601728249866
 22
9.999999999999994
 32
0.0
 13
60.73601728249866
 23
9.999999999999994
 33
0.0
  0
SOLID
  5
48E0
330
470D
100
AcDbEntity
  8
2
100
AcDbTrace
 10
60.319350615832
 20
-7.500000000000004
 30
0.0
 11
61.15268394916533
 21
-7.500000000000004
 31
0.0
 12
60.73601728249866
 22
-10.0
 32
0.0
 13
60.73601728249866
 23
-10.0
 33
0.0
  0
MTEXT
  5
48E1
330
470D
100
AcDbEntity
  8
2
 62
     2
100
AcDbMText
 10
57.48567279430968
 20
0.7895003830878981
 30
0.0
 40
3.5
 41
0.0
 71
     5
 72
     1
  1
%%c20
 11
0.0000000000000001
 21
1.0
 31
0.0
 73
     1
 44
1.0
  0
POINT
  5
48E2
330
470D
100
AcDbEntity
  8
Defpoints
 62
     0
100
AcDbPoint
 10
44.0
 20
10.0
 30
0.0
  0
POINT
  5
48E3
330
470D
100
AcDbEntity
  8
Defpoints
 62
     0
100
AcDbPoint
 10
44.0
 20
-10.0
 30
0.0
  0
POINT
  5
48E4
330
470D
100
AcDbEntity
  8
Defpoints
 62
     0
100
AcDbPoint
 10
60.73601728249866
 20
-10.0
 30
0.0
  0
ENDBLK
  5
470F
330
470D
100
AcDbEntity
  8
0
 48
0.1
100
AcDbBlockEnd
  0
BLOCK
  5
471A
330
4719
100
AcDbEntity
  8
0
 48
0.1
100
AcDbBlockBegin
  2
*D3
 70
     1
 10
0.0
 20
0.0
 30
0.0
  3
*D3
  1

  0
LINE
  5
48E5
330
4719
100
AcDbEntity
  8
2
100
AcDbLine
 10
44.0
 20
10.0
 30
0.0
 11
44.00000000000001
 21
76.0
 31
0.0
  0
LINE
  5
48E6
330
4719
100
AcDbEntity
  8
2
100
AcDbLine
 10
0.0
 20
12.5
 30
0.0
 11
0.0000000000000039
 21
76.0
 31
0.0
  0
LINE
  5
48E7
330
4719
100
AcDbEntity
  8
2
100
AcDbLine
 10
41.50000000000001
 20
75.0
 30
0.0
 11
2.500000000000003
 21
75.0
 31
0.0
  0
SOLID
  5
48E8
330
4719
100
AcDbEntity
  8
2
100
AcDbTrace
 10
41.50000000000001
 20
75.41666666666667
 30
0.0
 11
41.50000000000001
 21
74.58333333333333
 31
0.0
 12
44.00000000000001
 22
75.0
 32
0.0
 13
44.00000000000001
 23
75.0
 33
0.0
  0
SOLID
  5
48E9
330
4719
100
AcDbEntity
  8
2
100
AcDbTrace
 10
2.500000000000003
 20
75.41666666666667
 30
0.0
 11
2.500000000000003
 21
74.58333333333333
 31
0.0
 12
0.0000000000000038
 22
75.0
 32
0.0
 13
0.0000000000000038
 23
75.0
 33
0.0
  0
MTEXT
  5
48EA
330
4719
100
AcDbEntity
  8
2
 62
     2
100
AcDbMText
 10
22.00000000000001
 20
78.25
 30
0.0
 40
3.5
 41
0.0
 71
     5
 72
     1
  1
44
 73
     1
 44
1.0
  0
POINT
  5
48EB
330
4719
100
AcDbEntity
  8
Defpoints
 62
     0
100
AcDbPoint
 10
44.0
 20
10.0
 30
0.0
  0
POINT
  5
48EC
330
4719
100
AcDbEntity
  8
Defpoints
 62
     0
100
AcDbPoint
 10
0.0
 20
12.5
 30
0.0
  0
POINT
  5
48ED
330
4719
100
AcDbEntity
  8
Defpoints
 62
     0
100
AcDbPoint
 10
0.0000000000000038
 20
75.0
 30
0.0
  0
ENDBLK
  5
471B
330
4719
100
AcDbEntity
  8
0
 48
0.1
100
AcDbBlockEnd
  0
BLOCK
  5
4726
330
4725
100
AcDbEntity
  8
0
 48
0.1
100
AcDbBlockBegin
  2
*D4
 70
     1
 10
0.0
 20
0.0
 30
0.0
  3
*D4
  1

  0
LINE
  5
48EE
330
4725
100
AcDbEntity
  8
SK2
100
AcDbLine
 10
44.0
 20
10.0
 30
0.0
 11
44.00000000000001
 21
91.0
 31
0.0
  0
LINE
  5
48EF
330
4725
100
AcDbEntity
  8
SK2
100
AcDbLine
 10
-56.0
 20
11.50000000000001
 30
0.0
 11
-55.99999999999999
 21
91.0
 31
0.0
  0
LINE
  5
48F0
330
4725
100
AcDbEntity
  8
SK2
100
AcDbLine
 10
41.50000000000001
 20
90.0
 30
0.0
 11
-53.49999999999999
 21
90.0
 31
0.0
  0
SOLID
  5
48F1
330
4725
100
AcDbEntity
  8
SK2
100
AcDbTrace
 10
41.50000000000001
 20
90.41666666666667
 30
0.0
 11
41.50000000000001
 21
89.58333333333333
 31
0.0
 12
44.00000000000001
 22
90.0
 32
0.0
 13
44.00000000000001
 23
90.0
 33
0.0
  0
SOLID
  5
48F2
330
4725
100
AcDbEntity
  8
SK2
100
AcDbTrace
 10
-53.49999999999999
 20
90.41666666666667
 30
0.0
 11
-53.49999999999999
 21
89.58333333333333
 31
0.0
 12
-55.99999999999999
 22
90.0
 32
0.0
 13
-55.99999999999999
 23
90.0
 33
0.0
  0
MTEXT
  5
48F3
330
4725
100
AcDbEntity
  8
SK2
 62
     2
100
AcDbMText
 10
-5.920134795021681
 20
93.25000000000001
 30
0.0
 40
3.5
 41
0.0
 71
     5
 72
     1
  1
100
 73
     1
 44
1.0
  0
POINT
  5
48F4
330
4725
100
AcDbEntity
  8
Defpoints
 62
     0
100
AcDbPoint
 10
44.0
 20
10.0
 30
0.0
  0
POINT
  5
48F5
330
4725
100
AcDbEntity
  8
Defpoints
 62
     0
100
AcDbPoint
 10
-56.0
 20
11.50000000000001
 30
0.0
  0
POINT
  5
48F6
330
4725
100
AcDbEntity
  8
Defpoints
 62
     0
100
AcDbPoint
 10
-55.99999999999999
 20
90.0
 30
0.0
  0
ENDBLK
  5
4727
330
4725
100
AcDbEntity
  8
0
 48
0.1
100
AcDbBlockEnd
  0
BLOCK
  5
473E
330
473D
100
AcDbEntity
  8
0
 48
0.1
100
AcDbBlockBegin
  2
*D5
 70
     1
 10
0.0
 20
0.0
 30
0.0
  3
*D5
  1

  0
LINE
  5
4B38
330
473D
100
AcDbEntity
  8
SK2
100
AcDbLine
 10
-55.0
 20
12.50000000000001
 30
0.0
 11
-79.86845500876722
 21
12.50000000000002
 31
0.0
  0
LINE
  5
4B39
330
473D
100
AcDbEntity
  8
SK2
100
AcDbLine
 10
-55.0
 20
-12.5
 30
0.0
 11
-79.86845500876722
 21
-12.49999999999999
 31
0.0
  0
LINE
  5
4B3A
330
473D
100
AcDbEntity
  8
SK2
100
AcDbLine
 10
-78.86845500876723
 20
10.00000000000002
 30
0.0
 11
-78.86845500876723
 21
-9.999999999999992
 31
0.0
  0
SOLID
  5
4B3B
330
473D
100
AcDbEntity
  8
SK2
100
AcDbTrace
 10
-79.2851216754339
 20
10.00000000000002
 30
0.0
 11
-78.45178834210056
 21
10.00000000000002
 31
0.0
 12
-78.86845500876723
 22
12.50000000000002
 32
0.0
 13
-78.86845500876723
 23
12.50000000000002
 33
0.0
  0
SOLID
  5
4B3C
330
473D
100
AcDbEntity
  8
SK2
100
AcDbTrace
 10
-79.2851216754339
 20
-9.999999999999992
 30
0.0
 11
-78.45178834210056
 21
-9.999999999999992
 31
0.0
 12
-78.86845500876723
 22
-12.49999999999999
 32
0.0
 13
-78.86845500876723
 23
-12.49999999999999
 33
0.0
  0
MTEXT
  5
4B3D
330
473D
100
AcDbEntity
  8
SK2
 62
     2
100
AcDbMText
 10
-82.11879949695619
 20
0.0000000000000017
 30
0.0
 40
3.5
 41
0.0
 71
     5
 72
     1
  1
%%c25
 11
0.0000000000000001
 21
1.0
 31
0.0
 73
     1
 44
1.0
  0
POINT
  5
4B3E
330
473D
100
AcDbEntity
  8
Defpoints
 62
     0
100
AcDbPoint
 10
-55.0
 20
12.50000000000001
 30
0.0
  0
POINT
  5
4B3F
330
473D
100
AcDbEntity
  8
Defpoints
 62
     0
100
AcDbPoint
 10
-55.0
 20
-12.5
 30
0.0
  0
POINT
  5
4B40
330
473D
100
AcDbEntity
  8
Defpoints
 62
     0
100
AcDbPoint
 10
-78.86845500876723
 20
-12.49999999999999
 30
0.0
  0
ENDBLK
  5
473F
330
473D
100
AcDbEntity
  8
0
 48
0.1
100
AcDbBlockEnd
  0
BLOCK
  5
47EE
330
47ED
100
AcDbEntity
  8
0
 48
0.1
100
AcDbBlockBegin
  2
*D6
 70
     1
 10
0.0
 20
0.0
 30
0.0
  3
*D6
  1

  0
LINE
  5
4900
330
47ED
100
AcDbEntity
  8
2
100
AcDbLine
 10
33.6076951545866
 20
16.0
 30
0.0
 11
77.23233234577344
 21
15.99999999999998
 31
0.0
  0
LINE
  5
4901
330
47ED
100
AcDbEntity
  8
2
100
AcDbLine
 10
33.60769515458609
 20
-16.0
 30
0.0
 11
77.23233234577344
 21
-16.00000000000001
 31
0.0
  0
LINE
  5
4902
330
47ED
100
AcDbEntity
  8
2
100
AcDbLine
 10
76.23233234577345
 20
13.49999999999998
 30
0.0
 11
76.23233234577345
 21
-13.50000000000001
 31
0.0
  0
SOLID
  5
4903
330
47ED
100
AcDbEntity
  8
2
100
AcDbTrace
 10
75.81566567910677
 20
13.49999999999998
 30
0.0
 11
76.64899901244011
 21
13.49999999999998
 31
0.0
 12
76.23233234577345
 22
15.99999999999998
 32
0.0
 13
76.23233234577345
 23
15.99999999999998
 33
0.0
  0
SOLID
  5
4904
330
47ED
100
AcDbEntity
  8
2
100
AcDbTrace
 10
75.81566567910677
 20
-13.50000000000001
 30
0.0
 11
76.64899901244011
 21
-13.50000000000001
 31
0.0
 12
76.23233234577345
 22
-16.00000000000001
 32
0.0
 13
76.23233234577345
 23
-16.00000000000001
 33
0.0
  0
MTEXT
  5
4905
330
47ED
100
AcDbEntity
  8
2
 62
     2
100
AcDbMText
 10
72.98198785758447
 20
0.0693680223432697
 30
0.0
 40
3.5
 41
0.0
 71
     5
 72
     1
  1
%%c32
 11
0.0000000000000001
 21
1.0
 31
0.0
 73
     1
 44
1.0
  0
POINT
  5
4906
330
47ED
100
AcDbEntity
  8
Defpoints
 62
     0
100
AcDbPoint
 10
33.6076951545866
 20
16.0
 30
0.0
  0
POINT
  5
4907
330
47ED
100
AcDbEntity
  8
Defpoints
 62
     0
100
AcDbPoint
 10
33.60769515458609
 20
-16.0
 30
0.0
  0
POINT
  5
4908
330
47ED
100
AcDbEntity
  8
Defpoints
 62
     0
100
AcDbPoint
 10
76.23233234577345
 20
-16.00000000000001
 30
0.0
  0
ENDBLK
  5
47EF
330
47ED
100
AcDbEntity
  8
0
 48
0.1
100
AcDbBlockEnd
  0
BLOCK
  5
4846
330
4845
100
AcDbEntity
  8
0
 48
0.1
100
AcDbBlockBegin
  2
*D7
 70
     1
 10
0.0
 20
0.0
 30
0.0
  3
*D7
  1

  0
LINE
  5
4BAC
330
4845
100
AcDbEntity
  8
2
100
AcDbLine
 10
44.0
 20
25.90356489977217
 30
0.0
 11
43.99999999999995
 21
57.45398047546024
 31
0.0
  0
LINE
  5
4BAD
330
4845
100
AcDbEntity
  8
2
100
AcDbLine
 10
33.30150350478183
 20
16.17677983143839
 30
0.0
 11
2.90364739756057
 21
33.72699023772997
 31
0.0
  0
ARC
  5
4BAE
330
4845
100
AcDbEntity
  8
2
100
AcDbCircle
 10
44.00000000000002
 20
9.999999999999941
 30
0.0
 40
46.4539804754603
100
AcDbArc
 50
93.08384208617793
 51
146.9161579138223
  0
SOLID
  5
4BAF
330
4845
100
AcDbEntity
  8
2
100
AcDbTrace
 10
41.48969342525652
 20
56.80322539226072
 30
0.0
 11
41.51211705087493
 21
55.97019380494931
 31
0.0
 12
43.99999999999996
 22
56.45398047546024
 32
0.0
 13
43.99999999999996
 23
56.45398047546024
 33
0.0
  0
SOLID
  5
4BB0
330
4845
100
AcDbEntity
  8
2
100
AcDbTrace
 10
5.432585822582288
 20
35.13966673805893
 30
0.0
 11
4.722371118624931
 21
35.57560196114513
 31
0.0
 12
3.769672801345013
 22
33.22699023772997
 32
0.0
 13
3.769672801345013
 23
33.22699023772997
 33
0.0
  0
MTEXT
  5
4BB1
330
4845
100
AcDbEntity
  8
2
 62
     2
100
AcDbMText
 10
20.34635387341678
 20
53.71487961808092
 30
0.0
 40
3.5
 41
0.0
 71
     5
 72
     1
  1
60°
 11
0.8795046030501273
 21
0.4758903794085755
 31
0.0
 73
     1
 44
1.0
  0
POINT
  5
4BB2
330
4845
100
AcDbEntity
  8
Defpoints
 62
     0
100
AcDbPoint
 10
14.13995692975363
 20
45.58581360398373
 30
0.0
  0
POINT
  5
4BB3
330
4845
100
AcDbEntity
  8
Defpoints
 62
     0
100
AcDbPoint
 10
43.80000000000005
 20
10.11547005383785
 30
0.0
  0
POINT
  5
4BB4
330
4845
100
AcDbEntity
  8
Defpoints
 62
     0
100
AcDbPoint
 10
44.0
 20
25.90356489977217
 30
0.0
  0
POINT
  5
4BB5
330
4845
100
AcDbEntity
  8
Defpoints
 62
     0
100
AcDbPoint
 10
44.00000000000001
 20
22.02858495649275
 30
0.0
  0
POINT
  5
4BB6
330
4845
100
AcDbEntity
  8
Defpoints
 62
     0
100
AcDbPoint
 10
33.30150350478183
 20
16.17677983143839
 30
0.0
  0
ENDBLK
  5
4847
330
4845
100
AcDbEntity
  8
0
 48
0.1
100
AcDbBlockEnd
  0
BLOCK
  5
4B73
330
4B72
100
AcDbEntity
  8
0
 48
0.1
100
AcDbBlockBegin
  2
*D8
 70
     1
 10
0.0
 20
0.0
 30
0.0
  3
*D8
  1

  0
LINE
  5
4BB7
330
4B72
100
AcDbEntity
  8
2
100
AcDbLine
 10
44.0
 20
10.0
 30
0.0
 11
44.0
 21
38.39059343560052
 31
0.0
  0
LINE
  5
4BB8
330
4B72
100
AcDbEntity
  8
2
100
AcDbLine
 10
33.7
 20
15.94670777265306
 30
0.0
 11
33.7
 21
38.39059343560052
 31
0.0
  0
LINE
  5
4BB9
330
4B72
100
AcDbEntity
  8
2
100
AcDbLine
 10
41.5
 20
37.39059343560052
 30
0.0
 11
36.2
 21
37.39059343560052
 31
0.0
  0
SOLID
  5
4BBA
330
4B72
100
AcDbEntity
  8
2
100
AcDbTrace
 10
41.5
 20
37.80726010226719
 30
0.0
 11
41.5
 21
36.97392676893386
 31
0.0
 12
44.0
 22
37.39059343560052
 32
0.0
 13
44.0
 23
37.39059343560052
 33
0.0
  0
SOLID
  5
4BBB
330
4B72
100
AcDbEntity
  8
2
100
AcDbTrace
 10
36.2
 20
37.80726010226719
 30
0.0
 11
36.2
 21
36.97392676893386
 31
0.0
 12
33.7
 22
37.39059343560052
 32
0.0
 13
33.7
 23
37.39059343560052
 33
0.0
  0
MTEXT
  5
4BBC
330
4B72
100
AcDbEntity
  8
2
 62
     2
100
AcDbMText
 10
38.54180042804614
 20
40.64059343560052
 30
0.0
 40
3.5
 41
0.0
 71
     5
 72
     1
  1
10.3
 73
     1
 44
1.0
  0
POINT
  5
4BBD
330
4B72
100
AcDbEntity
  8
Defpoints
 62
     0
100
AcDbPoint
 10
44.0
 20
10.0
 30
0.0
  0
POINT
  5
4BBE
330
4B72
100
AcDbEntity
  8
Defpoints
 62
     0
100
AcDbPoint
 10
33.7
 20
15.94670777265306
 30
0.0
  0
POINT
  5
4BBF
330
4B72
100
AcDbEntity
  8
Defpoints
 62
     0
100
AcDbPoint
 10
33.7
 20
37.39059343560052
 30
0.0
  0
ENDBLK
  5
4B74
330
4B72
100
AcDbEntity
  8
0
 48
0.1
100
AcDbBlockEnd
  0
ENDSEC
  0
SECTION
  2
ENTITIES
  0
LINE
  5
4667
330
1F
100
AcDbEntity
  8
NOCUT
 48
0.1
100
AcDbLine
 10
0.0
 20
0.0
 30
0.0
 11
0.0
 21
-12.49999999999997
 31
0.0
  0
LINE
  5
466E
330
1F
100
AcDbEntity
  8
NOCUT
 48
0.1
100
AcDbLine
 10
42.57249840320002
 20
0.0
 30
0.0
 11
42.57249840320002
 21
-9.661058699903435
 31
0.0
  0
LINE
  5
466F
330
1F
100
AcDbEntity
  8
NOCUT
 48
0.1
100
AcDbLine
 10
42.57249840320002
 20
0.0
 30
0.0
 11
0.0
 21
0.0
 31
0.0
  0
LINE
  5
4674
330
1F
100
AcDbEntity
  8
NOCUT
 48
0.1
100
AcDbLine
 10
0.9142135624000218
 20
-12.0
 30
0.0
 11
0.0
 21
-12.5
 31
0.0
  0
LINE
  5
4675
330
1F
100
AcDbEntity
  8
NOCUT
 48
0.1
100
AcDbLine
 10
0.9142135624000218
 20
-12.0
 30
0.0
 11
18.64294327296156
 21
-12.0
 31
0.0
  0
ARC
  5
4676
330
1F
100
AcDbEntity
  8
NOCUT
 48
0.1
100
AcDbCircle
 10
18.64294327296156
 20
-17.0
 30
0.0
 40
5.0
100
AcDbArc
 50
60.00000000027275
 51
90.0
1001
GENIUS_GENODEF_13
1002
{
1000
HIER
1070
     0
1002
}
1002
{
1000
MANEDIT
1070
     0
1002
}
1002
{
1000
NOSEL
1070
     0
1002
}
1002
{
1000
BEHIND
1070
     0
1002
}
1002
{
1000
OTHER
1070
     0
1002
}
1002
{
1000
REACTOR
1002
}
1001
GENIUS_GENOBJ-N-FIL_13
1002
{
1000
OWNER
1000
GEN
1002
}
  0
LINE
  5
4677
330
1F
100
AcDbEntity
  8
NOCUT
 48
0.1
100
AcDbLine
 10
21.14294327294095
 20
-12.66987298106591
 30
0.0
 11
26.21579345440469
 21
-15.59868439886043
 31
0.0
  0
ARC
  5
4678
330
1F
100
AcDbEntity
  8
NOCUT
 48
0.1
100
AcDbCircle
 10
27.71579345439233
 20
-13.00060818749998
 30
0.0
 40
3.0
100
AcDbArc
 50
240.0000000002727
 51
270.0
1001
GENIUS_GENODEF_13
1002
{
1000
HIER
1070
     0
1002
}
1002
{
1000
MANEDIT
1070
     0
1002
}
1002
{
1000
NOSEL
1070
     0
1002
}
1002
{
1000
BEHIND
1070
     0
1002
}
1002
{
1000
OTHER
1070
     0
1002
}
1002
{
1000
REACTOR
1002
}
1001
GENIUS_GENOBJ-N-FIL_13
1002
{
1000
OWNER
1000
GEN
1002
}
  0
LINE
  5
4679
330
1F
100
AcDbEntity
  8
NOCUT
 48
0.1
100
AcDbLine
 10
27.71579345439233
 20
-16.00060818749998
 30
0.0
 11
31.12018549339999
 21
-16.0006081875
 31
0.0
  0
LINE
  5
467A
330
1F
100
AcDbEntity
  8
NOCUT
 48
0.1
100
AcDbLine
 10
32.6005903842088
 20
-15.60989953943246
 30
0.0
 11
42.31923255166816
 21
-10.09594059189217
 31
0.0
  0
ARC
  5
467B
330
1F
100
AcDbEntity
  8
NOCUT
 48
0.1
100
AcDbCircle
 10
31.12018549340002
 20
-13.0006081875
 30
0.0
 40
3.0
100
AcDbArc
 50
270.0
 51
296.6141614267193
1001
GENIUS_GENODEF_13
1002
{
1000
HIER
1070
     0
1002
}
1002
{
1000
MANEDIT
1070
     0
1002
}
1002
{
1000
NOSEL
1070
     0
1002
}
1002
{
1000
BEHIND
1070
     0
1002
}
1002
{
1000
OTHER
1070
     0
1002
}
1002
{
1000
REACTOR
1002
}
1001
GENIUS_GENOBJ-N-FIL_13
1002
{
1000
OWNER
1000
GEN
1002
}
  0
ARC
  5
467D
330
1F
100
AcDbEntity
  8
NOCUT
 48
0.1
100
AcDbCircle
 10
42.07249840320002
 20
-9.661058699903435
 30
0.0
 40
0.5
100
AcDbArc
 50
299.5687987287293
 51
0.0
  0
LINE
  5
467E
330
1F
100
AcDbEntity
  8
1
 48
0.1
100
AcDbLine
 10
0.0
 20
12.5
 30
0.0
 11
0.0
 21
0.0000000000000071
 31
0.0
  0
LINE
  5
467F
330
1F
100
AcDbEntity
  8
1
 48
0.1
100
AcDbLine
 10
0.9142135623999934
 20
12.0
 30
0.0
 11
0.0
 21
12.5
 31
0.0
  0
LINE
  5
4680
330
1F
100
AcDbEntity
  8
1
 48
0.1
100
AcDbLine
 10
0.9142135623999934
 20
12.0
 30
0.0
 11
18.64294327296153
 21
12.0
 31
0.0
  0
ARC
  5
4681
330
1F
100
AcDbEntity
  8
1
 48
0.1
100
AcDbCircle
 10
18.64294327296153
 20
17.0
 30
0.0
 40
5.0
100
AcDbArc
 50
270.0
 51
299.9999999997273
1001
GENIUS_GENODEF_13
1002
{
1000
HIER
1070
     0
1002
}
1002
{
1000
MANEDIT
1070
     0
1002
}
1002
{
1000
NOSEL
1070
     0
1002
}
1002
{
1000
BEHIND
1070
     0
1002
}
1002
{
1000
OTHER
1070
     0
1002
}
1002
{
1000
REACTOR
1002
}
1001
GENIUS_GENOBJ-N-FIL_13
1002
{
1000
OWNER
1000
GEN
1002
}
  0
LINE
  5
4682
330
1F
100
AcDbEntity
  8
1
 48
0.1
100
AcDbLine
 10
21.1429432729409
 20
12.66987298106591
 30
0.0
 11
26.21579345440466
 21
15.59868439886043
 31
0.0
  0
ARC
  5
4683
330
1F
100
AcDbEntity
  8
1
 48
0.1
100
AcDbCircle
 10
27.71579345439227
 20
13.00060818749998
 30
0.0
 40
3.0
100
AcDbArc
 50
90.0
 51
119.9999999997272
1001
GENIUS_GENODEF_13
1002
{
1000
HIER
1070
     0
1002
}
1002
{
1000
MANEDIT
1070
     0
1002
}
1002
{
1000
NOSEL
1070
     0
1002
}
1002
{
1000
BEHIND
1070
     0
1002
}
1002
{
1000
OTHER
1070
     0
1002
}
1002
{
1000
REACTOR
1002
}
1001
GENIUS_GENOBJ-N-FIL_13
1002
{
1000
OWNER
1000
GEN
1002
}
  0
LINE
  5
4684
330
1F
100
AcDbEntity
  8
1
 48
0.1
100
AcDbLine
 10
27.71579345439227
 20
16.00060818749998
 30
0.0
 11
31.12018549339996
 21
16.0006081875
 31
0.0
  0
ARC
  5
4686
330
1F
100
AcDbEntity
  8
1
 48
0.1
100
AcDbCircle
 10
31.12018549339996
 20
13.0006081875
 30
0.0
 40
3.0
100
AcDbArc
 50
63.38583857327638
 51
90.0
1001
GENIUS_GENODEF_13
1002
{
1000
HIER
1070
     0
1002
}
1002
{
1000
MANEDIT
1070
     0
1002
}
1002
{
1000
NOSEL
1070
     0
1002
}
1002
{
1000
BEHIND
1070
     0
1002
}
1002
{
1000
OTHER
1070
     0
1002
}
1002
{
1000
REACTOR
1002
}
1001
GENIUS_GENOBJ-N-FIL_13
1002
{
1000
OWNER
1000
GEN
1002
}
  0
LINE
  5
4687
330
1F
100
AcDbEntity
  8
1
 48
0.1
100
AcDbLine
 10
42.57249840320002
 20
7.300155311755887
 30
0.0
 11
42.57249840320002
 21
-9.661058699903435
 31
0.0
  0
LINE
  5
468A
330
1F
100
AcDbEntity
  8
1
 48
0.1
100
AcDbLine
 10
0.9142135623999934
 20
-12.0
 30
0.0
 11
0.0
 21
-12.5
 31
0.0
  0
LINE
  5
468B
330
1F
100
AcDbEntity
  8
1
 48
0.1
100
AcDbLine
 10
0.9142135623999934
 20
-12.0
 30
0.0
 11
18.64294327296153
 21
-12.0
 31
0.0
  0
ARC
  5
468C
330
1F
100
AcDbEntity
  8
1
 48
0.1
100
AcDbCircle
 10
18.64294327296153
 20
-17.0
 30
0.0
 40
5.0
100
AcDbArc
 50
60.00000000027275
 51
90.0
1001
GENIUS_GENODEF_13
1002
{
1000
HIER
1070
     0
1002
}
1002
{
1000
MANEDIT
1070
     0
1002
}
1002
{
1000
NOSEL
1070
     0
1002
}
1002
{
1000
BEHIND
1070
     0
1002
}
1002
{
1000
OTHER
1070
     0
1002
}
1002
{
1000
REACTOR
1002
}
1001
GENIUS_GENOBJ-N-FIL_13
1002
{
1000
OWNER
1000
GEN
1002
}
  0
LINE
  5
468D
330
1F
100
AcDbEntity
  8
1
 48
0.1
100
AcDbLine
 10
21.1429432729409
 20
-12.66987298106591
 30
0.0
 11
26.21579345440466
 21
-15.59868439886043
 31
0.0
  0
ARC
  5
468E
330
1F
100
AcDbEntity
  8
1
 48
0.1
100
AcDbCircle
 10
27.71579345439227
 20
-13.00060818749998
 30
0.0
 40
3.0
100
AcDbArc
 50
240.0000000002727
 51
270.0
1001
GENIUS_GENODEF_13
1002
{
1000
HIER
1070
     0
1002
}
1002
{
1000
MANEDIT
1070
     0
1002
}
1002
{
1000
NOSEL
1070
     0
1002
}
1002
{
1000
BEHIND
1070
     0
1002
}
1002
{
1000
OTHER
1070
     0
1002
}
1002
{
1000
REACTOR
1002
}
1001
GENIUS_GENOBJ-N-FIL_13
1002
{
1000
OWNER
1000
GEN
1002
}
  0
LINE
  5
468F
330
1F
100
AcDbEntity
  8
1
 48
0.1
100
AcDbLine
 10
27.71579345439227
 20
-16.00060818749998
 30
0.0
 11
31.12018549339996
 21
-16.0006081875
 31
0.0
  0
LINE
  5
4690
330
1F
100
AcDbEntity
  8
1
 48
0.1
100
AcDbLine
 10
32.60059038420877
 20
-15.60989953943246
 30
0.0
 11
42.31923255166816
 21
-10.09594059189217
 31
0.0
  0
ARC
  5
4691
330
1F
100
AcDbEntity
  8
1
 48
0.1
100
AcDbCircle
 10
31.12018549339996
 20
-13.0006081875
 30
0.0
 40
3.0
100
AcDbArc
 50
270.0
 51
296.6141614267203
1001
GENIUS_GENODEF_13
1002
{
1000
HIER
1070
     0
1002
}
1002
{
1000
MANEDIT
1070
     0
1002
}
1002
{
1000
NOSEL
1070
     0
1002
}
1002
{
1000
BEHIND
1070
     0
1002
}
1002
{
1000
OTHER
1070
     0
1002
}
1002
{
1000
REACTOR
1002
}
1001
GENIUS_GENOBJ-N-FIL_13
1002
{
1000
OWNER
1000
GEN
1002
}
  0
ARC
  5
4692
330
1F
100
AcDbEntity
  8
1
 48
0.1
100
AcDbCircle
 10
42.07249840320002
 20
-9.661058699903435
 30
0.0
 40
0.5
100
AcDbArc
 50
299.5687987287293
 51
0.0
  0
LINE
  5
4697
330
1F
100
AcDbEntity
  8
SK1
100
AcDbLine
 10
0.0
 20
-12.5
 30
0.0
 11
-55.0
 21
-12.5
 31
0.0
  0
LINE
  5
4698
330
1F
100
AcDbEntity
  8
SK1
100
AcDbLine
 10
-55.0
 20
-12.5
 30
0.0
 11
-56.0
 21
-11.5
 31
0.0
  0
LINE
  5
4699
330
1F
100
AcDbEntity
  8
SK1
100
AcDbLine
 10
-56.0
 20
-11.5
 30
0.0
 11
-56.0
 21
11.50000000000001
 31
0.0
  0
LINE
  5
469A
330
1F
100
AcDbEntity
  8
SK3
 48
0.3
100
AcDbLine
 10
21.00000000000003
 20
-3.0
 30
0.0
 11
21.0
 21
3.000000000000014
 31
0.0
  0
LINE
  5
469B
330
1F
100
AcDbEntity
  8
SK1
100
AcDbLine
 10
-56.0
 20
11.50000000000001
 30
0.0
 11
-55.0
 21
12.50000000000001
 31
0.0
  0
LINE
  5
469C
330
1F
100
AcDbEntity
  8
SK1
100
AcDbLine
 10
-55.0
 20
12.50000000000001
 30
0.0
 11
0.0
 21
12.5
 31
0.0
  0
LINE
  5
469D
330
1F
100
AcDbEntity
  8
SK1
100
AcDbLine
 10
-55.0
 20
12.50000000000001
 30
0.0
 11
-55.0
 21
6.780000000000043
 31
0.0
  0
LINE
  5
469E
330
1F
100
AcDbEntity
  8
SK1
100
AcDbLine
 10
-55.0
 20
-12.5
 30
0.0
 11
-55.0
 21
-6.779999999999972
 31
0.0
  0
LINE
  5
469F
330
1F
100
AcDbEntity
  8
SK1
100
AcDbLine
 10
-56.0
 20
-6.779999999999972
 30
0.0
 11
-38.99999999999773
 21
-6.780000000000001
 31
0.0
  0
LINE
  5
46A0
330
1F
100
AcDbEntity
  8
SK1
100
AcDbLine
 10
-38.99999999999773
 20
-6.780000000000001
 30
0.0
 11
-38.99999999999773
 21
6.780000000000057
 31
0.0
  0
LINE
  5
46A1
330
1F
100
AcDbEntity
  8
SK1
100
AcDbLine
 10
-38.99999999999773
 20
6.780000000000057
 30
0.0
 11
-56.0
 21
6.780000000000043
 31
0.0
  0
LINE
  5
46A2
330
1F
100
AcDbEntity
  8
SK1
100
AcDbLine
 10
-29.99999999999772
 20
6.780000000000086
 30
0.0
 11
-29.99999999999772
 21
-6.780000000000029
 31
0.0
  0
LINE
  5
46A3
330
1F
100
AcDbEntity
  8
SK1
100
AcDbLine
 10
-29.99999999999772
 20
-6.780000000000029
 30
0.0
 11
-17.99999999999772
 21
-6.779999999999986
 31
0.0
  0
LINE
  5
46A4
330
1F
100
AcDbEntity
  8
SK1
100
AcDbLine
 10
-17.99999999999772
 20
-6.779999999999986
 30
0.0
 11
-17.99999999999772
 21
6.780000000000029
 31
0.0
  0
LINE
  5
46A5
330
1F
100
AcDbEntity
  8
SK1
100
AcDbLine
 10
-17.99999999999772
 20
6.780000000000029
 30
0.0
 11
-29.99999999999772
 21
6.780000000000015
 31
0.0
  0
ARC
  5
46A6
330
1F
100
AcDbEntity
  8
SK1
100
AcDbCircle
 10
-49.49209999999766
 20
-0.0000000000000284
 30
0.0
 40
12.49209999999995
100
AcDbArc
 50
327.1294363887073
 51
32.87056361129272
  0
ARC
  5
46A7
330
1F
100
AcDbEntity
  8
SK1
100
AcDbCircle
 10
-19.50789999999767
 20
0.0000000000000284
 30
0.0
 40
12.49210000000003
100
AcDbArc
 50
147.1294363887073
 51
212.8705636112927
  0
ARC
  5
46A8
330
1F
100
AcDbEntity
  8
SK1
100
AcDbCircle
 10
-28.49209999999767
 20
0.0000000000000426
 30
0.0
 40
12.49209999999994
100
AcDbArc
 50
327.1294363887073
 51
32.87056361129272
  0
LINE
  5
46BC
330
1F
100
AcDbEntity
  8
4
100
AcDbLine
 10
46.34216317127595
 20
0.0
 30
0.0
 11
0.0
 21
0.0
 31
0.0
  0
LINE
  5
46BD
330
1F
100
AcDbEntity
  8
SK3
 48
0.3
100
AcDbLine
 10
21.00000000000003
 20
-3.000000000000014
 30
0.0
 11
-55.99999999999998
 21
-2.999999999999985
 31
0.0
  0
LINE
  5
46BE
330
1F
100
AcDbEntity
  8
SK3
 48
0.3
100
AcDbLine
 10
21.00000000000003
 20
3.000000000000014
 30
0.0
 11
-55.99999999999998
 21
3.0
 31
0.0
  0
LINE
  5
46BF
330
1F
100
AcDbEntity
  8
SK1
100
AcDbLine
 10
44.0
 20
10.46376936984877
 30
0.0
 11
44.00000000000003
 21
9.53623063015118
 31
0.0
  0
LINE
  5
46C0
330
1F
100
AcDbEntity
  8
SK1
100
AcDbLine
 10
43.53623063015118
 20
10.0
 30
0.0
 11
44.46376936984882
 21
9.999999999999971
 31
0.0
  0
CIRCLE
  5
46C1
330
1F
100
AcDbEntity
  8
SK1
100
AcDbCircle
 10
44.0
 20
10.0
 30
0.0
 40
0.4637693698488208
  0
LINE
  5
46C2
330
1F
100
AcDbEntity
  8
1
100
AcDbLine
 10
32.91723666748615
 20
16.12791555326259
 30
0.0
 11
29.7711900137976
 21
13.03695774366032
 31
0.0
  0
LINE
  5
46C3
330
1F
100
AcDbEntity
  8
1
100
AcDbLine
 10
29.04434724996071
 20
12.09832979192622
 30
0.0
 11
28.06638671880748
 21
10.40445246417198
 31
0.0
  0
ARC
  5
46C4
330
1F
100
AcDbEntity
  8
1
100
AcDbCircle
 10
32.85485902661222
 20
9.898329791926173
 30
0.0
 40
4.4
100
AcDbArc
 50
134.4939435739885
 51
150.0000000000002
1001
GENIUS_GENODEF_13
1002
{
1000
HIER
1070
     0
1002
}
1002
{
1000
MANEDIT
1070
     0
1002
}
1002
{
1000
NOSEL
1070
     0
1002
}
1002
{
1000
BEHIND
1070
     0
1002
}
1002
{
1000
OTHER
1070
     0
1002
}
1002
{
1000
REACTOR
1002
}
1001
GENIUS_GENOBJ-N-FIL_13
1002
{
1000
OWNER
1000
GEN
1002
}
  0
CIRCLE
  5
46C5
330
1F
100
AcDbEntity
  8
1
100
AcDbCircle
 10
36.15998827864686
 20
9.986756178248057
 30
0.0
 40
2.426060010566603
  0
LINE
  5
46C6
330
1F
100
AcDbEntity
  8
1
100
AcDbLine
 10
43.80000000000004
 20
10.11547005383785
 30
0.0
 11
33.30150350478183
 21
16.17677983143839
 31
0.0
  0
ARC
  5
46C7
330
1F
100
AcDbEntity
  8
1
100
AcDbCircle
 10
33.14150350478181
 20
15.89965170222741
 30
0.0
 40
0.3200000000000001
100
AcDbArc
 50
59.99999999999986
 51
134.4939435739885
1001
GENIUS_GENODEF_13
1002
{
1000
HIER
1070
     0
1002
}
1002
{
1000
MANEDIT
1070
     0
1002
}
1002
{
1000
NOSEL
1070
     0
1002
}
1002
{
1000
BEHIND
1070
     0
1002
}
1002
{
1000
OTHER
1070
     0
1002
}
1002
{
1000
REACTOR
1002
}
1001
GENIUS_GENOBJ-N-FIL_13
1002
{
1000
OWNER
1000
GEN
1002
}
  0
LINE
  5
46C8
330
1F
100
AcDbEntity
  8
1
100
AcDbLine
 10
39.09556021283516
 20
3.84559680323349
 30
0.0
 11
42.2416068665237
 21
6.936554612835735
 31
0.0
  0
LINE
  5
46C9
330
1F
100
AcDbEntity
  8
1
100
AcDbLine
 10
42.96844963036067
 20
7.875182564569854
 30
0.0
 11
43.94641016151377
 21
9.569059892324048
 31
0.0
  0
ARC
  5
46CA
330
1F
100
AcDbEntity
  8
1
100
AcDbCircle
 10
43.59999999999999
 20
9.769059892324051
 30
0.0
 40
0.4
100
AcDbArc
 50
330.0000000000003
 51
59.99999999999986
1001
GENIUS_GENOBJ-N-FIL_13
1002
{
1000
OWNER
1000
GEN
1002
}
1001
GENIUS_GENODEF_13
1002
{
1000
HIER
1070
     0
1002
}
1002
{
1000
MANEDIT
1070
     0
1002
}
1002
{
1000
NOSEL
1070
     0
1002
}
1002
{
1000
BEHIND
1070
     0
1002
}
1002
{
1000
OTHER
1070
     0
1002
}
1002
{
1000
REACTOR
1002
}
  0
ARC
  5
46CB
330
1F
100
AcDbEntity
  8
1
100
AcDbCircle
 10
39.15793785370914
 20
10.07518256456988
 30
0.0
 40
4.4
100
AcDbArc
 50
314.4939435740007
 51
330.0000000000003
1001
GENIUS_GENODEF_13
1002
{
1000
HIER
1070
     0
1002
}
1002
{
1000
MANEDIT
1070
     0
1002
}
1002
{
1000
NOSEL
1070
     0
1002
}
1002
{
1000
BEHIND
1070
     0
1002
}
1002
{
1000
OTHER
1070
     0
1002
}
1002
{
1000
REACTOR
1002
}
1001
GENIUS_GENOBJ-N-FIL_13
1002
{
1000
OWNER
1000
GEN
1002
}
  0
LINE
  5
46CC
330
1F
100
AcDbEntity
  8
1
100
AcDbLine
 10
28.21279688032126
 20
9.858042302658262
 30
0.0
 11
38.71129337553947
 21
3.796732525057663
 31
0.0
  0
ARC
  5
46CD
330
1F
100
AcDbEntity
  8
1
100
AcDbCircle
 10
28.41279688032122
 20
10.204452464172
 30
0.0
 40
0.4
100
AcDbArc
 50
150.0000000000002
 51
239.9999999999999
1001
GENIUS_GENOBJ-N-FIL_13
1002
{
1000
OWNER
1000
GEN
1002
}
1001
GENIUS_GENODEF_13
1002
{
1000
HIER
1070
     0
1002
}
1002
{
1000
MANEDIT
1070
     0
1002
}
1002
{
1000
NOSEL
1070
     0
1002
}
1002
{
1000
BEHIND
1070
     0
1002
}
1002
{
1000
OTHER
1070
     0
1002
}
1002
{
1000
REACTOR
1002
}
  0
ARC
  5
46CE
330
1F
100
AcDbEntity
  8
1
100
AcDbCircle
 10
38.87129337553949
 20
4.073860654268699
 30
0.0
 40
0.3200000000000001
100
AcDbArc
 50
239.9999999999999
 51
314.4939435740007
1001
GENIUS_GENODEF_13
1002
{
1000
HIER
1070
     0
1002
}
1002
{
1000
MANEDIT
1070
     0
1002
}
1002
{
1000
NOSEL
1070
     0
1002
}
1002
{
1000
BEHIND
1070
     0
1002
}
1002
{
1000
OTHER
1070
     0
1002
}
1002
{
1000
REACTOR
1002
}
1001
GENIUS_GENOBJ-N-FIL_13
1002
{
1000
OWNER
1000
GEN
1002
}
  0
LINE
  5
46CF
330
1F
100
AcDbEntity
  8
CUT
100
AcDbLine
 10
32.91723666748615
 20
16.12791555326259
 30
0.0
 11
29.7711900137976
 21
13.03695774366032
 31
0.0
  0
LINE
  5
46D0
330
1F
100
AcDbEntity
  8
CUT
100
AcDbLine
 10
29.04434724996071
 20
12.09832979192622
 30
0.0
 11
28.06638671880748
 21
10.40445246417198
 31
0.0
  0
ARC
  5
46D1
330
1F
100
AcDbEntity
  8
CUT
100
AcDbCircle
 10
32.85485902661222
 20
9.898329791926173
 30
0.0
 40
4.4
100
AcDbArc
 50
134.4939435739885
 51
150.0000000000002
1001
GENIUS_GENODEF_13
1002
{
1000
HIER
1070
     0
1002
}
1002
{
1000
MANEDIT
1070
     0
1002
}
1002
{
1000
NOSEL
1070
     0
1002
}
1002
{
1000
BEHIND
1070
     0
1002
}
1002
{
1000
OTHER
1070
     0
1002
}
1002
{
1000
REACTOR
1002
}
1001
GENIUS_GENOBJ-N-FIL_13
1002
{
1000
OWNER
1000
GEN
1002
}
  0
LINE
  5
46D2
330
1F
100
AcDbEntity
  8
CUT
100
AcDbLine
 10
43.80000000000004
 20
10.11547005383785
 30
0.0
 11
33.30150350478183
 21
16.17677983143839
 31
0.0
  0
ARC
  5
46D3
330
1F
100
AcDbEntity
  8
CUT
100
AcDbCircle
 10
33.14150350478181
 20
15.89965170222741
 30
0.0
 40
0.3200000000000001
100
AcDbArc
 50
59.99999999999986
 51
134.4939435739885
1001
GENIUS_GENODEF_13
1002
{
1000
HIER
1070
     0
1002
}
1002
{
1000
MANEDIT
1070
     0
1002
}
1002
{
1000
NOSEL
1070
     0
1002
}
1002
{
1000
BEHIND
1070
     0
1002
}
1002
{
1000
OTHER
1070
     0
1002
}
1002
{
1000
REACTOR
1002
}
1001
GENIUS_GENOBJ-N-FIL_13
1002
{
1000
OWNER
1000
GEN
1002
}
  0
LINE
  5
46D4
330
1F
100
AcDbEntity
  8
CUT
100
AcDbLine
 10
39.09556021283516
 20
3.84559680323349
 30
0.0
 11
42.2416068665237
 21
6.936554612835735
 31
0.0
  0
LINE
  5
46D5
330
1F
100
AcDbEntity
  8
CUT
100
AcDbLine
 10
42.96844963036067
 20
7.875182564569854
 30
0.0
 11
43.94641016151377
 21
9.569059892324048
 31
0.0
  0
ARC
  5
46D6
330
1F
100
AcDbEntity
  8
CUT
100
AcDbCircle
 10
43.59999999999999
 20
9.769059892324051
 30
0.0
 40
0.4
100
AcDbArc
 50
330.0000000000003
 51
59.99999999999986
1001
GENIUS_GENOBJ-N-FIL_13
1002
{
1000
OWNER
1000
GEN
1002
}
1001
GENIUS_GENODEF_13
1002
{
1000
HIER
1070
     0
1002
}
1002
{
1000
MANEDIT
1070
     0
1002
}
1002
{
1000
NOSEL
1070
     0
1002
}
1002
{
1000
BEHIND
1070
     0
1002
}
1002
{
1000
OTHER
1070
     0
1002
}
1002
{
1000
REACTOR
1002
}
  0
ARC
  5
46D7
330
1F
100
AcDbEntity
  8
CUT
100
AcDbCircle
 10
39.15793785370914
 20
10.07518256456988
 30
0.0
 40
4.4
100
AcDbArc
 50
314.4939435740007
 51
330.0000000000003
1001
GENIUS_GENODEF_13
1002
{
1000
HIER
1070
     0
1002
}
1002
{
1000
MANEDIT
1070
     0
1002
}
1002
{
1000
NOSEL
1070
     0
1002
}
1002
{
1000
BEHIND
1070
     0
1002
}
1002
{
1000
OTHER
1070
     0
1002
}
1002
{
1000
REACTOR
1002
}
1001
GENIUS_GENOBJ-N-FIL_13
1002
{
1000
OWNER
1000
GEN
1002
}
  0
LINE
  5
46D8
330
1F
100
AcDbEntity
  8
CUT
100
AcDbLine
 10
28.21279688032126
 20
9.858042302658262
 30
0.0
 11
38.71129337553947
 21
3.796732525057663
 31
0.0
  0
ARC
  5
46D9
330
1F
100
AcDbEntity
  8
CUT
100
AcDbCircle
 10
28.41279688032122
 20
10.204452464172
 30
0.0
 40
0.4
100
AcDbArc
 50
150.0000000000002
 51
239.9999999999999
1001
GENIUS_GENOBJ-N-FIL_13
1002
{
1000
OWNER
1000
GEN
1002
}
1001
GENIUS_GENODEF_13
1002
{
1000
HIER
1070
     0
1002
}
1002
{
1000
MANEDIT
1070
     0
1002
}
1002
{
1000
NOSEL
1070
     0
1002
}
1002
{
1000
BEHIND
1070
     0
1002
}
1002
{
1000
OTHER
1070
     0
1002
}
1002
{
1000
REACTOR
1002
}
  0
ARC
  5
46DA
330
1F
100
AcDbEntity
  8
CUT
100
AcDbCircle
 10
38.87129337553949
 20
4.073860654268699
 30
0.0
 40
0.3200000000000001
100
AcDbArc
 50
239.9999999999999
 51
314.4939435740007
1001
GENIUS_GENODEF_13
1002
{
1000
HIER
1070
     0
1002
}
1002
{
1000
MANEDIT
1070
     0
1002
}
1002
{
1000
NOSEL
1070
     0
1002
}
1002
{
1000
BEHIND
1070
     0
1002
}
1002
{
1000
OTHER
1070
     0
1002
}
1002
{
1000
REACTOR
1002
}
1001
GENIUS_GENOBJ-N-FIL_13
1002
{
1000
OWNER
1000
GEN
1002
}
  0
LINE
  5
46ED
330
1F
100
AcDbEntity
  8
SK3
100
AcDbLine
 10
21.0
 20
-3.0
 30
0.0
 11
23.08301323206717
 21
0.0
 31
0.0
  0
LINE
  5
46EE
330
1F
100
AcDbEntity
  8
SK3
 48
0.3
100
AcDbLine
 10
23.08301323206717
 20
0.0
 30
0.0
 11
21.0
 21
3.0
 31
0.0
  0
LINE
  5
46EF
330
1F
100
AcDbEntity
  8
SK4
 48
0.5
100
AcDbLine
 10
22.04150661603359
 20
1.5
 30
0.0
 11
33.66013164746016
 21
7.537459770585655
 31
0.0
  0
LINE
  5
46F1
330
1F
100
AcDbEntity
  8
1
 48
0.1
100
AcDbLine
 10
42.57249840320002
 20
0.3754611722871459
 30
0.0
 11
25.23560325707777
 21
10.50590274912827
 31
0.0
  0
ARC
  5
46F2
330
1F
100
AcDbEntity
  8
1
 48
0.1
100
AcDbCircle
 10
29.40398769790267
 20
15.38907674555595
 30
0.0
 40
6.420344003704097
100
AcDbArc
 50
193.9448838677605
 51
229.5152015401297
  0
TEXT
  5
4701
330
1F
100
AcDbEntity
  8
6
100
AcDbText
 10
48.8895717180194
 20
18.19000424302041
 30
0.0
 40
2.5
  1
BOMT130404R
100
AcDbText
  0
TEXT
  5
4702
330
1F
100
AcDbEntity
  8
6
100
AcDbText
 10
66.30561219780563
 20
-3.73546294351297
 30
0.0
 40
3.5
  1
Z=3
 50
90.0
100
AcDbText
  0
DIMENSION
  5
4703
330
1F
100
AcDbEntity
  8
2
100
AcDbDimension
  2
*D2
 10
60.73601728249866
 20
-10.0
 30
0.0
 11
60.73601728249866
 21
0.7895003830878978
 31
0.0
 70
   160
  1
%%c<>
 71
     5
 42
20.0
  3
AM_DIN$0
100
AcDbAlignedDimension
 13
44.0
 23
10.0
 33
0.0
 14
44.0
 24
-10.0
 34
0.0
 50
90.0
100
AcDbRotatedDimension
1001
ACAD
1000
DSTYLE
1002
{
1070
   271
1070
     0
1002
}
1001
ACAD_DSTYLE_DIMINSPECT
1070
   396
1000
100%
1070
   395
1000

1070
   394
1070
    33
1070
   393
1070
     0
  0
DIMENSION
  5
4704
330
1F
100
AcDbEntity
  8
2
100
AcDbDimension
  2
*D3
 10
0.0000000000000038
 20
75.0
 30
0.0
 11
22.00000000000001
 21
78.25
 31
0.0
 70
    32
 71
     5
 42
44.0
  3
AM_DIN$0
100
AcDbAlignedDimension
 13
44.0
 23
10.0
 33
0.0
 14
0.0
 24
12.5
 34
0.0
100
AcDbRotatedDimension
1001
ACAD
1000
DSTYLE
1002
{
1070
   271
1070
     0
1002
}
1001
ACAD_DSTYLE_DIMINSPECT
1070
   396
1000
100%
1070
   395
1000

1070
   394
1070
    33
1070
   393
1070
     0
  0
DIMENSION
  5
4705
330
1F
100
AcDbEntity
  8
SK2
100
AcDbDimension
  2
*D4
 10
-55.99999999999999
 20
90.0
 30
0.0
 11
-5.920134795021681
 21
90.0
 31
0.0
 70
   160
 71
     5
 42
100.0
  3
AM_DIN$0
100
AcDbAlignedDimension
 13
44.0
 23
10.0
 33
0.0
 14
-56.0
 24
11.50000000000001
 34
0.0
100
AcDbRotatedDimension
1001
ACAD
1000
DSTYLE
1002
{
1070
   271
1070
     0
1002
}
1001
ACAD_DSTYLE_DIMINSPECT
1070
   396
1000
100%
1070
   395
1000

1070
   394
1070
    33
1070
   393
1070
     0
  0
DIMENSION
  5
4707
330
1F
100
AcDbEntity
  8
SK2
100
AcDbDimension
  2
*D5
 10
-78.86845500876723
 20
-12.49999999999999
 30
0.0
 11
-82.11879949695619
 21
0.0000000000000017
 31
0.0
 70
    32
  1
%%c<>
 71
     5
 42
25.00000000000002
  3
AM_DIN$0
100
AcDbAlignedDimension
 13
-55.0
 23
12.50000000000001
 33
0.0
 14
-55.0
 24
-12.5
 34
0.0
 50
90.0
100
AcDbRotatedDimension
1001
ACAD_DSTYLE_DIMINSPECT
1070
   396
1000
100%
1070
   395
1000

1070
   394
1070
    33
1070
   393
1070
     0
  0
TEXT
  5
4708
330
1F
100
AcDbEntity
  8
6
100
AcDbText
 10
8.795310130696435
 20
-26.56949885736941
 30
0.0
 40
3.5
  1
12M1R020044W5R00
100
AcDbText
  0
LINE
  5
4709
330
1F
100
AcDbEntity
  8
SK1
100
AcDbLine
 10
-1.344770318134209
 20
-1.344770318134209
 30
0.0
 11
0.0000000000000034
 21
0.0000000000000036
 31
0.0
  0
ARC
  5
470A
330
1F
100
AcDbEntity
  8
SK1
100
AcDbCircle
 10
0.0
 20
0.0
 30
0.0
 40
1.901792422182175
100
AcDbArc
 50
270.0
 51
90.0
  0
LINE
  5
470B
330
1F
100
AcDbEntity
  8
SK1
100
AcDbLine
 10
-1.344770318134209
 20
1.344770318134209
 30
0.0
 11
-0.0000000000000036
 21
0.0000000000000036
 31
0.0
  0
LINE
  5
47C7
330
1F
100
AcDbEntity
  8
SK4
 48
0.5
100
AcDbLine
 10
22.04150661603362
 20
-1.500000000000042
 30
0.0
 11
33.66013164746025
 21
-7.537459770585542
 31
0.0
  0
LINE
  5
47C8
330
1F
100
AcDbEntity
  8
SK1
100
AcDbLine
 10
43.99999999999974
 20
-10.46376936984894
 30
0.0
 11
43.99999999999979
 21
-9.536230630151351
 31
0.0
  0
LINE
  5
47C9
330
1F
100
AcDbEntity
  8
SK1
100
AcDbLine
 10
43.53623063015095
 20
-10.00000000000015
 30
0.0
 11
44.46376936984859
 21
-10.00000000000015
 31
0.0
  0
CIRCLE
  5
47CA
330
1F
100
AcDbEntity
  8
SK1
100
AcDbCircle
 10
43.99999999999977
 20
-10.00000000000017
 30
0.0
 40
0.4637693698488208
  0
LINE
  5
47CC
330
1F
100
AcDbEntity
  8
SK3
 48
0.3
100
AcDbLine
 10
29.04434724996042
 20
-12.09832979192603
 30
0.0
 11
28.06638671880723
 21
-10.40445246417177
 31
0.0
  0
ARC
  5
47CD
330
1F
100
AcDbEntity
  8
SK3
100
AcDbCircle
 10
32.85485902661199
 20
-9.898329791926073
 30
0.0
 40
4.4
100
AcDbArc
 50
209.9999999999983
 51
225.5060564260109
1001
GENIUS_GENODEF_13
1002
{
1000
HIER
1070
     0
1002
}
1002
{
1000
MANEDIT
1070
     0
1002
}
1002
{
1000
NOSEL
1070
     0
1002
}
1002
{
1000
BEHIND
1070
     0
1002
}
1002
{
1000
OTHER
1070
     0
1002
}
1002
{
1000
REACTOR
1002
}
1001
GENIUS_GENOBJ-N-FIL_13
1002
{
1000
OWNER
1000
GEN
1002
}
  0
CIRCLE
  5
47CE
330
1F
100
AcDbEntity
  8
SK3
 48
0.3
100
AcDbCircle
 10
36.15998827864664
 20
-9.986756178248043
 30
0.0
 40
2.426060010566603
  0
LINE
  5
47CF
330
1F
100
AcDbEntity
  8
1
100
AcDbLine
 10
43.79999999999981
 20
-10.11547005383802
 30
0.0
 11
33.30150350478144
 21
-16.17677983143831
 31
0.0
  0
ARC
  5
47D0
330
1F
100
AcDbEntity
  8
1
100
AcDbCircle
 10
33.14150350478144
 20
-15.89965170222733
 30
0.0
 40
0.3200000000000001
100
AcDbArc
 50
225.5060564260109
 51
299.9999999999984
1001
GENIUS_GENODEF_13
1002
{
1000
HIER
1070
     0
1002
}
1002
{
1000
MANEDIT
1070
     0
1002
}
1002
{
1000
NOSEL
1070
     0
1002
}
1002
{
1000
BEHIND
1070
     0
1002
}
1002
{
1000
OTHER
1070
     0
1002
}
1002
{
1000
REACTOR
1002
}
1001
GENIUS_GENOBJ-N-FIL_13
1002
{
1000
OWNER
1000
GEN
1002
}
  0
LINE
  5
47D1
330
1F
100
AcDbEntity
  8
SK3
 48
0.3
100
AcDbLine
 10
39.09556021283507
 20
-3.845596803233547
 30
0.0
 11
42.24160686652354
 21
-6.936554612835863
 31
0.0
  0
LINE
  5
47D2
330
1F
100
AcDbEntity
  8
1
100
AcDbLine
 10
42.96844963036048
 20
-7.875182564569996
 30
0.0
 11
43.94641016151354
 21
-9.569059892324219
 31
0.0
  0
ARC
  5
47D3
330
1F
100
AcDbEntity
  8
1
100
AcDbCircle
 10
43.59999999999977
 20
-9.769059892324207
 30
0.0
 40
0.4
100
AcDbArc
 50
299.9999999999984
 51
29.99999999999832
1001
GENIUS_GENOBJ-N-FIL_13
1002
{
1000
OWNER
1000
GEN
1002
}
1001
GENIUS_GENODEF_13
1002
{
1000
HIER
1070
     0
1002
}
1002
{
1000
MANEDIT
1070
     0
1002
}
1002
{
1000
NOSEL
1070
     0
1002
}
1002
{
1000
BEHIND
1070
     0
1002
}
1002
{
1000
OTHER
1070
     0
1002
}
1002
{
1000
REACTOR
1002
}
  0
LINE
  5
47D5
330
1F
100
AcDbEntity
  8
SK3
 48
0.3
100
AcDbLine
 10
28.21279688032104
 20
-9.858042302658049
 30
0.0
 11
38.71129337553938
 21
-3.796732525057706
 31
0.0
  0
ARC
  5
47D6
330
1F
100
AcDbEntity
  8
SK3
100
AcDbCircle
 10
28.41279688032097
 20
-10.20445246417181
 30
0.0
 40
0.4
100
AcDbArc
 50
119.9999999999983
 51
209.9999999999983
1001
GENIUS_GENOBJ-N-FIL_13
1002
{
1000
OWNER
1000
GEN
1002
}
1001
GENIUS_GENODEF_13
1002
{
1000
HIER
1070
     0
1002
}
1002
{
1000
MANEDIT
1070
     0
1002
}
1002
{
1000
NOSEL
1070
     0
1002
}
1002
{
1000
BEHIND
1070
     0
1002
}
1002
{
1000
OTHER
1070
     0
1002
}
1002
{
1000
REACTOR
1002
}
  0
ARC
  5
47D7
330
1F
100
AcDbEntity
  8
SK3
100
AcDbCircle
 10
38.87129337553941
 20
-4.073860654268742
 30
0.0
 40
0.3200000000000001
100
AcDbArc
 50
45.50605642599817
 51
119.9999999999983
1001
GENIUS_GENODEF_13
1002
{
1000
HIER
1070
     0
1002
}
1002
{
1000
MANEDIT
1070
     0
1002
}
1002
{
1000
NOSEL
1070
     0
1002
}
1002
{
1000
BEHIND
1070
     0
1002
}
1002
{
1000
OTHER
1070
     0
1002
}
1002
{
1000
REACTOR
1002
}
1001
GENIUS_GENOBJ-N-FIL_13
1002
{
1000
OWNER
1000
GEN
1002
}
  0
LINE
  5
47E4
330
1F
100
AcDbEntity
  8
SK3
 48
0.1
100
AcDbLine
 10
42.57249840320002
 20
-0.375461172287288
 30
0.0
 11
25.23560325707752
 21
-10.50590274912798
 31
0.0
  0
ARC
  5
47E5
330
1F
100
AcDbEntity
  8
SK3
 48
0.1
100
AcDbCircle
 10
29.4039876979023
 20
-15.38907674555577
 30
0.0
 40
6.420344003704097
100
AcDbArc
 50
130.4847984598679
 51
166.0551161322386
  0
DIMENSION
  5
47EC
330
1F
100
AcDbEntity
  8
2
100
AcDbDimension
  2
*D6
 10
76.23233234577345
 20
-16.00000000000001
 30
0.0
 11
76.23233234577345
 21
0.0693680223432693
 31
0.0
 70
   160
  1
%%c<>
 71
     5
 42
32.0
  3
AM_DIN$0
100
AcDbAlignedDimension
 13
33.6076951545866
 23
16.0
 33
0.0
 14
33.60769515458609
 24
-16.0
 34
0.0
 50
90.0
100
AcDbRotatedDimension
1001
ACAD_DSTYLE_DIMINSPECT
1070
   396
1000
100%
1070
   395
1000

1070
   394
1070
    33
1070
   393
1070
     0
  0
DIMENSION
  5
4844
330
1F
100
AcDbEntity
  8
2
100
AcDbDimension
  2
*D7
 10
33.30150350478183
 20
16.17677983143839
 30
0.0
 11
21.89299760649465
 21
50.85648965816801
 31
0.0
 70
   162
 71
     5
 42
1.047197551196599
  3
AM_DIN$2
100
AcDb2LineAngularDimension
 13
44.0
 23
25.90356489977216
 33
0.0
 14
44.0
 24
22.02858495649275
 34
0.0
 15
43.80000000000004
 25
10.11547005383785
 35
0.0
 16
14.13995692975363
 26
45.58581360398373
 36
0.0
1001
ACAD_DSTYLE_DIMINSPECT
1070
   396
1000
100%
1070
   395
1000

1070
   394
1070
    33
1070
   393
1070
     0
  0
LINE
  5
4B42
330
1F
100
AcDbEntity
  8
SK1
100
AcDbLine
 10
-0.0000000000000036
 20
0.0000000000000036
 30
0.0
 11
1.344770318134209
 21
-1.344770318134209
 31
0.0
  0
ARC
  5
4B43
330
1F
100
AcDbEntity
  8
SK1
100
AcDbCircle
 10
0.0
 20
0.0
 30
0.0
 40
1.901792422182175
100
AcDbArc
 50
89.99999999999998
 51
270.0
  0
LINE
  5
4B44
330
1F
100
AcDbEntity
  8
SK1
100
AcDbLine
 10
0.0000000000000034
 20
0.0000000000000036
 30
0.0
 11
1.344770318134209
 21
1.344770318134209
 31
0.0
  0
LINE
  5
4B45
330
1F
100
AcDbEntity
  8
SK4
100
AcDbLine
 10
0.0
 20
0.0
 30
0.0
 11
-58.18243276131932
 21
0.0
 31
0.0
  0
LINE
  5
4B46
330
1F
100
AcDbEntity
  8
1
 48
0.1
100
AcDbLine
 10
0.0
 20
0.0000000000000071
 30
0.0
 11
0.0
 21
-12.49999999999998
 31
0.0
  0
LINE
  5
4B65
330
1F
100
AcDbEntity
  8
1
 48
0.1
100
AcDbLine
 10
19.9805959653313
 20
-11.86268413309039
 30
0.0
 11
19.9805959653313
 21
10.57803408785912
 31
0.0
  0
LINE
  5
4B66
330
1F
100
AcDbEntity
  8
1
 48
0.1
100
AcDbLine
 10
27.14567713333668
 20
-15.50503834495305
 30
0.0
 11
27.14567713333668
 21
8.594919656305933
 31
0.0
  0
LINE
  5
4B67
330
1F
100
AcDbEntity
  8
1
 48
0.1
100
AcDbLine
 10
31.33651500816177
 20
-15.62507677279984
 30
0.0
 11
31.33651500816177
 21
5.591031732510714
 31
0.0
  0
DIMENSION
  5
4B71
330
1F
100
AcDbEntity
  8
2
100
AcDbDimension
  2
*D8
 10
33.7
 20
37.39059343560052
 30
0.0
 11
38.54180042804614
 21
37.39059343560052
 31
0.0
 70
   160
 71
     5
 42
10.3
  3
AM_DIN$0
100
AcDbAlignedDimension
 13
44.0
 23
10.0
 33
0.0
 14
33.7
 24
15.94670777265306
 34
0.0
100
AcDbRotatedDimension
1001
ACAD_DSTYLE_DIMINSPECT
1070
   396
1000
100%
1070
   395
1000

1070
   394
1070
    33
1070
   393
1070
     0
  0
LINE
  5
4BC1
330
1F
100
AcDbEntity
  8
SK3
 48
0.1
100
AcDbLine
 10
29.77119001379748
 20
-13.03695774366033
 30
0.0
 11
32.46412572281322
 21
-15.68273880694504
 31
0.0
  0
LINE
  5
4BC2
330
1F
100
AcDbEntity
  8
1
 48
0.1
100
AcDbLine
 10
32.46412572281322
 20
-15.68273880694504
 30
0.0
 11
32.91723666748584
 21
-16.12791555326255
 31
0.0
  0
ARC
  5
4BC3
330
1F
100
AcDbEntity
  8
1
 48
0.1
100
AcDbCircle
 10
31.12018549339996
 20
-13.0006081875
 30
0.0
 40
3.0
100
AcDbArc
 50
296.6141614267203
 51
299.5687987287311
1001
GENIUS_GENODEF_13
1002
{
1000
HIER
1070
     0
1002
}
1002
{
1000
MANEDIT
1070
     0
1002
}
1002
{
1000
NOSEL
1070
     0
1002
}
1002
{
1000
BEHIND
1070
     0
1002
}
1002
{
1000
OTHER
1070
     0
1002
}
1002
{
1000
REACTOR
1002
}
1001
GENIUS_GENOBJ-N-FIL_13
1002
{
1000
OWNER
1000
GEN
1002
}
  0
ARC
  5
4BC4
330
1F
100
AcDbEntity
  8
NOCUT
 48
0.1
100
AcDbCircle
 10
31.12018549340002
 20
-13.0006081875
 30
0.0
 40
3.0
100
AcDbArc
 50
296.6141614267193
 51
299.5687987287311
1001
GENIUS_GENODEF_13
1002
{
1000
HIER
1070
     0
1002
}
1002
{
1000
MANEDIT
1070
     0
1002
}
1002
{
1000
NOSEL
1070
     0
1002
}
1002
{
1000
BEHIND
1070
     0
1002
}
1002
{
1000
OTHER
1070
     0
1002
}
1002
{
1000
REACTOR
1002
}
1001
GENIUS_GENOBJ-N-FIL_13
1002
{
1000
OWNER
1000
GEN
1002
}
  0
ENDSEC
  0
SECTION
  2
OBJECTS
  0
DICTIONARY
  5
C
330
0
100
AcDbDictionary
281
     1
  3
ACAD_2007HEADERVARS_RT
350
4C3D
  3
ACAD_COLOR
350
2C3C
  3
ACAD_GROUP
350
D
  3
ACAD_LAYOUT
350
1A
  3
ACAD_MATERIAL
350
2C3B
  3
ACAD_MLEADERSTYLE
350
3BFB
  3
ACAD_MLINESTYLE
350
17
  3
ACAD_PLOTSETTINGS
350
19
  3
ACAD_PLOTSTYLENAME
350
E
  3
ACAD_SCALELIST
350
3BE9
  3
ACAD_TABLESTYLE
350
2C3D
  3
ACAD_VISUALSTYLE
350
3BD8
  3
ACDB_RECOMPOSE_DATA
350
442D
  3
AcDbVariableDictionary
350
216
  3
AcmDictionary
350
45
  3
AMG
350
41
  3
AMGSNAPSETTINGS
350
23D
  0
DICTIONARY
  5
4BCB
330
8
100
AcDbDictionary
280
     1
281
     1
  0
DICTIONARY
  5
4005
330
10
100
AcDbDictionary
280
     1
281
     1
  3
ADSK_XREC_LAYER_RECONCILED
360
4006
  0
DICTIONARY
  5
4007
330
1E30
100
AcDbDictionary
280
     1
281
     1
  3
ADSK_XREC_LAYER_RECONCILED
360
4008
  0
DICTIONARY
  5
4009
330
1E31
100
AcDbDictionary
280
     1
281
     1
  3
ADSK_XREC_LAYER_RECONCILED
360
400A
  0
DICTIONARY
  5
400B
330
1E32
100
AcDbDictionary
280
     1
281
     1
  3
ADSK_XREC_LAYER_RECONCILED
360
400C
  0
DICTIONARY
  5
400D
330
1E33
100
AcDbDictionary
280
     1
281
     1
  3
ADSK_XREC_LAYER_RECONCILED
360
400E
  0
DICTIONARY
  5
400F
330
1E34
100
AcDbDictionary
280
     1
281
     1
  3
ADSK_XREC_LAYER_RECONCILED
360
4010
  0
DICTIONARY
  5
4011
330
1E35
100
AcDbDictionary
280
     1
281
     1
  3
ADSK_XREC_LAYER_RECONCILED
360
4012
  0
DICTIONARY
  5
4013
330
1E36
100
AcDbDictionary
280
     1
281
     1
  3
ADSK_XREC_LAYER_RECONCILED
360
4014
  0
DICTIONARY
  5
4015
330
1E37
100
AcDbDictionary
280
     1
281
     1
  3
ADSK_XREC_LAYER_RECONCILED
360
4016
  0
DICTIONARY
  5
4017
330
1E38
100
AcDbDictionary
280
     1
281
     1
  3
ADSK_XREC_LAYER_RECONCILED
360
4018
  0
DICTIONARY
  5
4019
330
39B0
100
AcDbDictionary
280
     1
281
     1
  3
ADSK_XREC_LAYER_RECONCILED
360
401A
  0
DICTIONARY
  5
1F1
330
1F
100
AcDbDictionary
280
     1
281
     1
  3
ACAD_SORTENTS
360
2CC1
  0
DICTIONARY
  5
4C3D
102
{ACAD_REACTORS
330
C
102
}
330
C
100
AcDbDictionary
281
     1
  3
DIMARCSYM
350
4C3E
  0
DICTIONARY
  5
2C3C
102
{ACAD_REACTORS
330
C
102
}
330
C
100
AcDbDictionary
281
     1
  0
DICTIONARY
  5
D
102
{ACAD_REACTORS
330
C
102
}
330
C
100
AcDbDictionary
281
     1
  0
DICTIONARY
  5
1A
102
{ACAD_REACTORS
330
C
102
}
330
C
100
AcDbDictionary
281
     1
  3
Layout1
350
1E
  3
Layout2
350
26
  3
Model
350
22
  0
DICTIONARY
  5
2C3B
102
{ACAD_REACTORS
330
C
102
}
330
C
100
AcDbDictionary
281
     1
  3
ByBlock
350
3BC8
  3
ByLayer
350
3BC0
  3
Global
350
3BD0
  0
DICTIONARY
  5
3BFB
102
{ACAD_REACTORS
330
C
102
}
330
C
100
AcDbDictionary
281
     1
  3
Standard
350
3BFC
  0
DICTIONARY
  5
17
102
{ACAD_REACTORS
330
C
102
}
330
C
100
AcDbDictionary
281
     1
  3
Standard
350
18
  0
DICTIONARY
  5
19
102
{ACAD_REACTORS
330
C
102
}
330
C
100
AcDbDictionary
281
     1
  0
ACDBDICTIONARYWDFLT
  5
E
102
{ACAD_REACTORS
330
C
102
}
330
C
100
AcDbDictionary
281
     1
  3
Normal
350
F
100
AcDbDictionaryWithDefault
340
F
  0
DICTIONARY
  5
3BE9
102
{ACAD_REACTORS
330
C
102
}
330
C
100
AcDbDictionary
281
     1
  3
A0
350
3BEA
  3
A1
350
3BEB
  3
A2
350
3BEC
  3
A3
350
3BED
  3
A4
350
3BEE
  3
A5
350
3BEF
  3
A6
350
3BF0
  3
A7
350
3BF1
  3
A8
350
3BF2
  3
A9
350
3BF3
  3
B0
350
3BF4
  3
B1
350
3BF5
  3
B2
350
3BF6
  3
B3
350
3BF7
  3
B4
350
3BF8
  3
B5
350
3BF9
  3
B6
350
3BFA
  0
DICTIONARY
  5
2C3D
102
{ACAD_REACTORS
330
C
102
}
330
C
100
AcDbDictionary
281
     1
  3
Standard
350
2C3E
  0
DICTIONARY
  5
3BD8
102
{ACAD_REACTORS
330
C
102
}
330
C
100
AcDbDictionary
281
     1
  3
2dWireframe
350
3BDE
  3
3D Hidden
350
3BE0
  3
3dWireframe
350
3BDF
  3
Basic
350
3BDD
  3
Brighten
350
3BE4
  3
ColorChange
350
3BE8
  3
Conceptual
350
3BE1
  3
Dim
350
3BE3
  3
Facepattern
350
3BE7
  3
Flat
350
3BD9
  3
FlatWithEdges
350
3BDA
  3
Gouraud
350
3BDB
  3
GouraudWithEdges
350
3BDC
  3
Linepattern
350
3BE6
  3
Realistic
350
3BE2
  3
Thicken
350
3BE5
  0
XRECORD
  5
442D
102
{ACAD_REACTORS
330
C
102
}
330
C
100
AcDbXrecord
280
     1
 90
        1
330
2C3E
  0
DICTIONARY
  5
216
102
{ACAD_REACTORS
330
C
102
}
330
C
100
AcDbDictionary
281
     1
  3
CANNOSCALE
350
4430
  3
CMLEADERSTYLE
350
442E
  3
CTABLESTYLE
350
2CB1
  3
DIMASSOC
350
219
  3
HIDETEXT
350
218
  3
INDEXCTL
350
217
  3
LAYEREVAL
350
4432
  3
LAYERNOTIFY
350
4433
  3
LIGHTINGUNITS
350
4431
  3
MSLTSCALE
350
442F
  3
PROJECTNAME
350
2FE0
  0
DICTIONARY
  5
45
102
{ACAD_REACTORS
330
C
102
}
330
C
100
AcDbDictionary
281
     1
  3
AcmStdDictionary
350
4A
  3
AMDTSECTSYM_ARROWCOLOR
350
2C8C
  0
DICTIONARY
  5
41
102
{ACAD_REACTORS
330
C
102
}
330
C
100
AcDbDictionary
281
     1
  0
DICTIONARY
  5
23D
102
{ACAD_REACTORS
330
C
102
}
330
C
100
AcDbDictionary
281
     1
  0
XRECORD
  5
4006
102
{ACAD_REACTORS
330
4005
102
}
330
4005
100
AcDbXrecord
280
     1
290
     1
  0
XRECORD
  5
4008
102
{ACAD_REACTORS
330
4007
102
}
330
4007
100
AcDbXrecord
280
     1
290
     1
  0
XRECORD
  5
400A
102
{ACAD_REACTORS
330
4009
102
}
330
4009
100
AcDbXrecord
280
     1
290
     1
  0
XRECORD
  5
400C
102
{ACAD_REACTORS
330
400B
102
}
330
400B
100
AcDbXrecord
280
     1
290
     1
  0
XRECORD
  5
400E
102
{ACAD_REACTORS
330
400D
102
}
330
400D
100
AcDbXrecord
280
     1
290
     1
  0
XRECORD
  5
4010
102
{ACAD_REACTORS
330
400F
102
}
330
400F
100
AcDbXrecord
280
     1
290
     1
  0
XRECORD
  5
4012
102
{ACAD_REACTORS
330
4011
102
}
330
4011
100
AcDbXrecord
280
     1
290
     1
  0
XRECORD
  5
4014
102
{ACAD_REACTORS
330
4013
102
}
330
4013
100
AcDbXrecord
280
     1
290
     1
  0
XRECORD
  5
4016
102
{ACAD_REACTORS
330
4015
102
}
330
4015
100
AcDbXrecord
280
     1
290
     1
  0
XRECORD
  5
4018
102
{ACAD_REACTORS
330
4017
102
}
330
4017
100
AcDbXrecord
280
     1
290
     1
  0
XRECORD
  5
401A
102
{ACAD_REACTORS
330
4019
102
}
330
4019
100
AcDbXrecord
280
     1
290
     1
  0
SORTENTSTABLE
  5
2CC1
102
{ACAD_REACTORS
330
1F1
102
}
330
1F1
100
AcDbSortentsTable
330
1F
331
46CE
  5
46D4
331
46A8
  5
46C0
331
47CD
  5
47D6
331
4B45
  5
46C2
331
468A
  5
468C
331
46F1
  5
4705
331
47E4
  5
4B44
331
46DA
  5
4701
331
4699
  5
469C
331
4708
  5
47C9
331
46BF
  5
46C5
331
467B
  5
467B
331
4844
  5
4B65
331
46F2
  5
4707
331
46CF
  5
46D5
331
47CE
  5
47D7
331
4B46
  5
4680
331
468B
  5
468D
331
4709
  5
47CA
331
46C0
  5
46C6
331
47E5
  5
4B45
331
469A
  5
469D
331
47CF
  5
47E6
331
466E
  5
4671
331
468C
  5
468E
331
467D
  5
467E
331
469B
  5
469E
331
470A
  5
47CD
331
46C1
  5
46C7
331
468D
  5
468F
331
47D0
  5
47E7
331
466F
  5
4673
331
469C
  5
469F
331
470B
  5
47CE
331
46C2
  5
46C8
331
467E
  5
467F
331
47D1
  5
47E9
331
468E
  5
4690
331
46C3
  5
46C9
331
467F
  5
4681
331
469D
  5
46A0
331
468F
  5
4691
331
47D2
  5
47EA
331
4680
  5
4682
331
469E
  5
46A1
331
46C4
  5
46CA
331
47D3
  5
47EC
331
46D0
  5
46D6
331
469F
  5
46A2
331
46C5
  5
46CB
331
4681
  5
4683
331
46D1
  5
46D7
331
4690
  5
4692
331
46C6
  5
46CC
331
4BC1
  5
4BC3
331
4682
  5
4684
331
46A0
  5
46A3
331
47D5
  5
4844
331
4B65
  5
4B67
331
46D2
  5
46D8
331
4691
  5
4697
331
47EC
  5
4B46
331
46A1
  5
46A4
331
46C7
  5
46CD
331
4BC2
  5
4BC4
331
4683
  5
4686
331
47D6
  5
4B42
331
4B66
  5
4B71
331
4701
  5
4708
331
4674
  5
4674
331
46D3
  5
46D9
331
4692
  5
4699
331
4BC3
  5
4698
331
46C8
  5
46CE
331
47C7
  5
47D0
331
4684
  5
4687
331
46A2
  5
46A5
331
47D7
  5
4B43
331
4B67
  5
4BC1
331
4675
  5
4675
331
46D4
  5
46DA
331
4702
  5
4709
331
4BC4
  5
467D
331
47C8
  5
47D1
331
46A3
  5
46A6
331
4667
  5
4667
331
46C9
  5
46CF
331
46D5
  5
46ED
331
4703
  5
470A
331
4676
  5
4676
331
46ED
  5
4702
331
46A4
  5
46A7
331
46CA
  5
46D0
331
47C9
  5
47D2
331
4686
  5
468A
331
4B71
  5
4BC2
331
4704
  5
470B
331
4677
  5
4677
331
46D6
  5
46EE
331
46CB
  5
46D1
331
47CA
  5
47D3
331
4B42
  5
47CF
331
4687
  5
468B
331
46EE
  5
4703
331
46A5
  5
46A8
331
4678
  5
4678
331
46D7
  5
46EF
331
4705
  5
47C7
331
46BC
  5
46C1
331
4B43
  5
4B66
331
46EF
  5
4704
331
46A6
  5
46BC
331
46CC
  5
46D2
331
4697
  5
469A
331
46BD
  5
46C3
331
4679
  5
4679
331
46D8
  5
46F1
331
46A7
  5
46BF
331
46CD
  5
46D3
331
47CC
  5
47D5
331
4B44
  5
47CC
331
46BE
  5
46C4
331
467A
  5
467A
331
46D9
  5
46F2
331
4698
  5
469B
331
4707
  5
47C8
  0
XRECORD
  5
4C3E
102
{ACAD_REACTORS
330
4C3D
102
}
330
4C3D
100
AcDbXrecord
280
     1
 70
     1
  0
LAYOUT
  5
1E
102
{ACAD_REACTORS
330
1A
102
}
330
1A
100
AcDbPlotSettings
  1

  2
HP DesignJet 220 (D/A1) by HP
  4

  6

 40
0.0
 41
0.0
 42
0.0
 43
0.0
 44
0.0
 45
0.0
 46
0.0
 47
0.0
 48
0.0
 49
0.0
140
0.0
141
0.0
142
1.0
143
1.0
 70
   688
 72
     0
 73
     0
 74
     5
  7
monochrome2.ctb
 75
    16
147
1.0
 76
     0
 77
     2
 78
   300
148
0.0
149
0.0
100
AcDbLayout
  1
Layout1
 70
     1
 71
     1
 10
0.0
 20
0.0
 11
420.0
 21
297.0
 12
0.0
 22
0.0
 32
0.0
 14
1.000000000000000E+20
 24
1.000000000000000E+20
 34
1.000000000000000E+20
 15
-1.000000000000000E+20
 25
-1.000000000000000E+20
 35
-1.000000000000000E+20
146
0.0
 13
0.0
 23
0.0
 33
0.0
 16
1.0
 26
0.0
 36
0.0
 17
0.0
 27
1.0
 37
0.0
 76
     0
330
1B
  0
LAYOUT
  5
26
102
{ACAD_REACTORS
330
1A
102
}
330
1A
100
AcDbPlotSettings
  1

  2
HP DesignJet 220 (D/A1) by HP
  4

  6

 40
0.0
 41
0.0
 42
0.0
 43
0.0
 44
0.0
 45
0.0
 46
0.0
 47
0.0
 48
0.0
 49
0.0
140
0.0
141
0.0
142
1.0
143
1.0
 70
   688
 72
     0
 73
     0
 74
     5
  7
monochrome2.ctb
 75
    16
147
1.0
 76
     0
 77
     2
 78
   300
148
0.0
149
0.0
100
AcDbLayout
  1
Layout2
 70
     1
 71
     2
 10
0.0
 20
0.0
 11
12.0
 21
9.0
 12
0.0
 22
0.0
 32
0.0
 14
0.0
 24
0.0
 34
0.0
 15
0.0
 25
0.0
 35
0.0
146
0.0
 13
0.0
 23
0.0
 33
0.0
 16
1.0
 26
0.0
 36
0.0
 17
0.0
 27
1.0
 37
0.0
 76
     0
330
23
  0
LAYOUT
  5
22
102
{ACAD_REACTORS
330
1A
102
}
330
1A
100
AcDbPlotSettings
  1

  2
HP DesignJet 220 (D/A1) by HP
  4

  6

 40
0.0
 41
0.0
 42
0.0
 43
0.0
 44
0.0
 45
0.0
 46
0.0
 47
0.0
 48
0.0
 49
0.0
140
0.0
141
0.0
142
1.0
143
1.0
 70
  1712
 72
     0
 73
     0
 74
     0
  7
monochrome2.ctb
 75
     0
147
1.0
 76
     0
 77
     2
 78
   300
148
0.0
149
0.0
100
AcDbLayout
  1
Model
 70
     1
 71
     0
 10
0.0
 20
0.0
 11
12.0
 21
9.0
 12
0.0
 22
0.0
 32
0.0
 14
0.0
 24
0.0
 34
0.0
 15
0.0
 25
0.0
 35
0.0
146
0.0
 13
0.0
 23
0.0
 33
0.0
 16
1.0
 26
0.0
 36
0.0
 17
0.0
 27
1.0
 37
0.0
 76
     0
330
1F
331
3BB6
  0
MATERIAL
  5
3BC8
102
{ACAD_XDICTIONARY
360
3BC9
102
}
102
{ACAD_REACTORS
330
2C3B
102
}
330
2C3B
100
AcDbMaterial
  1
ByBlock
 72
     0
 43
0.0008202099737533
 43
0.0
 43
0.0
 43
0.0
 43
0.0
 43
0.0008202099737533
 43
0.0
 43
0.0
 43
0.0
 43
0.0
 43
1.0
 43
0.0
 43
0.0
 43
0.0
 43
0.0
 43
1.0
 77
     0
 47
0.0008202099737533
 47
0.0
 47
0.0
 47
0.0
 47
0.0
 47
0.0008202099737533
 47
0.0
 47
0.0
 47
0.0
 47
0.0
 47
1.0
 47
0.0
 47
0.0
 47
0.0
 47
0.0
 47
1.0
171
     0
 49
0.0008202099737533
 49
0.0
 49
0.0
 49
0.0
 49
0.0
 49
0.0008202099737533
 49
0.0
 49
0.0
 49
0.0
 49
0.0
 49
1.0
 49
0.0
 49
0.0
 49
0.0
 49
0.0
 49
1.0
175
     0
142
0.0008202099737533
142
0.0
142
0.0
142
0.0
142
0.0
142
0.0008202099737533
142
0.0
142
0.0
142
0.0
142
0.0
142
1.0
142
0.0
142
0.0
142
0.0
142
0.0
142
1.0
179
     0
144
0.0008202099737533
144
0.0
144
0.0
144
0.0
144
0.0
144
0.0008202099737533
144
0.0
144
0.0
144
0.0
144
0.0
144
1.0
144
0.0
144
0.0
144
0.0
144
0.0
144
1.0
147
0.0008202099737533
147
0.0
147
0.0
147
0.0
147
0.0
147
0.0008202099737533
147
0.0
147
0.0
147
0.0
147
0.0
147
1.0
147
0.0
147
0.0
147
0.0
147
0.0
147
1.0
  0
MATERIAL
  5
3BC0
102
{ACAD_XDICTIONARY
360
3BC1
102
}
102
{ACAD_REACTORS
330
2C3B
102
}
330
2C3B
100
AcDbMaterial
  1
ByLayer
 72
     0
 43
0.0008202099737533
 43
0.0
 43
0.0
 43
0.0
 43
0.0
 43
0.0008202099737533
 43
0.0
 43
0.0
 43
0.0
 43
0.0
 43
1.0
 43
0.0
 43
0.0
 43
0.0
 43
0.0
 43
1.0
 77
     0
 47
0.0008202099737533
 47
0.0
 47
0.0
 47
0.0
 47
0.0
 47
0.0008202099737533
 47
0.0
 47
0.0
 47
0.0
 47
0.0
 47
1.0
 47
0.0
 47
0.0
 47
0.0
 47
0.0
 47
1.0
171
     0
 49
0.0008202099737533
 49
0.0
 49
0.0
 49
0.0
 49
0.0
 49
0.0008202099737533
 49
0.0
 49
0.0
 49
0.0
 49
0.0
 49
1.0
 49
0.0
 49
0.0
 49
0.0
 49
0.0
 49
1.0
175
     0
142
0.0008202099737533
142
0.0
142
0.0
142
0.0
142
0.0
142
0.0008202099737533
142
0.0
142
0.0
142
0.0
142
0.0
142
1.0
142
0.0
142
0.0
142
0.0
142
0.0
142
1.0
179
     0
144
0.0008202099737533
144
0.0
144
0.0
144
0.0
144
0.0
144
0.0008202099737533
144
0.0
144
0.0
144
0.0
144
0.0
144
1.0
144
0.0
144
0.0
144
0.0
144
0.0
144
1.0
147
0.0008202099737533
147
0.0
147
0.0
147
0.0
147
0.0
147
0.0008202099737533
147
0.0
147
0.0
147
0.0
147
0.0
147
1.0
147
0.0
147
0.0
147
0.0
147
0.0
147
1.0
  0
MATERIAL
  5
3BD0
102
{ACAD_XDICTIONARY
360
3BD1
102
}
102
{ACAD_REACTORS
330
2C3B
102
}
330
2C3B
100
AcDbMaterial
  1
Global
 72
     0
 43
0.0008202099737533
 43
0.0
 43
0.0
 43
0.0
 43
0.0
 43
0.0008202099737533
 43
0.0
 43
0.0
 43
0.0
 43
0.0
 43
1.0
 43
0.0
 43
0.0
 43
0.0
 43
0.0
 43
1.0
 77
     0
 47
0.0008202099737533
 47
0.0
 47
0.0
 47
0.0
 47
0.0
 47
0.0008202099737533
 47
0.0
 47
0.0
 47
0.0
 47
0.0
 47
1.0
 47
0.0
 47
0.0
 47
0.0
 47
0.0
 47
1.0
171
     0
 49
0.0008202099737533
 49
0.0
 49
0.0
 49
0.0
 49
0.0
 49
0.0008202099737533
 49
0.0
 49
0.0
 49
0.0
 49
0.0
 49
1.0
 49
0.0
 49
0.0
 49
0.0
 49
0.0
 49
1.0
175
     0
142
0.0008202099737533
142
0.0
142
0.0
142
0.0
142
0.0
142
0.0008202099737533
142
0.0
142
0.0
142
0.0
142
0.0
142
1.0
142
0.0
142
0.0
142
0.0
142
0.0
142
1.0
179
     0
144
0.0008202099737533
144
0.0
144
0.0
144
0.0
144
0.0
144
0.0008202099737533
144
0.0
144
0.0
144
0.0
144
0.0
144
1.0
144
0.0
144
0.0
144
0.0
144
0.0
144
1.0
147
0.0008202099737533
147
0.0
147
0.0
147
0.0
147
0.0
147
0.0008202099737533
147
0.0
147
0.0
147
0.0
147
0.0
147
1.0
147
0.0
147
0.0
147
0.0
147
0.0
147
1.0
  0
MLEADERSTYLE
  5
3BFC
102
{ACAD_REACTORS
330
3BFB
102
}
330
3BFB
100
AcDbMLeaderStyle
170
     2
171
     1
172
     0
 90
        2
 40
0.0
 41
0.0
173
     1
 91
-1056964608
340
14
 92
       -2
290
     1
 42
2.0
291
     1
 43
0.36
  3
Standard
 44
4.0
300

342
11
174
     1
178
     6
175
     1
176
     0
 93
-1056964608
 45
4.0
292
     0
297
     0
 46
4.0
 94
-1056964608
 47
1.0
 49
1.0
140
1.0
293
     1
141
0.0
294
     1
177
     0
142
1.0
295
     0
296
     0
143
0.125
1001
ACAD_MLEADERVER
1070
     2
  0
MLINESTYLE
  5
18
102
{ACAD_REACTORS
330
17
102
}
330
17
100
AcDbMlineStyle
  2
STANDARD
 70
     0
  3

 62
   256
 51
90.0
 52
90.0
 71
     2
 49
0.5
 62
   256
  6
BYLAYER
 49
-0.5
 62
   256
  6
BYLAYER
  0
ACDBPLACEHOLDER
  5
F
102
{ACAD_REACTORS
330
E
102
}
330
E
  0
SCALE
  5
3BEA
102
{ACAD_REACTORS
330
3BE9
102
}
330
3BE9
100
AcDbScale
 70
     0
300
1:1
140
1.0
141
1.0
290
     1
  0
SCALE
  5
3BEB
102
{ACAD_REACTORS
330
3BE9
102
}
330
3BE9
100
AcDbScale
 70
     0
300
1:2
140
1.0
141
2.0
290
     0
  0
SCALE
  5
3BEC
102
{ACAD_REACTORS
330
3BE9
102
}
330
3BE9
100
AcDbScale
 70
     0
300
1:4
140
1.0
141
4.0
290
     0
  0
SCALE
  5
3BED
102
{ACAD_REACTORS
330
3BE9
102
}
330
3BE9
100
AcDbScale
 70
     0
300
1:5
140
1.0
141
5.0
290
     0
  0
SCALE
  5
3BEE
102
{ACAD_REACTORS
330
3BE9
102
}
330
3BE9
100
AcDbScale
 70
     0
300
1:8
140
1.0
141
8.0
290
     0
  0
SCALE
  5
3BEF
102
{ACAD_REACTORS
330
3BE9
102
}
330
3BE9
100
AcDbScale
 70
     0
300
1:10
140
1.0
141
10.0
290
     0
  0
SCALE
  5
3BF0
102
{ACAD_REACTORS
330
3BE9
102
}
330
3BE9
100
AcDbScale
 70
     0
300
1:16
140
1.0
141
16.0
290
     0
  0
SCALE
  5
3BF1
102
{ACAD_REACTORS
330
3BE9
102
}
330
3BE9
100
AcDbScale
 70
     0
300
1:20
140
1.0
141
20.0
290
     0
  0
SCALE
  5
3BF2
102
{ACAD_REACTORS
330
3BE9
102
}
330
3BE9
100
AcDbScale
 70
     0
300
1:30
140
1.0
141
30.0
290
     0
  0
SCALE
  5
3BF3
102
{ACAD_REACTORS
330
3BE9
102
}
330
3BE9
100
AcDbScale
 70
     0
300
1:40
140
1.0
141
40.0
290
     0
  0
SCALE
  5
3BF4
102
{ACAD_REACTORS
330
3BE9
102
}
330
3BE9
100
AcDbScale
 70
     0
300
1:50
140
1.0
141
50.0
290
     0
  0
SCALE
  5
3BF5
102
{ACAD_REACTORS
330
3BE9
102
}
330
3BE9
100
AcDbScale
 70
     0
300
1:100
140
1.0
141
100.0
290
     0
  0
SCALE
  5
3BF6
102
{ACAD_REACTORS
330
3BE9
102
}
330
3BE9
100
AcDbScale
 70
     0
300
2:1
140
2.0
141
1.0
290
     0
  0
SCALE
  5
3BF7
102
{ACAD_REACTORS
330
3BE9
102
}
330
3BE9
100
AcDbScale
 70
     0
300
4:1
140
4.0
141
1.0
290
     0
  0
SCALE
  5
3BF8
102
{ACAD_REACTORS
330
3BE9
102
}
330
3BE9
100
AcDbScale
 70
     0
300
8:1
140
8.0
141
1.0
290
     0
  0
SCALE
  5
3BF9
102
{ACAD_REACTORS
330
3BE9
102
}
330
3BE9
100
AcDbScale
 70
     0
300
10:1
140
10.0
141
1.0
290
     0
  0
SCALE
  5
3BFA
102
{ACAD_REACTORS
330
3BE9
102
}
330
3BE9
100
AcDbScale
 70
     0
300
100:1
140
100.0
141
1.0
290
     0
  0
TABLESTYLE
  5
2C3E
102
{ACAD_XDICTIONARY
360
442B
102
}
102
{ACAD_REACTORS
330
2C3D
102
}
330
2C3D
100
AcDbTableStyle
  3
Standard
 70
     0
 71
     0
 40
1.5
 41
1.5
280
     0
281
     0
  7
STANDARD
140
4.5
170
     2
 62
     0
 63
     7
283
     0
274
    -2
284
     1
 64
     0
275
    -2
285
     1
 65
     0
276
    -2
286
     1
 66
     0
277
    -2
287
     1
 67
     0
278
    -2
288
     1
 68
     0
279
    -2
289
     1
 69
     0
  7
STANDARD
140
6.0
170
     5
 62
     0
 63
     7
283
     0
274
    -2
284
     1
 64
     0
275
    -2
285
     1
 65
     0
276
    -2
286
     1
 66
     0
277
    -2
287
     1
 67
     0
278
    -2
288
     1
 68
     0
279
    -2
289
     1
 69
     0
  7
STANDARD
140
4.5
170
     5
 62
     0
 63
     7
283
     0
274
    -2
284
     1
 64
     0
275
    -2
285
     1
 65
     0
276
    -2
286
     1
 66
     0
277
    -2
287
     1
 67
     0
278
    -2
288
     1
 68
     0
279
    -2
289
     1
 69
     0
  0
VISUALSTYLE
  5
3BDE
102
{ACAD_REACTORS
330
3BD8
102
}
330
3BD8
100
AcDbVisualStyle
  2
2dWireframe
 70
     4
 71
     0
 72
     2
 73
     0
 90
        0
 40
-0.6
 41
-30.0
 62
     5
 63
     7
421
 16777215
 74
     1
 91
        4
 64
     7
 65
   257
 75
     1
175
     1
 42
1.0
 92
        0
 66
   257
 43
1.0
 76
     1
 77
     6
 78
     2
 67
     7
 79
     5
170
     0
171
     0
290
     0
174
     0
 93
        1
 44
0.0
173
     0
291
     0
 45
0.0
1001
ACAD
1000
AcDbSavedByObjectVersion
1070
     0
  0
VISUALSTYLE
  5
3BE0
102
{ACAD_REACTORS
330
3BD8
102
}
330
3BD8
100
AcDbVisualStyle
  2
3D Hidden
 70
     6
 71
     1
 72
     2
 73
     2
 90
        0
 40
-0.6
 41
-30.0
 62
     5
 63
     7
421
 16777215
 74
     2
 91
        2
 64
     7
 65
   257
 75
     2
175
     1
 42
40.0
 92
        0
 66
   257
 43
1.0
 76
     1
 77
     6
 78
     2
 67
     7
 79
     3
170
     0
171
     0
290
     0
174
     0
 93
        1
 44
0.0
173
     0
291
     0
 45
0.0
1001
ACAD
1000
AcDbSavedByObjectVersion
1070
     0
  0
VISUALSTYLE
  5
3BDF
102
{ACAD_REACTORS
330
3BD8
102
}
330
3BD8
100
AcDbVisualStyle
  2
3dWireframe
 70
     5
 71
     0
 72
     2
 73
     0
 90
        0
 40
-0.6
 41
-30.0
 62
     5
 63
     7
421
 16777215
 74
     1
 91
        4
 64
     7
 65
   257
 75
     1
175
     1
 42
1.0
 92
        0
 66
   257
 43
1.0
 76
     1
 77
     6
 78
     2
 67
     7
 79
     5
170
     0
171
     0
290
     0
174
     0
 93
        1
 44
0.0
173
     0
291
     0
 45
0.0
1001
ACAD
1000
AcDbSavedByObjectVersion
1070
     0
  0
VISUALSTYLE
  5
3BDD
102
{ACAD_REACTORS
330
3BD8
102
}
330
3BD8
100
AcDbVisualStyle
  2
Basic
 70
     7
 71
     1
 72
     0
 73
     1
 90
        0
 40
-0.6
 41
-30.0
 62
     5
 63
     7
421
 16777215
 74
     0
 91
        4
 64
     7
 65
   257
 75
     1
175
     1
 42
1.0
 92
        8
 66
     7
 43
1.0
 76
     1
 77
     6
 78
     2
 67
     7
 79
     5
170
     0
171
     0
290
     0
174
     0
 93
        1
 44
0.0
173
     0
291
     1
 45
0.0
1001
ACAD
1000
AcDbSavedByObjectVersion
1070
     0
  0
VISUALSTYLE
  5
3BE4
102
{ACAD_REACTORS
330
3BD8
102
}
330
3BD8
100
AcDbVisualStyle
  2
Brighten
 70
    12
 71
     2
 72
     2
 73
     0
 90
        0
 40
-0.6
 41
-30.0
 62
     5
 63
     7
421
 16777215
 74
     1
 91
        4
 64
     7
 65
   257
 75
     1
175
     1
 42
1.0
 92
        8
 66
     7
 43
1.0
 76
     1
 77
     6
 78
     2
 67
     7
 79
     5
170
     0
171
     0
290
     0
174
     0
 93
        1
 44
50.0
173
     0
291
     1
 45
0.0
1001
ACAD
1000
AcDbSavedByObjectVersion
1070
     0
  0
VISUALSTYLE
  5
3BE8
102
{ACAD_REACTORS
330
3BD8
102
}
330
3BD8
100
AcDbVisualStyle
  2
ColorChange
 70
    16
 71
     2
 72
     2
 73
     3
 90
        0
 40
-0.6
 41
-30.0
 62
     5
 63
     8
421
  8421504
 74
     1
 91
        4
 64
     7
 65
   257
 75
     1
175
     1
 42
1.0
 92
        8
 66
     8
424
  8421504
 43
1.0
 76
     1
 77
     6
 78
     2
 67
     7
 79
     5
170
     0
171
     0
290
     0
174
     0
 93
        1
 44
0.0
173
     0
291
     1
 45
0.0
1001
ACAD
1000
AcDbSavedByObjectVersion
1070
     0
  0
VISUALSTYLE
  5
3BE1
102
{ACAD_REACTORS
330
3BD8
102
}
330
3BD8
100
AcDbVisualStyle
  2
Conceptual
 70
     9
 71
     3
 72
     2
 73
     0
 90
        0
 40
-0.6
 41
-30.0
 62
     5
 63
     7
421
 16777215
 74
     2
 91
        2
 64
     7
 65
   257
 75
     1
175
     1
 42
40.0
 92
        8
 66
     7
 43
1.0
 76
     1
 77
     6
 78
     2
 67
     7
 79
     3
170
     0
171
     0
290
     0
174
     0
 93
        1
 44
0.0
173
     0
291
     0
 45
0.0
1001
ACAD
1000
AcDbSavedByObjectVersion
1070
     0
  0
VISUALSTYLE
  5
3BE3
102
{ACAD_REACTORS
330
3BD8
102
}
330
3BD8
100
AcDbVisualStyle
  2
Dim
 70
    11
 71
     2
 72
     2
 73
     0
 90
        0
 40
-0.6
 41
-30.0
 62
     5
 63
     7
421
 16777215
 74
     1
 91
        4
 64
     7
 65
   257
 75
     1
175
     1
 42
1.0
 92
        8
 66
     7
 43
1.0
 76
     1
 77
     6
 78
     2
 67
     7
 79
     5
170
     0
171
     0
290
     0
174
     0
 93
        1
 44
-50.0
173
     0
291
     1
 45
0.0
1001
ACAD
1000
AcDbSavedByObjectVersion
1070
     0
  0
VISUALSTYLE
  5
3BE7
102
{ACAD_REACTORS
330
3BD8
102
}
330
3BD8
100
AcDbVisualStyle
  2
Facepattern
 70
    15
 71
     2
 72
     2
 73
     0
 90
        0
 40
-0.6
 41
-30.0
 62
     5
 63
     7
421
 16777215
 74
     1
 91
        4
 64
     7
 65
   257
 75
     1
175
     1
 42
1.0
 92
        8
 66
     7
 43
1.0
 76
     1
 77
     6
 78
     2
 67
     7
 79
     5
170
     0
171
     0
290
     0
174
     0
 93
        1
 44
0.0
173
     0
291
     1
 45
0.0
1001
ACAD
1000
AcDbSavedByObjectVersion
1070
     0
  0
VISUALSTYLE
  5
3BD9
102
{ACAD_REACTORS
330
3BD8
102
}
330
3BD8
100
AcDbVisualStyle
  2
Flat
 70
     0
 71
     2
 72
     1
 73
     1
 90
        2
 40
-0.6
 41
30.0
 62
     5
 63
     7
421
 16777215
 74
     0
 91
        4
 64
     7
 65
   257
 75
     1
175
     1
 42
1.0
 92
        8
 66
     7
 43
1.0
 76
     1
 77
     6
 78
     2
 67
     7
 79
     5
170
     0
171
     0
290
     0
174
     0
 93
       13
 44
0.0
173
     0
291
     1
 45
0.0
1001
ACAD
1000
AcDbSavedByObjectVersion
1070
     0
  0
VISUALSTYLE
  5
3BDA
102
{ACAD_REACTORS
330
3BD8
102
}
330
3BD8
100
AcDbVisualStyle
  2
FlatWithEdges
 70
     1
 71
     2
 72
     1
 73
     1
 90
        2
 40
-0.6
 41
30.0
 62
     5
 63
     7
421
 16777215
 74
     1
 91
        4
 64
     7
 65
   257
 75
     1
175
     1
 42
1.0
 92
        0
 66
   257
 43
1.0
 76
     1
 77
     6
 78
     2
 67
     7
 79
     5
170
     0
171
     0
290
     0
174
     0
 93
       13
 44
0.0
173
     0
291
     1
 45
0.0
1001
ACAD
1000
AcDbSavedByObjectVersion
1070
     0
  0
VISUALSTYLE
  5
3BDB
102
{ACAD_REACTORS
330
3BD8
102
}
330
3BD8
100
AcDbVisualStyle
  2
Gouraud
 70
     2
 71
     2
 72
     2
 73
     1
 90
        2
 40
-0.6
 41
30.0
 62
     5
 63
     7
421
 16777215
 74
     0
 91
        4
 64
     7
 65
   257
 75
     1
175
     1
 42
1.0
 92
        0
 66
     7
 43
1.0
 76
     1
 77
     6
 78
     2
 67
     7
 79
     5
170
     0
171
     0
290
     0
174
     0
 93
       13
 44
0.0
173
     0
291
     1
 45
0.0
1001
ACAD
1000
AcDbSavedByObjectVersion
1070
     0
  0
VISUALSTYLE
  5
3BDC
102
{ACAD_REACTORS
330
3BD8
102
}
330
3BD8
100
AcDbVisualStyle
  2
GouraudWithEdges
 70
     3
 71
     2
 72
     2
 73
     1
 90
        2
 40
-0.6
 41
30.0
 62
     5
 63
     7
421
 16777215
 74
     1
 91
        4
 64
     7
 65
   257
 75
     1
175
     1
 42
1.0
 92
        0
 66
   257
 43
1.0
 76
     1
 77
     6
 78
     2
 67
     7
 79
     5
170
     0
171
     0
290
     0
174
     0
 93
       13
 44
0.0
173
     0
291
     1
 45
0.0
1001
ACAD
1000
AcDbSavedByObjectVersion
1070
     0
  0
VISUALSTYLE
  5
3BE6
102
{ACAD_REACTORS
330
3BD8
102
}
330
3BD8
100
AcDbVisualStyle
  2
Linepattern
 70
    14
 71
     2
 72
     2
 73
     0
 90
        0
 40
-0.6
 41
-30.0
 62
     5
 63
     7
421
 16777215
 74
     1
 91
        4
 64
     7
 65
   257
 75
     7
175
     7
 42
1.0
 92
        8
 66
     7
 43
1.0
 76
     1
 77
     6
 78
     2
 67
     7
 79
     5
170
     0
171
     0
290
     0
174
     0
 93
        1
 44
0.0
173
     0
291
     1
 45
0.0
1001
ACAD
1000
AcDbSavedByObjectVersion
1070
     0
  0
VISUALSTYLE
  5
3BE2
102
{ACAD_REACTORS
330
3BD8
102
}
330
3BD8
100
AcDbVisualStyle
  2
Realistic
 70
     8
 71
     2
 72
     2
 73
     0
 90
        0
 40
-0.6
 41
-30.0
 62
     5
 63
     7
421
 16777215
 74
     1
 91
        0
 64
     7
 65
   257
 75
     1
175
     1
 42
1.0
 92
        8
 66
     8
424
  7895160
 43
1.0
 76
     1
 77
     6
 78
     2
 67
     7
 79
     5
170
     0
171
     0
290
     0
174
     0
 93
       13
 44
0.0
173
     0
291
     0
 45
0.0
1001
ACAD
1000
AcDbSavedByObjectVersion
1070
     0
  0
VISUALSTYLE
  5
3BE5
102
{ACAD_REACTORS
330
3BD8
102
}
330
3BD8
100
AcDbVisualStyle
  2
Thicken
 70
    13
 71
     2
 72
     2
 73
     0
 90
        0
 40
-0.6
 41
-30.0
 62
     5
 63
     7
421
 16777215
 74
     1
 91
        4
 64
     7
 65
   257
 75
     1
175
     1
 42
1.0
 92
       12
 66
     7
 43
1.0
 76
     1
 77
     6
 78
     2
 67
     7
 79
     5
170
     0
171
     0
290
     0
174
     0
 93
        1
 44
0.0
173
     0
291
     1
 45
0.0
1001
ACAD
1000
AcDbSavedByObjectVersion
1070
     0
  0
DICTIONARYVAR
  5
4430
102
{ACAD_REACTORS
330
216
102
}
330
216
100
DictionaryVariables
280
     0
  1
1:1
  0
DICTIONARYVAR
  5
442E
102
{ACAD_REACTORS
330
216
102
}
330
216
100
DictionaryVariables
280
     0
  1
STANDARD
  0
DICTIONARYVAR
  5
2CB1
102
{ACAD_REACTORS
330
216
102
}
330
216
100
DictionaryVariables
280
     0
  1
STANDARD
  0
DICTIONARYVAR
  5
219
102
{ACAD_REACTORS
330
216
102
}
330
216
100
DictionaryVariables
280
     0
  1
1
  0
DICTIONARYVAR
  5
218
102
{ACAD_REACTORS
330
216
102
}
330
216
100
DictionaryVariables
280
     0
  1
1
  0
DICTIONARYVAR
  5
217
102
{ACAD_REACTORS
330
216
102
}
330
216
100
DictionaryVariables
280
     0
  1
0
  0
DICTIONARYVAR
  5
4432
102
{ACAD_REACTORS
330
216
102
}
330
216
100
DictionaryVariables
280
     0
  1
1
  0
DICTIONARYVAR
  5
4433
102
{ACAD_REACTORS
330
216
102
}
330
216
100
DictionaryVariables
280
     0
  1
15
  0
DICTIONARYVAR
  5
4431
102
{ACAD_REACTORS
330
216
102
}
330
216
100
DictionaryVariables
280
     0
  1
0
  0
DICTIONARYVAR
  5
442F
102
{ACAD_REACTORS
330
216
102
}
330
216
100
DictionaryVariables
280
     0
  1
0
  0
DICTIONARYVAR
  5
2FE0
102
{ACAD_REACTORS
330
216
102
}
330
216
100
DictionaryVariables
280
     0
  1

  0
DICTIONARY
  5
4A
102
{ACAD_REACTORS
330
45
102
}
330
45
100
AcDbDictionary
281
     1
  0
XRECORD
  5
2C8C
102
{ACAD_REACTORS
330
45
102
}
330
45
100
AcDbXrecord
280
     1
 90
-1023410169
  0
DICTIONARY
  5
3BC9
330
3BC8
100
AcDbDictionary
280
     1
281
     1
  3
ACAD_XREC_ROUNDTRIP
360
4C41
  3
BUMPTILE
360
3BCB
  3
DIFFUSETILE
360
3BCA
  3
OPACITYTILE
360
3BCE
  3
REFLECTIONTILE
360
3BCD
  3
REFRACTIONTILE
360
3BCF
  3
SPECULARTILE
360
3BCC
  0
DICTIONARY
  5
3BC1
330
3BC0
100
AcDbDictionary
280
     1
281
     1
  3
ACAD_XREC_ROUNDTRIP
360
4C40
  3
BUMPTILE
360
3BC3
  3
DIFFUSETILE
360
3BC2
  3
OPACITYTILE
360
3BC6
  3
REFLECTIONTILE
360
3BC5
  3
REFRACTIONTILE
360
3BC7
  3
SPECULARTILE
360
3BC4
  0
DICTIONARY
  5
3BD1
330
3BD0
100
AcDbDictionary
280
     1
281
     1
  3
ACAD_XREC_ROUNDTRIP
360
4C42
  3
BUMPTILE
360
3BD3
  3
DIFFUSETILE
360
3BD2
  3
OPACITYTILE
360
3BD6
  3
REFLECTIONTILE
360
3BD5
  3
REFRACTIONTILE
360
3BD7
  3
SPECULARTILE
360
3BD4
  0
DICTIONARY
  5
442B
330
2C3E
100
AcDbDictionary
280
     1
281
     1
  3
ACAD_ROUNDTRIP_2008_TABLESTYLE_CELLSTYLEMAP
360
4C3C
  3
ACAD_XREC_ROUNDTRIP
360
4C3F
  0
XRECORD
  5
4C41
102
{ACAD_REACTORS
330
3BC9
102
}
330
3BC9
100
AcDbXrecord
280
     1
102
MATERIAL
148
0.0
149
0.0
149
0.0
 93
        0
 94
      127
282
     0
 72
     0
 77
     0
171
     0
175
     0
179
     0
273
     0
  0
XRECORD
  5
3BCB
102
{ACAD_REACTORS
330
3BC9
102
}
330
3BC9
100
AcDbXrecord
280
     1
270
     1
271
     1
  0
XRECORD
  5
3BCA
102
{ACAD_REACTORS
330
3BC9
102
}
330
3BC9
100
AcDbXrecord
280
     1
270
     1
271
     1
  0
XRECORD
  5
3BCE
102
{ACAD_REACTORS
330
3BC9
102
}
330
3BC9
100
AcDbXrecord
280
     1
270
     1
271
     1
  0
XRECORD
  5
3BCD
102
{ACAD_REACTORS
330
3BC9
102
}
330
3BC9
100
AcDbXrecord
280
     1
270
     1
271
     1
  0
XRECORD
  5
3BCF
102
{ACAD_REACTORS
330
3BC9
102
}
330
3BC9
100
AcDbXrecord
280
     1
270
     1
271
     1
  0
XRECORD
  5
3BCC
102
{ACAD_REACTORS
330
3BC9
102
}
330
3BC9
100
AcDbXrecord
280
     1
270
     1
271
     1
  0
XRECORD
  5
4C40
102
{ACAD_REACTORS
330
3BC1
102
}
330
3BC1
100
AcDbXrecord
280
     1
102
MATERIAL
148
0.0
149
0.0
149
0.0
 93
        0
 94
      127
282
     0
 72
     0
 77
     0
171
     0
175
     0
179
     0
273
     0
  0
XRECORD
  5
3BC3
102
{ACAD_REACTORS
330
3BC1
102
}
330
3BC1
100
AcDbXrecord
280
     1
270
     1
271
     1
  0
XRECORD
  5
3BC2
102
{ACAD_REACTORS
330
3BC1
102
}
330
3BC1
100
AcDbXrecord
280
     1
270
     1
271
     1
  0
XRECORD
  5
3BC6
102
{ACAD_REACTORS
330
3BC1
102
}
330
3BC1
100
AcDbXrecord
280
     1
270
     1
271
     1
  0
XRECORD
  5
3BC5
102
{ACAD_REACTORS
330
3BC1
102
}
330
3BC1
100
AcDbXrecord
280
     1
270
     1
271
     1
  0
XRECORD
  5
3BC7
102
{ACAD_REACTORS
330
3BC1
102
}
330
3BC1
100
AcDbXrecord
280
     1
270
     1
271
     1
  0
XRECORD
  5
3BC4
102
{ACAD_REACTORS
330
3BC1
102
}
330
3BC1
100
AcDbXrecord
280
     1
270
     1
271
     1
  0
XRECORD
  5
4C42
102
{ACAD_REACTORS
330
3BD1
102
}
330
3BD1
100
AcDbXrecord
280
     1
102
MATERIAL
148
0.0
149
0.0
149
0.0
 93
        0
 94
      127
282
     0
 72
     0
 77
     0
171
     0
175
     0
179
     0
273
     0
  0
XRECORD
  5
3BD3
102
{ACAD_REACTORS
330
3BD1
102
}
330
3BD1
100
AcDbXrecord
280
     1
270
     1
271
     1
  0
XRECORD
  5
3BD2
102
{ACAD_REACTORS
330
3BD1
102
}
330
3BD1
100
AcDbXrecord
280
     1
270
     1
271
     1
  0
XRECORD
  5
3BD6
102
{ACAD_REACTORS
330
3BD1
102
}
330
3BD1
100
AcDbXrecord
280
     1
270
     1
271
     1
  0
XRECORD
  5
3BD5
102
{ACAD_REACTORS
330
3BD1
102
}
330
3BD1
100
AcDbXrecord
280
     1
270
     1
271
     1
  0
XRECORD
  5
3BD7
102
{ACAD_REACTORS
330
3BD1
102
}
330
3BD1
100
AcDbXrecord
280
     1
270
     1
271
     1
  0
XRECORD
  5
3BD4
102
{ACAD_REACTORS
330
3BD1
102
}
330
3BD1
100
AcDbXrecord
280
     1
270
     1
271
     1
  0
CELLSTYLEMAP
  5
4C3C
102
{ACAD_REACTORS
330
442B
102
}
330
442B
100
AcDbCellStyleMap
 90
        3
300
CELLSTYLE
  1
TABLEFORMAT_BEGIN
 90
        5
170
     1
 91
        0
 92
    32768
 62
   257
 93
        1
300
CONTENTFORMAT
  1
CONTENTFORMAT_BEGIN
 90
        0
 91
        0
 92
        4
 93
        0
300

 40
0.0
140
1.0
 94
        5
 62
     0
340
11
144
6.0
309
CONTENTFORMAT_END
171
     1
301
MARGIN
  1
CELLMARGIN_BEGIN
 40
1.5
 40
1.5
 40
1.5
 40
1.5
 40
0.18
 40
0.18
309
CELLMARGIN_END
 94
        6
 95
        1
302
GRIDFORMAT
  1
GRIDFORMAT_BEGIN
 90
        0
 91
        1
 62
     0
 92
       -2
340
0
 93
        0
 40
0.045
309
GRIDFORMAT_END
 95
        2
302
GRIDFORMAT
  1
GRIDFORMAT_BEGIN
 90
        0
 91
        1
 62
     0
 92
       -2
340
0
 93
        0
 40
0.045
309
GRIDFORMAT_END
 95
        4
302
GRIDFORMAT
  1
GRIDFORMAT_BEGIN
 90
        0
 91
        1
 62
     0
 92
       -2
340
0
 93
        0
 40
0.045
309
GRIDFORMAT_END
 95
        8
302
GRIDFORMAT
  1
GRIDFORMAT_BEGIN
 90
        0
 91
        1
 62
     0
 92
       -2
340
0
 93
        0
 40
0.045
309
GRIDFORMAT_END
 95
       16
302
GRIDFORMAT
  1
GRIDFORMAT_BEGIN
 90
        0
 91
        1
 62
     0
 92
       -2
340
0
 93
        0
 40
0.045
309
GRIDFORMAT_END
 95
       32
302
GRIDFORMAT
  1
GRIDFORMAT_BEGIN
 90
        0
 91
        1
 62
     0
 92
       -2
340
0
 93
        0
 40
0.045
309
GRIDFORMAT_END
309
TABLEFORMAT_END
  1
CELLSTYLE_BEGIN
 90
        1
 91
        1
300
_TITLE
309
CELLSTYLE_END
300
CELLSTYLE
  1
TABLEFORMAT_BEGIN
 90
        5
170
     1
 91
        0
 92
        0
 62
   257
 93
        1
300
CONTENTFORMAT
  1
CONTENTFORMAT_BEGIN
 90
        0
 91
        0
 92
        4
 93
        0
300

 40
0.0
140
1.0
 94
        5
 62
     0
340
11
144
4.5
309
CONTENTFORMAT_END
171
     1
301
MARGIN
  1
CELLMARGIN_BEGIN
 40
1.5
 40
1.5
 40
1.5
 40
1.5
 40
0.18
 40
0.18
309
CELLMARGIN_END
 94
        6
 95
        1
302
GRIDFORMAT
  1
GRIDFORMAT_BEGIN
 90
        0
 91
        1
 62
     0
 92
       -2
340
0
 93
        0
 40
0.045
309
GRIDFORMAT_END
 95
        2
302
GRIDFORMAT
  1
GRIDFORMAT_BEGIN
 90
        0
 91
        1
 62
     0
 92
       -2
340
0
 93
        0
 40
0.045
309
GRIDFORMAT_END
 95
        4
302
GRIDFORMAT
  1
GRIDFORMAT_BEGIN
 90
        0
 91
        1
 62
     0
 92
       -2
340
0
 93
        0
 40
0.045
309
GRIDFORMAT_END
 95
        8
302
GRIDFORMAT
  1
GRIDFORMAT_BEGIN
 90
        0
 91
        1
 62
     0
 92
       -2
340
0
 93
        0
 40
0.045
309
GRIDFORMAT_END
 95
       16
302
GRIDFORMAT
  1
GRIDFORMAT_BEGIN
 90
        0
 91
        1
 62
     0
 92
       -2
340
0
 93
        0
 40
0.045
309
GRIDFORMAT_END
 95
       32
302
GRIDFORMAT
  1
GRIDFORMAT_BEGIN
 90
        0
 91
        1
 62
     0
 92
       -2
340
0
 93
        0
 40
0.045
309
GRIDFORMAT_END
309
TABLEFORMAT_END
  1
CELLSTYLE_BEGIN
 90
        2
 91
        1
300
_HEADER
309
CELLSTYLE_END
300
CELLSTYLE
  1
TABLEFORMAT_BEGIN
 90
        5
170
     1
 91
        0
 92
        0
 62
   257
 93
        1
300
CONTENTFORMAT
  1
CONTENTFORMAT_BEGIN
 90
        0
 91
        0
 92
        4
 93
        0
300

 40
0.0
140
1.0
 94
        2
 62
     0
340
11
144
4.5
309
CONTENTFORMAT_END
171
     1
301
MARGIN
  1
CELLMARGIN_BEGIN
 40
1.5
 40
1.5
 40
1.5
 40
1.5
 40
0.18
 40
0.18
309
CELLMARGIN_END
 94
        6
 95
        1
302
GRIDFORMAT
  1
GRIDFORMAT_BEGIN
 90
        0
 91
        1
 62
     0
 92
       -2
340
0
 93
        0
 40
0.045
309
GRIDFORMAT_END
 95
        2
302
GRIDFORMAT
  1
GRIDFORMAT_BEGIN
 90
        0
 91
        1
 62
     0
 92
       -2
340
0
 93
        0
 40
0.045
309
GRIDFORMAT_END
 95
        4
302
GRIDFORMAT
  1
GRIDFORMAT_BEGIN
 90
        0
 91
        1
 62
     0
 92
       -2
340
0
 93
        0
 40
0.045
309
GRIDFORMAT_END
 95
        8
302
GRIDFORMAT
  1
GRIDFORMAT_BEGIN
 90
        0
 91
        1
 62
     0
 92
       -2
340
0
 93
        0
 40
0.045
309
GRIDFORMAT_END
 95
       16
302
GRIDFORMAT
  1
GRIDFORMAT_BEGIN
 90
        0
 91
        1
 62
     0
 92
       -2
340
0
 93
        0
 40
0.045
309
GRIDFORMAT_END
 95
       32
302
GRIDFORMAT
  1
GRIDFORMAT_BEGIN
 90
        0
 91
        1
 62
     0
 92
       -2
340
0
 93
        0
 40
0.045
309
GRIDFORMAT_END
309
TABLEFORMAT_END
  1
CELLSTYLE_BEGIN
 90
        3
 91
        2
300
_DATA
309
CELLSTYLE_END
  0
XRECORD
  5
4C3F
102
{ACAD_REACTORS
330
442B
102
}
330
442B
100
AcDbXrecord
280
     1
102
ACAD_ROUNDTRIP_PRE2007_TABLESTYLE
 90
        4
 91
        0
  1

 92
        4
 93
        0
  2

 94
        4
 95
        0
  3

  0
ENDSEC
  0
EOF
