  0
SECTION
  2
HEADER
  9
$ACADVER
  1
AC1015
  9
$ACADMAINTVER
 70
    20
  9
$DWGCODEPAGE
  3
ANSI_1252
  9
$INSBASE
 10
0.0
 20
0.0
 30
0.0
  9
$EXTMIN
 10
-57.82593120931267
 20
-30.99722869887819
 30
-0.0000000000000053
  9
$EXTMAX
 10
55.18181884644957
 20
32.9376577217862
 30
0.0000000000000099
  9
$LIMMIN
 10
0.0
 20
0.0
  9
$LIMMAX
 10
420.0
 20
297.0
  9
$ORTHOMODE
 70
     0
  9
$REGENMODE
 70
     1
  9
$FILLMODE
 70
     1
  9
$QTEXTMODE
 70
     0
  9
$MIRRTEXT
 70
     0
  9
$LTSCALE
 40
23.1
  9
$ATTMODE
 70
     1
  9
$TEXTSIZE
 40
3.5
  9
$TRACEWID
 40
0.05
  9
$TEXTSTYLE
  7
STANDARD
  9
$CLAYER
  8
0
  9
$CELTYPE
  6
BYLAYER
  9
$CECOLOR
 62
   256
  9
$CELTSCALE
 40
1.0
  9
$DISPSILH
 70
     0
  9
$DIMSCALE
 40
1.0
  9
$DIMASZ
 40
4.57
  9
$DIMEXO
 40
0.0625
  9
$DIMDLI
 40
0.38
  9
$DIMRND
 40
0.0
  9
$DIMDLE
 40
0.0
  9
$DIMEXE
 40
0.18
  9
$DIMTP
 40
0.01
  9
$DIMTM
 40
0.01
  9
$DIMTXT
 40
3.5
  9
$DIMCEN
 40
0.09
  9
$DIMTSZ
 40
0.0
  9
$DIMTOL
 70
     0
  9
$DIMLIM
 70
     0
  9
$DIMTIH
 70
     0
  9
$DIMTOH
 70
     0
  9
$DIMSE1
 70
     0
  9
$DIMSE2
 70
     0
  9
$DIMTAD
 70
     1
  9
$DIMZIN
 70
     8
  9
$DIMBLK
  1

  9
$DIMASO
 70
     1
  9
$DIMSHO
 70
     1
  9
$DIMPOST
  1

  9
$DIMAPOST
  1

  9
$DIMALT
 70
     0
  9
$DIMALTD
 70
     2
  9
$DIMALTF
 40
25.4
  9
$DIMLFAC
 40
1.0
  9
$DIMTOFL
 70
     0
  9
$DIMTVP
 40
0.0
  9
$DIMTIX
 70
     0
  9
$DIMSOXD
 70
     0
  9
$DIMSAH
 70
     0
  9
$DIMBLK1
  1

  9
$DIMBLK2
  1

  9
$DIMSTYLE
  2
STANDARD
  9
$DIMCLRD
 70
     0
  9
$DIMCLRE
 70
     0
  9
$DIMCLRT
 70
     0
  9
$DIMTFAC
 40
1.0
  9
$DIMGAP
 40
0.09
  9
$DIMJUST
 70
     0
  9
$DIMSD1
 70
     0
  9
$DIMSD2
 70
     0
  9
$DIMTOLJ
 70
     1
  9
$DIMTZIN
 70
     8
  9
$DIMALTZ
 70
     0
  9
$DIMALTTZ
 70
     0
  9
$DIMUPT
 70
     0
  9
$DIMDEC
 70
     3
  9
$DIMTDEC
 70
     3
  9
$DIMALTU
 70
     2
  9
$DIMALTTD
 70
     2
  9
$DIMTXSTY
  7
STANDARD
  9
$DIMAUNIT
 70
     0
  9
$DIMADEC
 70
     0
  9
$DIMALTRND
 40
0.0
  9
$DIMAZIN
 70
     0
  9
$DIMDSEP
 70
    46
  9
$DIMATFIT
 70
     0
  9
$DIMFRAC
 70
     0
  9
$DIMLDRBLK
  1

  9
$DIMLUNIT
 70
     2
  9
$DIMLWD
 70
    -2
  9
$DIMLWE
 70
    -2
  9
$DIMTMOVE
 70
     0
  9
$LUNITS
 70
     2
  9
$LUPREC
 70
     4
  9
$SKETCHINC
 40
0.1
  9
$FILLETRAD
 40
0.0
  9
$AUNITS
 70
     0
  9
$AUPREC
 70
     0
  9
$MENU
  1
.
  9
$ELEVATION
 40
0.0
  9
$PELEVATION
 40
0.0
  9
$THICKNESS
 40
0.0
  9
$LIMCHECK
 70
     0
  9
$CHAMFERA
 40
0.0
  9
$CHAMFERB
 40
0.0
  9
$CHAMFERC
 40
0.0
  9
$CHAMFERD
 40
0.0
  9
$SKPOLY
 70
     0
  9
$TDCREATE
 40
2458446.405227107
  9
$TDUCREATE
 40
2458446.321893773
  9
$TDUPDATE
 40
2459345.616407720
  9
$TDUUPDATE
 40
2459345.533074387
  9
$TDINDWG
 40
0.0436763773
  9
$TDUSRTIMER
 40
0.0436752894
  9
$USRTIMER
 70
     1
  9
$ANGBASE
 50
0.0
  9
$ANGDIR
 70
     0
  9
$PDMODE
 70
     3
  9
$PDSIZE
 40
0.3125
  9
$PLINEWID
 40
0.0
  9
$SPLFRAME
 70
     0
  9
$SPLINETYPE
 70
     6
  9
$SPLINESEGS
 70
     8
  9
$HANDSEED
  5
2380E
  9
$SURFTAB1
 70
     6
  9
$SURFTAB2
 70
     6
  9
$SURFTYPE
 70
     6
  9
$SURFU
 70
     6
  9
$SURFV
 70
     6
  9
$UCSBASE
  2

  9
$UCSNAME
  2

  9
$UCSORG
 10
0.0
 20
0.0
 30
0.0
  9
$UCSXDIR
 10
1.0
 20
0.0
 30
0.0
  9
$UCSYDIR
 10
0.0
 20
1.0
 30
0.0
  9
$UCSORTHOREF
  2

  9
$UCSORTHOVIEW
 70
     0
  9
$UCSORGTOP
 10
0.0
 20
0.0
 30
0.0
  9
$UCSORGBOTTOM
 10
0.0
 20
0.0
 30
0.0
  9
$UCSORGLEFT
 10
0.0
 20
0.0
 30
0.0
  9
$UCSORGRIGHT
 10
0.0
 20
0.0
 30
0.0
  9
$UCSORGFRONT
 10
0.0
 20
0.0
 30
0.0
  9
$UCSORGBACK
 10
0.0
 20
0.0
 30
0.0
  9
$PUCSBASE
  2

  9
$PUCSNAME
  2

  9
$PUCSORG
 10
0.0
 20
0.0
 30
0.0
  9
$PUCSXDIR
 10
1.0
 20
0.0
 30
0.0
  9
$PUCSYDIR
 10
0.0
 20
1.0
 30
0.0
  9
$PUCSORTHOREF
  2

  9
$PUCSORTHOVIEW
 70
     0
  9
$PUCSORGTOP
 10
0.0
 20
0.0
 30
0.0
  9
$PUCSORGBOTTOM
 10
0.0
 20
0.0
 30
0.0
  9
$PUCSORGLEFT
 10
0.0
 20
0.0
 30
0.0
  9
$PUCSORGRIGHT
 10
0.0
 20
0.0
 30
0.0
  9
$PUCSORGFRONT
 10
0.0
 20
0.0
 30
0.0
  9
$PUCSORGBACK
 10
0.0
 20
0.0
 30
0.0
  9
$USERI1
 70
     0
  9
$USERI2
 70
     0
  9
$USERI3
 70
     0
  9
$USERI4
 70
     0
  9
$USERI5
 70
     0
  9
$USERR1
 40
0.0
  9
$USERR2
 40
0.0
  9
$USERR3
 40
0.0
  9
$USERR4
 40
0.0
  9
$USERR5
 40
0.0
  9
$WORLDVIEW
 70
     1
  9
$SHADEDGE
 70
     3
  9
$SHADEDIF
 70
    70
  9
$TILEMODE
 70
     1
  9
$MAXACTVP
 70
    64
  9
$PINSBASE
 10
0.0
 20
0.0
 30
0.0
  9
$PLIMCHECK
 70
     0
  9
$PEXTMIN
 10
28.69141678810127
 20
19.6363175392151
 30
0.0
  9
$PEXTMAX
 10
258.2227510929107
 20
176.7268578529358
 30
0.0
  9
$PLIMMIN
 10
-5.027069091796875
 20
-6.805083274841307
  9
$PLIMMAX
 10
291.9412536621094
 20
203.1682443618775
  9
$UNITMODE
 70
     0
  9
$VISRETAIN
 70
     1
  9
$PLINEGEN
 70
     0
  9
$PSLTSCALE
 70
     1
  9
$TREEDEPTH
 70
  3020
  9
$CMLSTYLE
  2
STANDARD
  9
$CMLJUST
 70
     0
  9
$CMLSCALE
 40
1.0
  9
$PROXYGRAPHICS
 70
     1
  9
$MEASUREMENT
 70
     1
  9
$CELWEIGHT
370
    -1
  9
$ENDCAPS
280
     0
  9
$JOINSTYLE
280
     0
  9
$LWDISPLAY
290
     0
  9
$INSUNITS
 70
     0
  9
$HYPERLINKBASE
  1

  9
$STYLESHEET
  1
A1-A2.CTB
  9
$XEDIT
290
     1
  9
$CEPSNTYPE
380
     0
  9
$PSTYLEMODE
290
     1
  9
$FINGERPRINTGUID
  2
{6D3BC7B5-ACA7-406D-8A0D-A7DBBE093430}
  9
$VERSIONGUID
  2
{D4058364-6460-4CAB-A5C9-EE6F56C33E28}
  9
$EXTNAMES
290
     1
  9
$PSVPSCALE
 40
0.0
  9
$OLESTARTUP
290
     0
  0
ENDSEC
  0
SECTION
  2
CLASSES
  0
CLASS
  1
ACDBDICTIONARYWDFLT
  2
AcDbDictionaryWithDefault
  3
ObjectDBX Classes
 90
        0
280
     0
281
     0
  0
CLASS
  1
MATERIAL
  2
AcDbMaterial
  3
ObjectDBX Classes
 90
     1153
280
     0
281
     0
  0
CLASS
  1
VISUALSTYLE
  2
AcDbVisualStyle
  3
ObjectDBX Classes
 90
     4095
280
     0
281
     0
  0
CLASS
  1
TABLESTYLE
  2
AcDbTableStyle
  3
ObjectDBX Classes
 90
     4095
280
     0
281
     0
  0
CLASS
  1
SORTENTSTABLE
  2
AcDbSortentsTable
  3
ObjectDBX Classes
 90
        0
280
     0
281
     0
  0
CLASS
  1
DICTIONARYVAR
  2
AcDbDictionaryVar
  3
ObjectDBX Classes
 90
        0
280
     0
281
     0
  0
CLASS
  1
EXACXREFPANELOBJECT
  2
ExAcXREFPanelObject
  3
EXAC_ESW
 90
    33793
280
     1
281
     0
  0
CLASS
  1
NPOCOLLECTION
  2
AcDbImpNonPersistentObjectsCollection
  3
ObjectDBX Classes
 90
    33921
280
     1
281
     0
  0
CLASS
  1
SCALE
  2
AcDbScale
  3
ObjectDBX Classes
 90
     1153
280
     0
281
     0
  0
CLASS
  1
MLEADERSTYLE
  2
AcDbMLeaderStyle
  3
ACDB_MLEADERSTYLE_CLASS
 90
     4095
280
     0
281
     0
  0
CLASS
  1
ACDBSECTIONVIEWSTYLE
  2
AcDbSectionViewStyle
  3
ObjectDBX Classes
 90
     1025
280
     0
281
     0
  0
CLASS
  1
ACDBDETAILVIEWSTYLE
  2
AcDbDetailViewStyle
  3
ObjectDBX Classes
 90
     1025
280
     0
281
     0
  0
CLASS
  1
CELLSTYLEMAP
  2
AcDbCellStyleMap
  3
ObjectDBX Classes
 90
     1152
280
     0
281
     0
  0
CLASS
  1
ACAD_EVALUATION_GRAPH
  2
AcDbEvalGraph
  3
ObjectDBX Classes
 90
    33921
280
     0
281
     0
  0
CLASS
  1
ACAECUSTOBJ
  2
AcAeEditorObj
  3
AcAeEditorObj
 90
    33792
280
     0
281
     0
  0
CLASS
  1
ACDB_DYNAMICBLOCKPURGEPREVENTER_VERSION
  2
AcDbDynamicBlockPurgePreventer
  3
ObjectDBX Classes
 90
    33921
280
     0
281
     0
  0
CLASS
  1
FIELD
  2
AcDbField
  3
ObjectDBX Classes
 90
    33920
280
     0
281
     0
  0
CLASS
  1
FIELDLIST
  2
AcDbFieldList
  3
ObjectDBX Classes
 90
     1152
280
     0
281
     0
  0
CLASS
  1
ACDB_ALDIMOBJECTCONTEXTDATA_CLASS
  2
AcDbAlignedDimensionObjectContextData
  3
ObjectDBX Classes
 90
    33921
280
     0
281
     0
  0
CLASS
  1
MULTILEADER
  2
AcDbMLeader
  3
ACDB_MLEADER_CLASS
 90
     1025
280
     0
281
     1
  0
CLASS
  1
ACDBPLACEHOLDER
  2
AcDbPlaceHolder
  3
ObjectDBX Classes
 90
        0
280
     0
281
     0
  0
CLASS
  1
LAYOUT
  2
AcDbLayout
  3
ObjectDBX Classes
 90
        0
280
     0
281
     0
  0
ENDSEC
  0
SECTION
  2
TABLES
  0
TABLE
  2
VPORT
  5
8
330
0
100
AcDbSymbolTable
 70
     1
  0
VPORT
  5
1F4
330
8
100
AcDbSymbolTableRecord
100
AcDbViewportTableRecord
  2
*ACTIVE
 70
     0
 10
0.0
 20
0.0
 11
1.0
 21
1.0
 12
-1.322056181431546
 22
0.9702145114539995
 13
0.0
 23
0.0
 14
1.0
 24
1.0
 15
0.0
 25
0.0
 16
0.0
 26
0.0
 36
1.0
 17
0.0
 27
0.0
 37
0.0
 40
64.36981762080495
 41
1.793416572077185
 42
50.0
 43
0.0
 44
0.0
 50
0.0
 51
0.0
 71
     0
 72
  2000
 73
     1
 74
     1
 75
     0
 76
     0
 77
     0
 78
     0
281
     0
 65
     1
110
0.0
120
0.0
130
0.0
111
1.0
121
0.0
131
0.0
112
0.0
122
1.0
132
0.0
 79
     0
146
0.0
1001
ACAD_NAV_VCDISPLAY
1070
     3
  0
ENDTAB
  0
TABLE
  2
LTYPE
  5
5
330
0
100
AcDbSymbolTable
 70
     6
  0
LTYPE
  5
14
330
5
100
AcDbSymbolTableRecord
100
AcDbLinetypeTableRecord
  2
BYBLOCK
 70
     0
  3

 72
    65
 73
     0
 40
0.0
  0
LTYPE
  5
15
330
5
100
AcDbSymbolTableRecord
100
AcDbLinetypeTableRecord
  2
BYLAYER
 70
     0
  3

 72
    65
 73
     0
 40
0.0
  0
LTYPE
  5
16
330
5
100
AcDbSymbolTableRecord
100
AcDbLinetypeTableRecord
  2
CONTINUOUS
 70
     0
  3
Solid line
 72
    65
 73
     0
 40
0.0
  0
LTYPE
  5
9C48
330
5
100
AcDbSymbolTableRecord
100
AcDbLinetypeTableRecord
  2
CENTER
 70
     0
  3
____ _ ____ _ ____ _ ____ _ ____ _ ____ _ ____
 72
    65
 73
     4
 40
0.6
 49
0.375
 74
     0
 49
-0.075
 74
     0
 49
0.075
 74
     0
 49
-0.075
 74
     0
  0
LTYPE
  5
2224E
330
5
100
AcDbSymbolTableRecord
100
AcDbLinetypeTableRecord
  2
HIDDEN
 70
     0
  3
- - - - - - - - - - - - - - - - - - - -
 72
    65
 73
     2
 40
0.2
 49
0.1
 74
     0
 49
-0.1
 74
     0
  0
LTYPE
  5
2360B
330
5
100
AcDbSymbolTableRecord
100
AcDbLinetypeTableRecord
  2
PHANTOM
 70
     0
  3
_____ _ _ _____ _ _ _____ _ _ _____
 72
    65
 73
     6
 40
0.8
 49
0.45
 74
     0
 49
-0.05
 74
     0
 49
0.1
 74
     0
 49
-0.05
 74
     0
 49
0.1
 74
     0
 49
-0.05
 74
     0
  0
ENDTAB
  0
TABLE
  2
LAYER
  5
2
102
{ACAD_XDICTIONARY
360
422A
102
}
330
0
100
AcDbSymbolTable
 70
    17
  0
LAYER
  5
10
102
{ACAD_XDICTIONARY
360
1B2F5
102
}
330
2
100
AcDbSymbolTableRecord
100
AcDbLayerTableRecord
  2
0
 70
     0
 62
     7
  6
CONTINUOUS
370
    -3
390
318A
  0
LAYER
  5
3F8C
102
{ACAD_XDICTIONARY
360
1B2F7
102
}
330
2
100
AcDbSymbolTableRecord
100
AcDbLayerTableRecord
  2
1
 70
     0
 62
     4
  6
BYBLOCK
370
    50
390
318A
  0
LAYER
  5
3FA7
330
2
100
AcDbSymbolTableRecord
100
AcDbLayerTableRecord
  2
Defpoints
 70
     0
 62
     7
  6
CONTINUOUS
290
     0
370
    -3
390
318A
  0
LAYER
  5
9C4A
102
{ACAD_XDICTIONARY
360
1B2F9
102
}
330
2
100
AcDbSymbolTableRecord
100
AcDbLayerTableRecord
  2
2
 70
     0
 62
     7
  6
BYBLOCK
370
    25
390
318A
  0
LAYER
  5
9C4B
102
{ACAD_XDICTIONARY
360
1B2FB
102
}
330
2
100
AcDbSymbolTableRecord
100
AcDbLayerTableRecord
  2
4
 70
     0
 62
     2
  6
CENTER
370
    25
390
318A
  0
LAYER
  5
9C4D
102
{ACAD_XDICTIONARY
360
1B2FD
102
}
330
2
100
AcDbSymbolTableRecord
100
AcDbLayerTableRecord
  2
CUT
 70
     0
 62
     1
  6
BYBLOCK
370
    25
390
318A
  0
LAYER
  5
9C4E
102
{ACAD_XDICTIONARY
360
1B2FF
102
}
330
2
100
AcDbSymbolTableRecord
100
AcDbLayerTableRecord
  2
NOCUT
 70
     0
 62
     7
  6
BYBLOCK
370
    25
390
318A
  0
LAYER
  5
9C4F
102
{ACAD_XDICTIONARY
360
1B301
102
}
330
2
100
AcDbSymbolTableRecord
100
AcDbLayerTableRecord
  2
SK2
 70
     0
 62
     7
  6
BYBLOCK
370
    25
390
318A
  0
LAYER
  5
9C50
102
{ACAD_XDICTIONARY
360
1B303
102
}
330
2
100
AcDbSymbolTableRecord
100
AcDbLayerTableRecord
  2
SK1
 70
     0
 62
     4
  6
BYBLOCK
370
    50
390
318A
  0
LAYER
  5
9C51
102
{ACAD_XDICTIONARY
360
1B305
102
}
330
2
100
AcDbSymbolTableRecord
100
AcDbLayerTableRecord
  2
SK4
 70
     0
 62
     2
  6
CENTER
370
    25
390
318A
  0
LAYER
  5
13335
102
{ACAD_XDICTIONARY
360
1B307
102
}
330
2
100
AcDbSymbolTableRecord
100
AcDbLayerTableRecord
  2
INFTOTAL
 70
     0
 62
     9
  6
BYBLOCK
370
    18
390
318A
1001
AcAecLayerStandard
1000

1000

  0
LAYER
  5
1686E
102
{ACAD_XDICTIONARY
360
1B309
102
}
330
2
100
AcDbSymbolTableRecord
100
AcDbLayerTableRecord
  2
SK6
 70
     0
 62
     5
  6
BYBLOCK
370
    -3
390
318A
  0
LAYER
  5
2224F
102
{ACAD_XDICTIONARY
360
22250
102
}
330
2
100
AcDbSymbolTableRecord
100
AcDbLayerTableRecord
  2
3
 70
     0
 62
     1
  6
HIDDEN
370
    -3
390
318A
1001
AcAecLayerStandard
1000

1000

1001
AcCmTransparency
1071
        0
  0
LAYER
  5
2360C
330
2
100
AcDbSymbolTableRecord
100
AcDbLayerTableRecord
  2
BEZUGSACHSEN
 70
     0
 62
     7
  6
CONTINUOUS
370
    -3
390
318A
  0
LAYER
  5
2360D
330
2
100
AcDbSymbolTableRecord
100
AcDbLayerTableRecord
  2
KONSTRUKTIONSELEMENTE
 70
     0
 62
     7
  6
CONTINUOUS
370
    -3
390
318A
  0
LAYER
  5
2360E
330
2
100
AcDbSymbolTableRecord
100
AcDbLayerTableRecord
  2
12L8J016023X5R00_ING_00_KANTE_I
 70
     0
 62
     7
  6
CONTINUOUS
370
    -3
390
318A
  0
LAYER
  5
2360F
330
2
100
AcDbSymbolTableRecord
100
AcDbLayerTableRecord
  2
12L8J016023X5R_ING_03_VERDECKTE
 70
     0
 62
     7
  6
CONTINUOUS
370
    -3
390
318A
  0
ENDTAB
  0
TABLE
  2
STYLE
  5
3
330
0
100
AcDbSymbolTable
 70
     1
  0
STYLE
  5
11
330
3
100
AcDbSymbolTableRecord
100
AcDbTextStyleTableRecord
  2
STANDARD
 70
     0
 40
3.5
 41
0.8
 50
0.0
 71
     0
 42
3.5
  3
monos.ttf
  4

1001
ACAD
1000
Monospac821 BT
1071
       49
  0
ENDTAB
  0
TABLE
  2
VIEW
  5
6
330
0
100
AcDbSymbolTable
 70
     0
  0
ENDTAB
  0
TABLE
  2
UCS
  5
7
330
0
100
AcDbSymbolTable
 70
     0
  0
ENDTAB
  0
TABLE
  2
APPID
  5
9
330
0
100
AcDbSymbolTable
 70
    15
  0
APPID
  5
23B
330
9
100
AcDbSymbolTableRecord
100
AcDbRegAppTableRecord
  2
ACAD
 70
     0
  0
APPID
  5
3395
330
9
100
AcDbSymbolTableRecord
100
AcDbRegAppTableRecord
  2
ACAD_EXEMPT_FROM_CAD_STANDARDS
 70
     0
  0
APPID
  5
4229
330
9
100
AcDbSymbolTableRecord
100
AcDbRegAppTableRecord
  2
AcAecLayerStandard
 70
     0
  0
APPID
  5
9A1B
330
9
100
AcDbSymbolTableRecord
100
AcDbRegAppTableRecord
  2
ACAD_PSEXT
 70
     0
  0
APPID
  5
1B313
330
9
100
AcDbSymbolTableRecord
100
AcDbRegAppTableRecord
  2
ACAD_NAV_VCDISPLAY
 70
     0
  0
APPID
  5
1B355
330
9
100
AcDbSymbolTableRecord
100
AcDbRegAppTableRecord
  2
ACAD_MLEADERVER
 70
     0
  0
APPID
  5
1EC7F
330
9
100
AcDbSymbolTableRecord
100
AcDbRegAppTableRecord
  2
ACAUTHENVIRON
 70
     0
  0
APPID
  5
1EC82
330
9
100
AcDbSymbolTableRecord
100
AcDbRegAppTableRecord
  2
AcDbDynamicBlockTrueName
 70
     0
  0
APPID
  5
1EC83
330
9
100
AcDbSymbolTableRecord
100
AcDbRegAppTableRecord
  2
AcDbDynamicBlockGUID
 70
     0
  0
APPID
  5
20A85
330
9
100
AcDbSymbolTableRecord
100
AcDbRegAppTableRecord
  2
AcCmTransparency
 70
     0
  0
APPID
  5
20AE2
330
9
100
AcDbSymbolTableRecord
100
AcDbRegAppTableRecord
  2
ACAD_DSTYLE_DIMRADIAL_EXTENSION
 70
     0
  0
APPID
  5
20CB0
330
9
100
AcDbSymbolTableRecord
100
AcDbRegAppTableRecord
  2
AcadAnnotative
 70
     0
  0
APPID
  5
21667
330
9
100
AcDbSymbolTableRecord
100
AcDbRegAppTableRecord
  2
AcadAnnoMonitorAlertIconDisabled
 70
     0
  0
APPID
  5
21CCB
330
9
100
AcDbSymbolTableRecord
100
AcDbRegAppTableRecord
  2
ACAD_DSTYLE_DIMJAG
 70
     0
  0
APPID
  5
21CCC
330
9
100
AcDbSymbolTableRecord
100
AcDbRegAppTableRecord
  2
ACAD_DSTYLE_DIMTALN
 70
     0
  0
ENDTAB
  0
TABLE
  2
DIMSTYLE
  5
A
330
0
100
AcDbSymbolTable
 70
     2
100
AcDbDimStyleTable
 71
     1
340
243
  0
DIMSTYLE
105
243
102
{ACAD_REACTORS
330
23365
330
23366
330
23367
330
234B7
330
234DF
330
234EC
102
}
330
A
100
AcDbSymbolTableRecord
100
AcDbDimStyleTableRecord
  2
STANDARD
 70
     0
 41
4.57
 47
0.01
 48
0.01
 73
     0
 74
     0
 77
     1
 78
     8
140
3.5
271
     3
272
     3
284
     8
289
     0
340
11
  0
ENDTAB
  0
TABLE
  2
BLOCK_RECORD
  5
1
330
0
100
AcDbSymbolTable
 70
    10
  0
BLOCK_RECORD
  5
1F
102
{ACAD_XDICTIONARY
360
339C
102
}
330
1
100
AcDbSymbolTableRecord
100
AcDbBlockTableRecord
  2
*MODEL_SPACE
340
31A6
  0
BLOCK_RECORD
  5
1B
330
1
100
AcDbSymbolTableRecord
100
AcDbBlockTableRecord
  2
*PAPER_SPACE
340
31A7
  0
BLOCK_RECORD
  5
1B3D7
102
{ACAD_XDICTIONARY
360
1DE81
102
}
330
1
100
AcDbSymbolTableRecord
100
AcDbBlockTableRecord
  2
cero_point
340
0
310
28000000200000002000000001002000000000000010000001000000010000000000000000000000302821FF302821FF302821FF302821FF302821FF302821FF302821FF302821FF302821FF302821FF302821FF302821FF302821FF302821FF302821FF302821FF302821FF302821FF302821FF302821FF302821FF302821
310
FF302821FF302821FF302821FF302821FF302821FF302821FF302821FF302821FF302821FF302821FF302821FF302821FF302821FF302821FF302821FF302821FF302821FF302821FF302821FF302821FF302821FF302821FF302821FF302821FF302821FFFFFF00FFFFFF00FFFFFF00FF302821FF302821FF302821FF3028
310
21FF302821FF302821FF302821FF302821FF302821FF302821FF302821FF302821FF302821FF302821FF302821FF302821FF302821FF302821FF302821FF302821FF302821FF302821FF302821FF302821FFFFFF00FFFFFF00FFFFFF00FFFFFF00FFFFFF00FFFFFF00FFFFFF00FF302821FFFFFF00FFFFFF00FFFFFF00FF30
310
2821FF302821FF302821FF302821FF302821FF302821FF302821FF302821FF302821FF302821FF302821FF302821FF302821FF302821FF302821FF302821FF302821FF302821FF302821FFFFFF00FFFFFF00FFFFFF00FFFFFF00FFFFFF00FFFFFF00FFFFFF00FFFFFF00FFFFFF00FF302821FF302821FF302821FF302821FF
310
FFFF00FFFFFF00FF302821FF302821FF302821FF302821FF302821FF302821FF302821FF302821FF302821FF302821FF302821FF302821FF302821FF302821FF302821FF302821FFFFFF00FFFFFF00FFFFFF00FFFFFF00FFFFFF00FFFFFF00FFFFFF00FFFFFF00FFFFFF00FFFFFF00FF302821FF302821FF302821FF302821
310
FF302821FF302821FFFFFF00FFFFFF00FF302821FF302821FF302821FF302821FF302821FF302821FF302821FF302821FF302821FF302821FF302821FF302821FF302821FFFFFF00FFFFFF00FFFFFF00FFFFFF00FFFFFF00FFFFFF00FFFFFF00FFFFFF00FFFFFF00FFFFFF00FFFFFF00FF302821FF302821FF302821FF3028
310
21FF302821FF302821FF302821FF302821FFFFFF00FF302821FF302821FF302821FF302821FF302821FF302821FF302821FF302821FF302821FF302821FF302821FFFFFF00FFFFFF00FFFFFF00FFFFFF00FFFFFF00FFFFFF00FFFFFF00FFFFFF00FFFFFF00FFFFFF00FFFFFF00FFFFFF00FF302821FF302821FF302821FF30
310
2821FF302821FF302821FF302821FF302821FF302821FFFFFF00FF302821FF302821FF302821FF302821FF302821FF302821FF302821FF302821FF302821FFFFFF00FFFFFF00FFFFFF00FFFFFF00FFFFFF00FFFFFF00FFFFFF00FFFFFF00FFFFFF00FFFFFF00FFFFFF00FFFFFF00FFFFFF00FF302821FF302821FF302821FF
310
302821FF302821FF302821FF302821FF302821FF302821FF302821FFFFFF00FF302821FF302821FF302821FF302821FF302821FF302821FF302821FFFFFF00FFFFFF00FFFFFF00FFFFFF00FFFFFF00FFFFFF00FFFFFF00FFFFFF00FFFFFF00FFFFFF00FFFFFF00FFFFFF00FFFFFF00FFFFFF00FF302821FF302821FF302821
310
FF302821FF302821FF302821FF302821FF302821FF302821FF302821FFFFFF00FF302821FF302821FF302821FF302821FF302821FF302821FF302821FFFFFF00FFFFFF00FFFFFF00FFFFFF00FFFFFF00FFFFFF00FFFFFF00FFFFFF00FFFFFF00FFFFFF00FFFFFF00FFFFFF00FFFFFF00FFFFFF00FF302821FF302821FF3028
310
21FF302821FF302821FF302821FF302821FF302821FF302821FF302821FF302821FFFFFF00FF302821FF302821FF302821FF302821FF302821FFFFFF00FFFFFF00FFFFFF00FFFFFF00FFFFFF00FFFFFF00FFFFFF00FFFFFF00FFFFFF00FFFFFF00FFFFFF00FFFFFF00FFFFFF00FFFFFF00FFFFFF00FF302821FF302821FF30
310
2821FF302821FF302821FF302821FF302821FF302821FF302821FF302821FF302821FF302821FFFFFF00FF302821FF302821FF302821FF302821FFFFFF00FFFFFF00FFFFFF00FFFFFF00FFFFFF00FFFFFF00FFFFFF00FFFFFF00FFFFFF00FFFFFF00FFFFFF00FFFFFF00FFFFFF00FFFFFF00FFFFFF00FF302821FF302821FF
310
302821FF302821FF302821FF302821FF302821FF302821FF302821FF302821FF302821FF302821FFFFFF00FF302821FF302821FF302821FF302821FFFFFF00FFFFFF00FFFFFF00FFFFFF00FFFFFF00FFFFFF00FFFFFF00FFFFFF00FFFFFF00FFFFFF00FFFFFF00FFFFFF00FFFFFF00FFFFFF00FFFFFF00FF302821FF302821
310
FF302821FF302821FF302821FF302821FF302821FF302821FF302821FF302821FF302821FF302821FFFFFF00FF302821FF302821FF302821FF302821FFFFFF00FFFFFF00FFFFFF00FFFFFF00FFFFFF00FFFFFF00FFFFFF00FFFFFF00FFFFFF00FFFFFF00FFFFFF00FFFFFF00FFFFFF00FFFFFF00FFFFFF00FF302821FF3028
310
21FF302821FF302821FF302821FF302821FF302821FF302821FF302821FF302821FF302821FF302821FFFFFF00FF302821FF302821FF302821FFFFFF00FFFFFF00FFFFFF00FFFFFF00FFFFFF00FFFFFF00FFFFFF00FFFFFF00FFFFFF00FFFFFF00FFFFFF00FFFFFF00FFFFFF00FFFFFF00FFFFFF00FFFFFF00FF302821FF30
310
2821FF302821FF302821FF302821FF302821FF302821FF302821FF302821FF302821FF302821FF302821FF302821FFFFFF00FF302821FF302821FFFFFF00FFFFFF00FFFFFF00FFFFFF00FFFFFF00FFFFFF00FFFFFF00FFFFFF00FFFFFF00FFFFFF00FFFFFF00FFFFFF00FFFFFF00FFFFFF00FFFFFF00FFFFFF00FFFFFF00FF
310
FFFF00FFFFFF00FFFFFF00FFFFFF00FFFFFF00FFFFFF00FFFFFF00FFFFFF00FFFFFF00FFFFFF00FFFFFF00FFFFFF00FFFFFF00FF302821FF302821FFFFFF00FF302821FF302821FF302821FF302821FF302821FF302821FF302821FF302821FF302821FF302821FF302821FF302821FF302821FF302821FFFFFF00FFFFFF00
310
FFFFFF00FFFFFF00FFFFFF00FFFFFF00FFFFFF00FFFFFF00FFFFFF00FFFFFF00FFFFFF00FFFFFF00FFFFFF00FFFFFF00FFFFFF00FF302821FF302821FFFFFF00FF302821FF302821FF302821FF302821FF302821FF302821FF302821FF302821FF302821FF302821FF302821FF302821FF302821FF302821FFFFFF00FFFFFF
310
00FFFFFF00FFFFFF00FFFFFF00FFFFFF00FFFFFF00FFFFFF00FFFFFF00FFFFFF00FFFFFF00FFFFFF00FFFFFF00FFFFFF00FF302821FF302821FF302821FF302821FFFFFF00FF302821FF302821FF302821FF302821FF302821FF302821FF302821FF302821FF302821FF302821FF302821FF302821FF302821FFFFFF00FFFF
310
FF00FFFFFF00FFFFFF00FFFFFF00FFFFFF00FFFFFF00FFFFFF00FFFFFF00FFFFFF00FFFFFF00FFFFFF00FFFFFF00FFFFFF00FF302821FF302821FF302821FF302821FFFFFF00FF302821FF302821FF302821FF302821FF302821FF302821FF302821FF302821FF302821FF302821FF302821FF302821FF302821FFFFFF00FF
310
FFFF00FFFFFF00FFFFFF00FFFFFF00FFFFFF00FFFFFF00FFFFFF00FFFFFF00FFFFFF00FFFFFF00FFFFFF00FFFFFF00FFFFFF00FF302821FF302821FF302821FF302821FFFFFF00FF302821FF302821FF302821FF302821FF302821FF302821FF302821FF302821FF302821FF302821FF302821FF302821FF302821FFFFFF00
310
FFFFFF00FFFFFF00FFFFFF00FFFFFF00FFFFFF00FFFFFF00FFFFFF00FFFFFF00FFFFFF00FFFFFF00FFFFFF00FFFFFF00FFFFFF00FF302821FF302821FF302821FF302821FF302821FFFFFF00FF302821FF302821FF302821FF302821FF302821FF302821FF302821FF302821FF302821FF302821FF302821FF302821FFFFFF
310
00FFFFFF00FFFFFF00FFFFFF00FFFFFF00FFFFFF00FFFFFF00FFFFFF00FFFFFF00FFFFFF00FFFFFF00FFFFFF00FFFFFF00FFFFFF00FF302821FF302821FF302821FF302821FF302821FFFFFF00FF302821FF302821FF302821FF302821FF302821FF302821FF302821FF302821FF302821FF302821FF302821FF302821FFFF
310
FF00FFFFFF00FFFFFF00FFFFFF00FFFFFF00FFFFFF00FFFFFF00FFFFFF00FFFFFF00FFFFFF00FFFFFF00FFFFFF00FFFFFF00FF302821FF302821FF302821FF302821FF302821FF302821FF302821FFFFFF00FF302821FF302821FF302821FF302821FF302821FF302821FF302821FF302821FF302821FF302821FF302821FF
310
FFFF00FFFFFF00FFFFFF00FFFFFF00FFFFFF00FFFFFF00FFFFFF00FFFFFF00FFFFFF00FFFFFF00FFFFFF00FFFFFF00FFFFFF00FF302821FF302821FF302821FF302821FF302821FF302821FF302821FFFFFF00FF302821FF302821FF302821FF302821FF302821FF302821FF302821FF302821FF302821FF302821FF302821
310
FFFFFF00FFFFFF00FFFFFF00FFFFFF00FFFFFF00FFFFFF00FFFFFF00FFFFFF00FFFFFF00FFFFFF00FFFFFF00FFFFFF00FF302821FF302821FF302821FF302821FF302821FF302821FF302821FF302821FF302821FFFFFF00FF302821FF302821FF302821FF302821FF302821FF302821FF302821FF302821FF302821FF3028
310
21FFFFFF00FFFFFF00FFFFFF00FFFFFF00FFFFFF00FFFFFF00FFFFFF00FFFFFF00FFFFFF00FFFFFF00FFFFFF00FF302821FF302821FF302821FF302821FF302821FF302821FF302821FF302821FF302821FF302821FF302821FFFFFF00FF302821FF302821FF302821FF302821FF302821FF302821FF302821FF302821FF30
310
2821FFFFFF00FFFFFF00FFFFFF00FFFFFF00FFFFFF00FFFFFF00FFFFFF00FFFFFF00FFFFFF00FFFFFF00FF302821FF302821FF302821FF302821FF302821FF302821FF302821FF302821FF302821FF302821FF302821FF302821FF302821FFFFFF00FF302821FF302821FF302821FF302821FF302821FF302821FF302821FF
310
302821FFFFFF00FFFFFF00FFFFFF00FFFFFF00FFFFFF00FFFFFF00FFFFFF00FFFFFF00FFFFFF00FF302821FF302821FF302821FF302821FF302821FF302821FF302821FF302821FF302821FF302821FF302821FF302821FF302821FF302821FF302821FFFFFF00FFFFFF00FF302821FF302821FF302821FF302821FF302821
310
FF302821FFFFFF00FFFFFF00FFFFFF00FFFFFF00FFFFFF00FFFFFF00FFFFFF00FFFFFF00FF302821FF302821FF302821FF302821FF302821FF302821FF302821FF302821FF302821FF302821FF302821FF302821FF302821FF302821FF302821FF302821FF302821FF302821FFFFFF00FFFFFF00FFFFFF00FFFFFF00FFFFFF
310
00FF302821FFFFFF00FFFFFF00FFFFFF00FFFFFF00FFFFFF00FFFFFF00FF302821FF302821FF302821FF302821FF302821FF302821FF302821FF302821FF302821FF302821FF302821FF302821FF302821FF302821FF302821FF302821FF302821FF302821FF302821FF302821FF302821FF302821FF302821FF302821FF30
310
2821FFFFFF00FFFFFF00FFFFFF00FF302821FF302821FF302821FF302821FF302821FF302821FF302821FF302821FF302821FF302821FF302821FF302821FF302821FF302821FF302821FF302821FF302821FF302821FF302821FF302821FF302821FF302821FF302821FF302821FF302821FF302821FF302821FF302821FF
310
302821FF302821FF302821FF302821FF302821FF302821FF302821FF302821FF302821FF302821FF302821FF302821FF302821FF302821FF302821FF302821FF302821FF302821FF
102
{BLKREFS
331
22850
102
}
  0
BLOCK_RECORD
  5
23450
330
1
100
AcDbSymbolTableRecord
100
AcDbBlockTableRecord
  2
*D1
340
0
  0
BLOCK_RECORD
  5
2345C
330
1
100
AcDbSymbolTableRecord
100
AcDbBlockTableRecord
  2
*D2
340
0
  0
BLOCK_RECORD
  5
23468
330
1
100
AcDbSymbolTableRecord
100
AcDbBlockTableRecord
  2
*D3
340
0
  0
BLOCK_RECORD
  5
234B8
330
1
100
AcDbSymbolTableRecord
100
AcDbBlockTableRecord
  2
*D4
340
0
  0
BLOCK_RECORD
  5
234E0
330
1
100
AcDbSymbolTableRecord
100
AcDbBlockTableRecord
  2
*D5
340
0
  0
BLOCK_RECORD
  5
234ED
330
1
100
AcDbSymbolTableRecord
100
AcDbBlockTableRecord
  2
*D6
340
0
  0
BLOCK_RECORD
  5
23607
330
1
100
AcDbSymbolTableRecord
100
AcDbBlockTableRecord
  2
_ARROW_FILLED
340
0
  0
ENDTAB
  0
ENDSEC
  0
SECTION
  2
BLOCKS
  0
BLOCK
  5
20
330
1F
100
AcDbEntity
  8
0
100
AcDbBlockBegin
  2
*MODEL_SPACE
 70
     0
 10
0.0
 20
0.0
 30
0.0
  3
*MODEL_SPACE
  1

  0
ENDBLK
  5
21
330
1F
100
AcDbEntity
  8
0
100
AcDbBlockEnd
  0
BLOCK
  5
1C
330
1B
100
AcDbEntity
 67
     1
  8
0
100
AcDbBlockBegin
  2
*PAPER_SPACE
 70
     0
 10
0.0
 20
0.0
 30
0.0
  3
*PAPER_SPACE
  1

  0
ENDBLK
  5
1D
330
1B
100
AcDbEntity
 67
     1
  8
0
100
AcDbBlockEnd
  0
BLOCK
  5
1B3D8
330
1B3D7
100
AcDbEntity
  8
0
100
AcDbBlockBegin
  2
cero_point
 70
     0
 10
0.0
 20
0.0
 30
0.0
  3
cero_point
  1

  0
HATCH
  5
1B3DA
330
1B3D7
100
AcDbEntity
  8
1
  6
ByBlock
370
    50
100
AcDbHatch
 10
0.0
 20
0.0
 30
0.0
210
0.0
220
0.0
230
1.0
  2
SOLID
 70
     1
 71
     0
 91
        2
 92
        7
 72
     1
 73
     1
 93
        3
 10
-0.0000000000001137
 20
0.0
 42
0.0
 10
-2.950972054112752
 20
0.0
 42
0.4142135623730968
 10
-0.0000000000001137
 20
-2.950972054112583
 42
0.0
 97
        0
 92
        7
 72
     1
 73
     1
 93
        3
 10
-0.0000000000001137
 20
2.950972054112638
 42
0.0
 10
-0.0000000000001137
 20
0.0
 42
0.0
 10
2.950972054112526
 20
0.0
 42
0.4142135623730966
 97
        0
 75
     0
 76
     1
 47
0.1190009775223266
 98
        2
 10
-0.7445530588121301
 20
-0.9212244733764125
 10
1.279464601852737
 20
1.696796923046345
  0
LWPOLYLINE
  5
1B3DB
330
1B3D7
100
AcDbEntity
  8
1
  6
ByBlock
370
    50
100
AcDbPolyline
 90
        3
 70
     1
 43
0.0
 10
-0.0000000000001137
 20
0.0
 10
2.950972054112526
 20
0.0
 42
0.4142135623730966
 10
-0.0000000000001137
 20
2.950972054112638
  0
LINE
  5
1B3DC
330
1B3D7
100
AcDbEntity
  8
1
  6
ByBlock
370
    50
100
AcDbLine
 10
-0.0000000000001137
 20
-2.950972054112583
 30
0.0
 11
-0.0000000000001137
 21
2.950972054112638
 31
0.0
  0
LWPOLYLINE
  5
1B3DD
330
1B3D7
100
AcDbEntity
  8
1
  6
ByBlock
370
    50
100
AcDbPolyline
 90
        3
 70
     1
 43
0.0
 10
-0.0000000000001137
 20
-2.950972054112583
 10
-0.0000000000001137
 20
0.0
 10
-2.950972054112752
 20
0.0
 42
0.4142135623730966
  0
LINE
  5
1B3DE
330
1B3D7
100
AcDbEntity
  8
1
  6
ByBlock
370
    50
100
AcDbLine
 10
2.950972054112638
 20
0.0
 30
0.0
 11
-2.950972054112638
 21
0.0
 31
0.0
  0
CIRCLE
  5
1B3DF
330
1B3D7
100
AcDbEntity
  8
1
  6
ByBlock
370
    50
100
AcDbCircle
 10
-0.0000000000001137
 20
0.0
 30
0.0
 40
2.950972054112601
  0
ENDBLK
  5
1B3D9
330
1B3D7
100
AcDbEntity
  8
0
100
AcDbBlockEnd
  0
BLOCK
  5
23451
330
23450
100
AcDbEntity
  8
0
100
AcDbBlockBegin
  2
*D1
 70
     1
 10
0.0
 20
0.0
 30
0.0
  3
*D1
  1

  0
LINE
  5
23584
330
23450
100
AcDbEntity
  8
2
 62
     0
370
    -2
100
AcDbLine
 10
0.0000000000000142
 20
6.541220125749994
 30
0.0
 11
0.0000000000000149
 21
18.1802446729
 31
0.0
  0
LINE
  5
23585
330
23450
100
AcDbEntity
  8
2
 62
     0
370
    -2
100
AcDbLine
 10
23.00000000000002
 20
6.541220125749994
 30
0.0
 11
23.00000000000002
 21
18.1802446729
 31
0.0
  0
LINE
  5
23586
330
23450
100
AcDbEntity
  8
2
 62
     0
370
    -2
100
AcDbLine
 10
2.500000000000015
 20
18.0002446729
 30
0.0
 11
20.50000000000002
 21
18.0002446729
 31
0.0
  0
SOLID
  5
23587
330
23450
100
AcDbEntity
  8
2
 62
     0
100
AcDbTrace
 10
2.500000000000015
 20
18.41691133956667
 30
0.0
 11
2.500000000000015
 21
17.58357800623333
 31
0.0
 12
0.0000000000000149
 22
18.0002446729
 32
0.0
 13
0.0000000000000149
 23
18.0002446729
 33
0.0
  0
SOLID
  5
23588
330
23450
100
AcDbEntity
  8
2
 62
     0
100
AcDbTrace
 10
20.50000000000002
 20
18.41691133956667
 30
0.0
 11
20.50000000000002
 21
17.58357800623333
 31
0.0
 12
23.00000000000002
 22
18.0002446729
 32
0.0
 13
23.00000000000002
 23
18.0002446729
 33
0.0
  0
MTEXT
  5
23589
330
23450
100
AcDbEntity
  8
2
 62
     0
100
AcDbMText
 10
11.50000000000001
 20
19.90173448316001
 30
0.0
 40
3.5
 41
0.0
 71
     5
 72
     1
  1
\A1;23
 73
     1
 44
1.0
1001
ACAD
1000
MTEXTBEGIN
1070
    73
1070
     1
1070
    44
1040
1.0
1070
    74
1070
     0
1000
MTEXTEND
  0
POINT
  5
2358A
330
23450
100
AcDbEntity
  8
Defpoints
 62
     0
100
AcDbPoint
 10
0.0000000000000142
 20
6.478720125749994
 30
0.0
  0
POINT
  5
2358B
330
23450
100
AcDbEntity
  8
Defpoints
 62
     0
100
AcDbPoint
 10
23.00000000000002
 20
6.478720125749994
 30
0.0
  0
POINT
  5
2358C
330
23450
100
AcDbEntity
  8
Defpoints
 62
     0
100
AcDbPoint
 10
23.00000000000002
 20
18.0002446729
 30
0.0
  0
ENDBLK
  5
23452
330
23450
100
AcDbEntity
  8
0
100
AcDbBlockEnd
  0
BLOCK
  5
2345D
330
2345C
100
AcDbEntity
  8
0
100
AcDbBlockBegin
  2
*D2
 70
     1
 10
0.0
 20
0.0
 30
0.0
  3
*D2
  1

  0
LINE
  5
2358D
330
2345C
100
AcDbEntity
  8
2
 62
     0
370
    -2
100
AcDbLine
 10
15.81250000000001
 20
-8.000000000000008
 30
0.0
 11
32.79262055583883
 21
-8.000000000000012
 31
0.0
  0
LINE
  5
2358E
330
2345C
100
AcDbEntity
  8
2
 62
     0
370
    -2
100
AcDbLine
 10
15.81250000000001
 20
7.999999999999992
 30
0.0
 11
32.79262055583883
 21
7.999999999999986
 31
0.0
  0
LINE
  5
2358F
330
2345C
100
AcDbEntity
  8
2
 62
     0
370
    -2
100
AcDbLine
 10
32.61262055583883
 20
-5.500000000000011
 30
0.0
 11
32.61262055583883
 21
5.499999999999988
 31
0.0
  0
SOLID
  5
23590
330
2345C
100
AcDbEntity
  8
2
 62
     0
100
AcDbTrace
 10
32.19595388917217
 20
-5.500000000000011
 30
0.0
 11
33.0292872225055
 21
-5.500000000000011
 31
0.0
 12
32.61262055583883
 22
-8.000000000000012
 32
0.0
 13
32.61262055583883
 23
-8.000000000000012
 33
0.0
  0
SOLID
  5
23591
330
2345C
100
AcDbEntity
  8
2
 62
     0
100
AcDbTrace
 10
32.19595388917217
 20
5.499999999999988
 30
0.0
 11
33.0292872225055
 21
5.499999999999988
 31
0.0
 12
32.61262055583883
 22
7.999999999999986
 32
0.0
 13
32.61262055583883
 23
7.999999999999986
 33
0.0
  0
MTEXT
  5
23592
330
2345C
100
AcDbEntity
  8
2
 62
     0
100
AcDbMText
 10
30.65947930496041
 20
0.1477604464131945
 30
0.0
 40
3.5
 41
0.0
 71
     5
 72
     1
  1
\A1;%%c16
 11
0.0000000000000001
 21
1.0
 31
0.0
 73
     1
 44
1.0
1001
ACAD
1000
MTEXTBEGIN
1070
    73
1070
     1
1070
    44
1040
1.0
1070
    74
1070
     0
1000
MTEXTEND
  0
POINT
  5
23593
330
2345C
100
AcDbEntity
  8
Defpoints
 62
     0
100
AcDbPoint
 10
15.75000000000001
 20
-8.000000000000008
 30
0.0
  0
POINT
  5
23594
330
2345C
100
AcDbEntity
  8
Defpoints
 62
     0
100
AcDbPoint
 10
15.75000000000001
 20
7.999999999999992
 30
0.0
  0
POINT
  5
23595
330
2345C
100
AcDbEntity
  8
Defpoints
 62
     0
100
AcDbPoint
 10
32.61262055583883
 20
7.999999999999986
 30
0.0
  0
ENDBLK
  5
2345E
330
2345C
100
AcDbEntity
  8
0
100
AcDbBlockEnd
  0
BLOCK
  5
23469
330
23468
100
AcDbEntity
  8
0
100
AcDbBlockBegin
  2
*D3
 70
     1
 10
0.0
 20
0.0
 30
0.0
  3
*D3
  1

  0
LINE
  5
23596
330
23468
100
AcDbEntity
  8
2
 62
     0
370
    -2
100
AcDbLine
 10
15.81250000000001
 20
-8.000000000000008
 30
0.0
 11
32.79262055583883
 21
-8.000000000000012
 31
0.0
  0
LINE
  5
23597
330
23468
100
AcDbEntity
  8
2
 62
     0
370
    -2
100
AcDbLine
 10
15.81250000000001
 20
7.999999999999992
 30
0.0
 11
32.79262055583883
 21
7.999999999999986
 31
0.0
  0
LINE
  5
23598
330
23468
100
AcDbEntity
  8
2
 62
     0
370
    -2
100
AcDbLine
 10
32.61262055583883
 20
-5.500000000000011
 30
0.0
 11
32.61262055583883
 21
5.499999999999988
 31
0.0
  0
SOLID
  5
23599
330
23468
100
AcDbEntity
  8
2
 62
     0
100
AcDbTrace
 10
32.19595388917217
 20
-5.500000000000011
 30
0.0
 11
33.0292872225055
 21
-5.500000000000011
 31
0.0
 12
32.61262055583883
 22
-8.000000000000012
 32
0.0
 13
32.61262055583883
 23
-8.000000000000012
 33
0.0
  0
SOLID
  5
2359A
330
23468
100
AcDbEntity
  8
2
 62
     0
100
AcDbTrace
 10
32.19595388917217
 20
5.499999999999988
 30
0.0
 11
33.0292872225055
 21
5.499999999999988
 31
0.0
 12
32.61262055583883
 22
7.999999999999986
 32
0.0
 13
32.61262055583883
 23
7.999999999999986
 33
0.0
  0
MTEXT
  5
2359B
330
23468
100
AcDbEntity
  8
2
 62
     0
100
AcDbMText
 10
30.65947930496041
 20
0.1477604464131945
 30
0.0
 40
3.5
 41
0.0
 71
     5
 72
     1
  1
\A1;%%c16
 11
0.0000000000000001
 21
1.0
 31
0.0
 73
     1
 44
1.0
1001
ACAD
1000
MTEXTBEGIN
1070
    73
1070
     1
1070
    44
1040
1.0
1070
    74
1070
     0
1000
MTEXTEND
  0
POINT
  5
2359C
330
23468
100
AcDbEntity
  8
Defpoints
 62
     0
100
AcDbPoint
 10
15.75000000000001
 20
-8.000000000000008
 30
0.0
  0
POINT
  5
2359D
330
23468
100
AcDbEntity
  8
Defpoints
 62
     0
100
AcDbPoint
 10
15.75000000000001
 20
7.999999999999992
 30
0.0
  0
POINT
  5
2359E
330
23468
100
AcDbEntity
  8
Defpoints
 62
     0
100
AcDbPoint
 10
32.61262055583883
 20
7.999999999999986
 30
0.0
  0
ENDBLK
  5
2346A
330
23468
100
AcDbEntity
  8
0
100
AcDbBlockEnd
  0
BLOCK
  5
234B9
330
234B8
100
AcDbEntity
  8
0
100
AcDbBlockBegin
  2
*D4
 70
     1
 10
0.0
 20
0.0
 30
0.0
  3
*D4
  1

  0
LINE
  5
2359F
330
234B8
100
AcDbEntity
  8
SK2
 62
     0
370
    -2
100
AcDbLine
 10
-17.8
 20
3.023269515449988
 30
0.0
 11
-17.8
 21
17.52769486026649
 31
0.0
  0
LINE
  5
235A0
330
234B8
100
AcDbEntity
  8
SK2
 62
     0
370
    -2
100
AcDbLine
 10
-0.0000000000000426
 20
6.262499999999938
 30
0.0
 11
-0.0000000000000419
 21
17.52769486026649
 31
0.0
  0
LINE
  5
235A1
330
234B8
100
AcDbEntity
  8
SK2
 62
     0
370
    -2
100
AcDbLine
 10
-15.3
 20
17.34769486026649
 30
0.0
 11
-2.500000000000041
 21
17.34769486026649
 31
0.0
  0
SOLID
  5
235A2
330
234B8
100
AcDbEntity
  8
SK2
 62
     0
100
AcDbTrace
 10
-15.3
 20
17.76436152693316
 30
0.0
 11
-15.3
 21
16.93102819359982
 31
0.0
 12
-17.8
 22
17.34769486026649
 32
0.0
 13
-17.8
 23
17.34769486026649
 33
0.0
  0
SOLID
  5
235A3
330
234B8
100
AcDbEntity
  8
SK2
 62
     0
100
AcDbTrace
 10
-2.500000000000041
 20
17.76436152693316
 30
0.0
 11
-2.500000000000041
 21
16.93102819359982
 31
0.0
 12
-0.0000000000000419
 22
17.34769486026649
 32
0.0
 13
-0.0000000000000419
 23
17.34769486026649
 33
0.0
  0
MTEXT
  5
235A4
330
234B8
100
AcDbEntity
  8
SK2
 62
     0
100
AcDbMText
 10
-8.900000000000019
 20
19.2491846705265
 30
0.0
 40
3.5
 41
0.0
 71
     5
 72
     1
  1
\A1;17.8
 73
     1
 44
1.0
1001
ACAD
1000
MTEXTBEGIN
1070
    73
1070
     1
1070
    44
1040
1.0
1070
    74
1070
     0
1000
MTEXTEND
  0
POINT
  5
235A5
330
234B8
100
AcDbEntity
  8
Defpoints
 62
     0
100
AcDbPoint
 10
-17.8
 20
2.960769515449988
 30
0.0
  0
POINT
  5
235A6
330
234B8
100
AcDbEntity
  8
Defpoints
 62
     0
100
AcDbPoint
 10
-0.0000000000000426
 20
6.199999999999938
 30
0.0
  0
POINT
  5
235A7
330
234B8
100
AcDbEntity
  8
Defpoints
 62
     0
100
AcDbPoint
 10
-0.0000000000000419
 20
17.34769486026649
 30
0.0
  0
ENDBLK
  5
234BA
330
234B8
100
AcDbEntity
  8
0
100
AcDbBlockEnd
  0
BLOCK
  5
234E1
330
234E0
100
AcDbEntity
  8
0
100
AcDbBlockBegin
  2
*D5
 70
     1
 10
0.0
 20
0.0
 30
0.0
  3
*D5
  1

  0
LINE
  5
235A8
330
234E0
100
AcDbEntity
  8
SK2
 62
     0
370
    -2
100
AcDbLine
 10
0.2374999999999119
 20
6.499999999999992
 30
0.0
 11
-34.99366682054783
 21
6.500000000000002
 31
0.0
  0
LINE
  5
235A9
330
234E0
100
AcDbEntity
  8
SK2
 62
     0
370
    -2
100
AcDbLine
 10
0.2374999999999687
 20
-6.500000000000007
 30
0.0
 11
-34.99366682054783
 21
-6.499999999999997
 31
0.0
  0
LINE
  5
235AA
330
234E0
100
AcDbEntity
  8
SK2
 62
     0
370
    -2
100
AcDbLine
 10
-34.81366682054782
 20
4.000000000000001
 30
0.0
 11
-34.81366682054782
 21
-3.999999999999996
 31
0.0
  0
SOLID
  5
235AB
330
234E0
100
AcDbEntity
  8
SK2
 62
     0
100
AcDbTrace
 10
-35.2303334872145
 20
4.000000000000001
 30
0.0
 11
-34.39700015388116
 21
4.000000000000001
 31
0.0
 12
-34.81366682054782
 22
6.500000000000002
 32
0.0
 13
-34.81366682054782
 23
6.500000000000002
 33
0.0
  0
SOLID
  5
235AC
330
234E0
100
AcDbEntity
  8
SK2
 62
     0
100
AcDbTrace
 10
-35.2303334872145
 20
-3.999999999999996
 30
0.0
 11
-34.39700015388116
 21
-3.999999999999996
 31
0.0
 12
-34.81366682054782
 22
-6.499999999999997
 32
0.0
 13
-34.81366682054782
 23
-6.499999999999997
 33
0.0
  0
MTEXT
  5
235AD
330
234E0
100
AcDbEntity
  8
SK2
 62
     0
100
AcDbMText
 10
-36.76680807142625
 20
-0.000000000000003
 30
0.0
 40
3.5
 41
0.0
 71
     5
 72
     1
  1
\A1;%%C13
 11
0.0000000000000001
 21
1.0
 31
0.0
 73
     1
 44
1.0
1001
ACAD
1000
MTEXTBEGIN
1070
    73
1070
     1
1070
    44
1040
1.0
1070
    74
1070
     0
1000
MTEXTEND
  0
POINT
  5
235AE
330
234E0
100
AcDbEntity
  8
Defpoints
 62
     0
100
AcDbPoint
 10
0.2999999999999119
 20
6.499999999999992
 30
0.0
  0
POINT
  5
235AF
330
234E0
100
AcDbEntity
  8
Defpoints
 62
     0
100
AcDbPoint
 10
0.2999999999999687
 20
-6.500000000000007
 30
0.0
  0
POINT
  5
235B0
330
234E0
100
AcDbEntity
  8
Defpoints
 62
     0
100
AcDbPoint
 10
-34.81366682054782
 20
-6.499999999999997
 30
0.0
  0
ENDBLK
  5
234E2
330
234E0
100
AcDbEntity
  8
0
100
AcDbBlockEnd
  0
BLOCK
  5
234EE
330
234ED
100
AcDbEntity
  8
0
100
AcDbBlockBegin
  2
*D6
 70
     1
 10
0.0
 20
0.0
 30
0.0
  3
*D6
  1

  0
LINE
  5
235B1
330
234ED
100
AcDbEntity
  8
SK2
 62
     0
370
    -2
100
AcDbLine
 10
-17.26250000000003
 20
3.999999999999991
 30
0.0
 11
-25.66727167190633
 21
3.999999999999995
 31
0.0
  0
LINE
  5
235B2
330
234ED
100
AcDbEntity
  8
SK2
 62
     0
370
    -2
100
AcDbLine
 10
-17.26250000000003
 20
-4.000000000000006
 30
0.0
 11
-25.66727167190633
 21
-4.000000000000004
 31
0.0
  0
LINE
  5
235B3
330
234ED
100
AcDbEntity
  8
SK2
 62
     0
370
    -2
100
AcDbLine
 10
-25.48727167190633
 20
1.499999999999993
 30
0.0
 11
-25.48727167190633
 21
-1.500000000000004
 31
0.0
  0
SOLID
  5
235B4
330
234ED
100
AcDbEntity
  8
SK2
 62
     0
100
AcDbTrace
 10
-25.903938338573
 20
1.499999999999995
 30
0.0
 11
-25.07060500523966
 21
1.499999999999993
 31
0.0
 12
-25.48727167190633
 22
3.999999999999995
 32
0.0
 13
-25.48727167190633
 23
3.999999999999995
 33
0.0
  0
SOLID
  5
235B5
330
234ED
100
AcDbEntity
  8
SK2
 62
     0
100
AcDbTrace
 10
-25.903938338573
 20
-1.500000000000003
 30
0.0
 11
-25.07060500523966
 21
-1.500000000000004
 31
0.0
 12
-25.48727167190633
 22
-4.000000000000004
 32
0.0
 13
-25.48727167190633
 23
-4.000000000000004
 33
0.0
  0
MTEXT
  5
235B6
330
234ED
100
AcDbEntity
  8
SK2
 62
     0
100
AcDbMText
 10
-27.44041292278475
 20
-0.0000000000000084
 30
0.0
 40
3.5
 41
0.0
 71
     5
 72
     1
  1
\A1;%%C8
 11
0.0000000000000001
 21
1.0
 31
0.0
 73
     1
 44
1.0
1001
ACAD
1000
MTEXTBEGIN
1070
    73
1070
     1
1070
    44
1040
1.0
1070
    74
1070
     0
1000
MTEXTEND
  0
POINT
  5
235B7
330
234ED
100
AcDbEntity
  8
Defpoints
 62
     0
100
AcDbPoint
 10
-17.20000000000003
 20
3.999999999999991
 30
0.0
  0
POINT
  5
235B8
330
234ED
100
AcDbEntity
  8
Defpoints
 62
     0
100
AcDbPoint
 10
-17.20000000000003
 20
-4.000000000000006
 30
0.0
  0
POINT
  5
235B9
330
234ED
100
AcDbEntity
  8
Defpoints
 62
     0
100
AcDbPoint
 10
-25.48727167190633
 20
-4.000000000000004
 30
0.0
  0
ENDBLK
  5
234EF
330
234ED
100
AcDbEntity
  8
0
100
AcDbBlockEnd
  0
BLOCK
  5
23608
330
23607
100
AcDbEntity
  8
0
100
AcDbBlockBegin
  2
_ARROW_FILLED
 70
     0
 10
0.0
 20
0.0
 30
0.0
  3
_ARROW_FILLED
  1

  0
SOLID
  5
23609
330
23607
100
AcDbEntity
  8
0
  6
ByBlock
 62
     0
100
AcDbTrace
 10
0.0
 20
0.0
 30
0.0
 11
-1.0
 21
0.132
 31
0.0
 12
-1.0
 22
-0.132
 32
0.0
 13
-1.0
 23
-0.132
 33
0.0
  0
ENDBLK
  5
2360A
330
23607
100
AcDbEntity
  8
0
  6
ByBlock
 62
     0
100
AcDbBlockEnd
  0
ENDSEC
  0
SECTION
  2
ENTITIES
  0
INSERT
  5
22850
330
1F
100
AcDbEntity
  8
1
100
AcDbBlockReference
  2
cero_point
 10
0.0000000000000711
 20
-0.0000000000000071
 30
0.0
 41
0.5
 42
0.5
 43
0.5
  0
LINE
  5
22851
330
1F
100
AcDbEntity
  8
INFTOTAL
370
    18
100
AcDbLine
 10
55.1474255177759
 20
-30.97663342000372
 30
0.0
 11
55.1474255177759
 21
-5.654453350445628
 31
0.0
  0
LINE
  5
22852
330
1F
100
AcDbEntity
  8
INFTOTAL
370
    18
100
AcDbLine
 10
-57.80973282713225
 20
32.93233569322833
 30
0.0
 11
-29.49401880012634
 21
32.93233569322833
 31
0.0
  0
LINE
  5
22853
330
1F
100
AcDbEntity
  8
INFTOTAL
370
    18
100
AcDbLine
 10
28.9998298484645
 20
-30.97663342000372
 30
0.0
 11
55.1474255177759
 21
-30.97663342000372
 31
0.0
  0
LINE
  5
22854
330
1F
100
AcDbEntity
  8
INFTOTAL
370
    18
100
AcDbLine
 10
-57.80973282713225
 20
7.013270052999692
 30
0.0
 11
-57.80973282713225
 21
32.93233569322829
 31
0.0
  0
MTEXT
  5
22855
330
1F
100
AcDbEntity
  8
SK6
100
AcDbMText
 10
-1.646291514769912
 20
-22.46180235409512
 30
0.0
 40
3.5
 41
41.87058589293636
 71
     2
 72
     1
  1
12L8J016023X5R00
 73
     1
 44
1.0
1001
ACAD
1000
MTEXTBEGIN
1070
    73
1070
     1
1070
    44
1040
1.0
1070
    74
1070
     0
1000
MTEXTEND
  0
LINE
  5
231A8
330
1F
100
AcDbEntity
  8
3
100
AcDbLine
 10
-17.19378221735
 20
1.399999999999997
 30
0.0
 11
-17.19378221735
 21
-1.400000000000011
 31
0.0
  0
LINE
  5
231AC
330
1F
100
AcDbEntity
  8
3
100
AcDbLine
 10
-17.8
 20
-1.750000000000006
 30
0.0
 11
-17.19378221735
 21
-1.400000000000011
 31
0.0
  0
LINE
  5
231AE
330
1F
100
AcDbEntity
  8
3
100
AcDbLine
 10
-17.8
 20
1.749999999999992
 30
0.0
 11
-17.19378221735
 21
1.399999999999997
 31
0.0
  0
LINE
  5
231C3
330
1F
100
AcDbEntity
  8
3
100
AcDbLine
 10
5.200000000000001
 20
-1.400000000000011
 30
0.0
 11
-17.19378221735
 21
-1.400000000000011
 31
0.0
  0
LINE
  5
231C9
330
1F
100
AcDbEntity
  8
3
100
AcDbLine
 10
5.200000000000001
 20
1.399999999999997
 30
0.0
 11
-17.19378221735
 21
1.399999999999997
 31
0.0
  0
LINE
  5
231CA
330
1F
100
AcDbEntity
  8
3
100
AcDbLine
 10
5.200000000000001
 20
1.399999999999997
 30
0.0
 11
5.200000000000001
 21
-1.400000000000011
 31
0.0
  0
LINE
  5
231CB
330
1F
100
AcDbEntity
  8
3
100
AcDbLine
 10
5.709558327950005
 20
-0.0000000000000071
 30
0.0
 11
5.200000000000001
 21
-1.400000000000011
 31
0.0
  0
LINE
  5
231D1
330
1F
100
AcDbEntity
  8
3
100
AcDbLine
 10
5.709558327950005
 20
-0.0000000000000071
 30
0.0
 11
5.200000000000001
 21
1.399999999999997
 31
0.0
  0
DIMENSION
  5
23365
330
1F
100
AcDbEntity
  8
2
100
AcDbDimension
  2
*D1
 10
23.00000000000002
 20
18.0002446729
 30
0.0
 11
11.50000000000001
 21
18.0002446729
 31
0.0
 70
   160
 71
     5
 42
23.0
  3
STANDARD
100
AcDbAlignedDimension
 13
0.0000000000000142
 23
6.478720125749994
 33
0.0
 14
23.00000000000002
 24
6.478720125749994
 34
0.0
100
AcDbRotatedDimension
1001
ACAD
1000
DSTYLE
1002
{
1070
    41
1040
2.5
1002
}
  0
DIMENSION
  5
23366
330
1F
100
AcDbEntity
  8
2
100
AcDbDimension
  2
*D2
 10
32.61262055583883
 20
7.999999999999986
 30
0.0
 11
32.61262055583883
 21
0.1477604464131943
 31
0.0
 70
   160
  1
%%c<>
 71
     5
 42
16.0
  3
STANDARD
100
AcDbAlignedDimension
 13
15.75000000000001
 23
-8.000000000000008
 33
0.0
 14
15.75000000000001
 24
7.999999999999992
 34
0.0
 50
90.0
100
AcDbRotatedDimension
1001
ACAD
1000
DSTYLE
1002
{
1070
    41
1040
2.5
1002
}
  0
DIMENSION
  5
23367
330
1F
100
AcDbEntity
  8
2
100
AcDbDimension
  2
*D3
 10
32.61262055583883
 20
7.999999999999986
 30
0.0
 11
32.61262055583883
 21
0.1477604464131943
 31
0.0
 70
   160
  1
%%c<>
 71
     5
 42
16.0
  3
STANDARD
100
AcDbAlignedDimension
 13
15.75000000000001
 23
-8.000000000000008
 33
0.0
 14
15.75000000000001
 24
7.999999999999992
 34
0.0
 50
90.0
100
AcDbRotatedDimension
1001
ACAD
1000
DSTYLE
1002
{
1070
    41
1040
2.5
1002
}
  0
LINE
  5
23368
330
1F
100
AcDbEntity
  8
1
100
AcDbLine
 10
22.36677933795001
 20
1.191326677199987
 30
0.0
 11
22.36538615085
 21
1.178426195999995
 31
0.0
  0
LINE
  5
23369
330
1F
100
AcDbEntity
  8
1
100
AcDbLine
 10
22.36812024325003
 20
1.204333256549992
 30
0.0
 11
22.36677933795001
 21
1.191326677199987
 31
0.0
  0
LINE
  5
2336A
330
1F
100
AcDbEntity
  8
1
100
AcDbLine
 10
22.36918996049999
 20
1.215263038799981
 30
0.0
 11
22.36812024325003
 21
1.204333256549992
 31
0.0
  0
LINE
  5
2336B
330
1F
100
AcDbEntity
  8
1
100
AcDbLine
 10
22.37000876025003
 20
1.224072099999979
 30
0.0
 11
22.36918996049999
 21
1.215263038799981
 31
0.0
  0
LINE
  5
2336C
330
1F
100
AcDbEntity
  8
1
100
AcDbLine
 10
22.37078860944997
 20
1.232943720799986
 30
0.0
 11
22.37000876025003
 21
1.224072099999979
 31
0.0
  0
LINE
  5
2336D
330
1F
100
AcDbEntity
  8
1
100
AcDbLine
 10
22.37134387570002
 20
1.239640832599995
 30
0.0
 11
22.37078860944997
 21
1.232943720799986
 31
0.0
  0
LINE
  5
2336E
330
1F
100
AcDbEntity
  8
1
100
AcDbLine
 10
22.37186968670001
 20
1.246376928899983
 30
0.0
 11
22.37134387570002
 21
1.239640832599995
 31
0.0
  0
LINE
  5
2336F
330
1F
100
AcDbEntity
  8
1
100
AcDbLine
 10
22.37236151719999
 20
1.253153478299985
 30
0.0
 11
22.37186968670001
 21
1.246376928899983
 31
0.0
  0
LINE
  5
23370
330
1F
100
AcDbEntity
  8
1
100
AcDbLine
 10
22.37266792904997
 20
1.257694291650004
 30
0.0
 11
22.37236151719999
 21
1.253153478299985
 31
0.0
  0
LINE
  5
23371
330
1F
100
AcDbEntity
  8
1
100
AcDbLine
 10
22.37295445215001
 20
1.262254013299987
 30
0.0
 11
22.37266792904997
 21
1.257694291650004
 31
0.0
  0
LINE
  5
23372
330
1F
100
AcDbEntity
  8
1
100
AcDbLine
 10
22.37321928565002
 20
1.266832828999987
 30
0.0
 11
22.37295445215001
 21
1.262254013299987
 31
0.0
  0
LINE
  5
23373
330
1F
100
AcDbEntity
  8
1
100
AcDbLine
 10
22.37345952910001
 20
1.271430981299978
 30
0.0
 11
22.37321928565002
 21
1.266832828999987
 31
0.0
  0
LINE
  5
23374
330
1F
100
AcDbEntity
  8
1
100
AcDbLine
 10
22.373671125
 20
1.2760484884
 30
0.0
 11
22.37345952910001
 21
1.271430981299978
 31
0.0
  0
LINE
  5
23375
330
1F
100
AcDbEntity
  8
1
100
AcDbLine
 10
22.37385092960001
 20
1.280685275149983
 30
0.0
 11
22.373671125
 21
1.2760484884
 31
0.0
  0
LINE
  5
23376
330
1F
100
AcDbEntity
  8
1
100
AcDbLine
 10
22.2
 20
-1.692825515200005
 30
0.0
 11
22.2
 21
-6.197207024750007
 31
0.0
  0
LINE
  5
23377
330
1F
100
AcDbEntity
  8
1
100
AcDbLine
 10
22.2
 20
1.692860791949988
 30
0.0
 11
22.2
 21
6.199968435400003
 31
0.0
  0
LWPOLYLINE
  5
23378
330
1F
100
AcDbEntity
  8
1
100
AcDbPolyline
 90
       36
 70
     0
 43
0.0
 10
22.1999975568
 20
6.051932898599991
 10
22.19957899589998
 20
6.075647928449987
 10
22.19803358765002
 20
6.103670488549987
 10
22.1953544938
 20
6.131438892649986
 10
22.19153554604999
 20
6.158998890200003
 10
22.18658962455
 20
6.186326279649995
 10
22.18050403960003
 20
6.21347870329999
 10
22.17329148090001
 20
6.240398518749991
 10
22.16500289764999
 20
6.266888597349996
 10
22.15562093230001
 20
6.292947038149995
 10
22.14516294245
 20
6.318575742049992
 10
22.13373194999999
 20
6.343583282999977
 10
22.12134574485005
 20
6.367920088399991
 10
22.10798653715001
 20
6.391635730849976
 10
22.09370397885
 20
6.414687502199987
 10
22.07849639209998
 20
6.437086286499981
 10
22.06236545474998
 20
6.458821199699991
 10
22.04536585270002
 20
6.479816881650003
 10
22.02746775474999
 20
6.500096820849982
 10
22.0087009921
 20
6.519637528849989
 10
21.98920974404997
 20
6.538293179849992
 10
21.96899346030001
 20
6.556044975650002
 10
21.94805269109999
 20
6.572911714449992
 10
21.92653326680002
 20
6.588803965349987
 10
21.90448122095002
 20
6.603692136849992
 10
21.88185052000001
 20
6.617605820449987
 10
21.85864889325002
 20
6.630544359749996
 10
21.83483251065003
 20
6.642534583199995
 10
21.81044520219997
 20
6.653549662399988
 10
21.78562618770003
 20
6.66350845579999
 10
21.76035323165003
 20
6.672403975049981
 10
21.73464856944999
 20
6.680243208549986
 10
21.70871812730004
 20
6.686965979849992
 10
21.68263054715
 20
6.692552230199999
 10
21.65631718704999
 20
6.697022018399996
 10
21.62977804695
 20
6.700375344399994
  0
LWPOLYLINE
  5
23379
330
1F
100
AcDbEntity
  8
1
100
AcDbPolyline
 90
       26
 70
     0
 43
0.0
 10
22.99318890525002
 20
-1.2592180974
 10
22.99363349975001
 20
-1.26171094215001
 10
22.99362294505001
 20
-1.271063978150017
 10
22.99094734625
 20
-1.279802676800009
 10
22.98575183679999
 20
-1.287946969449997
 10
22.97815813110005
 20
-1.295549497300008
 10
22.96829494384998
 20
-1.302594220150004
 10
22.95628032100002
 20
-1.309064586600007
 10
22.9421667145
 20
-1.315023878950007
 10
22.92605327114997
 20
-1.320472628750003
 10
22.90803070415002
 20
-1.325386409449997
 10
22.88807592920001
 20
-1.329806694700002
 10
22.86626036290002
 20
-1.333743751749999
 10
22.84265076395003
 20
-1.337174629850018
 10
22.81715882114999
 20
-1.340107326749992
 10
22.78983317395002
 20
-1.342558279500018
 10
22.76072578390001
 20
-1.344509486350013
 10
22.72970519405
 20
-1.345932748950012
 10
22.69680928294999
 20
-1.346846675800001
 10
22.66208490635002
 20
-1.34723964785001
 10
22.62537894344998
 20
-1.347051697099991
 10
22.58669898320001
 20
-1.346294252700012
 10
22.54613065219998
 20
-1.344968069500019
 10
22.50362504240003
 20
-1.343004894550013
 10
22.45921208245001
 20
-1.3403846422
 10
22.42507996539997
 20
-1.337981385400019
  0
LINE
  5
2337A
330
1F
100
AcDbEntity
  8
1
100
AcDbLine
 10
22.99292410045003
 20
-1.258005808900001
 30
0.0
 11
22.71774892930002
 21
-0.0000000000000071
 31
0.0
  0
LINE
  5
2337B
330
1F
100
AcDbEntity
  8
1
100
AcDbLine
 10
22.42507996539997
 20
1.337981385400005
 30
0.0
 11
22.35033079255
 21
1.679708777499989
 31
0.0
  0
LINE
  5
2337C
330
1F
100
AcDbEntity
  8
1
100
AcDbLine
 10
22.99292410045003
 20
1.258005808899987
 30
0.0
 11
22.35033079255
 21
-1.679708777500003
 31
0.0
  0
LWPOLYLINE
  5
2337D
330
1F
100
AcDbEntity
  8
1
100
AcDbPolyline
 90
       27
 70
     0
 43
0.0
 10
22.99318890525002
 20
1.259218097399987
 10
22.99363349975001
 20
1.261710942149995
 10
22.99362294505001
 20
1.271063978150003
 10
22.99094734625
 20
1.279802676799995
 10
22.98575183679999
 20
1.287946969449983
 10
22.97815813110005
 20
1.295549497299994
 10
22.96829494384998
 20
1.30259422014999
 10
22.95628032100002
 20
1.309064586599994
 10
22.9421667145
 20
1.315023878949993
 10
22.92605327114997
 20
1.320472628749989
 10
22.90803070415002
 20
1.325386409449982
 10
22.88807592920001
 20
1.329806694699988
 10
22.86626036290002
 20
1.333743751749985
 10
22.84265076395003
 20
1.337174629850004
 10
22.81715882114999
 20
1.340107326749979
 10
22.78983317395002
 20
1.342558279500002
 10
22.76072578390001
 20
1.344509486349998
 10
22.72970519405
 20
1.345932748949997
 10
22.69680928294999
 20
1.346846675799987
 10
22.66208490635002
 20
1.347239647849995
 10
22.62537894344998
 20
1.347051697099977
 10
22.58669898320001
 20
1.346294252699997
 10
22.54613065219998
 20
1.344968069500005
 10
22.50362504240003
 20
1.343004894549998
 10
22.45921208245001
 20
1.340384642199984
 10
22.41300956659997
 20
1.337131503499995
 10
22.36511185979999
 20
1.333242781599984
  0
LINE
  5
2337E
330
1F
100
AcDbEntity
  8
1
100
AcDbLine
 10
22.11751773570002
 20
-0.371178305800008
 30
0.0
 11
21.88100049200001
 21
-1.720324618850006
 31
0.0
  0
LINE
  5
2337F
330
1F
100
AcDbEntity
  8
1
100
AcDbLine
 10
22.2133837697
 20
0.1906858219999989
 30
0.0
 11
22.11751773570002
 21
-0.371178305800008
 31
0.0
  0
LINE
  5
23380
330
1F
100
AcDbEntity
  8
1
100
AcDbLine
 10
22.26392468090002
 20
0.4951285665500011
 30
0.0
 11
22.2133837697
 21
0.1906858219999989
 31
0.0
  0
LINE
  5
23381
330
1F
100
AcDbEntity
  8
1
100
AcDbLine
 10
22.29428299439998
 20
0.6833044160499853
 30
0.0
 11
22.26392468090002
 21
0.4951285665500011
 31
0.0
  0
LINE
  5
23382
330
1F
100
AcDbEntity
  8
1
100
AcDbLine
 10
22.31490012154997
 20
0.8150561710499815
 30
0.0
 11
22.29428299439998
 21
0.6833044160499853
 31
0.0
  0
LINE
  5
23383
330
1F
100
AcDbEntity
  8
1
100
AcDbLine
 10
22.32994856559999
 20
0.9145222208999895
 30
0.0
 11
22.31490012154997
 21
0.8150561710499815
 31
0.0
  0
LINE
  5
23384
330
1F
100
AcDbEntity
  8
1
100
AcDbLine
 10
22.34250407144999
 20
1.001043767000004
 30
0.0
 11
22.32994856559999
 21
0.9145222208999895
 31
0.0
  0
LINE
  5
23385
330
1F
100
AcDbEntity
  8
1
100
AcDbLine
 10
22.34826937430002
 20
1.042420927900002
 30
0.0
 11
22.34250407144999
 21
1.001043767000004
 31
0.0
  0
LINE
  5
23386
330
1F
100
AcDbEntity
  8
1
100
AcDbLine
 10
22.35301453565002
 20
1.0776315429
 30
0.0
 11
22.34826937430002
 21
1.042420927900002
 31
0.0
  0
LINE
  5
23387
330
1F
100
AcDbEntity
  8
1
100
AcDbLine
 10
22.35679930390002
 20
1.106735665349994
 30
0.0
 11
22.35301453565002
 21
1.0776315429
 31
0.0
  0
LINE
  5
23388
330
1F
100
AcDbEntity
  8
1
100
AcDbLine
 10
22.35968289270001
 20
1.129729459449982
 30
0.0
 11
22.35679930390002
 21
1.106735665349994
 31
0.0
  0
LINE
  5
23389
330
1F
100
AcDbEntity
  8
1
100
AcDbLine
 10
22.36222369719998
 20
1.150777354599987
 30
0.0
 11
22.35968289270001
 21
1.129729459449982
 31
0.0
  0
LINE
  5
2338A
330
1F
100
AcDbEntity
  8
1
100
AcDbLine
 10
22.36419106605003
 20
1.167747331149989
 30
0.0
 11
22.36222369719998
 21
1.150777354599987
 31
0.0
  0
LINE
  5
2338B
330
1F
100
AcDbEntity
  8
1
100
AcDbLine
 10
22.36538615085
 20
1.178426195999995
 30
0.0
 11
22.36419106605003
 21
1.167747331149989
 31
0.0
  0
LWPOLYLINE
  5
2338C
330
1F
100
AcDbEntity
  8
1
100
AcDbPolyline
 90
        9
 70
     0
 43
0.0
 10
21.14781463295004
 20
2.474026120949979
 10
21.1505662437
 20
2.525271688749988
 10
21.15513981235002
 20
2.576382769099986
 10
21.1615473303
 20
2.627419712349997
 10
21.16977680620001
 20
2.678322168099988
 10
21.1797922661
 20
2.728909085399997
 10
21.1915817186
 20
2.779120113899984
 10
21.20515715504998
 20
2.82901560394999
 10
21.22051857550004
 20
2.878595555549998
  0
LINE
  5
2338D
330
1F
100
AcDbEntity
  8
1
100
AcDbLine
 10
21.14688498015
 20
2.422646065699985
 30
0.0
 11
21.14781463295004
 21
2.474026120949979
 31
0.0
  0
LINE
  5
2338E
330
1F
100
AcDbEntity
  8
1
100
AcDbLine
 10
21.14688498015
 20
1.226647818249992
 30
0.0
 11
21.14688498015
 21
2.422646065699985
 31
0.0
  0
LINE
  5
233A5
330
1F
100
AcDbEntity
  8
1
100
AcDbLine
 10
21.97005300000002
 20
2.844681000000001
 30
0.0
 11
21.98154000000001
 21
2.883725999999988
 31
0.0
  0
LWPOLYLINE
  5
233AC
330
1F
100
AcDbEntity
  8
1
100
AcDbPolyline
 90
       17
 70
     0
 43
0.0
 10
19.24930056225004
 20
-5.419650061399997
 10
19.2466564358
 20
-5.399200783450004
 10
19.24021632184998
 20
-5.361256235900007
 10
19.23178362164999
 20
-5.323162399050011
 10
19.22135578580004
 20
-5.284966118899993
 10
19.20891524449998
 20
-5.246608949550001
 10
19.19448049360001
 20
-5.208153092450012
 10
19.17807784385003
 20
-5.169829347450011
 10
19.15970700835
 20
-5.131609233200001
 10
19.13938833384999
 20
-5.093522863449996
 10
19.11718366700002
 20
-5.055888408649998
 10
19.09311242759999
 20
-5.018689103650012
 10
19.0672055715
 20
-4.9819397889
 10
19.03955488470002
 20
-4.946004502400008
 10
19.01022019655001
 20
-4.911002417900014
 10
18.97922480030003
 20
-4.876808419950016
 10
18.94661537599997
 20
-4.843418900150004
  0
LINE
  5
233AD
330
1F
100
AcDbEntity
  8
1
100
AcDbLine
 10
21.22051857550004
 20
2.878595555549998
 30
0.0
 11
21.86152336810001
 21
4.826434633599994
 31
0.0
  0
LINE
  5
233AE
330
1F
100
AcDbEntity
  8
1
100
AcDbLine
 10
22.17008635190003
 20
5.850886387249992
 30
0.0
 11
22.02402871185002
 21
5.368004146899997
 31
0.0
  0
LINE
  5
233AF
330
1F
100
AcDbEntity
  8
1
100
AcDbLine
 10
22.02402871185002
 20
5.368004146899997
 30
0.0
 11
21.9239446758
 21
5.035089625299995
 31
0.0
  0
LINE
  5
233B0
330
1F
100
AcDbEntity
  8
1
100
AcDbLine
 10
21.9239446758
 20
5.035089625299995
 30
0.0
 11
21.86152336810001
 21
4.826434633599994
 31
0.0
  0
LWPOLYLINE
  5
233B1
330
1F
100
AcDbEntity
  8
1
100
AcDbPolyline
 90
        9
 70
     0
 43
0.0
 10
22.17008635190003
 20
5.850886387249992
 10
22.17783643015004
 20
5.878468645499984
 10
22.18442864470002
 20
5.906234843899986
 10
22.18986299555004
 20
5.934184982449997
 10
22.19414394105003
 20
5.962396026650004
 10
22.19726702280004
 20
5.990791010949982
 10
22.19921886584997
 20
6.019139038949993
 10
22.19998455025002
 20
6.047416961900005
 10
22.1999975568
 20
6.051932898599991
  0
LWPOLYLINE
  5
233B2
330
1F
100
AcDbEntity
  8
1
100
AcDbPolyline
 90
       17
 70
     0
 43
0.0
 10
17.17370660085
 20
-5.752341402600003
 10
17.1792123858
 20
-5.790085070100013
 10
17.18650465595
 20
-5.825131406350003
 10
17.19568939335001
 20
-5.858910227100003
 10
17.20671104040004
 20
-5.891395712250008
 10
17.21951698570002
 20
-5.922595561849994
 10
17.23404297125002
 20
-5.952512015849996
 10
17.25021906880001
 20
-5.981110840400012
 10
17.26796947125002
 20
-6.008376318850003
 10
17.28723413485001
 20
-6.034336920950003
 10
17.30796952699997
 20
-6.059024477450016
 10
17.33012592665001
 20
-6.082454154899996
 10
17.35362430425
 20
-6.104623150400022
 10
17.37837750475002
 20
-6.125536428150005
 10
17.40430648275004
 20
-6.145200822350012
 10
17.43134492424998
 20
-6.163624451300002
 10
17.45942010919999
 20
-6.180814928950005
  0
LWPOLYLINE
  5
233B3
330
1F
100
AcDbEntity
  8
1
100
AcDbPolyline
 90
       35
 70
     0
 43
0.0
 10
14.13797589495
 20
0.5924360577999935
 10
14.13789097580003
 20
0.5932725452000014
 10
14.13780985385001
 20
0.594109771200003
 10
14.1377327144
 20
0.5949462783499869
 10
14.13766064105
 20
0.5957784339999891
 10
14.13759360159999
 20
0.5966068369000013
 10
14.13753162815
 20
0.5974308882999893
 10
14.13747590050003
 20
0.5982451596499985
 10
14.13742648150004
 20
0.5990495232999891
 10
14.13738330824999
 20
0.5998441069499947
 10
14.13734737195001
 20
0.6006238645999887
 10
14.13731875924999
 20
0.6013887552499924
 10
14.13729738345002
 20
0.6021388199500067
 10
14.13728397529998
 20
0.6028691357999989
 10
14.13727862445002
 20
0.6035788683499776
 10
14.13728124135004
 20
0.6042688520499909
 10
14.13729228765
 20
0.6049366670499908
 10
14.13731155680001
 20
0.6055802679000025
 10
14.13733925545001
 20
0.6062017000499865
 10
14.13737646490001
 20
0.6068046800499829
 10
14.1374222559
 20
0.6073879187999795
 10
14.13747755780004
 20
0.6079527054499963
 10
14.13754623945
 20
0.6085066234999986
 10
14.13762653245
 20
0.6090520384499813
 10
14.13772020525
 20
0.6095865848499999
 10
14.13783643224998
 20
0.6101107500499908
 10
14.13797494490002
 20
0.6106336245999771
 10
14.1381360118
 20
0.6111461180999882
 10
14.13832961340002
 20
0.611621446349993
 10
14.13856571329997
 20
0.6120631665499943
 10
14.13883434795003
 20
0.6124677218499885
 10
14.1391156072
 20
0.6127976567499829
 10
14.1394028543
 20
0.6130404860999974
 10
14.13970272594999
 20
0.6132086951499858
 10
14.14001522225
 20
0.6133022838999908
  0
LINE
  5
233B4
330
1F
100
AcDbEntity
  8
1
100
AcDbLine
 10
14.13815715379998
 20
0.5907601868499839
 30
0.0
 11
14.13797589495
 21
0.5924360577999935
 31
0.0
  0
LINE
  5
233B5
330
1F
100
AcDbEntity
  8
1
100
AcDbLine
 10
14.13835191174998
 20
0.58908001759999
 30
0.0
 11
14.13815715379998
 21
0.5907601868499839
 31
0.0
  0
LINE
  5
233B6
330
1F
100
AcDbEntity
  8
1
100
AcDbLine
 10
14.13856030195002
 20
0.58738482495
 30
0.0
 11
14.13835191174998
 21
0.58908001759999
 31
0.0
  0
LINE
  5
233B7
330
1F
100
AcDbEntity
  8
1
100
AcDbLine
 10
14.13878241245
 20
0.5856686930499892
 30
0.0
 11
14.13856030195002
 21
0.58738482495
 31
0.0
  0
LINE
  5
233B8
330
1F
100
AcDbEntity
  8
1
100
AcDbLine
 10
14.13901860675004
 20
0.5839230405999915
 30
0.0
 11
14.13878241245
 21
0.5856686930499892
 31
0.0
  0
LINE
  5
233B9
330
1F
100
AcDbEntity
  8
1
100
AcDbLine
 10
14.13926973920003
 20
0.5821393712000074
 30
0.0
 11
14.13901860675004
 21
0.5839230405999915
 31
0.0
  0
LINE
  5
233BA
330
1F
100
AcDbEntity
  8
1
100
AcDbLine
 10
14.13953644465
 20
0.5803120272499953
 30
0.0
 11
14.13926973920003
 21
0.5821393712000074
 31
0.0
  0
LINE
  5
233BB
330
1F
100
AcDbEntity
  8
1
100
AcDbLine
 10
14.13981980985001
 20
0.5784325451999948
 30
0.0
 11
14.13953644465
 21
0.5803120272499953
 31
0.0
  0
LINE
  5
233BC
330
1F
100
AcDbEntity
  8
1
100
AcDbLine
 10
14.14027884489998
 20
0.5754987468000011
 30
0.0
 11
14.13981980985001
 21
0.5784325451999948
 31
0.0
  0
LINE
  5
233BD
330
1F
100
AcDbEntity
  8
1
100
AcDbLine
 10
14.14078254999999
 20
0.5724056568999956
 30
0.0
 11
14.14027884489998
 21
0.5754987468000011
 31
0.0
  0
LINE
  5
233BE
330
1F
100
AcDbEntity
  8
1
100
AcDbLine
 10
14.14133588350002
 20
0.5691282048499958
 30
0.0
 11
14.14078254999999
 21
0.5724056568999956
 31
0.0
  0
LINE
  5
233BF
330
1F
100
AcDbEntity
  8
1
100
AcDbLine
 10
14.1419442418
 20
0.5656413804000025
 30
0.0
 11
14.14133588350002
 21
0.5691282048499958
 31
0.0
  0
LINE
  5
233C0
330
1F
100
AcDbEntity
  8
1
100
AcDbLine
 10
14.14261340024997
 20
0.5619201996499969
 30
0.0
 11
14.1419442418
 21
0.5656413804000025
 31
0.0
  0
LINE
  5
233C1
330
1F
100
AcDbEntity
  8
1
100
AcDbLine
 10
14.14334946800001
 20
0.5579396689999854
 30
0.0
 11
14.14261340024997
 21
0.5619201996499969
 31
0.0
  0
LINE
  5
233C2
330
1F
100
AcDbEntity
  8
1
100
AcDbLine
 10
14.14415885145003
 20
0.5536747510499893
 30
0.0
 11
14.14334946800001
 21
0.5579396689999854
 31
0.0
  0
LINE
  5
233C3
330
1F
100
AcDbEntity
  8
1
100
AcDbLine
 10
14.14536373509999
 20
0.5475020868000016
 30
0.0
 11
14.14415885145003
 21
0.5536747510499893
 31
0.0
  0
LINE
  5
233C4
330
1F
100
AcDbEntity
  8
1
100
AcDbLine
 10
14.14672730794997
 20
0.5407194243000008
 30
0.0
 11
14.14536373509999
 21
0.5475020868000016
 31
0.0
  0
LINE
  5
233C5
330
1F
100
AcDbEntity
  8
1
100
AcDbLine
 10
14.14826639274999
 20
0.5332676681499962
 30
0.0
 11
14.14672730794997
 21
0.5407194243000008
 31
0.0
  0
LINE
  5
233C6
330
1F
100
AcDbEntity
  8
1
100
AcDbLine
 10
14.14999912104998
 20
0.5250847991999949
 30
0.0
 11
14.14826639274999
 21
0.5332676681499962
 31
0.0
  0
LINE
  5
233C7
330
1F
100
AcDbEntity
  8
1
100
AcDbLine
 10
14.15194313280001
 20
0.5161117903499886
 30
0.0
 11
14.14999912104998
 21
0.5250847991999949
 31
0.0
  0
LINE
  5
233C8
330
1F
100
AcDbEntity
  8
1
100
AcDbLine
 10
14.15469754020002
 20
0.5036948952999936
 30
0.0
 11
14.15194313280001
 21
0.5161117903499886
 31
0.0
  0
LINE
  5
233C9
330
1F
100
AcDbEntity
  8
1
100
AcDbLine
 10
14.15784685170003
 20
0.4898309878499916
 30
0.0
 11
14.15469754020002
 21
0.5036948952999936
 31
0.0
  0
LINE
  5
233CA
330
1F
100
AcDbEntity
  8
1
100
AcDbLine
 10
14.16145068785001
 20
0.4743040067499821
 30
0.0
 11
14.15784685170003
 21
0.4898309878499916
 31
0.0
  0
LINE
  5
233CB
330
1F
100
AcDbEntity
  8
1
100
AcDbLine
 10
14.1664884037
 20
0.453060361249989
 30
0.0
 11
14.16145068785001
 21
0.4743040067499821
 31
0.0
  0
LINE
  5
233CC
330
1F
100
AcDbEntity
  8
1
100
AcDbLine
 10
14.17244323980004
 20
0.4284737593499913
 30
0.0
 11
14.1664884037
 21
0.453060361249989
 31
0.0
  0
LINE
  5
233CD
330
1F
100
AcDbEntity
  8
1
100
AcDbLine
 10
14.18075004870003
 20
0.3948729987499959
 30
0.0
 11
14.17244323980004
 21
0.4284737593499913
 31
0.0
  0
LINE
  5
233CE
330
1F
100
AcDbEntity
  8
1
100
AcDbLine
 10
14.19233529605004
 20
0.3489790950999989
 30
0.0
 11
14.18075004870003
 21
0.3948729987499959
 31
0.0
  0
LINE
  5
233CF
330
1F
100
AcDbEntity
  8
1
100
AcDbLine
 10
14.20847088095003
 20
0.2863423190999938
 30
0.0
 11
14.19233529605004
 21
0.3489790950999989
 31
0.0
  0
LINE
  5
233D0
330
1F
100
AcDbEntity
  8
1
100
AcDbLine
 10
14.23108485219997
 20
0.2002062130500022
 30
0.0
 11
14.20847088095003
 21
0.2863423190999938
 31
0.0
  0
LINE
  5
233D1
330
1F
100
AcDbEntity
  8
1
100
AcDbLine
 10
14.27006892704999
 20
0.0544689851999962
 30
0.0
 11
14.23108485219997
 21
0.2002062130500022
 31
0.0
  0
LINE
  5
233D2
330
1F
100
AcDbEntity
  8
1
100
AcDbLine
 10
14.34251335720002
 20
-0.2113815161500057
 30
0.0
 11
14.27006892704999
 21
0.0544689851999962
 31
0.0
  0
LINE
  5
233D3
330
1F
100
AcDbEntity
  8
1
100
AcDbLine
 10
14.53207341050002
 20
-0.8944830985500047
 30
0.0
 11
14.34251335720002
 21
-0.2113815161500057
 31
0.0
  0
LINE
  5
233D4
330
1F
100
AcDbEntity
  8
1
100
AcDbLine
 10
14.93511149360002
 20
-2.328011164300015
 30
0.0
 11
14.53207341050002
 21
-0.8944830985500047
 31
0.0
  0
LWPOLYLINE
  5
233D5
330
1F
100
AcDbEntity
  8
1
100
AcDbPolyline
 90
        6
 70
     0
 43
0.0
 10
22.94968118714998
 20
-1.207103074650014
 10
22.96464276225
 20
-1.219036103200004
 10
22.97643405085002
 20
-1.230458457749995
 10
22.98513475380004
 20
-1.241373687900015
 10
22.99083921290004
 20
-1.251796542700012
 10
22.99318890525002
 20
-1.2592180974
  0
LINE
  5
233D6
330
1F
100
AcDbEntity
  8
1
100
AcDbLine
 10
22.8540324522
 20
-1.137103785900001
 30
0.0
 11
22.94968118714998
 21
-1.207103074650014
 31
0.0
  0
LWPOLYLINE
  5
233D8
330
1F
100
AcDbEntity
  8
1
100
AcDbPolyline
 90
       19
 70
     0
 43
0.0
 10
13.28832075089998
 20
1.484730341199997
 10
13.29915180654997
 20
1.464263251949994
 10
13.31120686354997
 20
1.443545820399996
 10
13.32448236500001
 20
1.422563913599994
 10
13.33894815825
 20
1.401339758199988
 10
13.35462481144999
 20
1.379818643999989
 10
13.37158315124999
 20
1.357867676799989
 10
13.38980797750004
 20
1.335447177649988
 10
13.40929710000002
 20
1.312552633599998
 10
13.43013768375
 20
1.289098464199986
 10
13.45226522560001
 20
1.265081365649997
 10
13.4757144103
 20
1.240447102999985
 10
13.50071461304999
 20
1.215023367249989
 10
13.52726404919998
 20
1.188714356349997
 10
13.55531044714998
 20
1.161533228199991
 10
13.58499624540003
 20
1.133456739949998
 10
13.61650456639997
 20
1.104230069599984
 10
13.6495586832
 20
1.073995656399979
 10
13.68360979575
 20
1.043333783049994
  0
LINE
  5
233D9
330
1F
100
AcDbEntity
  8
1
100
AcDbLine
 10
21.62977804695
 20
-6.845085624750004
 30
0.0
 11
15.03905553740004
 21
-7.660163421350013
 31
0.0
  0
LWPOLYLINE
  5
233DA
330
1F
100
AcDbEntity
  8
1
100
AcDbPolyline
 90
       10
 70
     0
 43
0.0
 10
14.29539378900001
 20
-2.71116490995002
 10
14.3357900479
 20
-2.677653467950001
 10
14.37685355329996
 20
-2.639816769799999
 10
14.41595019509999
 20
-2.599850026950001
 10
14.45297592045001
 20
-2.557859608099995
 10
14.48783218795002
 20
-2.513957267750008
 10
14.52042623019998
 20
-2.46825984875
 10
14.55067130045002
 20
-2.42088897155002
 10
14.57848690369998
 20
-2.371970710350005
 10
14.58519823665001
 20
-2.35862460750001
  0
LWPOLYLINE
  5
233DB
330
1F
100
AcDbEntity
  8
1
100
AcDbPolyline
 90
       10
 70
     0
 43
0.0
 10
11.64356170060002
 20
1.089948321550004
 10
11.64491824890002
 20
1.118174808799984
 10
11.64610957380002
 20
1.146420081299985
 10
11.64713854590003
 20
1.1746452593
 10
11.6480105074
 20
1.202810498449984
 10
11.64872761535004
 20
1.230877446299976
 10
11.64928870605003
 20
1.25880923559999
 10
11.64969690105
 20
1.286567342949999
 10
11.64995974010003
 20
1.314111707649991
 10
11.65008342764999
 20
1.341403147249998
  0
LWPOLYLINE
  5
233DC
330
1F
100
AcDbEntity
  8
1
100
AcDbPolyline
 90
       22
 70
     0
 43
0.0
 10
11.66497808859999
 20
0.3043077821499978
 10
11.66481453050001
 20
0.3340307070499975
 10
11.66586544749999
 20
0.3632036831999912
 10
11.66809280040003
 20
0.3934040722999938
 10
11.67152017485001
 20
0.4248271108499823
 10
11.67614315255004
 20
0.4572428596999815
 10
11.68182014344997
 20
0.4898146229999796
 10
11.6884234731
 20
0.5223603188999917
 10
11.69590874854999
 20
0.5550402187999808
 10
11.7041655874
 20
0.5875382064499988
 10
11.71309777695002
 20
0.619816440349986
 10
11.72262807145002
 20
0.6519044320499959
 10
11.73266059999999
 20
0.6835915113999889
 10
11.7431100317
 20
0.7148657428499874
 10
11.75389844999996
 20
0.7457418479499937
 10
11.76493897684999
 20
0.7760522992499901
 10
11.77614786965001
 20
0.8057743304000053
 10
11.78746020680002
 20
0.83494202264999
 10
11.79882151314997
 20
0.8634748094999975
 10
11.81014530105001
 20
0.8913105406500037
 10
11.82139170115
 20
0.9185273590499958
 10
11.83259138045004
 20
0.9452537845499977
  0
LWPOLYLINE
  5
233DD
330
1F
100
AcDbEntity
  8
1
100
AcDbPolyline
 90
       36
 70
     0
 43
0.0
 10
11.65008342764999
 20
1.341403147249998
 10
11.64960987955
 20
1.366547949249984
 10
11.64815098890001
 20
1.391210473799979
 10
11.64571680990003
 20
1.415364243999994
 10
11.64231800954998
 20
1.43895691254999
 10
11.63796524245005
 20
1.461991777699998
 10
11.63266610924996
 20
1.484522964999988
 10
11.62642721600004
 20
1.506538287949999
 10
11.61925836080003
 20
1.527995187449995
 10
11.61116871054999
 20
1.548896585249984
 10
11.60216490200004
 20
1.56921663424999
 10
11.59225711900002
 20
1.588925516049988
 10
11.58145875945003
 20
1.608016937249991
 10
11.56979741240003
 20
1.626438891499994
 10
11.55726386779999
 20
1.644188335649992
 10
11.54381351964999
 20
1.661321296999993
 10
11.52943638709998
 20
1.677823250849989
 10
11.51415764579998
 20
1.693630670049991
 10
11.49798346210004
 20
1.708714537299988
 10
11.48093879204999
 20
1.723022252049993
 10
11.46301862204997
 20
1.736528424999995
 10
11.44418381859999
 20
1.749234838599996
 10
11.42442390355002
 20
1.761104501299988
 10
11.40377194605004
 20
1.772074808600001
 10
11.38225448624997
 20
1.782099718849998
 10
11.35987762294998
 20
1.791130160249984
 10
11.3366648293
 20
1.799116038199989
 10
11.31267044285
 20
1.806010339649994
 10
11.28789686250003
 20
1.811766548699999
 10
11.26237837295004
 20
1.816335510099995
 10
11.23621886294997
 20
1.819672795400002
 10
11.20941934345002
 20
1.821738247749983
 10
11.18202199420001
 20
1.822491969649995
 10
11.15419325015001
 20
1.821907395199993
 10
11.12597741405001
 20
1.819962014799989
 10
11.1191676003
 20
1.819292285099996
  0
LWPOLYLINE
  5
233DE
330
1F
100
AcDbEntity
  8
1
100
AcDbPolyline
 90
       27
 70
     0
 43
0.0
 10
12.20467488830003
 20
0.3153454245999896
 10
12.20380417030004
 20
0.3177231943999956
 10
12.20219042694999
 20
0.3269359695999796
 10
12.20330791829998
 20
0.3360065206499954
 10
12.20701025469999
 20
0.3449292739499938
 10
12.21316842985
 20
0.3537349354000057
 10
12.22165846985002
 20
0.3623853575999973
 10
12.23236699619998
 20
0.3708437419999981
 10
12.24523136505003
 20
0.3791633013499975
 10
12.26015384350002
 20
0.3873273424999937
 10
12.27704933810004
 20
0.3952960577499951
 10
12.29593338069999
 20
0.4031142991999915
 10
12.31673385670002
 20
0.4107797768499851
 10
12.33938900709997
 20
0.4182582960499916
 10
12.36398441249999
 20
0.4255730680999861
 10
12.39046931819997
 20
0.4327318341999913
 10
12.41879567805002
 20
0.4397078430499947
 10
12.44909784850001
 20
0.4464961520000017
 10
12.48133529500002
 20
0.4531085093000017
 10
12.51546389139999
 20
0.4595253359499837
 10
12.5516448455
 20
0.4657141641500077
 10
12.58986869910002
 20
0.4716849316499962
 10
12.63005099534997
 20
0.4774235128999962
 10
12.67225175120002
 20
0.4828711846500015
 10
12.7164449806
 20
0.488002969399993
 10
12.76251047810002
 20
0.4928222359000003
 10
12.81035578069999
 20
0.4973099419499861
  0
LINE
  5
233DF
330
1F
100
AcDbEntity
  8
1
100
AcDbLine
 10
12.20514618184997
 20
0.3141975363500009
 30
0.0
 11
12.31279009754998
 21
0.0522360258499859
 31
0.0
  0
LINE
  5
233E0
330
1F
100
AcDbEntity
  8
1
100
AcDbLine
 10
13.68360979575
 20
1.043333783049994
 30
0.0
 11
13.75473536515001
 21
0.9804576943499867
 31
0.0
  0
LINE
  5
233E1
330
1F
100
AcDbEntity
  8
1
100
AcDbLine
 10
13.75473536515001
 20
0.9804576943499867
 30
0.0
 11
13.82646320555001
 21
0.9180581933499851
 31
0.0
  0
LINE
  5
233E2
330
1F
100
AcDbEntity
  8
1
100
AcDbLine
 10
13.82646320555001
 20
0.9180581933499851
 30
0.0
 11
13.93270254239998
 21
0.8268718121999896
 31
0.0
  0
LINE
  5
233E3
330
1F
100
AcDbEntity
  8
1
100
AcDbLine
 10
13.93270254239998
 20
0.8268718121999896
 30
0.0
 11
14.17904509099999
 21
0.6170403205999904
 31
0.0
  0
LWPOLYLINE
  5
233E4
330
1F
100
AcDbEntity
  8
1
100
AcDbPolyline
 90
       52
 70
     0
 43
0.0
 10
14.00913595570002
 20
-1.058363518300005
 10
13.97847035525002
 20
-1.094741941049996
 10
13.94946378890002
 20
-1.132028095900004
 10
13.92213971260004
 20
-1.170149499349995
 10
13.89651563939999
 20
-1.209034185599995
 10
13.87261129105003
 20
-1.248608795650007
 10
13.85044845425001
 20
-1.288798619449998
 10
13.83004569399999
 20
-1.329514067950007
 10
13.81140112930002
 20
-1.370699828050014
 10
13.79450693629998
 20
-1.412335338799998
 10
13.77936403395002
 20
-1.454369784500009
 10
13.76598503589999
 20
-1.496716637450013
 10
13.75438104040002
 20
-1.539304349400004
 10
13.74454327089997
 20
-1.582104552900013
 10
13.73647887070002
 20
-1.625010765350005
 10
13.73020479194998
 20
-1.66783341455001
 10
13.72570440840003
 20
-1.710442406450005
 10
13.72294219045001
 20
-1.752836794449996
 10
13.72189700335004
 20
-1.795022071500006
 10
13.72254721964999
 20
-1.836955345499994
 10
13.72487030470002
 20
-1.878559987450009
 10
13.72884991504999
 20
-1.919793190100016
 10
13.73445828105004
 20
-1.960590075750012
 10
13.74166861490001
 20
-2.000905755650015
 10
13.75046956180002
 20
-2.04072868745002
 10
13.76085590334999
 20
-2.080078473200011
 10
13.77278275375001
 20
-2.118831295650018
 10
13.786162613
 20
-2.156768325150003
 10
13.80097220025
 20
-2.193900821900008
 10
13.81713821475001
 20
-2.230139511750002
 10
13.83444476834997
 20
-2.265142186700009
 10
13.8527355385
 20
-2.298761337750001
 10
13.87199330520003
 20
-2.331129398799994
 10
13.89218994625004
 20
-2.362341016950003
 10
13.91321674354999
 20
-2.392337356749997
 10
13.93504558104998
 20
-2.421170914700006
 10
13.95780563610005
 20
-2.44908315665001
 10
13.98144945870003
 20
-2.476055406900009
 10
14.00594407535
 20
-2.502075227850006
 10
14.0314870186
 20
-2.527355701450011
 10
14.05813884955002
 20
-2.55193609830001
 10
14.08580463254999
 20
-2.575703895250008
 10
14.11446906965001
 20
-2.598623663000005
 10
14.14417975064999
 20
-2.62071096440001
 10
14.17484473164997
 20
-2.641880522400008
 10
14.2062234074
 20
-2.661966596250002
 10
14.23827334810001
 20
-2.680953860850002
 10
14.27095728594999
 20
-2.698838927300009
 10
14.30401800580002
 20
-2.715515039200006
 10
14.33733343339999
 20
-2.730964572400003
 10
14.37092840779998
 20
-2.745238021150008
 10
14.40475791705002
 20
-2.758352265650009
  0
LWPOLYLINE
  5
233E5
330
1F
100
AcDbEntity
  8
1
100
AcDbPolyline
 90
       82
 70
     0
 43
0.0
 10
11.99254336729997
 20
1.371364509699979
 10
12.00278525260002
 20
1.417741203799984
 10
12.01317078450002
 20
1.462702735650004
 10
12.02369624724999
 20
1.506249022599995
 10
12.03435570264999
 20
1.548352412799991
 10
12.04514767679997
 20
1.589040516399983
 10
12.05607553795001
 20
1.628396040199994
 10
12.06713585160004
 20
1.6664213261
 10
12.07832556414998
 20
1.703113829150004
 10
12.08964932735002
 20
1.738548658549994
 10
12.10110727035
 20
1.772735950899992
 10
12.11269364010003
 20
1.805665155949988
 10
12.12440463290001
 20
1.837380222949995
 10
12.1362282573
 20
1.867861748049995
 10
12.14817072975002
 20
1.897128978749995
 10
12.16025646369998
 20
1.925283396799989
 10
12.17248253610002
 20
1.952332068149991
 10
12.18484805255004
 20
1.978266832999985
 10
12.19738223315001
 20
2.003165357299983
 10
12.21011417519999
 20
2.027079294899984
 10
12.22301321785001
 20
2.049954540499989
 10
12.23601821354999
 20
2.071710588399986
 10
12.24911545534998
 20
2.092316173700004
 10
12.2623131122
 20
2.111802608299989
 10
12.27558064120002
 20
2.130184704249991
 10
12.28890503185001
 20
2.147446891049986
 10
12.30229269565002
 20
2.163605761399985
 10
12.31574170500001
 20
2.178724792450004
 10
12.32923325759999
 20
2.192795135199993
 10
12.34277988740003
 20
2.205826752450001
 10
12.35642782815002
 20
2.217910522299995
 10
12.37020267605
 20
2.229071978849994
 10
12.38407533340002
 20
2.239284736249991
 10
12.39801041249997
 20
2.248561522999985
 10
12.41199090720001
 20
2.256891309749994
 10
12.42602863890001
 20
2.264285825349992
 10
12.44013108100002
 20
2.270792298549983
 10
12.45425748240002
 20
2.276410277800002
 10
12.46844370610002
 20
2.281140902299988
 10
12.48281435970001
 20
2.285031679799991
 10
12.49740198535001
 20
2.288105334799985
 10
12.51217377454999
 20
2.290335176799991
 10
12.52715862915001
 20
2.291692167099988
 10
12.54237517625002
 20
2.292174898600002
 10
12.55780476255002
 20
2.29177993644999
 10
12.57342028669997
 20
2.29047516069999
 10
12.58918781119997
 20
2.288266779049997
 10
12.60513957069999
 20
2.285145069899989
 10
12.62134814690002
 20
2.281053268799985
 10
12.63783081495002
 20
2.275992495299995
 10
12.65457029745
 20
2.269955052499986
 10
12.67158831680002
 20
2.262869374400003
 10
12.68890243665
 20
2.254722536799994
 10
12.70649476745002
 20
2.245519912449998
 10
12.72433352505
 20
2.23521753504999
 10
12.7424336799
 20
2.223791326999993
 10
12.76077836865001
 20
2.211258715749997
 10
12.77928674575004
 20
2.19763994094999
 10
12.79790321680003
 20
2.182973986100002
 10
12.81667891635
 20
2.167218802349998
 10
12.8356928637
 20
2.150273070099991
 10
12.85494914940001
 20
2.132141684449983
 10
12.87444020780005
 20
2.112813031299984
 10
12.89422842584999
 20
2.092158403649996
 10
12.9143280103
 20
2.070163469099988
 10
12.93472107139997
 20
2.046833186299984
 10
12.95542203334999
 20
2.022066289149995
 10
12.97644905995004
 20
1.995829795750004
 10
12.99777905125002
 20
1.968146390199996
 10
13.01936404984998
 20
1.938998879699986
 10
13.0412203606
 20
1.908342059849991
 10
13.06332489964997
 20
1.876212465249984
 10
13.08556984920001
 20
1.842718522600002
 10
13.10794347820003
 20
1.807852970249989
 10
13.13044916395002
 20
1.771618993849989
 10
13.15300127165001
 20
1.734144494549986
 10
13.17558903645
 20
1.695427516949983
 10
13.198214389
 20
1.655469388500002
 10
13.2208107222
 20
1.614405889749995
 10
13.24335301309999
 20
1.572283492299995
 10
13.26585775130003
 20
1.529057967749984
 10
13.28832075089998
 20
1.484730341199997
  0
LWPOLYLINE
  5
233E6
330
1F
100
AcDbEntity
  8
1
100
AcDbPolyline
 90
       44
 70
     0
 43
0.0
 10
10.33047042295
 20
1.01293357879998
 10
10.32945401560001
 20
0.9886297397500028
 10
10.32957084785
 20
0.9645001709499824
 10
10.33081604644998
 20
0.9405690612000013
 10
10.33319122850004
 20
0.9168825261499975
 10
10.3366837969
 20
0.8934413364500031
 10
10.34126946580001
 20
0.8702018769000048
 10
10.34693581975001
 20
0.8471944732999856
 10
10.35368764559997
 20
0.8244356937000032
 10
10.36153125984999
 20
0.8018639569000001
 10
10.37043173855001
 20
0.7795467970000019
 10
10.38041955105002
 20
0.7574672114499991
 10
10.39160884870002
 20
0.7354464912000012
 10
10.40400001410002
 20
0.7134940604999898
 10
10.41760164049999
 20
0.6916729934999994
 10
10.43255123489997
 20
0.6699010751499871
 10
10.44885101855
 20
0.6482228482499936
 10
10.46651201200002
 20
0.6266918806499932
 10
10.48569239145003
 20
0.6052574832999868
 10
10.50643310065
 20
0.5839597083499868
 10
10.52870878470004
 20
0.5628938742499871
 10
10.55258144689999
 20
0.5421084728000026
 10
10.5780909912
 20
0.5216792077499905
 10
10.60520517325001
 20
0.5016961271499909
 10
10.63387621724998
 20
0.4822390131500002
 10
10.66422442944999
 20
0.4633605667999987
 10
10.69612555325001
 20
0.4452057194000007
 10
10.72915630684998
 20
0.4279762784499824
 10
10.7633976423
 20
0.4117376465999955
 10
10.79873961340003
 20
0.3965908834499814
 10
10.83445819175001
 20
0.3827285233999973
 10
10.87064001164999
 20
0.3701585879499944
 10
10.90714898049999
 20
0.3589573715499981
 10
10.94291358070002
 20
0.3492960151499815
 10
10.97765292190003
 20
0.3411676763999836
 10
11.01159026364998
 20
0.3344625077000032
 10
11.0444075589
 20
0.3291070554000086
 10
11.07595538565
 20
0.3250439353499885
 10
11.10634210460001
 20
0.3221951730499981
 10
11.13563934280002
 20
0.320472882449998
 10
11.16379104030001
 20
0.3198325986499881
 10
11.19082329585002
 20
0.3202288871999812
 10
11.21693019409998
 20
0.3216294024999868
 10
11.23509562239998
 20
0.3232468935999933
  0
LINE
  5
233E7
330
1F
100
AcDbEntity
  8
1
100
AcDbLine
 10
10.00000000000001
 20
6.499999999999992
 30
0.0
 11
10.00000000000001
 21
4.999999999999992
 31
0.0
  0
LINE
  5
233E8
330
1F
100
AcDbEntity
  8
1
100
AcDbLine
 10
10.00000000000001
 20
-5.000000000000006
 30
0.0
 11
10.00000000000001
 21
-6.500000000000007
 31
0.0
  0
LWPOLYLINE
  5
233E9
330
1F
100
AcDbEntity
  8
1
100
AcDbPolyline
 90
       13
 70
     0
 43
0.0
 10
11.74593464185001
 20
0.0692158910499856
 10
11.73430427699999
 20
0.0818890688499963
 10
11.72344183145004
 20
0.0958780785000002
 10
11.71338308099997
 20
0.1111762618999919
 10
11.70416130330001
 20
0.127776685649998
 10
11.69581566670003
 20
0.145670692000003
 10
11.68838804725
 20
0.1648474739999912
 10
11.68191052320004
 20
0.1853008186499849
 10
11.67641705379999
 20
0.2070157749500012
 10
11.67194486979998
 20
0.2299665020999768
 10
11.66852444120003
 20
0.2541139241499977
 10
11.6661780907
 20
0.2794705507499984
 10
11.66497808859999
 20
0.3043077821499978
  0
LWPOLYLINE
  5
233EA
330
1F
100
AcDbEntity
  8
1
100
AcDbPolyline
 90
       66
 70
     0
 43
0.0
 10
18.94661537599997
 20
-4.843418900150004
 10
18.91368525775
 20
-4.812434236250004
 10
18.88026265029998
 20
-4.783392301000012
 10
18.84649738669999
 20
-4.756275133299999
 10
18.81258975100003
 20
-4.731107514200011
 10
18.7786195124
 20
-4.707830401949998
 10
18.74452828310001
 20
-4.686303441250012
 10
18.71040059249999
 20
-4.666508851850004
 10
18.67635449535
 20
-4.648439270450005
 10
18.64234900710001
 20
-4.631974297999994
 10
18.60844491889999
 20
-4.617101849900001
 10
18.5747369207
 20
-4.603814362950011
 10
18.54121612314999
 20
-4.592000711749996
 10
18.50800416724998
 20
-4.581664623900002
 10
18.47510524824999
 20
-4.572786002450007
 10
18.44231575945004
 20
-4.565220717950005
 10
18.40962850040002
 20
-4.558939251149999
 10
18.37713797355003
 20
-4.553960141900012
 10
18.34477818364998
 20
-4.550213739550009
 10
18.31259843955003
 20
-4.547688523250008
 10
18.28062271375002
 20
-4.546386800900002
 10
18.24873977150003
 20
-4.546260946750003
 10
18.21702353830001
 20
-4.547284661600008
 10
18.18546250960004
 20
-4.549476665700004
 10
18.15381138880004
 20
-4.552858347850011
 10
18.12202554900001
 20
-4.557419233099999
 10
18.09020704879999
 20
-4.563163942099996
 10
18.05832929420002
 20
-4.570137313850003
 10
18.02642929900004
 20
-4.578332988050013
 10
17.99453364650004
 20
-4.587750798700021
 10
17.962602367
 20
-4.598444878650005
 10
17.93074240515001
 20
-4.610368219
 10
17.89891888765
 20
-4.623560434900007
 10
17.86688738609997
 20
-4.638205428400005
 10
17.834641628
 20
-4.654305877600001
 10
17.80228750114998
 20
-4.671849900250002
 10
17.76976355800004
 20
-4.690998787549993
 10
17.73712853325004
 20
-4.711750417600007
 10
17.70445677524999
 20
-4.734094227350006
 10
17.67172669565004
 20
-4.758177482950009
 10
17.63896341415001
 20
-4.784062641250009
 10
17.60632187135003
 20
-4.811669520400008
 10
17.57398414210003
 20
-4.840930345500004
 10
17.54204153864999
 20
-4.871885895800011
 10
17.51060624644999
 20
-4.904473919750009
 10
17.47988359714999
 20
-4.938472300000006
 10
17.45000707559997
 20
-4.973869247050012
 10
17.42105003300004
 20
-5.010653273549998
 10
17.39311969665
 20
-5.048603040800009
 10
17.36630783404997
 20
-5.087759901700002
 10
17.34074675734997
 20
-5.128056428300006
 10
17.31659178259998
 20
-5.169109031250008
 10
17.29394311914997
 20
-5.210927250499999
 10
17.27290349800002
 20
-5.2534764755
 10
17.25360070160003
 20
-5.296309761650014
 10
17.23612741590001
 20
-5.339391778700012
 10
17.22054948534999
 20
-5.382736575750007
 10
17.20692561825002
 20
-5.425974080200012
 10
17.19530556159999
 20
-5.469147763450002
 10
17.18577437684998
 20
-5.512194885950001
 10
17.17839439110004
 20
-5.554591254950018
 10
17.17318025875001
 20
-5.596311780100002
 10
17.17014832805002
 20
-5.6373733383
 10
17.16928057460002
 20
-5.677323809350005
 10
17.1705336934
 20
-5.716074047800012
 10
17.17370660085
 20
-5.752341402600003
  0
LWPOLYLINE
  5
233EB
330
1F
100
AcDbEntity
  8
1
100
AcDbPolyline
 90
       13
 70
     0
 43
0.0
 10
13.33514229800001
 20
0.4519134816999967
 10
13.33506918140001
 20
0.4519712839999884
 10
13.33489205554998
 20
0.4521056766499997
 10
13.33507375044998
 20
0.4519798369000016
 10
13.3355172881
 20
0.4516914995499876
 10
13.33621522555002
 20
0.4512628798999927
 10
13.3371830265
 20
0.4506991242999945
 10
13.33834475114999
 20
0.4500539912000008
 10
13.33968864384998
 20
0.4493388330499998
 10
13.34122228240001
 20
0.4485535900999979
 10
13.34289398659997
 20
0.4477271195499882
 10
13.344684025
 20
0.4468694727999961
 10
13.34660488910005
 20
0.4459749672999821
  0
LINE
  5
233ED
330
1F
100
AcDbEntity
  8
1
100
AcDbLine
 10
10.08145814615001
 20
-6.500000000000007
 30
0.0
 11
10.00000000000001
 21
-6.500000000000007
 31
0.0
  0
LINE
  5
233EE
330
1F
100
AcDbEntity
  8
1
100
AcDbLine
 10
3.000000000000013
 20
-6.500000000000007
 30
0.0
 11
0.2999999999999687
 21
-6.500000000000007
 31
0.0
  0
LINE
  5
233EF
330
1F
100
AcDbEntity
  8
1
100
AcDbLine
 10
18.70190588275001
 20
-4.662000380599998
 30
0.0
 11
17.68105550075002
 21
-4.751313216200009
 31
0.0
  0
LWPOLYLINE
  5
233F0
330
1F
100
AcDbEntity
  8
1
100
AcDbPolyline
 90
       10
 70
     0
 43
0.0
 10
13.26277573389997
 20
0.298054599299995
 10
13.25981367480001
 20
0.2952893234999934
 10
13.25672236025004
 20
0.2928016629499908
 10
13.25350179024998
 20
0.2905916175999934
 10
13.25015079804997
 20
0.2886559174999874
 10
13.2466705504
 20
0.2869978326000009
 10
13.24306454775002
 20
0.2856271728999999
 10
13.23933395694998
 20
0.2845472083499842
 10
13.23547761110002
 20
0.283754668950003
 10
13.23149551025001
 20
0.2832495546999851
  0
LINE
  5
233F1
330
1F
100
AcDbEntity
  8
1
100
AcDbLine
 10
13.39731064680002
 20
0.4325044495499883
 30
0.0
 11
13.26277573389997
 21
0.298054599299995
 31
0.0
  0
LWPOLYLINE
  5
233F2
330
1F
100
AcDbEntity
  8
1
100
AcDbPolyline
 90
       14
 70
     0
 43
0.0
 10
11.83259138045004
 20
0.9452537845499977
 10
11.89739924110002
 20
1.097488218849995
 10
11.90768584390004
 20
1.122092661799989
 10
11.9177507966
 20
1.146522897049996
 10
11.92748296305002
 20
1.170676628649991
 10
11.93685165554997
 20
1.194561014599989
 10
11.94583342115
 20
1.218183897299985
 10
11.95432231960002
 20
1.241446522399989
 10
11.9622960846
 20
1.264408009549988
 10
11.96972736005001
 20
1.287025120949984
 10
11.97649882200001
 20
1.309047433749987
 10
11.98255578484999
 20
1.330397059749991
 10
11.98790980010001
 20
1.351167259599981
 10
11.99254336729997
 20
1.371364509699979
  0
LWPOLYLINE
  5
233F3
330
1F
100
AcDbEntity
  8
1
100
AcDbPolyline
 90
        6
 70
     0
 43
0.0
 10
12.25657130514999
 20
0.2715771821499899
 10
12.23976488134998
 20
0.2807308709499878
 10
12.22616925789999
 20
0.289932158449993
 10
12.21570532835001
 20
0.2991707005500004
 10
12.20827762304999
 20
0.308444639799994
 10
12.20467488830003
 20
0.3153454245999896
  0
LWPOLYLINE
  5
233F4
330
1F
100
AcDbEntity
  8
1
100
AcDbPolyline
 90
        9
 70
     0
 43
0.0
 10
13.34660488910005
 20
0.4459749672999821
 10
13.34865289535004
 20
0.4450457251999965
 10
13.35081530095
 20
0.4440876111999971
 10
13.35309811025003
 20
0.4430979564499964
 10
13.35552614505003
 20
0.4420662318499852
 10
13.35809367520001
 20
0.4409953227999992
 10
13.36079842164999
 20
0.4398862878000003
 10
13.36366951399999
 20
0.4387273995499969
 10
13.36670967365002
 20
0.4375179643999944
  0
LINE
  5
233F5
330
1F
100
AcDbEntity
  8
1
100
AcDbLine
 10
10.00000000000001
 20
-5.000000000000006
 30
0.0
 11
3.000000000000013
 21
-5.000000000000006
 31
0.0
  0
LWPOLYLINE
  5
233F6
330
1F
100
AcDbEntity
  8
1
100
AcDbPolyline
 90
       25
 70
     0
 43
0.0
 10
15.03905553740004
 20
-2.815642430250001
 10
15.07833399660002
 20
-2.807558429300009
 10
15.11756507305001
 20
-2.798038757850001
 10
15.15669606044999
 20
-2.787079984400016
 10
15.19566983940002
 20
-2.774682811700009
 10
15.23443644365001
 20
-2.760846388349996
 10
15.27295225274999
 20
-2.745565884750013
 10
15.31119371299998
 20
-2.728829978400006
 10
15.3490713279
 20
-2.710655940499997
 10
15.38644473249998
 20
-2.691090704549999
 10
15.42322801495
 20
-2.67017197510001
 10
15.45940331115004
 20
-2.64790150495002
 10
15.4949342348
 20
-2.624279525949993
 10
15.52979275230002
 20
-2.599307682350008
 10
15.56389786429999
 20
-2.573025685100013
 10
15.59713549250001
 20
-2.545495211450009
 10
15.62944961230001
 20
-2.516755223700009
 10
15.66079993950002
 20
-2.486832944750013
 10
15.69110260675001
 20
-2.455781681450011
 10
15.72031578694999
 20
-2.423638648700013
 10
15.74839442305001
 20
-2.3904472866
 10
15.77525593135
 20
-2.356276697700018
 10
15.80084970575002
 20
-2.32118252540001
 10
15.82515436659999
 20
-2.285204648250008
 10
15.84813623419997
 20
-2.248392843150006
  0
LWPOLYLINE
  5
233F7
330
1F
100
AcDbEntity
  8
1
100
AcDbPolyline
 90
       13
 70
     0
 43
0.0
 10
10.39142031644998
 20
1.231284393849995
 10
10.3824988409
 20
1.212555902849991
 10
10.37429514564998
 20
1.193861442250002
 10
10.36680640405002
 20
1.175213723449991
 10
10.36003334269999
 20
1.15661384429999
 10
10.35396953375
 20
1.138085127700001
 10
10.34860026169998
 20
1.1196736236
 10
10.34392508445002
 20
1.101381788049998
 10
10.33993621675002
 20
1.083230351099992
 10
10.33660500705004
 20
1.065293051399982
 10
10.33391704669999
 20
1.047601632450002
 10
10.33187419740001
 20
1.03014531899999
 10
10.33047042295
 20
1.01293357879998
  0
LWPOLYLINE
  5
233F8
330
1F
100
AcDbEntity
  8
1
100
AcDbPolyline
 90
       52
 70
     0
 43
0.0
 10
8.642257784700021
 20
1.078252501650005
 10
8.631389828949991
 20
1.04184817854999
 10
8.621989807649995
 20
1.005353584249981
 10
8.614057720750011
 20
0.9687697442999976
 10
8.607600648149983
 20
0.9320551952000002
 10
8.602611509950023
 20
0.8952534179999885
 10
8.599069066799996
 20
0.8584931834499869
 10
8.596973844050026
 20
0.821792677099985
 10
8.596325316400012
 20
0.7851364490999872
 10
8.597100668150018
 20
0.748603271650005
 10
8.599302375499988
 20
0.7121712682999899
 10
8.602927962350022
 20
0.6758651979000021
 10
8.607947184299987
 20
0.639834173499999
 10
8.614354609600027
 20
0.60411189229999
 10
8.622155670100042
 20
0.5686678758499895
 10
8.631336417049979
 20
0.5335552307500038
 10
8.641907803300012
 20
0.4987394205500025
 10
8.653858876049994
 20
0.4642579167499791
 10
8.667142827850014
 20
0.430272006599985
 10
8.681747929899996
 20
0.3968146578000002
 10
8.697685911050044
 20
0.36385580204999
 10
8.714945150500014
 20
0.3314622854000007
 10
8.733547248250047
 20
0.2996007109499814
 10
8.753470604300005
 20
0.2683069051499913
 10
8.774638797950004
 20
0.2377515771999796
 10
8.79703938424997
 20
0.2079600076000005
 10
8.820684808149977
 20
0.1789089889999857
 10
8.845535983850039
 20
0.1506964861999975
 10
8.871618672250022
 20
0.1233014419000042
 10
8.898907112499969
 20
0.0967464317999927
 10
8.927284936200024
 20
0.071194792799993
 10
8.956745170600029
 20
0.0466624107499953
 10
8.987294788550014
 20
0.0231344036000039
 10
9.018838339850006
 20
0.0007278548500054
 10
9.051400387750007
 20
-0.0205643283000043
 10
9.084956369050033
 20
-0.0407345519000089
 10
9.119337143950033
 20
-0.0596438160500057
 10
9.15452491629999
 20
-0.0772751104500102
 10
9.190537482249979
 20
-0.0936453475000079
 10
9.227259090700002
 20
-0.1086665060500067
 10
9.264698286349997
 20
-0.1223397394500054
 10
9.302846524549991
 20
-0.1346640484499986
 10
9.341562419900027
 20
-0.1455482410500011
 10
9.380889281900023
 20
-0.1549909180500109
 10
9.420783801100027
 20
-0.1629937278500009
 10
9.460974663100003
 20
-0.1694700683500017
 10
9.501477249500011
 20
-0.1743978958499994
 10
9.54227617879998
 20
-0.1777994534499996
 10
9.583053991849979
 20
-0.1796545480500171
 10
9.623704869000007
 20
-0.1799564635000124
 10
9.664334629900011
 20
-0.1787119580500089
 10
9.704943274600012
 20
-0.1759210073500199
  0
LINE
  5
233F9
330
1F
100
AcDbEntity
  8
1
100
AcDbLine
 10
12.36292221459997
 20
0.2192505462499881
 30
0.0
 11
12.25657130514999
 21
0.2715771821499899
 31
0.0
  0
LINE
  5
233FA
330
1F
100
AcDbEntity
  8
1
100
AcDbLine
 10
13.36670967365002
 20
0.4375179643999944
 30
0.0
 11
13.37325685669999
 21
0.434963125799989
 31
0.0
  0
LINE
  5
233FB
330
1F
100
AcDbEntity
  8
1
100
AcDbLine
 10
13.37325685669999
 20
0.434963125799989
 30
0.0
 11
13.38041445655001
 21
0.4322292212499903
 31
0.0
  0
LINE
  5
233FC
330
1F
100
AcDbEntity
  8
1
100
AcDbLine
 10
13.38041445655001
 20
0.4322292212499903
 30
0.0
 11
13.39250760490002
 21
0.427703558199987
 31
0.0
  0
LINE
  5
233FD
330
1F
100
AcDbEntity
  8
SK1
100
AcDbLine
 10
-1.200000000000031
 20
-4.250000000000006
 30
0.0
 11
-5.499999999999985
 21
-4.250000000000006
 31
0.0
  0
LINE
  5
233FE
330
1F
100
AcDbEntity
  8
SK1
100
AcDbLine
 10
-0.2000000000000313
 20
-4.050000000000004
 30
0.0
 11
-0.3943462145499978
 21
-4.050000000000004
 31
0.0
  0
LINE
  5
233FF
330
1F
100
AcDbEntity
  8
SK1
100
AcDbLine
 10
-8.999999999999984
 20
-4.000000000000006
 30
0.0
 11
-17.20000000000003
 21
-4.000000000000006
 31
0.0
  0
LINE
  5
23400
330
1F
100
AcDbEntity
  8
SK1
100
AcDbLine
 10
-6.600000000000008
 20
-3.125000000000006
 30
0.0
 11
-7.876471862550019
 21
-3.125000000000006
 31
0.0
  0
LINE
  5
23401
330
1F
100
AcDbEntity
  8
1
100
AcDbLine
 10
15.59510773345001
 20
-2.270268975349999
 30
0.0
 11
21.74765421085
 21
-1.731990906750005
 31
0.0
  0
LINE
  5
23402
330
1F
100
AcDbEntity
  8
1
100
AcDbLine
 10
22.35042168060001
 20
-1.679255586399996
 30
0.0
 11
21.74765421085
 21
-1.731990906750005
 31
0.0
  0
LINE
  5
23403
330
1F
100
AcDbEntity
  8
1
100
AcDbLine
 10
15.59510773345001
 20
-2.270268975349999
 30
0.0
 11
13.93102300634997
 21
-2.415857524100011
 31
0.0
  0
LWPOLYLINE
  5
23404
330
1F
100
AcDbEntity
  8
1
100
AcDbPolyline
 90
        4
 70
     0
 43
0.0
 10
14.92907231865003
 20
-2.830710435400014
 10
14.95660298125001
 20
-2.827965226550013
 10
14.99802955920002
 20
-2.822552774800008
 10
15.03905553740004
 20
-2.815642430250001
  0
LINE
  5
23405
330
1F
100
AcDbEntity
  8
SK1
100
AcDbLine
 10
-0.5108147848500125
 20
-4.065333378150008
 30
0.0
 11
-1.200000000000031
 21
-4.250000000000006
 31
0.0
  0
LWPOLYLINE
  5
23406
330
1F
100
AcDbEntity
  8
1
100
AcDbPolyline
 90
       25
 70
     0
 43
0.0
 10
9.847511291650008
 20
3.77534477344998
 10
9.787309936150007
 20
3.685350924549986
 10
9.728340431499999
 20
3.593623942099988
 10
9.670602777699984
 20
3.500167100999994
 10
9.614176360600039
 20
3.405029949649993
 10
9.558981794300008
 20
3.308174461599996
 10
9.504780921600014
 20
3.209470329649994
 10
9.451561145149996
 20
3.108921956549997
 10
9.399335062249988
 20
3.006535998599992
 10
9.347902307500037
 20
2.902179808950002
 10
9.297246433700037
 20
2.79584357594998
 10
9.247383887949991
 20
2.68755108874999
 10
9.198163646649971
 20
2.57721677589999
 10
9.1495942195
 20
2.464890710949979
 10
9.101667096750032
 20
2.350546157149999
 10
9.054205725450014
 20
2.233978584999995
 10
9.007204892550037
 20
2.115215382749986
 10
8.960669811150024
 20
1.994258454150005
 10
8.914439567349988
 20
1.870859494549995
 10
8.868493118650023
 20
1.745006614999985
 10
8.822851507550025
 20
1.616750874150006
 10
8.777416947300039
 20
1.4859361194
 10
8.732156842250006
 20
1.352528888199991
 10
8.687103788049981
 20
1.216621891799995
 10
8.642257784700021
 20
1.078252501650005
  0
LWPOLYLINE
  5
23407
330
1F
100
AcDbEntity
  8
1
100
AcDbPolyline
 90
       10
 70
     0
 43
0.0
 10
10.08145814615001
 20
4.367150461949981
 10
10.05130752104999
 20
4.306902317049996
 10
10.02219367505002
 20
4.245291671799996
 10
9.99411660814998
 20
4.182305472049995
 10
9.967073182450024
 20
4.117913427949993
 10
9.941066535800032
 20
4.052120944899988
 10
9.916106082049976
 20
3.984971030549991
 10
9.892194959050028
 20
3.916472892699991
 10
9.869330028950015
 20
3.846600089649989
 10
9.847511291650008
 20
3.77534477344998
  0
LWPOLYLINE
  5
23408
330
1F
100
AcDbEntity
  8
1
100
AcDbPolyline
 90
       64
 70
     0
 43
0.0
 10
17.45942010919999
 20
-6.180814928950005
 10
17.48838979350002
 20
-6.196781190900003
 10
17.51835160240001
 20
-6.211650820150004
 10
17.54924477225002
 20
-6.225430080499997
 10
17.58100196245
 20
-6.238113813300009
 10
17.61356732150001
 20
-6.249720103899996
 10
17.6468982226
 20
-6.260290040250004
 10
17.68091941585
 20
-6.269828150200004
 10
17.71558407675003
 20
-6.278343029250002
 10
17.75089807175
 20
-6.285881097350006
 10
17.78683685725004
 20
-6.292455296250003
 10
17.82331286804999
 20
-6.298064625900003
 10
17.86023972480002
 20
-6.302734335250001
 10
17.89751242864999
 20
-6.306468960000009
 10
17.93511712869998
 20
-6.309277284449996
 10
17.97310725989997
 20
-6.311190467700008
 10
18.01148010850001
 20
-6.312219240650016
 10
18.05013072915001
 20
-6.312364515400012
 10
18.08896188230001
 20
-6.311642325750021
 10
18.12787493554999
 20
-6.310062455349998
 10
18.16685580909997
 20
-6.307627995350009
 10
18.20593444015004
 20
-6.304344869050019
 10
18.24508885775005
 20
-6.300219599050016
 10
18.28423143140003
 20
-6.295257914500019
 10
18.3232944326
 20
-6.289464342150004
 10
18.36221965369999
 20
-6.282845591399997
 10
18.40095452870004
 20
-6.275407735600005
 10
18.43943984869999
 20
-6.267154449799996
 10
18.47759693235004
 20
-6.258100806550011
 10
18.51539514740001
 20
-6.248244680250003
 10
18.55284625499997
 20
-6.237563979400015
 10
18.58993445860001
 20
-6.226053860100016
 10
18.62656264060003
 20
-6.213732350350007
 10
18.66262093415004
 20
-6.200611663099997
 10
18.6980027149
 20
-6.186721202450008
 10
18.73271012070002
 20
-6.172044503200004
 10
18.76679370260002
 20
-6.156525212350012
 10
18.80022930204997
 20
-6.140158699450005
 10
18.83292396410003
 20
-6.122963562450017
 10
18.86481906004998
 20
-6.104918771700005
 10
18.89583114544997
 20
-6.086049888600006
 10
18.925929614
 20
-6.06634539325001
 10
18.95512788744999
 20
-6.045729325300007
 10
18.98338494044999
 20
-6.02419327945001
 10
19.01060976395003
 20
-6.001761621950002
 10
19.03673310945
 20
-5.978408324050015
 10
19.06168098435002
 20
-5.954147265450011
 10
19.08539798170001
 20
-5.928980720950001
 10
19.10783907029999
 20
-5.902865713100005
 10
19.12891671349997
 20
-5.87583838455
 10
19.14858503275003
 20
-5.847879556849996
 10
19.16684109774998
 20
-5.818865428150012
 10
19.18361138705002
 20
-5.788786459300005
 10
19.19879834485
 20
-5.757673534699995
 10
19.21233731324999
 20
-5.725466286150002
 10
19.22416300785001
 20
-5.69206408355
 10
19.23414531455002
 20
-5.657592251049996
 10
19.24215137015001
 20
-5.622326400650016
 10
19.24812915810004
 20
-5.586201750350005
 10
19.25202598130001
 20
-5.549298639300011
 10
19.25380482344998
 20
-5.512099829100002
 10
19.25348154095003
 20
-5.474714150200006
 10
19.25108628659997
 20
-5.437031605750013
 10
19.24930056225004
 20
-5.419650061399997
  0
LWPOLYLINE
  5
23409
330
1F
100
AcDbEntity
  8
1
100
AcDbPolyline
 90
       13
 70
     0
 43
0.0
 10
10.9025598139
 20
5.458633274449987
 10
10.8201762618
 20
5.372780946599994
 10
10.7395808971
 20
5.285613355149982
 10
10.6608176301
 20
5.197134341650005
 10
10.58345934545004
 20
5.107158185400002
 10
10.50804177480002
 20
5.015880109899987
 10
10.43595203594999
 20
4.923866531349993
 10
10.36716689449999
 20
4.830922772549987
 10
10.30158572544998
 20
4.737232674499999
 10
10.24027979040001
 20
4.643912952900001
 10
10.18345693804998
 20
4.551322789649994
 10
10.13056886574999
 20
4.459073217049996
 10
10.08145814615001
 20
4.367150461949981
  0
LWPOLYLINE
  5
2340A
330
1F
100
AcDbEntity
  8
1
100
AcDbPolyline
 90
       14
 70
     0
 43
0.0
 10
14.40475791705002
 20
-2.758352265650009
 10
14.44707754184999
 20
-2.773149782700009
 10
14.4895907944
 20
-2.786340663150006
 10
14.53223168834997
 20
-2.797929220550009
 10
14.57490752824999
 20
-2.807915835850002
 10
14.61758222289997
 20
-2.816319068500014
 10
14.66027858824999
 20
-2.823164636850001
 10
14.70292832835004
 20
-2.828456565750008
 10
14.74548176010002
 20
-2.832203347000009
 10
14.78799391345002
 20
-2.834418527999993
 10
14.83045386850001
 20
-2.835101147549998
 10
14.87275953644997
 20
-2.834249024550011
 10
14.9148305298
 20
-2.831867334050008
 10
14.92907231865003
 20
-2.830710435400014
  0
LINE
  5
2340B
330
1F
100
AcDbEntity
  8
SK4
100
AcDbLine
 10
-19.29999999999999
 20
-0.0000000000000071
 30
0.0
 11
0.2999999999999687
 21
-0.0000000000000071
 31
0.0
  0
LINE
  5
2340C
330
1F
100
AcDbEntity
  8
4
100
AcDbLine
 10
0.2999999999999687
 20
-0.0000000000000071
 30
0.0
 11
23.7
 21
-0.0000000000000071
 31
0.0
  0
LWPOLYLINE
  5
2340D
330
1F
100
AcDbEntity
  8
1
100
AcDbPolyline
 90
       13
 70
     0
 43
0.0
 10
11.86066447295003
 20
0.012680159199995
 10
11.85160882180004
 20
0.0123830781500019
 10
11.84244542969999
 20
0.0130141792499856
 10
11.83317429650005
 20
0.0145734625499827
 10
11.82378596695004
 20
0.0170707918499815
 10
11.81428989640001
 20
0.0204963033499794
 10
11.80471445085
 20
0.0248204053999999
 10
11.79505860405
 20
0.0300465802499943
 10
11.78532338230003
 20
0.0361713456999908
 10
11.77554023070003
 20
0.043154663299994
 10
11.76571963095002
 20
0.050983187000007
 10
11.75585110129999
 20
0.0596702629000063
 10
11.74593464185001
 20
0.0692158910499856
  0
LWPOLYLINE
  5
2340E
330
1F
100
AcDbEntity
  8
1
100
AcDbPolyline
 90
       10
 70
     0
 43
0.0
 10
12.4005095358
 20
0.2105477023999853
 10
12.39672118329999
 20
0.2103639566500064
 10
12.39283387945001
 20
0.2104681556499983
 10
12.38884762429997
 20
0.2108602993499815
 10
12.38475982149999
 20
0.2115407379499956
 10
12.38057306740002
 20
0.2125091212499868
 10
12.37629515075004
 20
0.213764398799988
 10
12.37192866789998
 20
0.2153062204000022
 10
12.36747102250002
 20
0.2171349362000043
 10
12.36292221459997
 20
0.2192505462499881
  0
LINE
  5
2340F
330
1F
100
AcDbEntity
  8
1
100
AcDbLine
 10
13.53417675570002
 20
0.1590935122500028
 30
0.0
 11
9.704943274600012
 21
-0.1759210073500199
 31
0.0
  0
LINE
  5
23410
330
1F
100
AcDbEntity
  8
1
100
AcDbLine
 10
12.4005095358
 20
0.2105477023999853
 30
0.0
 11
13.23149551025001
 21
0.2832495546999851
 31
0.0
  0
LINE
  5
23411
330
1F
100
AcDbEntity
  8
1
100
AcDbLine
 10
22.3653452439
 20
1.333185252999989
 30
0.0
 11
14.13998420744998
 21
0.6136226635499824
 31
0.0
  0
LINE
  5
23412
330
1F
100
AcDbEntity
  8
1
100
AcDbLine
 10
12.81013593194997
 20
0.497212760599986
 30
0.0
 11
14.13694777995
 21
0.6133588677999953
 31
0.0
  0
LWPOLYLINE
  5
23413
330
1F
100
AcDbEntity
  8
1
100
AcDbPolyline
 90
       28
 70
     0
 43
0.0
 10
14.14114419459999
 20
0.6137452384499868
 10
14.10019041290003
 20
0.6099745579499896
 10
14.05983053105002
 20
0.605879179749998
 10
14.02014304005003
 20
0.6014763409499793
 10
13.98123757464999
 20
0.5967880046500014
 10
13.94315121960001
 20
0.591821128599996
 10
13.90585205430001
 20
0.5865716797999953
 10
13.86940115929998
 20
0.5810548737999781
 10
13.83387462680004
 20
0.5752840518999918
 10
13.79926663585003
 20
0.5692571105999848
 10
13.76559611295
 20
0.5629748129499959
 10
13.73297877560004
 20
0.5564653232999959
 10
13.70154928320001
 20
0.5497652270499957
 10
13.67142281965
 20
0.5428912303499871
 10
13.6425869053
 20
0.5358369889500027
 10
13.61498498225002
 20
0.5286047563999931
 10
13.58863295565
 20
0.5211921535499826
 10
13.56363075029999
 20
0.5136206902999945
 10
13.54005125599998
 20
0.5059306847999851
 10
13.51797311190002
 20
0.4981347826499915
 10
13.49740417060003
 20
0.4902248707999989
 10
13.47831535039996
 20
0.4822119426499897
 10
13.46074551480002
 20
0.4740977788500019
 10
13.44475813104999
 20
0.4658920658499781
 10
13.43037477195004
 20
0.4576235209499872
 10
13.41763690525
 20
0.4493050209499856
 10
13.40660064145
 20
0.4409314169999945
 10
13.39731064680002
 20
0.4325044495499883
  0
LWPOLYLINE
  5
23414
330
1F
100
AcDbEntity
  8
1
100
AcDbPolyline
 90
       40
 70
     0
 43
0.0
 10
11.23509562239998
 20
0.3232468935999933
 10
11.24214920304997
 20
0.3240269372999833
 10
11.26641351795003
 20
0.3274054587000066
 10
11.28975788589999
 20
0.3317623236499898
 10
11.31218389135002
 20
0.3370981165500027
 10
11.33366028075001
 20
0.3434007908499908
 10
11.35417225114999
 20
0.3506540204999808
 10
11.37368361084999
 20
0.3588398810000015
 10
11.39220461524998
 20
0.3679453262000081
 10
11.40979186535004
 20
0.3779532055499928
 10
11.42637730335003
 20
0.3888049159499829
 10
11.44200847029999
 20
0.4005097889999904
 10
11.4569100453
 20
0.4131743169499842
 10
11.47107538174999
 20
0.4268006271999881
 10
11.48447723245
 20
0.4413868345499951
 10
11.49729489610003
 20
0.4570813586
 10
11.50955265030002
 20
0.4739812794000004
 10
11.52117107059997
 20
0.4920339402999973
 10
11.53217008374999
 20
0.5111701252499829
 10
11.54250969095001
 20
0.5313725112499911
 10
11.55218524534997
 20
0.5526477520999791
 10
11.56127797410001
 20
0.5749369129000073
 10
11.56977105994998
 20
0.5982327607999949
 10
11.57764297580003
 20
0.6225009090999905
 10
11.58497769475004
 20
0.6476190907500055
 10
11.59176319814999
 20
0.6735314464999859
 10
11.59798926150002
 20
0.7002142521499977
 10
11.60375292410005
 20
0.7275750892499886
 10
11.60905384985001
 20
0.7555540611499865
 10
11.61388146370002
 20
0.7841135737999779
 10
11.61832349275001
 20
0.8131867511499919
 10
11.62238313620004
 20
0.8427007720999808
 10
11.62605477080002
 20
0.8726231806999962
 10
11.62941371795001
 20
0.902946852499987
 10
11.63246958790002
 20
0.9336532690500051
 10
11.63521005924998
 20
0.9646565954499875
 10
11.63767995410002
 20
0.9958478926499836
 10
11.63989876410001
 20
1.02715389704999
 10
11.64185731499999
 20
1.058538682299988
 10
11.64356170060002
 20
1.089948321550004
  0
LINE
  5
23416
330
1F
100
AcDbEntity
  8
1
100
AcDbLine
 10
3.000000000000013
 20
6.499999999999992
 30
0.0
 11
3.000000000000013
 21
4.999999999999992
 31
0.0
  0
LINE
  5
23417
330
1F
100
AcDbEntity
  8
1
100
AcDbLine
 10
3.000000000000013
 20
-5.000000000000006
 30
0.0
 11
3.000000000000013
 21
-6.500000000000007
 31
0.0
  0
LWPOLYLINE
  5
23418
330
1F
100
AcDbEntity
  8
1
100
AcDbPolyline
 90
       10
 70
     0
 43
0.0
 10
22.81852735175001
 20
-1.122006157700006
 10
22.82229016980001
 20
-1.122483073300009
 10
22.82610040730006
 20
-1.123260739249991
 10
22.82995806409998
 20
-1.124339155500002
 10
22.83386563504997
 20
-1.125719122950009
 10
22.83782062535001
 20
-1.127399840699999
 10
22.84181555065
 20
-1.129378906100008
 10
22.84584791614999
 20
-1.131655518349994
 10
22.84992021669997
 20
-1.134230478300004
 10
22.8540324522
 20
-1.137103785900001
  0
LINE
  5
23419
330
1F
100
AcDbEntity
  8
1
100
AcDbLine
 10
22.47882319780003
 20
-1.092285895250006
 30
0.0
 11
22.81852735175001
 21
-1.122006157700006
 31
0.0
  0
LWPOLYLINE
  5
2341A
330
1F
100
AcDbEntity
  8
1
100
AcDbPolyline
 90
       30
 70
     0
 43
0.0
 10
11.1191676003
 20
1.819292285099996
 10
11.09737648720001
 20
1.816634052600001
 10
11.0684936487
 20
1.811911781499993
 10
11.03932265510003
 20
1.805770659500004
 10
11.00991956870003
 20
1.798199935699989
 10
10.98047975789997
 20
1.789224380650004
 10
10.95104235825
 20
1.778852582999981
 10
10.92161451875002
 20
1.767085066299991
 10
10.89234048779998
 20
1.753955580199991
 10
10.86323902505002
 20
1.739477610400007
 10
10.83433425215004
 20
1.723671068199983
 10
10.80577505219999
 20
1.706594678099981
 10
10.77760565580003
 20
1.68829446819999
 10
10.74981697580001
 20
1.668788114299992
 10
10.72247616900002
 20
1.64809845349999
 10
10.69558164335002
 20
1.626241562549985
 10
10.66916914414999
 20
1.603268599199998
 10
10.64335985615004
 20
1.579259958449988
 10
10.61816655175001
 20
1.554257768199995
 10
10.59360106405002
 20
1.52831043379998
 10
10.56977723745002
 20
1.5015200729
 10
10.54671924515004
 20
1.473958919849998
 10
10.52441544655001
 20
1.445664570300003
 10
10.50292203715004
 20
1.416693135449996
 10
10.48225542219997
 20
1.387118198299994
 10
10.46240581025002
 20
1.356979163149992
 10
10.44339187204998
 20
1.326277606349997
 10
10.42522363910002
 20
1.295048812499991
 10
10.40789906675003
 20
1.263365813749991
 10
10.39142031644998
 20
1.231284393849995
  0
LINE
  5
2341B
330
1F
100
AcDbEntity
  8
1
100
AcDbLine
 10
0.2999999999999687
 20
6.499999999999992
 30
0.0
 11
0.2999999999999687
 21
-6.500000000000007
 31
0.0
  0
LINE
  5
2341C
330
1F
100
AcDbEntity
  8
SK1
100
AcDbLine
 10
-0.5108147848500125
 20
4.065333378149993
 30
0.0
 11
-1.200000000000031
 21
4.249999999999992
 31
0.0
  0
LWPOLYLINE
  5
2341D
330
1F
100
AcDbEntity
  8
1
100
AcDbPolyline
 90
       33
 70
     0
 43
0.0
 10
22.3653452439
 20
1.333185252999989
 10
22.36623619665001
 20
1.333133236699999
 10
22.36705701084999
 20
1.332931175299997
 10
22.36780768820002
 20
1.332579067749981
 10
22.36848631304999
 20
1.332050656049992
 10
22.369094804
 20
1.3313721962
 10
22.36963891350002
 20
1.330622457999985
 10
22.37011103580002
 20
1.329819813850001
 10
22.37051877829999
 20
1.328945890149987
 10
22.37089071239997
 20
1.328024338399991
 10
22.37123221700001
 20
1.327061616450001
 10
22.37153791375
 20
1.326051265999999
 10
22.37182023800001
 20
1.324997564649996
 10
22.37207436685004
 20
1.323963908149998
 10
22.37230512345004
 20
1.322886900599989
 10
22.37253941234998
 20
1.321580632199989
 10
22.37279473540004
 20
1.319971494349992
 10
22.37305359074999
 20
1.318133095650004
 10
22.37329037715001
 20
1.316100352099985
 10
22.37350054085
 20
1.313815175699992
 10
22.37368863575001
 20
1.311335654300002
 10
22.37384272240003
 20
1.308870967399989
 10
22.37395473624999
 20
1.306494744500007
 10
22.37403274175001
 20
1.304133356100003
 10
22.37408899280003
 20
1.301775093449981
 10
22.37412555239997
 20
1.2994157484
 10
22.37414035744997
 20
1.297059529249985
 10
22.3741394723
 20
1.294707351799991
 10
22.37412365415003
 20
1.29235936299998
 10
22.37409214574997
 20
1.290015415999995
 10
22.37404873984998
 20
1.287675986200007
 10
22.37399384980002
 20
1.285341154799985
 10
22.37385092960001
 20
1.280685275149983
  0
LINE
  5
2341E
330
1F
100
AcDbEntity
  8
SK1
100
AcDbLine
 10
-6.600000000000008
 20
3.124999999999991
 30
0.0
 11
-7.876471862550019
 21
3.124999999999991
 31
0.0
  0
LINE
  5
2341F
330
1F
100
AcDbEntity
  8
1
100
AcDbLine
 10
21.86152336810001
 20
4.826434633599994
 30
0.0
 11
9.847511291650008
 21
3.77534477344998
 31
0.0
  0
LINE
  5
23420
330
1F
100
AcDbEntity
  8
1
100
AcDbLine
 10
0.0000000000000142
 20
6.199999999999994
 30
0.0
 11
0.0000000000000142
 21
-6.200000000000008
 31
0.0
  0
LINE
  5
23421
330
1F
100
AcDbEntity
  8
SK1
100
AcDbLine
 10
-1.200000000000031
 20
4.249999999999992
 30
0.0
 11
-1.200000000000031
 21
-4.250000000000006
 31
0.0
  0
LINE
  5
23422
330
1F
100
AcDbEntity
  8
1
100
AcDbLine
 10
14.40475791705002
 20
-7.611164271450014
 30
0.0
 11
10.9025598139
 21
-6.614555138050015
 31
0.0
  0
LINE
  5
23423
330
1F
100
AcDbEntity
  8
1
100
AcDbLine
 10
22.35042168060001
 20
1.679255586399982
 30
0.0
 11
21.14822227035002
 21
1.784434406099996
 31
0.0
  0
LINE
  5
23424
330
1F
100
AcDbEntity
  8
SK1
100
AcDbLine
 10
-8.999999999999984
 20
3.999999999999991
 30
0.0
 11
-17.20000000000003
 21
3.999999999999991
 31
0.0
  0
LINE
  5
23425
330
1F
100
AcDbEntity
  8
SK1
100
AcDbLine
 10
-0.2000000000000313
 20
4.04999999999999
 30
0.0
 11
-0.3943462145499978
 21
4.04999999999999
 31
0.0
  0
LINE
  5
23426
330
1F
100
AcDbEntity
  8
SK1
100
AcDbLine
 10
-1.200000000000031
 20
4.249999999999992
 30
0.0
 11
-5.499999999999985
 21
4.249999999999992
 31
0.0
  0
LINE
  5
23427
330
1F
100
AcDbEntity
  8
1
100
AcDbLine
 10
14.40475791705002
 20
7.611164271449999
 30
0.0
 11
10.9025598139
 21
6.614555138049999
 31
0.0
  0
LINE
  5
23428
330
1F
100
AcDbEntity
  8
1
100
AcDbLine
 10
14.40475791705002
 20
7.304589292849987
 30
0.0
 11
14.23350008925003
 21
7.24842437569999
 31
0.0
  0
LWPOLYLINE
  5
23429
330
1F
100
AcDbEntity
  8
1
100
AcDbPolyline
 90
       31
 70
     0
 43
0.0
 10
14.23350008925003
 20
7.24842437569999
 10
14.08902629435
 20
7.200359494349989
 10
13.94667906539998
 20
7.151750130799988
 10
13.80652973545001
 20
7.102602525899988
 10
13.66869264380001
 20
7.052949510400003
 10
13.53317823140004
 20
7.002769170400007
 10
13.39989579104998
 20
6.951985087649981
 10
13.26884203764997
 20
6.900591500599992
 10
13.14011935005
 20
6.848602840399997
 10
13.01379031124999
 20
6.795972522749982
 10
12.88989513205003
 20
6.742710316149986
 10
12.76846353890001
 20
6.688812570799988
 10
12.64953523819999
 20
6.634211949400004
 10
12.53321547434997
 20
6.578958554199992
 10
12.41944152650002
 20
6.52300600329999
 10
12.30800202600001
 20
6.46614230974999
 10
12.19888971454999
 20
6.408370087699998
 10
12.09214899855
 20
6.349689973099991
 10
11.98765360699998
 20
6.289887676399993
 10
11.88543285959998
 20
6.22898979924998
 10
11.78548703355001
 20
6.166972329400002
 10
11.68765506365003
 20
6.103545823949992
 10
11.59192411020002
 20
6.038712581599988
 10
11.49833882129998
 20
5.97247308645
 10
11.40683311055001
 20
5.904535938749994
 10
11.31737729430001
 20
5.834883082999986
 10
11.23003121684998
 20
5.763535213399996
 10
11.14486323805
 20
5.690259067900007
 10
11.06190052274998
 20
5.614977275449994
 10
10.98113095380002
 20
5.5377685236
 10
10.9025598139
 20
5.458633274449987
  0
LINE
  5
2342A
330
1F
100
AcDbEntity
  8
SK1
100
AcDbLine
 10
-8.300735931250002
 20
3.300735931299988
 30
0.0
 11
-8.999999999999984
 21
3.999999999999991
 31
0.0
  0
LINE
  5
2342B
330
1F
100
AcDbEntity
  8
1
100
AcDbLine
 10
10.00000000000001
 20
4.999999999999992
 30
0.0
 11
3.000000000000013
 21
4.999999999999992
 31
0.0
  0
LINE
  5
2342C
330
1F
100
AcDbEntity
  8
SK1
100
AcDbLine
 10
-8.300735931250002
 20
-3.300735931300002
 30
0.0
 11
-8.999999999999984
 21
-4.000000000000006
 31
0.0
  0
LINE
  5
2342D
330
1F
100
AcDbEntity
  8
1
100
AcDbLine
 10
0.2999999999999687
 20
-6.500000000000007
 30
0.0
 11
0.0000000000000142
 21
-6.200000000000008
 31
0.0
  0
LINE
  5
2342E
330
1F
100
AcDbEntity
  8
1
100
AcDbLine
 10
10.08145814615001
 20
6.499999999999992
 30
0.0
 11
10.00000000000001
 21
6.499999999999992
 31
0.0
  0
LINE
  5
2342F
330
1F
100
AcDbEntity
  8
1
100
AcDbLine
 10
3.000000000000013
 20
6.499999999999992
 30
0.0
 11
0.2999999999999687
 21
6.499999999999992
 31
0.0
  0
LINE
  5
23431
330
1F
100
AcDbEntity
  8
1
100
AcDbLine
 10
0.2999999999999687
 20
6.499999999999992
 30
0.0
 11
0.0000000000000142
 21
6.199999999999994
 31
0.0
  0
LINE
  5
23432
330
1F
100
AcDbEntity
  8
SK1
100
AcDbLine
 10
-5.499999999999985
 20
4.249999999999992
 30
0.0
 11
-5.499999999999985
 21
-4.250000000000006
 31
0.0
  0
LINE
  5
23433
330
1F
100
AcDbEntity
  8
SK1
100
AcDbLine
 10
-5.499999999999985
 20
-4.250000000000006
 30
0.0
 11
-5.999999999999985
 21
-3.961324865400023
 31
0.0
  0
LINE
  5
23434
330
1F
100
AcDbEntity
  8
1
100
AcDbLine
 10
21.62977804695
 20
6.84508562474999
 30
0.0
 11
15.03905553740004
 21
7.660163421349998
 31
0.0
  0
LWPOLYLINE
  5
23435
330
1F
100
AcDbEntity
  8
1
100
AcDbPolyline
 90
       10
 70
     0
 43
0.0
 10
21.62977804695
 20
6.700375344399994
 10
20.95097294749998
 20
6.771476802699999
 10
20.25900370615001
 20
6.843514112099986
 10
19.55387032299997
 20
6.91648727264998
 10
18.83585307599999
 20
6.990377811949989
 10
18.10467168715003
 20
7.065204202299987
 10
17.35948532225002
 20
7.141021861149987
 10
16.60001370335
 20
7.21784926084998
 10
15.82653710839999
 20
7.295667928999981
 10
15.03905553740004
 20
7.374477865549996
  0
LWPOLYLINE
  5
23436
330
1F
100
AcDbEntity
  8
1
100
AcDbPolyline
 90
       13
 70
     0
 43
0.0
 10
15.03905553740004
 20
7.374477865549996
 10
14.98621882235001
 20
7.378832389199992
 10
14.93326828674999
 20
7.381338725300004
 10
14.88020393055002
 20
7.381996873799983
 10
14.82695814240004
 20
7.380810536599987
 10
14.77359853365
 20
7.3777760118
 10
14.72032793865004
 20
7.37288219415
 10
14.66714809500003
 20
7.366120294249987
 10
14.61405726505002
 20
7.357499101499987
 10
14.56125307020001
 20
7.347033878699996
 10
14.50880138410004
 20
7.334729713449981
 10
14.45663633305004
 20
7.32058151815
 10
14.40475791705002
 20
7.304589292849987
  0
LINE
  5
23437
330
1F
100
AcDbEntity
  8
SK1
100
AcDbLine
 10
-5.499999999999985
 20
4.249999999999992
 30
0.0
 11
-5.999999999999985
 21
3.961324865400008
 31
0.0
  0
LINE
  5
23438
330
1F
100
AcDbEntity
  8
SK1
100
AcDbLine
 10
-5.999999999999985
 20
3.961324865400008
 30
0.0
 11
-5.999999999999985
 21
-3.961324865400023
 31
0.0
  0
LINE
  5
2343A
330
1F
100
AcDbEntity
  8
SK1
100
AcDbLine
 10
-8.999999999999984
 20
3.999999999999991
 30
0.0
 11
-8.999999999999984
 21
-4.000000000000006
 31
0.0
  0
LINE
  5
2343B
330
1F
100
AcDbEntity
  8
SK1
100
AcDbLine
 10
-17.20000000000003
 20
3.999999999999991
 30
0.0
 11
-17.20000000000003
 21
-4.000000000000006
 31
0.0
  0
LINE
  5
2343C
330
1F
100
AcDbEntity
  8
SK1
100
AcDbLine
 10
-17.8
 20
2.960769515449988
 30
0.0
 11
-17.8
 21
-2.960769515450003
 31
0.0
  0
LINE
  5
2343D
330
1F
100
AcDbEntity
  8
SK1
100
AcDbLine
 10
-17.20000000000003
 20
-4.000000000000006
 30
0.0
 11
-17.8
 21
-2.960769515450003
 31
0.0
  0
LINE
  5
2343E
330
1F
100
AcDbEntity
  8
SK1
100
AcDbLine
 10
-17.20000000000003
 20
3.999999999999991
 30
0.0
 11
-17.8
 21
2.960769515449988
 31
0.0
  0
ARC
  5
23440
330
1F
100
AcDbEntity
  8
1
100
AcDbCircle
 10
10.08145814615001
 20
9.499999999999991
 30
0.0
 40
3.0
100
AcDbArc
 50
270.0
 51
285.8845907441984
  0
ARC
  5
23441
330
1F
100
AcDbEntity
  8
1
100
AcDbCircle
 10
10.08145814615001
 20
-9.500000000000008
 30
0.0
 40
3.0
100
AcDbArc
 50
74.11540925580161
 51
90.0
  0
ARC
  5
23442
330
1F
100
AcDbEntity
  8
1
100
AcDbCircle
 10
14.84267880649999
 20
6.072260345099997
 30
0.0
 40
1.6
100
AcDbArc
 50
82.95000000000127
 51
105.8845907441984
  0
ARC
  5
23443
330
1F
100
AcDbEntity
  8
1
100
AcDbCircle
 10
14.84267880649999
 20
-6.072260345100013
 30
0.0
 40
1.6
100
AcDbArc
 50
254.1154092558016
 51
277.0499999999987
  0
ARC
  5
23444
330
1F
100
AcDbEntity
  8
1
100
AcDbCircle
 10
21.55000000000002
 20
6.199999999999994
 30
0.0
 40
0.65
100
AcDbArc
 50
0.0
 51
82.95000000000127
  0
ARC
  5
23445
330
1F
100
AcDbEntity
  8
1
100
AcDbCircle
 10
21.55000000000002
 20
-6.200000000000008
 30
0.0
 40
0.65
100
AcDbArc
 50
277.0499999999987
 51
0.0
  0
ARC
  5
23446
330
1F
100
AcDbEntity
  8
SK1
100
AcDbCircle
 10
-6.600000000000008
 20
3.724999999999986
 30
0.0
 40
0.6
100
AcDbArc
 50
270.0
 51
0.0
  0
ARC
  5
23447
330
1F
100
AcDbEntity
  8
SK1
100
AcDbCircle
 10
-6.600000000000008
 20
-3.725
 30
0.0
 40
0.6
100
AcDbArc
 50
0.0
 51
90.0
  0
ARC
  5
23448
330
1F
100
AcDbEntity
  8
SK1
100
AcDbCircle
 10
-7.876471862550019
 20
3.724999999999986
 30
0.0
 40
0.6
100
AcDbArc
 50
224.9999999999997
 51
270.0
  0
ARC
  5
23449
330
1F
100
AcDbEntity
  8
SK1
100
AcDbCircle
 10
-7.876471862550019
 20
-3.725
 30
0.0
 40
0.6
100
AcDbArc
 50
90.0
 51
135.0000000000006
  0
ARC
  5
2344A
330
1F
100
AcDbEntity
  8
SK1
100
AcDbCircle
 10
-0.2000000000000313
 20
4.499999999999992
 30
0.0
 40
0.45
100
AcDbArc
 50
270.0
 51
296.3952133415014
  0
ARC
  5
2344B
330
1F
100
AcDbEntity
  8
SK1
100
AcDbCircle
 10
-0.2000000000000313
 20
-4.500000000000006
 30
0.0
 40
0.45
100
AcDbArc
 50
63.60478665849864
 51
90.0
  0
ARC
  5
2344C
330
1F
100
AcDbEntity
  8
SK1
100
AcDbCircle
 10
-0.3943462145499978
 20
4.499999999999992
 30
0.0
 40
0.45
100
AcDbArc
 50
254.9999999999988
 51
270.0
  0
ARC
  5
2344D
330
1F
100
AcDbEntity
  8
SK1
100
AcDbCircle
 10
-0.3943462145499978
 20
-4.500000000000006
 30
0.0
 40
0.45
100
AcDbArc
 50
90.0
 51
105.0000000000011
  0
ELLIPSE
  5
2344E
330
1F
100
AcDbEntity
  8
1
100
AcDbEllipse
 10
43.2589650682
 20
-413.1552418505497
 30
0.0
 11
-24.66231356065001
 21
413.3933498508501
 31
0.0
210
0.0
220
0.0
230
-1.0
 40
0.0717799315
 41
-0.1060178155
 42
0.1020432319
  0
ELLIPSE
  5
2344F
330
1F
100
AcDbEntity
  8
1
100
AcDbEllipse
 10
11.88092763819999
 20
-0.7360437620000157
 30
0.0
 11
-2.788400654
 21
6.8325258789
 31
0.0
210
0.0
220
0.0
230
-1.0
 40
0.253351157
 41
1.5431364151
 42
1.7207659787
  0
LWPOLYLINE
  5
2348F
330
1F
100
AcDbEntity
  8
NOCUT
100
AcDbPolyline
 90
       13
 70
     1
 43
0.0
 10
21.62977804689992
 20
6.84508562474999
 10
15.03905553739118
 20
7.660163421350084
 42
0.1004064179328533
 10
14.40475791704996
 20
7.611164271449999
 10
10.90255981390125
 20
6.614555138073845
 42
-0.0694207995180915
 10
10.08145814614995
 20
6.499999999999992
 10
9.999999999999957
 20
6.499999999999992
 10
0.2999999999999119
 20
6.499999999999992
 10
-0.0000000000000426
 20
6.200000000000008
 10
0.0000000000000142
 20
-0.0000000000000071
 10
21.14688498009987
 20
0.0000000000000213
 10
21.14688498009993
 20
2.504451068600011
 42
-0.0762874660137147
 10
21.22051857549992
 20
2.984248524699998
 10
22.17008635187223
 20
6.005082283458726
 42
0.4684342296340184
  0
DIMENSION
  5
234B7
330
1F
100
AcDbEntity
  8
SK2
100
AcDbDimension
  2
*D4
 10
-0.0000000000000419
 20
17.34769486026649
 30
0.0
 11
-8.900000000000019
 21
19.2491846705265
 31
0.0
 70
    32
 71
     5
 42
17.79999999999995
  3
STANDARD
100
AcDbAlignedDimension
 13
-17.8
 23
2.960769515449988
 33
0.0
 14
-0.0000000000000426
 24
6.199999999999938
 34
0.0
100
AcDbRotatedDimension
1001
ACAD
1000
DSTYLE
1002
{
1070
    41
1040
2.5
1002
}
  0
DIMENSION
  5
234DF
330
1F
100
AcDbEntity
  8
SK2
100
AcDbDimension
  2
*D5
 10
-34.81366682054782
 20
-6.499999999999997
 30
0.0
 11
-36.76680807142625
 21
-0.000000000000003
 31
0.0
 70
    32
  1
%%C<>
 71
     5
 42
13.0
  3
STANDARD
100
AcDbAlignedDimension
 13
0.2999999999999119
 23
6.499999999999992
 33
0.0
 14
0.2999999999999687
 24
-6.500000000000007
 34
0.0
 50
90.0
100
AcDbRotatedDimension
1001
ACAD
1000
DSTYLE
1002
{
1070
   172
1070
     1
1070
    41
1040
2.5
1002
}
  0
DIMENSION
  5
234EC
330
1F
100
AcDbEntity
  8
SK2
100
AcDbDimension
  2
*D6
 10
-25.48727167190633
 20
-4.000000000000004
 30
0.0
 11
-27.44041292278475
 21
-0.0000000000000084
 31
0.0
 70
    32
  1
%%C<>
 71
     5
 42
8.0
  3
STANDARD
100
AcDbAlignedDimension
 13
-17.20000000000003
 23
3.999999999999991
 33
0.0
 14
-17.20000000000003
 24
-4.000000000000006
 34
0.0
 50
90.0
100
AcDbRotatedDimension
1001
ACAD
1000
DSTYLE
1002
{
1070
   172
1070
     1
1070
    41
1040
2.5
1002
}
  0
LWPOLYLINE
  5
23772
330
1F
100
AcDbEntity
  8
CUT
100
AcDbPolyline
 90
      335
 70
     1
 43
0.0
 10
22.53134952042818
 20
7.067401456981961
 10
22.24555399999993
 20
7.153021000000016
 10
21.95804899999992
 20
7.234600000000021
 10
21.6692859999999
 20
7.311994000000019
 10
21.37948699999988
 20
7.38512800000003
 10
21.08871799999993
 20
7.453975000000006
 10
20.79697299999994
 20
7.518533000000012
 10
20.50424299999993
 20
7.578800000000022
 10
20.21056899999992
 20
7.634760000000021
 10
19.91603199999993
 20
7.686389000000012
 10
19.62071299999987
 20
7.733663000000028
 10
19.32469699999986
 20
7.77656000000001
 10
19.02806999999991
 20
7.81506700000002
 10
18.73091999999992
 20
7.84916900000001
 10
18.43331899999994
 20
7.878855000000008
 10
18.13529499999988
 20
7.904117000000006
 10
17.83686799999994
 20
7.924950000000016
 10
17.53806799999991
 20
7.941347000000028
 10
17.23898299999992
 20
7.953301000000031
 10
16.93971799999992
 20
7.960805000000014
 10
16.6403749999999
 20
7.963853000000021
 10
16.34101699999992
 20
7.962440000000007
 10
16.04167999999988
 20
7.956567000000028
 10
15.74239899999993
 20
7.94623200000003
 10
15.44322899999993
 20
7.931437000000009
 10
15.14424099999992
 20
7.91218300000002
 10
14.84551099999994
 20
7.888471000000031
 10
14.54711199999993
 20
7.860306000000029
 10
14.2491189999999
 20
7.827694000000029
 10
13.95170916425346
 20
7.790656722799738
 10
13.93766395569987
 20
7.788653697600032
 10
13.92372399999995
 20
7.786371000000023
 10
13.90987181249996
 20
7.783806823700039
 10
13.89607599999995
 20
7.780955000000027
 10
13.88236662629999
 20
7.777820928200007
 10
13.86872599999988
 20
7.774400000000007
 10
13.85517291139997
 20
7.770696086600018
 10
13.8417009999999
 20
7.766707000000018
 10
13.82832168269995
 20
7.762435439400029
 10
13.81503599999992
 20
7.757881000000018
 10
13.8018549147999
 20
7.753046603300013
 10
13.78877999999993
 20
7.747932000000012
 10
13.77582196119995
 20
7.742540343000023
 10
13.76298299999992
 20
7.736871000000029
 10
13.75027416639996
 20
7.730927396200023
 10
13.73769699999987
 20
7.724710000000008
 10
13.72526122389998
 20
7.718223543700041
 10
13.71296899999989
 20
7.711469000000015
 10
13.70082819159991
 20
7.704450268900011
 10
13.68884299999986
 20
7.697169000000023
 10
13.67702072259995
 20
7.689628743000007
 10
13.6653659999999
 20
7.681832000000007
 10
13.65388510079988
 20
7.673782587400005
 10
13.6425829999999
 20
7.665484000000013
 10
13.63146335450001
 20
7.65693892120003
 10
13.62053299999987
 20
7.648153000000029
 10
13.60979415119989
 20
7.639128208300029
 10
13.59925499999993
 20
7.629871000000029
 10
13.5889169606
 20
7.620381951200037
 10
13.57878899999987
 20
7.610669000000022
 10
13.56887099329988
 20
7.600731945300019
 10
13.55917199999995
 20
7.590581000000007
 10
13.54968994849999
 20
7.580215129400038
 10
13.54043499999996
 20
7.569646000000027
 10
13.53140520659993
 20
7.558871562500023
 10
13.52261099999994
 20
7.547904000000009
 10
13.51404998499988
 20
7.536740120300031
 10
13.50573199999992
 20
7.525394000000027
 10
13.49765366100003
 20
7.513862641000024
 10
13.48982399999995
 20
7.502161000000022
 10
13.48224028839998
 20
7.490286849700019
 10
13.47491099999986
 20
7.478254000000013
 10
13.46783449569996
 20
7.466060113800004
 10
13.46101799999992
 20
7.453719000000027
 10
13.45445923960001
 20
7.441228441900015
 10
13.44816399999986
 20
7.42860300000003
 10
13.44212900829991
 20
7.415839416000032
 10
13.43636099999988
 20
7.402953000000017
 10
13.43085714509989
 20
7.389938408400034
 10
13.42562299999993
 20
7.376813000000019
 10
13.42065465660001
 20
7.3635713838
 10
13.41595799999989
 20
7.350231000000029
 10
13.41152916689994
 20
7.336782029700025
 10
13.40737399999996
 20
7.323246000000033
 10
13.40348731629997
 20
7.309610128400031
 10
13.39987499999991
 20
7.295899000000012
 10
13.39653139460002
 20
7.282094344500016
 10
13.39346299999995
 20
7.268226000000019
 10
13.26709499999988
 20
6.669772000000016
 10
13.26522199999995
 20
6.661216000000017
 10
13.26329999999991
 20
6.652631000000006
 10
13.26132799999989
 20
6.644017000000012
 10
13.25930499999988
 20
6.63537200000001
 10
13.25723199999989
 20
6.626696000000031
 10
13.2551089999999
 20
6.617992000000008
 10
13.25293699999993
 20
6.609263000000019
 10
13.25071599999997
 20
6.600514000000025
 10
13.2484469999999
 20
6.591747000000019
 10
13.24612999999995
 20
6.582965000000022
 10
13.24376599999989
 20
6.574167000000009
 10
13.24135199999996
 20
6.565351000000013
 10
13.23888999999992
 20
6.556516000000009
 10
12.40665399999996
 20
3.623754000000012
 10
12.40431399999996
 20
3.615587000000026
 10
12.40193699999993
 20
3.607440000000018
 10
12.39952099999989
 20
3.599311000000021
 10
12.39706699999995
 20
3.59119900000001
 10
12.39457299999988
 20
3.583102000000017
 10
12.3920409999999
 20
3.575021000000013
 10
12.38947099999991
 20
3.566960000000015
 10
12.3868639999999
 20
3.558921000000019
 10
12.38422099999987
 20
3.550909000000011
 10
12.38154299999992
 20
3.542926000000015
 10
12.37883099999995
 20
3.534976000000021
 10
12.37608499999995
 20
3.527058000000032
 10
12.37330399999992
 20
3.519169000000026
 10
12.37048799999987
 20
3.51131000000003
 10
12.25782799999986
 20
3.202821000000021
 10
12.25159447559993
 20
3.185126987700037
 10
12.24580599999986
 20
3.167282000000021
 10
12.24050101039991
 20
3.149399695200024
 10
12.23565399999991
 20
3.131388000000008
 10
12.2312950158999
 20
3.11335097900001
 10
12.22740499999993
 20
3.095207000000009
 10
12.22400785649991
 20
3.077065022900022
 10
12.22108899999996
 20
3.058840000000024
 10
12.21866962479994
 20
3.040657113300021
 10
12.21673799999992
 20
3.022416000000013
 10
12.21530963079995
 20
3.00425405630002
 10
12.21437499999986
 20
2.98606000000003
 10
12.21394068109994
 20
2.967985524600003
 10
12.21400399999989
 20
2.949906000000019
 10
12.21456435359989
 20
2.931982214100024
 10
12.21562399999989
 20
2.914081000000031
 10
12.21717056849998
 20
2.896369772400014
 10
12.21921399999992
 20
2.878709000000007
 10
12.22173268460001
 20
2.8612672673
 10
12.22474499999994
 20
2.84390400000003
 10
12.22822247119991
 20
2.826775181400016
 10
12.2321889999999
 20
2.809753000000021
 10
12.2366156936999
 20
2.792957322100015
 10
12.24152399999987
 20
2.776296000000023
 10
12.24688851189997
 20
2.759851355200019
 10
12.25272699999989
 20
2.743569000000029
 10
12.25902375459994
 20
2.727497668800019
 10
12.26578699999989
 20
2.711617000000011
 10
12.27301117819986
 20
2.695943676900036
 10
12.28069199999989
 20
2.680489000000015
 10
12.28883882859993
 20
2.6652395021
 10
12.29743199999991
 20
2.650237000000025
 10
12.3064998597999
 20
2.635439489900015
 10
12.31600199999987
 20
2.620917000000012
 10
12.32598581659995
 20
2.606603221800035
 10
12.33638999999989
 20
2.592592000000017
 10
12.34728298909995
 20
2.57879920100003
 10
12.35858199999991
 20
2.56533700000002
 10
12.37037584419995
 20
2.552107688100015
 10
12.38255799999986
 20
2.539235000000012
 10
12.39522301329994
 20
2.526622743200015
 10
12.4082549999999
 20
2.514390000000013
 10
12.42174448529995
 20
2.502455125200036
 10
12.43557899999992
 20
2.490922000000033
 10
12.44984563319993
 20
2.47972154180001
 10
12.46443299999994
 20
2.468942000000019
 10
12.47942398589994
 20
2.458522517000027
 10
12.4947099999999
 20
2.448541000000027
 10
12.51036324149989
 20
2.438950816400016
 10
12.52628199999988
 20
2.429808000000029
 10
12.54247305109989
 20
2.421097805400016
 10
12.55889599999996
 20
2.412833000000027
 10
12.57547519149996
 20
2.40504133060002
 10
12.59225799999986
 20
2.39769900000001
 10
12.6092339998
 20
2.390812305200022
 10
12.62638799999986
 20
2.384381000000011
 10
12.64396670519996
 20
2.378316070600014
 10
12.66164232748669
 20
2.372732586176372
 10
12.94675799999989
 20
2.289399000000024
 10
13.23360699999996
 20
2.211138000000026
 10
13.52176599999991
 20
2.138101000000027
 10
13.81101099999996
 20
2.070374000000008
 10
14.10127799999993
 20
2.007984000000014
 10
14.39257299999993
 20
1.950927000000028
 10
14.68490299999992
 20
1.899183000000014
 10
14.9782279999999
 20
1.852732000000024
 10
15.27246599999996
 20
1.811543000000021
 10
15.56753599999986
 20
1.775566000000019
 10
15.86335399999991
 20
1.744731000000022
 10
16.15983299999989
 20
1.718941000000022
 10
16.4568839999999
 20
1.698085000000013
 10
16.75443699999989
 20
1.682033000000011
 10
17.05246199999995
 20
1.670646000000026
 10
17.35093999999988
 20
1.663773000000013
 10
17.64984099999988
 20
1.661262000000014
 10
17.94907799999994
 20
1.662961000000017
 10
18.24854499999988
 20
1.668719000000031
 10
18.54813899999995
 20
1.678398000000008
 10
18.84779899999996
 20
1.691865000000028
 10
19.14748799999991
 20
1.709004000000014
 10
19.44717199999987
 20
1.72971500000002
 10
19.74679699999986
 20
1.753915000000027
 10
20.04628999999995
 20
1.781536000000009
 10
20.34557799999989
 20
1.81253000000003
 10
20.64458499999997
 20
1.846864000000032
 10
20.94323899999991
 20
1.884521000000027
 10
21.24138536764863
 20
1.925486058582357
 10
21.2554456486999
 20
1.927593882100005
 10
21.26943699999988
 20
1.92988300000001
 10
21.28334234119991
 20
1.932350515300036
 10
21.2972129999999
 20
1.935006000000008
 10
21.31099064149994
 20
1.93783885100003
 10
21.32472799999989
 20
1.940861000000005
 10
21.33836560710002
 20
1.944060522500016
 10
21.35195699999993
 20
1.947451000000022
 10
21.36543722119991
 20
1.951017188700028
 10
21.37886499999986
 20
1.95477600000003
 10
21.39216249839997
 20
1.958706827800021
 10
21.40540099999994
 20
1.962832000000013
 10
21.41849161679996
 20
1.967125051200035
 10
21.43151599999995
 20
1.971615000000007
 10
21.444373957
 20
1.97626932770003
 10
21.45715799999989
 20
1.981123000000017
 10
21.46975988769994
 20
1.986136074100009
 10
21.4822799999999
 20
1.991350000000032
 10
21.49460253759999
 20
1.996717892200017
 10
21.50683499999987
 20
2.002288000000014
 10
21.5188561042
 20
2.008006494700019
 10
21.5307779999999
 20
2.013929000000011
 10
21.54247481199998
 20
2.019994987400018
 10
21.55406299999989
 20
2.026266000000013
 10
21.56541511749988
 20
2.032673970000011
 10
21.57664899999993
 20
2.039287000000022
 10
21.58763679809995
 20
2.046031423300028
 10
21.59849599999991
 20
2.052981000000009
 10
21.60909976579997
 20
2.060056127900018
 10
21.61956399999993
 20
2.067336000000032
 10
21.62976451909999
 20
2.074735725600014
 10
21.63981499999996
 20
2.082338000000014
 10
21.64959648459997
 20
2.090053112500008
 10
21.65921699999997
 20
2.09796800000003
 10
21.66856179369991
 20
2.105990115000018
 10
21.67773399999994
 20
2.114209000000009
 10
21.68662638709994
 20
2.122529432700012
 10
21.69533499999996
 20
2.131042000000029
 10
21.7037602153999
 20
2.13964995600002
 10
21.71199099999997
 20
2.148444000000033
 10
21.71993693129998
 20
2.15732746820003
 10
21.72767799999993
 20
2.166390000000028
 10
21.73513136959998
 20
2.175535180400025
 10
21.7423689999999
 20
2.184852000000027
 10
21.74931804549995
 20
2.194247300600004
 10
21.75604199999994
 20
2.203805000000009
 10
21.76248031309997
 20
2.213437457200022
 10
21.76868499999996
 20
2.223222000000014
 10
21.77460483399996
 20
2.233077902900042
 10
21.7802829999999
 20
2.243075000000025
 10
21.78567906649989
 20
2.253140695600016
 10
21.79082599999988
 20
2.26333600000003
 10
21.79569232329989
 20
2.27359881260002
 10
21.80030299999994
 20
2.283979000000009
 10
21.80463716729999
 20
2.294427395400042
 10
21.80871099999986
 20
2.304980000000021
 10
21.81251102319989
 20
2.315600407100014
 10
21.81604599999987
 20
2.326312000000022
 10
21.83594599999988
 20
2.389802000000024
 10
21.85584499999989
 20
2.45437500000002
 10
21.88071799999996
 20
2.536486000000017
 10
21.90559099999992
 20
2.620011000000026
 10
21.98030299999989
 20
2.876762000000006
 10
21.99243299999996
 20
2.917442000000015
 10
22.02233999999994
 20
3.016928000000028
 10
22.16561399999996
 20
3.498339000000008
 10
22.39485099999986
 20
4.279941000000029
 10
22.82934899999994
 20
5.781290000000005
 10
22.83650399999995
 20
5.805593000000008
 10
22.84382699999988
 20
5.830005000000021
 10
22.85129499999989
 20
5.854447000000014
 10
22.85889599999991
 20
5.87888000000003
 10
22.96022099999989
 20
6.20074600000003
 10
22.96580799579995
 20
6.219274941800016
 10
22.97094099999988
 20
6.237935000000014
 10
22.9755988939
 20
6.256653368000023
 10
22.97979299999993
 20
6.275481000000006
 10
22.98350734549997
 20
6.294354037200001
 10
22.98674899999987
 20
6.313314000000012
 10
22.98950497189999
 20
6.332290236400005
 10
22.9917809999999
 20
6.351330000000011
 10
22.9935656167
 20
6.370344795600026
 10
22.99486299999997
 20
6.389399000000018
 10
22.9956648131999
 20
6.408387293900027
 10
22.99597499999989
 20
6.427390000000023
 10
22.9957927384
 20
6.446284125700024
 10
22.99511699999989
 20
6.465167000000029
 10
22.99395316749992
 20
6.483900089900025
 10
22.99229599999997
 20
6.502596000000032
 10
22.99016098099999
 20
6.521106061800018
 10
22.98753599999994
 20
6.539553000000005
 10
22.98444548639993
 20
6.557780062900029
 10
22.98086899999994
 20
6.575918000000022
 10
22.97683762089999
 20
6.593816991400011
 10
22.97232599999991
 20
6.611601000000028
 10
22.96736559059998
 20
6.629151848100001
 10
22.96193199999989
 20
6.64656200000001
 10
22.95605236519994
 20
6.663745735300032
 10
22.94970699999995
 20
6.680763000000006
 10
22.94291672579989
 20
6.697556377700031
 10
22.93566799999992
 20
6.714157000000021
 10
22.92797172449998
 20
6.730534665000014
 10
22.9198249999999
 20
6.746693000000014
 10
22.9112279779999
 20
6.762626955700021
 10
22.90218999999986
 20
6.778315000000013
 10
22.89269642409995
 20
6.793775985700015
 10
22.88277199999989
 20
6.808964000000024
 10
22.87238656929988
 20
6.82391796320001
 10
22.86158199999996
 20
6.83857200000002
 10
22.85031400069995
 20
6.852978924700003
 10
22.8386389999999
 20
6.867058000000007
 10
22.82649685439999
 20
6.880872650100023
 10
22.8139629999999
 20
6.89433300000001
 10
22.80097936319994
 20
6.907498151200023
 10
22.7876229999999
 20
6.920285000000028
 10
22.77384512529996
 20
6.932735718700023
 10
22.75971399999987
 20
6.944784000000019
 10
22.74519034929991
 20
6.956459815000009
 10
22.73033599999992
 20
6.967712000000027
 10
22.71512193709994
 20
6.97856144590002
 10
22.69960099999988
 20
6.988967000000023
 10
22.68375763539991
 20
6.998937686300017
 10
22.66763599999986
 20
7.008452000000026
 10
22.6512888621
 20
7.017489711900019
 10
22.63469699999992
 20
7.026070000000025
 10
22.61799517029995
 20
7.034132945499997
 10
22.60107699999988
 20
7.041731000000019
 10
22.58401243169995
 20
7.048830568800006
 10
22.56675799999989
 20
7.055456000000013
 10
22.54912234789988
 20
7.061676301100014
  0
MULTILEADER
  5
237BE
330
1F
100
AcDbEntity
  8
2
 92
      604
310
5C020000170000000C00000016000000000000C00C00000033000000000000000C00000013000000993A0000A40000000B00000047697C8790003D4075F07FE2F7062C40000000000000000000000000000000000000000000000000000000000000F03F000000000000F03F00000000000000000000000000000000523230
310
00030000000100000000000000000010409A9999999999E93F0000000000000000000000000000F03F00000000000000000000000000000000000000004D6F6E6F737061633832312042540000000000000C00000033000000000000000C00000010000000030000000C00000016000000000000C00C00000012000000FF7F
310
00000C00000013000000010000000C0000001400000001000000540000000700000003000000108CEC45944037400015AE3920A224400000000000000000148D98D9E7353440783C8386FE891E400000000000000000AC333EB7D1373640314C01FDFC50264000000000000000000C00000013000000891300003C00000006
310
00000002000000DE5F95FE32BC364098B0579B8E7925400000000000000000E4E446A283003B407C9886D76AF62F4000000000000000000C00000013000000112700003C0000000600000002000000E4E446A283003B407C9886D76AF62F40000000000000000040740998AC5C3B407C9886D76AF62F400000000000000000
310
0C00000016000000000000C00C00000012000000FF7F00000C00000017000000000000000C000000130000009A3A00000C00000016000000000000C00C00000012000000FF7F00000C00000017000000FFFFFFFF0C0000003300000000000000
100
AcDbMLeader
300
CONTEXT_DATA{
 40
1.0
 10
27.36200857382596
 20
15.98128388898862
 30
0.0
 41
4.0
140
4.0
145
2.0
174
     1
175
     6
176
     0
177
     0
290
     1
304
R20
 11
0.0
 21
0.0
 31
1.0
340
11
 12
29.36200857382596
 22
18.03890862546086
 32
0.0
 13
1.0
 23
0.0
 33
0.0
 42
0.0
 43
0.0
 44
0.0
 45
1.0
170
     1
 90
-1073741824
171
     1
172
     5
 91
-1073741824
141
0.0
 92
        0
291
     0
292
     0
173
     0
293
     0
142
0.0
143
0.0
294
     0
295
     0
296
     0
110
17.83686799999994
120
7.924950000000016
130
0.0
111
1.0
121
0.0
131
0.0
112
0.0
122
1.0
132
0.0
297
     0
302
LEADER{
290
     1
291
     1
 10
27.00200857382596
 20
15.98128388898862
 30
0.0
 11
1.0
 21
0.0
 31
0.0
 90
        0
 40
0.36
304
LEADER_LINE{
 10
20.21056899999992
 20
7.634760000000021
 30
0.0
 91
        0
305
}
303
}
301
}
340
1B2ED
 90
   279552
170
     1
 91
-1056964608
341
14
171
    -2
290
     1
291
     1
 41
0.36
 42
4.0
172
     2
343
11
173
     1
 95
        6
174
     1
175
     0
 92
-1056964608
292
     0
 93
-1056964608
 10
1.0
 20
1.0
 30
1.0
 43
0.0
176
     0
293
     0
294
     0
178
     0
179
     1
 45
1.0
1001
ACAD_MLEADERVER
1070
     2
  0
VIEWPORT
  5
9C00
102
{ACAD_XDICTIONARY
360
237EC
102
}
330
1B
100
AcDbEntity
 67
     1
  8
0
100
AcDbViewport
 10
108.2280559557949
 20
71.69854161746989
 30
0.0
 40
251.8950231529317
 41
201.8884082081047
 68
     1
 69
     1
 12
108.2280559557949
 22
71.69854161746989
 13
0.0
 23
0.0
 14
10.0
 24
10.0
 15
10.0
 25
10.0
 16
0.0
 26
0.0
 36
1.0
 17
0.0
 27
0.0
 37
0.0
 42
50.0
 43
0.0
 44
0.0
 45
201.8884082081047
 50
0.0
 51
0.0
 72
   100
 90
   557088
  1

281
     0
 71
     1
 74
     0
110
0.0
120
0.0
130
0.0
111
1.0
121
0.0
131
0.0
112
0.0
122
1.0
132
0.0
 79
     0
146
0.0
  0
VIEWPORT
  5
9C02
102
{ACAD_XDICTIONARY
360
237EE
102
}
330
1B
100
AcDbEntity
 67
     1
  8
1
100
AcDbViewport
 10
143.457083940506
 20
98.18158769607544
 30
0.0
 40
229.5313343048095
 41
157.0905403137207
 68
     2
 69
     2
 12
-44.37697124786255
 22
-35.12342998133886
 13
0.0
 23
0.0
 14
10.0
 24
10.0
 15
10.0
 25
10.0
 16
0.0
 26
0.0
 36
1.0
 17
0.0
 27
0.0
 37
0.0
 42
50.0
 43
0.0
 44
0.0
 45
300.3886240724386
 50
0.0
 51
0.0
 72
   100
 90
   557088
  1

281
     0
 71
     1
 74
     0
110
0.0
120
0.0
130
0.0
111
1.0
121
0.0
131
0.0
112
0.0
122
1.0
132
0.0
 79
     0
146
0.0
  0
ENDSEC
  0
SECTION
  2
OBJECTS
  0
DICTIONARY
  5
3182
330
0
100
AcDbDictionary
281
     1
  3
ACAD_CIP_PREVIOUS_PRODUCT_INFO
350
1B2F4
  3
ACAD_COLOR
350
31A0
  3
ACAD_DETAILVIEWSTYLE
350
1B2F0
  3
ACAD_FIELDLIST
350
20CBF
  3
ACAD_GROUP
350
3183
  3
ACAD_LAYOUT
350
31A5
  3
ACAD_MATERIAL
350
318B
  3
ACAD_MLEADERSTYLE
350
1B221
  3
ACAD_MLINESTYLE
350
3184
  3
ACAD_PLOTSETTINGS
350
31A4
  3
ACAD_PLOTSTYLENAME
350
3189
  3
ACAD_SCALELIST
350
1B1FC
  3
ACAD_SECTIONVIEWSTYLE
350
1B2EE
  3
ACAD_TABLESTYLE
350
31A1
  3
ACAD_VISUALSTYLE
350
318F
  3
ACDB_RECOMPOSE_DATA
350
237C5
  3
AcDbVariableDictionary
350
33A3
  3
DWGPROPS
350
237C6
  0
DICTIONARY
  5
422A
330
2
100
AcDbDictionary
280
     1
281
     1
  3
ACAD_LAYERFILTERS
360
1B063
  3
ACAD_LAYERSTATES
360
9A1C
  3
ACLYDICTIONARY
360
1B062
  0
DICTIONARY
  5
1B2F5
330
10
100
AcDbDictionary
280
     1
281
     1
  3
ADSK_XREC_LAYER_RECONCILED
360
21B8E
  0
DICTIONARY
  5
1B2F7
330
3F8C
100
AcDbDictionary
280
     1
281
     1
  3
ADSK_XREC_LAYER_RECONCILED
360
21B8F
  0
DICTIONARY
  5
1B2F9
330
9C4A
100
AcDbDictionary
280
     1
281
     1
  3
ADSK_XREC_LAYER_RECONCILED
360
21B90
  0
DICTIONARY
  5
1B2FB
330
9C4B
100
AcDbDictionary
280
     1
281
     1
  3
ADSK_XREC_LAYER_RECONCILED
360
21B91
  0
DICTIONARY
  5
1B2FD
330
9C4D
100
AcDbDictionary
280
     1
281
     1
  3
ADSK_XREC_LAYER_RECONCILED
360
21B92
  0
DICTIONARY
  5
1B2FF
330
9C4E
100
AcDbDictionary
280
     1
281
     1
  3
ADSK_XREC_LAYER_RECONCILED
360
21B93
  0
DICTIONARY
  5
1B301
330
9C4F
100
AcDbDictionary
280
     1
281
     1
  3
ADSK_XREC_LAYER_RECONCILED
360
21B94
  0
DICTIONARY
  5
1B303
330
9C50
100
AcDbDictionary
280
     1
281
     1
  3
ADSK_XREC_LAYER_RECONCILED
360
21B95
  0
DICTIONARY
  5
1B305
330
9C51
100
AcDbDictionary
280
     1
281
     1
  3
ADSK_XREC_LAYER_RECONCILED
360
21B96
  0
DICTIONARY
  5
1B307
330
13335
100
AcDbDictionary
280
     1
281
     1
  3
ADSK_XREC_LAYER_RECONCILED
360
21B97
  0
DICTIONARY
  5
1B309
330
1686E
100
AcDbDictionary
280
     1
281
     1
  3
ADSK_XREC_LAYER_RECONCILED
360
21B98
  0
DICTIONARY
  5
22250
330
2224F
100
AcDbDictionary
280
     1
281
     1
  0
DICTIONARY
  5
339C
330
1F
100
AcDbDictionary
280
     1
281
     1
  3
ACAD_SORTENTS
360
339D
  0
DICTIONARY
  5
1DE81
330
1B3D7
100
AcDbDictionary
280
     1
281
     1
  3
AcDbBlockTableRecordData
360
23808
  0
DICTIONARY
  5
237EC
330
9C00
100
AcDbDictionary
280
     1
281
     1
  3
ACAD_XREC_ROUNDTRIP
360
237ED
  0
DICTIONARY
  5
237EE
330
9C02
100
AcDbDictionary
280
     1
281
     1
  3
ACAD_XREC_ROUNDTRIP
360
237EF
  0
XRECORD
  5
1B2F4
102
{ACAD_REACTORS
330
3182
102
}
330
3182
100
AcDbXrecord
280
     1
300
ACDLT
300
2015
300
ACDLT_F_S
  0
DICTIONARY
  5
31A0
102
{ACAD_REACTORS
330
3182
102
}
330
3182
100
AcDbDictionary
281
     1
  0
DICTIONARY
  5
1B2F0
102
{ACAD_REACTORS
330
3182
102
}
330
3182
100
AcDbDictionary
281
     1
  3
Imperial24
350
20CB3
  3
Metric50
350
1B2F1
  0
FIELDLIST
  5
20CBF
102
{ACAD_REACTORS
330
3182
102
}
330
3182
100
AcDbIdSet
 90
        0
100
AcDbFieldList
  0
DICTIONARY
  5
3183
102
{ACAD_REACTORS
330
3182
102
}
330
3182
100
AcDbDictionary
281
     1
  0
DICTIONARY
  5
31A5
102
{ACAD_REACTORS
330
3182
102
}
330
3182
100
AcDbDictionary
281
     1
  3
Layout1
350
31A7
  3
Model
350
31A6
  0
DICTIONARY
  5
318B
102
{ACAD_REACTORS
330
3182
102
}
330
3182
100
AcDbDictionary
281
     1
  3
ByBlock
350
318D
  3
ByLayer
350
318C
  3
Global
350
318E
  0
DICTIONARY
  5
1B221
102
{ACAD_REACTORS
330
3182
102
}
330
3182
100
AcDbDictionary
281
     1
  3
Standard
350
1B2ED
  0
DICTIONARY
  5
3184
102
{ACAD_REACTORS
330
3182
102
}
330
3182
100
AcDbDictionary
281
     1
  3
STANDARD
350
3185
  0
DICTIONARY
  5
31A4
102
{ACAD_REACTORS
330
3182
102
}
330
3182
100
AcDbDictionary
281
     1
  0
ACDBDICTIONARYWDFLT
  5
3189
102
{ACAD_REACTORS
330
3182
102
}
330
3182
100
AcDbDictionary
281
     1
  3
Normal
350
318A
100
AcDbDictionaryWithDefault
340
318A
  0
DICTIONARY
  5
1B1FC
102
{ACAD_REACTORS
330
3182
102
}
330
3182
100
AcDbDictionary
281
     1
  3
A0
350
1B1FD
  3
A1
350
1B1FE
  3
A2
350
1B1FF
  3
A3
350
1B200
  3
A4
350
1B201
  3
A5
350
1B202
  3
A6
350
1B203
  3
A7
350
1B204
  3
A8
350
1B205
  3
A9
350
1B206
  3
B0
350
1B207
  3
B1
350
1B208
  3
B2
350
1B209
  3
B3
350
1B20A
  3
B4
350
1B20B
  3
B5
350
1B20C
  3
B6
350
1B20D
  3
B7
350
1B20E
  3
B8
350
1B20F
  3
B9
350
1B210
  3
C0
350
1B211
  3
C1
350
1B212
  3
C2
350
1B213
  3
C3
350
1B214
  3
C4
350
1B215
  3
C5
350
1B216
  3
C6
350
1B217
  3
C7
350
1B218
  3
C8
350
1B219
  3
C9
350
1B21A
  3
D0
350
1B21B
  3
D1
350
1B21C
  3
D2
350
1B21D
  0
DICTIONARY
  5
1B2EE
102
{ACAD_REACTORS
330
3182
102
}
330
3182
100
AcDbDictionary
281
     1
  3
Imperial24
350
20CB1
  3
Metric50
350
1B2EF
  0
DICTIONARY
  5
31A1
102
{ACAD_REACTORS
330
3182
102
}
330
3182
100
AcDbDictionary
281
     1
  3
Standard
350
31A2
  0
DICTIONARY
  5
318F
102
{ACAD_REACTORS
330
3182
102
}
330
3182
100
AcDbDictionary
281
     1
  3
2dWireframe
350
3195
  3
3D Hidden
350
3197
  3
3dWireframe
350
3196
  3
Basic
350
3194
  3
Brighten
350
319B
  3
ColorChange
350
319F
  3
Conceptual
350
3198
  3
Dim
350
319A
  3
EdgeColorOff
350
1B2EC
  3
Facepattern
350
319E
  3
Flat
350
3190
  3
FlatWithEdges
350
3191
  3
Gouraud
350
3192
  3
GouraudWithEdges
350
3193
  3
Hidden
350
1B2E4
  3
JitterOff
350
1B2EA
  3
Linepattern
350
319D
  3
OverhangOff
350
1B2EB
  3
Realistic
350
3199
  3
Shaded
350
1B2E9
  3
Shaded with edges
350
1B2E8
  3
Shades of Gray
350
1B2E5
  3
Sketchy
350
1B2E6
  3
Thicken
350
319C
  3
Wireframe
350
1B2E3
  3
X-Ray
350
1B2E7
  0
XRECORD
  5
237C5
102
{ACAD_REACTORS
330
3182
102
}
330
3182
100
AcDbXrecord
280
     1
 90
        1
330
31A2
  0
DICTIONARY
  5
33A3
102
{ACAD_REACTORS
330
3182
102
}
330
3182
100
AcDbDictionary
281
     1
  3
CANNOSCALE
350
1B222
  3
CMLEADERSTYLE
350
1B30F
  3
CTABLESTYLE
350
33A4
  3
CVIEWDETAILSTYLE
350
1B310
  3
CVIEWSECTIONSTYLE
350
1B311
  3
DIMASSOC
350
9BE8
  3
INDEXCTL
350
9BE7
  3
LAYEREVAL
350
20993
  3
LAYERNOTIFY
350
20994
  3
LIGHTINGUNITS
350
20992
  3
LOFTANG1
350
237C0
  3
LOFTANG2
350
237C1
  3
LONGITUDE
350
237C2
  3
MSLTSCALE
350
20991
  3
SORTENTS
350
9BE6
  3
XCLIPFRAME
350
237C3
  0
XRECORD
  5
237C6
102
{ACAD_REACTORS
330
3182
102
}
330
3182
100
AcDbXrecord
280
     1
  1
DWGPROPS COOKIE
  2

  3

  4

  6

  7

  8
ruebsamenm
  9

300
=
301
=
302
=
303
=
304
=
305
=
306
=
307
=
308
=
309
=
 40
0.0436752546296296
 41
2458446.405227107
 42
2459345.61640772
  1

 90
        0
  0
DICTIONARY
  5
1B063
102
{ACAD_REACTORS
330
422A
102
}
330
422A
100
AcDbDictionary
281
     1
  0
DICTIONARY
  5
9A1C
102
{ACAD_REACTORS
330
422A
102
}
330
422A
100
AcDbDictionary
281
     1
  0
DICTIONARY
  5
1B062
102
{ACAD_REACTORS
330
422A
102
}
330
422A
100
AcDbDictionary
281
     1
1001
ACAD
1000
<All
  0
XRECORD
  5
21B8E
102
{ACAD_REACTORS
330
1B2F5
102
}
330
1B2F5
100
AcDbXrecord
280
     1
290
     1
  0
XRECORD
  5
21B8F
102
{ACAD_REACTORS
330
1B2F7
102
}
330
1B2F7
100
AcDbXrecord
280
     1
290
     1
  0
XRECORD
  5
21B90
102
{ACAD_REACTORS
330
1B2F9
102
}
330
1B2F9
100
AcDbXrecord
280
     1
290
     1
  0
XRECORD
  5
21B91
102
{ACAD_REACTORS
330
1B2FB
102
}
330
1B2FB
100
AcDbXrecord
280
     1
290
     1
  0
XRECORD
  5
21B92
102
{ACAD_REACTORS
330
1B2FD
102
}
330
1B2FD
100
AcDbXrecord
280
     1
290
     1
  0
XRECORD
  5
21B93
102
{ACAD_REACTORS
330
1B2FF
102
}
330
1B2FF
100
AcDbXrecord
280
     1
290
     1
  0
XRECORD
  5
21B94
102
{ACAD_REACTORS
330
1B301
102
}
330
1B301
100
AcDbXrecord
280
     1
290
     1
  0
XRECORD
  5
21B95
102
{ACAD_REACTORS
330
1B303
102
}
330
1B303
100
AcDbXrecord
280
     1
290
     1
  0
XRECORD
  5
21B96
102
{ACAD_REACTORS
330
1B305
102
}
330
1B305
100
AcDbXrecord
280
     1
290
     1
  0
XRECORD
  5
21B97
102
{ACAD_REACTORS
330
1B307
102
}
330
1B307
100
AcDbXrecord
280
     1
290
     1
  0
XRECORD
  5
21B98
102
{ACAD_REACTORS
330
1B309
102
}
330
1B309
100
AcDbXrecord
280
     1
290
     1
  0
SORTENTSTABLE
  5
339D
102
{ACAD_REACTORS
330
339C
102
}
330
339C
100
AcDbSortentsTable
330
1F
331
2342F
  5
2343C
331
2342B
  5
23438
331
23427
  5
23434
331
23423
  5
23430
331
231AC
  5
231DD
331
231A8
  5
231D9
331
233B5
  5
233C2
331
233B1
  5
233BE
331
233AD
  5
233BA
331
233E8
  5
233F5
331
2341F
  5
2342C
331
2341B
  5
23428
331
23417
  5
23424
331
23413
  5
23420
331
233A5
  5
233B2
331
233E4
  5
233F1
331
233E0
  5
233ED
331
2338D
  5
2339A
331
233DC
  5
233E9
331
23389
  5
23396
331
233D8
  5
233E5
331
2340F
  5
2341C
331
2344E
  5
2349A
331
2340B
  5
23418
331
2344A
  5
23496
331
23407
  5
23414
331
23446
  5
23492
331
23442
  5
2344F
331
23403
  5
23410
331
22854
  5
22854
331
22850
  5
22850
331
23385
  5
23392
331
233D4
  5
233E1
331
233D0
  5
233DD
331
23381
  5
2338E
331
2337D
  5
2338A
331
233CC
  5
233D9
331
23379
  5
23386
331
233C8
  5
233D5
331
233FF
  5
2340C
331
2343E
  5
2344B
331
233FB
  5
23408
331
2343A
  5
23447
331
233F7
  5
23404
331
23436
  5
23443
331
23432
  5
2343F
331
233F3
  5
23400
331
23366
  5
23373
331
231CB
  5
23367
331
23375
  5
23382
331
233C4
  5
233D1
331
233C0
  5
233CD
331
23371
  5
2337E
331
233BC
  5
233C9
331
2336D
  5
2337A
331
23369
  5
23376
331
233B8
  5
233C5
331
2342E
  5
2343B
331
2342A
  5
23437
331
23426
  5
23433
331
23422
  5
2342F
331
231C3
  5
23334
331
233B4
  5
233C1
331
233EF
  5
233FC
331
233B0
  5
233BD
331
233AC
  5
233B9
331
233EB
  5
233F8
331
2341E
  5
2342B
331
2341A
  5
23427
331
23416
  5
23423
331
23412
  5
2341F
331
233E7
  5
233F4
331
233E3
  5
233F0
331
233DF
  5
233EC
331
2338C
  5
23399
331
233DB
  5
233E8
331
23388
  5
23395
331
2340E
  5
2341B
331
2344D
  5
23499
331
2340A
  5
23417
331
23449
  5
23495
331
23406
  5
23413
331
23445
  5
23491
331
23441
  5
2344E
331
23402
  5
2340F
331
22853
  5
22853
331
23384
  5
23391
331
233D3
  5
233E0
331
233CF
  5
233DC
331
23380
  5
2338D
331
2337C
  5
23389
331
233CB
  5
233D8
331
23378
  5
23385
331
233FE
  5
2340B
331
2343D
  5
2344A
331
233FA
  5
23407
331
233F6
  5
23403
331
23435
  5
23442
331
23431
  5
2343E
331
233F2
  5
233FF
331
23365
  5
23372
331
231CA
  5
23366
331
233C7
  5
233D4
331
23374
  5
23381
331
233C3
  5
233D0
331
233BF
  5
233CC
331
23370
  5
2337D
331
2336C
  5
23379
331
233BB
  5
233C8
331
23368
  5
23375
331
2342D
  5
2343A
331
23429
  5
23436
331
23425
  5
23432
331
23421
  5
2342E
331
231AE
  5
231DF
331
233B7
  5
233C4
331
233B3
  5
233C0
331
233AF
  5
233BC
331
233EE
  5
233FB
331
233EA
  5
233F7
331
2341D
  5
2342A
331
23419
  5
23426
331
23772
  5
237AA
331
23411
  5
2341E
331
234EC
  5
234EC
331
233E6
  5
233F3
331
233E2
  5
233EF
331
233DE
  5
233EB
331
2338B
  5
23398
331
233DA
  5
233E7
331
2340D
  5
2341A
331
2344C
  5
23498
331
23409
  5
23416
331
23448
  5
23494
331
23444
  5
23490
331
23405
  5
23412
331
23440
  5
2344D
331
23401
  5
2340E
331
22852
  5
22852
331
23387
  5
23394
331
233D6
  5
233E3
331
23383
  5
23390
331
233D2
  5
233DF
331
233CE
  5
233DB
331
2337F
  5
2338C
331
2337B
  5
23388
331
233CA
  5
233D7
331
233FD
  5
2340A
331
2343C
  5
23449
331
233F9
  5
23406
331
23438
  5
23445
331
233F5
  5
23402
331
23434
  5
23441
331
233F1
  5
233FE
331
231D1
  5
23368
331
231C9
  5
23365
331
23377
  5
23384
331
233C6
  5
233D3
331
23373
  5
23380
331
233C2
  5
233CF
331
233BE
  5
233CB
331
2336F
  5
2337C
331
2336B
  5
23378
331
233BA
  5
233C7
331
2342C
  5
23439
331
23428
  5
23435
331
23424
  5
23431
331
23420
  5
2342D
331
233B6
  5
233C3
331
233B2
  5
233BF
331
233AE
  5
233BB
331
233ED
  5
233FA
331
233E9
  5
233F6
331
2341C
  5
23429
331
23418
  5
23425
331
2348F
  5
23371
331
23414
  5
23421
331
23410
  5
2341D
331
233E5
  5
233F2
331
233E1
  5
233EE
331
2338E
  5
2339B
331
233DD
  5
233EA
331
2338A
  5
23397
331
233D9
  5
233E6
331
2344F
  5
2349B
331
2340C
  5
23419
331
2344B
  5
23497
331
23408
  5
23415
331
23447
  5
23493
331
23443
  5
2348F
331
23404
  5
23411
331
23400
  5
2340D
331
234DF
  5
234DF
331
22855
  5
22855
331
234B7
  5
234B7
331
22851
  5
22851
331
23386
  5
23393
331
233D5
  5
233E2
331
233D1
  5
233DE
331
23382
  5
2338F
331
233CD
  5
233DA
331
2337E
  5
2338B
331
2337A
  5
23387
331
233C9
  5
233D6
331
233FC
  5
23409
331
2343B
  5
23448
331
233F8
  5
23405
331
23437
  5
23444
331
23433
  5
23440
331
233F4
  5
23401
331
233F0
  5
233FD
331
23367
  5
23374
331
23376
  5
23383
331
233C5
  5
233D2
331
23372
  5
2337F
331
233C1
  5
233CE
331
233BD
  5
233CA
331
2336E
  5
2337B
331
2336A
  5
23377
331
233B9
  5
233C6
  0
DICTIONARY
  5
23808
102
{ACAD_REACTORS
330
1DE81
102
}
330
1DE81
100
AcDbDictionary
280
     1
281
     1
  3
Edit
360
23809
  0
XRECORD
  5
237ED
102
{ACAD_REACTORS
330
237EC
102
}
330
237EC
100
AcDbXrecord
280
     1
102
SHADEPLOT
 70
     0
  0
XRECORD
  5
237EF
102
{ACAD_REACTORS
330
237EE
102
}
330
237EE
100
AcDbXrecord
280
     1
102
SHADEPLOT
 70
     0
  0
ACDBDETAILVIEWSTYLE
  5
20CB3
102
{ACAD_XDICTIONARY
360
2380C
102
}
102
{ACAD_REACTORS
330
1B2F0
102
}
330
1B2F0
100
AcDbModelDocViewStyle
 70
     0
  3
Imperial24
290
     0
100
AcDbDetailViewStyle
 70
     0
 71
     0
 90
        3
 71
     1
340
11
 40
0.24
340
0
 40
0.24
300

 40
0.36
280
     3
 71
     2
340
16
 90
       25
 71
     3
340
11
 40
0.24
 90
        1
 40
0.75
 90
        1
300
%<\AcVar ViewType \f "%tc1">% %<\AcVar ViewDetailId>%\PVARIA %<\AcVar ViewScale \f "%sn">%
 71
     4
340
16
 90
       25
340
16
 90
       25
280
     0
  0
ACDBDETAILVIEWSTYLE
  5
1B2F1
102
{ACAD_XDICTIONARY
360
23806
102
}
102
{ACAD_REACTORS
330
1B2F0
102
}
330
1B2F0
100
AcDbModelDocViewStyle
 70
     0
  3
Metric50
290
     0
100
AcDbDetailViewStyle
 70
     0
 71
     0
 90
        3
 71
     1
340
11
 40
5.0
340
0
 40
5.0
300

 40
0.0
280
     1
 71
     2
340
16
 90
       25
 71
     3
340
11
 40
5.0
 90
        0
 40
15.0
 90
        1
300
%<\AcVar ViewDetailId>% (%<\AcVar ViewScale \f "%sn">%)
 71
     4
340
16
 90
       25
340
16
 90
       25
280
     0
  0
LAYOUT
  5
31A7
102
{ACAD_XDICTIONARY
360
237EA
102
}
102
{ACAD_REACTORS
330
31A5
102
}
330
31A5
100
AcDbPlotSettings
  1

  2
\\ingdc01\ITB3
  4
A4
  6

 40
6.805083274841307
 41
5.027085781097412
 42
6.805068969726562
 43
5.027069091796875
 44
209.9733276367186
 45
296.9683227539062
 46
0.0
 47
0.0
 48
0.0
 49
0.0
140
0.0
141
0.0
142
1.0
143
1.0
 70
   688
 72
     1
 73
     1
 74
     5
  7

 75
    16
147
1.0
148
0.0
149
0.0
100
AcDbLayout
  1
Layout1
 70
     1
 71
     1
 10
-5.027069091796875
 20
-6.805083274841307
 11
291.9412536621094
 21
203.1682443618775
 12
0.0
 22
0.0
 32
0.0
 14
28.69141678810127
 24
19.6363175392151
 34
0.0
 15
258.2227510929107
 25
176.7268578529358
 35
0.0
146
0.0
 13
0.0
 23
0.0
 33
0.0
 16
1.0
 26
0.0
 36
0.0
 17
0.0
 27
1.0
 37
0.0
 76
     0
330
1B
331
9C00
1001
ACAD_PSEXT
1000
\\ingdc01\ITB3
1000
HP LaserJet 5000 Series PCL
1000
TB
1000

1070
     0
  0
LAYOUT
  5
31A6
102
{ACAD_XDICTIONARY
360
237E8
102
}
102
{ACAD_REACTORS
330
31A5
102
}
330
31A5
100
AcDbPlotSettings
  1

  2
\\ingdc01\ITB3
  4
A4
  6

 40
6.805083274841307
 41
5.027085781097412
 42
6.805068969726562
 43
5.027069091796875
 44
209.9733276367186
 45
296.9683227539062
 46
0.0
 47
0.0
 48
0.0
 49
0.0
140
0.0
141
0.0
142
1.0
143
1.500313223655698
 70
 11952
 72
     1
 73
     1
 74
     0
  7

 75
     0
147
0.6665274852163048
148
239.0155119930048
149
102.2558208723354
100
AcDbLayout
  1
Model
 70
     1
 71
     0
 10
0.0
 20
0.0
 11
12.0
 21
9.0
 12
0.0
 22
0.0
 32
0.0
 14
0.0
 24
0.0
 34
0.0
 15
0.0
 25
0.0
 35
0.0
146
0.0
 13
0.0
 23
0.0
 33
0.0
 16
1.0
 26
0.0
 36
0.0
 17
0.0
 27
1.0
 37
0.0
 76
     0
330
1F
331
1F4
1001
ACAD_PSEXT
1000
\\ingdc01\ITB3
1000
HP LaserJet 5000 Series PCL
1000
TB
1000

1070
     0
  0
MATERIAL
  5
318D
102
{ACAD_XDICTIONARY
360
1B22B
102
}
102
{ACAD_REACTORS
330
318B
102
}
330
318B
100
AcDbMaterial
  1
ByBlock
  0
MATERIAL
  5
318C
102
{ACAD_XDICTIONARY
360
1B22D
102
}
102
{ACAD_REACTORS
330
318B
102
}
330
318B
100
AcDbMaterial
  1
ByLayer
  0
MATERIAL
  5
318E
102
{ACAD_XDICTIONARY
360
1B22F
102
}
102
{ACAD_REACTORS
330
318B
102
}
330
318B
100
AcDbMaterial
  1
Global
  0
MLEADERSTYLE
  5
1B2ED
102
{ACAD_REACTORS
330
1B221
330
237BE
102
}
330
1B221
100
AcDbMLeaderStyle
170
     2
171
     1
172
     0
 90
        2
 40
0.0
 41
0.0
173
     1
 91
-1056964608
340
14
 92
       -2
290
     1
 42
2.0
291
     1
 43
0.36
  3
Standard
 44
4.0
300

342
11
174
     1
178
     6
175
     1
176
     0
 93
-1056964608
 45
4.0
292
     0
297
     0
 46
4.0
 94
-1056964608
 47
1.0
 49
1.0
140
1.0
293
     1
141
0.0
294
     1
177
     0
142
1.0
295
     0
296
     0
143
0.125
1001
ACAD_MLEADERVER
1070
     2
  0
MLINESTYLE
  5
3185
102
{ACAD_REACTORS
330
3184
102
}
330
3184
100
AcDbMlineStyle
  2
STANDARD
 70
     0
  3

 62
   256
 51
90.0
 52
90.0
 71
     2
 49
0.5
 62
   256
  6
BYLAYER
 49
-0.5
 62
   256
  6
BYLAYER
  0
ACDBPLACEHOLDER
  5
318A
102
{ACAD_REACTORS
330
3189
102
}
330
3189
  0
SCALE
  5
1B1FD
102
{ACAD_REACTORS
330
1B1FC
102
}
330
1B1FC
100
AcDbScale
 70
     0
300
1:1
140
1.0
141
1.0
290
     1
1001
ACAD
1000
AcRTDxfName
1000
SCALE
  0
SCALE
  5
1B1FE
102
{ACAD_REACTORS
330
1B1FC
102
}
330
1B1FC
100
AcDbScale
 70
     0
300
1:2
140
1.0
141
2.0
290
     0
1001
ACAD
1000
AcRTDxfName
1000
SCALE
  0
SCALE
  5
1B1FF
102
{ACAD_REACTORS
330
1B1FC
102
}
330
1B1FC
100
AcDbScale
 70
     0
300
1:4
140
1.0
141
4.0
290
     0
1001
ACAD
1000
AcRTDxfName
1000
SCALE
  0
SCALE
  5
1B200
102
{ACAD_REACTORS
330
1B1FC
102
}
330
1B1FC
100
AcDbScale
 70
     0
300
1:5
140
1.0
141
5.0
290
     0
1001
ACAD
1000
AcRTDxfName
1000
SCALE
  0
SCALE
  5
1B201
102
{ACAD_REACTORS
330
1B1FC
102
}
330
1B1FC
100
AcDbScale
 70
     0
300
1:8
140
1.0
141
8.0
290
     0
1001
ACAD
1000
AcRTDxfName
1000
SCALE
  0
SCALE
  5
1B202
102
{ACAD_REACTORS
330
1B1FC
102
}
330
1B1FC
100
AcDbScale
 70
     0
300
1:10
140
1.0
141
10.0
290
     0
1001
ACAD
1000
AcRTDxfName
1000
SCALE
  0
SCALE
  5
1B203
102
{ACAD_REACTORS
330
1B1FC
102
}
330
1B1FC
100
AcDbScale
 70
     0
300
1:16
140
1.0
141
16.0
290
     0
1001
ACAD
1000
AcRTDxfName
1000
SCALE
  0
SCALE
  5
1B204
102
{ACAD_REACTORS
330
1B1FC
102
}
330
1B1FC
100
AcDbScale
 70
     0
300
1:20
140
1.0
141
20.0
290
     0
1001
ACAD
1000
AcRTDxfName
1000
SCALE
  0
SCALE
  5
1B205
102
{ACAD_REACTORS
330
1B1FC
102
}
330
1B1FC
100
AcDbScale
 70
     0
300
1:30
140
1.0
141
30.0
290
     0
1001
ACAD
1000
AcRTDxfName
1000
SCALE
  0
SCALE
  5
1B206
102
{ACAD_REACTORS
330
1B1FC
102
}
330
1B1FC
100
AcDbScale
 70
     0
300
1:40
140
1.0
141
40.0
290
     0
1001
ACAD
1000
AcRTDxfName
1000
SCALE
  0
SCALE
  5
1B207
102
{ACAD_REACTORS
330
1B1FC
102
}
330
1B1FC
100
AcDbScale
 70
     0
300
1:50
140
1.0
141
50.0
290
     0
1001
ACAD
1000
AcRTDxfName
1000
SCALE
  0
SCALE
  5
1B208
102
{ACAD_REACTORS
330
1B1FC
102
}
330
1B1FC
100
AcDbScale
 70
     0
300
1:100
140
1.0
141
100.0
290
     0
1001
ACAD
1000
AcRTDxfName
1000
SCALE
  0
SCALE
  5
1B209
102
{ACAD_REACTORS
330
1B1FC
102
}
330
1B1FC
100
AcDbScale
 70
     0
300
2:1
140
2.0
141
1.0
290
     0
1001
ACAD
1000
AcRTDxfName
1000
SCALE
  0
SCALE
  5
1B20A
102
{ACAD_REACTORS
330
1B1FC
102
}
330
1B1FC
100
AcDbScale
 70
     0
300
4:1
140
4.0
141
1.0
290
     0
1001
ACAD
1000
AcRTDxfName
1000
SCALE
  0
SCALE
  5
1B20B
102
{ACAD_REACTORS
330
1B1FC
102
}
330
1B1FC
100
AcDbScale
 70
     0
300
8:1
140
8.0
141
1.0
290
     0
1001
ACAD
1000
AcRTDxfName
1000
SCALE
  0
SCALE
  5
1B20C
102
{ACAD_REACTORS
330
1B1FC
102
}
330
1B1FC
100
AcDbScale
 70
     0
300
10:1
140
10.0
141
1.0
290
     0
1001
ACAD
1000
AcRTDxfName
1000
SCALE
  0
SCALE
  5
1B20D
102
{ACAD_REACTORS
330
1B1FC
102
}
330
1B1FC
100
AcDbScale
 70
     0
300
100:1
140
100.0
141
1.0
290
     0
1001
ACAD
1000
AcRTDxfName
1000
SCALE
  0
SCALE
  5
1B20E
102
{ACAD_REACTORS
330
1B1FC
102
}
330
1B1FC
100
AcDbScale
 70
     0
300
1/128" = 1'-0"
140
0.0078125
141
12.0
290
     0
1001
ACAD
1000
AcRTDxfName
1000
SCALE
  0
SCALE
  5
1B20F
102
{ACAD_REACTORS
330
1B1FC
102
}
330
1B1FC
100
AcDbScale
 70
     0
300
1/64" = 1'-0"
140
0.015625
141
12.0
290
     0
1001
ACAD
1000
AcRTDxfName
1000
SCALE
  0
SCALE
  5
1B210
102
{ACAD_REACTORS
330
1B1FC
102
}
330
1B1FC
100
AcDbScale
 70
     0
300
1/32" = 1'-0"
140
0.03125
141
12.0
290
     0
1001
ACAD
1000
AcRTDxfName
1000
SCALE
  0
SCALE
  5
1B211
102
{ACAD_REACTORS
330
1B1FC
102
}
330
1B1FC
100
AcDbScale
 70
     0
300
1/16" = 1'-0"
140
0.0625
141
12.0
290
     0
1001
ACAD
1000
AcRTDxfName
1000
SCALE
  0
SCALE
  5
1B212
102
{ACAD_REACTORS
330
1B1FC
102
}
330
1B1FC
100
AcDbScale
 70
     0
300
3/32" = 1'-0"
140
0.09375
141
12.0
290
     0
1001
ACAD
1000
AcRTDxfName
1000
SCALE
  0
SCALE
  5
1B213
102
{ACAD_REACTORS
330
1B1FC
102
}
330
1B1FC
100
AcDbScale
 70
     0
300
1/8" = 1'-0"
140
0.125
141
12.0
290
     0
1001
ACAD
1000
AcRTDxfName
1000
SCALE
  0
SCALE
  5
1B214
102
{ACAD_REACTORS
330
1B1FC
102
}
330
1B1FC
100
AcDbScale
 70
     0
300
3/16" = 1'-0"
140
0.1875
141
12.0
290
     0
1001
ACAD
1000
AcRTDxfName
1000
SCALE
  0
SCALE
  5
1B215
102
{ACAD_REACTORS
330
1B1FC
102
}
330
1B1FC
100
AcDbScale
 70
     0
300
1/4" = 1'-0"
140
0.25
141
12.0
290
     0
1001
ACAD
1000
AcRTDxfName
1000
SCALE
  0
SCALE
  5
1B216
102
{ACAD_REACTORS
330
1B1FC
102
}
330
1B1FC
100
AcDbScale
 70
     0
300
3/8" = 1'-0"
140
0.375
141
12.0
290
     0
1001
ACAD
1000
AcRTDxfName
1000
SCALE
  0
SCALE
  5
1B217
102
{ACAD_REACTORS
330
1B1FC
102
}
330
1B1FC
100
AcDbScale
 70
     0
300
1/2" = 1'-0"
140
0.5
141
12.0
290
     0
1001
ACAD
1000
AcRTDxfName
1000
SCALE
  0
SCALE
  5
1B218
102
{ACAD_REACTORS
330
1B1FC
102
}
330
1B1FC
100
AcDbScale
 70
     0
300
3/4" = 1'-0"
140
0.75
141
12.0
290
     0
1001
ACAD
1000
AcRTDxfName
1000
SCALE
  0
SCALE
  5
1B219
102
{ACAD_REACTORS
330
1B1FC
102
}
330
1B1FC
100
AcDbScale
 70
     0
300
1" = 1'-0"
140
1.0
141
12.0
290
     0
1001
ACAD
1000
AcRTDxfName
1000
SCALE
  0
SCALE
  5
1B21A
102
{ACAD_REACTORS
330
1B1FC
102
}
330
1B1FC
100
AcDbScale
 70
     0
300
1-1/2" = 1'-0"
140
1.5
141
12.0
290
     0
1001
ACAD
1000
AcRTDxfName
1000
SCALE
  0
SCALE
  5
1B21B
102
{ACAD_REACTORS
330
1B1FC
102
}
330
1B1FC
100
AcDbScale
 70
     0
300
3" = 1'-0"
140
3.0
141
12.0
290
     0
1001
ACAD
1000
AcRTDxfName
1000
SCALE
  0
SCALE
  5
1B21C
102
{ACAD_REACTORS
330
1B1FC
102
}
330
1B1FC
100
AcDbScale
 70
     0
300
6" = 1'-0"
140
6.0
141
12.0
290
     0
1001
ACAD
1000
AcRTDxfName
1000
SCALE
  0
SCALE
  5
1B21D
102
{ACAD_REACTORS
330
1B1FC
102
}
330
1B1FC
100
AcDbScale
 70
     0
300
1'-0" = 1'-0"
140
12.0
141
12.0
290
     0
1001
ACAD
1000
AcRTDxfName
1000
SCALE
  0
ACDBSECTIONVIEWSTYLE
  5
20CB1
102
{ACAD_XDICTIONARY
360
2380A
102
}
102
{ACAD_REACTORS
330
1B2EE
102
}
330
1B2EE
100
AcDbModelDocViewStyle
 70
     0
  3
Imperial24
290
     0
100
AcDbSectionViewStyle
 70
     0
 71
     0
 90
       78
 71
     1
340
11
 40
0.24
340
0
340
0
 40
0.24
300
I, O, Q, S, X, Z
 40
0.48
 90
        3
 40
0.18
 90
        1
 71
     2
340
16
 90
       25
340
16
 90
       50
 40
0.24
 40
0.0
 40
0.24
 71
     3
340
11
 40
0.24
 90
        1
 40
0.75
 90
        1
300
%<\AcVar ViewType \f "%tc1">% %<\AcVar ViewSectionStartId>%-%<\AcVar ViewSectionEndId>%\PVARIA %<\AcVar ViewScale \f "%sn">%
 71
     4
300
ANSI31
 40
1.0
 90
        0
290
     0
290
     0
 90
        6
 40
0.0
 40
1.570796326794896
 40
0.2617993877991494
 40
1.308996938995747
 40
-0.2617993877991494
 40
1.832595714594044
  0
ACDBSECTIONVIEWSTYLE
  5
1B2EF
102
{ACAD_XDICTIONARY
360
23804
102
}
102
{ACAD_REACTORS
330
1B2EE
102
}
330
1B2EE
100
AcDbModelDocViewStyle
 70
     0
  3
Metric50
290
     0
100
AcDbSectionViewStyle
 70
     0
 71
     0
 90
      102
 71
     1
340
11
 40
5.0
340
0
340
0
 40
5.0
300
I, O, Q, S, X, Z
 40
10.0
 90
        0
 40
2.5
 90
        0
 71
     2
340
16
 90
       25
340
16
 90
       50
 40
5.0
 40
2.5
 40
5.0
 71
     3
340
11
 40
5.0
 90
        0
 40
15.0
 90
        1
300
%<\AcVar ViewSectionStartId>%-%<\AcVar ViewSectionEndId>% (%<\AcVar ViewScale \f "%sn">%)
 71
     4
300
ANSI31
 40
1.0
 90
        0
290
     0
290
     0
 90
        6
 40
0.0
 40
1.570796326794896
 40
0.2617993877991494
 40
1.308996938995747
 40
-0.2617993877991494
 40
1.832595714594044
  0
TABLESTYLE
  5
31A2
102
{ACAD_XDICTIONARY
360
1B314
102
}
102
{ACAD_REACTORS
330
31A1
102
}
330
31A1
100
AcDbTableStyle
  3
Standard
 70
     0
 71
     0
 40
1.5
 41
1.5
280
     0
281
     0
  7
STANDARD
140
4.5
170
     2
 62
     0
 63
     7
283
     0
274
    -2
284
     1
 64
     0
275
    -2
285
     1
 65
     0
276
    -2
286
     1
 66
     0
277
    -2
287
     1
 67
     0
278
    -2
288
     1
 68
     0
279
    -2
289
     1
 69
     0
  7
STANDARD
140
6.0
170
     5
 62
     0
 63
     7
283
     0
274
    -2
284
     1
 64
     0
275
    -2
285
     1
 65
     0
276
    -2
286
     1
 66
     0
277
    -2
287
     1
 67
     0
278
    -2
288
     1
 68
     0
279
    -2
289
     1
 69
     0
  7
STANDARD
140
4.5
170
     5
 62
     0
 63
     7
283
     0
274
    -2
284
     1
 64
     0
275
    -2
285
     1
 65
     0
276
    -2
286
     1
 66
     0
277
    -2
287
     1
 67
     0
278
    -2
288
     1
 68
     0
279
    -2
289
     1
 69
     0
  0
VISUALSTYLE
  5
3195
102
{ACAD_XDICTIONARY
360
237D1
102
}
102
{ACAD_REACTORS
330
318F
102
}
330
318F
100
AcDbVisualStyle
  2

 70
     4
 71
     0
 72
     2
 73
     0
 90
        0
 40
-0.6
 41
-30.0
 62
     5
 63
     7
 74
     1
 91
        4
 64
     7
 65
   257
 75
     1
175
     1
 42
1.0
 92
        0
 66
   257
 43
1.0
 76
     1
 77
     6
 78
     2
 67
     7
 79
     5
170
     0
171
     0
290
     0
174
     0
 93
        1
 44
0.0
173
     0
291
     0
 45
0.0
1001
ACAD
1000
AcDbSavedByObjectVersion
1070
     0
  0
VISUALSTYLE
  5
3197
102
{ACAD_XDICTIONARY
360
237D5
102
}
102
{ACAD_REACTORS
330
318F
102
}
330
318F
100
AcDbVisualStyle
  2

 70
     6
 71
     1
 72
     2
 73
     2
 90
        0
 40
-0.6
 41
-30.0
 62
     5
 63
     7
 74
     2
 91
        2
 64
     7
 65
   257
 75
     2
175
     1
 42
40.0
 92
        0
 66
   257
 43
1.0
 76
     1
 77
     6
 78
     2
 67
     7
 79
     3
170
     0
171
     0
290
     0
174
     0
 93
        1
 44
0.0
173
     0
291
     0
 45
0.0
1001
ACAD
1000
AcDbSavedByObjectVersion
1070
     0
  0
VISUALSTYLE
  5
3196
102
{ACAD_XDICTIONARY
360
237D3
102
}
102
{ACAD_REACTORS
330
318F
102
}
330
318F
100
AcDbVisualStyle
  2

 70
     5
 71
     0
 72
     2
 73
     0
 90
        0
 40
-0.6
 41
-30.0
 62
     5
 63
     7
 74
     1
 91
        4
 64
     7
 65
   257
 75
     1
175
     1
 42
1.0
 92
        0
 66
   257
 43
1.0
 76
     1
 77
     6
 78
     2
 67
     7
 79
     5
170
     0
171
     0
290
     0
174
     0
 93
        1
 44
0.0
173
     0
291
     0
 45
0.0
1001
ACAD
1000
AcDbSavedByObjectVersion
1070
     0
  0
VISUALSTYLE
  5
3194
102
{ACAD_XDICTIONARY
360
237CF
102
}
102
{ACAD_REACTORS
330
318F
102
}
330
318F
100
AcDbVisualStyle
  2

 70
     7
 71
     1
 72
     0
 73
     1
 90
        0
 40
-0.6
 41
-30.0
 62
     5
 63
     7
 74
     0
 91
        4
 64
     7
 65
   257
 75
     1
175
     1
 42
1.0
 92
        8
 66
     7
 43
1.0
 76
     1
 77
     6
 78
     2
 67
     7
 79
     5
170
     0
171
     0
290
     0
174
     0
 93
        1
 44
0.0
173
     0
291
     1
 45
0.0
1001
ACAD
1000
AcDbSavedByObjectVersion
1070
     0
  0
VISUALSTYLE
  5
319B
102
{ACAD_XDICTIONARY
360
237DD
102
}
102
{ACAD_REACTORS
330
318F
102
}
330
318F
100
AcDbVisualStyle
  2

 70
    12
 71
     2
 72
     2
 73
     0
 90
        0
 40
-0.6
 41
-30.0
 62
     5
 63
     7
 74
     1
 91
        4
 64
     7
 65
   257
 75
     1
175
     1
 42
1.0
 92
        8
 66
     7
 43
1.0
 76
     1
 77
     6
 78
     2
 67
     7
 79
     5
170
     0
171
     0
290
     0
174
     0
 93
        1
 44
50.0
173
     0
291
     1
 45
0.0
1001
ACAD
1000
AcDbSavedByObjectVersion
1070
     0
  0
VISUALSTYLE
  5
319F
102
{ACAD_XDICTIONARY
360
237E5
102
}
102
{ACAD_REACTORS
330
318F
102
}
330
318F
100
AcDbVisualStyle
  2

 70
    16
 71
     2
 72
     2
 73
     3
 90
        0
 40
-0.6
 41
-30.0
 62
     5
 63
     8
 74
     1
 91
        4
 64
     7
 65
   257
 75
     1
175
     1
 42
1.0
 92
        8
 66
     8
 43
1.0
 76
     1
 77
     6
 78
     2
 67
     7
 79
     5
170
     0
171
     0
290
     0
174
     0
 93
        1
 44
0.0
173
     0
291
     1
 45
0.0
1001
ACAD
1000
AcDbSavedByObjectVersion
1070
     0
  0
VISUALSTYLE
  5
3198
102
{ACAD_XDICTIONARY
360
237D7
102
}
102
{ACAD_REACTORS
330
318F
102
}
330
318F
100
AcDbVisualStyle
  2

 70
     9
 71
     3
 72
     2
 73
     0
 90
        0
 40
-0.6
 41
-30.0
 62
     5
 63
     7
 74
     2
 91
        2
 64
     7
 65
   257
 75
     1
175
     1
 42
40.0
 92
        8
 66
     7
 43
1.0
 76
     1
 77
     6
 78
     2
 67
     7
 79
     3
170
     0
171
     0
290
     0
174
     0
 93
        1
 44
0.0
173
     0
291
     0
 45
0.0
1001
ACAD
1000
AcDbSavedByObjectVersion
1070
     0
  0
VISUALSTYLE
  5
319A
102
{ACAD_XDICTIONARY
360
237DB
102
}
102
{ACAD_REACTORS
330
318F
102
}
330
318F
100
AcDbVisualStyle
  2

 70
    11
 71
     2
 72
     2
 73
     0
 90
        0
 40
-0.6
 41
-30.0
 62
     5
 63
     7
 74
     1
 91
        4
 64
     7
 65
   257
 75
     1
175
     1
 42
1.0
 92
        8
 66
     7
 43
1.0
 76
     1
 77
     6
 78
     2
 67
     7
 79
     5
170
     0
171
     0
290
     0
174
     0
 93
        1
 44
-50.0
173
     0
291
     1
 45
0.0
1001
ACAD
1000
AcDbSavedByObjectVersion
1070
     0
  0
VISUALSTYLE
  5
1B2EC
102
{ACAD_XDICTIONARY
360
23802
102
}
102
{ACAD_REACTORS
330
318F
102
}
330
318F
100
AcDbVisualStyle
  2

 70
    22
 71
     2
 72
     2
 73
     0
 90
        0
 40
-0.6
 41
-30.0
 62
     5
 63
     7
 74
     1
 91
        4
 64
     7
 65
   257
 75
     1
175
     1
 42
1.0
 92
        8
 66
     7
 43
1.0
 76
     1
 77
     6
 78
     2
 67
     7
 79
     5
170
     0
171
     0
290
     0
174
     0
 93
        1
 44
0.0
173
     0
291
     1
 45
0.0
1001
ACAD
1000
AcDbSavedByObjectVersion
1070
     0
  0
VISUALSTYLE
  5
319E
102
{ACAD_XDICTIONARY
360
237E3
102
}
102
{ACAD_REACTORS
330
318F
102
}
330
318F
100
AcDbVisualStyle
  2

 70
    15
 71
     2
 72
     2
 73
     0
 90
        0
 40
-0.6
 41
-30.0
 62
     5
 63
     7
 74
     1
 91
        4
 64
     7
 65
   257
 75
     1
175
     1
 42
1.0
 92
        8
 66
     7
 43
1.0
 76
     1
 77
     6
 78
     2
 67
     7
 79
     5
170
     0
171
     0
290
     0
174
     0
 93
        1
 44
0.0
173
     0
291
     1
 45
0.0
1001
ACAD
1000
AcDbSavedByObjectVersion
1070
     0
  0
VISUALSTYLE
  5
3190
102
{ACAD_XDICTIONARY
360
237C7
102
}
102
{ACAD_REACTORS
330
318F
102
}
330
318F
100
AcDbVisualStyle
  2

 70
     0
 71
     2
 72
     1
 73
     1
 90
        2
 40
-0.6
 41
30.0
 62
     5
 63
     7
 74
     0
 91
        4
 64
     7
 65
   257
 75
     1
175
     1
 42
1.0
 92
        8
 66
     7
 43
1.0
 76
     1
 77
     6
 78
     2
 67
     7
 79
     5
170
     0
171
     0
290
     0
174
     0
 93
       13
 44
0.0
173
     0
291
     1
 45
0.0
1001
ACAD
1000
AcDbSavedByObjectVersion
1070
     0
  0
VISUALSTYLE
  5
3191
102
{ACAD_XDICTIONARY
360
237C9
102
}
102
{ACAD_REACTORS
330
318F
102
}
330
318F
100
AcDbVisualStyle
  2

 70
     1
 71
     2
 72
     1
 73
     1
 90
        2
 40
-0.6
 41
30.0
 62
     5
 63
     7
 74
     1
 91
        4
 64
     7
 65
   257
 75
     1
175
     1
 42
1.0
 92
        0
 66
   257
 43
1.0
 76
     1
 77
     6
 78
     2
 67
     7
 79
     5
170
     0
171
     0
290
     0
174
     0
 93
       13
 44
0.0
173
     0
291
     1
 45
0.0
1001
ACAD
1000
AcDbSavedByObjectVersion
1070
     0
  0
VISUALSTYLE
  5
3192
102
{ACAD_XDICTIONARY
360
237CB
102
}
102
{ACAD_REACTORS
330
318F
102
}
330
318F
100
AcDbVisualStyle
  2

 70
     2
 71
     2
 72
     2
 73
     1
 90
        2
 40
-0.6
 41
30.0
 62
     5
 63
     7
 74
     0
 91
        4
 64
     7
 65
   257
 75
     1
175
     1
 42
1.0
 92
        0
 66
     7
 43
1.0
 76
     1
 77
     6
 78
     2
 67
     7
 79
     5
170
     0
171
     0
290
     0
174
     0
 93
       13
 44
0.0
173
     0
291
     1
 45
0.0
1001
ACAD
1000
AcDbSavedByObjectVersion
1070
     0
  0
VISUALSTYLE
  5
3193
102
{ACAD_XDICTIONARY
360
237CD
102
}
102
{ACAD_REACTORS
330
318F
102
}
330
318F
100
AcDbVisualStyle
  2

 70
     3
 71
     2
 72
     2
 73
     1
 90
        2
 40
-0.6
 41
30.0
 62
     5
 63
     7
 74
     1
 91
        4
 64
     7
 65
   257
 75
     1
175
     1
 42
1.0
 92
        0
 66
   257
 43
1.0
 76
     1
 77
     6
 78
     2
 67
     7
 79
     5
170
     0
171
     0
290
     0
174
     0
 93
       13
 44
0.0
173
     0
291
     1
 45
0.0
1001
ACAD
1000
AcDbSavedByObjectVersion
1070
     0
  0
VISUALSTYLE
  5
1B2E4
102
{ACAD_XDICTIONARY
360
237F2
102
}
102
{ACAD_REACTORS
330
318F
102
}
330
318F
100
AcDbVisualStyle
  2

 70
     6
 71
     1
 72
     2
 73
     2
 90
        0
 40
-0.6
 41
-30.0
 62
     5
 63
     7
 74
     2
 91
        2
 64
     7
 65
   257
 75
     2
175
     1
 42
40.0
 92
        0
 66
   257
 43
1.0
 76
     1
 77
     6
 78
     2
 67
     7
 79
     3
170
     0
171
     0
290
     0
174
     0
 93
        1
 44
0.0
173
     0
291
     0
 45
0.0
1001
ACAD
1000
AcDbSavedByObjectVersion
1070
     0
  0
VISUALSTYLE
  5
1B2EA
102
{ACAD_XDICTIONARY
360
237FE
102
}
102
{ACAD_REACTORS
330
318F
102
}
330
318F
100
AcDbVisualStyle
  2

 70
    20
 71
     2
 72
     2
 73
     0
 90
        0
 40
-0.6
 41
-30.0
 62
     5
 63
     7
 74
     1
 91
        4
 64
     7
 65
   257
 75
     1
175
     1
 42
1.0
 92
       10
 66
     7
 43
1.0
 76
     1
 77
     6
 78
     2
 67
     7
 79
     5
170
     0
171
     0
290
     0
174
     0
 93
        1
 44
0.0
173
     0
291
     1
 45
0.0
1001
ACAD
1000
AcDbSavedByObjectVersion
1070
     0
  0
VISUALSTYLE
  5
319D
102
{ACAD_XDICTIONARY
360
237E1
102
}
102
{ACAD_REACTORS
330
318F
102
}
330
318F
100
AcDbVisualStyle
  2

 70
    14
 71
     2
 72
     2
 73
     0
 90
        0
 40
-0.6
 41
-30.0
 62
     5
 63
     7
 74
     1
 91
        4
 64
     7
 65
   257
 75
     7
175
     7
 42
1.0
 92
        8
 66
     7
 43
1.0
 76
     1
 77
     6
 78
     2
 67
     7
 79
     5
170
     0
171
     0
290
     0
174
     0
 93
        1
 44
0.0
173
     0
291
     1
 45
0.0
1001
ACAD
1000
AcDbSavedByObjectVersion
1070
     0
  0
VISUALSTYLE
  5
1B2EB
102
{ACAD_XDICTIONARY
360
23800
102
}
102
{ACAD_REACTORS
330
318F
102
}
330
318F
100
AcDbVisualStyle
  2

 70
    21
 71
     2
 72
     2
 73
     0
 90
        0
 40
-0.6
 41
-30.0
 62
     5
 63
     7
 74
     1
 91
        4
 64
     7
 65
   257
 75
     1
175
     1
 42
1.0
 92
        9
 66
     7
 43
1.0
 76
     1
 77
     6
 78
     2
 67
     7
 79
     5
170
     0
171
     0
290
     0
174
     0
 93
        1
 44
0.0
173
     0
291
     1
 45
0.0
1001
ACAD
1000
AcDbSavedByObjectVersion
1070
     0
  0
VISUALSTYLE
  5
3199
102
{ACAD_XDICTIONARY
360
237D9
102
}
102
{ACAD_REACTORS
330
318F
102
}
330
318F
100
AcDbVisualStyle
  2

 70
     8
 71
     2
 72
     2
 73
     0
 90
        0
 40
-0.6
 41
-30.0
 62
     5
 63
     7
 74
     1
 91
        0
 64
     7
 65
   257
 75
     1
175
     1
 42
1.0
 92
        8
 66
     8
 43
1.0
 76
     1
 77
     6
 78
     2
 67
     7
 79
     5
170
     0
171
     0
290
     0
174
     0
 93
       13
 44
0.0
173
     0
291
     0
 45
0.0
1001
ACAD
1000
AcDbSavedByObjectVersion
1070
     0
  0
VISUALSTYLE
  5
1B2E9
102
{ACAD_XDICTIONARY
360
237FC
102
}
102
{ACAD_REACTORS
330
318F
102
}
330
318F
100
AcDbVisualStyle
  2

 70
    27
 71
     2
 72
     2
 73
     1
 90
        2
 40
-0.6
 41
30.0
 62
     5
 63
     7
 74
     0
 91
        4
 64
     7
 65
   257
 75
     1
175
     1
 42
1.0
 92
        8
 66
   257
 43
1.0
 76
     1
 77
     6
 78
     2
 67
     8
 79
     3
170
     0
171
     0
290
     0
174
     0
 93
        5
 44
0.0
173
     0
291
     0
 45
0.0
1001
ACAD
1000
AcDbSavedByObjectVersion
1070
     0
  0
VISUALSTYLE
  5
1B2E8
102
{ACAD_XDICTIONARY
360
237FA
102
}
102
{ACAD_REACTORS
330
318F
102
}
330
318F
100
AcDbVisualStyle
  2

 70
    26
 71
     2
 72
     2
 73
     1
 90
        2
 40
-0.6
 41
30.0
 62
     5
 63
     7
 74
     1
 91
       10
 64
     7
 65
   257
 75
     2
175
     1
 42
1.0
 92
        8
 66
   257
 43
1.0
 76
     1
 77
     6
 78
     2
 67
     7
 79
     3
170
     0
171
     0
290
     0
174
     0
 93
        5
 44
0.0
173
     0
291
     0
 45
0.0
1001
ACAD
1000
AcDbSavedByObjectVersion
1070
     0
  0
VISUALSTYLE
  5
1B2E5
102
{ACAD_XDICTIONARY
360
237F4
102
}
102
{ACAD_REACTORS
330
318F
102
}
330
318F
100
AcDbVisualStyle
  2

 70
    23
 71
     2
 72
     2
 73
     3
 90
        0
 40
-0.6
 41
-30.0
 62
     5
 63
     7
 74
     2
 91
        2
 64
     7
 65
     7
 75
     1
175
     1
 42
40.0
 92
        8
 66
     7
 43
1.0
 76
     1
 77
     6
 78
     2
 67
     7
 79
     3
170
     0
171
     0
290
     0
174
     0
 93
        1
 44
0.0
173
     0
291
     0
 45
0.0
1001
ACAD
1000
AcDbSavedByObjectVersion
1070
     0
  0
VISUALSTYLE
  5
1B2E6
102
{ACAD_XDICTIONARY
360
237F6
102
}
102
{ACAD_REACTORS
330
318F
102
}
330
318F
100
AcDbVisualStyle
  2

 70
    24
 71
     1
 72
     2
 73
     2
 90
        0
 40
-0.6
 41
-30.0
 62
     5
 63
     7
 74
     2
 91
        2
 64
     7
 65
     7
 75
     1
175
     1
 42
40.0
 92
       11
 66
     7
 43
1.0
 76
     1
 77
     6
 78
     2
 67
     7
 79
     6
170
     0
171
     0
290
     0
174
     0
 93
        1
 44
0.0
173
     0
291
     0
 45
0.0
1001
ACAD
1000
AcDbSavedByObjectVersion
1070
     0
  0
VISUALSTYLE
  5
319C
102
{ACAD_XDICTIONARY
360
237DF
102
}
102
{ACAD_REACTORS
330
318F
102
}
330
318F
100
AcDbVisualStyle
  2

 70
    13
 71
     2
 72
     2
 73
     0
 90
        0
 40
-0.6
 41
-30.0
 62
     5
 63
     7
 74
     1
 91
        4
 64
     7
 65
   257
 75
     1
175
     1
 42
1.0
 92
       12
 66
     7
 43
1.0
 76
     1
 77
     6
 78
     2
 67
     7
 79
     5
170
     0
171
     0
290
     0
174
     0
 93
        1
 44
0.0
173
     0
291
     1
 45
0.0
1001
ACAD
1000
AcDbSavedByObjectVersion
1070
     0
  0
VISUALSTYLE
  5
1B2E3
102
{ACAD_XDICTIONARY
360
237F0
102
}
102
{ACAD_REACTORS
330
318F
102
}
330
318F
100
AcDbVisualStyle
  2

 70
     5
 71
     0
 72
     2
 73
     0
 90
        0
 40
-0.6
 41
-30.0
 62
     5
 63
     7
 74
     1
 91
        4
 64
     7
 65
   257
 75
     1
175
     1
 42
1.0
 92
        0
 66
   257
 43
1.0
 76
     1
 77
     6
 78
     2
 67
     7
 79
     3
170
     0
171
     0
290
     0
174
     0
 93
        1
 44
0.0
173
     0
291
     0
 45
0.0
1001
ACAD
1000
AcDbSavedByObjectVersion
1070
     0
  0
VISUALSTYLE
  5
1B2E7
102
{ACAD_XDICTIONARY
360
237F8
102
}
102
{ACAD_REACTORS
330
318F
102
}
330
318F
100
AcDbVisualStyle
  2

 70
    25
 71
     2
 72
     2
 73
     1
 90
        1
 40
0.5
 41
-30.0
 62
     5
 63
     7
 74
     1
 91
        0
 64
     7
 65
   257
 75
     1
175
     1
 42
1.0
 92
        8
 66
     7
 43
1.0
 76
     1
 77
     6
 78
     2
 67
     7
 79
     3
170
     0
171
     0
290
     0
174
     0
 93
       13
 44
0.0
173
     0
291
     0
 45
0.0
1001
ACAD
1000
AcDbSavedByObjectVersion
1070
     0
  0
DICTIONARYVAR
  5
1B222
102
{ACAD_REACTORS
330
33A3
102
}
330
33A3
100
DictionaryVariables
280
     0
  1
1:1
  0
DICTIONARYVAR
  5
1B30F
102
{ACAD_REACTORS
330
33A3
102
}
330
33A3
100
DictionaryVariables
280
     0
  1
STANDARD
  0
DICTIONARYVAR
  5
33A4
102
{ACAD_REACTORS
330
33A3
102
}
330
33A3
100
DictionaryVariables
280
     0
  1
STANDARD
  0
DICTIONARYVAR
  5
1B310
102
{ACAD_REACTORS
330
33A3
102
}
330
33A3
100
DictionaryVariables
280
     0
  1
Metric50
  0
DICTIONARYVAR
  5
1B311
102
{ACAD_REACTORS
330
33A3
102
}
330
33A3
100
DictionaryVariables
280
     0
  1
Metric50
  0
DICTIONARYVAR
  5
9BE8
102
{ACAD_REACTORS
330
33A3
102
}
330
33A3
100
DictionaryVariables
280
     0
  1
1
  0
DICTIONARYVAR
  5
9BE7
102
{ACAD_REACTORS
330
33A3
102
}
330
33A3
100
DictionaryVariables
280
     0
  1
0
  0
DICTIONARYVAR
  5
20993
102
{ACAD_REACTORS
330
33A3
102
}
330
33A3
100
DictionaryVariables
280
     0
  1
1
  0
DICTIONARYVAR
  5
20994
102
{ACAD_REACTORS
330
33A3
102
}
330
33A3
100
DictionaryVariables
280
     0
  1
15
  0
DICTIONARYVAR
  5
20992
102
{ACAD_REACTORS
330
33A3
102
}
330
33A3
100
DictionaryVariables
280
     0
  1
0
  0
DICTIONARYVAR
  5
237C0
102
{ACAD_REACTORS
330
33A3
102
}
330
33A3
100
DictionaryVariables
280
     0
  1
1.570796
  0
DICTIONARYVAR
  5
237C1
102
{ACAD_REACTORS
330
33A3
102
}
330
33A3
100
DictionaryVariables
280
     0
  1
1.570796
  0
DICTIONARYVAR
  5
237C2
102
{ACAD_REACTORS
330
33A3
102
}
330
33A3
100
DictionaryVariables
280
     0
  1
-122.394000
  0
DICTIONARYVAR
  5
20991
102
{ACAD_REACTORS
330
33A3
102
}
330
33A3
100
DictionaryVariables
280
     0
  1
0
  0
DICTIONARYVAR
  5
9BE6
102
{ACAD_REACTORS
330
33A3
102
}
330
33A3
100
DictionaryVariables
280
     0
  1
127
  0
DICTIONARYVAR
  5
237C3
102
{ACAD_REACTORS
330
33A3
102
}
330
33A3
100
DictionaryVariables
280
     0
  1
2
  0
XRECORD
  5
23809
102
{ACAD_REACTORS
330
23808
102
}
330
23808
100
AcDbXrecord
280
     1
1070
     0
1070
     1
1070
     1
  0
DICTIONARY
  5
2380C
330
20CB3
100
AcDbDictionary
280
     1
281
     1
  3
ACAD_XREC_ROUNDTRIP
360
2380D
  0
DICTIONARY
  5
23806
330
1B2F1
100
AcDbDictionary
280
     1
281
     1
  3
ACAD_XREC_ROUNDTRIP
360
23807
  0
DICTIONARY
  5
237EA
330
31A7
100
AcDbDictionary
280
     1
281
     1
  3
ACAD_XREC_ROUNDTRIP
360
237EB
  0
DICTIONARY
  5
237E8
330
31A6
100
AcDbDictionary
280
     1
281
     1
  3
ACAD_XREC_ROUNDTRIP
360
237E9
  0
DICTIONARY
  5
1B22B
330
318D
100
AcDbDictionary
280
     1
281
     1
  3
ACAD_XREC_ROUNDTRIP
360
1B22C
  0
DICTIONARY
  5
1B22D
330
318C
100
AcDbDictionary
280
     1
281
     1
  3
ACAD_XREC_ROUNDTRIP
360
1B22E
  0
DICTIONARY
  5
1B22F
330
318E
100
AcDbDictionary
280
     1
281
     1
  3
ACAD_XREC_ROUNDTRIP
360
1B230
  0
DICTIONARY
  5
2380A
330
20CB1
100
AcDbDictionary
280
     1
281
     1
  3
ACAD_XREC_ROUNDTRIP
360
2380B
  0
DICTIONARY
  5
23804
330
1B2EF
100
AcDbDictionary
280
     1
281
     1
  3
ACAD_XREC_ROUNDTRIP
360
23805
  0
DICTIONARY
  5
1B314
330
31A2
100
AcDbDictionary
280
     1
281
     1
  3
ACAD_ROUNDTRIP_2008_TABLESTYLE_CELLSTYLEMAP
360
237C4
  3
ACAD_XREC_ROUNDTRIP
360
237E7
  0
DICTIONARY
  5
237D1
330
3195
100
AcDbDictionary
280
     1
281
     1
  3
ACAD_XREC_ROUNDTRIP
360
237D2
  0
DICTIONARY
  5
237D5
330
3197
100
AcDbDictionary
280
     1
281
     1
  3
ACAD_XREC_ROUNDTRIP
360
237D6
  0
DICTIONARY
  5
237D3
330
3196
100
AcDbDictionary
280
     1
281
     1
  3
ACAD_XREC_ROUNDTRIP
360
237D4
  0
DICTIONARY
  5
237CF
330
3194
100
AcDbDictionary
280
     1
281
     1
  3
ACAD_XREC_ROUNDTRIP
360
237D0
  0
DICTIONARY
  5
237DD
330
319B
100
AcDbDictionary
280
     1
281
     1
  3
ACAD_XREC_ROUNDTRIP
360
237DE
  0
DICTIONARY
  5
237E5
330
319F
100
AcDbDictionary
280
     1
281
     1
  3
ACAD_XREC_ROUNDTRIP
360
237E6
  0
DICTIONARY
  5
237D7
330
3198
100
AcDbDictionary
280
     1
281
     1
  3
ACAD_XREC_ROUNDTRIP
360
237D8
  0
DICTIONARY
  5
237DB
330
319A
100
AcDbDictionary
280
     1
281
     1
  3
ACAD_XREC_ROUNDTRIP
360
237DC
  0
DICTIONARY
  5
23802
330
1B2EC
100
AcDbDictionary
280
     1
281
     1
  3
ACAD_XREC_ROUNDTRIP
360
23803
  0
DICTIONARY
  5
237E3
330
319E
100
AcDbDictionary
280
     1
281
     1
  3
ACAD_XREC_ROUNDTRIP
360
237E4
  0
DICTIONARY
  5
237C7
330
3190
100
AcDbDictionary
280
     1
281
     1
  3
ACAD_XREC_ROUNDTRIP
360
237C8
  0
DICTIONARY
  5
237C9
330
3191
100
AcDbDictionary
280
     1
281
     1
  3
ACAD_XREC_ROUNDTRIP
360
237CA
  0
DICTIONARY
  5
237CB
330
3192
100
AcDbDictionary
280
     1
281
     1
  3
ACAD_XREC_ROUNDTRIP
360
237CC
  0
DICTIONARY
  5
237CD
330
3193
100
AcDbDictionary
280
     1
281
     1
  3
ACAD_XREC_ROUNDTRIP
360
237CE
  0
DICTIONARY
  5
237F2
330
1B2E4
100
AcDbDictionary
280
     1
281
     1
  3
ACAD_XREC_ROUNDTRIP
360
237F3
  0
DICTIONARY
  5
237FE
330
1B2EA
100
AcDbDictionary
280
     1
281
     1
  3
ACAD_XREC_ROUNDTRIP
360
237FF
  0
DICTIONARY
  5
237E1
330
319D
100
AcDbDictionary
280
     1
281
     1
  3
ACAD_XREC_ROUNDTRIP
360
237E2
  0
DICTIONARY
  5
23800
330
1B2EB
100
AcDbDictionary
280
     1
281
     1
  3
ACAD_XREC_ROUNDTRIP
360
23801
  0
DICTIONARY
  5
237D9
330
3199
100
AcDbDictionary
280
     1
281
     1
  3
ACAD_XREC_ROUNDTRIP
360
237DA
  0
DICTIONARY
  5
237FC
330
1B2E9
100
AcDbDictionary
280
     1
281
     1
  3
ACAD_XREC_ROUNDTRIP
360
237FD
  0
DICTIONARY
  5
237FA
330
1B2E8
100
AcDbDictionary
280
     1
281
     1
  3
ACAD_XREC_ROUNDTRIP
360
237FB
  0
DICTIONARY
  5
237F4
330
1B2E5
100
AcDbDictionary
280
     1
281
     1
  3
ACAD_XREC_ROUNDTRIP
360
237F5
  0
DICTIONARY
  5
237F6
330
1B2E6
100
AcDbDictionary
280
     1
281
     1
  3
ACAD_XREC_ROUNDTRIP
360
237F7
  0
DICTIONARY
  5
237DF
330
319C
100
AcDbDictionary
280
     1
281
     1
  3
ACAD_XREC_ROUNDTRIP
360
237E0
  0
DICTIONARY
  5
237F0
330
1B2E3
100
AcDbDictionary
280
     1
281
     1
  3
ACAD_XREC_ROUNDTRIP
360
237F1
  0
DICTIONARY
  5
237F8
330
1B2E7
100
AcDbDictionary
280
     1
281
     1
  3
ACAD_XREC_ROUNDTRIP
360
237F9
  0
XRECORD
  5
2380D
102
{ACAD_REACTORS
330
2380C
102
}
330
2380C
100
AcDbXrecord
280
     1
102
DISPLAYNAME
  1
Imperial24
102
FLAGS
 90
        0
  0
XRECORD
  5
23807
102
{ACAD_REACTORS
330
23806
102
}
330
23806
100
AcDbXrecord
280
     1
102
DISPLAYNAME
  1
Metric50
102
FLAGS
 90
        0
  0
XRECORD
  5
237EB
102
{ACAD_REACTORS
330
237EA
102
}
330
237EA
100
AcDbXrecord
280
     1
102
SHADEPLOT
 70
     0
102
SHADEPLOTRESLEVEL
 70
     2
102
SHADEPLOTCUSTOMDPI
 70
   300
  0
XRECORD
  5
237E9
102
{ACAD_REACTORS
330
237E8
102
}
330
237E8
100
AcDbXrecord
280
     1
102
SHADEPLOT
 70
     0
102
SHADEPLOTRESLEVEL
 70
     2
102
SHADEPLOTCUSTOMDPI
 70
   300
  0
XRECORD
  5
1B22C
102
{ACAD_REACTORS
330
1B22B
102
}
330
1B22B
100
AcDbXrecord
280
     1
102
MATERIAL
148
0.0
149
0.0
149
0.0
 93
        0
 94
      127
282
     0
 72
     1
 77
     1
171
     1
175
     1
179
     1
273
     0
  0
XRECORD
  5
1B22E
102
{ACAD_REACTORS
330
1B22D
102
}
330
1B22D
100
AcDbXrecord
280
     1
102
MATERIAL
148
0.0
149
0.0
149
0.0
 93
        0
 94
      127
282
     0
 72
     1
 77
     1
171
     1
175
     1
179
     1
273
     0
  0
XRECORD
  5
1B230
102
{ACAD_REACTORS
330
1B22F
102
}
330
1B22F
100
AcDbXrecord
280
     1
102
MATERIAL
148
0.0
149
0.0
149
0.0
 93
        0
 94
      127
282
     0
 72
     1
 77
     1
171
     1
175
     1
179
     1
273
     0
  0
XRECORD
  5
2380B
102
{ACAD_REACTORS
330
2380A
102
}
330
2380A
100
AcDbXrecord
280
     1
102
DISPLAYNAME
  1
Imperial24
102
FLAGS
 90
        0
  0
XRECORD
  5
23805
102
{ACAD_REACTORS
330
23804
102
}
330
23804
100
AcDbXrecord
280
     1
102
DISPLAYNAME
  1
Metric50
102
FLAGS
 90
        0
  0
CELLSTYLEMAP
  5
237C4
102
{ACAD_REACTORS
330
1B314
102
}
330
1B314
100
AcDbCellStyleMap
 90
        3
300
CELLSTYLE
  1
TABLEFORMAT_BEGIN
 90
        5
170
     1
 91
        0
 92
    32768
 62
   257
 93
        1
300
CONTENTFORMAT
  1
CONTENTFORMAT_BEGIN
 90
        0
 91
        0
 92
        4
 93
        0
300

 40
0.0
140
1.0
 94
        5
 62
     0
340
11
144
6.0
309
CONTENTFORMAT_END
171
     1
301
MARGIN
  1
CELLMARGIN_BEGIN
 40
1.5
 40
1.5
 40
1.5
 40
1.5
 40
0.18
 40
0.18
309
CELLMARGIN_END
 94
        6
 95
        1
302
GRIDFORMAT
  1
GRIDFORMAT_BEGIN
 90
        0
 91
        1
 62
     0
 92
       -2
340
0
 93
        0
 40
0.045
309
GRIDFORMAT_END
 95
        2
302
GRIDFORMAT
  1
GRIDFORMAT_BEGIN
 90
        0
 91
        1
 62
     0
 92
       -2
340
0
 93
        0
 40
0.045
309
GRIDFORMAT_END
 95
        4
302
GRIDFORMAT
  1
GRIDFORMAT_BEGIN
 90
        0
 91
        1
 62
     0
 92
       -2
340
0
 93
        0
 40
0.045
309
GRIDFORMAT_END
 95
        8
302
GRIDFORMAT
  1
GRIDFORMAT_BEGIN
 90
        0
 91
        1
 62
     0
 92
       -2
340
0
 93
        0
 40
0.045
309
GRIDFORMAT_END
 95
       16
302
GRIDFORMAT
  1
GRIDFORMAT_BEGIN
 90
        0
 91
        1
 62
     0
 92
       -2
340
0
 93
        0
 40
0.045
309
GRIDFORMAT_END
 95
       32
302
GRIDFORMAT
  1
GRIDFORMAT_BEGIN
 90
        0
 91
        1
 62
     0
 92
       -2
340
0
 93
        0
 40
0.045
309
GRIDFORMAT_END
309
TABLEFORMAT_END
  1
CELLSTYLE_BEGIN
 90
        1
 91
        1
300
_TITLE
309
CELLSTYLE_END
300
CELLSTYLE
  1
TABLEFORMAT_BEGIN
 90
        5
170
     1
 91
        0
 92
        0
 62
   257
 93
        1
300
CONTENTFORMAT
  1
CONTENTFORMAT_BEGIN
 90
        0
 91
        0
 92
        4
 93
        0
300

 40
0.0
140
1.0
 94
        5
 62
     0
340
11
144
4.5
309
CONTENTFORMAT_END
171
     1
301
MARGIN
  1
CELLMARGIN_BEGIN
 40
1.5
 40
1.5
 40
1.5
 40
1.5
 40
0.18
 40
0.18
309
CELLMARGIN_END
 94
        6
 95
        1
302
GRIDFORMAT
  1
GRIDFORMAT_BEGIN
 90
        0
 91
        1
 62
     0
 92
       -2
340
0
 93
        0
 40
0.045
309
GRIDFORMAT_END
 95
        2
302
GRIDFORMAT
  1
GRIDFORMAT_BEGIN
 90
        0
 91
        1
 62
     0
 92
       -2
340
0
 93
        0
 40
0.045
309
GRIDFORMAT_END
 95
        4
302
GRIDFORMAT
  1
GRIDFORMAT_BEGIN
 90
        0
 91
        1
 62
     0
 92
       -2
340
0
 93
        0
 40
0.045
309
GRIDFORMAT_END
 95
        8
302
GRIDFORMAT
  1
GRIDFORMAT_BEGIN
 90
        0
 91
        1
 62
     0
 92
       -2
340
0
 93
        0
 40
0.045
309
GRIDFORMAT_END
 95
       16
302
GRIDFORMAT
  1
GRIDFORMAT_BEGIN
 90
        0
 91
        1
 62
     0
 92
       -2
340
0
 93
        0
 40
0.045
309
GRIDFORMAT_END
 95
       32
302
GRIDFORMAT
  1
GRIDFORMAT_BEGIN
 90
        0
 91
        1
 62
     0
 92
       -2
340
0
 93
        0
 40
0.045
309
GRIDFORMAT_END
309
TABLEFORMAT_END
  1
CELLSTYLE_BEGIN
 90
        2
 91
        1
300
_HEADER
309
CELLSTYLE_END
300
CELLSTYLE
  1
TABLEFORMAT_BEGIN
 90
        5
170
     1
 91
        0
 92
        0
 62
   257
 93
        1
300
CONTENTFORMAT
  1
CONTENTFORMAT_BEGIN
 90
        0
 91
        0
 92
        4
 93
        0
300

 40
0.0
140
1.0
 94
        2
 62
     0
340
11
144
4.5
309
CONTENTFORMAT_END
171
     1
301
MARGIN
  1
CELLMARGIN_BEGIN
 40
1.5
 40
1.5
 40
1.5
 40
1.5
 40
0.18
 40
0.18
309
CELLMARGIN_END
 94
        6
 95
        1
302
GRIDFORMAT
  1
GRIDFORMAT_BEGIN
 90
        0
 91
        1
 62
     0
 92
       -2
340
0
 93
        0
 40
0.045
309
GRIDFORMAT_END
 95
        2
302
GRIDFORMAT
  1
GRIDFORMAT_BEGIN
 90
        0
 91
        1
 62
     0
 92
       -2
340
0
 93
        0
 40
0.045
309
GRIDFORMAT_END
 95
        4
302
GRIDFORMAT
  1
GRIDFORMAT_BEGIN
 90
        0
 91
        1
 62
     0
 92
       -2
340
0
 93
        0
 40
0.045
309
GRIDFORMAT_END
 95
        8
302
GRIDFORMAT
  1
GRIDFORMAT_BEGIN
 90
        0
 91
        1
 62
     0
 92
       -2
340
0
 93
        0
 40
0.045
309
GRIDFORMAT_END
 95
       16
302
GRIDFORMAT
  1
GRIDFORMAT_BEGIN
 90
        0
 91
        1
 62
     0
 92
       -2
340
0
 93
        0
 40
0.045
309
GRIDFORMAT_END
 95
       32
302
GRIDFORMAT
  1
GRIDFORMAT_BEGIN
 90
        0
 91
        1
 62
     0
 92
       -2
340
0
 93
        0
 40
0.045
309
GRIDFORMAT_END
309
TABLEFORMAT_END
  1
CELLSTYLE_BEGIN
 90
        3
 91
        2
300
_DATA
309
CELLSTYLE_END
  0
XRECORD
  5
237E7
102
{ACAD_REACTORS
330
1B314
102
}
330
1B314
100
AcDbXrecord
280
     1
102
ACAD_ROUNDTRIP_PRE2007_TABLESTYLE
 90
        4
 91
        0
  1

 92
        4
 93
        0
  2

 94
        4
 95
        0
  3

  0
XRECORD
  5
237D2
102
{ACAD_REACTORS
330
237D1
102
}
330
237D1
100
AcDbXrecord
280
     1
102
RTVSPost2010Prop28
280
     1
102
RTVSPost2010PropOp28
 70
     1
102
RTVSPost2010Prop29
280
     1
102
RTVSPost2010PropOp29
 70
     1
102
RTVSPost2010Prop30
280
     0
102
RTVSPost2010PropOp30
 70
     1
102
RTVSPost2010Prop31
280
     0
102
RTVSPost2010PropOp31
 70
     1
102
RTVSPost2010Prop32
280
     0
102
RTVSPost2010PropOp32
 70
     1
102
RTVSPost2010Prop33
280
     0
102
RTVSPost2010PropOp33
 70
     1
102
RTVSPost2010Prop34
280
     0
102
RTVSPost2010PropOp34
 70
     1
102
RTVSPost2010Prop35
280
     0
102
RTVSPost2010PropOp35
 70
     1
102
RTVSPost2010Prop36
280
     0
102
RTVSPost2010PropOp36
 70
     1
102
RTVSPost2010Prop37
 90
       50
102
RTVSPost2010PropOp37
 70
     1
102
RTVSPost2010Prop38
140
0.0
102
RTVSPost2010PropOp38
 70
     1
102
RTVSPost2010Prop39
140
1.0
102
RTVSPost2010PropOp39
 70
     1
102
RTVSPost2010Prop40
 90
        0
102
RTVSPost2010PropOp40
 70
     1
102
RTVSPost2010Prop41ColorIndex
 90
       18
102
RTVSPost2010Prop41ColorRGB
 90
        0
102
RTVSPost2010PropOp41
 70
     1
102
RTVSPost2010Prop42
 90
       50
102
RTVSPost2010PropOp42
 70
     1
102
RTVSPost2010Prop43
 90
        3
102
RTVSPost2010PropOp43
 70
     1
102
RTVSPost2010Prop44ColorIndex
 90
        5
102
RTVSPost2010Prop44ColorRGB
 90
      255
102
RTVSPost2010PropOp44
 70
     1
102
RTVSPost2010Prop45
280
     0
102
RTVSPost2010PropOp45
 70
     1
102
RTVSPost2010Prop46
 90
       50
102
RTVSPost2010PropOp46
 70
     1
102
RTVSPost2010Prop47
 90
       50
102
RTVSPost2010PropOp47
 70
     1
102
RTVSPost2010Prop48
 90
       50
102
RTVSPost2010PropOp48
 70
     1
102
RTVSPost2010Prop49
280
     0
102
RTVSPost2010PropOp49
 70
     1
102
RTVSPost2010Prop50
 90
       50
102
RTVSPost2010PropOp50
 70
     1
102
RTVSPost2010Prop51ColorIndex
 90
      256
102
RTVSPost2010Prop51ColorRGB
 90
-16777216
102
RTVSPost2010PropOp51
 70
     0
102
RTVSPost2010Prop52
140
1.0
102
RTVSPost2010PropOp52
 70
     0
102
RTVSPost2010Prop53
 90
        2
102
RTVSPost2010PropOp53
 70
     1
102
RTVSPost2010Prop54
  1
strokes_ogs.tif
102
RTVSPost2010PropOp54
 70
     1
102
RTVSPost2010Prop55
280
     0
102
RTVSPost2010PropOp55
 70
     1
102
RTVSPost2010Prop56
140
1.0
102
RTVSPost2010PropOp56
 70
     1
102
RTVSPost2010Prop57
140
1.0
102
RTVSPost2010PropOp57
 70
     1
102
RTVSPropertyOp0
 70
     1
102
RTVSPropertyOp1
 70
     1
102
RTVSPropertyOp2
 70
     1
102
RTVSPropertyOp3
 70
     1
102
RTVSPropertyOp4
 70
     1
102
RTVSPropertyOp5
 70
     1
102
RTVSPropertyOp6
 70
     1
102
RTVSPropertyOp7
 70
     1
102
RTVSPropertyOp8
 70
     1
102
RTVSPropertyOp9
 70
     1
102
RTVSPropertyOp10
 70
     1
102
RTVSPropertyOp11
 70
     1
102
RTVSPropertyOp12
 70
     1
102
RTVSPropertyOp13
 70
     1
102
RTVSPropertyOp14
 70
     1
102
RTVSPropertyOp15
 70
     1
102
RTVSPropertyOp16
 70
     1
102
RTVSPropertyOp17
 70
     1
102
RTVSPropertyOp18
 70
     1
102
RTVSPropertyOp19
 70
     1
102
RTVSPropertyOp20
 70
     1
102
RTVSPropertyOp21
 70
     1
102
RTVSPropertyOp22
 70
     1
102
RTVSPropertyOp23
 70
     1
102
RTVSPropertyOp24
 70
     1
102
RTVSPropertyOp25
 70
     1
102
RTVSPropertyOp26
 70
     1
102
RTVSPropertyOp27
 70
     1
102
RTVSPropertyOp28
 70
     1
102
RTVSPropertyOp29
 70
     1
102
RTVSPropertyOp30
 70
     1
102
RTVSPropertyOp31
 70
     1
102
RTVSPropertyOp32
 70
     1
102
RTVSPropertyOp33
 70
     1
102
RTVSPropertyOp34
 70
     1
102
RTVSPropertyOp35
 70
     1
102
RTVSPropertyOp36
 70
     1
102
RTVSPropertyOp37
 70
     1
102
RTVSPropertyOp38
 70
     1
102
RTVSPropertyOp39
 70
     1
102
RTVSPropertyOp40
 70
     1
102
RTVSPropertyOp41
 70
     1
102
RTVSPropertyOp42
 70
     1
102
RTVSPropertyOp43
 70
     1
102
RTVSPropertyOp44
 70
     1
102
RTVSPropertyOp45
 70
     1
102
RTVSPropertyOp46
 70
     1
102
RTVSPropertyOp47
 70
     1
102
RTVSPropertyOp48
 70
     1
102
RTVSPropertyOp49
 70
     1
102
RTVSPropertyOp50
 70
     1
102
RTVSPropertyOp51
 70
     0
102
RTVSPropertyOp52
 70
     0
102
RTVSPropertyOp53
 70
     1
102
RTVSPropertyOp54
 70
     1
102
RTVSPropertyOp55
 70
     1
102
RTVSPropertyOp56
 70
     1
102
RTVSPropertyOp57
 70
     1
102
RTVSPropertyOp58
 70
     1
102
RTVSPropertyOp59
 70
     1
102
RTVSPropertyOp60
 70
     1
102
RTVSPropertyOp61
 70
     1
102
RTVSPropertyOp62
 70
     1
  0
XRECORD
  5
237D6
102
{ACAD_REACTORS
330
237D5
102
}
330
237D5
100
AcDbXrecord
280
     1
102
RTVSPost2010Prop28
280
     0
102
RTVSPost2010PropOp28
 70
     1
102
RTVSPost2010Prop29
280
     1
102
RTVSPost2010PropOp29
 70
     1
102
RTVSPost2010Prop30
280
     1
102
RTVSPost2010PropOp30
 70
     1
102
RTVSPost2010Prop31
280
     0
102
RTVSPost2010PropOp31
 70
     1
102
RTVSPost2010Prop32
280
     0
102
RTVSPost2010PropOp32
 70
     1
102
RTVSPost2010Prop33
280
     0
102
RTVSPost2010PropOp33
 70
     1
102
RTVSPost2010Prop34
280
     0
102
RTVSPost2010PropOp34
 70
     1
102
RTVSPost2010Prop35
280
     0
102
RTVSPost2010PropOp35
 70
     1
102
RTVSPost2010Prop36
280
     0
102
RTVSPost2010PropOp36
 70
     1
102
RTVSPost2010Prop37
 90
       50
102
RTVSPost2010PropOp37
 70
     1
102
RTVSPost2010Prop38
140
0.0
102
RTVSPost2010PropOp38
 70
     1
102
RTVSPost2010Prop39
140
1.0
102
RTVSPost2010PropOp39
 70
     1
102
RTVSPost2010Prop40
 90
        0
102
RTVSPost2010PropOp40
 70
     1
102
RTVSPost2010Prop41ColorIndex
 90
       18
102
RTVSPost2010Prop41ColorRGB
 90
        0
102
RTVSPost2010PropOp41
 70
     1
102
RTVSPost2010Prop42
 90
       50
102
RTVSPost2010PropOp42
 70
     1
102
RTVSPost2010Prop43
 90
        3
102
RTVSPost2010PropOp43
 70
     1
102
RTVSPost2010Prop44ColorIndex
 90
        5
102
RTVSPost2010Prop44ColorRGB
 90
      255
102
RTVSPost2010PropOp44
 70
     1
102
RTVSPost2010Prop45
280
     0
102
RTVSPost2010PropOp45
 70
     1
102
RTVSPost2010Prop46
 90
       50
102
RTVSPost2010PropOp46
 70
     1
102
RTVSPost2010Prop47
 90
       50
102
RTVSPost2010PropOp47
 70
     1
102
RTVSPost2010Prop48
 90
       50
102
RTVSPost2010PropOp48
 70
     1
102
RTVSPost2010Prop49
280
     0
102
RTVSPost2010PropOp49
 70
     1
102
RTVSPost2010Prop50
 90
       50
102
RTVSPost2010PropOp50
 70
     1
102
RTVSPost2010Prop51ColorIndex
 90
      256
102
RTVSPost2010Prop51ColorRGB
 90
-16777216
102
RTVSPost2010PropOp51
 70
     0
102
RTVSPost2010Prop52
140
1.0
102
RTVSPost2010PropOp52
 70
     0
102
RTVSPost2010Prop53
 90
        2
102
RTVSPost2010PropOp53
 70
     1
102
RTVSPost2010Prop54
  1
strokes_ogs.tif
102
RTVSPost2010PropOp54
 70
     1
102
RTVSPost2010Prop55
280
     0
102
RTVSPost2010PropOp55
 70
     1
102
RTVSPost2010Prop56
140
1.0
102
RTVSPost2010PropOp56
 70
     1
102
RTVSPost2010Prop57
140
1.0
102
RTVSPost2010PropOp57
 70
     1
102
RTVSPropertyOp0
 70
     1
102
RTVSPropertyOp1
 70
     1
102
RTVSPropertyOp2
 70
     1
102
RTVSPropertyOp3
 70
     1
102
RTVSPropertyOp4
 70
     1
102
RTVSPropertyOp5
 70
     1
102
RTVSPropertyOp6
 70
     1
102
RTVSPropertyOp7
 70
     1
102
RTVSPropertyOp8
 70
     1
102
RTVSPropertyOp9
 70
     1
102
RTVSPropertyOp10
 70
     1
102
RTVSPropertyOp11
 70
     1
102
RTVSPropertyOp12
 70
     1
102
RTVSPropertyOp13
 70
     1
102
RTVSPropertyOp14
 70
     1
102
RTVSPropertyOp15
 70
     1
102
RTVSPropertyOp16
 70
     1
102
RTVSPropertyOp17
 70
     1
102
RTVSPropertyOp18
 70
     1
102
RTVSPropertyOp19
 70
     1
102
RTVSPropertyOp20
 70
     1
102
RTVSPropertyOp21
 70
     1
102
RTVSPropertyOp22
 70
     1
102
RTVSPropertyOp23
 70
     1
102
RTVSPropertyOp24
 70
     1
102
RTVSPropertyOp25
 70
     1
102
RTVSPropertyOp26
 70
     1
102
RTVSPropertyOp27
 70
     1
102
RTVSPropertyOp28
 70
     1
102
RTVSPropertyOp29
 70
     1
102
RTVSPropertyOp30
 70
     1
102
RTVSPropertyOp31
 70
     1
102
RTVSPropertyOp32
 70
     1
102
RTVSPropertyOp33
 70
     1
102
RTVSPropertyOp34
 70
     1
102
RTVSPropertyOp35
 70
     1
102
RTVSPropertyOp36
 70
     1
102
RTVSPropertyOp37
 70
     1
102
RTVSPropertyOp38
 70
     1
102
RTVSPropertyOp39
 70
     1
102
RTVSPropertyOp40
 70
     1
102
RTVSPropertyOp41
 70
     1
102
RTVSPropertyOp42
 70
     1
102
RTVSPropertyOp43
 70
     1
102
RTVSPropertyOp44
 70
     1
102
RTVSPropertyOp45
 70
     1
102
RTVSPropertyOp46
 70
     1
102
RTVSPropertyOp47
 70
     1
102
RTVSPropertyOp48
 70
     1
102
RTVSPropertyOp49
 70
     1
102
RTVSPropertyOp50
 70
     1
102
RTVSPropertyOp51
 70
     0
102
RTVSPropertyOp52
 70
     0
102
RTVSPropertyOp53
 70
     1
102
RTVSPropertyOp54
 70
     1
102
RTVSPropertyOp55
 70
     1
102
RTVSPropertyOp56
 70
     1
102
RTVSPropertyOp57
 70
     1
102
RTVSPropertyOp58
 70
     1
102
RTVSPropertyOp59
 70
     1
102
RTVSPropertyOp60
 70
     1
102
RTVSPropertyOp61
 70
     1
102
RTVSPropertyOp62
 70
     1
  0
XRECORD
  5
237D4
102
{ACAD_REACTORS
330
237D3
102
}
330
237D3
100
AcDbXrecord
280
     1
102
RTVSPost2010Prop28
280
     0
102
RTVSPost2010PropOp28
 70
     1
102
RTVSPost2010Prop29
280
     1
102
RTVSPost2010PropOp29
 70
     1
102
RTVSPost2010Prop30
280
     1
102
RTVSPost2010PropOp30
 70
     1
102
RTVSPost2010Prop31
280
     0
102
RTVSPost2010PropOp31
 70
     1
102
RTVSPost2010Prop32
280
     0
102
RTVSPost2010PropOp32
 70
     1
102
RTVSPost2010Prop33
280
     0
102
RTVSPost2010PropOp33
 70
     1
102
RTVSPost2010Prop34
280
     0
102
RTVSPost2010PropOp34
 70
     1
102
RTVSPost2010Prop35
280
     0
102
RTVSPost2010PropOp35
 70
     1
102
RTVSPost2010Prop36
280
     0
102
RTVSPost2010PropOp36
 70
     1
102
RTVSPost2010Prop37
 90
       50
102
RTVSPost2010PropOp37
 70
     1
102
RTVSPost2010Prop38
140
0.0
102
RTVSPost2010PropOp38
 70
     1
102
RTVSPost2010Prop39
140
1.0
102
RTVSPost2010PropOp39
 70
     1
102
RTVSPost2010Prop40
 90
        0
102
RTVSPost2010PropOp40
 70
     1
102
RTVSPost2010Prop41ColorIndex
 90
       18
102
RTVSPost2010Prop41ColorRGB
 90
        0
102
RTVSPost2010PropOp41
 70
     1
102
RTVSPost2010Prop42
 90
       50
102
RTVSPost2010PropOp42
 70
     1
102
RTVSPost2010Prop43
 90
        3
102
RTVSPost2010PropOp43
 70
     1
102
RTVSPost2010Prop44ColorIndex
 90
        5
102
RTVSPost2010Prop44ColorRGB
 90
      255
102
RTVSPost2010PropOp44
 70
     1
102
RTVSPost2010Prop45
280
     0
102
RTVSPost2010PropOp45
 70
     1
102
RTVSPost2010Prop46
 90
       50
102
RTVSPost2010PropOp46
 70
     1
102
RTVSPost2010Prop47
 90
       50
102
RTVSPost2010PropOp47
 70
     1
102
RTVSPost2010Prop48
 90
       50
102
RTVSPost2010PropOp48
 70
     1
102
RTVSPost2010Prop49
280
     0
102
RTVSPost2010PropOp49
 70
     1
102
RTVSPost2010Prop50
 90
       50
102
RTVSPost2010PropOp50
 70
     1
102
RTVSPost2010Prop51ColorIndex
 90
      256
102
RTVSPost2010Prop51ColorRGB
 90
-16777216
102
RTVSPost2010PropOp51
 70
     0
102
RTVSPost2010Prop52
140
1.0
102
RTVSPost2010PropOp52
 70
     0
102
RTVSPost2010Prop53
 90
        2
102
RTVSPost2010PropOp53
 70
     1
102
RTVSPost2010Prop54
  1
strokes_ogs.tif
102
RTVSPost2010PropOp54
 70
     1
102
RTVSPost2010Prop55
280
     0
102
RTVSPost2010PropOp55
 70
     1
102
RTVSPost2010Prop56
140
1.0
102
RTVSPost2010PropOp56
 70
     1
102
RTVSPost2010Prop57
140
1.0
102
RTVSPost2010PropOp57
 70
     1
102
RTVSPropertyOp0
 70
     1
102
RTVSPropertyOp1
 70
     1
102
RTVSPropertyOp2
 70
     1
102
RTVSPropertyOp3
 70
     1
102
RTVSPropertyOp4
 70
     1
102
RTVSPropertyOp5
 70
     1
102
RTVSPropertyOp6
 70
     1
102
RTVSPropertyOp7
 70
     1
102
RTVSPropertyOp8
 70
     1
102
RTVSPropertyOp9
 70
     1
102
RTVSPropertyOp10
 70
     1
102
RTVSPropertyOp11
 70
     1
102
RTVSPropertyOp12
 70
     1
102
RTVSPropertyOp13
 70
     1
102
RTVSPropertyOp14
 70
     1
102
RTVSPropertyOp15
 70
     1
102
RTVSPropertyOp16
 70
     1
102
RTVSPropertyOp17
 70
     1
102
RTVSPropertyOp18
 70
     1
102
RTVSPropertyOp19
 70
     1
102
RTVSPropertyOp20
 70
     1
102
RTVSPropertyOp21
 70
     1
102
RTVSPropertyOp22
 70
     1
102
RTVSPropertyOp23
 70
     1
102
RTVSPropertyOp24
 70
     1
102
RTVSPropertyOp25
 70
     1
102
RTVSPropertyOp26
 70
     1
102
RTVSPropertyOp27
 70
     1
102
RTVSPropertyOp28
 70
     1
102
RTVSPropertyOp29
 70
     1
102
RTVSPropertyOp30
 70
     1
102
RTVSPropertyOp31
 70
     1
102
RTVSPropertyOp32
 70
     1
102
RTVSPropertyOp33
 70
     1
102
RTVSPropertyOp34
 70
     1
102
RTVSPropertyOp35
 70
     1
102
RTVSPropertyOp36
 70
     1
102
RTVSPropertyOp37
 70
     1
102
RTVSPropertyOp38
 70
     1
102
RTVSPropertyOp39
 70
     1
102
RTVSPropertyOp40
 70
     1
102
RTVSPropertyOp41
 70
     1
102
RTVSPropertyOp42
 70
     1
102
RTVSPropertyOp43
 70
     1
102
RTVSPropertyOp44
 70
     1
102
RTVSPropertyOp45
 70
     1
102
RTVSPropertyOp46
 70
     1
102
RTVSPropertyOp47
 70
     1
102
RTVSPropertyOp48
 70
     1
102
RTVSPropertyOp49
 70
     1
102
RTVSPropertyOp50
 70
     1
102
RTVSPropertyOp51
 70
     0
102
RTVSPropertyOp52
 70
     0
102
RTVSPropertyOp53
 70
     1
102
RTVSPropertyOp54
 70
     1
102
RTVSPropertyOp55
 70
     1
102
RTVSPropertyOp56
 70
     1
102
RTVSPropertyOp57
 70
     1
102
RTVSPropertyOp58
 70
     1
102
RTVSPropertyOp59
 70
     1
102
RTVSPropertyOp60
 70
     1
102
RTVSPropertyOp61
 70
     1
102
RTVSPropertyOp62
 70
     1
  0
XRECORD
  5
237D0
102
{ACAD_REACTORS
330
237CF
102
}
330
237CF
100
AcDbXrecord
280
     1
102
RTVSPost2010Prop28
280
     0
102
RTVSPost2010PropOp28
 70
     1
102
RTVSPost2010Prop29
280
     1
102
RTVSPost2010PropOp29
 70
     1
102
RTVSPost2010Prop30
280
     1
102
RTVSPost2010PropOp30
 70
     1
102
RTVSPost2010Prop31
280
     0
102
RTVSPost2010PropOp31
 70
     1
102
RTVSPost2010Prop32
280
     0
102
RTVSPost2010PropOp32
 70
     1
102
RTVSPost2010Prop33
280
     0
102
RTVSPost2010PropOp33
 70
     1
102
RTVSPost2010Prop34
280
     0
102
RTVSPost2010PropOp34
 70
     1
102
RTVSPost2010Prop35
280
     0
102
RTVSPost2010PropOp35
 70
     1
102
RTVSPost2010Prop36
280
     0
102
RTVSPost2010PropOp36
 70
     1
102
RTVSPost2010Prop37
 90
       50
102
RTVSPost2010PropOp37
 70
     1
102
RTVSPost2010Prop38
140
0.0
102
RTVSPost2010PropOp38
 70
     1
102
RTVSPost2010Prop39
140
1.0
102
RTVSPost2010PropOp39
 70
     1
102
RTVSPost2010Prop40
 90
        0
102
RTVSPost2010PropOp40
 70
     1
102
RTVSPost2010Prop41ColorIndex
 90
       18
102
RTVSPost2010Prop41ColorRGB
 90
        0
102
RTVSPost2010PropOp41
 70
     1
102
RTVSPost2010Prop42
 90
       50
102
RTVSPost2010PropOp42
 70
     1
102
RTVSPost2010Prop43
 90
        3
102
RTVSPost2010PropOp43
 70
     1
102
RTVSPost2010Prop44ColorIndex
 90
        5
102
RTVSPost2010Prop44ColorRGB
 90
      255
102
RTVSPost2010PropOp44
 70
     1
102
RTVSPost2010Prop45
280
     0
102
RTVSPost2010PropOp45
 70
     1
102
RTVSPost2010Prop46
 90
       50
102
RTVSPost2010PropOp46
 70
     1
102
RTVSPost2010Prop47
 90
       50
102
RTVSPost2010PropOp47
 70
     1
102
RTVSPost2010Prop48
 90
       50
102
RTVSPost2010PropOp48
 70
     1
102
RTVSPost2010Prop49
280
     0
102
RTVSPost2010PropOp49
 70
     1
102
RTVSPost2010Prop50
 90
       50
102
RTVSPost2010PropOp50
 70
     1
102
RTVSPost2010Prop51ColorIndex
 90
      256
102
RTVSPost2010Prop51ColorRGB
 90
-16777216
102
RTVSPost2010PropOp51
 70
     0
102
RTVSPost2010Prop52
140
1.0
102
RTVSPost2010PropOp52
 70
     0
102
RTVSPost2010Prop53
 90
        2
102
RTVSPost2010PropOp53
 70
     1
102
RTVSPost2010Prop54
  1
strokes_ogs.tif
102
RTVSPost2010PropOp54
 70
     1
102
RTVSPost2010Prop55
280
     0
102
RTVSPost2010PropOp55
 70
     1
102
RTVSPost2010Prop56
140
1.0
102
RTVSPost2010PropOp56
 70
     1
102
RTVSPost2010Prop57
140
1.0
102
RTVSPost2010PropOp57
 70
     1
102
RTVSPropertyOp0
 70
     1
102
RTVSPropertyOp1
 70
     1
102
RTVSPropertyOp2
 70
     1
102
RTVSPropertyOp3
 70
     1
102
RTVSPropertyOp4
 70
     1
102
RTVSPropertyOp5
 70
     1
102
RTVSPropertyOp6
 70
     1
102
RTVSPropertyOp7
 70
     1
102
RTVSPropertyOp8
 70
     1
102
RTVSPropertyOp9
 70
     1
102
RTVSPropertyOp10
 70
     1
102
RTVSPropertyOp11
 70
     1
102
RTVSPropertyOp12
 70
     1
102
RTVSPropertyOp13
 70
     1
102
RTVSPropertyOp14
 70
     1
102
RTVSPropertyOp15
 70
     1
102
RTVSPropertyOp16
 70
     1
102
RTVSPropertyOp17
 70
     1
102
RTVSPropertyOp18
 70
     1
102
RTVSPropertyOp19
 70
     1
102
RTVSPropertyOp20
 70
     1
102
RTVSPropertyOp21
 70
     1
102
RTVSPropertyOp22
 70
     1
102
RTVSPropertyOp23
 70
     1
102
RTVSPropertyOp24
 70
     1
102
RTVSPropertyOp25
 70
     1
102
RTVSPropertyOp26
 70
     1
102
RTVSPropertyOp27
 70
     1
102
RTVSPropertyOp28
 70
     1
102
RTVSPropertyOp29
 70
     1
102
RTVSPropertyOp30
 70
     1
102
RTVSPropertyOp31
 70
     1
102
RTVSPropertyOp32
 70
     1
102
RTVSPropertyOp33
 70
     1
102
RTVSPropertyOp34
 70
     1
102
RTVSPropertyOp35
 70
     1
102
RTVSPropertyOp36
 70
     1
102
RTVSPropertyOp37
 70
     1
102
RTVSPropertyOp38
 70
     1
102
RTVSPropertyOp39
 70
     1
102
RTVSPropertyOp40
 70
     1
102
RTVSPropertyOp41
 70
     1
102
RTVSPropertyOp42
 70
     1
102
RTVSPropertyOp43
 70
     1
102
RTVSPropertyOp44
 70
     1
102
RTVSPropertyOp45
 70
     1
102
RTVSPropertyOp46
 70
     1
102
RTVSPropertyOp47
 70
     1
102
RTVSPropertyOp48
 70
     1
102
RTVSPropertyOp49
 70
     1
102
RTVSPropertyOp50
 70
     1
102
RTVSPropertyOp51
 70
     0
102
RTVSPropertyOp52
 70
     0
102
RTVSPropertyOp53
 70
     1
102
RTVSPropertyOp54
 70
     1
102
RTVSPropertyOp55
 70
     1
102
RTVSPropertyOp56
 70
     1
102
RTVSPropertyOp57
 70
     1
102
RTVSPropertyOp58
 70
     1
102
RTVSPropertyOp59
 70
     1
102
RTVSPropertyOp60
 70
     1
102
RTVSPropertyOp61
 70
     1
102
RTVSPropertyOp62
 70
     1
  0
XRECORD
  5
237DE
102
{ACAD_REACTORS
330
237DD
102
}
330
237DD
100
AcDbXrecord
280
     1
102
RTVSPost2010Prop28
280
     0
102
RTVSPost2010PropOp28
 70
     1
102
RTVSPost2010Prop29
280
     1
102
RTVSPost2010PropOp29
 70
     1
102
RTVSPost2010Prop30
280
     1
102
RTVSPost2010PropOp30
 70
     1
102
RTVSPost2010Prop31
280
     0
102
RTVSPost2010PropOp31
 70
     1
102
RTVSPost2010Prop32
280
     0
102
RTVSPost2010PropOp32
 70
     1
102
RTVSPost2010Prop33
280
     0
102
RTVSPost2010PropOp33
 70
     1
102
RTVSPost2010Prop34
280
     0
102
RTVSPost2010PropOp34
 70
     1
102
RTVSPost2010Prop35
280
     0
102
RTVSPost2010PropOp35
 70
     1
102
RTVSPost2010Prop36
280
     0
102
RTVSPost2010PropOp36
 70
     1
102
RTVSPost2010Prop37
 90
       50
102
RTVSPost2010PropOp37
 70
     1
102
RTVSPost2010Prop38
140
0.0
102
RTVSPost2010PropOp38
 70
     1
102
RTVSPost2010Prop39
140
1.0
102
RTVSPost2010PropOp39
 70
     1
102
RTVSPost2010Prop40
 90
        0
102
RTVSPost2010PropOp40
 70
     1
102
RTVSPost2010Prop41ColorIndex
 90
       18
102
RTVSPost2010Prop41ColorRGB
 90
        0
102
RTVSPost2010PropOp41
 70
     1
102
RTVSPost2010Prop42
 90
       50
102
RTVSPost2010PropOp42
 70
     1
102
RTVSPost2010Prop43
 90
        3
102
RTVSPost2010PropOp43
 70
     1
102
RTVSPost2010Prop44ColorIndex
 90
        5
102
RTVSPost2010Prop44ColorRGB
 90
      255
102
RTVSPost2010PropOp44
 70
     1
102
RTVSPost2010Prop45
280
     0
102
RTVSPost2010PropOp45
 70
     1
102
RTVSPost2010Prop46
 90
       50
102
RTVSPost2010PropOp46
 70
     1
102
RTVSPost2010Prop47
 90
       50
102
RTVSPost2010PropOp47
 70
     1
102
RTVSPost2010Prop48
 90
       50
102
RTVSPost2010PropOp48
 70
     1
102
RTVSPost2010Prop49
280
     0
102
RTVSPost2010PropOp49
 70
     1
102
RTVSPost2010Prop50
 90
       50
102
RTVSPost2010PropOp50
 70
     1
102
RTVSPost2010Prop51ColorIndex
 90
      256
102
RTVSPost2010Prop51ColorRGB
 90
-16777216
102
RTVSPost2010PropOp51
 70
     0
102
RTVSPost2010Prop52
140
1.0
102
RTVSPost2010PropOp52
 70
     0
102
RTVSPost2010Prop53
 90
        2
102
RTVSPost2010PropOp53
 70
     1
102
RTVSPost2010Prop54
  1
strokes_ogs.tif
102
RTVSPost2010PropOp54
 70
     1
102
RTVSPost2010Prop55
280
     0
102
RTVSPost2010PropOp55
 70
     1
102
RTVSPost2010Prop56
140
1.0
102
RTVSPost2010PropOp56
 70
     1
102
RTVSPost2010Prop57
140
1.0
102
RTVSPost2010PropOp57
 70
     1
102
RTVSPropertyOp0
 70
     1
102
RTVSPropertyOp1
 70
     1
102
RTVSPropertyOp2
 70
     1
102
RTVSPropertyOp3
 70
     1
102
RTVSPropertyOp4
 70
     1
102
RTVSPropertyOp5
 70
     1
102
RTVSPropertyOp6
 70
     1
102
RTVSPropertyOp7
 70
     1
102
RTVSPropertyOp8
 70
     1
102
RTVSPropertyOp9
 70
     1
102
RTVSPropertyOp10
 70
     1
102
RTVSPropertyOp11
 70
     1
102
RTVSPropertyOp12
 70
     1
102
RTVSPropertyOp13
 70
     1
102
RTVSPropertyOp14
 70
     1
102
RTVSPropertyOp15
 70
     1
102
RTVSPropertyOp16
 70
     1
102
RTVSPropertyOp17
 70
     1
102
RTVSPropertyOp18
 70
     1
102
RTVSPropertyOp19
 70
     1
102
RTVSPropertyOp20
 70
     1
102
RTVSPropertyOp21
 70
     1
102
RTVSPropertyOp22
 70
     1
102
RTVSPropertyOp23
 70
     1
102
RTVSPropertyOp24
 70
     1
102
RTVSPropertyOp25
 70
     1
102
RTVSPropertyOp26
 70
     1
102
RTVSPropertyOp27
 70
     1
102
RTVSPropertyOp28
 70
     1
102
RTVSPropertyOp29
 70
     1
102
RTVSPropertyOp30
 70
     1
102
RTVSPropertyOp31
 70
     1
102
RTVSPropertyOp32
 70
     1
102
RTVSPropertyOp33
 70
     1
102
RTVSPropertyOp34
 70
     1
102
RTVSPropertyOp35
 70
     1
102
RTVSPropertyOp36
 70
     1
102
RTVSPropertyOp37
 70
     1
102
RTVSPropertyOp38
 70
     1
102
RTVSPropertyOp39
 70
     1
102
RTVSPropertyOp40
 70
     1
102
RTVSPropertyOp41
 70
     1
102
RTVSPropertyOp42
 70
     1
102
RTVSPropertyOp43
 70
     1
102
RTVSPropertyOp44
 70
     1
102
RTVSPropertyOp45
 70
     1
102
RTVSPropertyOp46
 70
     1
102
RTVSPropertyOp47
 70
     1
102
RTVSPropertyOp48
 70
     1
102
RTVSPropertyOp49
 70
     1
102
RTVSPropertyOp50
 70
     1
102
RTVSPropertyOp51
 70
     0
102
RTVSPropertyOp52
 70
     0
102
RTVSPropertyOp53
 70
     1
102
RTVSPropertyOp54
 70
     1
102
RTVSPropertyOp55
 70
     1
102
RTVSPropertyOp56
 70
     1
102
RTVSPropertyOp57
 70
     1
102
RTVSPropertyOp58
 70
     1
102
RTVSPropertyOp59
 70
     1
102
RTVSPropertyOp60
 70
     1
102
RTVSPropertyOp61
 70
     1
102
RTVSPropertyOp62
 70
     1
  0
XRECORD
  5
237E6
102
{ACAD_REACTORS
330
237E5
102
}
330
237E5
100
AcDbXrecord
280
     1
102
RTVSPost2010Prop28
280
     0
102
RTVSPost2010PropOp28
 70
     1
102
RTVSPost2010Prop29
280
     1
102
RTVSPost2010PropOp29
 70
     1
102
RTVSPost2010Prop30
280
     1
102
RTVSPost2010PropOp30
 70
     1
102
RTVSPost2010Prop31
280
     0
102
RTVSPost2010PropOp31
 70
     1
102
RTVSPost2010Prop32
280
     0
102
RTVSPost2010PropOp32
 70
     1
102
RTVSPost2010Prop33
280
     0
102
RTVSPost2010PropOp33
 70
     1
102
RTVSPost2010Prop34
280
     0
102
RTVSPost2010PropOp34
 70
     1
102
RTVSPost2010Prop35
280
     0
102
RTVSPost2010PropOp35
 70
     1
102
RTVSPost2010Prop36
280
     0
102
RTVSPost2010PropOp36
 70
     1
102
RTVSPost2010Prop37
 90
       50
102
RTVSPost2010PropOp37
 70
     1
102
RTVSPost2010Prop38
140
0.0
102
RTVSPost2010PropOp38
 70
     1
102
RTVSPost2010Prop39
140
1.0
102
RTVSPost2010PropOp39
 70
     1
102
RTVSPost2010Prop40
 90
        0
102
RTVSPost2010PropOp40
 70
     1
102
RTVSPost2010Prop41ColorIndex
 90
       18
102
RTVSPost2010Prop41ColorRGB
 90
        0
102
RTVSPost2010PropOp41
 70
     1
102
RTVSPost2010Prop42
 90
       50
102
RTVSPost2010PropOp42
 70
     1
102
RTVSPost2010Prop43
 90
        3
102
RTVSPost2010PropOp43
 70
     1
102
RTVSPost2010Prop44ColorIndex
 90
        5
102
RTVSPost2010Prop44ColorRGB
 90
      255
102
RTVSPost2010PropOp44
 70
     1
102
RTVSPost2010Prop45
280
     0
102
RTVSPost2010PropOp45
 70
     1
102
RTVSPost2010Prop46
 90
       50
102
RTVSPost2010PropOp46
 70
     1
102
RTVSPost2010Prop47
 90
       50
102
RTVSPost2010PropOp47
 70
     1
102
RTVSPost2010Prop48
 90
       50
102
RTVSPost2010PropOp48
 70
     1
102
RTVSPost2010Prop49
280
     0
102
RTVSPost2010PropOp49
 70
     1
102
RTVSPost2010Prop50
 90
       50
102
RTVSPost2010PropOp50
 70
     1
102
RTVSPost2010Prop51ColorIndex
 90
      256
102
RTVSPost2010Prop51ColorRGB
 90
-16777216
102
RTVSPost2010PropOp51
 70
     0
102
RTVSPost2010Prop52
140
1.0
102
RTVSPost2010PropOp52
 70
     0
102
RTVSPost2010Prop53
 90
        2
102
RTVSPost2010PropOp53
 70
     1
102
RTVSPost2010Prop54
  1
strokes_ogs.tif
102
RTVSPost2010PropOp54
 70
     1
102
RTVSPost2010Prop55
280
     0
102
RTVSPost2010PropOp55
 70
     1
102
RTVSPost2010Prop56
140
1.0
102
RTVSPost2010PropOp56
 70
     1
102
RTVSPost2010Prop57
140
1.0
102
RTVSPost2010PropOp57
 70
     1
102
RTVSPropertyOp0
 70
     1
102
RTVSPropertyOp1
 70
     1
102
RTVSPropertyOp2
 70
     1
102
RTVSPropertyOp3
 70
     1
102
RTVSPropertyOp4
 70
     1
102
RTVSPropertyOp5
 70
     1
102
RTVSPropertyOp6
 70
     1
102
RTVSPropertyOp7
 70
     1
102
RTVSPropertyOp8
 70
     1
102
RTVSPropertyOp9
 70
     1
102
RTVSPropertyOp10
 70
     1
102
RTVSPropertyOp11
 70
     1
102
RTVSPropertyOp12
 70
     1
102
RTVSPropertyOp13
 70
     1
102
RTVSPropertyOp14
 70
     1
102
RTVSPropertyOp15
 70
     1
102
RTVSPropertyOp16
 70
     1
102
RTVSPropertyOp17
 70
     1
102
RTVSPropertyOp18
 70
     1
102
RTVSPropertyOp19
 70
     1
102
RTVSPropertyOp20
 70
     1
102
RTVSPropertyOp21
 70
     1
102
RTVSPropertyOp22
 70
     1
102
RTVSPropertyOp23
 70
     1
102
RTVSPropertyOp24
 70
     1
102
RTVSPropertyOp25
 70
     1
102
RTVSPropertyOp26
 70
     1
102
RTVSPropertyOp27
 70
     1
102
RTVSPropertyOp28
 70
     1
102
RTVSPropertyOp29
 70
     1
102
RTVSPropertyOp30
 70
     1
102
RTVSPropertyOp31
 70
     1
102
RTVSPropertyOp32
 70
     1
102
RTVSPropertyOp33
 70
     1
102
RTVSPropertyOp34
 70
     1
102
RTVSPropertyOp35
 70
     1
102
RTVSPropertyOp36
 70
     1
102
RTVSPropertyOp37
 70
     1
102
RTVSPropertyOp38
 70
     1
102
RTVSPropertyOp39
 70
     1
102
RTVSPropertyOp40
 70
     1
102
RTVSPropertyOp41
 70
     1
102
RTVSPropertyOp42
 70
     1
102
RTVSPropertyOp43
 70
     1
102
RTVSPropertyOp44
 70
     1
102
RTVSPropertyOp45
 70
     1
102
RTVSPropertyOp46
 70
     1
102
RTVSPropertyOp47
 70
     1
102
RTVSPropertyOp48
 70
     1
102
RTVSPropertyOp49
 70
     1
102
RTVSPropertyOp50
 70
     1
102
RTVSPropertyOp51
 70
     0
102
RTVSPropertyOp52
 70
     0
102
RTVSPropertyOp53
 70
     1
102
RTVSPropertyOp54
 70
     1
102
RTVSPropertyOp55
 70
     1
102
RTVSPropertyOp56
 70
     1
102
RTVSPropertyOp57
 70
     1
102
RTVSPropertyOp58
 70
     1
102
RTVSPropertyOp59
 70
     1
102
RTVSPropertyOp60
 70
     1
102
RTVSPropertyOp61
 70
     1
102
RTVSPropertyOp62
 70
     1
  0
XRECORD
  5
237D8
102
{ACAD_REACTORS
330
237D7
102
}
330
237D7
100
AcDbXrecord
280
     1
102
RTVSPost2010Prop28
280
     0
102
RTVSPost2010PropOp28
 70
     1
102
RTVSPost2010Prop29
280
     1
102
RTVSPost2010PropOp29
 70
     1
102
RTVSPost2010Prop30
280
     1
102
RTVSPost2010PropOp30
 70
     1
102
RTVSPost2010Prop31
280
     0
102
RTVSPost2010PropOp31
 70
     1
102
RTVSPost2010Prop32
280
     0
102
RTVSPost2010PropOp32
 70
     1
102
RTVSPost2010Prop33
280
     0
102
RTVSPost2010PropOp33
 70
     1
102
RTVSPost2010Prop34
280
     0
102
RTVSPost2010PropOp34
 70
     1
102
RTVSPost2010Prop35
280
     0
102
RTVSPost2010PropOp35
 70
     1
102
RTVSPost2010Prop36
280
     0
102
RTVSPost2010PropOp36
 70
     1
102
RTVSPost2010Prop37
 90
       50
102
RTVSPost2010PropOp37
 70
     1
102
RTVSPost2010Prop38
140
0.0
102
RTVSPost2010PropOp38
 70
     1
102
RTVSPost2010Prop39
140
1.0
102
RTVSPost2010PropOp39
 70
     1
102
RTVSPost2010Prop40
 90
        0
102
RTVSPost2010PropOp40
 70
     1
102
RTVSPost2010Prop41ColorIndex
 90
       18
102
RTVSPost2010Prop41ColorRGB
 90
        0
102
RTVSPost2010PropOp41
 70
     1
102
RTVSPost2010Prop42
 90
       50
102
RTVSPost2010PropOp42
 70
     1
102
RTVSPost2010Prop43
 90
        3
102
RTVSPost2010PropOp43
 70
     1
102
RTVSPost2010Prop44ColorIndex
 90
        5
102
RTVSPost2010Prop44ColorRGB
 90
      255
102
RTVSPost2010PropOp44
 70
     1
102
RTVSPost2010Prop45
280
     0
102
RTVSPost2010PropOp45
 70
     1
102
RTVSPost2010Prop46
 90
       50
102
RTVSPost2010PropOp46
 70
     1
102
RTVSPost2010Prop47
 90
       50
102
RTVSPost2010PropOp47
 70
     1
102
RTVSPost2010Prop48
 90
       50
102
RTVSPost2010PropOp48
 70
     1
102
RTVSPost2010Prop49
280
     0
102
RTVSPost2010PropOp49
 70
     1
102
RTVSPost2010Prop50
 90
       50
102
RTVSPost2010PropOp50
 70
     1
102
RTVSPost2010Prop51ColorIndex
 90
      256
102
RTVSPost2010Prop51ColorRGB
 90
-16777216
102
RTVSPost2010PropOp51
 70
     0
102
RTVSPost2010Prop52
140
1.0
102
RTVSPost2010PropOp52
 70
     0
102
RTVSPost2010Prop53
 90
        2
102
RTVSPost2010PropOp53
 70
     1
102
RTVSPost2010Prop54
  1
strokes_ogs.tif
102
RTVSPost2010PropOp54
 70
     1
102
RTVSPost2010Prop55
280
     0
102
RTVSPost2010PropOp55
 70
     1
102
RTVSPost2010Prop56
140
1.0
102
RTVSPost2010PropOp56
 70
     1
102
RTVSPost2010Prop57
140
1.0
102
RTVSPost2010PropOp57
 70
     1
102
RTVSPropertyOp0
 70
     1
102
RTVSPropertyOp1
 70
     1
102
RTVSPropertyOp2
 70
     1
102
RTVSPropertyOp3
 70
     1
102
RTVSPropertyOp4
 70
     1
102
RTVSPropertyOp5
 70
     1
102
RTVSPropertyOp6
 70
     1
102
RTVSPropertyOp7
 70
     1
102
RTVSPropertyOp8
 70
     1
102
RTVSPropertyOp9
 70
     1
102
RTVSPropertyOp10
 70
     1
102
RTVSPropertyOp11
 70
     1
102
RTVSPropertyOp12
 70
     1
102
RTVSPropertyOp13
 70
     1
102
RTVSPropertyOp14
 70
     1
102
RTVSPropertyOp15
 70
     1
102
RTVSPropertyOp16
 70
     1
102
RTVSPropertyOp17
 70
     1
102
RTVSPropertyOp18
 70
     1
102
RTVSPropertyOp19
 70
     1
102
RTVSPropertyOp20
 70
     1
102
RTVSPropertyOp21
 70
     1
102
RTVSPropertyOp22
 70
     1
102
RTVSPropertyOp23
 70
     1
102
RTVSPropertyOp24
 70
     1
102
RTVSPropertyOp25
 70
     1
102
RTVSPropertyOp26
 70
     1
102
RTVSPropertyOp27
 70
     1
102
RTVSPropertyOp28
 70
     1
102
RTVSPropertyOp29
 70
     1
102
RTVSPropertyOp30
 70
     1
102
RTVSPropertyOp31
 70
     1
102
RTVSPropertyOp32
 70
     1
102
RTVSPropertyOp33
 70
     1
102
RTVSPropertyOp34
 70
     1
102
RTVSPropertyOp35
 70
     1
102
RTVSPropertyOp36
 70
     1
102
RTVSPropertyOp37
 70
     1
102
RTVSPropertyOp38
 70
     1
102
RTVSPropertyOp39
 70
     1
102
RTVSPropertyOp40
 70
     1
102
RTVSPropertyOp41
 70
     1
102
RTVSPropertyOp42
 70
     1
102
RTVSPropertyOp43
 70
     1
102
RTVSPropertyOp44
 70
     1
102
RTVSPropertyOp45
 70
     1
102
RTVSPropertyOp46
 70
     1
102
RTVSPropertyOp47
 70
     1
102
RTVSPropertyOp48
 70
     1
102
RTVSPropertyOp49
 70
     1
102
RTVSPropertyOp50
 70
     1
102
RTVSPropertyOp51
 70
     0
102
RTVSPropertyOp52
 70
     0
102
RTVSPropertyOp53
 70
     1
102
RTVSPropertyOp54
 70
     1
102
RTVSPropertyOp55
 70
     1
102
RTVSPropertyOp56
 70
     1
102
RTVSPropertyOp57
 70
     1
102
RTVSPropertyOp58
 70
     1
102
RTVSPropertyOp59
 70
     1
102
RTVSPropertyOp60
 70
     1
102
RTVSPropertyOp61
 70
     1
102
RTVSPropertyOp62
 70
     1
  0
XRECORD
  5
237DC
102
{ACAD_REACTORS
330
237DB
102
}
330
237DB
100
AcDbXrecord
280
     1
102
RTVSPost2010Prop28
280
     0
102
RTVSPost2010PropOp28
 70
     1
102
RTVSPost2010Prop29
280
     1
102
RTVSPost2010PropOp29
 70
     1
102
RTVSPost2010Prop30
280
     1
102
RTVSPost2010PropOp30
 70
     1
102
RTVSPost2010Prop31
280
     0
102
RTVSPost2010PropOp31
 70
     1
102
RTVSPost2010Prop32
280
     0
102
RTVSPost2010PropOp32
 70
     1
102
RTVSPost2010Prop33
280
     0
102
RTVSPost2010PropOp33
 70
     1
102
RTVSPost2010Prop34
280
     0
102
RTVSPost2010PropOp34
 70
     1
102
RTVSPost2010Prop35
280
     0
102
RTVSPost2010PropOp35
 70
     1
102
RTVSPost2010Prop36
280
     0
102
RTVSPost2010PropOp36
 70
     1
102
RTVSPost2010Prop37
 90
       50
102
RTVSPost2010PropOp37
 70
     1
102
RTVSPost2010Prop38
140
0.0
102
RTVSPost2010PropOp38
 70
     1
102
RTVSPost2010Prop39
140
1.0
102
RTVSPost2010PropOp39
 70
     1
102
RTVSPost2010Prop40
 90
        0
102
RTVSPost2010PropOp40
 70
     1
102
RTVSPost2010Prop41ColorIndex
 90
       18
102
RTVSPost2010Prop41ColorRGB
 90
        0
102
RTVSPost2010PropOp41
 70
     1
102
RTVSPost2010Prop42
 90
       50
102
RTVSPost2010PropOp42
 70
     1
102
RTVSPost2010Prop43
 90
        3
102
RTVSPost2010PropOp43
 70
     1
102
RTVSPost2010Prop44ColorIndex
 90
        5
102
RTVSPost2010Prop44ColorRGB
 90
      255
102
RTVSPost2010PropOp44
 70
     1
102
RTVSPost2010Prop45
280
     0
102
RTVSPost2010PropOp45
 70
     1
102
RTVSPost2010Prop46
 90
       50
102
RTVSPost2010PropOp46
 70
     1
102
RTVSPost2010Prop47
 90
       50
102
RTVSPost2010PropOp47
 70
     1
102
RTVSPost2010Prop48
 90
       50
102
RTVSPost2010PropOp48
 70
     1
102
RTVSPost2010Prop49
280
     0
102
RTVSPost2010PropOp49
 70
     1
102
RTVSPost2010Prop50
 90
       50
102
RTVSPost2010PropOp50
 70
     1
102
RTVSPost2010Prop51ColorIndex
 90
      256
102
RTVSPost2010Prop51ColorRGB
 90
-16777216
102
RTVSPost2010PropOp51
 70
     0
102
RTVSPost2010Prop52
140
1.0
102
RTVSPost2010PropOp52
 70
     0
102
RTVSPost2010Prop53
 90
        2
102
RTVSPost2010PropOp53
 70
     1
102
RTVSPost2010Prop54
  1
strokes_ogs.tif
102
RTVSPost2010PropOp54
 70
     1
102
RTVSPost2010Prop55
280
     0
102
RTVSPost2010PropOp55
 70
     1
102
RTVSPost2010Prop56
140
1.0
102
RTVSPost2010PropOp56
 70
     1
102
RTVSPost2010Prop57
140
1.0
102
RTVSPost2010PropOp57
 70
     1
102
RTVSPropertyOp0
 70
     1
102
RTVSPropertyOp1
 70
     1
102
RTVSPropertyOp2
 70
     1
102
RTVSPropertyOp3
 70
     1
102
RTVSPropertyOp4
 70
     1
102
RTVSPropertyOp5
 70
     1
102
RTVSPropertyOp6
 70
     1
102
RTVSPropertyOp7
 70
     1
102
RTVSPropertyOp8
 70
     1
102
RTVSPropertyOp9
 70
     1
102
RTVSPropertyOp10
 70
     1
102
RTVSPropertyOp11
 70
     1
102
RTVSPropertyOp12
 70
     1
102
RTVSPropertyOp13
 70
     1
102
RTVSPropertyOp14
 70
     1
102
RTVSPropertyOp15
 70
     1
102
RTVSPropertyOp16
 70
     1
102
RTVSPropertyOp17
 70
     1
102
RTVSPropertyOp18
 70
     1
102
RTVSPropertyOp19
 70
     1
102
RTVSPropertyOp20
 70
     1
102
RTVSPropertyOp21
 70
     1
102
RTVSPropertyOp22
 70
     1
102
RTVSPropertyOp23
 70
     1
102
RTVSPropertyOp24
 70
     1
102
RTVSPropertyOp25
 70
     1
102
RTVSPropertyOp26
 70
     1
102
RTVSPropertyOp27
 70
     1
102
RTVSPropertyOp28
 70
     1
102
RTVSPropertyOp29
 70
     1
102
RTVSPropertyOp30
 70
     1
102
RTVSPropertyOp31
 70
     1
102
RTVSPropertyOp32
 70
     1
102
RTVSPropertyOp33
 70
     1
102
RTVSPropertyOp34
 70
     1
102
RTVSPropertyOp35
 70
     1
102
RTVSPropertyOp36
 70
     1
102
RTVSPropertyOp37
 70
     1
102
RTVSPropertyOp38
 70
     1
102
RTVSPropertyOp39
 70
     1
102
RTVSPropertyOp40
 70
     1
102
RTVSPropertyOp41
 70
     1
102
RTVSPropertyOp42
 70
     1
102
RTVSPropertyOp43
 70
     1
102
RTVSPropertyOp44
 70
     1
102
RTVSPropertyOp45
 70
     1
102
RTVSPropertyOp46
 70
     1
102
RTVSPropertyOp47
 70
     1
102
RTVSPropertyOp48
 70
     1
102
RTVSPropertyOp49
 70
     1
102
RTVSPropertyOp50
 70
     1
102
RTVSPropertyOp51
 70
     0
102
RTVSPropertyOp52
 70
     0
102
RTVSPropertyOp53
 70
     1
102
RTVSPropertyOp54
 70
     1
102
RTVSPropertyOp55
 70
     1
102
RTVSPropertyOp56
 70
     1
102
RTVSPropertyOp57
 70
     1
102
RTVSPropertyOp58
 70
     1
102
RTVSPropertyOp59
 70
     1
102
RTVSPropertyOp60
 70
     1
102
RTVSPropertyOp61
 70
     1
102
RTVSPropertyOp62
 70
     1
  0
XRECORD
  5
23803
102
{ACAD_REACTORS
330
23802
102
}
330
23802
100
AcDbXrecord
280
     1
102
RTVSPost2010Prop28
280
     0
102
RTVSPost2010PropOp28
 70
     1
102
RTVSPost2010Prop29
280
     1
102
RTVSPost2010PropOp29
 70
     1
102
RTVSPost2010Prop30
280
     1
102
RTVSPost2010PropOp30
 70
     1
102
RTVSPost2010Prop31
280
     0
102
RTVSPost2010PropOp31
 70
     1
102
RTVSPost2010Prop32
280
     0
102
RTVSPost2010PropOp32
 70
     1
102
RTVSPost2010Prop33
280
     0
102
RTVSPost2010PropOp33
 70
     1
102
RTVSPost2010Prop34
280
     0
102
RTVSPost2010PropOp34
 70
     1
102
RTVSPost2010Prop35
280
     0
102
RTVSPost2010PropOp35
 70
     1
102
RTVSPost2010Prop36
280
     0
102
RTVSPost2010PropOp36
 70
     1
102
RTVSPost2010Prop37
 90
       50
102
RTVSPost2010PropOp37
 70
     0
102
RTVSPost2010Prop38
140
0.0
102
RTVSPost2010PropOp38
 70
     0
102
RTVSPost2010Prop39
140
1.0
102
RTVSPost2010PropOp39
 70
     0
102
RTVSPost2010Prop40
 90
        0
102
RTVSPost2010PropOp40
 70
     0
102
RTVSPost2010Prop41ColorIndex
 90
       18
102
RTVSPost2010Prop41ColorRGB
 90
        0
102
RTVSPost2010PropOp41
 70
     0
102
RTVSPost2010Prop42
 90
       50
102
RTVSPost2010PropOp42
 70
     0
102
RTVSPost2010Prop43
 90
        3
102
RTVSPost2010PropOp43
 70
     0
102
RTVSPost2010Prop44ColorIndex
 90
        5
102
RTVSPost2010Prop44ColorRGB
 90
      255
102
RTVSPost2010PropOp44
 70
     0
102
RTVSPost2010Prop45
280
     0
102
RTVSPost2010PropOp45
 70
     1
102
RTVSPost2010Prop46
 90
       50
102
RTVSPost2010PropOp46
 70
     0
102
RTVSPost2010Prop47
 90
       50
102
RTVSPost2010PropOp47
 70
     0
102
RTVSPost2010Prop48
 90
       50
102
RTVSPost2010PropOp48
 70
     0
102
RTVSPost2010Prop49
280
     0
102
RTVSPost2010PropOp49
 70
     1
102
RTVSPost2010Prop50
 90
       50
102
RTVSPost2010PropOp50
 70
     0
102
RTVSPost2010Prop51ColorIndex
 90
      256
102
RTVSPost2010Prop51ColorRGB
 90
-16777216
102
RTVSPost2010PropOp51
 70
     0
102
RTVSPost2010Prop52
140
1.0
102
RTVSPost2010PropOp52
 70
     0
102
RTVSPost2010Prop53
 90
        2
102
RTVSPost2010PropOp53
 70
     0
102
RTVSPost2010Prop54
  1
strokes_ogs.tif
102
RTVSPost2010PropOp54
 70
     0
102
RTVSPost2010Prop55
280
     0
102
RTVSPost2010PropOp55
 70
     1
102
RTVSPost2010Prop56
140
1.0
102
RTVSPost2010PropOp56
 70
     0
102
RTVSPost2010Prop57
140
1.0
102
RTVSPost2010PropOp57
 70
     0
102
RTVSPropertyOp0
 70
     0
102
RTVSPropertyOp1
 70
     0
102
RTVSPropertyOp2
 70
     0
102
RTVSPropertyOp3
 70
     0
102
RTVSPropertyOp4
 70
     0
102
RTVSPropertyOp5
 70
     0
102
RTVSPropertyOp6
 70
     0
102
RTVSPropertyOp7
 70
     0
102
RTVSPropertyOp8
 70
     0
102
RTVSPropertyOp9
 70
     0
102
RTVSPropertyOp10
 70
     0
102
RTVSPropertyOp11
 70
     0
102
RTVSPropertyOp12
 70
     0
102
RTVSPropertyOp13
 70
     0
102
RTVSPropertyOp14
 70
     2
102
RTVSPropertyOp15
 70
     0
102
RTVSPropertyOp16
 70
     0
102
RTVSPropertyOp17
 70
     0
102
RTVSPropertyOp18
 70
     0
102
RTVSPropertyOp19
 70
     0
102
RTVSPropertyOp20
 70
     0
102
RTVSPropertyOp21
 70
     0
102
RTVSPropertyOp22
 70
     0
102
RTVSPropertyOp23
 70
     0
102
RTVSPropertyOp24
 70
     0
102
RTVSPropertyOp25
 70
     0
102
RTVSPropertyOp26
 70
     0
102
RTVSPropertyOp27
 70
     0
102
RTVSPropertyOp28
 70
     1
102
RTVSPropertyOp29
 70
     1
102
RTVSPropertyOp30
 70
     1
102
RTVSPropertyOp31
 70
     1
102
RTVSPropertyOp32
 70
     1
102
RTVSPropertyOp33
 70
     1
102
RTVSPropertyOp34
 70
     1
102
RTVSPropertyOp35
 70
     1
102
RTVSPropertyOp36
 70
     1
102
RTVSPropertyOp37
 70
     0
102
RTVSPropertyOp38
 70
     0
102
RTVSPropertyOp39
 70
     0
102
RTVSPropertyOp40
 70
     0
102
RTVSPropertyOp41
 70
     0
102
RTVSPropertyOp42
 70
     0
102
RTVSPropertyOp43
 70
     0
102
RTVSPropertyOp44
 70
     0
102
RTVSPropertyOp45
 70
     1
102
RTVSPropertyOp46
 70
     0
102
RTVSPropertyOp47
 70
     0
102
RTVSPropertyOp48
 70
     0
102
RTVSPropertyOp49
 70
     1
102
RTVSPropertyOp50
 70
     0
102
RTVSPropertyOp51
 70
     0
102
RTVSPropertyOp52
 70
     0
102
RTVSPropertyOp53
 70
     0
102
RTVSPropertyOp54
 70
     0
102
RTVSPropertyOp55
 70
     1
102
RTVSPropertyOp56
 70
     0
102
RTVSPropertyOp57
 70
     0
102
RTVSPropertyOp58
 70
     1
102
RTVSPropertyOp59
 70
     1
102
RTVSPropertyOp60
 70
     1
102
RTVSPropertyOp61
 70
     1
102
RTVSPropertyOp62
 70
     1
  0
XRECORD
  5
237E4
102
{ACAD_REACTORS
330
237E3
102
}
330
237E3
100
AcDbXrecord
280
     1
102
RTVSPost2010Prop28
280
     0
102
RTVSPost2010PropOp28
 70
     1
102
RTVSPost2010Prop29
280
     1
102
RTVSPost2010PropOp29
 70
     1
102
RTVSPost2010Prop30
280
     1
102
RTVSPost2010PropOp30
 70
     1
102
RTVSPost2010Prop31
280
     0
102
RTVSPost2010PropOp31
 70
     1
102
RTVSPost2010Prop32
280
     0
102
RTVSPost2010PropOp32
 70
     1
102
RTVSPost2010Prop33
280
     0
102
RTVSPost2010PropOp33
 70
     1
102
RTVSPost2010Prop34
280
     0
102
RTVSPost2010PropOp34
 70
     1
102
RTVSPost2010Prop35
280
     0
102
RTVSPost2010PropOp35
 70
     1
102
RTVSPost2010Prop36
280
     0
102
RTVSPost2010PropOp36
 70
     1
102
RTVSPost2010Prop37
 90
       50
102
RTVSPost2010PropOp37
 70
     1
102
RTVSPost2010Prop38
140
0.0
102
RTVSPost2010PropOp38
 70
     1
102
RTVSPost2010Prop39
140
1.0
102
RTVSPost2010PropOp39
 70
     1
102
RTVSPost2010Prop40
 90
        0
102
RTVSPost2010PropOp40
 70
     1
102
RTVSPost2010Prop41ColorIndex
 90
       18
102
RTVSPost2010Prop41ColorRGB
 90
        0
102
RTVSPost2010PropOp41
 70
     1
102
RTVSPost2010Prop42
 90
       50
102
RTVSPost2010PropOp42
 70
     1
102
RTVSPost2010Prop43
 90
        3
102
RTVSPost2010PropOp43
 70
     1
102
RTVSPost2010Prop44ColorIndex
 90
        5
102
RTVSPost2010Prop44ColorRGB
 90
      255
102
RTVSPost2010PropOp44
 70
     1
102
RTVSPost2010Prop45
280
     0
102
RTVSPost2010PropOp45
 70
     1
102
RTVSPost2010Prop46
 90
       50
102
RTVSPost2010PropOp46
 70
     1
102
RTVSPost2010Prop47
 90
       50
102
RTVSPost2010PropOp47
 70
     1
102
RTVSPost2010Prop48
 90
       50
102
RTVSPost2010PropOp48
 70
     1
102
RTVSPost2010Prop49
280
     0
102
RTVSPost2010PropOp49
 70
     1
102
RTVSPost2010Prop50
 90
       50
102
RTVSPost2010PropOp50
 70
     1
102
RTVSPost2010Prop51ColorIndex
 90
      256
102
RTVSPost2010Prop51ColorRGB
 90
-16777216
102
RTVSPost2010PropOp51
 70
     0
102
RTVSPost2010Prop52
140
1.0
102
RTVSPost2010PropOp52
 70
     0
102
RTVSPost2010Prop53
 90
        2
102
RTVSPost2010PropOp53
 70
     1
102
RTVSPost2010Prop54
  1
strokes_ogs.tif
102
RTVSPost2010PropOp54
 70
     1
102
RTVSPost2010Prop55
280
     0
102
RTVSPost2010PropOp55
 70
     1
102
RTVSPost2010Prop56
140
1.0
102
RTVSPost2010PropOp56
 70
     1
102
RTVSPost2010Prop57
140
1.0
102
RTVSPost2010PropOp57
 70
     1
102
RTVSPropertyOp0
 70
     1
102
RTVSPropertyOp1
 70
     1
102
RTVSPropertyOp2
 70
     1
102
RTVSPropertyOp3
 70
     1
102
RTVSPropertyOp4
 70
     1
102
RTVSPropertyOp5
 70
     1
102
RTVSPropertyOp6
 70
     1
102
RTVSPropertyOp7
 70
     1
102
RTVSPropertyOp8
 70
     1
102
RTVSPropertyOp9
 70
     1
102
RTVSPropertyOp10
 70
     1
102
RTVSPropertyOp11
 70
     1
102
RTVSPropertyOp12
 70
     1
102
RTVSPropertyOp13
 70
     1
102
RTVSPropertyOp14
 70
     1
102
RTVSPropertyOp15
 70
     1
102
RTVSPropertyOp16
 70
     1
102
RTVSPropertyOp17
 70
     1
102
RTVSPropertyOp18
 70
     1
102
RTVSPropertyOp19
 70
     1
102
RTVSPropertyOp20
 70
     1
102
RTVSPropertyOp21
 70
     1
102
RTVSPropertyOp22
 70
     1
102
RTVSPropertyOp23
 70
     1
102
RTVSPropertyOp24
 70
     1
102
RTVSPropertyOp25
 70
     1
102
RTVSPropertyOp26
 70
     1
102
RTVSPropertyOp27
 70
     1
102
RTVSPropertyOp28
 70
     1
102
RTVSPropertyOp29
 70
     1
102
RTVSPropertyOp30
 70
     1
102
RTVSPropertyOp31
 70
     1
102
RTVSPropertyOp32
 70
     1
102
RTVSPropertyOp33
 70
     1
102
RTVSPropertyOp34
 70
     1
102
RTVSPropertyOp35
 70
     1
102
RTVSPropertyOp36
 70
     1
102
RTVSPropertyOp37
 70
     1
102
RTVSPropertyOp38
 70
     1
102
RTVSPropertyOp39
 70
     1
102
RTVSPropertyOp40
 70
     1
102
RTVSPropertyOp41
 70
     1
102
RTVSPropertyOp42
 70
     1
102
RTVSPropertyOp43
 70
     1
102
RTVSPropertyOp44
 70
     1
102
RTVSPropertyOp45
 70
     1
102
RTVSPropertyOp46
 70
     1
102
RTVSPropertyOp47
 70
     1
102
RTVSPropertyOp48
 70
     1
102
RTVSPropertyOp49
 70
     1
102
RTVSPropertyOp50
 70
     1
102
RTVSPropertyOp51
 70
     0
102
RTVSPropertyOp52
 70
     0
102
RTVSPropertyOp53
 70
     1
102
RTVSPropertyOp54
 70
     1
102
RTVSPropertyOp55
 70
     1
102
RTVSPropertyOp56
 70
     1
102
RTVSPropertyOp57
 70
     1
102
RTVSPropertyOp58
 70
     1
102
RTVSPropertyOp59
 70
     1
102
RTVSPropertyOp60
 70
     1
102
RTVSPropertyOp61
 70
     1
102
RTVSPropertyOp62
 70
     1
  0
XRECORD
  5
237C8
102
{ACAD_REACTORS
330
237C7
102
}
330
237C7
100
AcDbXrecord
280
     1
102
RTVSPost2010Prop28
280
     0
102
RTVSPost2010PropOp28
 70
     1
102
RTVSPost2010Prop29
280
     1
102
RTVSPost2010PropOp29
 70
     1
102
RTVSPost2010Prop30
280
     1
102
RTVSPost2010PropOp30
 70
     1
102
RTVSPost2010Prop31
280
     0
102
RTVSPost2010PropOp31
 70
     1
102
RTVSPost2010Prop32
280
     0
102
RTVSPost2010PropOp32
 70
     1
102
RTVSPost2010Prop33
280
     0
102
RTVSPost2010PropOp33
 70
     1
102
RTVSPost2010Prop34
280
     0
102
RTVSPost2010PropOp34
 70
     1
102
RTVSPost2010Prop35
280
     0
102
RTVSPost2010PropOp35
 70
     1
102
RTVSPost2010Prop36
280
     0
102
RTVSPost2010PropOp36
 70
     1
102
RTVSPost2010Prop37
 90
       50
102
RTVSPost2010PropOp37
 70
     1
102
RTVSPost2010Prop38
140
0.0
102
RTVSPost2010PropOp38
 70
     1
102
RTVSPost2010Prop39
140
1.0
102
RTVSPost2010PropOp39
 70
     1
102
RTVSPost2010Prop40
 90
        0
102
RTVSPost2010PropOp40
 70
     1
102
RTVSPost2010Prop41ColorIndex
 90
       18
102
RTVSPost2010Prop41ColorRGB
 90
        0
102
RTVSPost2010PropOp41
 70
     1
102
RTVSPost2010Prop42
 90
       50
102
RTVSPost2010PropOp42
 70
     1
102
RTVSPost2010Prop43
 90
        3
102
RTVSPost2010PropOp43
 70
     1
102
RTVSPost2010Prop44ColorIndex
 90
        5
102
RTVSPost2010Prop44ColorRGB
 90
      255
102
RTVSPost2010PropOp44
 70
     1
102
RTVSPost2010Prop45
280
     0
102
RTVSPost2010PropOp45
 70
     1
102
RTVSPost2010Prop46
 90
       50
102
RTVSPost2010PropOp46
 70
     1
102
RTVSPost2010Prop47
 90
       50
102
RTVSPost2010PropOp47
 70
     1
102
RTVSPost2010Prop48
 90
       50
102
RTVSPost2010PropOp48
 70
     1
102
RTVSPost2010Prop49
280
     0
102
RTVSPost2010PropOp49
 70
     1
102
RTVSPost2010Prop50
 90
       50
102
RTVSPost2010PropOp50
 70
     1
102
RTVSPost2010Prop51ColorIndex
 90
      256
102
RTVSPost2010Prop51ColorRGB
 90
-16777216
102
RTVSPost2010PropOp51
 70
     0
102
RTVSPost2010Prop52
140
1.0
102
RTVSPost2010PropOp52
 70
     0
102
RTVSPost2010Prop53
 90
        2
102
RTVSPost2010PropOp53
 70
     1
102
RTVSPost2010Prop54
  1
strokes_ogs.tif
102
RTVSPost2010PropOp54
 70
     1
102
RTVSPost2010Prop55
280
     0
102
RTVSPost2010PropOp55
 70
     1
102
RTVSPost2010Prop56
140
1.0
102
RTVSPost2010PropOp56
 70
     1
102
RTVSPost2010Prop57
140
1.0
102
RTVSPost2010PropOp57
 70
     1
102
RTVSPropertyOp0
 70
     1
102
RTVSPropertyOp1
 70
     1
102
RTVSPropertyOp2
 70
     1
102
RTVSPropertyOp3
 70
     1
102
RTVSPropertyOp4
 70
     1
102
RTVSPropertyOp5
 70
     1
102
RTVSPropertyOp6
 70
     1
102
RTVSPropertyOp7
 70
     1
102
RTVSPropertyOp8
 70
     1
102
RTVSPropertyOp9
 70
     1
102
RTVSPropertyOp10
 70
     1
102
RTVSPropertyOp11
 70
     1
102
RTVSPropertyOp12
 70
     1
102
RTVSPropertyOp13
 70
     1
102
RTVSPropertyOp14
 70
     1
102
RTVSPropertyOp15
 70
     1
102
RTVSPropertyOp16
 70
     1
102
RTVSPropertyOp17
 70
     1
102
RTVSPropertyOp18
 70
     1
102
RTVSPropertyOp19
 70
     1
102
RTVSPropertyOp20
 70
     1
102
RTVSPropertyOp21
 70
     1
102
RTVSPropertyOp22
 70
     1
102
RTVSPropertyOp23
 70
     1
102
RTVSPropertyOp24
 70
     1
102
RTVSPropertyOp25
 70
     1
102
RTVSPropertyOp26
 70
     1
102
RTVSPropertyOp27
 70
     1
102
RTVSPropertyOp28
 70
     1
102
RTVSPropertyOp29
 70
     1
102
RTVSPropertyOp30
 70
     1
102
RTVSPropertyOp31
 70
     1
102
RTVSPropertyOp32
 70
     1
102
RTVSPropertyOp33
 70
     1
102
RTVSPropertyOp34
 70
     1
102
RTVSPropertyOp35
 70
     1
102
RTVSPropertyOp36
 70
     1
102
RTVSPropertyOp37
 70
     1
102
RTVSPropertyOp38
 70
     1
102
RTVSPropertyOp39
 70
     1
102
RTVSPropertyOp40
 70
     1
102
RTVSPropertyOp41
 70
     1
102
RTVSPropertyOp42
 70
     1
102
RTVSPropertyOp43
 70
     1
102
RTVSPropertyOp44
 70
     1
102
RTVSPropertyOp45
 70
     1
102
RTVSPropertyOp46
 70
     1
102
RTVSPropertyOp47
 70
     1
102
RTVSPropertyOp48
 70
     1
102
RTVSPropertyOp49
 70
     1
102
RTVSPropertyOp50
 70
     1
102
RTVSPropertyOp51
 70
     0
102
RTVSPropertyOp52
 70
     0
102
RTVSPropertyOp53
 70
     1
102
RTVSPropertyOp54
 70
     1
102
RTVSPropertyOp55
 70
     1
102
RTVSPropertyOp56
 70
     1
102
RTVSPropertyOp57
 70
     1
102
RTVSPropertyOp58
 70
     1
102
RTVSPropertyOp59
 70
     1
102
RTVSPropertyOp60
 70
     1
102
RTVSPropertyOp61
 70
     1
102
RTVSPropertyOp62
 70
     1
  0
XRECORD
  5
237CA
102
{ACAD_REACTORS
330
237C9
102
}
330
237C9
100
AcDbXrecord
280
     1
102
RTVSPost2010Prop28
280
     0
102
RTVSPost2010PropOp28
 70
     1
102
RTVSPost2010Prop29
280
     1
102
RTVSPost2010PropOp29
 70
     1
102
RTVSPost2010Prop30
280
     1
102
RTVSPost2010PropOp30
 70
     1
102
RTVSPost2010Prop31
280
     0
102
RTVSPost2010PropOp31
 70
     1
102
RTVSPost2010Prop32
280
     0
102
RTVSPost2010PropOp32
 70
     1
102
RTVSPost2010Prop33
280
     0
102
RTVSPost2010PropOp33
 70
     1
102
RTVSPost2010Prop34
280
     0
102
RTVSPost2010PropOp34
 70
     1
102
RTVSPost2010Prop35
280
     0
102
RTVSPost2010PropOp35
 70
     1
102
RTVSPost2010Prop36
280
     0
102
RTVSPost2010PropOp36
 70
     1
102
RTVSPost2010Prop37
 90
       50
102
RTVSPost2010PropOp37
 70
     1
102
RTVSPost2010Prop38
140
0.0
102
RTVSPost2010PropOp38
 70
     1
102
RTVSPost2010Prop39
140
1.0
102
RTVSPost2010PropOp39
 70
     1
102
RTVSPost2010Prop40
 90
        0
102
RTVSPost2010PropOp40
 70
     1
102
RTVSPost2010Prop41ColorIndex
 90
       18
102
RTVSPost2010Prop41ColorRGB
 90
        0
102
RTVSPost2010PropOp41
 70
     1
102
RTVSPost2010Prop42
 90
       50
102
RTVSPost2010PropOp42
 70
     1
102
RTVSPost2010Prop43
 90
        3
102
RTVSPost2010PropOp43
 70
     1
102
RTVSPost2010Prop44ColorIndex
 90
        5
102
RTVSPost2010Prop44ColorRGB
 90
      255
102
RTVSPost2010PropOp44
 70
     1
102
RTVSPost2010Prop45
280
     0
102
RTVSPost2010PropOp45
 70
     1
102
RTVSPost2010Prop46
 90
       50
102
RTVSPost2010PropOp46
 70
     1
102
RTVSPost2010Prop47
 90
       50
102
RTVSPost2010PropOp47
 70
     1
102
RTVSPost2010Prop48
 90
       50
102
RTVSPost2010PropOp48
 70
     1
102
RTVSPost2010Prop49
280
     0
102
RTVSPost2010PropOp49
 70
     1
102
RTVSPost2010Prop50
 90
       50
102
RTVSPost2010PropOp50
 70
     1
102
RTVSPost2010Prop51ColorIndex
 90
      256
102
RTVSPost2010Prop51ColorRGB
 90
-16777216
102
RTVSPost2010PropOp51
 70
     0
102
RTVSPost2010Prop52
140
1.0
102
RTVSPost2010PropOp52
 70
     0
102
RTVSPost2010Prop53
 90
        2
102
RTVSPost2010PropOp53
 70
     1
102
RTVSPost2010Prop54
  1
strokes_ogs.tif
102
RTVSPost2010PropOp54
 70
     1
102
RTVSPost2010Prop55
280
     0
102
RTVSPost2010PropOp55
 70
     1
102
RTVSPost2010Prop56
140
1.0
102
RTVSPost2010PropOp56
 70
     1
102
RTVSPost2010Prop57
140
1.0
102
RTVSPost2010PropOp57
 70
     1
102
RTVSPropertyOp0
 70
     1
102
RTVSPropertyOp1
 70
     1
102
RTVSPropertyOp2
 70
     1
102
RTVSPropertyOp3
 70
     1
102
RTVSPropertyOp4
 70
     1
102
RTVSPropertyOp5
 70
     1
102
RTVSPropertyOp6
 70
     1
102
RTVSPropertyOp7
 70
     1
102
RTVSPropertyOp8
 70
     1
102
RTVSPropertyOp9
 70
     1
102
RTVSPropertyOp10
 70
     1
102
RTVSPropertyOp11
 70
     1
102
RTVSPropertyOp12
 70
     1
102
RTVSPropertyOp13
 70
     1
102
RTVSPropertyOp14
 70
     1
102
RTVSPropertyOp15
 70
     1
102
RTVSPropertyOp16
 70
     1
102
RTVSPropertyOp17
 70
     1
102
RTVSPropertyOp18
 70
     1
102
RTVSPropertyOp19
 70
     1
102
RTVSPropertyOp20
 70
     1
102
RTVSPropertyOp21
 70
     1
102
RTVSPropertyOp22
 70
     1
102
RTVSPropertyOp23
 70
     1
102
RTVSPropertyOp24
 70
     1
102
RTVSPropertyOp25
 70
     1
102
RTVSPropertyOp26
 70
     1
102
RTVSPropertyOp27
 70
     1
102
RTVSPropertyOp28
 70
     1
102
RTVSPropertyOp29
 70
     1
102
RTVSPropertyOp30
 70
     1
102
RTVSPropertyOp31
 70
     1
102
RTVSPropertyOp32
 70
     1
102
RTVSPropertyOp33
 70
     1
102
RTVSPropertyOp34
 70
     1
102
RTVSPropertyOp35
 70
     1
102
RTVSPropertyOp36
 70
     1
102
RTVSPropertyOp37
 70
     1
102
RTVSPropertyOp38
 70
     1
102
RTVSPropertyOp39
 70
     1
102
RTVSPropertyOp40
 70
     1
102
RTVSPropertyOp41
 70
     1
102
RTVSPropertyOp42
 70
     1
102
RTVSPropertyOp43
 70
     1
102
RTVSPropertyOp44
 70
     1
102
RTVSPropertyOp45
 70
     1
102
RTVSPropertyOp46
 70
     1
102
RTVSPropertyOp47
 70
     1
102
RTVSPropertyOp48
 70
     1
102
RTVSPropertyOp49
 70
     1
102
RTVSPropertyOp50
 70
     1
102
RTVSPropertyOp51
 70
     0
102
RTVSPropertyOp52
 70
     0
102
RTVSPropertyOp53
 70
     1
102
RTVSPropertyOp54
 70
     1
102
RTVSPropertyOp55
 70
     1
102
RTVSPropertyOp56
 70
     1
102
RTVSPropertyOp57
 70
     1
102
RTVSPropertyOp58
 70
     1
102
RTVSPropertyOp59
 70
     1
102
RTVSPropertyOp60
 70
     1
102
RTVSPropertyOp61
 70
     1
102
RTVSPropertyOp62
 70
     1
  0
XRECORD
  5
237CC
102
{ACAD_REACTORS
330
237CB
102
}
330
237CB
100
AcDbXrecord
280
     1
102
RTVSPost2010Prop28
280
     0
102
RTVSPost2010PropOp28
 70
     1
102
RTVSPost2010Prop29
280
     1
102
RTVSPost2010PropOp29
 70
     1
102
RTVSPost2010Prop30
280
     1
102
RTVSPost2010PropOp30
 70
     1
102
RTVSPost2010Prop31
280
     0
102
RTVSPost2010PropOp31
 70
     1
102
RTVSPost2010Prop32
280
     0
102
RTVSPost2010PropOp32
 70
     1
102
RTVSPost2010Prop33
280
     0
102
RTVSPost2010PropOp33
 70
     1
102
RTVSPost2010Prop34
280
     0
102
RTVSPost2010PropOp34
 70
     1
102
RTVSPost2010Prop35
280
     0
102
RTVSPost2010PropOp35
 70
     1
102
RTVSPost2010Prop36
280
     0
102
RTVSPost2010PropOp36
 70
     1
102
RTVSPost2010Prop37
 90
       50
102
RTVSPost2010PropOp37
 70
     1
102
RTVSPost2010Prop38
140
0.0
102
RTVSPost2010PropOp38
 70
     1
102
RTVSPost2010Prop39
140
1.0
102
RTVSPost2010PropOp39
 70
     1
102
RTVSPost2010Prop40
 90
        0
102
RTVSPost2010PropOp40
 70
     1
102
RTVSPost2010Prop41ColorIndex
 90
       18
102
RTVSPost2010Prop41ColorRGB
 90
        0
102
RTVSPost2010PropOp41
 70
     1
102
RTVSPost2010Prop42
 90
       50
102
RTVSPost2010PropOp42
 70
     1
102
RTVSPost2010Prop43
 90
        3
102
RTVSPost2010PropOp43
 70
     1
102
RTVSPost2010Prop44ColorIndex
 90
        5
102
RTVSPost2010Prop44ColorRGB
 90
      255
102
RTVSPost2010PropOp44
 70
     1
102
RTVSPost2010Prop45
280
     0
102
RTVSPost2010PropOp45
 70
     1
102
RTVSPost2010Prop46
 90
       50
102
RTVSPost2010PropOp46
 70
     1
102
RTVSPost2010Prop47
 90
       50
102
RTVSPost2010PropOp47
 70
     1
102
RTVSPost2010Prop48
 90
       50
102
RTVSPost2010PropOp48
 70
     1
102
RTVSPost2010Prop49
280
     0
102
RTVSPost2010PropOp49
 70
     1
102
RTVSPost2010Prop50
 90
       50
102
RTVSPost2010PropOp50
 70
     1
102
RTVSPost2010Prop51ColorIndex
 90
      256
102
RTVSPost2010Prop51ColorRGB
 90
-16777216
102
RTVSPost2010PropOp51
 70
     0
102
RTVSPost2010Prop52
140
1.0
102
RTVSPost2010PropOp52
 70
     0
102
RTVSPost2010Prop53
 90
        2
102
RTVSPost2010PropOp53
 70
     1
102
RTVSPost2010Prop54
  1
strokes_ogs.tif
102
RTVSPost2010PropOp54
 70
     1
102
RTVSPost2010Prop55
280
     0
102
RTVSPost2010PropOp55
 70
     1
102
RTVSPost2010Prop56
140
1.0
102
RTVSPost2010PropOp56
 70
     1
102
RTVSPost2010Prop57
140
1.0
102
RTVSPost2010PropOp57
 70
     1
102
RTVSPropertyOp0
 70
     1
102
RTVSPropertyOp1
 70
     1
102
RTVSPropertyOp2
 70
     1
102
RTVSPropertyOp3
 70
     1
102
RTVSPropertyOp4
 70
     1
102
RTVSPropertyOp5
 70
     1
102
RTVSPropertyOp6
 70
     1
102
RTVSPropertyOp7
 70
     1
102
RTVSPropertyOp8
 70
     1
102
RTVSPropertyOp9
 70
     1
102
RTVSPropertyOp10
 70
     1
102
RTVSPropertyOp11
 70
     1
102
RTVSPropertyOp12
 70
     1
102
RTVSPropertyOp13
 70
     1
102
RTVSPropertyOp14
 70
     1
102
RTVSPropertyOp15
 70
     1
102
RTVSPropertyOp16
 70
     1
102
RTVSPropertyOp17
 70
     1
102
RTVSPropertyOp18
 70
     1
102
RTVSPropertyOp19
 70
     1
102
RTVSPropertyOp20
 70
     1
102
RTVSPropertyOp21
 70
     1
102
RTVSPropertyOp22
 70
     1
102
RTVSPropertyOp23
 70
     1
102
RTVSPropertyOp24
 70
     1
102
RTVSPropertyOp25
 70
     1
102
RTVSPropertyOp26
 70
     1
102
RTVSPropertyOp27
 70
     1
102
RTVSPropertyOp28
 70
     1
102
RTVSPropertyOp29
 70
     1
102
RTVSPropertyOp30
 70
     1
102
RTVSPropertyOp31
 70
     1
102
RTVSPropertyOp32
 70
     1
102
RTVSPropertyOp33
 70
     1
102
RTVSPropertyOp34
 70
     1
102
RTVSPropertyOp35
 70
     1
102
RTVSPropertyOp36
 70
     1
102
RTVSPropertyOp37
 70
     1
102
RTVSPropertyOp38
 70
     1
102
RTVSPropertyOp39
 70
     1
102
RTVSPropertyOp40
 70
     1
102
RTVSPropertyOp41
 70
     1
102
RTVSPropertyOp42
 70
     1
102
RTVSPropertyOp43
 70
     1
102
RTVSPropertyOp44
 70
     1
102
RTVSPropertyOp45
 70
     1
102
RTVSPropertyOp46
 70
     1
102
RTVSPropertyOp47
 70
     1
102
RTVSPropertyOp48
 70
     1
102
RTVSPropertyOp49
 70
     1
102
RTVSPropertyOp50
 70
     1
102
RTVSPropertyOp51
 70
     0
102
RTVSPropertyOp52
 70
     0
102
RTVSPropertyOp53
 70
     1
102
RTVSPropertyOp54
 70
     1
102
RTVSPropertyOp55
 70
     1
102
RTVSPropertyOp56
 70
     1
102
RTVSPropertyOp57
 70
     1
102
RTVSPropertyOp58
 70
     1
102
RTVSPropertyOp59
 70
     1
102
RTVSPropertyOp60
 70
     1
102
RTVSPropertyOp61
 70
     1
102
RTVSPropertyOp62
 70
     1
  0
XRECORD
  5
237CE
102
{ACAD_REACTORS
330
237CD
102
}
330
237CD
100
AcDbXrecord
280
     1
102
RTVSPost2010Prop28
280
     0
102
RTVSPost2010PropOp28
 70
     1
102
RTVSPost2010Prop29
280
     1
102
RTVSPost2010PropOp29
 70
     1
102
RTVSPost2010Prop30
280
     1
102
RTVSPost2010PropOp30
 70
     1
102
RTVSPost2010Prop31
280
     0
102
RTVSPost2010PropOp31
 70
     1
102
RTVSPost2010Prop32
280
     0
102
RTVSPost2010PropOp32
 70
     1
102
RTVSPost2010Prop33
280
     0
102
RTVSPost2010PropOp33
 70
     1
102
RTVSPost2010Prop34
280
     0
102
RTVSPost2010PropOp34
 70
     1
102
RTVSPost2010Prop35
280
     0
102
RTVSPost2010PropOp35
 70
     1
102
RTVSPost2010Prop36
280
     0
102
RTVSPost2010PropOp36
 70
     1
102
RTVSPost2010Prop37
 90
       50
102
RTVSPost2010PropOp37
 70
     1
102
RTVSPost2010Prop38
140
0.0
102
RTVSPost2010PropOp38
 70
     1
102
RTVSPost2010Prop39
140
1.0
102
RTVSPost2010PropOp39
 70
     1
102
RTVSPost2010Prop40
 90
        0
102
RTVSPost2010PropOp40
 70
     1
102
RTVSPost2010Prop41ColorIndex
 90
       18
102
RTVSPost2010Prop41ColorRGB
 90
        0
102
RTVSPost2010PropOp41
 70
     1
102
RTVSPost2010Prop42
 90
       50
102
RTVSPost2010PropOp42
 70
     1
102
RTVSPost2010Prop43
 90
        3
102
RTVSPost2010PropOp43
 70
     1
102
RTVSPost2010Prop44ColorIndex
 90
        5
102
RTVSPost2010Prop44ColorRGB
 90
      255
102
RTVSPost2010PropOp44
 70
     1
102
RTVSPost2010Prop45
280
     0
102
RTVSPost2010PropOp45
 70
     1
102
RTVSPost2010Prop46
 90
       50
102
RTVSPost2010PropOp46
 70
     1
102
RTVSPost2010Prop47
 90
       50
102
RTVSPost2010PropOp47
 70
     1
102
RTVSPost2010Prop48
 90
       50
102
RTVSPost2010PropOp48
 70
     1
102
RTVSPost2010Prop49
280
     0
102
RTVSPost2010PropOp49
 70
     1
102
RTVSPost2010Prop50
 90
       50
102
RTVSPost2010PropOp50
 70
     1
102
RTVSPost2010Prop51ColorIndex
 90
      256
102
RTVSPost2010Prop51ColorRGB
 90
-16777216
102
RTVSPost2010PropOp51
 70
     0
102
RTVSPost2010Prop52
140
1.0
102
RTVSPost2010PropOp52
 70
     0
102
RTVSPost2010Prop53
 90
        2
102
RTVSPost2010PropOp53
 70
     1
102
RTVSPost2010Prop54
  1
strokes_ogs.tif
102
RTVSPost2010PropOp54
 70
     1
102
RTVSPost2010Prop55
280
     0
102
RTVSPost2010PropOp55
 70
     1
102
RTVSPost2010Prop56
140
1.0
102
RTVSPost2010PropOp56
 70
     1
102
RTVSPost2010Prop57
140
1.0
102
RTVSPost2010PropOp57
 70
     1
102
RTVSPropertyOp0
 70
     1
102
RTVSPropertyOp1
 70
     1
102
RTVSPropertyOp2
 70
     1
102
RTVSPropertyOp3
 70
     1
102
RTVSPropertyOp4
 70
     1
102
RTVSPropertyOp5
 70
     1
102
RTVSPropertyOp6
 70
     1
102
RTVSPropertyOp7
 70
     1
102
RTVSPropertyOp8
 70
     1
102
RTVSPropertyOp9
 70
     1
102
RTVSPropertyOp10
 70
     1
102
RTVSPropertyOp11
 70
     1
102
RTVSPropertyOp12
 70
     1
102
RTVSPropertyOp13
 70
     1
102
RTVSPropertyOp14
 70
     1
102
RTVSPropertyOp15
 70
     1
102
RTVSPropertyOp16
 70
     1
102
RTVSPropertyOp17
 70
     1
102
RTVSPropertyOp18
 70
     1
102
RTVSPropertyOp19
 70
     1
102
RTVSPropertyOp20
 70
     1
102
RTVSPropertyOp21
 70
     1
102
RTVSPropertyOp22
 70
     1
102
RTVSPropertyOp23
 70
     1
102
RTVSPropertyOp24
 70
     1
102
RTVSPropertyOp25
 70
     1
102
RTVSPropertyOp26
 70
     1
102
RTVSPropertyOp27
 70
     1
102
RTVSPropertyOp28
 70
     1
102
RTVSPropertyOp29
 70
     1
102
RTVSPropertyOp30
 70
     1
102
RTVSPropertyOp31
 70
     1
102
RTVSPropertyOp32
 70
     1
102
RTVSPropertyOp33
 70
     1
102
RTVSPropertyOp34
 70
     1
102
RTVSPropertyOp35
 70
     1
102
RTVSPropertyOp36
 70
     1
102
RTVSPropertyOp37
 70
     1
102
RTVSPropertyOp38
 70
     1
102
RTVSPropertyOp39
 70
     1
102
RTVSPropertyOp40
 70
     1
102
RTVSPropertyOp41
 70
     1
102
RTVSPropertyOp42
 70
     1
102
RTVSPropertyOp43
 70
     1
102
RTVSPropertyOp44
 70
     1
102
RTVSPropertyOp45
 70
     1
102
RTVSPropertyOp46
 70
     1
102
RTVSPropertyOp47
 70
     1
102
RTVSPropertyOp48
 70
     1
102
RTVSPropertyOp49
 70
     1
102
RTVSPropertyOp50
 70
     1
102
RTVSPropertyOp51
 70
     0
102
RTVSPropertyOp52
 70
     0
102
RTVSPropertyOp53
 70
     1
102
RTVSPropertyOp54
 70
     1
102
RTVSPropertyOp55
 70
     1
102
RTVSPropertyOp56
 70
     1
102
RTVSPropertyOp57
 70
     1
102
RTVSPropertyOp58
 70
     1
102
RTVSPropertyOp59
 70
     1
102
RTVSPropertyOp60
 70
     1
102
RTVSPropertyOp61
 70
     1
102
RTVSPropertyOp62
 70
     1
  0
XRECORD
  5
237F3
102
{ACAD_REACTORS
330
237F2
102
}
330
237F2
100
AcDbXrecord
280
     1
102
RTVSPost2010Prop28
280
     0
102
RTVSPost2010PropOp28
 70
     1
102
RTVSPost2010Prop29
280
     1
102
RTVSPost2010PropOp29
 70
     1
102
RTVSPost2010Prop30
280
     1
102
RTVSPost2010PropOp30
 70
     1
102
RTVSPost2010Prop31
280
     0
102
RTVSPost2010PropOp31
 70
     1
102
RTVSPost2010Prop32
280
     0
102
RTVSPost2010PropOp32
 70
     1
102
RTVSPost2010Prop33
280
     0
102
RTVSPost2010PropOp33
 70
     1
102
RTVSPost2010Prop34
280
     0
102
RTVSPost2010PropOp34
 70
     1
102
RTVSPost2010Prop35
280
     0
102
RTVSPost2010PropOp35
 70
     1
102
RTVSPost2010Prop36
280
     0
102
RTVSPost2010PropOp36
 70
     1
102
RTVSPost2010Prop37
 90
       50
102
RTVSPost2010PropOp37
 70
     1
102
RTVSPost2010Prop38
140
0.0
102
RTVSPost2010PropOp38
 70
     1
102
RTVSPost2010Prop39
140
1.0
102
RTVSPost2010PropOp39
 70
     1
102
RTVSPost2010Prop40
 90
        0
102
RTVSPost2010PropOp40
 70
     1
102
RTVSPost2010Prop41ColorIndex
 90
       18
102
RTVSPost2010Prop41ColorRGB
 90
        0
102
RTVSPost2010PropOp41
 70
     1
102
RTVSPost2010Prop42
 90
       50
102
RTVSPost2010PropOp42
 70
     1
102
RTVSPost2010Prop43
 90
        3
102
RTVSPost2010PropOp43
 70
     1
102
RTVSPost2010Prop44ColorIndex
 90
        5
102
RTVSPost2010Prop44ColorRGB
 90
      255
102
RTVSPost2010PropOp44
 70
     1
102
RTVSPost2010Prop45
280
     0
102
RTVSPost2010PropOp45
 70
     1
102
RTVSPost2010Prop46
 90
       50
102
RTVSPost2010PropOp46
 70
     1
102
RTVSPost2010Prop47
 90
       50
102
RTVSPost2010PropOp47
 70
     1
102
RTVSPost2010Prop48
 90
       50
102
RTVSPost2010PropOp48
 70
     1
102
RTVSPost2010Prop49
280
     0
102
RTVSPost2010PropOp49
 70
     1
102
RTVSPost2010Prop50
 90
       50
102
RTVSPost2010PropOp50
 70
     1
102
RTVSPost2010Prop51ColorIndex
 90
      256
102
RTVSPost2010Prop51ColorRGB
 90
-16777216
102
RTVSPost2010PropOp51
 70
     0
102
RTVSPost2010Prop52
140
1.0
102
RTVSPost2010PropOp52
 70
     0
102
RTVSPost2010Prop53
 90
        2
102
RTVSPost2010PropOp53
 70
     1
102
RTVSPost2010Prop54
  1
strokes_ogs.tif
102
RTVSPost2010PropOp54
 70
     1
102
RTVSPost2010Prop55
280
     0
102
RTVSPost2010PropOp55
 70
     1
102
RTVSPost2010Prop56
140
1.0
102
RTVSPost2010PropOp56
 70
     1
102
RTVSPost2010Prop57
140
1.0
102
RTVSPost2010PropOp57
 70
     1
102
RTVSPropertyOp0
 70
     1
102
RTVSPropertyOp1
 70
     1
102
RTVSPropertyOp2
 70
     1
102
RTVSPropertyOp3
 70
     1
102
RTVSPropertyOp4
 70
     1
102
RTVSPropertyOp5
 70
     1
102
RTVSPropertyOp6
 70
     1
102
RTVSPropertyOp7
 70
     1
102
RTVSPropertyOp8
 70
     1
102
RTVSPropertyOp9
 70
     1
102
RTVSPropertyOp10
 70
     1
102
RTVSPropertyOp11
 70
     1
102
RTVSPropertyOp12
 70
     1
102
RTVSPropertyOp13
 70
     1
102
RTVSPropertyOp14
 70
     1
102
RTVSPropertyOp15
 70
     1
102
RTVSPropertyOp16
 70
     1
102
RTVSPropertyOp17
 70
     1
102
RTVSPropertyOp18
 70
     1
102
RTVSPropertyOp19
 70
     1
102
RTVSPropertyOp20
 70
     1
102
RTVSPropertyOp21
 70
     1
102
RTVSPropertyOp22
 70
     1
102
RTVSPropertyOp23
 70
     1
102
RTVSPropertyOp24
 70
     1
102
RTVSPropertyOp25
 70
     1
102
RTVSPropertyOp26
 70
     1
102
RTVSPropertyOp27
 70
     1
102
RTVSPropertyOp28
 70
     1
102
RTVSPropertyOp29
 70
     1
102
RTVSPropertyOp30
 70
     1
102
RTVSPropertyOp31
 70
     1
102
RTVSPropertyOp32
 70
     1
102
RTVSPropertyOp33
 70
     1
102
RTVSPropertyOp34
 70
     1
102
RTVSPropertyOp35
 70
     1
102
RTVSPropertyOp36
 70
     1
102
RTVSPropertyOp37
 70
     1
102
RTVSPropertyOp38
 70
     1
102
RTVSPropertyOp39
 70
     1
102
RTVSPropertyOp40
 70
     1
102
RTVSPropertyOp41
 70
     1
102
RTVSPropertyOp42
 70
     1
102
RTVSPropertyOp43
 70
     1
102
RTVSPropertyOp44
 70
     1
102
RTVSPropertyOp45
 70
     1
102
RTVSPropertyOp46
 70
     1
102
RTVSPropertyOp47
 70
     1
102
RTVSPropertyOp48
 70
     1
102
RTVSPropertyOp49
 70
     1
102
RTVSPropertyOp50
 70
     1
102
RTVSPropertyOp51
 70
     0
102
RTVSPropertyOp52
 70
     0
102
RTVSPropertyOp53
 70
     1
102
RTVSPropertyOp54
 70
     1
102
RTVSPropertyOp55
 70
     1
102
RTVSPropertyOp56
 70
     1
102
RTVSPropertyOp57
 70
     1
102
RTVSPropertyOp58
 70
     1
102
RTVSPropertyOp59
 70
     1
102
RTVSPropertyOp60
 70
     1
102
RTVSPropertyOp61
 70
     1
102
RTVSPropertyOp62
 70
     1
  0
XRECORD
  5
237FF
102
{ACAD_REACTORS
330
237FE
102
}
330
237FE
100
AcDbXrecord
280
     1
102
RTVSPost2010Prop28
280
     0
102
RTVSPost2010PropOp28
 70
     1
102
RTVSPost2010Prop29
280
     1
102
RTVSPost2010PropOp29
 70
     1
102
RTVSPost2010Prop30
280
     1
102
RTVSPost2010PropOp30
 70
     1
102
RTVSPost2010Prop31
280
     0
102
RTVSPost2010PropOp31
 70
     1
102
RTVSPost2010Prop32
280
     0
102
RTVSPost2010PropOp32
 70
     1
102
RTVSPost2010Prop33
280
     0
102
RTVSPost2010PropOp33
 70
     1
102
RTVSPost2010Prop34
280
     0
102
RTVSPost2010PropOp34
 70
     1
102
RTVSPost2010Prop35
280
     0
102
RTVSPost2010PropOp35
 70
     1
102
RTVSPost2010Prop36
280
     0
102
RTVSPost2010PropOp36
 70
     1
102
RTVSPost2010Prop37
 90
       50
102
RTVSPost2010PropOp37
 70
     0
102
RTVSPost2010Prop38
140
0.0
102
RTVSPost2010PropOp38
 70
     0
102
RTVSPost2010Prop39
140
1.0
102
RTVSPost2010PropOp39
 70
     0
102
RTVSPost2010Prop40
 90
        0
102
RTVSPost2010PropOp40
 70
     0
102
RTVSPost2010Prop41ColorIndex
 90
       18
102
RTVSPost2010Prop41ColorRGB
 90
        0
102
RTVSPost2010PropOp41
 70
     0
102
RTVSPost2010Prop42
 90
       50
102
RTVSPost2010PropOp42
 70
     0
102
RTVSPost2010Prop43
 90
        3
102
RTVSPost2010PropOp43
 70
     0
102
RTVSPost2010Prop44ColorIndex
 90
        5
102
RTVSPost2010Prop44ColorRGB
 90
      255
102
RTVSPost2010PropOp44
 70
     0
102
RTVSPost2010Prop45
280
     0
102
RTVSPost2010PropOp45
 70
     1
102
RTVSPost2010Prop46
 90
       50
102
RTVSPost2010PropOp46
 70
     0
102
RTVSPost2010Prop47
 90
       50
102
RTVSPost2010PropOp47
 70
     0
102
RTVSPost2010Prop48
 90
       50
102
RTVSPost2010PropOp48
 70
     0
102
RTVSPost2010Prop49
280
     0
102
RTVSPost2010PropOp49
 70
     1
102
RTVSPost2010Prop50
 90
       50
102
RTVSPost2010PropOp50
 70
     0
102
RTVSPost2010Prop51ColorIndex
 90
      256
102
RTVSPost2010Prop51ColorRGB
 90
-16777216
102
RTVSPost2010PropOp51
 70
     0
102
RTVSPost2010Prop52
140
1.0
102
RTVSPost2010PropOp52
 70
     0
102
RTVSPost2010Prop53
 90
        2
102
RTVSPost2010PropOp53
 70
     0
102
RTVSPost2010Prop54
  1
strokes_ogs.tif
102
RTVSPost2010PropOp54
 70
     0
102
RTVSPost2010Prop55
280
     0
102
RTVSPost2010PropOp55
 70
     1
102
RTVSPost2010Prop56
140
1.0
102
RTVSPost2010PropOp56
 70
     0
102
RTVSPost2010Prop57
140
1.0
102
RTVSPost2010PropOp57
 70
     0
102
RTVSPropertyOp0
 70
     0
102
RTVSPropertyOp1
 70
     0
102
RTVSPropertyOp2
 70
     0
102
RTVSPropertyOp3
 70
     0
102
RTVSPropertyOp4
 70
     0
102
RTVSPropertyOp5
 70
     0
102
RTVSPropertyOp6
 70
     0
102
RTVSPropertyOp7
 70
     0
102
RTVSPropertyOp8
 70
     0
102
RTVSPropertyOp9
 70
     0
102
RTVSPropertyOp10
 70
     0
102
RTVSPropertyOp11
 70
     0
102
RTVSPropertyOp12
 70
     0
102
RTVSPropertyOp13
 70
     0
102
RTVSPropertyOp14
 70
     2
102
RTVSPropertyOp15
 70
     0
102
RTVSPropertyOp16
 70
     0
102
RTVSPropertyOp17
 70
     0
102
RTVSPropertyOp18
 70
     0
102
RTVSPropertyOp19
 70
     0
102
RTVSPropertyOp20
 70
     0
102
RTVSPropertyOp21
 70
     0
102
RTVSPropertyOp22
 70
     0
102
RTVSPropertyOp23
 70
     0
102
RTVSPropertyOp24
 70
     0
102
RTVSPropertyOp25
 70
     0
102
RTVSPropertyOp26
 70
     0
102
RTVSPropertyOp27
 70
     0
102
RTVSPropertyOp28
 70
     1
102
RTVSPropertyOp29
 70
     1
102
RTVSPropertyOp30
 70
     1
102
RTVSPropertyOp31
 70
     1
102
RTVSPropertyOp32
 70
     1
102
RTVSPropertyOp33
 70
     1
102
RTVSPropertyOp34
 70
     1
102
RTVSPropertyOp35
 70
     1
102
RTVSPropertyOp36
 70
     1
102
RTVSPropertyOp37
 70
     0
102
RTVSPropertyOp38
 70
     0
102
RTVSPropertyOp39
 70
     0
102
RTVSPropertyOp40
 70
     0
102
RTVSPropertyOp41
 70
     0
102
RTVSPropertyOp42
 70
     0
102
RTVSPropertyOp43
 70
     0
102
RTVSPropertyOp44
 70
     0
102
RTVSPropertyOp45
 70
     1
102
RTVSPropertyOp46
 70
     0
102
RTVSPropertyOp47
 70
     0
102
RTVSPropertyOp48
 70
     0
102
RTVSPropertyOp49
 70
     1
102
RTVSPropertyOp50
 70
     0
102
RTVSPropertyOp51
 70
     0
102
RTVSPropertyOp52
 70
     0
102
RTVSPropertyOp53
 70
     0
102
RTVSPropertyOp54
 70
     0
102
RTVSPropertyOp55
 70
     1
102
RTVSPropertyOp56
 70
     0
102
RTVSPropertyOp57
 70
     0
102
RTVSPropertyOp58
 70
     1
102
RTVSPropertyOp59
 70
     1
102
RTVSPropertyOp60
 70
     1
102
RTVSPropertyOp61
 70
     1
102
RTVSPropertyOp62
 70
     1
  0
XRECORD
  5
237E2
102
{ACAD_REACTORS
330
237E1
102
}
330
237E1
100
AcDbXrecord
280
     1
102
RTVSPost2010Prop28
280
     0
102
RTVSPost2010PropOp28
 70
     1
102
RTVSPost2010Prop29
280
     1
102
RTVSPost2010PropOp29
 70
     1
102
RTVSPost2010Prop30
280
     1
102
RTVSPost2010PropOp30
 70
     1
102
RTVSPost2010Prop31
280
     0
102
RTVSPost2010PropOp31
 70
     1
102
RTVSPost2010Prop32
280
     0
102
RTVSPost2010PropOp32
 70
     1
102
RTVSPost2010Prop33
280
     0
102
RTVSPost2010PropOp33
 70
     1
102
RTVSPost2010Prop34
280
     0
102
RTVSPost2010PropOp34
 70
     1
102
RTVSPost2010Prop35
280
     0
102
RTVSPost2010PropOp35
 70
     1
102
RTVSPost2010Prop36
280
     0
102
RTVSPost2010PropOp36
 70
     1
102
RTVSPost2010Prop37
 90
       50
102
RTVSPost2010PropOp37
 70
     1
102
RTVSPost2010Prop38
140
0.0
102
RTVSPost2010PropOp38
 70
     1
102
RTVSPost2010Prop39
140
1.0
102
RTVSPost2010PropOp39
 70
     1
102
RTVSPost2010Prop40
 90
        0
102
RTVSPost2010PropOp40
 70
     1
102
RTVSPost2010Prop41ColorIndex
 90
       18
102
RTVSPost2010Prop41ColorRGB
 90
        0
102
RTVSPost2010PropOp41
 70
     1
102
RTVSPost2010Prop42
 90
       50
102
RTVSPost2010PropOp42
 70
     1
102
RTVSPost2010Prop43
 90
        3
102
RTVSPost2010PropOp43
 70
     1
102
RTVSPost2010Prop44ColorIndex
 90
        5
102
RTVSPost2010Prop44ColorRGB
 90
      255
102
RTVSPost2010PropOp44
 70
     1
102
RTVSPost2010Prop45
280
     0
102
RTVSPost2010PropOp45
 70
     1
102
RTVSPost2010Prop46
 90
       50
102
RTVSPost2010PropOp46
 70
     1
102
RTVSPost2010Prop47
 90
       50
102
RTVSPost2010PropOp47
 70
     1
102
RTVSPost2010Prop48
 90
       50
102
RTVSPost2010PropOp48
 70
     1
102
RTVSPost2010Prop49
280
     0
102
RTVSPost2010PropOp49
 70
     1
102
RTVSPost2010Prop50
 90
       50
102
RTVSPost2010PropOp50
 70
     1
102
RTVSPost2010Prop51ColorIndex
 90
      256
102
RTVSPost2010Prop51ColorRGB
 90
-16777216
102
RTVSPost2010PropOp51
 70
     0
102
RTVSPost2010Prop52
140
1.0
102
RTVSPost2010PropOp52
 70
     0
102
RTVSPost2010Prop53
 90
        2
102
RTVSPost2010PropOp53
 70
     1
102
RTVSPost2010Prop54
  1
strokes_ogs.tif
102
RTVSPost2010PropOp54
 70
     1
102
RTVSPost2010Prop55
280
     0
102
RTVSPost2010PropOp55
 70
     1
102
RTVSPost2010Prop56
140
1.0
102
RTVSPost2010PropOp56
 70
     1
102
RTVSPost2010Prop57
140
1.0
102
RTVSPost2010PropOp57
 70
     1
102
RTVSPropertyOp0
 70
     1
102
RTVSPropertyOp1
 70
     1
102
RTVSPropertyOp2
 70
     1
102
RTVSPropertyOp3
 70
     1
102
RTVSPropertyOp4
 70
     1
102
RTVSPropertyOp5
 70
     1
102
RTVSPropertyOp6
 70
     1
102
RTVSPropertyOp7
 70
     1
102
RTVSPropertyOp8
 70
     1
102
RTVSPropertyOp9
 70
     1
102
RTVSPropertyOp10
 70
     1
102
RTVSPropertyOp11
 70
     1
102
RTVSPropertyOp12
 70
     1
102
RTVSPropertyOp13
 70
     1
102
RTVSPropertyOp14
 70
     1
102
RTVSPropertyOp15
 70
     1
102
RTVSPropertyOp16
 70
     1
102
RTVSPropertyOp17
 70
     1
102
RTVSPropertyOp18
 70
     1
102
RTVSPropertyOp19
 70
     1
102
RTVSPropertyOp20
 70
     1
102
RTVSPropertyOp21
 70
     1
102
RTVSPropertyOp22
 70
     1
102
RTVSPropertyOp23
 70
     1
102
RTVSPropertyOp24
 70
     1
102
RTVSPropertyOp25
 70
     1
102
RTVSPropertyOp26
 70
     1
102
RTVSPropertyOp27
 70
     1
102
RTVSPropertyOp28
 70
     1
102
RTVSPropertyOp29
 70
     1
102
RTVSPropertyOp30
 70
     1
102
RTVSPropertyOp31
 70
     1
102
RTVSPropertyOp32
 70
     1
102
RTVSPropertyOp33
 70
     1
102
RTVSPropertyOp34
 70
     1
102
RTVSPropertyOp35
 70
     1
102
RTVSPropertyOp36
 70
     1
102
RTVSPropertyOp37
 70
     1
102
RTVSPropertyOp38
 70
     1
102
RTVSPropertyOp39
 70
     1
102
RTVSPropertyOp40
 70
     1
102
RTVSPropertyOp41
 70
     1
102
RTVSPropertyOp42
 70
     1
102
RTVSPropertyOp43
 70
     1
102
RTVSPropertyOp44
 70
     1
102
RTVSPropertyOp45
 70
     1
102
RTVSPropertyOp46
 70
     1
102
RTVSPropertyOp47
 70
     1
102
RTVSPropertyOp48
 70
     1
102
RTVSPropertyOp49
 70
     1
102
RTVSPropertyOp50
 70
     1
102
RTVSPropertyOp51
 70
     0
102
RTVSPropertyOp52
 70
     0
102
RTVSPropertyOp53
 70
     1
102
RTVSPropertyOp54
 70
     1
102
RTVSPropertyOp55
 70
     1
102
RTVSPropertyOp56
 70
     1
102
RTVSPropertyOp57
 70
     1
102
RTVSPropertyOp58
 70
     1
102
RTVSPropertyOp59
 70
     1
102
RTVSPropertyOp60
 70
     1
102
RTVSPropertyOp61
 70
     1
102
RTVSPropertyOp62
 70
     1
  0
XRECORD
  5
23801
102
{ACAD_REACTORS
330
23800
102
}
330
23800
100
AcDbXrecord
280
     1
102
RTVSPost2010Prop28
280
     0
102
RTVSPost2010PropOp28
 70
     1
102
RTVSPost2010Prop29
280
     1
102
RTVSPost2010PropOp29
 70
     1
102
RTVSPost2010Prop30
280
     1
102
RTVSPost2010PropOp30
 70
     1
102
RTVSPost2010Prop31
280
     0
102
RTVSPost2010PropOp31
 70
     1
102
RTVSPost2010Prop32
280
     0
102
RTVSPost2010PropOp32
 70
     1
102
RTVSPost2010Prop33
280
     0
102
RTVSPost2010PropOp33
 70
     1
102
RTVSPost2010Prop34
280
     0
102
RTVSPost2010PropOp34
 70
     1
102
RTVSPost2010Prop35
280
     0
102
RTVSPost2010PropOp35
 70
     1
102
RTVSPost2010Prop36
280
     0
102
RTVSPost2010PropOp36
 70
     1
102
RTVSPost2010Prop37
 90
       50
102
RTVSPost2010PropOp37
 70
     0
102
RTVSPost2010Prop38
140
0.0
102
RTVSPost2010PropOp38
 70
     0
102
RTVSPost2010Prop39
140
1.0
102
RTVSPost2010PropOp39
 70
     0
102
RTVSPost2010Prop40
 90
        0
102
RTVSPost2010PropOp40
 70
     0
102
RTVSPost2010Prop41ColorIndex
 90
       18
102
RTVSPost2010Prop41ColorRGB
 90
        0
102
RTVSPost2010PropOp41
 70
     0
102
RTVSPost2010Prop42
 90
       50
102
RTVSPost2010PropOp42
 70
     0
102
RTVSPost2010Prop43
 90
        3
102
RTVSPost2010PropOp43
 70
     0
102
RTVSPost2010Prop44ColorIndex
 90
        5
102
RTVSPost2010Prop44ColorRGB
 90
      255
102
RTVSPost2010PropOp44
 70
     0
102
RTVSPost2010Prop45
280
     0
102
RTVSPost2010PropOp45
 70
     1
102
RTVSPost2010Prop46
 90
       50
102
RTVSPost2010PropOp46
 70
     0
102
RTVSPost2010Prop47
 90
       50
102
RTVSPost2010PropOp47
 70
     0
102
RTVSPost2010Prop48
 90
       50
102
RTVSPost2010PropOp48
 70
     0
102
RTVSPost2010Prop49
280
     0
102
RTVSPost2010PropOp49
 70
     1
102
RTVSPost2010Prop50
 90
       50
102
RTVSPost2010PropOp50
 70
     0
102
RTVSPost2010Prop51ColorIndex
 90
      256
102
RTVSPost2010Prop51ColorRGB
 90
-16777216
102
RTVSPost2010PropOp51
 70
     0
102
RTVSPost2010Prop52
140
1.0
102
RTVSPost2010PropOp52
 70
     0
102
RTVSPost2010Prop53
 90
        2
102
RTVSPost2010PropOp53
 70
     0
102
RTVSPost2010Prop54
  1
strokes_ogs.tif
102
RTVSPost2010PropOp54
 70
     0
102
RTVSPost2010Prop55
280
     0
102
RTVSPost2010PropOp55
 70
     1
102
RTVSPost2010Prop56
140
1.0
102
RTVSPost2010PropOp56
 70
     0
102
RTVSPost2010Prop57
140
1.0
102
RTVSPost2010PropOp57
 70
     0
102
RTVSPropertyOp0
 70
     0
102
RTVSPropertyOp1
 70
     0
102
RTVSPropertyOp2
 70
     0
102
RTVSPropertyOp3
 70
     0
102
RTVSPropertyOp4
 70
     0
102
RTVSPropertyOp5
 70
     0
102
RTVSPropertyOp6
 70
     0
102
RTVSPropertyOp7
 70
     0
102
RTVSPropertyOp8
 70
     0
102
RTVSPropertyOp9
 70
     0
102
RTVSPropertyOp10
 70
     0
102
RTVSPropertyOp11
 70
     0
102
RTVSPropertyOp12
 70
     0
102
RTVSPropertyOp13
 70
     0
102
RTVSPropertyOp14
 70
     2
102
RTVSPropertyOp15
 70
     0
102
RTVSPropertyOp16
 70
     0
102
RTVSPropertyOp17
 70
     0
102
RTVSPropertyOp18
 70
     0
102
RTVSPropertyOp19
 70
     0
102
RTVSPropertyOp20
 70
     0
102
RTVSPropertyOp21
 70
     0
102
RTVSPropertyOp22
 70
     0
102
RTVSPropertyOp23
 70
     0
102
RTVSPropertyOp24
 70
     0
102
RTVSPropertyOp25
 70
     0
102
RTVSPropertyOp26
 70
     0
102
RTVSPropertyOp27
 70
     0
102
RTVSPropertyOp28
 70
     1
102
RTVSPropertyOp29
 70
     1
102
RTVSPropertyOp30
 70
     1
102
RTVSPropertyOp31
 70
     1
102
RTVSPropertyOp32
 70
     1
102
RTVSPropertyOp33
 70
     1
102
RTVSPropertyOp34
 70
     1
102
RTVSPropertyOp35
 70
     1
102
RTVSPropertyOp36
 70
     1
102
RTVSPropertyOp37
 70
     0
102
RTVSPropertyOp38
 70
     0
102
RTVSPropertyOp39
 70
     0
102
RTVSPropertyOp40
 70
     0
102
RTVSPropertyOp41
 70
     0
102
RTVSPropertyOp42
 70
     0
102
RTVSPropertyOp43
 70
     0
102
RTVSPropertyOp44
 70
     0
102
RTVSPropertyOp45
 70
     1
102
RTVSPropertyOp46
 70
     0
102
RTVSPropertyOp47
 70
     0
102
RTVSPropertyOp48
 70
     0
102
RTVSPropertyOp49
 70
     1
102
RTVSPropertyOp50
 70
     0
102
RTVSPropertyOp51
 70
     0
102
RTVSPropertyOp52
 70
     0
102
RTVSPropertyOp53
 70
     0
102
RTVSPropertyOp54
 70
     0
102
RTVSPropertyOp55
 70
     1
102
RTVSPropertyOp56
 70
     0
102
RTVSPropertyOp57
 70
     0
102
RTVSPropertyOp58
 70
     1
102
RTVSPropertyOp59
 70
     1
102
RTVSPropertyOp60
 70
     1
102
RTVSPropertyOp61
 70
     1
102
RTVSPropertyOp62
 70
     1
  0
XRECORD
  5
237DA
102
{ACAD_REACTORS
330
237D9
102
}
330
237D9
100
AcDbXrecord
280
     1
102
RTVSPost2010Prop28
280
     0
102
RTVSPost2010PropOp28
 70
     1
102
RTVSPost2010Prop29
280
     1
102
RTVSPost2010PropOp29
 70
     1
102
RTVSPost2010Prop30
280
     1
102
RTVSPost2010PropOp30
 70
     1
102
RTVSPost2010Prop31
280
     0
102
RTVSPost2010PropOp31
 70
     1
102
RTVSPost2010Prop32
280
     0
102
RTVSPost2010PropOp32
 70
     1
102
RTVSPost2010Prop33
280
     0
102
RTVSPost2010PropOp33
 70
     1
102
RTVSPost2010Prop34
280
     0
102
RTVSPost2010PropOp34
 70
     1
102
RTVSPost2010Prop35
280
     0
102
RTVSPost2010PropOp35
 70
     1
102
RTVSPost2010Prop36
280
     0
102
RTVSPost2010PropOp36
 70
     1
102
RTVSPost2010Prop37
 90
       50
102
RTVSPost2010PropOp37
 70
     1
102
RTVSPost2010Prop38
140
0.0
102
RTVSPost2010PropOp38
 70
     1
102
RTVSPost2010Prop39
140
1.0
102
RTVSPost2010PropOp39
 70
     1
102
RTVSPost2010Prop40
 90
        0
102
RTVSPost2010PropOp40
 70
     1
102
RTVSPost2010Prop41ColorIndex
 90
       18
102
RTVSPost2010Prop41ColorRGB
 90
        0
102
RTVSPost2010PropOp41
 70
     1
102
RTVSPost2010Prop42
 90
       50
102
RTVSPost2010PropOp42
 70
     1
102
RTVSPost2010Prop43
 90
        3
102
RTVSPost2010PropOp43
 70
     1
102
RTVSPost2010Prop44ColorIndex
 90
        5
102
RTVSPost2010Prop44ColorRGB
 90
      255
102
RTVSPost2010PropOp44
 70
     1
102
RTVSPost2010Prop45
280
     0
102
RTVSPost2010PropOp45
 70
     1
102
RTVSPost2010Prop46
 90
       50
102
RTVSPost2010PropOp46
 70
     1
102
RTVSPost2010Prop47
 90
       50
102
RTVSPost2010PropOp47
 70
     1
102
RTVSPost2010Prop48
 90
       50
102
RTVSPost2010PropOp48
 70
     1
102
RTVSPost2010Prop49
280
     0
102
RTVSPost2010PropOp49
 70
     1
102
RTVSPost2010Prop50
 90
       50
102
RTVSPost2010PropOp50
 70
     1
102
RTVSPost2010Prop51ColorIndex
 90
      256
102
RTVSPost2010Prop51ColorRGB
 90
-16777216
102
RTVSPost2010PropOp51
 70
     0
102
RTVSPost2010Prop52
140
1.0
102
RTVSPost2010PropOp52
 70
     0
102
RTVSPost2010Prop53
 90
        2
102
RTVSPost2010PropOp53
 70
     1
102
RTVSPost2010Prop54
  1
strokes_ogs.tif
102
RTVSPost2010PropOp54
 70
     1
102
RTVSPost2010Prop55
280
     0
102
RTVSPost2010PropOp55
 70
     1
102
RTVSPost2010Prop56
140
1.0
102
RTVSPost2010PropOp56
 70
     1
102
RTVSPost2010Prop57
140
1.0
102
RTVSPost2010PropOp57
 70
     1
102
RTVSPropertyOp0
 70
     1
102
RTVSPropertyOp1
 70
     1
102
RTVSPropertyOp2
 70
     1
102
RTVSPropertyOp3
 70
     1
102
RTVSPropertyOp4
 70
     1
102
RTVSPropertyOp5
 70
     1
102
RTVSPropertyOp6
 70
     1
102
RTVSPropertyOp7
 70
     1
102
RTVSPropertyOp8
 70
     1
102
RTVSPropertyOp9
 70
     1
102
RTVSPropertyOp10
 70
     1
102
RTVSPropertyOp11
 70
     1
102
RTVSPropertyOp12
 70
     1
102
RTVSPropertyOp13
 70
     1
102
RTVSPropertyOp14
 70
     1
102
RTVSPropertyOp15
 70
     1
102
RTVSPropertyOp16
 70
     1
102
RTVSPropertyOp17
 70
     1
102
RTVSPropertyOp18
 70
     1
102
RTVSPropertyOp19
 70
     1
102
RTVSPropertyOp20
 70
     1
102
RTVSPropertyOp21
 70
     1
102
RTVSPropertyOp22
 70
     1
102
RTVSPropertyOp23
 70
     1
102
RTVSPropertyOp24
 70
     1
102
RTVSPropertyOp25
 70
     1
102
RTVSPropertyOp26
 70
     1
102
RTVSPropertyOp27
 70
     1
102
RTVSPropertyOp28
 70
     1
102
RTVSPropertyOp29
 70
     1
102
RTVSPropertyOp30
 70
     1
102
RTVSPropertyOp31
 70
     1
102
RTVSPropertyOp32
 70
     1
102
RTVSPropertyOp33
 70
     1
102
RTVSPropertyOp34
 70
     1
102
RTVSPropertyOp35
 70
     1
102
RTVSPropertyOp36
 70
     1
102
RTVSPropertyOp37
 70
     1
102
RTVSPropertyOp38
 70
     1
102
RTVSPropertyOp39
 70
     1
102
RTVSPropertyOp40
 70
     1
102
RTVSPropertyOp41
 70
     1
102
RTVSPropertyOp42
 70
     1
102
RTVSPropertyOp43
 70
     1
102
RTVSPropertyOp44
 70
     1
102
RTVSPropertyOp45
 70
     1
102
RTVSPropertyOp46
 70
     1
102
RTVSPropertyOp47
 70
     1
102
RTVSPropertyOp48
 70
     1
102
RTVSPropertyOp49
 70
     1
102
RTVSPropertyOp50
 70
     1
102
RTVSPropertyOp51
 70
     0
102
RTVSPropertyOp52
 70
     0
102
RTVSPropertyOp53
 70
     1
102
RTVSPropertyOp54
 70
     1
102
RTVSPropertyOp55
 70
     1
102
RTVSPropertyOp56
 70
     1
102
RTVSPropertyOp57
 70
     1
102
RTVSPropertyOp58
 70
     1
102
RTVSPropertyOp59
 70
     1
102
RTVSPropertyOp60
 70
     1
102
RTVSPropertyOp61
 70
     1
102
RTVSPropertyOp62
 70
     1
  0
XRECORD
  5
237FD
102
{ACAD_REACTORS
330
237FC
102
}
330
237FC
100
AcDbXrecord
280
     1
102
RTVSPost2010Prop28
280
     0
102
RTVSPost2010PropOp28
 70
     1
102
RTVSPost2010Prop29
280
     1
102
RTVSPost2010PropOp29
 70
     1
102
RTVSPost2010Prop30
280
     1
102
RTVSPost2010PropOp30
 70
     1
102
RTVSPost2010Prop31
280
     0
102
RTVSPost2010PropOp31
 70
     1
102
RTVSPost2010Prop32
280
     0
102
RTVSPost2010PropOp32
 70
     1
102
RTVSPost2010Prop33
280
     0
102
RTVSPost2010PropOp33
 70
     1
102
RTVSPost2010Prop34
280
     0
102
RTVSPost2010PropOp34
 70
     1
102
RTVSPost2010Prop35
280
     0
102
RTVSPost2010PropOp35
 70
     1
102
RTVSPost2010Prop36
280
     0
102
RTVSPost2010PropOp36
 70
     1
102
RTVSPost2010Prop37
 90
       50
102
RTVSPost2010PropOp37
 70
     1
102
RTVSPost2010Prop38
140
0.0
102
RTVSPost2010PropOp38
 70
     1
102
RTVSPost2010Prop39
140
1.0
102
RTVSPost2010PropOp39
 70
     1
102
RTVSPost2010Prop40
 90
        0
102
RTVSPost2010PropOp40
 70
     1
102
RTVSPost2010Prop41ColorIndex
 90
       18
102
RTVSPost2010Prop41ColorRGB
 90
        0
102
RTVSPost2010PropOp41
 70
     1
102
RTVSPost2010Prop42
 90
       50
102
RTVSPost2010PropOp42
 70
     1
102
RTVSPost2010Prop43
 90
        3
102
RTVSPost2010PropOp43
 70
     1
102
RTVSPost2010Prop44ColorIndex
 90
        5
102
RTVSPost2010Prop44ColorRGB
 90
      255
102
RTVSPost2010PropOp44
 70
     1
102
RTVSPost2010Prop45
280
     0
102
RTVSPost2010PropOp45
 70
     1
102
RTVSPost2010Prop46
 90
       50
102
RTVSPost2010PropOp46
 70
     1
102
RTVSPost2010Prop47
 90
       50
102
RTVSPost2010PropOp47
 70
     1
102
RTVSPost2010Prop48
 90
       50
102
RTVSPost2010PropOp48
 70
     1
102
RTVSPost2010Prop49
280
     0
102
RTVSPost2010PropOp49
 70
     1
102
RTVSPost2010Prop50
 90
       50
102
RTVSPost2010PropOp50
 70
     1
102
RTVSPost2010Prop51ColorIndex
 90
      256
102
RTVSPost2010Prop51ColorRGB
 90
-16777216
102
RTVSPost2010PropOp51
 70
     0
102
RTVSPost2010Prop52
140
1.0
102
RTVSPost2010PropOp52
 70
     0
102
RTVSPost2010Prop53
 90
        2
102
RTVSPost2010PropOp53
 70
     1
102
RTVSPost2010Prop54
  1
strokes_ogs.tif
102
RTVSPost2010PropOp54
 70
     1
102
RTVSPost2010Prop55
280
     0
102
RTVSPost2010PropOp55
 70
     1
102
RTVSPost2010Prop56
140
1.0
102
RTVSPost2010PropOp56
 70
     1
102
RTVSPost2010Prop57
140
1.0
102
RTVSPost2010PropOp57
 70
     1
102
RTVSPropertyOp0
 70
     1
102
RTVSPropertyOp1
 70
     1
102
RTVSPropertyOp2
 70
     1
102
RTVSPropertyOp3
 70
     1
102
RTVSPropertyOp4
 70
     1
102
RTVSPropertyOp5
 70
     1
102
RTVSPropertyOp6
 70
     1
102
RTVSPropertyOp7
 70
     1
102
RTVSPropertyOp8
 70
     1
102
RTVSPropertyOp9
 70
     1
102
RTVSPropertyOp10
 70
     1
102
RTVSPropertyOp11
 70
     1
102
RTVSPropertyOp12
 70
     1
102
RTVSPropertyOp13
 70
     1
102
RTVSPropertyOp14
 70
     1
102
RTVSPropertyOp15
 70
     1
102
RTVSPropertyOp16
 70
     1
102
RTVSPropertyOp17
 70
     1
102
RTVSPropertyOp18
 70
     1
102
RTVSPropertyOp19
 70
     1
102
RTVSPropertyOp20
 70
     1
102
RTVSPropertyOp21
 70
     1
102
RTVSPropertyOp22
 70
     1
102
RTVSPropertyOp23
 70
     1
102
RTVSPropertyOp24
 70
     1
102
RTVSPropertyOp25
 70
     1
102
RTVSPropertyOp26
 70
     1
102
RTVSPropertyOp27
 70
     1
102
RTVSPropertyOp28
 70
     1
102
RTVSPropertyOp29
 70
     1
102
RTVSPropertyOp30
 70
     1
102
RTVSPropertyOp31
 70
     1
102
RTVSPropertyOp32
 70
     1
102
RTVSPropertyOp33
 70
     1
102
RTVSPropertyOp34
 70
     1
102
RTVSPropertyOp35
 70
     1
102
RTVSPropertyOp36
 70
     1
102
RTVSPropertyOp37
 70
     1
102
RTVSPropertyOp38
 70
     1
102
RTVSPropertyOp39
 70
     1
102
RTVSPropertyOp40
 70
     1
102
RTVSPropertyOp41
 70
     1
102
RTVSPropertyOp42
 70
     1
102
RTVSPropertyOp43
 70
     1
102
RTVSPropertyOp44
 70
     1
102
RTVSPropertyOp45
 70
     1
102
RTVSPropertyOp46
 70
     1
102
RTVSPropertyOp47
 70
     1
102
RTVSPropertyOp48
 70
     1
102
RTVSPropertyOp49
 70
     1
102
RTVSPropertyOp50
 70
     1
102
RTVSPropertyOp51
 70
     0
102
RTVSPropertyOp52
 70
     0
102
RTVSPropertyOp53
 70
     1
102
RTVSPropertyOp54
 70
     1
102
RTVSPropertyOp55
 70
     1
102
RTVSPropertyOp56
 70
     1
102
RTVSPropertyOp57
 70
     1
102
RTVSPropertyOp58
 70
     1
102
RTVSPropertyOp59
 70
     1
102
RTVSPropertyOp60
 70
     1
102
RTVSPropertyOp61
 70
     1
102
RTVSPropertyOp62
 70
     1
  0
XRECORD
  5
237FB
102
{ACAD_REACTORS
330
237FA
102
}
330
237FA
100
AcDbXrecord
280
     1
102
RTVSPost2010Prop28
280
     0
102
RTVSPost2010PropOp28
 70
     1
102
RTVSPost2010Prop29
280
     1
102
RTVSPost2010PropOp29
 70
     1
102
RTVSPost2010Prop30
280
     1
102
RTVSPost2010PropOp30
 70
     1
102
RTVSPost2010Prop31
280
     0
102
RTVSPost2010PropOp31
 70
     1
102
RTVSPost2010Prop32
280
     0
102
RTVSPost2010PropOp32
 70
     1
102
RTVSPost2010Prop33
280
     0
102
RTVSPost2010PropOp33
 70
     1
102
RTVSPost2010Prop34
280
     0
102
RTVSPost2010PropOp34
 70
     1
102
RTVSPost2010Prop35
280
     0
102
RTVSPost2010PropOp35
 70
     1
102
RTVSPost2010Prop36
280
     0
102
RTVSPost2010PropOp36
 70
     1
102
RTVSPost2010Prop37
 90
       50
102
RTVSPost2010PropOp37
 70
     1
102
RTVSPost2010Prop38
140
0.0
102
RTVSPost2010PropOp38
 70
     1
102
RTVSPost2010Prop39
140
1.0
102
RTVSPost2010PropOp39
 70
     1
102
RTVSPost2010Prop40
 90
        0
102
RTVSPost2010PropOp40
 70
     1
102
RTVSPost2010Prop41ColorIndex
 90
       18
102
RTVSPost2010Prop41ColorRGB
 90
        0
102
RTVSPost2010PropOp41
 70
     1
102
RTVSPost2010Prop42
 90
       50
102
RTVSPost2010PropOp42
 70
     1
102
RTVSPost2010Prop43
 90
        3
102
RTVSPost2010PropOp43
 70
     1
102
RTVSPost2010Prop44ColorIndex
 90
        5
102
RTVSPost2010Prop44ColorRGB
 90
      255
102
RTVSPost2010PropOp44
 70
     1
102
RTVSPost2010Prop45
280
     0
102
RTVSPost2010PropOp45
 70
     1
102
RTVSPost2010Prop46
 90
       50
102
RTVSPost2010PropOp46
 70
     1
102
RTVSPost2010Prop47
 90
       50
102
RTVSPost2010PropOp47
 70
     1
102
RTVSPost2010Prop48
 90
       50
102
RTVSPost2010PropOp48
 70
     1
102
RTVSPost2010Prop49
280
     0
102
RTVSPost2010PropOp49
 70
     1
102
RTVSPost2010Prop50
 90
       50
102
RTVSPost2010PropOp50
 70
     1
102
RTVSPost2010Prop51ColorIndex
 90
      256
102
RTVSPost2010Prop51ColorRGB
 90
-16777216
102
RTVSPost2010PropOp51
 70
     0
102
RTVSPost2010Prop52
140
1.0
102
RTVSPost2010PropOp52
 70
     0
102
RTVSPost2010Prop53
 90
        2
102
RTVSPost2010PropOp53
 70
     1
102
RTVSPost2010Prop54
  1
strokes_ogs.tif
102
RTVSPost2010PropOp54
 70
     1
102
RTVSPost2010Prop55
280
     0
102
RTVSPost2010PropOp55
 70
     1
102
RTVSPost2010Prop56
140
1.0
102
RTVSPost2010PropOp56
 70
     1
102
RTVSPost2010Prop57
140
1.0
102
RTVSPost2010PropOp57
 70
     1
102
RTVSPropertyOp0
 70
     1
102
RTVSPropertyOp1
 70
     1
102
RTVSPropertyOp2
 70
     1
102
RTVSPropertyOp3
 70
     1
102
RTVSPropertyOp4
 70
     1
102
RTVSPropertyOp5
 70
     1
102
RTVSPropertyOp6
 70
     1
102
RTVSPropertyOp7
 70
     1
102
RTVSPropertyOp8
 70
     1
102
RTVSPropertyOp9
 70
     1
102
RTVSPropertyOp10
 70
     1
102
RTVSPropertyOp11
 70
     1
102
RTVSPropertyOp12
 70
     1
102
RTVSPropertyOp13
 70
     1
102
RTVSPropertyOp14
 70
     1
102
RTVSPropertyOp15
 70
     1
102
RTVSPropertyOp16
 70
     1
102
RTVSPropertyOp17
 70
     1
102
RTVSPropertyOp18
 70
     1
102
RTVSPropertyOp19
 70
     1
102
RTVSPropertyOp20
 70
     1
102
RTVSPropertyOp21
 70
     1
102
RTVSPropertyOp22
 70
     1
102
RTVSPropertyOp23
 70
     1
102
RTVSPropertyOp24
 70
     1
102
RTVSPropertyOp25
 70
     1
102
RTVSPropertyOp26
 70
     1
102
RTVSPropertyOp27
 70
     1
102
RTVSPropertyOp28
 70
     1
102
RTVSPropertyOp29
 70
     1
102
RTVSPropertyOp30
 70
     1
102
RTVSPropertyOp31
 70
     1
102
RTVSPropertyOp32
 70
     1
102
RTVSPropertyOp33
 70
     1
102
RTVSPropertyOp34
 70
     1
102
RTVSPropertyOp35
 70
     1
102
RTVSPropertyOp36
 70
     1
102
RTVSPropertyOp37
 70
     1
102
RTVSPropertyOp38
 70
     1
102
RTVSPropertyOp39
 70
     1
102
RTVSPropertyOp40
 70
     1
102
RTVSPropertyOp41
 70
     1
102
RTVSPropertyOp42
 70
     1
102
RTVSPropertyOp43
 70
     1
102
RTVSPropertyOp44
 70
     1
102
RTVSPropertyOp45
 70
     1
102
RTVSPropertyOp46
 70
     1
102
RTVSPropertyOp47
 70
     1
102
RTVSPropertyOp48
 70
     1
102
RTVSPropertyOp49
 70
     1
102
RTVSPropertyOp50
 70
     1
102
RTVSPropertyOp51
 70
     0
102
RTVSPropertyOp52
 70
     0
102
RTVSPropertyOp53
 70
     1
102
RTVSPropertyOp54
 70
     1
102
RTVSPropertyOp55
 70
     1
102
RTVSPropertyOp56
 70
     1
102
RTVSPropertyOp57
 70
     1
102
RTVSPropertyOp58
 70
     1
102
RTVSPropertyOp59
 70
     1
102
RTVSPropertyOp60
 70
     1
102
RTVSPropertyOp61
 70
     1
102
RTVSPropertyOp62
 70
     1
  0
XRECORD
  5
237F5
102
{ACAD_REACTORS
330
237F4
102
}
330
237F4
100
AcDbXrecord
280
     1
102
RTVSPost2010Prop28
280
     0
102
RTVSPost2010PropOp28
 70
     1
102
RTVSPost2010Prop29
280
     1
102
RTVSPost2010PropOp29
 70
     1
102
RTVSPost2010Prop30
280
     1
102
RTVSPost2010PropOp30
 70
     1
102
RTVSPost2010Prop31
280
     0
102
RTVSPost2010PropOp31
 70
     1
102
RTVSPost2010Prop32
280
     0
102
RTVSPost2010PropOp32
 70
     1
102
RTVSPost2010Prop33
280
     0
102
RTVSPost2010PropOp33
 70
     1
102
RTVSPost2010Prop34
280
     0
102
RTVSPost2010PropOp34
 70
     1
102
RTVSPost2010Prop35
280
     0
102
RTVSPost2010PropOp35
 70
     1
102
RTVSPost2010Prop36
280
     0
102
RTVSPost2010PropOp36
 70
     1
102
RTVSPost2010Prop37
 90
       50
102
RTVSPost2010PropOp37
 70
     1
102
RTVSPost2010Prop38
140
0.0
102
RTVSPost2010PropOp38
 70
     1
102
RTVSPost2010Prop39
140
1.0
102
RTVSPost2010PropOp39
 70
     1
102
RTVSPost2010Prop40
 90
        0
102
RTVSPost2010PropOp40
 70
     1
102
RTVSPost2010Prop41ColorIndex
 90
       18
102
RTVSPost2010Prop41ColorRGB
 90
        0
102
RTVSPost2010PropOp41
 70
     1
102
RTVSPost2010Prop42
 90
       50
102
RTVSPost2010PropOp42
 70
     1
102
RTVSPost2010Prop43
 90
        3
102
RTVSPost2010PropOp43
 70
     1
102
RTVSPost2010Prop44ColorIndex
 90
        5
102
RTVSPost2010Prop44ColorRGB
 90
      255
102
RTVSPost2010PropOp44
 70
     1
102
RTVSPost2010Prop45
280
     0
102
RTVSPost2010PropOp45
 70
     1
102
RTVSPost2010Prop46
 90
       50
102
RTVSPost2010PropOp46
 70
     1
102
RTVSPost2010Prop47
 90
       50
102
RTVSPost2010PropOp47
 70
     1
102
RTVSPost2010Prop48
 90
       50
102
RTVSPost2010PropOp48
 70
     1
102
RTVSPost2010Prop49
280
     0
102
RTVSPost2010PropOp49
 70
     1
102
RTVSPost2010Prop50
 90
       50
102
RTVSPost2010PropOp50
 70
     1
102
RTVSPost2010Prop51ColorIndex
 90
      256
102
RTVSPost2010Prop51ColorRGB
 90
-16777216
102
RTVSPost2010PropOp51
 70
     0
102
RTVSPost2010Prop52
140
1.0
102
RTVSPost2010PropOp52
 70
     0
102
RTVSPost2010Prop53
 90
        2
102
RTVSPost2010PropOp53
 70
     1
102
RTVSPost2010Prop54
  1
strokes_ogs.tif
102
RTVSPost2010PropOp54
 70
     1
102
RTVSPost2010Prop55
280
     0
102
RTVSPost2010PropOp55
 70
     1
102
RTVSPost2010Prop56
140
1.0
102
RTVSPost2010PropOp56
 70
     1
102
RTVSPost2010Prop57
140
1.0
102
RTVSPost2010PropOp57
 70
     1
102
RTVSPropertyOp0
 70
     1
102
RTVSPropertyOp1
 70
     1
102
RTVSPropertyOp2
 70
     1
102
RTVSPropertyOp3
 70
     1
102
RTVSPropertyOp4
 70
     1
102
RTVSPropertyOp5
 70
     1
102
RTVSPropertyOp6
 70
     1
102
RTVSPropertyOp7
 70
     1
102
RTVSPropertyOp8
 70
     1
102
RTVSPropertyOp9
 70
     1
102
RTVSPropertyOp10
 70
     1
102
RTVSPropertyOp11
 70
     1
102
RTVSPropertyOp12
 70
     1
102
RTVSPropertyOp13
 70
     1
102
RTVSPropertyOp14
 70
     1
102
RTVSPropertyOp15
 70
     1
102
RTVSPropertyOp16
 70
     1
102
RTVSPropertyOp17
 70
     1
102
RTVSPropertyOp18
 70
     1
102
RTVSPropertyOp19
 70
     1
102
RTVSPropertyOp20
 70
     1
102
RTVSPropertyOp21
 70
     1
102
RTVSPropertyOp22
 70
     1
102
RTVSPropertyOp23
 70
     1
102
RTVSPropertyOp24
 70
     1
102
RTVSPropertyOp25
 70
     1
102
RTVSPropertyOp26
 70
     1
102
RTVSPropertyOp27
 70
     1
102
RTVSPropertyOp28
 70
     1
102
RTVSPropertyOp29
 70
     1
102
RTVSPropertyOp30
 70
     1
102
RTVSPropertyOp31
 70
     1
102
RTVSPropertyOp32
 70
     1
102
RTVSPropertyOp33
 70
     1
102
RTVSPropertyOp34
 70
     1
102
RTVSPropertyOp35
 70
     1
102
RTVSPropertyOp36
 70
     1
102
RTVSPropertyOp37
 70
     1
102
RTVSPropertyOp38
 70
     1
102
RTVSPropertyOp39
 70
     1
102
RTVSPropertyOp40
 70
     1
102
RTVSPropertyOp41
 70
     1
102
RTVSPropertyOp42
 70
     1
102
RTVSPropertyOp43
 70
     1
102
RTVSPropertyOp44
 70
     1
102
RTVSPropertyOp45
 70
     1
102
RTVSPropertyOp46
 70
     1
102
RTVSPropertyOp47
 70
     1
102
RTVSPropertyOp48
 70
     1
102
RTVSPropertyOp49
 70
     1
102
RTVSPropertyOp50
 70
     1
102
RTVSPropertyOp51
 70
     0
102
RTVSPropertyOp52
 70
     0
102
RTVSPropertyOp53
 70
     1
102
RTVSPropertyOp54
 70
     1
102
RTVSPropertyOp55
 70
     1
102
RTVSPropertyOp56
 70
     1
102
RTVSPropertyOp57
 70
     1
102
RTVSPropertyOp58
 70
     1
102
RTVSPropertyOp59
 70
     1
102
RTVSPropertyOp60
 70
     1
102
RTVSPropertyOp61
 70
     1
102
RTVSPropertyOp62
 70
     1
  0
XRECORD
  5
237F7
102
{ACAD_REACTORS
330
237F6
102
}
330
237F6
100
AcDbXrecord
280
     1
102
RTVSPost2010Prop28
280
     0
102
RTVSPost2010PropOp28
 70
     1
102
RTVSPost2010Prop29
280
     1
102
RTVSPost2010PropOp29
 70
     1
102
RTVSPost2010Prop30
280
     1
102
RTVSPost2010PropOp30
 70
     1
102
RTVSPost2010Prop31
280
     0
102
RTVSPost2010PropOp31
 70
     1
102
RTVSPost2010Prop32
280
     0
102
RTVSPost2010PropOp32
 70
     1
102
RTVSPost2010Prop33
280
     0
102
RTVSPost2010PropOp33
 70
     1
102
RTVSPost2010Prop34
280
     0
102
RTVSPost2010PropOp34
 70
     1
102
RTVSPost2010Prop35
280
     0
102
RTVSPost2010PropOp35
 70
     1
102
RTVSPost2010Prop36
280
     0
102
RTVSPost2010PropOp36
 70
     1
102
RTVSPost2010Prop37
 90
       50
102
RTVSPost2010PropOp37
 70
     1
102
RTVSPost2010Prop38
140
0.0
102
RTVSPost2010PropOp38
 70
     1
102
RTVSPost2010Prop39
140
1.0
102
RTVSPost2010PropOp39
 70
     1
102
RTVSPost2010Prop40
 90
        0
102
RTVSPost2010PropOp40
 70
     1
102
RTVSPost2010Prop41ColorIndex
 90
       18
102
RTVSPost2010Prop41ColorRGB
 90
        0
102
RTVSPost2010PropOp41
 70
     1
102
RTVSPost2010Prop42
 90
       50
102
RTVSPost2010PropOp42
 70
     1
102
RTVSPost2010Prop43
 90
        3
102
RTVSPost2010PropOp43
 70
     1
102
RTVSPost2010Prop44ColorIndex
 90
        5
102
RTVSPost2010Prop44ColorRGB
 90
      255
102
RTVSPost2010PropOp44
 70
     1
102
RTVSPost2010Prop45
280
     0
102
RTVSPost2010PropOp45
 70
     1
102
RTVSPost2010Prop46
 90
       50
102
RTVSPost2010PropOp46
 70
     1
102
RTVSPost2010Prop47
 90
       50
102
RTVSPost2010PropOp47
 70
     1
102
RTVSPost2010Prop48
 90
       50
102
RTVSPost2010PropOp48
 70
     1
102
RTVSPost2010Prop49
280
     0
102
RTVSPost2010PropOp49
 70
     1
102
RTVSPost2010Prop50
 90
       50
102
RTVSPost2010PropOp50
 70
     1
102
RTVSPost2010Prop51ColorIndex
 90
      256
102
RTVSPost2010Prop51ColorRGB
 90
-16777216
102
RTVSPost2010PropOp51
 70
     0
102
RTVSPost2010Prop52
140
1.0
102
RTVSPost2010PropOp52
 70
     0
102
RTVSPost2010Prop53
 90
        2
102
RTVSPost2010PropOp53
 70
     1
102
RTVSPost2010Prop54
  1
strokes_ogs.tif
102
RTVSPost2010PropOp54
 70
     1
102
RTVSPost2010Prop55
280
     0
102
RTVSPost2010PropOp55
 70
     1
102
RTVSPost2010Prop56
140
1.0
102
RTVSPost2010PropOp56
 70
     1
102
RTVSPost2010Prop57
140
1.0
102
RTVSPost2010PropOp57
 70
     1
102
RTVSPropertyOp0
 70
     1
102
RTVSPropertyOp1
 70
     1
102
RTVSPropertyOp2
 70
     1
102
RTVSPropertyOp3
 70
     1
102
RTVSPropertyOp4
 70
     1
102
RTVSPropertyOp5
 70
     1
102
RTVSPropertyOp6
 70
     1
102
RTVSPropertyOp7
 70
     1
102
RTVSPropertyOp8
 70
     1
102
RTVSPropertyOp9
 70
     1
102
RTVSPropertyOp10
 70
     1
102
RTVSPropertyOp11
 70
     1
102
RTVSPropertyOp12
 70
     1
102
RTVSPropertyOp13
 70
     1
102
RTVSPropertyOp14
 70
     1
102
RTVSPropertyOp15
 70
     1
102
RTVSPropertyOp16
 70
     1
102
RTVSPropertyOp17
 70
     1
102
RTVSPropertyOp18
 70
     1
102
RTVSPropertyOp19
 70
     1
102
RTVSPropertyOp20
 70
     1
102
RTVSPropertyOp21
 70
     1
102
RTVSPropertyOp22
 70
     1
102
RTVSPropertyOp23
 70
     1
102
RTVSPropertyOp24
 70
     1
102
RTVSPropertyOp25
 70
     1
102
RTVSPropertyOp26
 70
     1
102
RTVSPropertyOp27
 70
     1
102
RTVSPropertyOp28
 70
     1
102
RTVSPropertyOp29
 70
     1
102
RTVSPropertyOp30
 70
     1
102
RTVSPropertyOp31
 70
     1
102
RTVSPropertyOp32
 70
     1
102
RTVSPropertyOp33
 70
     1
102
RTVSPropertyOp34
 70
     1
102
RTVSPropertyOp35
 70
     1
102
RTVSPropertyOp36
 70
     1
102
RTVSPropertyOp37
 70
     1
102
RTVSPropertyOp38
 70
     1
102
RTVSPropertyOp39
 70
     1
102
RTVSPropertyOp40
 70
     1
102
RTVSPropertyOp41
 70
     1
102
RTVSPropertyOp42
 70
     1
102
RTVSPropertyOp43
 70
     1
102
RTVSPropertyOp44
 70
     1
102
RTVSPropertyOp45
 70
     1
102
RTVSPropertyOp46
 70
     1
102
RTVSPropertyOp47
 70
     1
102
RTVSPropertyOp48
 70
     1
102
RTVSPropertyOp49
 70
     1
102
RTVSPropertyOp50
 70
     1
102
RTVSPropertyOp51
 70
     0
102
RTVSPropertyOp52
 70
     0
102
RTVSPropertyOp53
 70
     1
102
RTVSPropertyOp54
 70
     1
102
RTVSPropertyOp55
 70
     1
102
RTVSPropertyOp56
 70
     1
102
RTVSPropertyOp57
 70
     1
102
RTVSPropertyOp58
 70
     1
102
RTVSPropertyOp59
 70
     1
102
RTVSPropertyOp60
 70
     1
102
RTVSPropertyOp61
 70
     1
102
RTVSPropertyOp62
 70
     1
  0
XRECORD
  5
237E0
102
{ACAD_REACTORS
330
237DF
102
}
330
237DF
100
AcDbXrecord
280
     1
102
RTVSPost2010Prop28
280
     0
102
RTVSPost2010PropOp28
 70
     1
102
RTVSPost2010Prop29
280
     1
102
RTVSPost2010PropOp29
 70
     1
102
RTVSPost2010Prop30
280
     1
102
RTVSPost2010PropOp30
 70
     1
102
RTVSPost2010Prop31
280
     0
102
RTVSPost2010PropOp31
 70
     1
102
RTVSPost2010Prop32
280
     0
102
RTVSPost2010PropOp32
 70
     1
102
RTVSPost2010Prop33
280
     0
102
RTVSPost2010PropOp33
 70
     1
102
RTVSPost2010Prop34
280
     0
102
RTVSPost2010PropOp34
 70
     1
102
RTVSPost2010Prop35
280
     0
102
RTVSPost2010PropOp35
 70
     1
102
RTVSPost2010Prop36
280
     0
102
RTVSPost2010PropOp36
 70
     1
102
RTVSPost2010Prop37
 90
       50
102
RTVSPost2010PropOp37
 70
     1
102
RTVSPost2010Prop38
140
0.0
102
RTVSPost2010PropOp38
 70
     1
102
RTVSPost2010Prop39
140
1.0
102
RTVSPost2010PropOp39
 70
     1
102
RTVSPost2010Prop40
 90
        0
102
RTVSPost2010PropOp40
 70
     1
102
RTVSPost2010Prop41ColorIndex
 90
       18
102
RTVSPost2010Prop41ColorRGB
 90
        0
102
RTVSPost2010PropOp41
 70
     1
102
RTVSPost2010Prop42
 90
       50
102
RTVSPost2010PropOp42
 70
     1
102
RTVSPost2010Prop43
 90
        3
102
RTVSPost2010PropOp43
 70
     1
102
RTVSPost2010Prop44ColorIndex
 90
        5
102
RTVSPost2010Prop44ColorRGB
 90
      255
102
RTVSPost2010PropOp44
 70
     1
102
RTVSPost2010Prop45
280
     0
102
RTVSPost2010PropOp45
 70
     1
102
RTVSPost2010Prop46
 90
       50
102
RTVSPost2010PropOp46
 70
     1
102
RTVSPost2010Prop47
 90
       50
102
RTVSPost2010PropOp47
 70
     1
102
RTVSPost2010Prop48
 90
       50
102
RTVSPost2010PropOp48
 70
     1
102
RTVSPost2010Prop49
280
     0
102
RTVSPost2010PropOp49
 70
     1
102
RTVSPost2010Prop50
 90
       50
102
RTVSPost2010PropOp50
 70
     1
102
RTVSPost2010Prop51ColorIndex
 90
      256
102
RTVSPost2010Prop51ColorRGB
 90
-16777216
102
RTVSPost2010PropOp51
 70
     0
102
RTVSPost2010Prop52
140
1.0
102
RTVSPost2010PropOp52
 70
     0
102
RTVSPost2010Prop53
 90
        2
102
RTVSPost2010PropOp53
 70
     1
102
RTVSPost2010Prop54
  1
strokes_ogs.tif
102
RTVSPost2010PropOp54
 70
     1
102
RTVSPost2010Prop55
280
     0
102
RTVSPost2010PropOp55
 70
     1
102
RTVSPost2010Prop56
140
1.0
102
RTVSPost2010PropOp56
 70
     1
102
RTVSPost2010Prop57
140
1.0
102
RTVSPost2010PropOp57
 70
     1
102
RTVSPropertyOp0
 70
     1
102
RTVSPropertyOp1
 70
     1
102
RTVSPropertyOp2
 70
     1
102
RTVSPropertyOp3
 70
     1
102
RTVSPropertyOp4
 70
     1
102
RTVSPropertyOp5
 70
     1
102
RTVSPropertyOp6
 70
     1
102
RTVSPropertyOp7
 70
     1
102
RTVSPropertyOp8
 70
     1
102
RTVSPropertyOp9
 70
     1
102
RTVSPropertyOp10
 70
     1
102
RTVSPropertyOp11
 70
     1
102
RTVSPropertyOp12
 70
     1
102
RTVSPropertyOp13
 70
     1
102
RTVSPropertyOp14
 70
     1
102
RTVSPropertyOp15
 70
     1
102
RTVSPropertyOp16
 70
     1
102
RTVSPropertyOp17
 70
     1
102
RTVSPropertyOp18
 70
     1
102
RTVSPropertyOp19
 70
     1
102
RTVSPropertyOp20
 70
     1
102
RTVSPropertyOp21
 70
     1
102
RTVSPropertyOp22
 70
     1
102
RTVSPropertyOp23
 70
     1
102
RTVSPropertyOp24
 70
     1
102
RTVSPropertyOp25
 70
     1
102
RTVSPropertyOp26
 70
     1
102
RTVSPropertyOp27
 70
     1
102
RTVSPropertyOp28
 70
     1
102
RTVSPropertyOp29
 70
     1
102
RTVSPropertyOp30
 70
     1
102
RTVSPropertyOp31
 70
     1
102
RTVSPropertyOp32
 70
     1
102
RTVSPropertyOp33
 70
     1
102
RTVSPropertyOp34
 70
     1
102
RTVSPropertyOp35
 70
     1
102
RTVSPropertyOp36
 70
     1
102
RTVSPropertyOp37
 70
     1
102
RTVSPropertyOp38
 70
     1
102
RTVSPropertyOp39
 70
     1
102
RTVSPropertyOp40
 70
     1
102
RTVSPropertyOp41
 70
     1
102
RTVSPropertyOp42
 70
     1
102
RTVSPropertyOp43
 70
     1
102
RTVSPropertyOp44
 70
     1
102
RTVSPropertyOp45
 70
     1
102
RTVSPropertyOp46
 70
     1
102
RTVSPropertyOp47
 70
     1
102
RTVSPropertyOp48
 70
     1
102
RTVSPropertyOp49
 70
     1
102
RTVSPropertyOp50
 70
     1
102
RTVSPropertyOp51
 70
     0
102
RTVSPropertyOp52
 70
     0
102
RTVSPropertyOp53
 70
     1
102
RTVSPropertyOp54
 70
     1
102
RTVSPropertyOp55
 70
     1
102
RTVSPropertyOp56
 70
     1
102
RTVSPropertyOp57
 70
     1
102
RTVSPropertyOp58
 70
     1
102
RTVSPropertyOp59
 70
     1
102
RTVSPropertyOp60
 70
     1
102
RTVSPropertyOp61
 70
     1
102
RTVSPropertyOp62
 70
     1
  0
XRECORD
  5
237F1
102
{ACAD_REACTORS
330
237F0
102
}
330
237F0
100
AcDbXrecord
280
     1
102
RTVSPost2010Prop28
280
     0
102
RTVSPost2010PropOp28
 70
     1
102
RTVSPost2010Prop29
280
     1
102
RTVSPost2010PropOp29
 70
     1
102
RTVSPost2010Prop30
280
     1
102
RTVSPost2010PropOp30
 70
     1
102
RTVSPost2010Prop31
280
     0
102
RTVSPost2010PropOp31
 70
     1
102
RTVSPost2010Prop32
280
     0
102
RTVSPost2010PropOp32
 70
     1
102
RTVSPost2010Prop33
280
     0
102
RTVSPost2010PropOp33
 70
     1
102
RTVSPost2010Prop34
280
     0
102
RTVSPost2010PropOp34
 70
     1
102
RTVSPost2010Prop35
280
     0
102
RTVSPost2010PropOp35
 70
     1
102
RTVSPost2010Prop36
280
     0
102
RTVSPost2010PropOp36
 70
     1
102
RTVSPost2010Prop37
 90
       50
102
RTVSPost2010PropOp37
 70
     1
102
RTVSPost2010Prop38
140
0.0
102
RTVSPost2010PropOp38
 70
     1
102
RTVSPost2010Prop39
140
1.0
102
RTVSPost2010PropOp39
 70
     1
102
RTVSPost2010Prop40
 90
        0
102
RTVSPost2010PropOp40
 70
     1
102
RTVSPost2010Prop41ColorIndex
 90
       18
102
RTVSPost2010Prop41ColorRGB
 90
        0
102
RTVSPost2010PropOp41
 70
     1
102
RTVSPost2010Prop42
 90
       50
102
RTVSPost2010PropOp42
 70
     1
102
RTVSPost2010Prop43
 90
        3
102
RTVSPost2010PropOp43
 70
     1
102
RTVSPost2010Prop44ColorIndex
 90
        5
102
RTVSPost2010Prop44ColorRGB
 90
      255
102
RTVSPost2010PropOp44
 70
     1
102
RTVSPost2010Prop45
280
     0
102
RTVSPost2010PropOp45
 70
     1
102
RTVSPost2010Prop46
 90
       50
102
RTVSPost2010PropOp46
 70
     1
102
RTVSPost2010Prop47
 90
       50
102
RTVSPost2010PropOp47
 70
     1
102
RTVSPost2010Prop48
 90
       50
102
RTVSPost2010PropOp48
 70
     1
102
RTVSPost2010Prop49
280
     0
102
RTVSPost2010PropOp49
 70
     1
102
RTVSPost2010Prop50
 90
       50
102
RTVSPost2010PropOp50
 70
     1
102
RTVSPost2010Prop51ColorIndex
 90
      256
102
RTVSPost2010Prop51ColorRGB
 90
-16777216
102
RTVSPost2010PropOp51
 70
     0
102
RTVSPost2010Prop52
140
1.0
102
RTVSPost2010PropOp52
 70
     0
102
RTVSPost2010Prop53
 90
        2
102
RTVSPost2010PropOp53
 70
     1
102
RTVSPost2010Prop54
  1
strokes_ogs.tif
102
RTVSPost2010PropOp54
 70
     1
102
RTVSPost2010Prop55
280
     0
102
RTVSPost2010PropOp55
 70
     1
102
RTVSPost2010Prop56
140
1.0
102
RTVSPost2010PropOp56
 70
     1
102
RTVSPost2010Prop57
140
1.0
102
RTVSPost2010PropOp57
 70
     1
102
RTVSPropertyOp0
 70
     1
102
RTVSPropertyOp1
 70
     1
102
RTVSPropertyOp2
 70
     1
102
RTVSPropertyOp3
 70
     1
102
RTVSPropertyOp4
 70
     1
102
RTVSPropertyOp5
 70
     1
102
RTVSPropertyOp6
 70
     1
102
RTVSPropertyOp7
 70
     1
102
RTVSPropertyOp8
 70
     1
102
RTVSPropertyOp9
 70
     1
102
RTVSPropertyOp10
 70
     1
102
RTVSPropertyOp11
 70
     1
102
RTVSPropertyOp12
 70
     1
102
RTVSPropertyOp13
 70
     1
102
RTVSPropertyOp14
 70
     1
102
RTVSPropertyOp15
 70
     1
102
RTVSPropertyOp16
 70
     1
102
RTVSPropertyOp17
 70
     1
102
RTVSPropertyOp18
 70
     1
102
RTVSPropertyOp19
 70
     1
102
RTVSPropertyOp20
 70
     1
102
RTVSPropertyOp21
 70
     1
102
RTVSPropertyOp22
 70
     1
102
RTVSPropertyOp23
 70
     1
102
RTVSPropertyOp24
 70
     1
102
RTVSPropertyOp25
 70
     1
102
RTVSPropertyOp26
 70
     1
102
RTVSPropertyOp27
 70
     1
102
RTVSPropertyOp28
 70
     1
102
RTVSPropertyOp29
 70
     1
102
RTVSPropertyOp30
 70
     1
102
RTVSPropertyOp31
 70
     1
102
RTVSPropertyOp32
 70
     1
102
RTVSPropertyOp33
 70
     1
102
RTVSPropertyOp34
 70
     1
102
RTVSPropertyOp35
 70
     1
102
RTVSPropertyOp36
 70
     1
102
RTVSPropertyOp37
 70
     1
102
RTVSPropertyOp38
 70
     1
102
RTVSPropertyOp39
 70
     1
102
RTVSPropertyOp40
 70
     1
102
RTVSPropertyOp41
 70
     1
102
RTVSPropertyOp42
 70
     1
102
RTVSPropertyOp43
 70
     1
102
RTVSPropertyOp44
 70
     1
102
RTVSPropertyOp45
 70
     1
102
RTVSPropertyOp46
 70
     1
102
RTVSPropertyOp47
 70
     1
102
RTVSPropertyOp48
 70
     1
102
RTVSPropertyOp49
 70
     1
102
RTVSPropertyOp50
 70
     1
102
RTVSPropertyOp51
 70
     0
102
RTVSPropertyOp52
 70
     0
102
RTVSPropertyOp53
 70
     1
102
RTVSPropertyOp54
 70
     1
102
RTVSPropertyOp55
 70
     1
102
RTVSPropertyOp56
 70
     1
102
RTVSPropertyOp57
 70
     1
102
RTVSPropertyOp58
 70
     1
102
RTVSPropertyOp59
 70
     1
102
RTVSPropertyOp60
 70
     1
102
RTVSPropertyOp61
 70
     1
102
RTVSPropertyOp62
 70
     1
  0
XRECORD
  5
237F9
102
{ACAD_REACTORS
330
237F8
102
}
330
237F8
100
AcDbXrecord
280
     1
102
RTVSPost2010Prop28
280
     0
102
RTVSPost2010PropOp28
 70
     1
102
RTVSPost2010Prop29
280
     1
102
RTVSPost2010PropOp29
 70
     1
102
RTVSPost2010Prop30
280
     1
102
RTVSPost2010PropOp30
 70
     1
102
RTVSPost2010Prop31
280
     0
102
RTVSPost2010PropOp31
 70
     1
102
RTVSPost2010Prop32
280
     0
102
RTVSPost2010PropOp32
 70
     1
102
RTVSPost2010Prop33
280
     0
102
RTVSPost2010PropOp33
 70
     1
102
RTVSPost2010Prop34
280
     0
102
RTVSPost2010PropOp34
 70
     1
102
RTVSPost2010Prop35
280
     0
102
RTVSPost2010PropOp35
 70
     1
102
RTVSPost2010Prop36
280
     0
102
RTVSPost2010PropOp36
 70
     1
102
RTVSPost2010Prop37
 90
       50
102
RTVSPost2010PropOp37
 70
     1
102
RTVSPost2010Prop38
140
0.0
102
RTVSPost2010PropOp38
 70
     1
102
RTVSPost2010Prop39
140
1.0
102
RTVSPost2010PropOp39
 70
     1
102
RTVSPost2010Prop40
 90
        0
102
RTVSPost2010PropOp40
 70
     1
102
RTVSPost2010Prop41ColorIndex
 90
       18
102
RTVSPost2010Prop41ColorRGB
 90
        0
102
RTVSPost2010PropOp41
 70
     1
102
RTVSPost2010Prop42
 90
       50
102
RTVSPost2010PropOp42
 70
     1
102
RTVSPost2010Prop43
 90
        3
102
RTVSPost2010PropOp43
 70
     1
102
RTVSPost2010Prop44ColorIndex
 90
        5
102
RTVSPost2010Prop44ColorRGB
 90
      255
102
RTVSPost2010PropOp44
 70
     1
102
RTVSPost2010Prop45
280
     0
102
RTVSPost2010PropOp45
 70
     1
102
RTVSPost2010Prop46
 90
       50
102
RTVSPost2010PropOp46
 70
     1
102
RTVSPost2010Prop47
 90
       50
102
RTVSPost2010PropOp47
 70
     1
102
RTVSPost2010Prop48
 90
       50
102
RTVSPost2010PropOp48
 70
     1
102
RTVSPost2010Prop49
280
     0
102
RTVSPost2010PropOp49
 70
     1
102
RTVSPost2010Prop50
 90
       50
102
RTVSPost2010PropOp50
 70
     1
102
RTVSPost2010Prop51ColorIndex
 90
      256
102
RTVSPost2010Prop51ColorRGB
 90
-16777216
102
RTVSPost2010PropOp51
 70
     0
102
RTVSPost2010Prop52
140
1.0
102
RTVSPost2010PropOp52
 70
     0
102
RTVSPost2010Prop53
 90
        2
102
RTVSPost2010PropOp53
 70
     1
102
RTVSPost2010Prop54
  1
strokes_ogs.tif
102
RTVSPost2010PropOp54
 70
     1
102
RTVSPost2010Prop55
280
     0
102
RTVSPost2010PropOp55
 70
     1
102
RTVSPost2010Prop56
140
1.0
102
RTVSPost2010PropOp56
 70
     1
102
RTVSPost2010Prop57
140
1.0
102
RTVSPost2010PropOp57
 70
     1
102
RTVSPropertyOp0
 70
     1
102
RTVSPropertyOp1
 70
     1
102
RTVSPropertyOp2
 70
     1
102
RTVSPropertyOp3
 70
     1
102
RTVSPropertyOp4
 70
     1
102
RTVSPropertyOp5
 70
     1
102
RTVSPropertyOp6
 70
     1
102
RTVSPropertyOp7
 70
     1
102
RTVSPropertyOp8
 70
     1
102
RTVSPropertyOp9
 70
     1
102
RTVSPropertyOp10
 70
     1
102
RTVSPropertyOp11
 70
     1
102
RTVSPropertyOp12
 70
     1
102
RTVSPropertyOp13
 70
     1
102
RTVSPropertyOp14
 70
     1
102
RTVSPropertyOp15
 70
     1
102
RTVSPropertyOp16
 70
     1
102
RTVSPropertyOp17
 70
     1
102
RTVSPropertyOp18
 70
     1
102
RTVSPropertyOp19
 70
     1
102
RTVSPropertyOp20
 70
     1
102
RTVSPropertyOp21
 70
     1
102
RTVSPropertyOp22
 70
     1
102
RTVSPropertyOp23
 70
     1
102
RTVSPropertyOp24
 70
     1
102
RTVSPropertyOp25
 70
     1
102
RTVSPropertyOp26
 70
     1
102
RTVSPropertyOp27
 70
     1
102
RTVSPropertyOp28
 70
     1
102
RTVSPropertyOp29
 70
     1
102
RTVSPropertyOp30
 70
     1
102
RTVSPropertyOp31
 70
     1
102
RTVSPropertyOp32
 70
     1
102
RTVSPropertyOp33
 70
     1
102
RTVSPropertyOp34
 70
     1
102
RTVSPropertyOp35
 70
     1
102
RTVSPropertyOp36
 70
     1
102
RTVSPropertyOp37
 70
     1
102
RTVSPropertyOp38
 70
     1
102
RTVSPropertyOp39
 70
     1
102
RTVSPropertyOp40
 70
     1
102
RTVSPropertyOp41
 70
     1
102
RTVSPropertyOp42
 70
     1
102
RTVSPropertyOp43
 70
     1
102
RTVSPropertyOp44
 70
     1
102
RTVSPropertyOp45
 70
     1
102
RTVSPropertyOp46
 70
     1
102
RTVSPropertyOp47
 70
     1
102
RTVSPropertyOp48
 70
     1
102
RTVSPropertyOp49
 70
     1
102
RTVSPropertyOp50
 70
     1
102
RTVSPropertyOp51
 70
     0
102
RTVSPropertyOp52
 70
     0
102
RTVSPropertyOp53
 70
     1
102
RTVSPropertyOp54
 70
     1
102
RTVSPropertyOp55
 70
     1
102
RTVSPropertyOp56
 70
     1
102
RTVSPropertyOp57
 70
     1
102
RTVSPropertyOp58
 70
     1
102
RTVSPropertyOp59
 70
     1
102
RTVSPropertyOp60
 70
     1
102
RTVSPropertyOp61
 70
     1
102
RTVSPropertyOp62
 70
     1
  0
ENDSEC
  0
EOF
