  0
SECTION
  2
HEADER
  9
$ACADVER
  1
AC1014
  9
$ACADMAINTVER
 70
     9
  9
$DWGCODEPAGE
  3
ANSI_1252
  9
$INSBASE
 10
0.0
 20
0.0
 30
0.0
  9
$EXTMIN
 10
-61.87982760499437
 20
-28.08597788469501
 30
-0.0000000000000053
  9
$EXTMAX
 10
54.72070282674735
 20
79.84943178104583
 30
0.0000000000000099
  9
$LIMMIN
 10
0.0
 20
0.0
  9
$LIMMAX
 10
210.0
 20
297.0
  9
$ORTHOMODE
 70
     0
  9
$REGENMODE
 70
     1
  9
$FILLMODE
 70
     1
  9
$QTEXTMODE
 70
     0
  9
$MIRRTEXT
 70
     1
  9
$DRAGMODE
 70
     2
  9
$LTSCALE
 40
1.0
  9
$OSMODE
 70
  2599
  9
$ATTMODE
 70
     1
  9
$TEXTSIZE
 40
2.5
  9
$TRACEWID
 40
1.0
  9
$TEXTSTYLE
  7
STANDARD
  9
$CLAYER
  8
0
  9
$CELTYPE
  6
BYLAYER
  9
$CECOLOR
 62
   256
  9
$CELTSCALE
 40
1.0
  9
$DELOBJ
 70
     1
  9
$DISPSILH
 70
     0
  9
$DIMSCALE
 40
1.0
  9
$DIMASZ
 40
2.5
  9
$DIMEXO
 40
0.0
  9
$DIMDLI
 40
10.0
  9
$DIMRND
 40
0.0
  9
$DIMDLE
 40
0.0
  9
$DIMEXE
 40
1.0
  9
$DIMTP
 40
0.1
  9
$DIMTM
 40
0.1
  9
$DIMTXT
 40
3.5
  9
$DIMCEN
 40
0.0
  9
$DIMTSZ
 40
0.0
  9
$DIMTOL
 70
     0
  9
$DIMLIM
 70
     0
  9
$DIMTIH
 70
     0
  9
$DIMTOH
 70
     0
  9
$DIMSE1
 70
     0
  9
$DIMSE2
 70
     0
  9
$DIMTAD
 70
     1
  9
$DIMZIN
 70
     8
  9
$DIMBLK
  1

  9
$DIMASO
 70
     1
  9
$DIMSHO
 70
     1
  9
$DIMPOST
  1

  9
$DIMAPOST
  1
"
  9
$DIMALT
 70
     0
  9
$DIMALTD
 70
     2
  9
$DIMALTF
 40
0.0393701
  9
$DIMLFAC
 40
1.0
  9
$DIMTOFL
 70
     1
  9
$DIMTVP
 40
0.0
  9
$DIMTIX
 70
     0
  9
$DIMSOXD
 70
     0
  9
$DIMSAH
 70
     0
  9
$DIMBLK1
  1

  9
$DIMBLK2
  1

  9
$DIMSTYLE
  2
AM_DIN
  9
$DIMCLRD
 70
   256
  9
$DIMCLRE
 70
   256
  9
$DIMCLRT
 70
     2
  9
$DIMTFAC
 40
0.71
  9
$DIMGAP
 40
1.5
  9
$DIMJUST
 70
     0
  9
$DIMSD1
 70
     0
  9
$DIMSD2
 70
     0
  9
$DIMTOLJ
 70
     1
  9
$DIMTZIN
 70
     8
  9
$DIMALTZ
 70
     8
  9
$DIMALTTZ
 70
     8
  9
$DIMFIT
 70
     5
  9
$DIMUPT
 70
     0
  9
$DIMUNIT
 70
     2
  9
$DIMDEC
 70
     2
  9
$DIMTDEC
 70
     2
  9
$DIMALTU
 70
     2
  9
$DIMALTTD
 70
     2
  9
$DIMTXSTY
  7
STANDARD
  9
$DIMAUNIT
 70
     0
  9
$LUNITS
 70
     2
  9
$LUPREC
 70
     2
  9
$SKETCHINC
 40
1.0
  9
$FILLETRAD
 40
2.5
  9
$AUNITS
 70
     0
  9
$AUPREC
 70
     0
  9
$MENU
  1
.
  9
$ELEVATION
 40
0.0
  9
$PELEVATION
 40
0.0
  9
$THICKNESS
 40
0.0
  9
$LIMCHECK
 70
     0
  9
$BLIPMODE
 70
     0
  9
$CHAMFERA
 40
2.5
  9
$CHAMFERB
 40
2.5
  9
$CHAMFERC
 40
0.0
  9
$CHAMFERD
 40
0.0
  9
$SKPOLY
 70
     0
  9
$TDCREATE
 40
2453447.471737477
  9
$TDUPDATE
 40
2453594.352218738
  9
$TDINDWG
 40
0.1828948727
  9
$TDUSRTIMER
 40
0.1828705324
  9
$USRTIMER
 70
     1
  9
$ANGBASE
 50
0.0
  9
$ANGDIR
 70
     0
  9
$PDMODE
 70
     0
  9
$PDSIZE
 40
0.0
  9
$PLINEWID
 40
0.0
  9
$COORDS
 70
     0
  9
$SPLFRAME
 70
     0
  9
$SPLINETYPE
 70
     6
  9
$SPLINESEGS
 70
     8
  9
$ATTDIA
 70
     1
  9
$ATTREQ
 70
     1
  9
$HANDLING
 70
 22529
  9
$HANDSEED
  5
8EFE
  9
$SURFTAB1
 70
     6
  9
$SURFTAB2
 70
     6
  9
$SURFTYPE
 70
     6
  9
$SURFU
 70
     6
  9
$SURFV
 70
     6
  9
$UCSNAME
  2

  9
$UCSORG
 10
0.0
 20
0.0
 30
0.0
  9
$UCSXDIR
 10
1.0
 20
0.0
 30
0.0
  9
$UCSYDIR
 10
0.0
 20
1.0
 30
0.0
  9
$PUCSNAME
  2

  9
$PUCSORG
 10
0.0
 20
0.0
 30
0.0
  9
$PUCSXDIR
 10
1.0
 20
0.0
 30
0.0
  9
$PUCSYDIR
 10
0.0
 20
1.0
 30
0.0
  9
$USERI1
 70
     0
  9
$USERI2
 70
     0
  9
$USERI3
 70
     0
  9
$USERI4
 70
     0
  9
$USERI5
 70
     0
  9
$USERR1
 40
0.0
  9
$USERR2
 40
0.0
  9
$USERR3
 40
0.0
  9
$USERR4
 40
0.0
  9
$USERR5
 40
0.0
  9
$WORLDVIEW
 70
     1
  9
$SHADEDGE
 70
     3
  9
$SHADEDIF
 70
    70
  9
$TILEMODE
 70
     1
  9
$MAXACTVP
 70
    64
  9
$PINSBASE
 10
0.0
 20
0.0
 30
0.0
  9
$PLIMCHECK
 70
     0
  9
$PEXTMIN
 10
1.000000000000000E+20
 20
1.000000000000000E+20
 30
1.000000000000000E+20
  9
$PEXTMAX
 10
-1.000000000000000E+20
 20
-1.000000000000000E+20
 30
-1.000000000000000E+20
  9
$PLIMMIN
 10
0.0
 20
0.0
  9
$PLIMMAX
 10
420.0
 20
297.0
  9
$UNITMODE
 70
     0
  9
$VISRETAIN
 70
     1
  9
$PLINEGEN
 70
     0
  9
$PSLTSCALE
 70
     1
  9
$TREEDEPTH
 70
  3020
  9
$PICKSTYLE
 70
     0
  9
$CMLSTYLE
  2
STANDARD
  9
$CMLJUST
 70
     0
  9
$CMLSCALE
 40
1.0
  9
$PROXYGRAPHICS
 70
     1
  9
$MEASUREMENT
 70
     1
  0
ENDSEC
  0
SECTION
  2
CLASSES
  0
CLASS
  1
ACDBDICTIONARYWDFLT
  2
AcDbDictionaryWithDefault
  3
AutoCAD 2000
 90
        0
280
     0
281
     0
  0
CLASS
  1
ACDBPLACEHOLDER
  2
AcDbPlaceHolder
  3
AutoCAD 2000
 90
        0
280
     0
281
     0
  0
CLASS
  1
LAYOUT
  2
AcDbLayout
  3
AutoCAD 2000
 90
        0
280
     0
281
     0
  0
CLASS
  1
AMGSETTINGSOBJ
  2
AmgSettingsObj
  3
"AcadM|Product Description: AutoCAD Mechanical 2000|Company: Autodesk"
 90
        0
280
     0
281
     0
  0
CLASS
  1
ACME_DOCUMENT
  2
AcMeDbDoc
  3
AcMeServices
 90
        0
280
     0
281
     0
  0
CLASS
  1
ACMESCOPE
  2
AcMeScope
  3
AcMeServices
 90
        0
280
     0
281
     0
  0
CLASS
  1
ACMECOMMANDHISTORY
  2
AcMeCommandHistory
  3
AcMeServices
 90
        0
280
     0
281
     0
  0
CLASS
  1
ACIMSYSVARMAN
  2
AcImSysVarManager
  3
AcMeServices
 90
        0
280
     0
281
     0
  0
CLASS
  1
ACIMREALSYSVAR
  2
AcImRealSysVar
  3
AcMeServices
 90
        0
280
     0
281
     0
  0
CLASS
  1
ACIMINTSYSVAR
  2
AcImIntSysVar
  3
AcMeServices
 90
        0
280
     0
281
     0
  0
CLASS
  1
ACMEDRAWINGMAN
  2
AcMeDrawingMan
  3
AcMeServices
 90
        0
280
     0
281
     0
  0
CLASS
  1
ACMEVIEW
  2
AcMeView
  3
AcMeServices
 90
        0
280
     0
281
     0
  0
CLASS
  1
ACDBENTITYCACHE
  2
AcMeEntityCache
  3
AcMeServices
 90
        0
280
     0
281
     0
  0
CLASS
  1
GSMANAGER
  2
AcMeGSManager
  3
AcMeServices
 90
        0
280
     0
281
     0
  0
CLASS
  1
AMDTINTERNALREACTOR
  2
AmdtInternalReactor
  3
AcMeServices
 90
        0
280
     0
281
     0
  0
CLASS
  1
ACMESTATEMGR
  2
AcMeStateMgr
  3
AcMeServices
 90
        0
280
     0
281
     0
  0
CLASS
  1
ACGREFMASTER
  2
AcGrefMaster
  3
AcAttribServices
 90
        0
280
     0
281
     0
  0
CLASS
  1
ACME_DATABASE
  2
AcMeDbDatabase
  3
AcMeServices
 90
        0
280
     0
281
     0
  0
CLASS
  1
ACRFINSADJUSTERMGR
  2
AcRfInsAdjusterMgr
  3
AcMeServices
 90
        0
280
     0
281
     0
  0
CLASS
  1
ACGREFACADMASTER
  2
AcGrefacadMaster
  3
AcGrefServices
 90
        0
280
     0
281
     0
  0
CLASS
  1
AMIMASTER
  2
AmiMaster
  3
AmiServices
 90
        0
280
     0
281
     0
  0
CLASS
  1
ACMDATADICTIONARY
  2
AcmDataDictionary
  3
"AcmSymBB|Product Description: AutoCAD Mechanical 2000|Company: Autodesk"
 90
        0
280
     0
281
     0
  0
CLASS
  1
ACMDATAENTRYBLOCK
  2
AcmDataEntryBlock
  3
"AcmSymBB|Product Description: AutoCAD Mechanical 2000|Company: Autodesk"
 90
        0
280
     0
281
     0
  0
CLASS
  1
ACIMSTRSYSVAR
  2
AcImStrSysVar
  3
AcMeServices
 90
        0
280
     0
281
     0
  0
CLASS
  1
ACMSTANDARDANSI
  2
AcmStandardANSI
  3
"Amdt_StdImp|Product Description: AutoCAD Mechanical 2000|Company: Autodesk"
 90
        0
280
     0
281
     0
  0
CLASS
  1
AMGOBJPROPCFG
  2
AmgObjPropCfg
  3
"AmgLay|Product Description: AutoCAD Mechanical 2000|Company: Autodesk"
 90
        1
280
     0
281
     0
  0
CLASS
  1
ACMSURFSTANDARDANSI
  2
AcmSurfTextStdANSI
  3
"Amdt_StdImp|Product Description: AutoCAD Mechanical 2000|Company: Autodesk"
 90
        0
280
     0
281
     0
  0
CLASS
  1
ACMFCFSTANDARDANSI
  2
AcmFCFStdANSI
  3
"Amdt_StdImp|Product Description: AutoCAD Mechanical 2000|Company: Autodesk"
 90
        0
280
     0
281
     0
  0
CLASS
  1
ACMWELDSTANDARDANSI
  2
AcmWeldingStdANSI
  3
"Amdt_StdImp|Product Description: AutoCAD Mechanical 2000|Company: Autodesk"
 90
        0
280
     0
281
     0
  0
CLASS
  1
ACMIDSTANDARDANSI
  2
AcmIdStdANSI
  3
"Amdt_StdImp|Product Description: AutoCAD Mechanical 2000|Company: Autodesk"
 90
        0
280
     0
281
     0
  0
CLASS
  1
ACMDATUMSTANDARDANSI
  2
AcmDatumStdANSI
  3
"Amdt_StdImp|Product Description: AutoCAD Mechanical 2000|Company: Autodesk"
 90
        0
280
     0
281
     0
  0
CLASS
  1
ACMBOMSTANDARDANSI
  2
AcmBOMStdANSI
  3
"Amdt_StdImp|Product Description: AutoCAD Mechanical 2000|Company: Autodesk"
 90
        0
280
     0
281
     0
  0
CLASS
  1
ACMDETAILSTANDARDANSI
  2
AmdtDetailSymStdANSI
  3
"Amdt_StdImp|Product Description: AutoCAD Mechanical 2000|Company: Autodesk"
 90
        0
280
     0
281
     0
  0
CLASS
  1
ACMSECTIONSTANDARDANSI
  2
AmdtSectionSymStdANSI
  3
"Amdt_StdImp|Product Description: AutoCAD Mechanical 2000|Company: Autodesk"
 90
        0
280
     0
281
     0
  0
CLASS
  1
ACMCENTERLINESTANDARDANSI
  2
AmdtCenterLineStdANSI
  3
"Amdt_StdImp|Product Description: AutoCAD Mechanical 2000|Company: Autodesk"
 90
        0
280
     0
281
     0
  0
CLASS
  1
ACMNOTESTANDARDANSI
  2
AmdtNoteStdANSI
  3
"Amdt_StdImp|Product Description: AutoCAD Mechanical 2000|Company: Autodesk"
 90
        0
280
     0
281
     0
  0
CLASS
  1
ACAMGLAYSTD
  2
AcAmgLayStd
  3
"AcAmgLayStd|Product Description: AutoCAD Mechanical 2000|Company: Autodesk"
 90
        0
280
     0
281
     0
  0
CLASS
  1
ACAMGDIMSTD
  2
AcAmgDimStd
  3
"AcAmgDimStd|Product Description: AutoCAD Mechanical 2000|Company: Autodesk"
 90
        0
280
     0
281
     0
  0
CLASS
  1
ACAMGHOLECHARTSTDANSI
  2
AcAmgHoleChartStdANSI
  3
ACMSYMBB_MODULE_NAME
 90
        0
280
     0
281
     0
  0
CLASS
  1
ACAMGTITLESTD
  2
AcAmgTitleStd
  3
"TITLEAPP"
 90
        0
280
     0
281
     0
  0
CLASS
  1
ACAMGFILTERDAT
  2
AcAmgFilterDat
  3
"AcadM|Product Description: AutoCAD Mechanical 2000|Company: Autodesk"
 90
        0
280
     0
281
     0
  0
CLASS
  1
LAYER_INDEX
  2
AcDbLayerIndex
  3
AutoCAD 2000
 90
        0
280
     0
281
     0
  0
CLASS
  1
IDBUFFER
  2
AcDbIdBuffer
  3
AutoCAD 2000
 90
        0
280
     0
281
     0
  0
CLASS
  1
DICTIONARYVAR
  2
AcDbDictionaryVar
  3
AutoCAD 2000
 90
        0
280
     0
281
     0
  0
CLASS
  1
ACMSTANDARDDIN
  2
AcmStandardDIN
  3
"Amdt_StdImp|Product Description: AutoCAD Mechanical 2000|Company: Autodesk"
 90
        0
280
     0
281
     0
  0
CLASS
  1
AMDTEDGESTANDARDDIN
  2
AmdtEdgeStdDIN
  3
"Amdt_StdImp|Product Description: AutoCAD Mechanical 2000|Company: Autodesk"
 90
        0
280
     0
281
     0
  0
CLASS
  1
ACMSURFSTANDARDDIN
  2
AcmSurfTextStdDIN
  3
"Amdt_StdImp|Product Description: AutoCAD Mechanical 2000|Company: Autodesk"
 90
        0
280
     0
281
     0
  0
CLASS
  1
ACMFCFSTANDARDDIN
  2
AcmFCFStdDIN
  3
"Amdt_StdImp|Product Description: AutoCAD Mechanical 2000|Company: Autodesk"
 90
        0
280
     0
281
     0
  0
CLASS
  1
ACMWELDSTANDARDDIN
  2
AcmWeldingStdDIN
  3
"Amdt_StdImp|Product Description: AutoCAD Mechanical 2000|Company: Autodesk"
 90
        0
280
     0
281
     0
  0
CLASS
  1
ACMIDSTANDARDDIN
  2
AcmIdStdDIN
  3
"Amdt_StdImp|Product Description: AutoCAD Mechanical 2000|Company: Autodesk"
 90
        0
280
     0
281
     0
  0
CLASS
  1
ACMDATUMSTANDARDDIN
  2
AcmDatumStdDIN
  3
"Amdt_StdImp|Product Description: AutoCAD Mechanical 2000|Company: Autodesk"
 90
        0
280
     0
281
     0
  0
CLASS
  1
ACMBOMSTANDARDDIN
  2
AcmBOMStdDIN
  3
"Amdt_StdImp|Product Description: AutoCAD Mechanical 2000|Company: Autodesk"
 90
        0
280
     0
281
     0
  0
CLASS
  1
ACMDETAILSTANDARDDIN
  2
AmdtDetailSymStdDIN
  3
"Amdt_StdImp|Product Description: AutoCAD Mechanical 2000|Company: Autodesk"
 90
        0
280
     0
281
     0
  0
CLASS
  1
ACMSECTIONSTANDARDDIN
  2
AmdtSectionSymStdDIN
  3
"Amdt_StdImp|Product Description: AutoCAD Mechanical 2000|Company: Autodesk"
 90
        0
280
     0
281
     0
  0
CLASS
  1
ACMCENTERLINESTANDARDDIN
  2
AmdtCenterLineStdDIN
  3
"Amdt_StdImp|Product Description: AutoCAD Mechanical 2000|Company: Autodesk"
 90
        0
280
     0
281
     0
  0
CLASS
  1
ACMNOTESTANDARDDIN
  2
AmdtNoteStdDIN
  3
"Amdt_StdImp|Product Description: AutoCAD Mechanical 2000|Company: Autodesk"
 90
        0
280
     0
281
     0
  0
CLASS
  1
ACAMGHOLECHARTSTDDIN
  2
AcAmgHoleChartStdDIN
  3
ACMSYMBB_MODULE_NAME
 90
        0
280
     0
281
     0
  0
CLASS
  1
AMDTFORMULAUPDATEDISPATCHER
  2
AmdtFormulaUpdateDispatcher
  3
AcMeServices
 90
        0
280
     0
281
     0
  0
CLASS
  1
ACMSURFSYM
  2
AcmSurfaceTexture
  3
"AcmSymBB|Product Description: AutoCAD Mechanical 2000|Company: Autodesk"
 90
     1023
280
     0
281
     1
  0
CLASS
  1
LONG_TRANSACTION
  2
AcDbLongTransaction
  3
AutoCAD 2000
 90
        0
280
     0
281
     0
  0
CLASS
  1
LWPOLYLINE
  2
AcDbPolyline
  3
AutoCAD 2000
 90
        0
280
     0
281
     1
  0
CLASS
  1
HATCH
  2
AcDbHatch
  3
AutoCAD 2000
 90
        0
280
     0
281
     1
  0
CLASS
  1
XRECORD
  2
AcDbXrecord
  3
AutoCAD 2000
 90
        0
280
     0
281
     0
  0
ENDSEC
  0
SECTION
  2
TABLES
  0
TABLE
  2
VPORT
  5
6A1E
330
0
100
AcDbSymbolTable
 70
     5
  0
VPORT
  5
8ED9
330
6A1E
100
AcDbSymbolTableRecord
100
AcDbViewportTableRecord
  2
*ACTIVE
 70
     0
 10
0.0
 20
0.0
 11
1.0
 21
1.0
 12
74.06008619750278
 22
134.4570110576524
 13
0.0
 23
0.0
 14
2.5
 24
2.5
 15
10.0
 25
10.0
 16
0.0
 26
0.0
 36
1.0
 17
0.0
 27
0.0
 37
0.0
 40
328.6714849937173
 41
1.694290976058931
 42
50.0
 43
0.0
 44
0.0
 50
0.0
 51
0.0
 71
    16
 72
 10000
 73
     1
 74
     3
 75
     0
 76
     0
 77
     0
 78
     0
  0
ENDTAB
  0
TABLE
  2
LTYPE
  5
6A1B
330
0
100
AcDbSymbolTable
 70
    16
  0
LTYPE
  5
6A29
330
6A1B
100
AcDbSymbolTableRecord
100
AcDbLinetypeTableRecord
  2
BYBLOCK
 70
     0
  3

 72
    65
 73
     0
 40
0.0
  0
LTYPE
  5
6A2A
330
6A1B
100
AcDbSymbolTableRecord
100
AcDbLinetypeTableRecord
  2
BYLAYER
 70
     0
  3

 72
    65
 73
     0
 40
0.0
  0
LTYPE
  5
6A2B
330
6A1B
100
AcDbSymbolTableRecord
100
AcDbLinetypeTableRecord
  2
CONTINUOUS
 70
     0
  3
Solid line
 72
    65
 73
     0
 40
0.0
  0
LTYPE
  5
6A39
330
6A1B
100
AcDbSymbolTableRecord
100
AcDbLinetypeTableRecord
  2
AMCONSTR
 70
     0
  3
_______________________
 72
    65
 73
     2
 40
9999.0
 49
9999.0
 74
     0
 49
0.0
 74
     0
  0
LTYPE
  5
6A43
330
6A1B
100
AcDbSymbolTableRecord
100
AcDbLinetypeTableRecord
  2
CENTER
 70
     0
  3
__ . __
 72
    65
 73
     4
 40
7.0
 49
4.0
 74
     0
 49
-1.0
 74
     0
 49
1.0
 74
     0
 49
-1.0
 74
     0
  0
LTYPE
  5
6A45
330
6A1B
100
AcDbSymbolTableRecord
100
AcDbLinetypeTableRecord
  2
PHANTOM2
 70
     0
  3
Phantom (.5x) ___ _ _ ___ _ _ ___ _ _ ___ _ _
 72
    65
 73
     6
 40
1.25
 49
0.625
 74
     0
 49
-0.125
 74
     0
 49
0.125
 74
     0
 49
-0.125
 74
     0
 49
0.125
 74
     0
 49
-0.125
 74
     0
  0
LTYPE
  5
6A46
330
6A1B
100
AcDbSymbolTableRecord
100
AcDbLinetypeTableRecord
  2
ACANSTGB
 70
     0
  3
__ . . __ . .
 72
    65
 73
     6
 40
0.35433070866
 49
0.15748031496
 74
     0
 49
-0.03937007874
 74
     0
 49
0.03937007874
 74
     0
 49
-0.03937007874
 74
     0
 49
0.03937007874
 74
     0
 49
-0.03937007874
 74
     0
  0
LTYPE
  5
6A47
330
6A1B
100
AcDbSymbolTableRecord
100
AcDbLinetypeTableRecord
  2
ACANSTGL
 70
     0
  3
_ _ _ _ _
 72
    65
 73
     2
 40
0.11811023622
 49
0.07874015748
 74
     0
 49
-0.03937007874
 74
     0
  0
LTYPE
  5
6D97
330
6A1B
100
AcDbSymbolTableRecord
100
AcDbLinetypeTableRecord
  2
ACDINWELD
 70
     0
  3
_ _ _ _ _
 72
    65
 73
     2
 40
2.0
 49
2.0
 74
     0
 49
-1.0
 74
     0
  0
LTYPE
  5
6D98
330
6A1B
100
AcDbSymbolTableRecord
100
AcDbLinetypeTableRecord
  2
ACDINTGB
 70
     0
  3
__ . . __ . .
 72
    65
 73
     6
 40
9.0
 49
4.0
 74
     0
 49
-1.0
 74
     0
 49
1.0
 74
     0
 49
-1.0
 74
     0
 49
1.0
 74
     0
 49
-1.0
 74
     0
  0
LTYPE
  5
6D99
330
6A1B
100
AcDbSymbolTableRecord
100
AcDbLinetypeTableRecord
  2
ACDINTGL
 70
     0
  3
_ _ _ _ _
 72
    65
 73
     2
 40
3.0
 49
2.0
 74
     0
 49
-1.0
 74
     0
  0
LTYPE
  5
8543
330
6A1B
100
AcDbSymbolTableRecord
100
AcDbLinetypeTableRecord
  2
AMZIGZAG
 70
     0
  3
/\/-/\/-/\/-/\/-/\/-/\/
 72
    65
 73
     2
 40
11.00009999999999
 49
0.0001
 74
     4
 75
   135
340
6A5B
 46
0.04
 50
0.0
 44
0.0
 45
0.0
 49
-11.0
 74
     0
  0
LTYPE
  5
8544
330
6A1B
100
AcDbSymbolTableRecord
100
AcDbLinetypeTableRecord
  2
AM_DIN_F_W050
 70
     0
  3
__ __ __ __ __ __ __ __ __ __ __ __ __ __ __
 72
    65
 73
     2
 40
6.25
 49
4.75
 74
     0
 49
-1.5
 74
     0
  0
LTYPE
  5
8545
330
6A1B
100
AcDbSymbolTableRecord
100
AcDbLinetypeTableRecord
  2
AM_DIN_G_W050
 70
     0
  3
____ . ____ . ____ . ____ . ____ . ____ . ____
 72
    65
 73
     4
 40
13.75
 49
9.75
 74
     0
 49
-1.5
 74
     0
 49
1.0
 74
     0
 49
-1.5
 74
     0
  0
LTYPE
  5
8546
330
6A1B
100
AcDbSymbolTableRecord
100
AcDbLinetypeTableRecord
  2
AM_DIN_K_W050
 70
     0
  3
_____ . . _____ . . _____ . . ____ .. ____
 72
    65
 73
     6
 40
16.25
 49
9.75
 74
     0
 49
-1.5
 74
     0
 49
1.0
 74
     0
 49
-1.5
 74
     0
 49
1.0
 74
     0
 49
-1.5
 74
     0
  0
LTYPE
  5
8547
330
6A1B
100
AcDbSymbolTableRecord
100
AcDbLinetypeTableRecord
  2
AM_DIN_G_W050X2
 70
     0
  3
__ . __ . __ . __ . __ . __
 72
    65
 73
     4
 40
6.875
 49
4.75
 74
     0
 49
-0.875
 74
     0
 49
0.375
 74
     0
 49
-0.875
 74
     0
  0
LTYPE
  5
8548
330
6A1B
100
AcDbSymbolTableRecord
100
AcDbLinetypeTableRecord
  2
AM_DIN_F_W050X2
 70
     0
  3
 _ _ _ _ _ _ _ _ _ _ _ _
 72
    65
 73
     2
 40
3.125
 49
2.25
 74
     0
 49
-0.875
 74
     0
  0
LTYPE
  5
8B90
330
6A1B
100
AcDbSymbolTableRecord
100
AcDbLinetypeTableRecord
  2
DASHED
 70
     0
  3
__ __ __ __ __ __ __ __ __ __ __ __ __ __ __ __
 72
    65
 73
     2
 40
19.05
 49
12.7
 74
     0
 49
-6.349999999999998
 74
     0
  0
ENDTAB
  0
TABLE
  2
LAYER
  5
6A18
330
0
100
AcDbSymbolTable
 70
    12
  0
LAYER
  5
6A26
330
6A18
100
AcDbSymbolTableRecord
100
AcDbLayerTableRecord
  2
0
 70
     0
 62
     7
  6
CONTINUOUS
  0
LAYER
  5
6A4B
330
6A18
100
AcDbSymbolTableRecord
100
AcDbLayerTableRecord
  2
DEFPOINTS
 70
     0
 62
     7
  6
CONTINUOUS
  0
LAYER
  5
6A4C
330
6A18
100
AcDbSymbolTableRecord
100
AcDbLayerTableRecord
  2
1
 70
     0
 62
     4
  6
CONTINUOUS
  0
LAYER
  5
6A4D
330
6A18
100
AcDbSymbolTableRecord
100
AcDbLayerTableRecord
  2
2
 70
     0
 62
     7
  6
CONTINUOUS
  0
LAYER
  5
6A4F
330
6A18
100
AcDbSymbolTableRecord
100
AcDbLayerTableRecord
  2
4
 70
     0
 62
     2
  6
CENTER
  0
LAYER
  5
6A50
330
6A18
100
AcDbSymbolTableRecord
100
AcDbLayerTableRecord
  2
6
 70
     0
 62
     5
  6
CONTINUOUS
  0
LAYER
  5
6A53
330
6A18
100
AcDbSymbolTableRecord
100
AcDbLayerTableRecord
  2
SK1
 70
     0
 62
     4
  6
CONTINUOUS
  0
LAYER
  5
6A54
330
6A18
100
AcDbSymbolTableRecord
100
AcDbLayerTableRecord
  2
SK2
 70
     0
 62
     7
  6
CONTINUOUS
  0
LAYER
  5
6A56
330
6A18
100
AcDbSymbolTableRecord
100
AcDbLayerTableRecord
  2
SK4
 70
     0
 62
     2
  6
CENTER
  0
LAYER
  5
6A57
330
6A18
100
AcDbSymbolTableRecord
100
AcDbLayerTableRecord
  2
CUT
 70
     0
 62
     1
  6
CONTINUOUS
  0
LAYER
  5
6A58
330
6A18
100
AcDbSymbolTableRecord
100
AcDbLayerTableRecord
  2
NOCUT
 70
     0
 62
     7
  6
CONTINUOUS
  0
LAYER
  5
8B91
330
6A18
100
AcDbSymbolTableRecord
100
AcDbLayerTableRecord
  2
SK3
 70
     0
 62
     1
  6
DASHED
  0
ENDTAB
  0
TABLE
  2
STYLE
  5
6A19
330
0
100
AcDbSymbolTable
 70
     6
  0
STYLE
  5
6A27
330
6A19
100
AcDbSymbolTableRecord
100
AcDbTextStyleTableRecord
  2
STANDARD
 70
     0
 40
0.0
 41
1.0
 50
0.0
 71
     0
 42
2.5
  3
ISOCP.SHX
  4

  0
STYLE
  5
6A5B
330
6A19
100
AcDbSymbolTableRecord
100
AcDbTextStyleTableRecord
  2

 70
     1
 40
0.0
 41
1.0
 50
0.0
 71
     0
 42
2.5
  3
ltypeshp.shx
  4

  0
STYLE
  5
6A5E
330
6A19
100
AcDbSymbolTableRecord
100
AcDbTextStyleTableRecord
  2
ACANSTS
 70
     0
 40
1.0
 41
1.0
 50
0.0
 71
     0
 42
0.2
  3
romans.shx
  4

  0
STYLE
  5
6A5F
330
6A19
100
AcDbSymbolTableRecord
100
AcDbTextStyleTableRecord
  2
ACANSGDT
 70
     0
 40
0.0
 41
1.0
 50
0.0
 71
     0
 42
0.2
  3
amgdtans.shx
  4

  0
STYLE
  5
6D9A
330
6A19
100
AcDbSymbolTableRecord
100
AcDbTextStyleTableRecord
  2
ACDINTS
 70
     0
 40
1.0
 41
1.0
 50
0.0
 71
     0
 42
2.5
  3
isocp.shx
  4

  0
STYLE
  5
6D9B
330
6A19
100
AcDbSymbolTableRecord
100
AcDbTextStyleTableRecord
  2
ACDINGDT
 70
     0
 40
0.0
 41
1.0
 50
0.0
 71
     0
 42
2.5
  3
amgdt.shx
  4

  0
ENDTAB
  0
TABLE
  2
VIEW
  5
6A1C
330
0
100
AcDbSymbolTable
 70
     6
  0
VIEW
  5
6A60
330
6A1C
100
AcDbSymbolTableRecord
100
AcDbViewTableRecord
  2
AM_VIEW1
 70
     0
 40
148.5
 10
131.508173076923
 20
222.75
 41
263.016346153846
 11
0.0
 21
0.0
 31
1.0
 12
0.0
 22
0.0
 32
0.0
 42
50.0
 43
0.0
 44
0.0
 50
0.0
 71
    16
  0
VIEW
  5
6A61
330
6A1C
100
AcDbSymbolTableRecord
100
AcDbViewTableRecord
  2
AM_VIEW2
 70
     0
 40
148.5
 10
78.4918269230769
 20
222.75
 41
263.016346153846
 11
0.0
 21
0.0
 31
1.0
 12
0.0
 22
0.0
 32
0.0
 42
50.0
 43
0.0
 44
0.0
 50
0.0
 71
    16
  0
VIEW
  5
6A62
330
6A1C
100
AcDbSymbolTableRecord
100
AcDbViewTableRecord
  2
AM_VIEW3
 70
     0
 40
148.5
 10
131.508173076923
 20
74.25
 41
263.016346153846
 11
0.0
 21
0.0
 31
1.0
 12
0.0
 22
0.0
 32
0.0
 42
50.0
 43
0.0
 44
0.0
 50
0.0
 71
    16
  0
VIEW
  5
6A63
330
6A1C
100
AcDbSymbolTableRecord
100
AcDbViewTableRecord
  2
AM_VIEW4
 70
     0
 40
148.5
 10
78.4918269230769
 20
74.25
 41
263.016346153846
 11
0.0
 21
0.0
 31
1.0
 12
0.0
 22
0.0
 32
0.0
 42
50.0
 43
0.0
 44
0.0
 50
0.0
 71
    16
  0
VIEW
  5
6A64
330
6A1C
100
AcDbSymbolTableRecord
100
AcDbViewTableRecord
  2
AM_VIEW5
 70
     0
 40
148.5
 10
105.0
 20
148.5
 41
263.016346153846
 11
0.0
 21
0.0
 31
1.0
 12
0.0
 22
0.0
 32
0.0
 42
50.0
 43
0.0
 44
0.0
 50
0.0
 71
    16
  0
VIEW
  5
6A65
330
6A1C
100
AcDbSymbolTableRecord
100
AcDbViewTableRecord
  2
AM_VIEW6
 70
     0
 40
296.9970299999999
 10
105.0
 20
148.5
 41
526.0274319807693
 11
0.0
 21
0.0
 31
1.0
 12
0.0
 22
0.0
 32
0.0
 42
50.0
 43
0.0
 44
0.0
 50
0.0
 71
    16
  0
ENDTAB
  0
TABLE
  2
UCS
  5
6A1D
330
0
100
AcDbSymbolTable
 70
     0
  0
ENDTAB
  0
TABLE
  2
APPID
  5
6A1F
330
0
100
AcDbSymbolTable
 70
    42
  0
APPID
  5
6A28
330
6A1F
100
AcDbSymbolTableRecord
100
AcDbRegAppTableRecord
  2
ACAD
 70
     0
  0
APPID
  5
6A66
330
6A1F
100
AcDbSymbolTableRecord
100
AcDbRegAppTableRecord
  2
MCAD_NO_VIS
 70
     0
  0
APPID
  5
6A67
330
6A1F
100
AcDbSymbolTableRecord
100
AcDbRegAppTableRecord
  2
ACAD_TEMP_GRAPHIC
 70
     0
  0
APPID
  5
6A68
330
6A1F
100
AcDbSymbolTableRecord
100
AcDbRegAppTableRecord
  2
ACATTRIBSERVICES
 70
     0
  0
APPID
  5
6A69
330
6A1F
100
AcDbSymbolTableRecord
100
AcDbRegAppTableRecord
  2
GENIUS_GENDIMSH_14
 70
     0
  0
APPID
  5
6A6A
330
6A1F
100
AcDbSymbolTableRecord
100
AcDbRegAppTableRecord
  2
GENIUS_GENBLLY_14
 70
     0
  0
APPID
  5
6A6B
330
6A1F
100
AcDbSymbolTableRecord
100
AcDbRegAppTableRecord
  2
GENIUS_GENTRA_14
 70
     0
  0
APPID
  5
6A6C
330
6A1F
100
AcDbSymbolTableRecord
100
AcDbRegAppTableRecord
  2
GENIUS_GENODEF_13
 70
     0
  0
APPID
  5
6A6D
330
6A1F
100
AcDbSymbolTableRecord
100
AcDbRegAppTableRecord
  2
GENIUS_GENOLIS_13
 70
     0
  0
APPID
  5
6A6E
330
6A1F
100
AcDbSymbolTableRecord
100
AcDbRegAppTableRecord
  2
GENIUS_GENOENT_13
 70
     0
  0
APPID
  5
6A6F
330
6A1F
100
AcDbSymbolTableRecord
100
AcDbRegAppTableRecord
  2
GENIUS_GENOBJ-N-TIT_13
 70
     0
  0
APPID
  5
6A70
330
6A1F
100
AcDbSymbolTableRecord
100
AcDbRegAppTableRecord
  2
GENIUS_GENTITLE_13
 70
     0
  0
APPID
  5
6A71
330
6A1F
100
AcDbSymbolTableRecord
100
AcDbRegAppTableRecord
  2
GENIUS_GENOREF_13
 70
     0
  0
APPID
  5
6A72
330
6A1F
100
AcDbSymbolTableRecord
100
AcDbRegAppTableRecord
  2
GENIUS_GENSCREG_15
 70
     0
  0
APPID
  5
6A73
330
6A1F
100
AcDbSymbolTableRecord
100
AcDbRegAppTableRecord
  2
GENIUS_GENOBJ-N-SDF_13
 70
     0
  0
APPID
  5
6A74
330
6A1F
100
AcDbSymbolTableRecord
100
AcDbRegAppTableRecord
  2
ACADIGES
 70
     0
  0
APPID
  5
6A75
330
6A1F
100
AcDbSymbolTableRecord
100
AcDbRegAppTableRecord
  2
GENIUS_GENOBJ-N-HTC_13
 70
     0
  0
APPID
  5
6A76
330
6A1F
100
AcDbSymbolTableRecord
100
AcDbRegAppTableRecord
  2
GENIUS_GENHATCH_13
 70
     0
  0
APPID
  5
6DA2
330
6A1F
100
AcDbSymbolTableRecord
100
AcDbRegAppTableRecord
  2
GENIUS_GENOBJ-N-CRS_13
 70
     0
  0
APPID
  5
6DA3
330
6A1F
100
AcDbSymbolTableRecord
100
AcDbRegAppTableRecord
  2
GENIUS_GENOBJ-N-FIL_13
 70
     0
  0
APPID
  5
6DD2
330
6A1F
100
AcDbSymbolTableRecord
100
AcDbRegAppTableRecord
  2
GENIUS_GENFIL_13
 70
     0
  0
APPID
  5
6DD3
330
6A1F
100
AcDbSymbolTableRecord
100
AcDbRegAppTableRecord
  2
GENIUS_GENOBJ-N-CHA_13
 70
     0
  0
APPID
  5
7FA8
330
6A1F
100
AcDbSymbolTableRecord
100
AcDbRegAppTableRecord
  2
GENIUS12
 70
     0
  0
APPID
  5
7FA9
330
6A1F
100
AcDbSymbolTableRecord
100
AcDbRegAppTableRecord
  2
GENIUS_GENCFG_13
 70
     0
  0
APPID
  5
7FAA
330
6A1F
100
AcDbSymbolTableRecord
100
AcDbRegAppTableRecord
  2
GENIUS_GEFCFG0_13
 70
     0
  0
APPID
  5
7FAB
330
6A1F
100
AcDbSymbolTableRecord
100
AcDbRegAppTableRecord
  2
GENIUS_GENCFG0_13
 70
     0
  0
APPID
  5
7FAC
330
6A1F
100
AcDbSymbolTableRecord
100
AcDbRegAppTableRecord
  2
GENIUS_GENCFG1_13
 70
     0
  0
APPID
  5
7FAD
330
6A1F
100
AcDbSymbolTableRecord
100
AcDbRegAppTableRecord
  2
GENIUS_GENCFG2_13
 70
     0
  0
APPID
  5
7FAE
330
6A1F
100
AcDbSymbolTableRecord
100
AcDbRegAppTableRecord
  2
GENIUS_GENCFG3_13
 70
     0
  0
APPID
  5
7FAF
330
6A1F
100
AcDbSymbolTableRecord
100
AcDbRegAppTableRecord
  2
GENIUS_GENCFG4_13
 70
     0
  0
APPID
  5
7FB0
330
6A1F
100
AcDbSymbolTableRecord
100
AcDbRegAppTableRecord
  2
GENIUS_GEVCFG0_13
 70
     0
  0
APPID
  5
7FB1
330
6A1F
100
AcDbSymbolTableRecord
100
AcDbRegAppTableRecord
  2
GENIUS_GENOBJ-F-SUF_13
 70
     0
  0
APPID
  5
7FB2
330
6A1F
100
AcDbSymbolTableRecord
100
AcDbRegAppTableRecord
  2
GENIUS_GENDIM_13
 70
     0
  0
APPID
  5
7FB3
330
6A1F
100
AcDbSymbolTableRecord
100
AcDbRegAppTableRecord
  2
GENIUS_GENDTOL_13
 70
     0
  0
APPID
  5
7FB4
330
6A1F
100
AcDbSymbolTableRecord
100
AcDbRegAppTableRecord
  2
GENIUS_GE3DTOL_13
 70
     0
  0
APPID
  5
7FB5
330
6A1F
100
AcDbSymbolTableRecord
100
AcDbRegAppTableRecord
  2
AD_DRAW
 70
     0
  0
APPID
  5
7FB6
330
6A1F
100
AcDbSymbolTableRecord
100
AcDbRegAppTableRecord
  2
ASURF_PCURVE_APPNAME
 70
     0
  0
APPID
  5
7FB7
330
6A1F
100
AcDbSymbolTableRecord
100
AcDbRegAppTableRecord
  2
AMG_3D2D_5_0
 70
     0
  0
APPID
  5
7FB8
330
6A1F
100
AcDbSymbolTableRecord
100
AcDbRegAppTableRecord
  2
DESIGNERASSEMBLIES
 70
     0
  0
APPID
  5
7FB9
330
6A1F
100
AcDbSymbolTableRecord
100
AcDbRegAppTableRecord
  2
ACADM_DIM_EDIT
 70
     0
  0
APPID
  5
7FBA
330
6A1F
100
AcDbSymbolTableRecord
100
AcDbRegAppTableRecord
  2
AMDT_DM_ADJ
 70
     0
  0
APPID
  5
85F3
330
6A1F
100
AcDbSymbolTableRecord
100
AcDbRegAppTableRecord
  2
GENIUS_GENOBJ-N-CEN_13
 70
     0
  0
ENDTAB
  0
TABLE
  2
DIMSTYLE
  5
6A20
330
0
100
AcDbSymbolTable
 70
    14
  0
DIMSTYLE
105
6A77
102
{ACAD_REACTORS
330
8A90
330
8CE7
330
8D3D
330
8D7E
102
}
330
6A20
100
AcDbSymbolTableRecord
100
AcDbDimStyleTableRecord
  2
AM_DIN
 70
     0
  3

  4
"
  5

  6

  7

 40
1.0
 41
2.5
 42
0.0
 43
10.0
 44
1.0
 45
0.0
 46
0.0
 47
0.1
 48
0.1
140
3.5
141
0.0
142
0.0
143
0.0393701
144
1.0
145
0.0
146
0.71
147
1.5
 71
     0
 72
     0
 73
     0
 74
     0
 75
     0
 76
     0
 77
     1
 78
     8
170
     0
171
     2
172
     1
173
     0
174
     0
175
     0
176
   256
177
   256
178
     2
270
     2
271
     2
272
     2
273
     2
274
     2
340
6A27
275
     0
280
     0
281
     0
282
     0
283
     1
284
     8
285
     8
286
     8
287
     5
288
     0
  0
DIMSTYLE
105
6A7E
330
6A20
100
AcDbSymbolTableRecord
100
AcDbDimStyleTableRecord
  2
STANDARD
 70
     0
  3

  4

  5

  6

  7

 40
1.0
 41
0.18
 42
0.0625
 43
0.38
 44
0.18
 45
0.0
 46
0.0
 47
0.0
 48
0.0
140
0.18
141
0.09
142
0.0
143
25.4
144
1.0
145
0.0
146
1.0
147
0.09
 71
     0
 72
     0
 73
     1
 74
     1
 75
     0
 76
     0
 77
     0
 78
     0
170
     0
171
     2
172
     0
173
     0
174
     0
175
     0
176
     0
177
     0
178
     0
270
     2
271
     2
272
     2
273
     2
274
     2
340
6A27
275
     0
280
     0
281
     0
282
     0
283
     1
284
     8
285
     8
286
     8
287
     5
288
     0
  0
DIMSTYLE
105
6A7F
102
{ACAD_REACTORS
330
8311
102
}
330
6A20
100
AcDbSymbolTableRecord
100
AcDbDimStyleTableRecord
  2
AM_ANSI
 70
     0
  3

  4
mm
  5

  6

  7

 40
1.0
 41
0.1
 42
0.05
 43
0.5
 44
0.1
 45
0.0
 46
0.0
 47
0.1
 48
0.1
140
0.12
141
0.0
142
0.0
143
25.4
144
1.0
145
0.0
146
0.71
147
0.06
 71
     0
 72
     0
 73
     1
 74
     1
 75
     0
 76
     0
 77
     0
 78
     7
170
     0
171
     2
172
     0
173
     0
174
     0
175
     0
176
   256
177
   256
178
     2
270
     2
271
     2
272
     2
273
     2
274
     2
340
6A27
275
     0
280
     0
281
     0
282
     0
283
     1
284
     8
285
     8
286
     8
287
     5
288
     0
  0
DIMSTYLE
105
6A80
330
6A20
100
AcDbSymbolTableRecord
100
AcDbDimStyleTableRecord
  2
AM_ANSI$3
 70
     0
  3

  4
mm
  5

  6

  7

 40
1.0
 41
0.1
 42
0.05
 43
0.5
 44
0.1
 45
0.0
 46
0.0
 47
0.1
 48
0.1
140
0.12
141
0.0
142
0.0
143
25.4
144
1.0
145
0.0
146
0.71
147
0.06
 71
     0
 72
     0
 73
     1
 74
     1
 75
     0
 76
     0
 77
     0
 78
     7
170
     0
171
     2
172
     0
173
     0
174
     0
175
     0
176
   256
177
   256
178
     2
270
     2
271
     2
272
     2
273
     2
274
     2
340
6A27
275
     0
280
     0
281
     0
282
     0
283
     1
284
     8
285
     8
286
     8
287
     5
288
     0
  0
DIMSTYLE
105
6A81
330
6A20
100
AcDbSymbolTableRecord
100
AcDbDimStyleTableRecord
  2
AM_ANSI$4
 70
     0
  3

  4
mm
  5

  6

  7

 40
1.0
 41
0.1
 42
0.05
 43
0.5
 44
0.1
 45
0.0
 46
0.0
 47
0.1
 48
0.1
140
0.12
141
0.0
142
0.0
143
25.4
144
1.0
145
0.0
146
0.71
147
0.06
 71
     0
 72
     0
 73
     1
 74
     1
 75
     0
 76
     0
 77
     0
 78
     7
170
     0
171
     2
172
     0
173
     0
174
     0
175
     0
176
   256
177
   256
178
     2
270
     2
271
     2
272
     2
273
     2
274
     2
340
6A27
275
     0
280
     0
281
     0
282
     0
283
     1
284
     8
285
     8
286
     8
287
     5
288
     0
  0
DIMSTYLE
105
6A82
330
6A20
100
AcDbSymbolTableRecord
100
AcDbDimStyleTableRecord
  2
AM_ANSI$7
 70
     0
  3

  4
mm
  5

  6

  7

 40
1.0
 41
0.1
 42
0.05
 43
0.5
 44
0.1
 45
0.0
 46
0.0
 47
0.1
 48
0.1
140
0.24
141
0.0
142
0.0
143
25.4
144
1.0
145
0.0
146
0.71
147
0.06
 71
     0
 72
     0
 73
     1
 74
     1
 75
     0
 76
     0
 77
     0
 78
     7
170
     0
171
     2
172
     0
173
     0
174
     0
175
     0
176
   256
177
   256
178
     2
270
     2
271
     2
272
     2
273
     2
274
     2
340
6A27
275
     0
280
     0
281
     0
282
     0
283
     1
284
     8
285
     8
286
     8
287
     5
288
     0
  0
DIMSTYLE
105
6A83
330
6A20
100
AcDbSymbolTableRecord
100
AcDbDimStyleTableRecord
  2
AM_ANSI$SF
 70
     0
  3

  4
mm
  5

  6

  7

 40
1.0
 41
0.1
 42
0.05
 43
0.5
 44
0.1
 45
0.0
 46
0.0
 47
0.1
 48
0.1
140
0.12
141
0.0
142
0.0
143
25.4
144
1.0
145
0.0
146
0.71
147
0.06
 71
     0
 72
     0
 73
     1
 74
     1
 75
     1
 76
     1
 77
     0
 78
     7
170
     0
171
     2
172
     0
173
     0
174
     0
175
     0
176
   256
177
   256
178
     2
270
     2
271
     2
272
     2
273
     2
274
     2
340
6A27
275
     0
280
     0
281
     0
282
     0
283
     1
284
     8
285
     8
286
     8
287
     5
288
     0
  0
DIMSTYLE
105
6A84
330
6A20
100
AcDbSymbolTableRecord
100
AcDbDimStyleTableRecord
  2
AM_ANSI$SH
 70
     0
  3

  4
mm
  5

  6

  7

 40
1.0
 41
0.1
 42
0.05
 43
0.5
 44
0.1
 45
0.0
 46
0.0
 47
0.1
 48
0.1
140
0.12
141
0.0
142
0.0
143
25.4
144
1.0
145
0.0
146
0.71
147
0.06
 71
     0
 72
     0
 73
     1
 74
     1
 75
     1
 76
     1
 77
     0
 78
     7
170
     0
171
     2
172
     0
173
     1
174
     0
175
     0
176
   256
177
   256
178
     2
270
     2
271
     2
272
     2
273
     2
274
     2
340
6A27
275
     0
280
     0
281
     0
282
     0
283
     1
284
     8
285
     8
286
     8
287
     5
288
     0
  0
DIMSTYLE
105
6D9C
330
6A20
100
AcDbSymbolTableRecord
100
AcDbDimStyleTableRecord
  2
AM_DIN$3
 70
     0
  3

  4
"
  5

  6

  7

 40
1.0
 41
3.5
 42
0.0
 43
10.0
 44
1.0
 45
0.0
 46
0.0
 47
0.1
 48
0.1
140
3.5
141
0.0
142
0.0
143
0.0393701
144
1.0
145
0.0
146
0.71
147
1.5
 71
     0
 72
     0
 73
     0
 74
     1
 75
     0
 76
     0
 77
     1
 78
     8
170
     0
171
     2
172
     0
173
     0
174
     0
175
     0
176
   256
177
   256
178
     2
270
     2
271
     2
272
     2
273
     2
274
     2
340
6A27
275
     0
280
     0
281
     0
282
     0
283
     0
284
     8
285
     0
286
     0
287
     0
288
     1
  0
DIMSTYLE
105
6D9D
330
6A20
100
AcDbSymbolTableRecord
100
AcDbDimStyleTableRecord
  2
AM_DIN$4
 70
     0
  3

  4
"
  5

  6

  7

 40
1.0
 41
3.5
 42
0.0
 43
10.0
 44
1.0
 45
0.0
 46
0.0
 47
0.1
 48
0.1
140
3.5
141
0.0
142
0.0
143
0.0393701
144
1.0
145
0.0
146
0.71
147
1.5
 71
     0
 72
     0
 73
     0
 74
     1
 75
     0
 76
     0
 77
     1
 78
     8
170
     0
171
     2
172
     0
173
     0
174
     0
175
     0
176
   256
177
   256
178
     2
270
     2
271
     2
272
     2
273
     2
274
     2
340
6A27
275
     0
280
     0
281
     0
282
     0
283
     0
284
     8
285
     0
286
     0
287
     0
288
     1
  0
DIMSTYLE
105
6D9E
330
6A20
100
AcDbSymbolTableRecord
100
AcDbDimStyleTableRecord
  2
AM_DIN$6
 70
     0
  3

  4
"
  5

  6

  7

 40
1.0
 41
3.5
 42
0.0
 43
0.0
 44
1.0
 45
0.0
 46
0.0
 47
0.1
 48
0.1
140
3.5
141
0.0
142
0.0
143
0.0393701
144
1.0
145
0.0
146
0.71
147
1.5
 71
     0
 72
     0
 73
     0
 74
     0
 75
     0
 76
     0
 77
     0
 78
     8
170
     0
171
     2
172
     1
173
     0
174
     0
175
     0
176
   256
177
   256
178
     2
270
     2
271
     2
272
     2
273
     2
274
     2
340
6A27
275
     0
280
     0
281
     0
282
     0
283
     0
284
     8
285
     0
286
     0
287
     3
288
     0
  0
DIMSTYLE
105
6D9F
330
6A20
100
AcDbSymbolTableRecord
100
AcDbDimStyleTableRecord
  2
AM_DIN$7
 70
     0
  3

  4
"
  5

  6

  7

 40
1.0
 41
3.5
 42
0.0
 43
10.0
 44
1.0
 45
0.0
 46
0.0
 47
0.1
 48
0.1
140
3.5
141
0.0
142
0.0
143
0.0393701
144
1.0
145
0.0
146
0.71
147
1.5
 71
     0
 72
     0
 73
     0
 74
     0
 75
     0
 76
     0
 77
     1
 78
     8
170
     0
171
     2
172
     1
173
     0
174
     0
175
     0
176
   256
177
   256
178
     2
270
     2
271
     2
272
     2
273
     2
274
     2
340
6A27
275
     0
280
     0
281
     0
282
     0
283
     0
284
     8
285
     0
286
     0
287
     3
288
     0
  0
DIMSTYLE
105
6DA0
330
6A20
100
AcDbSymbolTableRecord
100
AcDbDimStyleTableRecord
  2
AM_DIN$SF
 70
     0
  3

  4
"
  5

  6

  7

 40
1.0
 41
2.5
 42
1.0
 43
10.0
 44
1.0
 45
0.0
 46
0.0
 47
0.1
 48
0.1
140
3.5
141
0.0
142
0.0
143
0.0393701
144
1.0
145
0.0
146
0.71
147
1.5
 71
     0
 72
     0
 73
     0
 74
     0
 75
     1
 76
     1
 77
     1
 78
     8
170
     0
171
     2
172
     1
173
     0
174
     0
175
     0
176
   256
177
   256
178
     2
270
     2
271
     2
272
     3
273
     2
274
     4
340
6A27
275
     0
280
     0
281
     0
282
     0
283
     0
284
     8
285
     0
286
     0
287
     3
288
     0
  0
DIMSTYLE
105
6DA1
330
6A20
100
AcDbSymbolTableRecord
100
AcDbDimStyleTableRecord
  2
AM_DIN$SH
 70
     0
  3

  4
"
  5

  6
GENAXEH
  7

 40
1.0
 41
2.5
 42
1.0
 43
10.0
 44
1.0
 45
0.0
 46
0.0
 47
0.1
 48
0.1
140
3.5
141
0.0
142
0.0
143
0.0393701
144
2.0
145
0.0
146
0.71
147
1.5
 71
     0
 72
     0
 73
     0
 74
     0
 75
     1
 76
     1
 77
     1
 78
     8
170
     0
171
     2
172
     1
173
     1
174
     0
175
     0
176
   256
177
   256
178
     2
270
     2
271
     2
272
     3
273
     2
274
     4
340
6A27
275
     0
280
     0
281
     0
282
     0
283
     0
284
     8
285
     0
286
     0
287
     3
288
     0
  0
ENDTAB
  0
TABLE
  2
BLOCK_RECORD
  5
6A17
330
0
100
AcDbSymbolTable
 70
     6
  0
BLOCK_RECORD
  5
6A34
102
{ACAD_XDICTIONARY
360
6B62
102
}
330
6A17
100
AcDbSymbolTableRecord
100
AcDbBlockTableRecord
  2
*MODEL_SPACE
  0
BLOCK_RECORD
  5
6A30
102
{ACAD_XDICTIONARY
360
8EFB
102
}
330
6A17
100
AcDbSymbolTableRecord
100
AcDbBlockTableRecord
  2
*PAPER_SPACE
  0
BLOCK_RECORD
  5
6D93
330
6A17
100
AcDbSymbolTableRecord
100
AcDbBlockTableRecord
  2
GENAXEH
  0
BLOCK_RECORD
  5
8312
330
6A17
100
AcDbSymbolTableRecord
100
AcDbBlockTableRecord
  2
*D1
  0
BLOCK_RECORD
  5
8A91
330
6A17
100
AcDbSymbolTableRecord
100
AcDbBlockTableRecord
  2
*D2
  0
BLOCK_RECORD
  5
8D03
330
6A17
100
AcDbSymbolTableRecord
100
AcDbBlockTableRecord
  2
*D3
  0
BLOCK_RECORD
  5
8D3E
330
6A17
100
AcDbSymbolTableRecord
100
AcDbBlockTableRecord
  2
*D4
  0
BLOCK_RECORD
  5
8D7F
330
6A17
100
AcDbSymbolTableRecord
100
AcDbBlockTableRecord
  2
*D5
  0
ENDTAB
  0
ENDSEC
  0
SECTION
  2
BLOCKS
  0
BLOCK
  5
6A35
330
6A34
100
AcDbEntity
  8
0
100
AcDbBlockBegin
  2
*MODEL_SPACE
 70
     0
 10
0.0
 20
0.0
 30
0.0
  3
*MODEL_SPACE
  1

  0
ENDBLK
  5
6A36
330
6A34
100
AcDbEntity
  8
0
100
AcDbBlockEnd
  0
BLOCK
  5
6A31
330
6A30
100
AcDbEntity
 67
     1
  8
0
100
AcDbBlockBegin
  2
*PAPER_SPACE
 70
     0
 10
0.0
 20
0.0
 30
0.0
  3
*PAPER_SPACE
  1

  0
ENDBLK
  5
6A32
330
6A30
100
AcDbEntity
 67
     1
  8
0
100
AcDbBlockEnd
  0
BLOCK
  5
6D95
330
6D93
100
AcDbEntity
  8
0
100
AcDbBlockBegin
  2
GENAXEH
 70
     0
 10
0.0
 20
0.0
 30
0.0
  3
GENAXEH
  1

  0
LINE
  5
6D94
330
6D93
100
AcDbEntity
  8
0
100
AcDbLine
 10
-1.0
 20
0.0
 30
0.0
 11
1.0
 21
0.0
 31
0.0
  0
ENDBLK
  5
6D96
330
6D93
100
AcDbEntity
  8
0
100
AcDbBlockEnd
  0
BLOCK
  5
831D
330
8312
100
AcDbEntity
  8
0
100
AcDbBlockBegin
  2
*D1
 70
     1
 10
0.0
 20
0.0
 30
0.0
  3
*D1
  1

  0
LINE
  5
8E9F
330
8312
100
AcDbEntity
  8
SK2
100
AcDbLine
 10
-42.0
 20
-5.999999999999769
 30
0.0
 11
-58.88996455599704
 21
-5.999999999999763
 31
0.0
  0
LINE
  5
8EA0
330
8312
100
AcDbEntity
  8
SK2
100
AcDbLine
 10
-42.0
 20
6.000000000000186
 30
0.0
 11
-58.88996455599704
 21
6.000000000000191
 31
0.0
  0
LINE
  5
8EA1
330
8312
100
AcDbEntity
  8
SK2
100
AcDbLine
 10
-57.88996455599704
 20
-3.499999999999764
 30
0.0
 11
-57.88996455599704
 21
3.500000000000191
 31
0.0
  0
MTEXT
  5
8EA2
330
8312
100
AcDbEntity
  8
SK2
 62
     2
100
AcDbMText
 10
-60.12419689684861
 20
0.0116599624972722
 30
0.0
 40
3.5
 41
0.0
 71
     5
 72
     1
  1
\A1;%%c12
 11
0.0000000000000001
 21
1.0
 31
0.0
1001
ACAD
1000
MTEXTBEGIN
1070
    73
1070
     1
1070
    44
1040
1.0
1070
    74
1070
     0
1000
MTEXTEND
  0
SOLID
  5
8EA3
330
8312
100
AcDbEntity
  8
SK2
100
AcDbTrace
 10
-58.3066312226637
 20
-3.499999999999764
 30
0.0
 11
-57.47329788933037
 21
-3.499999999999764
 31
0.0
 12
-57.88996455599704
 22
-5.999999999999764
 32
0.0
 13
-57.88996455599704
 23
-5.999999999999764
 33
0.0
  0
SOLID
  5
8EA4
330
8312
100
AcDbEntity
  8
SK2
100
AcDbTrace
 10
-58.3066312226637
 20
3.500000000000191
 30
0.0
 11
-57.47329788933037
 21
3.500000000000191
 31
0.0
 12
-57.88996455599704
 22
6.00000000000019
 32
0.0
 13
-57.88996455599704
 23
6.00000000000019
 33
0.0
  0
POINT
  5
8EA5
330
8312
100
AcDbEntity
  8
DEFPOINTS
 62
     0
100
AcDbPoint
 10
-42.0
 20
-5.999999999999769
 30
0.0
  0
POINT
  5
8EA6
330
8312
100
AcDbEntity
  8
DEFPOINTS
 62
     0
100
AcDbPoint
 10
-42.0
 20
6.000000000000186
 30
0.0
  0
POINT
  5
8EA7
330
8312
100
AcDbEntity
  8
DEFPOINTS
 62
     0
100
AcDbPoint
 10
-57.88996455599704
 20
6.00000000000019
 30
0.0
  0
ENDBLK
  5
831E
330
8312
100
AcDbEntity
  8
0
100
AcDbBlockEnd
  0
BLOCK
  5
8A9B
330
8A91
100
AcDbEntity
  8
0
100
AcDbBlockBegin
  2
*D2
 70
     1
 10
0.0
 20
0.0
 30
0.0
  3
*D2
  1

  0
LINE
  5
8EB3
330
8A91
100
AcDbEntity
  8
2
100
AcDbLine
 10
16.99999999999999
 20
5.999999999999976
 30
0.0
 11
16.99999999999999
 21
76.00000000000003
 31
0.0
  0
LINE
  5
8EB4
330
8A91
100
AcDbEntity
  8
2
100
AcDbLine
 10
0.0000000000000018
 20
5.271134343416751
 30
0.0
 11
0.0000000000000061
 21
76.00000000000003
 31
0.0
  0
LINE
  5
8EB5
330
8A91
100
AcDbEntity
  8
2
100
AcDbLine
 10
14.49999999999999
 20
75.00000000000003
 30
0.0
 11
2.500000000000006
 21
75.00000000000003
 31
0.0
  0
SOLID
  5
8EB6
330
8A91
100
AcDbEntity
  8
2
100
AcDbTrace
 10
14.49999999999999
 20
75.4166666666667
 30
0.0
 11
14.49999999999999
 21
74.58333333333335
 31
0.0
 12
16.99999999999999
 22
75.00000000000003
 32
0.0
 13
16.99999999999999
 23
75.00000000000003
 33
0.0
  0
SOLID
  5
8EB7
330
8A91
100
AcDbEntity
  8
2
100
AcDbTrace
 10
2.500000000000006
 20
75.4166666666667
 30
0.0
 11
2.500000000000006
 21
74.58333333333335
 31
0.0
 12
0.000000000000006
 22
75.00000000000003
 32
0.0
 13
0.000000000000006
 23
75.00000000000003
 33
0.0
  0
MTEXT
  5
8EB8
330
8A91
100
AcDbEntity
  8
2
 62
     2
100
AcDbMText
 10
8.500000000000001
 20
78.25000000000002
 30
0.0
 40
3.5
 41
0.0
 71
     5
 72
     1
  1
\A1;17
1001
ACAD
1000
MTEXTBEGIN
1070
    73
1070
     1
1070
    44
1040
1.0
1070
    74
1070
     0
1000
MTEXTEND
  0
POINT
  5
8EB9
330
8A91
100
AcDbEntity
  8
DEFPOINTS
 62
     0
100
AcDbPoint
 10
16.99999999999999
 20
5.999999999999976
 30
0.0
  0
POINT
  5
8EBA
330
8A91
100
AcDbEntity
  8
DEFPOINTS
 62
     0
100
AcDbPoint
 10
0.0000000000000018
 20
5.271134343416751
 30
0.0
  0
POINT
  5
8EBB
330
8A91
100
AcDbEntity
  8
DEFPOINTS
 62
     0
100
AcDbPoint
 10
0.000000000000006
 20
75.00000000000003
 30
0.0
  0
ENDBLK
  5
8A9C
330
8A91
100
AcDbEntity
  8
0
100
AcDbBlockEnd
  0
BLOCK
  5
8D0F
330
8D03
100
AcDbEntity
  8
0
100
AcDbBlockBegin
  2
*D3
 70
     1
 10
0.0
 20
0.0
 30
0.0
  3
*D3
  1

  0
LINE
  5
8EA8
330
8D03
100
AcDbEntity
  8
2
100
AcDbLine
 10
17.0
 20
5.999999999999978
 30
0.0
 11
17.0
 21
61.00000000000003
 31
0.0
  0
LINE
  5
8EA9
330
8D03
100
AcDbEntity
  8
2
100
AcDbLine
 10
11.30000000000001
 20
6.10450318701843
 30
0.0
 11
11.30000000000001
 21
61.00000000000003
 31
0.0
  0
LINE
  5
8EAA
330
8D03
100
AcDbEntity
  8
2
100
AcDbLine
 10
19.5
 20
60.00000000000003
 30
0.0
 11
22.0
 21
60.00000000000003
 31
0.0
  0
LINE
  5
8EAB
330
8D03
100
AcDbEntity
  8
2
100
AcDbLine
 10
8.800000000000013
 20
60.00000000000003
 30
0.0
 11
6.300000000000013
 21
60.00000000000003
 31
0.0
  0
MTEXT
  5
8EAC
330
8D03
100
AcDbEntity
  8
2
 62
     2
100
AcDbMText
 10
13.99909546068761
 20
62.84593067963476
 30
0.0
 40
3.5
 41
0.0
 71
     5
 72
     1
  1
\A1;5.7
1001
ACAD
1000
MTEXTBEGIN
1070
    73
1070
     1
1070
    44
1040
1.0
1070
    74
1070
     0
1000
MTEXTEND
  0
LINE
  5
8EAD
330
8D03
100
AcDbEntity
  8
2
100
AcDbLine
 10
17.0
 20
60.00000000000003
 30
0.0
 11
11.30000000000001
 21
60.00000000000003
 31
0.0
  0
SOLID
  5
8EAE
330
8D03
100
AcDbEntity
  8
2
100
AcDbTrace
 10
19.5
 20
60.41666666666669
 30
0.0
 11
19.5
 21
59.58333333333336
 31
0.0
 12
17.0
 22
60.00000000000003
 32
0.0
 13
17.0
 23
60.00000000000003
 33
0.0
  0
SOLID
  5
8EAF
330
8D03
100
AcDbEntity
  8
2
100
AcDbTrace
 10
8.800000000000013
 20
60.41666666666669
 30
0.0
 11
8.800000000000013
 21
59.58333333333336
 31
0.0
 12
11.30000000000001
 22
60.00000000000003
 32
0.0
 13
11.30000000000001
 23
60.00000000000003
 33
0.0
  0
POINT
  5
8EB0
330
8D03
100
AcDbEntity
  8
DEFPOINTS
 62
     0
100
AcDbPoint
 10
17.0
 20
5.999999999999978
 30
0.0
  0
POINT
  5
8EB1
330
8D03
100
AcDbEntity
  8
DEFPOINTS
 62
     0
100
AcDbPoint
 10
11.30000000000001
 20
6.10450318701843
 30
0.0
  0
POINT
  5
8EB2
330
8D03
100
AcDbEntity
  8
DEFPOINTS
 62
     0
100
AcDbPoint
 10
11.30000000000001
 20
60.00000000000003
 30
0.0
  0
ENDBLK
  5
8D10
330
8D03
100
AcDbEntity
  8
0
100
AcDbBlockEnd
  0
BLOCK
  5
8D48
330
8D3E
100
AcDbEntity
  8
0
100
AcDbBlockBegin
  2
*D4
 70
     1
 10
0.0
 20
0.0
 30
0.0
  3
*D4
  1

  0
LINE
  5
8EBC
330
8D3E
100
AcDbEntity
  8
2
100
AcDbLine
 10
17.0
 20
5.999999999999976
 30
0.0
 11
40.0988063784157
 21
5.999999999999968
 31
0.0
  0
LINE
  5
8EBD
330
8D3E
100
AcDbEntity
  8
2
100
AcDbLine
 10
16.99999999999991
 20
-6.00000000000001
 30
0.0
 11
40.0988063784157
 21
-6.000000000000017
 31
0.0
  0
LINE
  5
8EBE
330
8D3E
100
AcDbEntity
  8
2
100
AcDbLine
 10
39.0988063784157
 20
3.499999999999968
 30
0.0
 11
39.0988063784157
 21
-3.500000000000017
 31
0.0
  0
SOLID
  5
8EBF
330
8D3E
100
AcDbEntity
  8
2
100
AcDbTrace
 10
38.68213971174903
 20
3.499999999999969
 30
0.0
 11
39.51547304508236
 21
3.499999999999968
 31
0.0
 12
39.0988063784157
 22
5.999999999999968
 32
0.0
 13
39.0988063784157
 23
5.999999999999968
 33
0.0
  0
SOLID
  5
8EC0
330
8D3E
100
AcDbEntity
  8
2
100
AcDbTrace
 10
38.68213971174903
 20
-3.500000000000017
 30
0.0
 11
39.51547304508236
 21
-3.500000000000017
 31
0.0
 12
39.0988063784157
 22
-6.000000000000017
 32
0.0
 13
39.0988063784157
 23
-6.000000000000017
 33
0.0
  0
MTEXT
  5
8EC1
330
8D3E
100
AcDbEntity
  8
2
 62
     2
100
AcDbMText
 10
35.84846189022672
 20
-0.0000000000000175
 30
0.0
 40
3.5
 41
0.0
 71
     5
 72
     1
  1
\A1;%%c12
 11
0.0000000000000001
 21
1.0
 31
0.0
1001
ACAD
1000
MTEXTBEGIN
1070
    73
1070
     1
1070
    44
1040
1.0
1070
    74
1070
     0
1000
MTEXTEND
  0
POINT
  5
8EC2
330
8D3E
100
AcDbEntity
  8
DEFPOINTS
 62
     0
100
AcDbPoint
 10
17.0
 20
5.999999999999976
 30
0.0
  0
POINT
  5
8EC3
330
8D3E
100
AcDbEntity
  8
DEFPOINTS
 62
     0
100
AcDbPoint
 10
16.99999999999991
 20
-6.00000000000001
 30
0.0
  0
POINT
  5
8EC4
330
8D3E
100
AcDbEntity
  8
DEFPOINTS
 62
     0
100
AcDbPoint
 10
39.0988063784157
 20
-6.000000000000017
 30
0.0
  0
ENDBLK
  5
8D49
330
8D3E
100
AcDbEntity
  8
0
100
AcDbBlockEnd
  0
BLOCK
  5
8D89
330
8D7F
100
AcDbEntity
  8
0
100
AcDbBlockBegin
  2
*D5
 70
     1
 10
0.0
 20
0.0
 30
0.0
  3
*D5
  1

  0
LINE
  5
8E96
330
8D7F
100
AcDbEntity
  8
SK2
100
AcDbLine
 10
16.99999999999991
 20
-6.00000000000001
 30
0.0
 11
16.99999999999991
 21
-28.07577645094105
 31
0.0
  0
LINE
  5
8E97
330
8D7F
100
AcDbEntity
  8
SK2
100
AcDbLine
 10
-43.0
 20
-4.999999999999768
 30
0.0
 11
-43.0
 21
-28.07577645094105
 31
0.0
  0
LINE
  5
8E98
330
8D7F
100
AcDbEntity
  8
SK2
100
AcDbLine
 10
14.49999999999991
 20
-27.07577645094105
 30
0.0
 11
-40.49999999999999
 21
-27.07577645094105
 31
0.0
  0
SOLID
  5
8E99
330
8D7F
100
AcDbEntity
  8
SK2
100
AcDbTrace
 10
14.49999999999991
 20
-26.65910978427438
 30
0.0
 11
14.49999999999991
 21
-27.49244311760772
 31
0.0
 12
16.99999999999991
 22
-27.07577645094105
 32
0.0
 13
16.99999999999991
 23
-27.07577645094105
 33
0.0
  0
SOLID
  5
8E9A
330
8D7F
100
AcDbEntity
  8
SK2
100
AcDbTrace
 10
-40.49999999999999
 20
-26.65910978427438
 30
0.0
 11
-40.49999999999999
 21
-27.49244311760772
 31
0.0
 12
-43.0
 22
-27.07577645094105
 32
0.0
 13
-43.0
 23
-27.07577645094105
 33
0.0
  0
MTEXT
  5
8E9B
330
8D7F
100
AcDbEntity
  8
SK2
 62
     2
100
AcDbMText
 10
-13.00000000000004
 20
-23.82577645094105
 30
0.0
 40
3.5
 41
0.0
 71
     5
 72
     1
  1
\A1;60
1001
ACAD
1000
MTEXTBEGIN
1070
    73
1070
     1
1070
    44
1040
1.0
1070
    74
1070
     0
1000
MTEXTEND
  0
POINT
  5
8E9C
330
8D7F
100
AcDbEntity
  8
DEFPOINTS
 62
     0
100
AcDbPoint
 10
16.99999999999991
 20
-6.00000000000001
 30
0.0
  0
POINT
  5
8E9D
330
8D7F
100
AcDbEntity
  8
DEFPOINTS
 62
     0
100
AcDbPoint
 10
-43.0
 20
-4.999999999999768
 30
0.0
  0
POINT
  5
8E9E
330
8D7F
100
AcDbEntity
  8
DEFPOINTS
 62
     0
100
AcDbPoint
 10
-43.0
 20
-27.07577645094105
 30
0.0
  0
ENDBLK
  5
8D8A
330
8D7F
100
AcDbEntity
  8
0
100
AcDbBlockEnd
  0
ENDSEC
  0
SECTION
  2
ENTITIES
  0
LINE
  5
8034
330
6A34
100
AcDbEntity
  8
1
100
AcDbLine
 10
-0.0000000000000018
 20
6.000000000000105
 30
0.0
 11
-15.0
 21
6.000000000000105
 31
0.0
  0
LINE
  5
8035
330
6A34
100
AcDbEntity
  8
SK1
100
AcDbLine
 10
-42.0
 20
6.000000000000187
 30
0.0
 11
-43.0
 21
5.000000000000186
 31
0.0
  0
LINE
  5
8036
330
6A34
100
AcDbEntity
  8
SK1
100
AcDbLine
 10
-43.0
 20
5.000000000000186
 30
0.0
 11
-43.0
 21
-4.999999999999768
 31
0.0
  0
LINE
  5
8037
330
6A34
100
AcDbEntity
  8
SK1
100
AcDbLine
 10
-43.0
 20
-4.999999999999768
 30
0.0
 11
-42.0
 21
-5.999999999999768
 31
0.0
  0
LINE
  5
8038
330
6A34
100
AcDbEntity
  8
SK1
100
AcDbLine
 10
-42.0
 20
-5.999999999999768
 30
0.0
 11
-0.0000000000000018
 21
-5.999999999999894
 31
0.0
  0
LINE
  5
8039
330
6A34
100
AcDbEntity
  8
SK1
100
AcDbLine
 10
-42.0
 20
-5.999999999999768
 30
0.0
 11
-42.0
 21
6.000000000000187
 31
0.0
  0
LINE
  5
807A
330
6A34
100
AcDbEntity
  8
SK1
100
AcDbLine
 10
-18.20011517494867
 20
0.0
 30
0.0
 11
-11.79988482505132
 21
0.0
 31
0.0
  0
LINE
  5
8081
330
6A34
100
AcDbEntity
  8
SK1
100
AcDbLine
 10
0.0
 20
6.00000000000006
 30
0.0
 11
-42.0
 21
6.000000000000187
 31
0.0
  0
LINE
  5
80B1
330
6A34
100
AcDbEntity
  8
SK1
100
AcDbLine
 10
17.0
 20
6.463769369848795
 30
0.0
 11
17.0
 21
5.536230630151156
 31
0.0
  0
LINE
  5
80B2
330
6A34
100
AcDbEntity
  8
SK1
100
AcDbLine
 10
16.53623063015118
 20
5.999999999999976
 30
0.0
 11
17.46376936984882
 21
5.999999999999976
 31
0.0
  0
CIRCLE
  5
80B3
330
6A34
100
AcDbEntity
  8
SK1
100
AcDbCircle
 10
17.0
 20
5.999999999999976
 30
0.0
 40
0.4637693698488208
  0
LINE
  5
80BA
330
6A34
100
AcDbEntity
  8
1
100
AcDbLine
 10
10.8330332351133
 20
5.271134343416752
 30
0.0
 11
0.0
 21
5.271134343416751
 31
0.0
  0
LINE
  5
80E9
330
6A34
100
AcDbEntity
  8
1
100
AcDbLine
 10
15.99679480008381
 20
1.89776970094195
 30
0.0
 11
15.99679480008381
 21
-5.271134343416511
 31
0.0
  0
LINE
  5
80EB
330
6A34
100
AcDbEntity
  8
SK4
100
AcDbLine
 10
-0.0000000000000018
 20
0.000000000000258
 30
0.0
 11
-44.94975141587883
 21
0.0000000000000811
 31
0.0
  0
LINE
  5
80EC
330
6A34
100
AcDbEntity
  8
4
100
AcDbLine
 10
18.62883376006539
 20
-0.0000000000000284
 30
0.0
 11
0.0000000000000018
 21
0.0000000000000975
 31
0.0
  0
LINE
  5
80ED
330
6A34
100
AcDbEntity
  8
1
100
AcDbLine
 10
15.99679480008381
 20
-5.271134343416511
 30
0.0
 11
0.0000000000000053
 21
-5.271134343416511
 31
0.0
  0
DIMENSION
  5
8311
330
6A34
100
AcDbEntity
  8
SK2
100
AcDbDimension
  2
*D1
 10
-57.88996455599704
 20
6.00000000000019
 30
0.0
 11
-60.12419689684861
 21
0.0116599624972722
 31
0.0
 70
   160
  1
%%c<>
 53
90.0
  3
AM_ANSI
100
AcDbAlignedDimension
 13
-42.0
 23
-5.999999999999768
 33
0.0
 14
-42.0
 24
6.000000000000187
 34
0.0
 50
90.0
100
AcDbRotatedDimension
1001
ACAD
1000
DSTYLE
1002
{
1070
    42
1040
0.0
1070
    44
1040
1.0
1070
    41
1040
2.5
1070
   140
1040
3.5
1070
   271
1070
     0
1002
}
  0
LINE
  5
84C6
330
6A34
100
AcDbEntity
  8
NOCUT
100
AcDbLine
 10
0.0
 20
0.0
 30
0.0
 11
0.0
 21
-5.271134343416511
 31
0.0
  0
LINE
  5
84C9
330
6A34
100
AcDbEntity
  8
NOCUT
100
AcDbLine
 10
0.0
 20
-5.271134343416511
 30
0.0
 11
15.99679480008383
 21
-5.271134343416511
 31
0.0
  0
LINE
  5
84CA
330
6A34
100
AcDbEntity
  8
NOCUT
100
AcDbLine
 10
15.99679480008383
 20
-5.271134343416511
 30
0.0
 11
15.99679480008385
 21
0.0
 31
0.0
  0
LINE
  5
84CB
330
6A34
100
AcDbEntity
  8
NOCUT
100
AcDbLine
 10
15.99679480008385
 20
0.0
 30
0.0
 11
0.0
 21
0.0
 31
0.0
  0
TEXT
  5
84D7
330
6A34
100
AcDbEntity
  8
6
100
AcDbText
 10
18.13144463885832
 20
-16.0508548520126
 30
0.0
 40
3.5
  1
12J1D012017T2R00
100
AcDbText
  0
LINE
  5
8523
330
6A34
100
AcDbEntity
  8
4
100
AcDbLine
 10
5.684827854921146
 20
-0.60864951126932
 30
0.0
 11
10.27788322613011
 21
2.291339009833025
 31
0.0
  0
DIMENSION
  5
8A90
330
6A34
100
AcDbEntity
  8
2
100
AcDbDimension
  2
*D2
 10
0.000000000000006
 20
75.00000000000003
 30
0.0
 11
8.500000000000001
 21
78.25000000000002
 31
0.0
 70
    32
  3
AM_DIN
100
AcDbAlignedDimension
 13
16.99999999999999
 23
5.999999999999976
 33
0.0
 14
0.0000000000000018
 24
5.271134343416751
 34
0.0
 50
0.0000000000000127
100
AcDbRotatedDimension
  0
CIRCLE
  5
8CE2
330
6A34
100
AcDbEntity
  8
SK1
100
AcDbCircle
 10
16.99999999999991
 20
-6.00000000000001
 30
0.0
 40
0.4637693698488208
  0
LINE
  5
8CE3
330
6A34
100
AcDbEntity
  8
SK1
100
AcDbLine
 10
16.53623063015109
 20
-6.000000000000004
 30
0.0
 11
17.46376936984874
 21
-6.000000000000016
 31
0.0
  0
LINE
  5
8CE4
330
6A34
100
AcDbEntity
  8
SK1
100
AcDbLine
 10
16.9999999999999
 20
-6.463769369848829
 30
0.0
 11
16.99999999999992
 21
-5.536230630151191
 31
0.0
  0
TEXT
  5
8CE5
330
6A34
100
AcDbEntity
  8
6
100
AcDbText
 10
22.0247699963736
 20
10.54879095710698
 30
0.0
 40
2.5
  1
AOMT060202R
100
AcDbText
  0
TEXT
  5
8CE6
330
6A34
100
AcDbEntity
  8
6
100
AcDbText
 10
44.46933469908032
 20
-3.543356319031254
 30
0.0
 40
3.5
  1
Z=3
 50
90.0
100
AcDbText
  0
DIMENSION
  5
8CE7
330
6A34
100
AcDbEntity
  8
2
100
AcDbDimension
  2
*D3
 10
11.30000000000001
 20
60.00000000000003
 30
0.0
 11
13.99909546068761
 21
62.84593067963476
 31
0.0
 70
   160
  3
AM_DIN
100
AcDbAlignedDimension
 13
17.0
 23
5.999999999999978
 33
0.0
 14
11.30000000000001
 24
6.10450318701843
 34
0.0
100
AcDbRotatedDimension
  0
LINE
  5
8CE8
330
6A34
100
AcDbEntity
  8
CUT
100
AcDbLine
 10
11.0414048019615
 20
5.996082360556322
 30
0.0
 11
10.2675185034482
 21
3.303645258485602
 31
0.0
  0
LINE
  5
8CE9
330
6A34
100
AcDbEntity
  8
1
100
AcDbLine
 10
11.0414048019615
 20
5.996082360556322
 30
0.0
 11
10.2675185034482
 21
3.303645258485602
 31
0.0
  0
CIRCLE
  5
8CEB
330
6A34
100
AcDbEntity
  8
1
100
AcDbCircle
 10
13.62068379221631
 20
4.001176113843065
 30
0.0
 40
1.255206518985224
  0
LINE
  5
8CEC
330
6A34
100
AcDbEntity
  8
1
100
AcDbLine
 10
7.153482806976226
 20
1.535965215811991
 30
0.0
 11
15.99679480008381
 21
1.535965215811991
 31
0.0
  0
ARC
  5
8CED
330
6A34
100
AcDbEntity
  8
CUT
100
AcDbCircle
 10
16.19578257189152
 20
160.2727739410874
 30
0.0
 40
158.3751292476171
100
AcDbArc
 50
267.9151181052105
 51
269.9493100169676
  0
ARC
  5
8CEE
330
6A34
100
AcDbEntity
  8
1
100
AcDbCircle
 10
16.19578257189152
 20
160.2727739410874
 30
0.0
 40
158.3751292476171
100
AcDbArc
 50
267.9151181052105
 51
269.9493100169676
  0
LINE
  5
8CEF
330
6A34
100
AcDbEntity
  8
CUT
100
AcDbLine
 10
10.24139187155526
 20
2.199235457058044
 30
0.0
 11
10.22872719126905
 21
3.011816416896571
 31
0.0
  0
LINE
  5
8CF0
330
6A34
100
AcDbEntity
  8
1
100
AcDbLine
 10
10.24139187155526
 20
2.199235457058044
 30
0.0
 11
10.22872719126905
 21
3.011816416896571
 31
0.0
  0
ARC
  5
8CF1
330
6A34
100
AcDbEntity
  8
CUT
100
AcDbCircle
 10
10.44136758443266
 20
2.202352227686176
 30
0.0
 40
0.2
100
AcDbArc
 50
180.8929251581096
 51
267.9151181052089
1001
GENIUS_GENODEF_13
1002
{
1000
HIER
1070
     0
1002
}
1002
{
1000
MANEDIT
1070
     0
1002
}
1002
{
1000
NOSEL
1070
     0
1002
}
1002
{
1000
BEHIND
1070
     0
1002
}
1002
{
1000
OTHER
1070
     0
1002
}
1002
{
1000
REACTOR
1002
}
1001
GENIUS_GENOBJ-N-FIL_13
1002
{
1000
OWNER
1000
GEN
1002
}
  0
ARC
  5
8CF2
330
6A34
100
AcDbEntity
  8
1
100
AcDbCircle
 10
10.44136758443266
 20
2.202352227686176
 30
0.0
 40
0.2
100
AcDbArc
 50
180.8929251581096
 51
267.9151181052089
1001
GENIUS_GENODEF_13
1002
{
1000
HIER
1070
     0
1002
}
1002
{
1000
MANEDIT
1070
     0
1002
}
1002
{
1000
NOSEL
1070
     0
1002
}
1002
{
1000
BEHIND
1070
     0
1002
}
1002
{
1000
OTHER
1070
     0
1002
}
1002
{
1000
REACTOR
1002
}
1001
GENIUS_GENOBJ-N-FIL_13
1002
{
1000
OWNER
1000
GEN
1002
}
  0
ARC
  5
8CF3
330
6A34
100
AcDbEntity
  8
CUT
100
AcDbCircle
 10
11.22860575565638
 20
3.027400270037169
 30
0.0
 40
1.0
100
AcDbArc
 50
163.9637789131361
 51
180.8929251581054
1001
GENIUS_GENODEF_13
1002
{
1000
HIER
1070
     0
1002
}
1002
{
1000
MANEDIT
1070
     0
1002
}
1002
{
1000
NOSEL
1070
     0
1002
}
1002
{
1000
BEHIND
1070
     0
1002
}
1002
{
1000
OTHER
1070
     0
1002
}
1002
{
1000
REACTOR
1002
}
1001
GENIUS_GENOBJ-N-FIL_13
1002
{
1000
OWNER
1000
GEN
1002
}
  0
ARC
  5
8CF4
330
6A34
100
AcDbEntity
  8
1
100
AcDbCircle
 10
11.22860575565638
 20
3.027400270037169
 30
0.0
 40
1.0
100
AcDbArc
 50
163.9637789131361
 51
180.8929251581054
1001
GENIUS_GENODEF_13
1002
{
1000
HIER
1070
     0
1002
}
1002
{
1000
MANEDIT
1070
     0
1002
}
1002
{
1000
NOSEL
1070
     0
1002
}
1002
{
1000
BEHIND
1070
     0
1002
}
1002
{
1000
OTHER
1070
     0
1002
}
1002
{
1000
REACTOR
1002
}
1001
GENIUS_GENOBJ-N-FIL_13
1002
{
1000
OWNER
1000
GEN
1002
}
  0
ARC
  5
8CF5
330
6A34
100
AcDbEntity
  8
1
100
AcDbCircle
 10
7.394302018563335
 20
7.517932846452502
 30
0.0
 40
5.986813060944881
100
AcDbArc
 50
202.0423144464579
 51
267.694658582602
1001
GENIUS_GENOBJ-N-FIL_13
1002
{
1000
OWNER
1000
GEN
1002
}
1001
GENIUS_GENODEF_13
1002
{
1000
HIER
1070
     0
1002
}
1002
{
1000
MANEDIT
1070
     0
1002
}
1002
{
1000
NOSEL
1070
     0
1002
}
1002
{
1000
BEHIND
1070
     0
1002
}
1002
{
1000
OTHER
1070
     0
1002
}
1002
{
1000
REACTOR
1002
}
  0
ARC
  5
8CF6
330
6A34
100
AcDbEntity
  8
CUT
100
AcDbCircle
 10
16.01276182877626
 20
4.97495195764899
 30
0.0
 40
1.0
100
AcDbArc
 50
343.9637789131365
 51
0.8929251581055208
1001
GENIUS_GENODEF_13
1002
{
1000
HIER
1070
     0
1002
}
1002
{
1000
MANEDIT
1070
     0
1002
}
1002
{
1000
NOSEL
1070
     0
1002
}
1002
{
1000
BEHIND
1070
     0
1002
}
1002
{
1000
OTHER
1070
     0
1002
}
1002
{
1000
REACTOR
1002
}
1001
GENIUS_GENOBJ-N-FIL_13
1002
{
1000
OWNER
1000
GEN
1002
}
  0
ARC
  5
8CF7
330
6A34
100
AcDbEntity
  8
1
100
AcDbCircle
 10
16.01276182877626
 20
4.97495195764899
 30
0.0
 40
1.0
100
AcDbArc
 50
343.9637789131365
 51
0.8929251581055208
1001
GENIUS_GENODEF_13
1002
{
1000
HIER
1070
     0
1002
}
1002
{
1000
MANEDIT
1070
     0
1002
}
1002
{
1000
NOSEL
1070
     0
1002
}
1002
{
1000
BEHIND
1070
     0
1002
}
1002
{
1000
OTHER
1070
     0
1002
}
1002
{
1000
REACTOR
1002
}
1001
GENIUS_GENOBJ-N-FIL_13
1002
{
1000
OWNER
1000
GEN
1002
}
  0
ARC
  5
8CF8
330
6A34
100
AcDbEntity
  8
CUT
100
AcDbCircle
 10
16.05579969464
 20
2.047706615397196
 30
0.0
 40
0.15
100
AcDbArc
 50
269.9493100169253
 51
343.9637789131317
1001
GENIUS_GENOBJ-N-FIL_13
1002
{
1000
OWNER
1000
GEN
1002
}
1001
GENIUS_GENODEF_13
1002
{
1000
HIER
1070
     0
1002
}
1002
{
1000
MANEDIT
1070
     0
1002
}
1002
{
1000
NOSEL
1070
     0
1002
}
1002
{
1000
BEHIND
1070
     0
1002
}
1002
{
1000
OTHER
1070
     0
1002
}
1002
{
1000
REACTOR
1002
}
  0
ARC
  5
8CF9
330
6A34
100
AcDbEntity
  8
1
100
AcDbCircle
 10
16.05579969464
 20
2.047706615397196
 30
0.0
 40
0.15
100
AcDbArc
 50
269.9493100169253
 51
343.9637789131317
1001
GENIUS_GENOBJ-N-FIL_13
1002
{
1000
OWNER
1000
GEN
1002
}
1001
GENIUS_GENODEF_13
1002
{
1000
HIER
1070
     0
1002
}
1002
{
1000
MANEDIT
1070
     0
1002
}
1002
{
1000
NOSEL
1070
     0
1002
}
1002
{
1000
BEHIND
1070
     0
1002
}
1002
{
1000
OTHER
1070
     0
1002
}
1002
{
1000
REACTOR
1002
}
  0
LINE
  5
8CFA
330
6A34
100
AcDbEntity
  8
CUT
100
AcDbLine
 10
16.19996278247123
 20
2.006269867129923
 30
0.0
 11
16.9738490809845
 21
4.698706969200557
 31
0.0
  0
LINE
  5
8CFB
330
6A34
100
AcDbEntity
  8
1
100
AcDbLine
 10
16.19996278247123
 20
2.006269867129923
 30
0.0
 11
16.9738490809845
 21
4.698706969200557
 31
0.0
  0
LINE
  5
8CFC
330
6A34
100
AcDbEntity
  8
CUT
100
AcDbLine
 10
16.99997571287741
 20
5.803116770628115
 30
0.0
 11
17.01264039316365
 21
4.990535810789594
 31
0.0
  0
LINE
  5
8CFD
330
6A34
100
AcDbEntity
  8
1
100
AcDbLine
 10
16.99997571287741
 20
5.803116770628115
 30
0.0
 11
17.01264039316365
 21
4.990535810789594
 31
0.0
  0
ARC
  5
8CFE
330
6A34
100
AcDbEntity
  8
CUT
100
AcDbCircle
 10
11.04558501254123
 20
-152.2704217134013
 30
0.0
 40
158.3751292476171
100
AcDbArc
 50
87.91511810521221
 51
89.94931001696601
  0
ARC
  5
8CFF
330
6A34
100
AcDbEntity
  8
1
100
AcDbCircle
 10
11.04558501254123
 20
-152.2704217134013
 30
0.0
 40
158.3751292476171
100
AcDbArc
 50
87.91511810521221
 51
89.94931001696601
  0
ARC
  5
8D00
330
6A34
100
AcDbEntity
  8
CUT
100
AcDbCircle
 10
11.1855678897927
 20
5.954645612289077
 30
0.0
 40
0.15
100
AcDbArc
 50
89.94931001695787
 51
163.9637789131396
1001
GENIUS_GENOBJ-N-FIL_13
1002
{
1000
OWNER
1000
GEN
1002
}
1001
GENIUS_GENODEF_13
1002
{
1000
HIER
1070
     0
1002
}
1002
{
1000
MANEDIT
1070
     0
1002
}
1002
{
1000
NOSEL
1070
     0
1002
}
1002
{
1000
BEHIND
1070
     0
1002
}
1002
{
1000
OTHER
1070
     0
1002
}
1002
{
1000
REACTOR
1002
}
  0
ARC
  5
8D01
330
6A34
100
AcDbEntity
  8
1
100
AcDbCircle
 10
11.1855678897927
 20
5.954645612289077
 30
0.0
 40
0.15
100
AcDbArc
 50
89.94931001695787
 51
163.9637789131396
1001
GENIUS_GENOBJ-N-FIL_13
1002
{
1000
OWNER
1000
GEN
1002
}
1001
GENIUS_GENODEF_13
1002
{
1000
HIER
1070
     0
1002
}
1002
{
1000
MANEDIT
1070
     0
1002
}
1002
{
1000
NOSEL
1070
     0
1002
}
1002
{
1000
BEHIND
1070
     0
1002
}
1002
{
1000
OTHER
1070
     0
1002
}
1002
{
1000
REACTOR
1002
}
  0
ARC
  5
8D02
330
6A34
100
AcDbEntity
  8
CUT
100
AcDbCircle
 10
16.80000000000001
 20
5.799999999999982
 30
0.0
 40
0.2
100
AcDbArc
 50
0.8929251581099983
 51
87.91511810520896
1001
GENIUS_GENODEF_13
1002
{
1000
HIER
1070
     0
1002
}
1002
{
1000
MANEDIT
1070
     0
1002
}
1002
{
1000
NOSEL
1070
     0
1002
}
1002
{
1000
BEHIND
1070
     0
1002
}
1002
{
1000
OTHER
1070
     0
1002
}
1002
{
1000
REACTOR
1002
}
1001
GENIUS_GENOBJ-N-FIL_13
1002
{
1000
OWNER
1000
GEN
1002
}
  0
ARC
  5
8D1C
330
6A34
100
AcDbEntity
  8
SK3
100
AcDbCircle
 10
7.394302018563193
 20
-7.517932846452403
 30
0.0
 40
5.986813060944881
100
AcDbArc
 50
92.30534141739632
 51
157.9576855535409
1001
GENIUS_GENOBJ-N-FIL_13
1002
{
1000
OWNER
1000
GEN
1002
}
1001
GENIUS_GENODEF_13
1002
{
1000
HIER
1070
     0
1002
}
1002
{
1000
MANEDIT
1070
     0
1002
}
1002
{
1000
NOSEL
1070
     0
1002
}
1002
{
1000
BEHIND
1070
     0
1002
}
1002
{
1000
OTHER
1070
     0
1002
}
1002
{
1000
REACTOR
1002
}
  0
LINE
  5
8D1D
330
6A34
100
AcDbEntity
  8
SK3
100
AcDbLine
 10
7.153482806976198
 20
-1.535965215811891
 30
0.0
 11
15.99679480008378
 21
-1.535965215812005
 31
0.0
  0
ARC
  5
8D1E
330
6A34
100
AcDbEntity
  8
SK3
100
AcDbCircle
 10
16.19578257188933
 20
-160.2727739410875
 30
0.0
 40
158.3751292476171
100
AcDbArc
 50
90.07198833903467
 51
92.08488189478776
  0
ARC
  5
8D1F
330
6A34
100
AcDbEntity
  8
SK3
100
AcDbCircle
 10
10.44136758443258
 20
-2.202352227686112
 30
0.0
 40
0.2
100
AcDbArc
 50
92.08488189478941
 51
179.1070748418896
1001
GENIUS_GENODEF_13
1002
{
1000
HIER
1070
     0
1002
}
1002
{
1000
MANEDIT
1070
     0
1002
}
1002
{
1000
NOSEL
1070
     0
1002
}
1002
{
1000
BEHIND
1070
     0
1002
}
1002
{
1000
OTHER
1070
     0
1002
}
1002
{
1000
REACTOR
1002
}
1001
GENIUS_GENOBJ-N-FIL_13
1002
{
1000
OWNER
1000
GEN
1002
}
  0
LINE
  5
8D20
330
6A34
100
AcDbEntity
  8
SK3
100
AcDbLine
 10
10.24139187155523
 20
-2.19923545705798
 30
0.0
 11
10.22872719126897
 21
-3.011816416896508
 31
0.0
  0
ARC
  5
8D21
330
6A34
100
AcDbEntity
  8
SK3
100
AcDbCircle
 10
11.22860575565633
 20
-3.027400270037126
 30
0.0
 40
1.0
100
AcDbArc
 50
179.1070748418936
 51
196.036221086863
1001
GENIUS_GENODEF_13
1002
{
1000
HIER
1070
     0
1002
}
1002
{
1000
MANEDIT
1070
     0
1002
}
1002
{
1000
NOSEL
1070
     0
1002
}
1002
{
1000
BEHIND
1070
     0
1002
}
1002
{
1000
OTHER
1070
     0
1002
}
1002
{
1000
REACTOR
1002
}
1001
GENIUS_GENOBJ-N-FIL_13
1002
{
1000
OWNER
1000
GEN
1002
}
  0
LINE
  5
8D22
330
6A34
100
AcDbEntity
  8
SK3
100
AcDbLine
 10
10.83303323511356
 20
-5.271134343417962
 30
0.0
 11
10.26751850344814
 21
-3.303645258485538
 31
0.0
  0
CIRCLE
  5
8D23
330
6A34
100
AcDbEntity
  8
SK3
100
AcDbCircle
 10
13.62068379221622
 20
-4.001176113843051
 30
0.0
 40
1.255206518985224
  0
ARC
  5
8D24
330
6A34
100
AcDbEntity
  8
1
100
AcDbCircle
 10
11.04558501254328
 20
152.2704217134013
 30
0.0
 40
158.3751292476171
100
AcDbArc
 50
270.0506899830323
 51
272.0848818947877
  0
LINE
  5
8D25
330
6A34
100
AcDbEntity
  8
1
100
AcDbLine
 10
11.04140480196141
 20
-5.996082360556272
 30
0.0
 11
10.83303323511356
 21
-5.271134343417962
 31
0.0
  0
ARC
  5
8D26
330
6A34
100
AcDbEntity
  8
1
100
AcDbCircle
 10
11.18556788979256
 20
-5.954645612289027
 30
0.0
 40
0.15
100
AcDbArc
 50
196.0362210868595
 51
270.0506899830405
1001
GENIUS_GENOBJ-N-FIL_13
1002
{
1000
OWNER
1000
GEN
1002
}
1001
GENIUS_GENODEF_13
1002
{
1000
HIER
1070
     0
1002
}
1002
{
1000
MANEDIT
1070
     0
1002
}
1002
{
1000
NOSEL
1070
     0
1002
}
1002
{
1000
BEHIND
1070
     0
1002
}
1002
{
1000
OTHER
1070
     0
1002
}
1002
{
1000
REACTOR
1002
}
  0
LINE
  5
8D27
330
6A34
100
AcDbEntity
  8
1
100
AcDbLine
 10
16.1999627824712
 20
-2.006269867129937
 30
0.0
 11
16.97384908098442
 21
-4.698706969200593
 31
0.0
  0
LINE
  5
8D28
330
6A34
100
AcDbEntity
  8
1
100
AcDbLine
 10
16.99997571287733
 20
-5.803116770628143
 30
0.0
 11
17.01264039316353
 21
-4.990535810789623
 31
0.0
  0
ARC
  5
8D29
330
6A34
100
AcDbEntity
  8
1
100
AcDbCircle
 10
16.01276182877617
 20
-4.974951957649004
 30
0.0
 40
1.0
100
AcDbArc
 50
359.1070748418936
 51
16.03622108686268
1001
GENIUS_GENODEF_13
1002
{
1000
HIER
1070
     0
1002
}
1002
{
1000
MANEDIT
1070
     0
1002
}
1002
{
1000
NOSEL
1070
     0
1002
}
1002
{
1000
BEHIND
1070
     0
1002
}
1002
{
1000
OTHER
1070
     0
1002
}
1002
{
1000
REACTOR
1002
}
1001
GENIUS_GENOBJ-N-FIL_13
1002
{
1000
OWNER
1000
GEN
1002
}
  0
ARC
  5
8D2A
330
6A34
100
AcDbEntity
  8
1
100
AcDbCircle
 10
16.19578257188933
 20
-160.2727739410875
 30
0.0
 40
158.3751292476171
100
AcDbArc
 50
90.05068998303235
 51
90.07198833903467
  0
ARC
  5
8D2B
330
6A34
100
AcDbEntity
  8
1
100
AcDbCircle
 10
16.05579969463994
 20
-2.04770661539721
 30
0.0
 40
0.15
100
AcDbArc
 50
16.03622108686744
 51
90.0506899830747
1001
GENIUS_GENOBJ-N-FIL_13
1002
{
1000
OWNER
1000
GEN
1002
}
1001
GENIUS_GENODEF_13
1002
{
1000
HIER
1070
     0
1002
}
1002
{
1000
MANEDIT
1070
     0
1002
}
1002
{
1000
NOSEL
1070
     0
1002
}
1002
{
1000
BEHIND
1070
     0
1002
}
1002
{
1000
OTHER
1070
     0
1002
}
1002
{
1000
REACTOR
1002
}
  0
ARC
  5
8D2C
330
6A34
100
AcDbEntity
  8
1
100
AcDbCircle
 10
16.79999999999992
 20
-5.800000000000011
 30
0.0
 40
0.2
100
AcDbArc
 50
272.0848818947894
 51
359.1070748418895
1001
GENIUS_GENODEF_13
1002
{
1000
HIER
1070
     0
1002
}
1002
{
1000
MANEDIT
1070
     0
1002
}
1002
{
1000
NOSEL
1070
     0
1002
}
1002
{
1000
BEHIND
1070
     0
1002
}
1002
{
1000
OTHER
1070
     0
1002
}
1002
{
1000
REACTOR
1002
}
1001
GENIUS_GENOBJ-N-FIL_13
1002
{
1000
OWNER
1000
GEN
1002
}
  0
DIMENSION
  5
8D3D
330
6A34
100
AcDbEntity
  8
2
100
AcDbDimension
  2
*D4
 10
39.0988063784157
 20
-6.000000000000017
 30
0.0
 11
35.84846189022672
 21
-0.0000000000000175
 31
0.0
 70
    32
  1
%%c<>
  3
AM_DIN
100
AcDbAlignedDimension
 13
17.0
 23
5.999999999999976
 33
0.0
 14
16.99999999999991
 24
-6.00000000000001
 34
0.0
 50
90.0
100
AcDbRotatedDimension
  0
DIMENSION
  5
8D7E
330
6A34
100
AcDbEntity
  8
SK2
100
AcDbDimension
  2
*D5
 10
-43.0
 20
-27.07577645094105
 30
0.0
 11
-13.00000000000004
 21
-23.82577645094105
 31
0.0
 70
    32
  3
AM_DIN
100
AcDbAlignedDimension
 13
16.99999999999991
 23
-6.00000000000001
 33
0.0
 14
-43.0
 24
-4.999999999999768
 34
0.0
 50
0.0000000000001132
100
AcDbRotatedDimension
  0
CIRCLE
  5
8E30
330
6A34
100
AcDbEntity
  8
SK1
100
AcDbCircle
 10
0.0
 20
0.0
 30
0.0
 40
2.200115174948665
  0
LINE
  5
8E4D
330
6A34
100
AcDbEntity
  8
SK1
100
AcDbLine
 10
0.0
 20
6.00000000000006
 30
0.0
 11
-0.0000000000000018
 21
-5.999999999999893
 31
0.0
  0
ARC
  5
8ED6
330
6A34
100
AcDbEntity
  8
1
100
AcDbCircle
 10
16.79999999999995
 20
5.799999999999953
 30
0.0
 40
0.2
100
AcDbArc
 50
0.8929251581094899
 51
87.91511810520898
1001
GENIUS_GENODEF_13
1002
{
1000
HIER
1070
     0
1002
}
1002
{
1000
MANEDIT
1070
     0
1002
}
1002
{
1000
NOSEL
1070
     0
1002
}
1002
{
1000
BEHIND
1070
     0
1002
}
1002
{
1000
OTHER
1070
     0
1002
}
1002
{
1000
REACTOR
1002
}
1001
GENIUS_GENOBJ-N-FIL_13
1002
{
1000
OWNER
1000
GEN
1002
}
  0
ENDSEC
  0
SECTION
  2
OBJECTS
  0
DICTIONARY
  5
6A22
330
0
100
AcDbDictionary
  3
ACAD_GROUP
350
6A23
  3
ACAD_LAYOUT
350
6A2F
  3
ACAD_MLINESTYLE
350
6A2C
  3
ACAD_PLOTSETTINGS
350
6A2E
  3
ACAD_PLOTSTYLENAME
350
6A24
  3
ACDBHEADERROUNDTRIPXREC
350
8EDA
  3
ACDBVARIABLEDICTIONARY
350
6B78
  3
ACMDICTIONARY
350
6B39
  3
AMG
350
6B22
  3
AMGSNAPSETTINGS
350
6B59
  3
DWGPROPS
350
8ED4
  0
DICTIONARY
  5
6B62
330
6A34
100
AcDbDictionary
280
     1
  3
ACAD_INDEX
360
6B63
  3
ACAD_LAYOUTSELFREF
360
8EFD
  0
DICTIONARY
  5
8EFB
330
6A30
100
AcDbDictionary
280
     1
  3
ACAD_LAYOUTSELFREF
360
8EFC
  0
DICTIONARY
  5
6A23
102
{ACAD_REACTORS
330
6A22
102
}
330
6A22
100
AcDbDictionary
  0
DICTIONARY
  5
6A2F
102
{ACAD_REACTORS
330
6A22
102
}
330
6A22
100
AcDbDictionary
  0
DICTIONARY
  5
6A2C
102
{ACAD_REACTORS
330
6A22
102
}
330
6A22
100
AcDbDictionary
  3
STANDARD
350
6A2D
  0
DICTIONARY
  5
6A2E
102
{ACAD_REACTORS
330
6A22
102
}
330
6A22
100
AcDbDictionary
  0
ACDBDICTIONARYWDFLT
  5
6A24
102
{ACAD_REACTORS
330
6A22
102
}
330
6A22
100
AcDbDictionary
281
     1
  3
Normal
350
6A25
100
AcDbDictionaryWithDefault
340
6A25
  0
DICTIONARY
  5
8EDA
102
{ACAD_REACTORS
330
6A22
102
}
330
6A22
100
AcDbDictionary
  3
CEPSNTYPE
350
8EE4
  3
DIMSTYLEDATA
350
8EE8
  3
FINGERPRINTGUID
350
8EE5
  3
HYPERLINKBASE
350
8EDD
  3
INSUNITS
350
8EE3
  3
LAYOUTDICT
350
8EDF
  3
LWETCUNION
350
8EE2
  3
PLOTSETDICT
350
8EE0
  3
PLOTSTYLNAMDICT
350
8EE1
  3
PSVPSCALE
350
8EE7
  3
PUCSBASE
350
8EEB
  3
PUCSORGBACK
350
8EF1
  3
PUCSORGBOTTOM
350
8EED
  3
PUCSORGFRONT
350
8EF0
  3
PUCSORGLEFT
350
8EEE
  3
PUCSORGRIGHT
350
8EEF
  3
PUCSORGTOP
350
8EEC
  3
PUCSORTHOREF
350
8EE9
  3
PUCSORTHOVIEW
350
8EEA
  3
STYLESHEET
350
8EDE
  3
TSTACKALIGN
350
8EDB
  3
TSTACKSIZE
350
8EDC
  3
UCSBASE
350
8EF4
  3
UCSORGBACK
350
8EFA
  3
UCSORGBOTTOM
350
8EF6
  3
UCSORGFRONT
350
8EF9
  3
UCSORGLEFT
350
8EF7
  3
UCSORGRIGHT
350
8EF8
  3
UCSORGTOP
350
8EF5
  3
UCSORTHOREF
350
8EF2
  3
UCSORTHOVIEW
350
8EF3
  3
VERSIONGUID
350
8EE6
  0
DICTIONARY
  5
6B78
102
{ACAD_REACTORS
330
6A22
102
}
330
6A22
100
AcDbDictionary
  3
DIMASSOC
350
6B7A
  3
INDEXCTL
350
6B79
  0
DICTIONARY
  5
6B39
102
{ACAD_REACTORS
330
6A22
102
}
330
6A22
100
AcDbDictionary
  3
ACMSTDDICTIONARY
350
6B3F
  0
DICTIONARY
  5
6B22
102
{ACAD_REACTORS
330
6A22
102
}
330
6A22
100
AcDbDictionary
  3
ACMGSETTINGS
350
6B23
  0
DICTIONARY
  5
6B59
102
{ACAD_REACTORS
330
6A22
102
}
330
6A22
100
AcDbDictionary
  0
XRECORD
  5
8ED4
102
{ACAD_REACTORS
330
6A22
102
}
330
6A22
100
AcDbXrecord
  1
DWGPROPS COOKIE
  2

  3

  4

  6

  7

  8

  9

300
AmdtFileType=84
301
=
302
=
303
=
304
=
305
=
306
=
307
=
308
=
309
=
 40
0.1819593865740741
 41
2453447.471737477
 42
2453592.645750556
  1

 90
        1
  0
DICTIONARY
  5
6B63
102
{ACAD_REACTORS
330
6B62
102
}
330
6B62
100
AcDbDictionary
  3
*A1
350
6B64
  0
XRECORD
  5
8EFD
102
{ACAD_REACTORS
330
6B62
102
}
330
6B62
100
AcDbXrecord
340
6A34
  0
XRECORD
  5
8EFC
102
{ACAD_REACTORS
330
8EFB
102
}
330
8EFB
100
AcDbXrecord
340
6A30
  0
MLINESTYLE
  5
6A2D
102
{ACAD_REACTORS
330
6A2C
102
}
330
6A2C
100
AcDbMlineStyle
  2
STANDARD
 70
     0
  3

 62
   256
 51
90.0
 52
90.0
 71
     2
 49
0.5
 62
   256
  6
BYLAYER
 49
-0.5
 62
   256
  6
BYLAYER
  0
ACDBPLACEHOLDER
  5
6A25
102
{ACAD_REACTORS
330
6A24
102
}
330
6A24
100
AcDbPlaceHolder
280
     0
  0
XRECORD
  5
8EE4
102
{ACAD_REACTORS
330
8EDA
102
}
330
8EDA
100
AcDbXrecord
 90
        0
  0
XRECORD
  5
8EE8
102
{ACAD_REACTORS
330
8EDA
102
}
330
8EDA
100
AcDbXrecord
1000
DSTYLE
1002
{
1070
   279
 70
     2
1002
}
  0
XRECORD
  5
8EE5
102
{ACAD_REACTORS
330
8EDA
102
}
330
8EDA
100
AcDbXrecord
  1
{5E8163B8-4D8F-4110-B677-A6458ADDE735}
  0
XRECORD
  5
8EDD
102
{ACAD_REACTORS
330
8EDA
102
}
330
8EDA
100
AcDbXrecord
  1

  0
XRECORD
  5
8EE3
102
{ACAD_REACTORS
330
8EDA
102
}
330
8EDA
100
AcDbXrecord
 90
        4
  0
XRECORD
  5
8EDF
102
{ACAD_REACTORS
330
8EDA
102
}
330
8EDA
100
AcDbXrecord
340
6A2F
  0
XRECORD
  5
8EE2
102
{ACAD_REACTORS
330
8EDA
102
}
330
8EDA
100
AcDbXrecord
 90
    10781
  0
XRECORD
  5
8EE0
102
{ACAD_REACTORS
330
8EDA
102
}
330
8EDA
100
AcDbXrecord
340
6A2E
  0
XRECORD
  5
8EE1
102
{ACAD_REACTORS
330
8EDA
102
}
330
8EDA
100
AcDbXrecord
340
6A24
  0
XRECORD
  5
8EE7
102
{ACAD_REACTORS
330
8EDA
102
}
330
8EDA
100
AcDbXrecord
 40
0.0
  0
XRECORD
  5
8EEB
102
{ACAD_REACTORS
330
8EDA
102
}
330
8EDA
100
AcDbXrecord
340
0
  0
XRECORD
  5
8EF1
102
{ACAD_REACTORS
330
8EDA
102
}
330
8EDA
100
AcDbXrecord
 10
0.0
 20
0.0
 30
0.0
  0
XRECORD
  5
8EED
102
{ACAD_REACTORS
330
8EDA
102
}
330
8EDA
100
AcDbXrecord
 10
0.0
 20
0.0
 30
0.0
  0
XRECORD
  5
8EF0
102
{ACAD_REACTORS
330
8EDA
102
}
330
8EDA
100
AcDbXrecord
 10
0.0
 20
0.0
 30
0.0
  0
XRECORD
  5
8EEE
102
{ACAD_REACTORS
330
8EDA
102
}
330
8EDA
100
AcDbXrecord
 10
0.0
 20
0.0
 30
0.0
  0
XRECORD
  5
8EEF
102
{ACAD_REACTORS
330
8EDA
102
}
330
8EDA
100
AcDbXrecord
 10
0.0
 20
0.0
 30
0.0
  0
XRECORD
  5
8EEC
102
{ACAD_REACTORS
330
8EDA
102
}
330
8EDA
100
AcDbXrecord
 10
0.0
 20
0.0
 30
0.0
  0
XRECORD
  5
8EE9
102
{ACAD_REACTORS
330
8EDA
102
}
330
8EDA
100
AcDbXrecord
340
0
  0
XRECORD
  5
8EEA
102
{ACAD_REACTORS
330
8EDA
102
}
330
8EDA
100
AcDbXrecord
 70
     0
  0
XRECORD
  5
8EDE
102
{ACAD_REACTORS
330
8EDA
102
}
330
8EDA
100
AcDbXrecord
  1

  0
XRECORD
  5
8EDB
102
{ACAD_REACTORS
330
8EDA
102
}
330
8EDA
100
AcDbXrecord
 90
        1
  0
XRECORD
  5
8EDC
102
{ACAD_REACTORS
330
8EDA
102
}
330
8EDA
100
AcDbXrecord
 90
       70
  0
XRECORD
  5
8EF4
102
{ACAD_REACTORS
330
8EDA
102
}
330
8EDA
100
AcDbXrecord
340
0
  0
XRECORD
  5
8EFA
102
{ACAD_REACTORS
330
8EDA
102
}
330
8EDA
100
AcDbXrecord
 10
0.0
 20
0.0
 30
0.0
  0
XRECORD
  5
8EF6
102
{ACAD_REACTORS
330
8EDA
102
}
330
8EDA
100
AcDbXrecord
 10
0.0
 20
0.0
 30
0.0
  0
XRECORD
  5
8EF9
102
{ACAD_REACTORS
330
8EDA
102
}
330
8EDA
100
AcDbXrecord
 10
0.0
 20
0.0
 30
0.0
  0
XRECORD
  5
8EF7
102
{ACAD_REACTORS
330
8EDA
102
}
330
8EDA
100
AcDbXrecord
 10
0.0
 20
0.0
 30
0.0
  0
XRECORD
  5
8EF8
102
{ACAD_REACTORS
330
8EDA
102
}
330
8EDA
100
AcDbXrecord
 10
0.0
 20
0.0
 30
0.0
  0
XRECORD
  5
8EF5
102
{ACAD_REACTORS
330
8EDA
102
}
330
8EDA
100
AcDbXrecord
 10
0.0
 20
0.0
 30
0.0
  0
XRECORD
  5
8EF2
102
{ACAD_REACTORS
330
8EDA
102
}
330
8EDA
100
AcDbXrecord
340
0
  0
XRECORD
  5
8EF3
102
{ACAD_REACTORS
330
8EDA
102
}
330
8EDA
100
AcDbXrecord
 70
     0
  0
XRECORD
  5
8EE6
102
{ACAD_REACTORS
330
8EDA
102
}
330
8EDA
100
AcDbXrecord
  1
{10B049B8-F28C-4269-A621-9B38201B5CE6}
  0
DICTIONARYVAR
  5
6B7A
102
{ACAD_REACTORS
330
6B78
102
}
330
6B78
100
DictionaryVariables
280
     0
  1
1
  0
DICTIONARYVAR
  5
6B79
102
{ACAD_REACTORS
330
6B78
102
}
330
6B78
100
DictionaryVariables
280
     0
  1
1
  0
DICTIONARY
  5
6B3F
102
{ACAD_REACTORS
330
6B39
102
}
330
6B39
100
AcDbDictionary
  0
DICTIONARY
  5
6B23
102
{ACAD_REACTORS
330
6B22
102
}
330
6B22
100
AcDbDictionary
  3
DWGSETTINGS
350
6B24
  0
LAYER_INDEX
  5
6B64
102
{ACAD_REACTORS
330
6B63
102
}
330
6B63
100
AcDbIndex
 40
2453594.352218738
100
AcDbLayerIndex
  8
0
360
6B65
 90
        0
  8
DEFPOINTS
360
6B66
 90
        0
  8
1
360
6B67
 90
       28
  8
2
360
6B68
 90
        3
  8
4
360
6B69
 90
        2
  8
6
360
6B6A
 90
        3
  8
SK1
360
6B6B
 90
       15
  8
SK2
360
6B6C
 90
        2
  8
SK4
360
6B6D
 90
        1
  8
CUT
360
6B6E
 90
       12
  8
NOCUT
360
6B6F
 90
        4
  8
SK3
360
8BF4
 90
        8
  0
XRECORD
  5
6B24
102
{ACAD_REACTORS
330
6B23
102
}
330
6B23
100
AcDbXrecord
  1
VERSION
140
15.0
  1
PRODUCT
  2
AutoCAD Mechanical 2000
  0
IDBUFFER
  5
6B65
330
0
100
AcDbIdBuffer
  0
IDBUFFER
  5
6B66
330
0
100
AcDbIdBuffer
  0
IDBUFFER
  5
6B67
330
0
100
AcDbIdBuffer
330
8ED6
330
8034
330
80BA
330
80E9
330
80ED
330
8CE9
330
8CEB
330
8CEC
330
8CEE
330
8CF0
330
8CF2
330
8CF4
330
8CF5
330
8CF7
330
8CF9
330
8CFB
330
8CFD
330
8CFF
330
8D01
330
8D24
330
8D25
330
8D26
330
8D27
330
8D28
330
8D29
330
8D2A
330
8D2B
330
8D2C
  0
IDBUFFER
  5
6B68
330
0
100
AcDbIdBuffer
330
8A90
330
8CE7
330
8D3D
  0
IDBUFFER
  5
6B69
330
0
100
AcDbIdBuffer
330
80EC
330
8523
  0
IDBUFFER
  5
6B6A
330
0
100
AcDbIdBuffer
330
84D7
330
8CE5
330
8CE6
  0
IDBUFFER
  5
6B6B
330
0
100
AcDbIdBuffer
330
8035
330
8036
330
8037
330
8038
330
8039
330
807A
330
8081
330
80B1
330
80B2
330
80B3
330
8CE2
330
8CE3
330
8CE4
330
8E30
330
8E4D
  0
IDBUFFER
  5
6B6C
330
0
100
AcDbIdBuffer
330
8311
330
8D7E
  0
IDBUFFER
  5
6B6D
330
0
100
AcDbIdBuffer
330
80EB
  0
IDBUFFER
  5
6B6E
330
0
100
AcDbIdBuffer
330
8CE8
330
8D02
330
8CED
330
8CEF
330
8CF1
330
8CF3
330
8CF6
330
8CF8
330
8CFA
330
8CFC
330
8CFE
330
8D00
  0
IDBUFFER
  5
6B6F
330
0
100
AcDbIdBuffer
330
84C6
330
84C9
330
84CA
330
84CB
  0
IDBUFFER
  5
8BF4
330
0
100
AcDbIdBuffer
330
8D1C
330
8D1D
330
8D1E
330
8D1F
330
8D20
330
8D21
330
8D22
330
8D23
  0
ENDSEC
  0
EOF
