  0
SECTION
  2
HEADER
  9
$ACADVER
  1
AC1014
  9
$ACADMAINTVER
 70
     9
  9
$DWGCODEPAGE
  3
ANSI_1252
  9
$INSBASE
 10
0.0
 20
0.0
 30
0.0
  9
$EXTMIN
 10
-64.56962252511835
 20
-24.01995463533092
 30
-0.000000000000013
  9
$EXTMAX
 10
67.45071554937135
 20
79.84693384652018
 30
0.0000000000000023
  9
$LIMMIN
 10
0.0
 20
0.0
  9
$LIMMAX
 10
210.0
 20
297.0
  9
$ORTHOMODE
 70
     0
  9
$REGENMODE
 70
     1
  9
$FILLMODE
 70
     1
  9
$QTEXTMODE
 70
     0
  9
$MIRRTEXT
 70
     1
  9
$DRAGMODE
 70
     2
  9
$LTSCALE
 40
1.0
  9
$OSMODE
 70
  2599
  9
$ATTMODE
 70
     1
  9
$TEXTSIZE
 40
3.5
  9
$TRACEWID
 40
1.0
  9
$TEXTSTYLE
  7
STANDARD
  9
$CLAYER
  8
0
  9
$CELTYPE
  6
BYLAYER
  9
$CECOLOR
 62
   256
  9
$CELTSCALE
 40
1.0
  9
$DELOBJ
 70
     1
  9
$DISPSILH
 70
     0
  9
$DIMSCALE
 40
1.0
  9
$DIMASZ
 40
2.5
  9
$DIMEXO
 40
0.0
  9
$DIMDLI
 40
10.0
  9
$DIMRND
 40
0.0
  9
$DIMDLE
 40
0.0
  9
$DIMEXE
 40
1.0
  9
$DIMTP
 40
0.1
  9
$DIMTM
 40
0.1
  9
$DIMTXT
 40
3.5
  9
$DIMCEN
 40
0.0
  9
$DIMTSZ
 40
0.0
  9
$DIMTOL
 70
     0
  9
$DIMLIM
 70
     0
  9
$DIMTIH
 70
     0
  9
$DIMTOH
 70
     0
  9
$DIMSE1
 70
     0
  9
$DIMSE2
 70
     0
  9
$DIMTAD
 70
     1
  9
$DIMZIN
 70
     8
  9
$DIMBLK
  1

  9
$DIMASO
 70
     1
  9
$DIMSHO
 70
     1
  9
$DIMPOST
  1

  9
$DIMAPOST
  1
"
  9
$DIMALT
 70
     0
  9
$DIMALTD
 70
     2
  9
$DIMALTF
 40
0.0393701
  9
$DIMLFAC
 40
1.0
  9
$DIMTOFL
 70
     1
  9
$DIMTVP
 40
0.0
  9
$DIMTIX
 70
     0
  9
$DIMSOXD
 70
     0
  9
$DIMSAH
 70
     0
  9
$DIMBLK1
  1

  9
$DIMBLK2
  1

  9
$DIMSTYLE
  2
AM_DIN
  9
$DIMCLRD
 70
   256
  9
$DIMCLRE
 70
   256
  9
$DIMCLRT
 70
     2
  9
$DIMTFAC
 40
0.71
  9
$DIMGAP
 40
1.5
  9
$DIMJUST
 70
     0
  9
$DIMSD1
 70
     0
  9
$DIMSD2
 70
     0
  9
$DIMTOLJ
 70
     1
  9
$DIMTZIN
 70
     8
  9
$DIMALTZ
 70
     8
  9
$DIMALTTZ
 70
     8
  9
$DIMFIT
 70
     5
  9
$DIMUPT
 70
     0
  9
$DIMUNIT
 70
     2
  9
$DIMDEC
 70
     2
  9
$DIMTDEC
 70
     2
  9
$DIMALTU
 70
     2
  9
$DIMALTTD
 70
     2
  9
$DIMTXSTY
  7
STANDARD
  9
$DIMAUNIT
 70
     0
  9
$LUNITS
 70
     2
  9
$LUPREC
 70
     2
  9
$SKETCHINC
 40
1.0
  9
$FILLETRAD
 40
1.0
  9
$AUNITS
 70
     0
  9
$AUPREC
 70
     0
  9
$MENU
  1
.
  9
$ELEVATION
 40
0.0
  9
$PELEVATION
 40
0.0
  9
$THICKNESS
 40
0.0
  9
$LIMCHECK
 70
     0
  9
$BLIPMODE
 70
     0
  9
$CHAMFERA
 40
2.5
  9
$CHAMFERB
 40
2.5
  9
$CHAMFERC
 40
0.0
  9
$CHAMFERD
 40
0.0
  9
$SKPOLY
 70
     0
  9
$TDCREATE
 40
2453447.471737477
  9
$TDUPDATE
 40
2453594.379757638
  9
$TDINDWG
 40
0.1132649306
  9
$TDUSRTIMER
 40
0.1132405903
  9
$USRTIMER
 70
     1
  9
$ANGBASE
 50
0.0
  9
$ANGDIR
 70
     0
  9
$PDMODE
 70
     0
  9
$PDSIZE
 40
0.0
  9
$PLINEWID
 40
0.0
  9
$COORDS
 70
     0
  9
$SPLFRAME
 70
     0
  9
$SPLINETYPE
 70
     6
  9
$SPLINESEGS
 70
     8
  9
$ATTDIA
 70
     1
  9
$ATTREQ
 70
     1
  9
$HANDLING
 70
 22529
  9
$HANDSEED
  5
7DE9
  9
$SURFTAB1
 70
     6
  9
$SURFTAB2
 70
     6
  9
$SURFTYPE
 70
     6
  9
$SURFU
 70
     6
  9
$SURFV
 70
     6
  9
$UCSNAME
  2

  9
$UCSORG
 10
0.0
 20
0.0
 30
0.0
  9
$UCSXDIR
 10
1.0
 20
0.0
 30
0.0
  9
$UCSYDIR
 10
0.0
 20
1.0
 30
0.0
  9
$PUCSNAME
  2

  9
$PUCSORG
 10
0.0
 20
0.0
 30
0.0
  9
$PUCSXDIR
 10
1.0
 20
0.0
 30
0.0
  9
$PUCSYDIR
 10
0.0
 20
1.0
 30
0.0
  9
$USERI1
 70
     0
  9
$USERI2
 70
     0
  9
$USERI3
 70
     0
  9
$USERI4
 70
     0
  9
$USERI5
 70
     0
  9
$USERR1
 40
0.0
  9
$USERR2
 40
0.0
  9
$USERR3
 40
0.0
  9
$USERR4
 40
0.0
  9
$USERR5
 40
0.0
  9
$WORLDVIEW
 70
     1
  9
$SHADEDGE
 70
     3
  9
$SHADEDIF
 70
    70
  9
$TILEMODE
 70
     1
  9
$MAXACTVP
 70
    64
  9
$PINSBASE
 10
0.0
 20
0.0
 30
0.0
  9
$PLIMCHECK
 70
     0
  9
$PEXTMIN
 10
1.000000000000000E+20
 20
1.000000000000000E+20
 30
1.000000000000000E+20
  9
$PEXTMAX
 10
-1.000000000000000E+20
 20
-1.000000000000000E+20
 30
-1.000000000000000E+20
  9
$PLIMMIN
 10
0.0
 20
0.0
  9
$PLIMMAX
 10
420.0
 20
297.0
  9
$UNITMODE
 70
     0
  9
$VISRETAIN
 70
     1
  9
$PLINEGEN
 70
     0
  9
$PSLTSCALE
 70
     1
  9
$TREEDEPTH
 70
  3020
  9
$PICKSTYLE
 70
     0
  9
$CMLSTYLE
  2
STANDARD
  9
$CMLJUST
 70
     0
  9
$CMLSCALE
 40
1.0
  9
$PROXYGRAPHICS
 70
     1
  9
$MEASUREMENT
 70
     1
  0
ENDSEC
  0
SECTION
  2
CLASSES
  0
CLASS
  1
ACDBDICTIONARYWDFLT
  2
AcDbDictionaryWithDefault
  3
AutoCAD 2000
 90
        0
280
     0
281
     0
  0
CLASS
  1
ACDBPLACEHOLDER
  2
AcDbPlaceHolder
  3
AutoCAD 2000
 90
        0
280
     0
281
     0
  0
CLASS
  1
LAYOUT
  2
AcDbLayout
  3
AutoCAD 2000
 90
        0
280
     0
281
     0
  0
CLASS
  1
AMGSETTINGSOBJ
  2
AmgSettingsObj
  3
"AcadM|Product Description: AutoCAD Mechanical 2000|Company: Autodesk"
 90
        0
280
     0
281
     0
  0
CLASS
  1
ACME_DOCUMENT
  2
AcMeDbDoc
  3
AcMeServices
 90
        0
280
     0
281
     0
  0
CLASS
  1
ACMESCOPE
  2
AcMeScope
  3
AcMeServices
 90
        0
280
     0
281
     0
  0
CLASS
  1
ACMECOMMANDHISTORY
  2
AcMeCommandHistory
  3
AcMeServices
 90
        0
280
     0
281
     0
  0
CLASS
  1
ACIMSYSVARMAN
  2
AcImSysVarManager
  3
AcMeServices
 90
        0
280
     0
281
     0
  0
CLASS
  1
ACIMREALSYSVAR
  2
AcImRealSysVar
  3
AcMeServices
 90
        0
280
     0
281
     0
  0
CLASS
  1
ACIMINTSYSVAR
  2
AcImIntSysVar
  3
AcMeServices
 90
        0
280
     0
281
     0
  0
CLASS
  1
ACMEDRAWINGMAN
  2
AcMeDrawingMan
  3
AcMeServices
 90
        0
280
     0
281
     0
  0
CLASS
  1
ACMEVIEW
  2
AcMeView
  3
AcMeServices
 90
        0
280
     0
281
     0
  0
CLASS
  1
ACDBENTITYCACHE
  2
AcMeEntityCache
  3
AcMeServices
 90
        0
280
     0
281
     0
  0
CLASS
  1
GSMANAGER
  2
AcMeGSManager
  3
AcMeServices
 90
        0
280
     0
281
     0
  0
CLASS
  1
AMDTINTERNALREACTOR
  2
AmdtInternalReactor
  3
AcMeServices
 90
        0
280
     0
281
     0
  0
CLASS
  1
ACMESTATEMGR
  2
AcMeStateMgr
  3
AcMeServices
 90
        0
280
     0
281
     0
  0
CLASS
  1
ACGREFMASTER
  2
AcGrefMaster
  3
AcAttribServices
 90
        0
280
     0
281
     0
  0
CLASS
  1
ACME_DATABASE
  2
AcMeDbDatabase
  3
AcMeServices
 90
        0
280
     0
281
     0
  0
CLASS
  1
ACRFINSADJUSTERMGR
  2
AcRfInsAdjusterMgr
  3
AcMeServices
 90
        0
280
     0
281
     0
  0
CLASS
  1
ACGREFACADMASTER
  2
AcGrefacadMaster
  3
AcGrefServices
 90
        0
280
     0
281
     0
  0
CLASS
  1
AMIMASTER
  2
AmiMaster
  3
AmiServices
 90
        0
280
     0
281
     0
  0
CLASS
  1
ACMDATADICTIONARY
  2
AcmDataDictionary
  3
"AcmSymBB|Product Description: AutoCAD Mechanical 2000|Company: Autodesk"
 90
        0
280
     0
281
     0
  0
CLASS
  1
ACMDATAENTRYBLOCK
  2
AcmDataEntryBlock
  3
"AcmSymBB|Product Description: AutoCAD Mechanical 2000|Company: Autodesk"
 90
        0
280
     0
281
     0
  0
CLASS
  1
ACIMSTRSYSVAR
  2
AcImStrSysVar
  3
AcMeServices
 90
        0
280
     0
281
     0
  0
CLASS
  1
ACMSTANDARDANSI
  2
AcmStandardANSI
  3
"Amdt_StdImp|Product Description: AutoCAD Mechanical 2000|Company: Autodesk"
 90
        0
280
     0
281
     0
  0
CLASS
  1
AMGOBJPROPCFG
  2
AmgObjPropCfg
  3
"AmgLay|Product Description: AutoCAD Mechanical 2000|Company: Autodesk"
 90
        1
280
     0
281
     0
  0
CLASS
  1
ACMSURFSTANDARDANSI
  2
AcmSurfTextStdANSI
  3
"Amdt_StdImp|Product Description: AutoCAD Mechanical 2000|Company: Autodesk"
 90
        0
280
     0
281
     0
  0
CLASS
  1
ACMFCFSTANDARDANSI
  2
AcmFCFStdANSI
  3
"Amdt_StdImp|Product Description: AutoCAD Mechanical 2000|Company: Autodesk"
 90
        0
280
     0
281
     0
  0
CLASS
  1
ACMWELDSTANDARDANSI
  2
AcmWeldingStdANSI
  3
"Amdt_StdImp|Product Description: AutoCAD Mechanical 2000|Company: Autodesk"
 90
        0
280
     0
281
     0
  0
CLASS
  1
ACMIDSTANDARDANSI
  2
AcmIdStdANSI
  3
"Amdt_StdImp|Product Description: AutoCAD Mechanical 2000|Company: Autodesk"
 90
        0
280
     0
281
     0
  0
CLASS
  1
ACMDATUMSTANDARDANSI
  2
AcmDatumStdANSI
  3
"Amdt_StdImp|Product Description: AutoCAD Mechanical 2000|Company: Autodesk"
 90
        0
280
     0
281
     0
  0
CLASS
  1
ACMBOMSTANDARDANSI
  2
AcmBOMStdANSI
  3
"Amdt_StdImp|Product Description: AutoCAD Mechanical 2000|Company: Autodesk"
 90
        0
280
     0
281
     0
  0
CLASS
  1
ACMDETAILSTANDARDANSI
  2
AmdtDetailSymStdANSI
  3
"Amdt_StdImp|Product Description: AutoCAD Mechanical 2000|Company: Autodesk"
 90
        0
280
     0
281
     0
  0
CLASS
  1
ACMSECTIONSTANDARDANSI
  2
AmdtSectionSymStdANSI
  3
"Amdt_StdImp|Product Description: AutoCAD Mechanical 2000|Company: Autodesk"
 90
        0
280
     0
281
     0
  0
CLASS
  1
ACMCENTERLINESTANDARDANSI
  2
AmdtCenterLineStdANSI
  3
"Amdt_StdImp|Product Description: AutoCAD Mechanical 2000|Company: Autodesk"
 90
        0
280
     0
281
     0
  0
CLASS
  1
ACMNOTESTANDARDANSI
  2
AmdtNoteStdANSI
  3
"Amdt_StdImp|Product Description: AutoCAD Mechanical 2000|Company: Autodesk"
 90
        0
280
     0
281
     0
  0
CLASS
  1
ACAMGLAYSTD
  2
AcAmgLayStd
  3
"AcAmgLayStd|Product Description: AutoCAD Mechanical 2000|Company: Autodesk"
 90
        0
280
     0
281
     0
  0
CLASS
  1
ACAMGDIMSTD
  2
AcAmgDimStd
  3
"AcAmgDimStd|Product Description: AutoCAD Mechanical 2000|Company: Autodesk"
 90
        0
280
     0
281
     0
  0
CLASS
  1
ACAMGHOLECHARTSTDANSI
  2
AcAmgHoleChartStdANSI
  3
ACMSYMBB_MODULE_NAME
 90
        0
280
     0
281
     0
  0
CLASS
  1
ACAMGTITLESTD
  2
AcAmgTitleStd
  3
"TITLEAPP"
 90
        0
280
     0
281
     0
  0
CLASS
  1
ACAMGFILTERDAT
  2
AcAmgFilterDat
  3
"AcadM|Product Description: AutoCAD Mechanical 2000|Company: Autodesk"
 90
        0
280
     0
281
     0
  0
CLASS
  1
LAYER_INDEX
  2
AcDbLayerIndex
  3
AutoCAD 2000
 90
        0
280
     0
281
     0
  0
CLASS
  1
IDBUFFER
  2
AcDbIdBuffer
  3
AutoCAD 2000
 90
        0
280
     0
281
     0
  0
CLASS
  1
DICTIONARYVAR
  2
AcDbDictionaryVar
  3
AutoCAD 2000
 90
        0
280
     0
281
     0
  0
CLASS
  1
ACMSTANDARDDIN
  2
AcmStandardDIN
  3
"Amdt_StdImp|Product Description: AutoCAD Mechanical 2000|Company: Autodesk"
 90
        0
280
     0
281
     0
  0
CLASS
  1
AMDTEDGESTANDARDDIN
  2
AmdtEdgeStdDIN
  3
"Amdt_StdImp|Product Description: AutoCAD Mechanical 2000|Company: Autodesk"
 90
        0
280
     0
281
     0
  0
CLASS
  1
ACMSURFSTANDARDDIN
  2
AcmSurfTextStdDIN
  3
"Amdt_StdImp|Product Description: AutoCAD Mechanical 2000|Company: Autodesk"
 90
        0
280
     0
281
     0
  0
CLASS
  1
ACMFCFSTANDARDDIN
  2
AcmFCFStdDIN
  3
"Amdt_StdImp|Product Description: AutoCAD Mechanical 2000|Company: Autodesk"
 90
        0
280
     0
281
     0
  0
CLASS
  1
ACMWELDSTANDARDDIN
  2
AcmWeldingStdDIN
  3
"Amdt_StdImp|Product Description: AutoCAD Mechanical 2000|Company: Autodesk"
 90
        0
280
     0
281
     0
  0
CLASS
  1
ACMIDSTANDARDDIN
  2
AcmIdStdDIN
  3
"Amdt_StdImp|Product Description: AutoCAD Mechanical 2000|Company: Autodesk"
 90
        0
280
     0
281
     0
  0
CLASS
  1
ACMDATUMSTANDARDDIN
  2
AcmDatumStdDIN
  3
"Amdt_StdImp|Product Description: AutoCAD Mechanical 2000|Company: Autodesk"
 90
        0
280
     0
281
     0
  0
CLASS
  1
ACMBOMSTANDARDDIN
  2
AcmBOMStdDIN
  3
"Amdt_StdImp|Product Description: AutoCAD Mechanical 2000|Company: Autodesk"
 90
        0
280
     0
281
     0
  0
CLASS
  1
ACMDETAILSTANDARDDIN
  2
AmdtDetailSymStdDIN
  3
"Amdt_StdImp|Product Description: AutoCAD Mechanical 2000|Company: Autodesk"
 90
        0
280
     0
281
     0
  0
CLASS
  1
ACMSECTIONSTANDARDDIN
  2
AmdtSectionSymStdDIN
  3
"Amdt_StdImp|Product Description: AutoCAD Mechanical 2000|Company: Autodesk"
 90
        0
280
     0
281
     0
  0
CLASS
  1
ACMCENTERLINESTANDARDDIN
  2
AmdtCenterLineStdDIN
  3
"Amdt_StdImp|Product Description: AutoCAD Mechanical 2000|Company: Autodesk"
 90
        0
280
     0
281
     0
  0
CLASS
  1
ACMNOTESTANDARDDIN
  2
AmdtNoteStdDIN
  3
"Amdt_StdImp|Product Description: AutoCAD Mechanical 2000|Company: Autodesk"
 90
        0
280
     0
281
     0
  0
CLASS
  1
ACAMGHOLECHARTSTDDIN
  2
AcAmgHoleChartStdDIN
  3
ACMSYMBB_MODULE_NAME
 90
        0
280
     0
281
     0
  0
CLASS
  1
AMDTFORMULAUPDATEDISPATCHER
  2
AmdtFormulaUpdateDispatcher
  3
AcMeServices
 90
        0
280
     0
281
     0
  0
CLASS
  1
ACMDIMBREAKPERSREACTOR
  2
AcmDimBreakPersReactor
  3
amgDimApp().moduleName()
 90
     1023
280
     0
281
     0
  0
CLASS
  1
LONG_TRANSACTION
  2
AcDbLongTransaction
  3
AutoCAD 2000
 90
        0
280
     0
281
     0
  0
CLASS
  1
LWPOLYLINE
  2
AcDbPolyline
  3
AutoCAD 2000
 90
        0
280
     0
281
     1
  0
CLASS
  1
HATCH
  2
AcDbHatch
  3
AutoCAD 2000
 90
        0
280
     0
281
     1
  0
CLASS
  1
XRECORD
  2
AcDbXrecord
  3
AutoCAD 2000
 90
        0
280
     0
281
     0
  0
ENDSEC
  0
SECTION
  2
TABLES
  0
TABLE
  2
VPORT
  5
6A1E
330
0
100
AcDbSymbolTable
 70
    11
  0
VPORT
  5
7DC4
330
6A1E
100
AcDbSymbolTableRecord
100
AcDbViewportTableRecord
  2
*ACTIVE
 70
     0
 10
0.0
 20
0.0
 11
1.0
 21
1.0
 12
72.7151887374408
 22
136.4900226823345
 13
0.0
 23
0.0
 14
2.5
 24
2.5
 15
10.0
 25
10.0
 16
0.0
 26
0.0
 36
1.0
 17
0.0
 27
0.0
 37
0.0
 40
324.5606158996912
 41
1.694290976058931
 42
50.0
 43
0.0
 44
0.0
 50
0.0
 51
0.0
 71
    16
 72
 10000
 73
     1
 74
     3
 75
     0
 76
     0
 77
     0
 78
     0
  0
ENDTAB
  0
TABLE
  2
LTYPE
  5
6A1B
330
0
100
AcDbSymbolTable
 70
    16
  0
LTYPE
  5
6A29
330
6A1B
100
AcDbSymbolTableRecord
100
AcDbLinetypeTableRecord
  2
BYBLOCK
 70
     0
  3

 72
    65
 73
     0
 40
0.0
  0
LTYPE
  5
6A2A
330
6A1B
100
AcDbSymbolTableRecord
100
AcDbLinetypeTableRecord
  2
BYLAYER
 70
     0
  3

 72
    65
 73
     0
 40
0.0
  0
LTYPE
  5
6A2B
330
6A1B
100
AcDbSymbolTableRecord
100
AcDbLinetypeTableRecord
  2
CONTINUOUS
 70
     0
  3
Solid line
 72
    65
 73
     0
 40
0.0
  0
LTYPE
  5
6A39
330
6A1B
100
AcDbSymbolTableRecord
100
AcDbLinetypeTableRecord
  2
AMCONSTR
 70
     0
  3
_______________________
 72
    65
 73
     2
 40
9999.0
 49
9999.0
 74
     0
 49
0.0
 74
     0
  0
LTYPE
  5
6A43
330
6A1B
100
AcDbSymbolTableRecord
100
AcDbLinetypeTableRecord
  2
CENTER
 70
     0
  3
__ . __
 72
    65
 73
     4
 40
7.0
 49
4.0
 74
     0
 49
-1.0
 74
     0
 49
1.0
 74
     0
 49
-1.0
 74
     0
  0
LTYPE
  5
6A45
330
6A1B
100
AcDbSymbolTableRecord
100
AcDbLinetypeTableRecord
  2
PHANTOM2
 70
     0
  3
Phantom (.5x) ___ _ _ ___ _ _ ___ _ _ ___ _ _
 72
    65
 73
     6
 40
1.25
 49
0.625
 74
     0
 49
-0.125
 74
     0
 49
0.125
 74
     0
 49
-0.125
 74
     0
 49
0.125
 74
     0
 49
-0.125
 74
     0
  0
LTYPE
  5
6A46
330
6A1B
100
AcDbSymbolTableRecord
100
AcDbLinetypeTableRecord
  2
ACANSTGB
 70
     0
  3
__ . . __ . .
 72
    65
 73
     6
 40
0.35433070866
 49
0.15748031496
 74
     0
 49
-0.03937007874
 74
     0
 49
0.03937007874
 74
     0
 49
-0.03937007874
 74
     0
 49
0.03937007874
 74
     0
 49
-0.03937007874
 74
     0
  0
LTYPE
  5
6A47
330
6A1B
100
AcDbSymbolTableRecord
100
AcDbLinetypeTableRecord
  2
ACANSTGL
 70
     0
  3
_ _ _ _ _
 72
    65
 73
     2
 40
0.11811023622
 49
0.07874015748
 74
     0
 49
-0.03937007874
 74
     0
  0
LTYPE
  5
6A48
330
6A1B
100
AcDbSymbolTableRecord
100
AcDbLinetypeTableRecord
  2
DASHED
 70
     0
  3
__ __ __ __ __ __ __ __ __ __ __ __ __ __ __ __
 72
    65
 73
     2
 40
19.05
 49
12.7
 74
     0
 49
-6.349999999999998
 74
     0
  0
LTYPE
  5
6C79
330
6A1B
100
AcDbSymbolTableRecord
100
AcDbLinetypeTableRecord
  2
ACDINWELD
 70
     0
  3
_ _ _ _ _
 72
    65
 73
     2
 40
2.0
 49
2.0
 74
     0
 49
-1.0
 74
     0
  0
LTYPE
  5
6C7A
330
6A1B
100
AcDbSymbolTableRecord
100
AcDbLinetypeTableRecord
  2
ACDINTGB
 70
     0
  3
__ . . __ . .
 72
    65
 73
     6
 40
9.0
 49
4.0
 74
     0
 49
-1.0
 74
     0
 49
1.0
 74
     0
 49
-1.0
 74
     0
 49
1.0
 74
     0
 49
-1.0
 74
     0
  0
LTYPE
  5
6C7B
330
6A1B
100
AcDbSymbolTableRecord
100
AcDbLinetypeTableRecord
  2
ACDINTGL
 70
     0
  3
_ _ _ _ _
 72
    65
 73
     2
 40
3.0
 49
2.0
 74
     0
 49
-1.0
 74
     0
  0
LTYPE
  5
6C8F
330
6A1B
100
AcDbSymbolTableRecord
100
AcDbLinetypeTableRecord
  2
AMZIGZAG
 70
     0
  3
/\/-/\/-/\/-/\/-/\/-/\/
 72
    65
 73
     2
 40
11.00009999999999
 49
0.0001
 74
     4
 75
   135
340
6A5B
 46
0.04
 50
0.0
 44
0.0
 45
0.0
 49
-11.0
 74
     0
  0
LTYPE
  5
6C90
330
6A1B
100
AcDbSymbolTableRecord
100
AcDbLinetypeTableRecord
  2
AM_DIN_F_W050
 70
     0
  3
__ __ __ __ __ __ __ __ __ __ __ __ __ __ __
 72
    65
 73
     2
 40
6.25
 49
4.75
 74
     0
 49
-1.5
 74
     0
  0
LTYPE
  5
6C91
330
6A1B
100
AcDbSymbolTableRecord
100
AcDbLinetypeTableRecord
  2
AM_DIN_G_W050
 70
     0
  3
____ . ____ . ____ . ____ . ____ . ____ . ____
 72
    65
 73
     4
 40
13.75
 49
9.75
 74
     0
 49
-1.5
 74
     0
 49
1.0
 74
     0
 49
-1.5
 74
     0
  0
LTYPE
  5
6C92
330
6A1B
100
AcDbSymbolTableRecord
100
AcDbLinetypeTableRecord
  2
AM_DIN_K_W050
 70
     0
  3
_____ . . _____ . . _____ . . ____ .. ____
 72
    65
 73
     6
 40
16.25
 49
9.75
 74
     0
 49
-1.5
 74
     0
 49
1.0
 74
     0
 49
-1.5
 74
     0
 49
1.0
 74
     0
 49
-1.5
 74
     0
  0
LTYPE
  5
6C93
330
6A1B
100
AcDbSymbolTableRecord
100
AcDbLinetypeTableRecord
  2
AM_DIN_G_W050X2
 70
     0
  3
__ . __ . __ . __ . __ . __
 72
    65
 73
     4
 40
6.875
 49
4.75
 74
     0
 49
-0.875
 74
     0
 49
0.375
 74
     0
 49
-0.875
 74
     0
  0
LTYPE
  5
6C94
330
6A1B
100
AcDbSymbolTableRecord
100
AcDbLinetypeTableRecord
  2
AM_DIN_F_W050X2
 70
     0
  3
 _ _ _ _ _ _ _ _ _ _ _ _
 72
    65
 73
     2
 40
3.125
 49
2.25
 74
     0
 49
-0.875
 74
     0
  0
ENDTAB
  0
TABLE
  2
LAYER
  5
6A18
330
0
100
AcDbSymbolTable
 70
    13
  0
LAYER
  5
6A26
330
6A18
100
AcDbSymbolTableRecord
100
AcDbLayerTableRecord
  2
0
 70
     0
 62
     7
  6
CONTINUOUS
  0
LAYER
  5
6A4B
330
6A18
100
AcDbSymbolTableRecord
100
AcDbLayerTableRecord
  2
DEFPOINTS
 70
     0
 62
     7
  6
CONTINUOUS
  0
LAYER
  5
6A4C
330
6A18
100
AcDbSymbolTableRecord
100
AcDbLayerTableRecord
  2
1
 70
     0
 62
     4
  6
CONTINUOUS
  0
LAYER
  5
6A4D
330
6A18
100
AcDbSymbolTableRecord
100
AcDbLayerTableRecord
  2
2
 70
     0
 62
     7
  6
CONTINUOUS
  0
LAYER
  5
6A53
330
6A18
100
AcDbSymbolTableRecord
100
AcDbLayerTableRecord
  2
SK1
 70
     0
 62
     4
  6
CONTINUOUS
  0
LAYER
  5
6A54
330
6A18
100
AcDbSymbolTableRecord
100
AcDbLayerTableRecord
  2
SK2
 70
     0
 62
     7
  6
CONTINUOUS
  0
LAYER
  5
6A55
330
6A18
100
AcDbSymbolTableRecord
100
AcDbLayerTableRecord
  2
SK3
 70
     0
 62
     1
  6
DASHED
  0
LAYER
  5
6A56
330
6A18
100
AcDbSymbolTableRecord
100
AcDbLayerTableRecord
  2
SK4
 70
     0
 62
     2
  6
CENTER
  0
LAYER
  5
6A58
330
6A18
100
AcDbSymbolTableRecord
100
AcDbLayerTableRecord
  2
NOCUT
 70
     0
 62
     7
  6
CONTINUOUS
  0
LAYER
  5
6FD0
330
6A18
100
AcDbSymbolTableRecord
100
AcDbLayerTableRecord
  2
4
 70
     0
 62
     2
  6
CENTER
  0
LAYER
  5
6FD1
330
6A18
100
AcDbSymbolTableRecord
100
AcDbLayerTableRecord
  2
6
 70
     0
 62
     5
  6
CONTINUOUS
  0
LAYER
  5
6FD2
330
6A18
100
AcDbSymbolTableRecord
100
AcDbLayerTableRecord
  2
CUT
 70
     0
 62
     1
  6
CONTINUOUS
  0
LAYER
  5
72B2
330
6A18
100
AcDbSymbolTableRecord
100
AcDbLayerTableRecord
  2
SK6
 70
     0
 62
     5
  6
CONTINUOUS
  0
ENDTAB
  0
TABLE
  2
STYLE
  5
6A19
330
0
100
AcDbSymbolTable
 70
     6
  0
STYLE
  5
6A27
330
6A19
100
AcDbSymbolTableRecord
100
AcDbTextStyleTableRecord
  2
STANDARD
 70
     0
 40
0.0
 41
1.0
 50
0.0
 71
     0
 42
3.5
  3
ISOCP.SHX
  4

  0
STYLE
  5
6A5B
330
6A19
100
AcDbSymbolTableRecord
100
AcDbTextStyleTableRecord
  2

 70
     1
 40
0.0
 41
1.0
 50
0.0
 71
     0
 42
2.5
  3
ltypeshp.shx
  4

  0
STYLE
  5
6A5E
330
6A19
100
AcDbSymbolTableRecord
100
AcDbTextStyleTableRecord
  2
ACANSTS
 70
     0
 40
1.0
 41
1.0
 50
0.0
 71
     0
 42
0.2
  3
romans.shx
  4

  0
STYLE
  5
6A5F
330
6A19
100
AcDbSymbolTableRecord
100
AcDbTextStyleTableRecord
  2
ACANSGDT
 70
     0
 40
0.0
 41
1.0
 50
0.0
 71
     0
 42
0.2
  3
amgdtans.shx
  4

  0
STYLE
  5
6C6C
330
6A19
100
AcDbSymbolTableRecord
100
AcDbTextStyleTableRecord
  2
ACDINTS
 70
     0
 40
1.0
 41
1.0
 50
0.0
 71
     0
 42
3.5
  3
isocp.shx
  4

  0
STYLE
  5
6C78
330
6A19
100
AcDbSymbolTableRecord
100
AcDbTextStyleTableRecord
  2
ACDINGDT
 70
     0
 40
0.0
 41
1.0
 50
0.0
 71
     0
 42
3.5
  3
amgdt.shx
  4

  0
ENDTAB
  0
TABLE
  2
VIEW
  5
6A1C
330
0
100
AcDbSymbolTable
 70
     6
  0
VIEW
  5
6A60
330
6A1C
100
AcDbSymbolTableRecord
100
AcDbViewTableRecord
  2
AM_VIEW1
 70
     0
 40
148.5
 10
131.508173076923
 20
222.75
 41
263.016346153846
 11
0.0
 21
0.0
 31
1.0
 12
0.0
 22
0.0
 32
0.0
 42
50.0
 43
0.0
 44
0.0
 50
0.0
 71
    16
  0
VIEW
  5
6A61
330
6A1C
100
AcDbSymbolTableRecord
100
AcDbViewTableRecord
  2
AM_VIEW2
 70
     0
 40
148.5
 10
78.4918269230769
 20
222.75
 41
263.016346153846
 11
0.0
 21
0.0
 31
1.0
 12
0.0
 22
0.0
 32
0.0
 42
50.0
 43
0.0
 44
0.0
 50
0.0
 71
    16
  0
VIEW
  5
6A62
330
6A1C
100
AcDbSymbolTableRecord
100
AcDbViewTableRecord
  2
AM_VIEW3
 70
     0
 40
148.5
 10
131.508173076923
 20
74.25
 41
263.016346153846
 11
0.0
 21
0.0
 31
1.0
 12
0.0
 22
0.0
 32
0.0
 42
50.0
 43
0.0
 44
0.0
 50
0.0
 71
    16
  0
VIEW
  5
6A63
330
6A1C
100
AcDbSymbolTableRecord
100
AcDbViewTableRecord
  2
AM_VIEW4
 70
     0
 40
148.5
 10
78.4918269230769
 20
74.25
 41
263.016346153846
 11
0.0
 21
0.0
 31
1.0
 12
0.0
 22
0.0
 32
0.0
 42
50.0
 43
0.0
 44
0.0
 50
0.0
 71
    16
  0
VIEW
  5
6A64
330
6A1C
100
AcDbSymbolTableRecord
100
AcDbViewTableRecord
  2
AM_VIEW5
 70
     0
 40
148.5
 10
105.0
 20
148.5
 41
263.016346153846
 11
0.0
 21
0.0
 31
1.0
 12
0.0
 22
0.0
 32
0.0
 42
50.0
 43
0.0
 44
0.0
 50
0.0
 71
    16
  0
VIEW
  5
6A65
330
6A1C
100
AcDbSymbolTableRecord
100
AcDbViewTableRecord
  2
AM_VIEW6
 70
     0
 40
296.9970299999999
 10
105.0
 20
148.5
 41
526.0274319807693
 11
0.0
 21
0.0
 31
1.0
 12
0.0
 22
0.0
 32
0.0
 42
50.0
 43
0.0
 44
0.0
 50
0.0
 71
    16
  0
ENDTAB
  0
TABLE
  2
UCS
  5
6A1D
330
0
100
AcDbSymbolTable
 70
     0
  0
ENDTAB
  0
TABLE
  2
APPID
  5
6A1F
330
0
100
AcDbSymbolTable
 70
    43
  0
APPID
  5
6A28
330
6A1F
100
AcDbSymbolTableRecord
100
AcDbRegAppTableRecord
  2
ACAD
 70
     0
  0
APPID
  5
6A66
330
6A1F
100
AcDbSymbolTableRecord
100
AcDbRegAppTableRecord
  2
MCAD_NO_VIS
 70
     0
  0
APPID
  5
6A67
330
6A1F
100
AcDbSymbolTableRecord
100
AcDbRegAppTableRecord
  2
ACAD_TEMP_GRAPHIC
 70
     0
  0
APPID
  5
6A68
330
6A1F
100
AcDbSymbolTableRecord
100
AcDbRegAppTableRecord
  2
ACATTRIBSERVICES
 70
     0
  0
APPID
  5
6A69
330
6A1F
100
AcDbSymbolTableRecord
100
AcDbRegAppTableRecord
  2
GENIUS_GENDIMSH_14
 70
     0
  0
APPID
  5
6A6A
330
6A1F
100
AcDbSymbolTableRecord
100
AcDbRegAppTableRecord
  2
GENIUS_GENBLLY_14
 70
     0
  0
APPID
  5
6A6B
330
6A1F
100
AcDbSymbolTableRecord
100
AcDbRegAppTableRecord
  2
GENIUS_GENTRA_14
 70
     0
  0
APPID
  5
6A6C
330
6A1F
100
AcDbSymbolTableRecord
100
AcDbRegAppTableRecord
  2
GENIUS_GENODEF_13
 70
     0
  0
APPID
  5
6A6D
330
6A1F
100
AcDbSymbolTableRecord
100
AcDbRegAppTableRecord
  2
GENIUS_GENOLIS_13
 70
     0
  0
APPID
  5
6A6E
330
6A1F
100
AcDbSymbolTableRecord
100
AcDbRegAppTableRecord
  2
GENIUS_GENOENT_13
 70
     0
  0
APPID
  5
6A6F
330
6A1F
100
AcDbSymbolTableRecord
100
AcDbRegAppTableRecord
  2
GENIUS_GENOBJ-N-TIT_13
 70
     0
  0
APPID
  5
6A70
330
6A1F
100
AcDbSymbolTableRecord
100
AcDbRegAppTableRecord
  2
GENIUS_GENTITLE_13
 70
     0
  0
APPID
  5
6A71
330
6A1F
100
AcDbSymbolTableRecord
100
AcDbRegAppTableRecord
  2
GENIUS_GENOREF_13
 70
     0
  0
APPID
  5
6A72
330
6A1F
100
AcDbSymbolTableRecord
100
AcDbRegAppTableRecord
  2
GENIUS_GENSCREG_15
 70
     0
  0
APPID
  5
6A73
330
6A1F
100
AcDbSymbolTableRecord
100
AcDbRegAppTableRecord
  2
GENIUS_GENOBJ-N-SDF_13
 70
     0
  0
APPID
  5
6A74
330
6A1F
100
AcDbSymbolTableRecord
100
AcDbRegAppTableRecord
  2
ACADIGES
 70
     0
  0
APPID
  5
6A75
330
6A1F
100
AcDbSymbolTableRecord
100
AcDbRegAppTableRecord
  2
GENIUS_GENOBJ-N-HTC_13
 70
     0
  0
APPID
  5
6A76
330
6A1F
100
AcDbSymbolTableRecord
100
AcDbRegAppTableRecord
  2
GENIUS_GENHATCH_13
 70
     0
  0
APPID
  5
6D75
330
6A1F
100
AcDbSymbolTableRecord
100
AcDbRegAppTableRecord
  2
GENIUS_GENOBJ-N-CRS_13
 70
     0
  0
APPID
  5
6D76
330
6A1F
100
AcDbSymbolTableRecord
100
AcDbRegAppTableRecord
  2
GENIUS_GENOBJ-N-FIL_13
 70
     0
  0
APPID
  5
6D77
330
6A1F
100
AcDbSymbolTableRecord
100
AcDbRegAppTableRecord
  2
GENIUS_GENFIL_13
 70
     0
  0
APPID
  5
6D78
330
6A1F
100
AcDbSymbolTableRecord
100
AcDbRegAppTableRecord
  2
GENIUS_GENOBJ-N-CHA_13
 70
     0
  0
APPID
  5
6FD3
330
6A1F
100
AcDbSymbolTableRecord
100
AcDbRegAppTableRecord
  2
GENIUS12
 70
     0
  0
APPID
  5
6FD4
330
6A1F
100
AcDbSymbolTableRecord
100
AcDbRegAppTableRecord
  2
GENIUS_GENCFG_13
 70
     0
  0
APPID
  5
6FD5
330
6A1F
100
AcDbSymbolTableRecord
100
AcDbRegAppTableRecord
  2
GENIUS_GEFCFG0_13
 70
     0
  0
APPID
  5
6FD6
330
6A1F
100
AcDbSymbolTableRecord
100
AcDbRegAppTableRecord
  2
GENIUS_GENCFG0_13
 70
     0
  0
APPID
  5
6FD7
330
6A1F
100
AcDbSymbolTableRecord
100
AcDbRegAppTableRecord
  2
GENIUS_GENCFG1_13
 70
     0
  0
APPID
  5
6FD8
330
6A1F
100
AcDbSymbolTableRecord
100
AcDbRegAppTableRecord
  2
GENIUS_GENCFG2_13
 70
     0
  0
APPID
  5
6FD9
330
6A1F
100
AcDbSymbolTableRecord
100
AcDbRegAppTableRecord
  2
GENIUS_GENCFG3_13
 70
     0
  0
APPID
  5
6FDA
330
6A1F
100
AcDbSymbolTableRecord
100
AcDbRegAppTableRecord
  2
GENIUS_GENCFG4_13
 70
     0
  0
APPID
  5
6FDB
330
6A1F
100
AcDbSymbolTableRecord
100
AcDbRegAppTableRecord
  2
GENIUS_GEVCFG0_13
 70
     0
  0
APPID
  5
6FDC
330
6A1F
100
AcDbSymbolTableRecord
100
AcDbRegAppTableRecord
  2
GENIUS_GENOBJ-F-SUF_13
 70
     0
  0
APPID
  5
6FDD
330
6A1F
100
AcDbSymbolTableRecord
100
AcDbRegAppTableRecord
  2
GENIUS_GENDIM_13
 70
     0
  0
APPID
  5
6FDE
330
6A1F
100
AcDbSymbolTableRecord
100
AcDbRegAppTableRecord
  2
GENIUS_GENDTOL_13
 70
     0
  0
APPID
  5
6FDF
330
6A1F
100
AcDbSymbolTableRecord
100
AcDbRegAppTableRecord
  2
GENIUS_GE3DTOL_13
 70
     0
  0
APPID
  5
6FE0
330
6A1F
100
AcDbSymbolTableRecord
100
AcDbRegAppTableRecord
  2
AD_DRAW
 70
     0
  0
APPID
  5
6FE1
330
6A1F
100
AcDbSymbolTableRecord
100
AcDbRegAppTableRecord
  2
ASURF_PCURVE_APPNAME
 70
     0
  0
APPID
  5
6FE2
330
6A1F
100
AcDbSymbolTableRecord
100
AcDbRegAppTableRecord
  2
AMG_3D2D_5_0
 70
     0
  0
APPID
  5
6FE3
330
6A1F
100
AcDbSymbolTableRecord
100
AcDbRegAppTableRecord
  2
DESIGNERASSEMBLIES
 70
     0
  0
APPID
  5
6FE4
330
6A1F
100
AcDbSymbolTableRecord
100
AcDbRegAppTableRecord
  2
ACADM_DIM_EDIT
 70
     0
  0
APPID
  5
6FE5
330
6A1F
100
AcDbSymbolTableRecord
100
AcDbRegAppTableRecord
  2
AMDT_DM_ADJ
 70
     0
  0
APPID
  5
748B
330
6A1F
100
AcDbSymbolTableRecord
100
AcDbRegAppTableRecord
  2
GEV_VCCNULL_SWITCH_OFF
 70
     0
  0
APPID
  5
781C
330
6A1F
100
AcDbSymbolTableRecord
100
AcDbRegAppTableRecord
  2
GENIUS_GENOBJ-N-CEN_13
 70
     0
  0
ENDTAB
  0
TABLE
  2
DIMSTYLE
  5
6A20
330
0
100
AcDbSymbolTable
 70
    14
  0
DIMSTYLE
105
6A77
102
{ACAD_REACTORS
330
73F1
330
76A8
330
79ED
330
7CE8
330
7D32
102
}
330
6A20
100
AcDbSymbolTableRecord
100
AcDbDimStyleTableRecord
  2
AM_DIN
 70
     0
  3

  4
"
  5

  6

  7

 40
1.0
 41
2.5
 42
0.0
 43
10.0
 44
1.0
 45
0.0
 46
0.0
 47
0.1
 48
0.1
140
3.5
141
0.0
142
0.0
143
0.0393701
144
1.0
145
0.0
146
0.71
147
1.5
 71
     0
 72
     0
 73
     0
 74
     0
 75
     0
 76
     0
 77
     1
 78
     8
170
     0
171
     2
172
     1
173
     0
174
     0
175
     0
176
   256
177
   256
178
     2
270
     2
271
     2
272
     2
273
     2
274
     2
340
6A27
275
     0
280
     0
281
     0
282
     0
283
     1
284
     8
285
     8
286
     8
287
     5
288
     0
  0
DIMSTYLE
105
6A7E
330
6A20
100
AcDbSymbolTableRecord
100
AcDbDimStyleTableRecord
  2
STANDARD
 70
     0
  3

  4

  5

  6

  7

 40
1.0
 41
0.18
 42
0.0625
 43
0.38
 44
0.18
 45
0.0
 46
0.0
 47
0.0
 48
0.0
140
0.18
141
0.09
142
0.0
143
25.4
144
1.0
145
0.0
146
1.0
147
0.09
 71
     0
 72
     0
 73
     1
 74
     1
 75
     0
 76
     0
 77
     0
 78
     0
170
     0
171
     2
172
     0
173
     0
174
     0
175
     0
176
     0
177
     0
178
     0
270
     2
271
     2
272
     2
273
     2
274
     2
340
6A27
275
     0
280
     0
281
     0
282
     0
283
     1
284
     8
285
     8
286
     8
287
     5
288
     0
  0
DIMSTYLE
105
6A7F
102
{ACAD_REACTORS
330
6E8F
330
6E90
102
}
330
6A20
100
AcDbSymbolTableRecord
100
AcDbDimStyleTableRecord
  2
AM_ANSI
 70
     0
  3

  4
mm
  5

  6

  7

 40
1.0
 41
0.1
 42
0.05
 43
0.5
 44
0.1
 45
0.0
 46
0.0
 47
0.1
 48
0.1
140
0.12
141
0.0
142
0.0
143
25.4
144
1.0
145
0.0
146
0.71
147
0.06
 71
     0
 72
     0
 73
     1
 74
     1
 75
     0
 76
     0
 77
     0
 78
     7
170
     0
171
     2
172
     0
173
     0
174
     0
175
     0
176
   256
177
   256
178
     2
270
     2
271
     2
272
     2
273
     2
274
     2
340
6A27
275
     0
280
     0
281
     0
282
     0
283
     1
284
     8
285
     8
286
     8
287
     5
288
     0
  0
DIMSTYLE
105
6A80
330
6A20
100
AcDbSymbolTableRecord
100
AcDbDimStyleTableRecord
  2
AM_ANSI$3
 70
     0
  3

  4
mm
  5

  6

  7

 40
1.0
 41
0.1
 42
0.05
 43
0.5
 44
0.1
 45
0.0
 46
0.0
 47
0.1
 48
0.1
140
0.12
141
0.0
142
0.0
143
25.4
144
1.0
145
0.0
146
0.71
147
0.06
 71
     0
 72
     0
 73
     1
 74
     1
 75
     0
 76
     0
 77
     0
 78
     7
170
     0
171
     2
172
     0
173
     0
174
     0
175
     0
176
   256
177
   256
178
     2
270
     2
271
     2
272
     2
273
     2
274
     2
340
6A27
275
     0
280
     0
281
     0
282
     0
283
     1
284
     8
285
     8
286
     8
287
     5
288
     0
  0
DIMSTYLE
105
6A81
330
6A20
100
AcDbSymbolTableRecord
100
AcDbDimStyleTableRecord
  2
AM_ANSI$4
 70
     0
  3

  4
mm
  5

  6

  7

 40
1.0
 41
0.1
 42
0.05
 43
0.5
 44
0.1
 45
0.0
 46
0.0
 47
0.1
 48
0.1
140
0.12
141
0.0
142
0.0
143
25.4
144
1.0
145
0.0
146
0.71
147
0.06
 71
     0
 72
     0
 73
     1
 74
     1
 75
     0
 76
     0
 77
     0
 78
     7
170
     0
171
     2
172
     0
173
     0
174
     0
175
     0
176
   256
177
   256
178
     2
270
     2
271
     2
272
     2
273
     2
274
     2
340
6A27
275
     0
280
     0
281
     0
282
     0
283
     1
284
     8
285
     8
286
     8
287
     5
288
     0
  0
DIMSTYLE
105
6A82
330
6A20
100
AcDbSymbolTableRecord
100
AcDbDimStyleTableRecord
  2
AM_ANSI$7
 70
     0
  3

  4
mm
  5

  6

  7

 40
1.0
 41
0.1
 42
0.05
 43
0.5
 44
0.1
 45
0.0
 46
0.0
 47
0.1
 48
0.1
140
0.24
141
0.0
142
0.0
143
25.4
144
1.0
145
0.0
146
0.71
147
0.06
 71
     0
 72
     0
 73
     1
 74
     1
 75
     0
 76
     0
 77
     0
 78
     7
170
     0
171
     2
172
     0
173
     0
174
     0
175
     0
176
   256
177
   256
178
     2
270
     2
271
     2
272
     2
273
     2
274
     2
340
6A27
275
     0
280
     0
281
     0
282
     0
283
     1
284
     8
285
     8
286
     8
287
     5
288
     0
  0
DIMSTYLE
105
6A83
330
6A20
100
AcDbSymbolTableRecord
100
AcDbDimStyleTableRecord
  2
AM_ANSI$SF
 70
     0
  3

  4
mm
  5

  6

  7

 40
1.0
 41
0.1
 42
0.05
 43
0.5
 44
0.1
 45
0.0
 46
0.0
 47
0.1
 48
0.1
140
0.12
141
0.0
142
0.0
143
25.4
144
1.0
145
0.0
146
0.71
147
0.06
 71
     0
 72
     0
 73
     1
 74
     1
 75
     1
 76
     1
 77
     0
 78
     7
170
     0
171
     2
172
     0
173
     0
174
     0
175
     0
176
   256
177
   256
178
     2
270
     2
271
     2
272
     2
273
     2
274
     2
340
6A27
275
     0
280
     0
281
     0
282
     0
283
     1
284
     8
285
     8
286
     8
287
     5
288
     0
  0
DIMSTYLE
105
6A84
330
6A20
100
AcDbSymbolTableRecord
100
AcDbDimStyleTableRecord
  2
AM_ANSI$SH
 70
     0
  3

  4
mm
  5

  6

  7

 40
1.0
 41
0.1
 42
0.05
 43
0.5
 44
0.1
 45
0.0
 46
0.0
 47
0.1
 48
0.1
140
0.12
141
0.0
142
0.0
143
25.4
144
1.0
145
0.0
146
0.71
147
0.06
 71
     0
 72
     0
 73
     1
 74
     1
 75
     1
 76
     1
 77
     0
 78
     7
170
     0
171
     2
172
     0
173
     1
174
     0
175
     0
176
   256
177
   256
178
     2
270
     2
271
     2
272
     2
273
     2
274
     2
340
6A27
275
     0
280
     0
281
     0
282
     0
283
     1
284
     8
285
     8
286
     8
287
     5
288
     0
  0
DIMSTYLE
105
6C7E
330
6A20
100
AcDbSymbolTableRecord
100
AcDbDimStyleTableRecord
  2
AM_DIN$3
 70
     0
  3

  4
"
  5

  6

  7

 40
1.0
 41
2.5
 42
0.0
 43
10.0
 44
1.0
 45
0.0
 46
0.0
 47
0.1
 48
0.1
140
3.5
141
0.0
142
0.0
143
0.0393701
144
1.0
145
0.0
146
0.71
147
1.5
 71
     0
 72
     0
 73
     0
 74
     1
 75
     0
 76
     0
 77
     1
 78
     8
170
     0
171
     2
172
     0
173
     0
174
     0
175
     0
176
   256
177
   256
178
     2
270
     2
271
     2
272
     2
273
     2
274
     2
340
6A27
275
     0
280
     0
281
     0
282
     0
283
     1
284
     8
285
     8
286
     8
287
     5
288
     1
  0
DIMSTYLE
105
6C7F
330
6A20
100
AcDbSymbolTableRecord
100
AcDbDimStyleTableRecord
  2
AM_DIN$4
 70
     0
  3

  4
"
  5

  6

  7

 40
1.0
 41
2.5
 42
0.0
 43
10.0
 44
1.0
 45
0.0
 46
0.0
 47
0.1
 48
0.1
140
3.5
141
0.0
142
0.0
143
0.0393701
144
1.0
145
0.0
146
0.71
147
1.5
 71
     0
 72
     0
 73
     0
 74
     1
 75
     0
 76
     0
 77
     1
 78
     8
170
     0
171
     2
172
     0
173
     0
174
     0
175
     0
176
   256
177
   256
178
     2
270
     2
271
     2
272
     2
273
     2
274
     2
340
6A27
275
     0
280
     0
281
     0
282
     0
283
     1
284
     8
285
     8
286
     8
287
     5
288
     1
  0
DIMSTYLE
105
6C80
330
6A20
100
AcDbSymbolTableRecord
100
AcDbDimStyleTableRecord
  2
AM_DIN$6
 70
     0
  3

  4
"
  5

  6

  7

 40
1.0
 41
2.5
 42
0.0
 43
10.0
 44
1.0
 45
0.0
 46
0.0
 47
0.1
 48
0.1
140
3.5
141
0.0
142
0.0
143
0.0393701
144
1.0
145
0.0
146
0.71
147
1.5
 71
     0
 72
     0
 73
     0
 74
     0
 75
     0
 76
     0
 77
     0
 78
     8
170
     0
171
     2
172
     1
173
     0
174
     0
175
     0
176
   256
177
   256
178
     2
270
     2
271
     2
272
     2
273
     2
274
     2
340
6A27
275
     0
280
     0
281
     0
282
     0
283
     0
284
     8
285
     8
286
     8
287
     5
288
     0
  0
DIMSTYLE
105
6C81
330
6A20
100
AcDbSymbolTableRecord
100
AcDbDimStyleTableRecord
  2
AM_DIN$7
 70
     0
  3

  4
"
  5

  6

  7

 40
1.0
 41
2.5
 42
0.0
 43
10.0
 44
1.0
 45
0.0
 46
0.0
 47
0.1
 48
0.1
140
5.0
141
0.0
142
0.0
143
0.0393701
144
1.0
145
0.0
146
0.71
147
1.5
 71
     0
 72
     0
 73
     0
 74
     0
 75
     0
 76
     0
 77
     1
 78
     8
170
     0
171
     2
172
     1
173
     0
174
     0
175
     0
176
   256
177
   256
178
     2
270
     2
271
     2
272
     2
273
     2
274
     2
340
6A27
275
     0
280
     0
281
     0
282
     0
283
     1
284
     8
285
     8
286
     8
287
     5
288
     0
  0
DIMSTYLE
105
6C82
330
6A20
100
AcDbSymbolTableRecord
100
AcDbDimStyleTableRecord
  2
AM_DIN$SF
 70
     0
  3

  4
"
  5

  6

  7

 40
1.0
 41
2.5
 42
1.0
 43
10.0
 44
1.0
 45
0.0
 46
0.0
 47
0.1
 48
0.1
140
3.5
141
0.0
142
0.0
143
0.0393701
144
1.0
145
0.0
146
0.71
147
1.5
 71
     0
 72
     0
 73
     0
 74
     0
 75
     1
 76
     1
 77
     1
 78
     8
170
     0
171
     2
172
     1
173
     0
174
     0
175
     0
176
   256
177
   256
178
     2
270
     2
271
     2
272
     2
273
     2
274
     2
340
6A27
275
     0
280
     0
281
     0
282
     0
283
     1
284
     8
285
     8
286
     8
287
     5
288
     0
  0
DIMSTYLE
105
6C87
330
6A20
100
AcDbSymbolTableRecord
100
AcDbDimStyleTableRecord
  2
AM_DIN$SH
 70
     0
  3

  4
"
  5

  6
GENAXEH
  7

 40
1.0
 41
2.5
 42
1.0
 43
10.0
 44
1.0
 45
0.0
 46
0.0
 47
0.1
 48
0.1
140
3.5
141
0.0
142
0.0
143
0.0393701
144
2.0
145
0.0
146
0.71
147
1.5
 71
     0
 72
     0
 73
     0
 74
     0
 75
     1
 76
     1
 77
     1
 78
     8
170
     0
171
     2
172
     1
173
     1
174
     0
175
     0
176
   256
177
   256
178
     2
270
     2
271
     2
272
     2
273
     2
274
     2
340
6A27
275
     0
280
     0
281
     0
282
     0
283
     1
284
     8
285
     8
286
     8
287
     5
288
     0
  0
ENDTAB
  0
TABLE
  2
BLOCK_RECORD
  5
6A17
330
0
100
AcDbSymbolTable
 70
     8
  0
BLOCK_RECORD
  5
6A34
102
{ACAD_XDICTIONARY
360
6B62
102
}
330
6A17
100
AcDbSymbolTableRecord
100
AcDbBlockTableRecord
  2
*MODEL_SPACE
  0
BLOCK_RECORD
  5
6A30
102
{ACAD_XDICTIONARY
360
7DE6
102
}
330
6A17
100
AcDbSymbolTableRecord
100
AcDbBlockTableRecord
  2
*PAPER_SPACE
  0
BLOCK_RECORD
  5
6C83
330
6A17
100
AcDbSymbolTableRecord
100
AcDbBlockTableRecord
  2
GENAXEH
  0
BLOCK_RECORD
  5
6EC4
330
6A17
100
AcDbSymbolTableRecord
100
AcDbBlockTableRecord
  2
*D1
  0
BLOCK_RECORD
  5
6ED0
330
6A17
100
AcDbSymbolTableRecord
100
AcDbBlockTableRecord
  2
*D2
  0
BLOCK_RECORD
  5
73F2
330
6A17
100
AcDbSymbolTableRecord
100
AcDbBlockTableRecord
  2
*D3
  0
BLOCK_RECORD
  5
76A9
330
6A17
100
AcDbSymbolTableRecord
100
AcDbBlockTableRecord
  2
*D4
  0
BLOCK_RECORD
  5
79EE
330
6A17
100
AcDbSymbolTableRecord
100
AcDbBlockTableRecord
  2
*D5
  0
BLOCK_RECORD
  5
7CE9
330
6A17
100
AcDbSymbolTableRecord
100
AcDbBlockTableRecord
  2
*D6
  0
BLOCK_RECORD
  5
7D33
330
6A17
100
AcDbSymbolTableRecord
100
AcDbBlockTableRecord
  2
*D7
  0
ENDTAB
  0
ENDSEC
  0
SECTION
  2
BLOCKS
  0
BLOCK
  5
6A35
330
6A34
100
AcDbEntity
  8
0
100
AcDbBlockBegin
  2
*MODEL_SPACE
 70
     0
 10
0.0
 20
0.0
 30
0.0
  3
*MODEL_SPACE
  1

  0
ENDBLK
  5
6A36
330
6A34
100
AcDbEntity
  8
0
100
AcDbBlockEnd
  0
BLOCK
  5
6A31
330
6A30
100
AcDbEntity
 67
     1
  8
0
100
AcDbBlockBegin
  2
*PAPER_SPACE
 70
     0
 10
0.0
 20
0.0
 30
0.0
  3
*PAPER_SPACE
  1

  0
ENDBLK
  5
6A32
330
6A30
100
AcDbEntity
 67
     1
  8
0
100
AcDbBlockEnd
  0
BLOCK
  5
6C85
330
6C83
100
AcDbEntity
  8
0
100
AcDbBlockBegin
  2
GENAXEH
 70
     0
 10
0.0
 20
0.0
 30
0.0
  3
GENAXEH
  1

  0
LINE
  5
6C84
330
6C83
100
AcDbEntity
  8
0
100
AcDbLine
 10
-1.0
 20
0.0
 30
0.0
 11
1.0
 21
0.0
 31
0.0
  0
ENDBLK
  5
6C86
330
6C83
100
AcDbEntity
  8
0
100
AcDbBlockEnd
  0
BLOCK
  5
6ECE
330
6EC4
100
AcDbEntity
  8
0
100
AcDbBlockBegin
  2
*D1
 70
     1
 10
0.0
 20
0.0
 30
0.0
  3
*D1
  1

  0
LINE
  5
77B1
330
6EC4
100
AcDbEntity
  8
SK2
100
AcDbLine
 10
0.0
 20
24.0
 30
0.0
 11
0.0000000000000023
 21
61.03381914312868
 31
0.0
  0
LINE
  5
77B2
330
6EC4
100
AcDbEntity
  8
SK2
100
AcDbLine
 10
-35.0
 20
11.0
 30
0.0
 11
-35.0
 21
61.03381914312868
 31
0.0
  0
LINE
  5
77B3
330
6EC4
100
AcDbEntity
  8
SK2
100
AcDbLine
 10
-2.399999999999997
 20
60.03381914312868
 30
0.0
 11
-32.6
 21
60.03381914312868
 31
0.0
  0
SOLID
  5
77B4
330
6EC4
100
AcDbEntity
  8
SK2
100
AcDbTrace
 10
-2.399999999999997
 20
60.43381914312868
 30
0.0
 11
-2.399999999999997
 21
59.63381914312869
 31
0.0
 12
0.0000000000000022
 22
60.03381914312868
 32
0.0
 13
0.0000000000000022
 23
60.03381914312868
 33
0.0
  0
SOLID
  5
77B5
330
6EC4
100
AcDbEntity
  8
SK2
100
AcDbTrace
 10
-32.6
 20
60.43381914312868
 30
0.0
 11
-32.6
 21
59.63381914312869
 31
0.0
 12
-35.0
 22
60.03381914312868
 32
0.0
 13
-35.0
 23
60.03381914312868
 33
0.0
  0
MTEXT
  5
77B6
330
6EC4
100
AcDbEntity
  8
SK2
 62
     2
100
AcDbMText
 10
-17.5
 20
62.78381914312868
 30
0.0
 40
3.5
 41
0.0
 71
     5
 72
     1
  1
\A1;35
1001
ACAD
1000
MTEXTBEGIN
1070
    73
1070
     1
1070
    44
1040
1.0
1070
    74
1070
     0
1000
MTEXTEND
  0
POINT
  5
77B7
330
6EC4
100
AcDbEntity
  8
DEFPOINTS
 62
     0
100
AcDbPoint
 10
0.0
 20
24.0
 30
0.0
  0
POINT
  5
77B8
330
6EC4
100
AcDbEntity
  8
DEFPOINTS
 62
     0
100
AcDbPoint
 10
-35.0
 20
11.0
 30
0.0
  0
POINT
  5
77B9
330
6EC4
100
AcDbEntity
  8
DEFPOINTS
 62
     0
100
AcDbPoint
 10
-35.0
 20
60.03381914312868
 30
0.0
  0
ENDBLK
  5
6ECF
330
6EC4
100
AcDbEntity
  8
0
100
AcDbBlockEnd
  0
BLOCK
  5
6EDA
330
6ED0
100
AcDbEntity
  8
0
100
AcDbBlockBegin
  2
*D2
 70
     1
 10
0.0
 20
0.0
 30
0.0
  3
*D2
  1

  0
LINE
  5
77A8
330
6ED0
100
AcDbEntity
  8
SK2
100
AcDbLine
 10
-30.0
 20
12.00000000000002
 30
0.0
 11
-49.30042214622813
 21
12.00000000000003
 31
0.0
  0
LINE
  5
77A9
330
6ED0
100
AcDbEntity
  8
SK2
100
AcDbLine
 10
-30.0
 20
-11.99999999999997
 30
0.0
 11
-49.30042214622813
 21
-11.99999999999996
 31
0.0
  0
LINE
  5
77AA
330
6ED0
100
AcDbEntity
  8
SK2
100
AcDbLine
 10
-48.30042214622813
 20
9.600000000000033
 30
0.0
 11
-48.30042214622813
 21
-9.599999999999965
 31
0.0
  0
MTEXT
  5
77AB
330
6ED0
100
AcDbEntity
  8
SK2
 62
     2
100
AcDbMText
 10
-51.34319359390861
 20
-0.1122779170276829
 30
0.0
 40
3.5
 41
0.0
 71
     5
 72
     1
  1
\A1;%%c24
 11
0.0000000000000001
 21
1.0
 31
0.0
1001
ACAD
1000
MTEXTBEGIN
1070
    73
1070
     1
1070
    44
1040
1.0
1070
    74
1070
     0
1000
MTEXTEND
  0
SOLID
  5
77AC
330
6ED0
100
AcDbEntity
  8
SK2
100
AcDbTrace
 10
-48.70042214622813
 20
9.600000000000033
 30
0.0
 11
-47.90042214622813
 21
9.600000000000033
 31
0.0
 12
-48.30042214622813
 22
12.00000000000003
 32
0.0
 13
-48.30042214622813
 23
12.00000000000003
 33
0.0
  0
SOLID
  5
77AD
330
6ED0
100
AcDbEntity
  8
SK2
100
AcDbTrace
 10
-48.70042214622813
 20
-9.599999999999965
 30
0.0
 11
-47.90042214622813
 21
-9.599999999999965
 31
0.0
 12
-48.30042214622813
 22
-11.99999999999996
 32
0.0
 13
-48.30042214622813
 23
-11.99999999999996
 33
0.0
  0
POINT
  5
77AE
330
6ED0
100
AcDbEntity
  8
DEFPOINTS
 62
     0
100
AcDbPoint
 10
-30.0
 20
12.00000000000002
 30
0.0
  0
POINT
  5
77AF
330
6ED0
100
AcDbEntity
  8
DEFPOINTS
 62
     0
100
AcDbPoint
 10
-30.0
 20
-11.99999999999997
 30
0.0
  0
POINT
  5
77B0
330
6ED0
100
AcDbEntity
  8
DEFPOINTS
 62
     0
100
AcDbPoint
 10
-48.30042214622813
 20
-11.99999999999996
 30
0.0
  0
ENDBLK
  5
6EDB
330
6ED0
100
AcDbEntity
  8
0
100
AcDbBlockEnd
  0
BLOCK
  5
73FC
330
73F2
100
AcDbEntity
  8
0
100
AcDbBlockBegin
  2
*D3
 70
     1
 10
0.0
 20
0.0
 30
0.0
  3
*D3
  1

  0
LINE
  5
779F
330
73F2
100
AcDbEntity
  8
SK2
100
AcDbLine
 10
0.0
 20
24.0
 30
0.0
 11
-60.74448938991872
 21
24.00000000000002
 31
0.0
  0
LINE
  5
77A0
330
73F2
100
AcDbEntity
  8
SK2
100
AcDbLine
 10
0.0
 20
-24.0
 30
0.0
 11
-60.74448938991874
 21
-23.99999999999998
 31
0.0
  0
LINE
  5
77A1
330
73F2
100
AcDbEntity
  8
SK2
100
AcDbLine
 10
-59.74448938991873
 20
21.50000000000001
 30
0.0
 11
-59.74448938991874
 21
-21.49999999999998
 31
0.0
  0
SOLID
  5
77A2
330
73F2
100
AcDbEntity
  8
SK2
100
AcDbTrace
 10
-60.16115605658539
 20
21.50000000000001
 30
0.0
 11
-59.32782272325206
 21
21.50000000000001
 31
0.0
 12
-59.74448938991873
 22
24.00000000000002
 32
0.0
 13
-59.74448938991873
 23
24.00000000000002
 33
0.0
  0
SOLID
  5
77A3
330
73F2
100
AcDbEntity
  8
SK2
100
AcDbTrace
 10
-60.16115605658541
 20
-21.49999999999998
 30
0.0
 11
-59.32782272325208
 21
-21.49999999999998
 31
0.0
 12
-59.74448938991874
 22
-23.99999999999998
 32
0.0
 13
-59.74448938991874
 23
-23.99999999999998
 33
0.0
  0
MTEXT
  5
77A4
330
73F2
100
AcDbEntity
  8
SK2
 62
     2
100
AcDbMText
 10
-62.99448938991873
 20
0.0000000000000076
 30
0.0
 40
3.5
 41
0.0
 71
     5
 72
     1
  1
\A1;%%c48
 11
0.0000000000000001
 21
1.0
 31
0.0
1001
ACAD
1000
MTEXTBEGIN
1070
    73
1070
     1
1070
    44
1040
1.0
1070
    74
1070
     0
1000
MTEXTEND
  0
POINT
  5
77A5
330
73F2
100
AcDbEntity
  8
DEFPOINTS
 62
     0
100
AcDbPoint
 10
0.0
 20
24.0
 30
0.0
  0
POINT
  5
77A6
330
73F2
100
AcDbEntity
  8
DEFPOINTS
 62
     0
100
AcDbPoint
 10
0.0
 20
-24.0
 30
0.0
  0
POINT
  5
77A7
330
73F2
100
AcDbEntity
  8
DEFPOINTS
 62
     0
100
AcDbPoint
 10
-59.74448938991874
 20
-23.99999999999998
 30
0.0
  0
ENDBLK
  5
73FD
330
73F2
100
AcDbEntity
  8
0
100
AcDbBlockEnd
  0
BLOCK
  5
76B3
330
76A9
100
AcDbEntity
  8
0
100
AcDbBlockBegin
  2
*D4
 70
     1
 10
0.0
 20
0.0
 30
0.0
  3
*D4
  1

  0
LINE
  5
7ACA
330
76A9
100
AcDbEntity
  8
2
100
AcDbLine
 10
0.0
 20
23.0
 30
0.0
 11
0.0000000000000032
 21
75.99999999999997
 31
0.0
  0
LINE
  5
7ACB
330
76A9
100
AcDbEntity
  8
2
100
AcDbLine
 10
40.0
 20
8.000000000000007
 30
0.0
 11
40.0
 21
75.99999999999997
 31
0.0
  0
LINE
  5
7ACC
330
76A9
100
AcDbEntity
  8
2
100
AcDbLine
 10
2.500000000000003
 20
74.99999999999997
 30
0.0
 11
37.5
 21
74.99999999999997
 31
0.0
  0
SOLID
  5
7ACD
330
76A9
100
AcDbEntity
  8
2
100
AcDbTrace
 10
2.500000000000003
 20
75.41666666666664
 30
0.0
 11
2.500000000000003
 21
74.5833333333333
 31
0.0
 12
0.0000000000000032
 22
74.99999999999997
 32
0.0
 13
0.0000000000000032
 23
74.99999999999997
 33
0.0
  0
SOLID
  5
7ACE
330
76A9
100
AcDbEntity
  8
2
100
AcDbTrace
 10
37.5
 20
75.41666666666664
 30
0.0
 11
37.5
 21
74.5833333333333
 31
0.0
 12
40.0
 22
74.99999999999997
 32
0.0
 13
40.0
 23
74.99999999999997
 33
0.0
  0
MTEXT
  5
7ACF
330
76A9
100
AcDbEntity
  8
2
 62
     2
100
AcDbMText
 10
20.0
 20
78.24999999999997
 30
0.0
 40
3.5
 41
0.0
 71
     5
 72
     1
  1
\A1;40
1001
ACAD
1000
MTEXTBEGIN
1070
    73
1070
     1
1070
    44
1040
1.0
1070
    74
1070
     0
1000
MTEXTEND
  0
POINT
  5
7AD0
330
76A9
100
AcDbEntity
  8
DEFPOINTS
 62
     0
100
AcDbPoint
 10
0.0
 20
23.0
 30
0.0
  0
POINT
  5
7AD1
330
76A9
100
AcDbEntity
  8
DEFPOINTS
 62
     0
100
AcDbPoint
 10
40.0
 20
8.000000000000007
 30
0.0
  0
POINT
  5
7AD2
330
76A9
100
AcDbEntity
  8
DEFPOINTS
 62
     0
100
AcDbPoint
 10
40.0
 20
74.99999999999997
 30
0.0
  0
ENDBLK
  5
76B4
330
76A9
100
AcDbEntity
  8
0
100
AcDbBlockEnd
  0
BLOCK
  5
79F8
330
79EE
100
AcDbEntity
  8
0
100
AcDbBlockBegin
  2
*D5
 70
     1
 10
0.0
 20
0.0
 30
0.0
  3
*D5
  1

  0
LINE
  5
7AB6
330
79EE
100
AcDbEntity
  8
2
100
AcDbLine
 10
40.0
 20
5.0
 30
0.0
 11
40.0
 21
60.99999999999997
 31
0.0
  0
LINE
  5
7AB7
330
79EE
100
AcDbEntity
  8
2
100
AcDbLine
 10
18.0
 20
5.000000000000312
 30
0.0
 11
18.0
 21
60.99999999999997
 31
0.0
  0
LINE
  5
7AB8
330
79EE
100
AcDbEntity
  8
2
100
AcDbLine
 10
37.5
 20
59.99999999999997
 30
0.0
 11
20.5
 21
59.99999999999997
 31
0.0
  0
MTEXT
  5
7AB9
330
79EE
100
AcDbEntity
  8
2
 62
     2
100
AcDbMText
 10
29.16945020802108
 20
63.3254766226529
 30
0.0
 40
3.5
 41
0.0
 71
     5
 72
     1
  1
\A1;22
1001
ACAD
1000
MTEXTBEGIN
1070
    73
1070
     1
1070
    44
1040
1.0
1070
    74
1070
     0
1000
MTEXTEND
  0
SOLID
  5
7ABA
330
79EE
100
AcDbEntity
  8
2
100
AcDbTrace
 10
37.5
 20
60.41666666666664
 30
0.0
 11
37.5
 21
59.58333333333331
 31
0.0
 12
40.0
 22
59.99999999999997
 32
0.0
 13
40.0
 23
59.99999999999997
 33
0.0
  0
SOLID
  5
7ABB
330
79EE
100
AcDbEntity
  8
2
100
AcDbTrace
 10
20.5
 20
60.41666666666664
 30
0.0
 11
20.5
 21
59.58333333333331
 31
0.0
 12
18.0
 22
59.99999999999997
 32
0.0
 13
18.0
 23
59.99999999999997
 33
0.0
  0
POINT
  5
7ABC
330
79EE
100
AcDbEntity
  8
DEFPOINTS
 62
     0
100
AcDbPoint
 10
40.0
 20
5.0
 30
0.0
  0
POINT
  5
7ABD
330
79EE
100
AcDbEntity
  8
DEFPOINTS
 62
     0
100
AcDbPoint
 10
18.0
 20
5.000000000000312
 30
0.0
  0
POINT
  5
7ABE
330
79EE
100
AcDbEntity
  8
DEFPOINTS
 62
     0
100
AcDbPoint
 10
18.0
 20
59.99999999999997
 30
0.0
  0
ENDBLK
  5
79F9
330
79EE
100
AcDbEntity
  8
0
100
AcDbBlockEnd
  0
BLOCK
  5
7CF3
330
7CE9
100
AcDbEntity
  8
0
100
AcDbBlockBegin
  2
*D6
 70
     1
 10
0.0
 20
0.0
 30
0.0
  3
*D6
  1

  0
LINE
  5
7D9E
330
7CE9
100
AcDbEntity
  8
2
100
AcDbLine
 10
40.0
 20
5.0
 30
0.0
 11
63.24403921479961
 21
4.999999999999992
 31
0.0
  0
LINE
  5
7D9F
330
7CE9
100
AcDbEntity
  8
2
100
AcDbLine
 10
39.99999999999991
 20
-5.000000000000007
 30
0.0
 11
63.24403921479961
 21
-5.000000000000014
 31
0.0
  0
LINE
  5
7DA0
330
7CE9
100
AcDbEntity
  8
2
100
AcDbLine
 10
62.24403921479961
 20
2.499999999999993
 30
0.0
 11
62.24403921479961
 21
-2.500000000000013
 31
0.0
  0
SOLID
  5
7DA1
330
7CE9
100
AcDbEntity
  8
2
100
AcDbTrace
 10
61.82737254813295
 20
2.499999999999993
 30
0.0
 11
62.66070588146628
 21
2.499999999999993
 31
0.0
 12
62.24403921479961
 22
4.999999999999992
 32
0.0
 13
62.24403921479961
 23
4.999999999999992
 33
0.0
  0
SOLID
  5
7DA2
330
7CE9
100
AcDbEntity
  8
2
100
AcDbTrace
 10
61.82737254813295
 20
-2.500000000000013
 30
0.0
 11
62.66070588146628
 21
-2.500000000000013
 31
0.0
 12
62.24403921479961
 22
-5.000000000000014
 32
0.0
 13
62.24403921479961
 23
-5.000000000000014
 33
0.0
  0
MTEXT
  5
7DA3
330
7CE9
100
AcDbEntity
  8
2
 62
     2
100
AcDbMText
 10
58.99403921479962
 20
0.0000000000000001
 30
0.0
 40
3.5
 41
0.0
 71
     5
 72
     1
  1
\A1;%%c10
 11
0.0000000000000001
 21
1.0
 31
0.0
1001
ACAD
1000
MTEXTBEGIN
1070
    73
1070
     1
1070
    44
1040
1.0
1070
    74
1070
     0
1000
MTEXTEND
  0
POINT
  5
7DA4
330
7CE9
100
AcDbEntity
  8
DEFPOINTS
 62
     0
100
AcDbPoint
 10
40.0
 20
5.0
 30
0.0
  0
POINT
  5
7DA5
330
7CE9
100
AcDbEntity
  8
DEFPOINTS
 62
     0
100
AcDbPoint
 10
39.99999999999991
 20
-5.000000000000007
 30
0.0
  0
POINT
  5
7DA6
330
7CE9
100
AcDbEntity
  8
DEFPOINTS
 62
     0
100
AcDbPoint
 10
62.24403921479961
 20
-5.000000000000014
 30
0.0
  0
ENDBLK
  5
7CF4
330
7CE9
100
AcDbEntity
  8
0
100
AcDbBlockEnd
  0
BLOCK
  5
7D3F
330
7D33
100
AcDbEntity
  8
0
100
AcDbBlockBegin
  2
*D7
 70
     1
 10
0.0
 20
0.0
 30
0.0
  3
*D7
  1

  0
LINE
  5
7D8C
330
7D33
100
AcDbEntity
  8
2
100
AcDbLine
 10
40.0
 20
5.0
 30
0.0
 11
40.0
 21
45.99999999999996
 31
0.0
  0
LINE
  5
7D8D
330
7D33
100
AcDbEntity
  8
2
100
AcDbLine
 10
34.29999999999999
 20
5.104503187018451
 30
0.0
 11
34.29999999999999
 21
45.99999999999996
 31
0.0
  0
LINE
  5
7D8E
330
7D33
100
AcDbEntity
  8
2
100
AcDbLine
 10
42.5
 20
44.99999999999997
 30
0.0
 11
45.0
 21
44.99999999999997
 31
0.0
  0
LINE
  5
7D8F
330
7D33
100
AcDbEntity
  8
2
100
AcDbLine
 10
31.79999999999999
 20
44.99999999999997
 30
0.0
 11
29.29999999999999
 21
44.99999999999997
 31
0.0
  0
MTEXT
  5
7D90
330
7D33
100
AcDbEntity
  8
2
 62
     2
100
AcDbMText
 10
37.19305788425717
 20
47.2887033407031
 30
0.0
 40
3.5
 41
0.0
 71
     5
 72
     1
  1
\A1;5.7
1001
ACAD
1000
MTEXTBEGIN
1070
    73
1070
     1
1070
    44
1040
1.0
1070
    74
1070
     0
1000
MTEXTEND
  0
LINE
  5
7D91
330
7D33
100
AcDbEntity
  8
2
100
AcDbLine
 10
40.0
 20
44.99999999999997
 30
0.0
 11
34.29999999999999
 21
44.99999999999997
 31
0.0
  0
SOLID
  5
7D92
330
7D33
100
AcDbEntity
  8
2
100
AcDbTrace
 10
42.5
 20
45.41666666666663
 30
0.0
 11
42.5
 21
44.58333333333331
 31
0.0
 12
40.0
 22
44.99999999999997
 32
0.0
 13
40.0
 23
44.99999999999997
 33
0.0
  0
SOLID
  5
7D93
330
7D33
100
AcDbEntity
  8
2
100
AcDbTrace
 10
31.79999999999999
 20
45.41666666666663
 30
0.0
 11
31.79999999999999
 21
44.58333333333331
 31
0.0
 12
34.29999999999999
 22
44.99999999999997
 32
0.0
 13
34.29999999999999
 23
44.99999999999997
 33
0.0
  0
POINT
  5
7D94
330
7D33
100
AcDbEntity
  8
DEFPOINTS
 62
     0
100
AcDbPoint
 10
40.0
 20
5.0
 30
0.0
  0
POINT
  5
7D95
330
7D33
100
AcDbEntity
  8
DEFPOINTS
 62
     0
100
AcDbPoint
 10
34.29999999999999
 20
5.104503187018451
 30
0.0
  0
POINT
  5
7D96
330
7D33
100
AcDbEntity
  8
DEFPOINTS
 62
     0
100
AcDbPoint
 10
34.29999999999999
 20
44.99999999999997
 30
0.0
  0
ENDBLK
  5
7D40
330
7D33
100
AcDbEntity
  8
0
100
AcDbBlockEnd
  0
ENDSEC
  0
SECTION
  2
ENTITIES
  0
LINE
  5
6E59
330
6A34
100
AcDbEntity
  8
SK1
100
AcDbLine
 10
0.0
 20
-11.99999999999997
 30
0.0
 11
-30.00000000000005
 21
-11.99999999999997
 31
0.0
  0
LINE
  5
6E5D
330
6A34
100
AcDbEntity
  8
SK1
100
AcDbLine
 10
-30.0
 20
-11.99999999999997
 30
0.0
 11
-33.10000000000002
 21
-11.64999999999997
 31
0.0
  0
ARC
  5
6E5E
330
6A34
100
AcDbEntity
  8
SK1
100
AcDbCircle
 10
-34.0
 20
-11.0
 30
0.0
 40
1.0
100
AcDbArc
 50
180.0
 51
319.4583981264969
1001
GENIUS_GENODEF_13
1002
{
1000
HIER
1070
     0
1002
}
1002
{
1000
MANEDIT
1070
     0
1002
}
1002
{
1000
NOSEL
1070
     0
1002
}
1002
{
1000
BEHIND
1070
     0
1002
}
1002
{
1000
OTHER
1070
     0
1002
}
1002
{
1000
REACTOR
1002
}
1001
GENIUS_GENOBJ-N-FIL_13
1002
{
1000
OWNER
1000
GEN
1002
}
  0
LINE
  5
6E5F
330
6A34
100
AcDbEntity
  8
SK1
100
AcDbLine
 10
-33.10000000000002
 20
-11.64999999999997
 30
0.0
 11
-33.24006579232144
 21
-11.64999999999997
 31
0.0
  0
LINE
  5
6E60
330
6A34
100
AcDbEntity
  8
1
100
AcDbLine
 10
0.0
 20
24.0
 30
0.0
 11
12.0
 21
24.0
 31
0.0
  0
LINE
  5
6E63
330
6A34
100
AcDbEntity
  8
1
100
AcDbLine
 10
0.0
 20
-24.0
 30
0.0
 11
0.0
 21
24.0
 31
0.0
  0
ARC
  5
6E65
330
6A34
100
AcDbEntity
  8
SK1
100
AcDbCircle
 10
-34.0
 20
11.0
 30
0.0
 40
1.0
100
AcDbArc
 50
40.54160187350304
 51
180.0
1001
GENIUS_GENODEF_13
1002
{
1000
HIER
1070
     0
1002
}
1002
{
1000
MANEDIT
1070
     0
1002
}
1002
{
1000
NOSEL
1070
     0
1002
}
1002
{
1000
BEHIND
1070
     0
1002
}
1002
{
1000
OTHER
1070
     0
1002
}
1002
{
1000
REACTOR
1002
}
1001
GENIUS_GENOBJ-N-FIL_13
1002
{
1000
OWNER
1000
GEN
1002
}
  0
LINE
  5
6E66
330
6A34
100
AcDbEntity
  8
SK1
100
AcDbLine
 10
0.0
 20
12.00000000000002
 30
0.0
 11
-30.00000000000005
 21
12.00000000000002
 31
0.0
  0
LINE
  5
6E68
330
6A34
100
AcDbEntity
  8
SK1
100
AcDbLine
 10
-30.0
 20
12.00000000000002
 30
0.0
 11
-33.10000000000002
 21
11.65000000000003
 31
0.0
  0
LINE
  5
6E69
330
6A34
100
AcDbEntity
  8
SK1
100
AcDbLine
 10
-33.10000000000002
 20
11.65000000000003
 30
0.0
 11
-33.24006579232144
 21
11.65000000000003
 31
0.0
  0
LINE
  5
6E6A
330
6A34
100
AcDbEntity
  8
SK1
100
AcDbLine
 10
-35.0
 20
-10.99999999999997
 30
0.0
 11
-35.0
 21
11.00000000000002
 31
0.0
  0
LINE
  5
6E6B
330
6A34
100
AcDbEntity
  8
SK1
100
AcDbLine
 10
-16.98960756861424
 20
-6.999999999999971
 30
0.0
 11
-18.68883222675992
 21
-6.999999999999971
 31
0.0
  0
LINE
  5
6E6C
330
6A34
100
AcDbEntity
  8
SK1
100
AcDbLine
 10
-16.98960756861424
 20
7.000000000000028
 30
0.0
 11
-18.68883222675992
 21
7.000000000000028
 31
0.0
  0
ARC
  5
6E6D
330
6A34
100
AcDbEntity
  8
SK1
100
AcDbCircle
 10
-17.08460432395168
 20
0.0
 30
0.0
 40
7.181472492751646
100
AcDbArc
 50
102.9078848854386
 51
257.0921151145614
  0
LINE
  5
6E6E
330
6A34
100
AcDbEntity
  8
SK1
100
AcDbLine
 10
-18.68883222675992
 20
-3.999999999999971
 30
0.0
 11
-18.68883222675992
 21
4.000000000000028
 31
0.0
  0
ARC
  5
6E6F
330
6A34
100
AcDbEntity
  8
SK1
100
AcDbCircle
 10
-15.19095324358221
 20
-4.0
 30
0.0
 40
3.497878983177713
100
AcDbArc
 50
180.0000000000004
 51
239.0551446332088
  0
ARC
  5
6E70
330
6A34
100
AcDbEntity
  8
SK1
100
AcDbCircle
 10
-15.19095324358221
 20
4.0
 30
0.0
 40
3.497878983177713
100
AcDbArc
 50
120.9448553667911
 51
179.9999999999996
  0
ARC
  5
6E71
330
6A34
100
AcDbEntity
  8
SK1
100
AcDbCircle
 10
-22.86946659883227
 20
0.0
 30
0.0
 40
9.141812851685189
100
AcDbArc
 50
310.0295827564067
 51
49.97041724359328
  0
LINE
  5
6E76
330
6A34
100
AcDbEntity
  8
SK1
100
AcDbLine
 10
-30.0
 20
-11.99999999999997
 30
0.0
 11
-30.0
 21
12.00000000000002
 31
0.0
  0
LINE
  5
6E77
330
6A34
100
AcDbEntity
  8
SK1
100
AcDbLine
 10
-33.24006579232144
 20
-11.64999999999997
 30
0.0
 11
-33.24006579232144
 21
11.65
 31
0.0
  0
LINE
  5
6E79
330
6A34
100
AcDbEntity
  8
SK4
100
AcDbLine
 10
-12.0
 20
-12.82925254711187
 30
0.0
 11
-12.0
 21
13.96286389869328
 31
0.0
  0
CIRCLE
  5
6E7A
330
6A34
100
AcDbEntity
  8
SK1
100
AcDbCircle
 10
-12.0
 20
0.0
 30
0.0
 40
1.75
  0
LINE
  5
6E7B
330
6A34
100
AcDbEntity
  8
SK3
 48
0.3
100
AcDbLine
 10
-10.25
 20
-11.99999999999997
 30
0.0
 11
-10.25
 21
-3.0
 31
0.0
  0
LINE
  5
6E7C
330
6A34
100
AcDbEntity
  8
SK3
 48
0.3
100
AcDbLine
 10
-13.75000000000005
 20
-11.99999999999997
 30
0.0
 11
-13.75
 21
-2.999999999999971
 31
0.0
  0
LINE
  5
6E7D
330
6A34
100
AcDbEntity
  8
SK4
100
AcDbLine
 10
13.7490521878085
 20
18.0
 30
0.0
 11
-2.817613997200623
 21
18.0
 31
0.0
  0
LINE
  5
6E7E
330
6A34
100
AcDbEntity
  8
SK3
 48
0.3
100
AcDbLine
 10
11.41496162197495
 20
-2.999999999999985
 30
0.0
 11
-35.0
 21
-2.999999999999971
 31
0.0
  0
LINE
  5
6E7F
330
6A34
100
AcDbEntity
  8
SK3
 48
0.3
100
AcDbLine
 10
10.26564492474449
 20
3.0
 30
0.0
 11
-35.0
 21
3.000000000000028
 31
0.0
  0
LINE
  5
6E80
330
6A34
100
AcDbEntity
  8
SK3
 48
0.3
100
AcDbLine
 10
-10.25
 20
3.0
 30
0.0
 11
-10.25
 21
12.00000000000002
 31
0.0
  0
LINE
  5
6E81
330
6A34
100
AcDbEntity
  8
SK3
 48
0.3
100
AcDbLine
 10
-13.75
 20
3.000000000000028
 30
0.0
 11
-13.75
 21
12.00000000000002
 31
0.0
  0
LINE
  5
6E82
330
6A34
100
AcDbEntity
  8
SK4
100
AcDbLine
 10
0.0
 20
0.0
 30
0.0
 11
-38.24007757597064
 21
0.0000000000000284
 31
0.0
  0
LINE
  5
6E83
330
6A34
100
AcDbEntity
  8
SK3
 48
0.5
100
AcDbLine
 10
10.0
 20
22.0
 30
0.0
 11
0.0
 21
22.0
 31
0.0
  0
LINE
  5
6E84
330
6A34
100
AcDbEntity
  8
SK3
 48
0.5
100
AcDbLine
 10
10.0
 20
22.0
 30
0.0
 11
12.3094010767586
 21
18.0
 31
0.0
  0
LINE
  5
6E85
330
6A34
100
AcDbEntity
  8
SK3
 48
0.5
100
AcDbLine
 10
10.0
 20
14.0
 30
0.0
 11
10.0
 21
22.0
 31
0.0
  0
LINE
  5
6E86
330
6A34
100
AcDbEntity
  8
SK3
 48
0.5
100
AcDbLine
 10
10.0
 20
14.0
 30
0.0
 11
0.0
 21
14.0
 31
0.0
  0
LINE
  5
6E87
330
6A34
100
AcDbEntity
  8
SK3
 48
0.5
100
AcDbLine
 10
10.0
 20
14.0
 30
0.0
 11
12.3094010767586
 21
18.0
 31
0.0
  0
LINE
  5
6E88
330
6A34
100
AcDbEntity
  8
SK3
 48
0.5
100
AcDbLine
 10
10.0
 20
-22.0
 30
0.0
 11
0.0
 21
-22.0
 31
0.0
  0
LINE
  5
6E89
330
6A34
100
AcDbEntity
  8
SK3
 48
0.5
100
AcDbLine
 10
10.0
 20
-14.0
 30
0.0
 11
0.0
 21
-14.0
 31
0.0
  0
LINE
  5
6E8A
330
6A34
100
AcDbEntity
  8
SK4
100
AcDbLine
 10
14.52561373382195
 20
-18.0
 30
0.0
 11
-1.911625526851821
 21
-18.0
 31
0.0
  0
LINE
  5
6E8B
330
6A34
100
AcDbEntity
  8
SK3
 48
0.5
100
AcDbLine
 10
10.0
 20
-14.0
 30
0.0
 11
12.3094010767586
 21
-18.0
 31
0.0
  0
LINE
  5
6E8C
330
6A34
100
AcDbEntity
  8
SK3
 48
0.5
100
AcDbLine
 10
10.0
 20
-22.0
 30
0.0
 11
12.3094010767586
 21
-18.0
 31
0.0
  0
LINE
  5
6E8D
330
6A34
100
AcDbEntity
  8
SK3
 48
0.5
100
AcDbLine
 10
10.0
 20
-14.0
 30
0.0
 11
10.0
 21
-22.0
 31
0.0
  0
LINE
  5
6E8E
330
6A34
100
AcDbEntity
  8
SK1
100
AcDbLine
 10
-1.828602898698363
 20
12.0
 30
0.0
 11
-1.828602898698363
 21
-12.0
 31
0.0
  0
DIMENSION
  5
6E8F
330
6A34
100
AcDbEntity
  8
SK2
100
AcDbDimension
  2
*D1
 10
-35.0
 20
60.03381914312868
 30
0.0
 11
-17.5
 21
62.78381914312868
 31
0.0
 70
    32
  3
AM_ANSI
100
AcDbAlignedDimension
 13
0.0
 23
24.0
 33
0.0
 14
-35.0
 24
11.0
 34
0.0
100
AcDbRotatedDimension
1001
ACAD
1000
DSTYLE
1002
{
1070
    41
1040
2.399999999999999
1070
    42
1040
0.0
1070
    44
1040
1.0
1070
    77
1070
     1
1070
   140
1040
3.5
1070
   147
1040
1.0
1070
   271
1070
     0
1002
}
  0
DIMENSION
  5
6E90
330
6A34
100
AcDbEntity
  8
SK2
100
AcDbDimension
  2
*D2
 10
-48.30042214622813
 20
-11.99999999999996
 30
0.0
 11
-51.34319359390861
 21
-0.1122779170276829
 31
0.0
 70
   160
  1
%%c<>
 53
90.0
  3
AM_ANSI
100
AcDbAlignedDimension
 13
-30.0
 23
12.00000000000002
 33
0.0
 14
-30.0
 24
-11.99999999999997
 34
0.0
 50
90.0
100
AcDbRotatedDimension
1001
ACAD
1000
DSTYLE
1002
{
1070
    41
1040
2.399999999999999
1070
    42
1040
0.0
1070
    44
1040
1.0
1070
    77
1070
     1
1070
   140
1040
3.5
1070
   147
1040
1.0
1070
   271
1070
     0
1002
}
  0
CIRCLE
  5
6E91
330
6A34
100
AcDbEntity
  8
SK1
100
AcDbCircle
 10
0.0
 20
0.0
 30
0.0
 40
2.950972054112602
  0
LINE
  5
6E92
330
6A34
100
AcDbEntity
  8
SK1
100
AcDbLine
 10
-2.950972054112639
 20
0.0
 30
0.0
 11
2.950972054112583
 21
0.0
 31
0.0
  0
LINE
  5
6E93
330
6A34
100
AcDbEntity
  8
SK1
100
AcDbLine
 10
0.0
 20
2.950972054112611
 30
0.0
 11
0.0
 21
-2.950972054112611
 31
0.0
  0
LINE
  5
6E94
330
6A34
100
AcDbEntity
  8
1
100
AcDbLine
 10
13.0
 20
-23.00000000000004
 30
0.0
 11
13.0
 21
23.0
 31
0.0
  0
LINE
  5
6E96
330
6A34
100
AcDbEntity
  8
1
100
AcDbLine
 10
12.0
 20
24.0
 30
0.0
 11
13.0
 21
23.0
 31
0.0
1001
GENIUS_GENFIL_13
1070
     0
1040
1.0
1040
1.0
1040
0.0
1040
0.0
1002
{
1002
}
1001
GENIUS_GENODEF_13
1002
{
1000
HIER
1070
     0
1002
}
1002
{
1000
MANEDIT
1070
     0
1002
}
1002
{
1000
NOSEL
1070
     0
1002
}
1002
{
1000
BEHIND
1070
     0
1002
}
1002
{
1000
OTHER
1070
     0
1002
}
1002
{
1000
REACTOR
1002
}
1001
GENIUS_GENOBJ-N-CHA_13
1002
{
1000
OWNER
1000
GEN
1002
}
  0
LINE
  5
6E97
330
6A34
100
AcDbEntity
  8
1
100
AcDbLine
 10
0.0
 20
-24.0
 30
0.0
 11
12.0
 21
-24.0
 31
0.0
  0
LINE
  5
6E98
330
6A34
100
AcDbEntity
  8
1
100
AcDbLine
 10
12.0
 20
-24.0
 30
0.0
 11
13.0
 21
-23.0
 31
0.0
1001
GENIUS_GENFIL_13
1070
     0
1040
1.0
1040
1.0
1040
0.0
1040
0.0
1002
{
1002
}
1001
GENIUS_GENODEF_13
1002
{
1000
HIER
1070
     0
1002
}
1002
{
1000
MANEDIT
1070
     0
1002
}
1002
{
1000
NOSEL
1070
     0
1002
}
1002
{
1000
BEHIND
1070
     0
1002
}
1002
{
1000
OTHER
1070
     0
1002
}
1002
{
1000
REACTOR
1002
}
1001
GENIUS_GENOBJ-N-CHA_13
1002
{
1000
OWNER
1000
GEN
1002
}
  0
TEXT
  5
70AF
330
6A34
100
AcDbEntity
  8
6
100
AcDbText
 10
28.99544244252917
 20
-17.46968998446936
 30
0.0
 40
3.5
  1
12J1D010040Z4R00
100
AcDbText
  0
LINE
  5
717D
330
6A34
100
AcDbEntity
  8
NOCUT
100
AcDbLine
 10
0.0
 20
0.0000000000000284
 30
0.0
 11
0.0
 21
-23.99999999999994
 31
0.0
  0
LINE
  5
717E
330
6A34
100
AcDbEntity
  8
NOCUT
100
AcDbLine
 10
0.0
 20
-23.99999999999994
 30
0.0
 11
12.0
 21
-23.99999999999994
 31
0.0
  0
LINE
  5
717F
330
6A34
100
AcDbEntity
  8
NOCUT
100
AcDbLine
 10
12.0
 20
-23.99999999999994
 30
0.0
 11
13.0
 21
-22.99999999999994
 31
0.0
  0
LINE
  5
7180
330
6A34
100
AcDbEntity
  8
NOCUT
100
AcDbLine
 10
13.0
 20
-22.99999999999994
 30
0.0
 11
13.00000000000011
 21
-5.999999999999992
 31
0.0
  0
TEXT
  5
73D1
330
6A34
100
AcDbEntity
  8
SK6
100
AcDbText
 10
-29.28049350239507
 20
16.49936759697439
 30
0.0
 40
2.5
  1
modular 40
100
AcDbText
  0
DIMENSION
  5
73F1
330
6A34
100
AcDbEntity
  8
SK2
100
AcDbDimension
  2
*D3
 10
-59.74448938991874
 20
-23.99999999999998
 30
0.0
 11
-62.99448938991873
 21
0.0000000000000076
 31
0.0
 70
    32
  1
%%c<>
  3
AM_DIN
100
AcDbAlignedDimension
 13
0.0
 23
24.0
 33
0.0
 14
0.0
 24
-24.0
 34
0.0
 50
90.0
100
AcDbRotatedDimension
  0
LINE
  5
7505
330
6A34
100
AcDbEntity
  8
4
100
AcDbLine
 10
41.99968848154298
 20
-0.0000000000000203
 30
0.0
 11
0.0
 21
0.0000000000003268
 31
0.0
  0
LINE
  5
755D
330
6A34
100
AcDbEntity
  8
NOCUT
100
AcDbLine
 10
38.99679480008382
 20
-0.0000000000000639
 30
0.0
 11
0.0
 21
0.0000000000000284
 31
0.0
  0
DIMENSION
  5
76A8
330
6A34
100
AcDbEntity
  8
2
100
AcDbDimension
  2
*D4
 10
40.0
 20
74.99999999999997
 30
0.0
 11
20.0
 21
78.24999999999997
 31
0.0
 70
    32
  3
AM_DIN
100
AcDbAlignedDimension
 13
0.0
 23
23.0
 33
0.0
 14
40.0
 24
8.000000000000007
 34
0.0
100
AcDbRotatedDimension
  0
LINE
  5
786F
330
6A34
100
AcDbEntity
  8
1
100
AcDbLine
 10
39.00000000000011
 20
-4.999999999999992
 30
0.0
 11
14.00000000000011
 21
-4.999999999999993
 31
0.0
  0
LINE
  5
7870
330
6A34
100
AcDbEntity
  8
1
100
AcDbLine
 10
14.00000000000011
 20
5.000000000000415
 30
0.0
 11
34.04258894198787
 21
4.9999999999999
 31
0.0
  0
LINE
  5
7878
330
6A34
100
AcDbEntity
  8
SK1
100
AcDbLine
 10
40.0
 20
5.463769369848819
 30
0.0
 11
40.0
 21
4.53623063015118
 31
0.0
  0
CIRCLE
  5
7879
330
6A34
100
AcDbEntity
  8
SK1
100
AcDbCircle
 10
40.0
 20
5.0
 30
0.0
 40
0.4637693698488208
  0
LINE
  5
787A
330
6A34
100
AcDbEntity
  8
SK1
100
AcDbLine
 10
39.53623063015118
 20
5.0
 30
0.0
 11
40.46376936984882
 21
5.0
 31
0.0
  0
LINE
  5
787B
330
6A34
100
AcDbEntity
  8
1
100
AcDbLine
 10
39.0
 20
0.8977657062527271
 30
0.0
 11
39.0
 21
-4.999999999999992
 31
0.0
  0
LINE
  5
7883
330
6A34
100
AcDbEntity
  8
NOCUT
100
AcDbLine
 10
38.99999999999988
 20
-4.999999999999992
 30
0.0
 11
38.99999999999988
 21
0.0
 31
0.0
  0
TEXT
  5
7884
330
6A34
100
AcDbEntity
  8
6
100
AcDbText
 10
67.61055950977504
 20
-5.294777575903793
 30
0.0
 40
3.5
  1
Z=2
 50
90.0
100
AcDbText
  0
LINE
  5
78B5
330
6A34
100
AcDbEntity
  8
NOCUT
100
AcDbLine
 10
14.00000000000011
 20
-4.999999999999992
 30
0.0
 11
38.99999999999988
 21
-4.999999999999992
 31
0.0
  0
ARC
  5
7977
330
6A34
100
AcDbEntity
  8
NOCUT
100
AcDbCircle
 10
14.00000000000011
 20
-5.999999999999992
 30
0.0
 40
1.0
100
AcDbArc
 50
90.0
 51
180.0
1001
GENIUS_GENOBJ-N-FIL_13
1002
{
1000
OWNER
1000
GEN
1002
}
1001
GENIUS_GENODEF_13
1002
{
1000
HIER
1070
     0
1002
}
1002
{
1000
MANEDIT
1070
     0
1002
}
1002
{
1000
NOSEL
1070
     0
1002
}
1002
{
1000
BEHIND
1070
     0
1002
}
1002
{
1000
OTHER
1070
     0
1002
}
1002
{
1000
REACTOR
1002
}
  0
ARC
  5
797B
330
6A34
100
AcDbEntity
  8
1
100
AcDbCircle
 10
14.00000000000011
 20
-5.999999999999993
 30
0.0
 40
1.0
100
AcDbArc
 50
90.0
 51
180.0
1001
GENIUS_GENOBJ-N-FIL_13
1002
{
1000
OWNER
1000
GEN
1002
}
1001
GENIUS_GENODEF_13
1002
{
1000
HIER
1070
     0
1002
}
1002
{
1000
MANEDIT
1070
     0
1002
}
1002
{
1000
NOSEL
1070
     0
1002
}
1002
{
1000
BEHIND
1070
     0
1002
}
1002
{
1000
OTHER
1070
     0
1002
}
1002
{
1000
REACTOR
1002
}
  0
ARC
  5
797C
330
6A34
100
AcDbEntity
  8
1
100
AcDbCircle
 10
14.00000000000011
 20
6.000000000000415
 30
0.0
 40
1.0
100
AcDbArc
 50
180.0
 51
269.9999999999998
1001
GENIUS_GENOBJ-N-FIL_13
1002
{
1000
OWNER
1000
GEN
1002
}
1001
GENIUS_GENODEF_13
1002
{
1000
HIER
1070
     0
1002
}
1002
{
1000
MANEDIT
1070
     0
1002
}
1002
{
1000
NOSEL
1070
     0
1002
}
1002
{
1000
BEHIND
1070
     0
1002
}
1002
{
1000
OTHER
1070
     0
1002
}
1002
{
1000
REACTOR
1002
}
  0
DIMENSION
  5
79ED
330
6A34
100
AcDbEntity
  8
2
100
AcDbDimension
  2
*D5
 10
18.0
 20
59.99999999999997
 30
0.0
 11
29.16945020802108
 21
63.3254766226529
 31
0.0
 70
   160
  3
AM_DIN
100
AcDbAlignedDimension
 13
40.0
 23
5.0
 33
0.0
 14
18.0
 24
5.000000000000312
 34
0.0
 50
0.0000000000000127
100
AcDbRotatedDimension
  0
TEXT
  5
7BE4
330
6A34
100
AcDbEntity
  8
6
100
AcDbText
 10
45.96734110395823
 20
8.961333111914029
 30
0.0
 40
2.5
  1
AOMT060202R
100
AcDbText
  0
CIRCLE
  5
7CA7
330
6A34
100
AcDbEntity
  8
SK1
100
AcDbCircle
 10
39.99999999999991
 20
-5.000000000000007
 30
0.0
 40
0.4637693698488208
  0
LINE
  5
7CA8
330
6A34
100
AcDbEntity
  8
SK1
100
AcDbLine
 10
39.99999999999991
 20
-5.463769369848826
 30
0.0
 11
39.99999999999992
 21
-4.536230630151187
 31
0.0
  0
LINE
  5
7CA9
330
6A34
100
AcDbEntity
  8
SK1
100
AcDbLine
 10
39.53623063015109
 20
-5.0
 30
0.0
 11
40.46376936984873
 21
-5.000000000000015
 31
0.0
  0
LINE
  5
7CAA
330
6A34
100
AcDbEntity
  8
4
100
AcDbLine
 10
25.18897581175116
 20
-0.2839134960360781
 30
0.0
 11
31.19863195229029
 21
1.607180071298728
 31
0.0
  0
LINE
  5
7CAB
330
6A34
100
AcDbEntity
  8
1
100
AcDbLine
 10
30.15348280697622
 20
0.5359652158120128
 30
0.0
 11
38.99679480008382
 21
0.5359652158120128
 31
0.0
  0
ARC
  5
7CAC
330
6A34
100
AcDbEntity
  8
1
100
AcDbCircle
 10
30.39430201856333
 20
6.517932846452524
 30
0.0
 40
5.986813060944881
100
AcDbArc
 50
194.6874492792609
 51
267.6946585826036
1001
GENIUS_GENOBJ-N-FIL_13
1002
{
1000
OWNER
1000
GEN
1002
}
1001
GENIUS_GENODEF_13
1002
{
1000
HIER
1070
     0
1002
}
1002
{
1000
MANEDIT
1070
     0
1002
}
1002
{
1000
NOSEL
1070
     0
1002
}
1002
{
1000
BEHIND
1070
     0
1002
}
1002
{
1000
OTHER
1070
     0
1002
}
1002
{
1000
REACTOR
1002
}
  0
LINE
  5
7CAD
330
6A34
100
AcDbEntity
  8
CUT
100
AcDbLine
 10
34.0414048019615
 20
4.996082360556343
 30
0.0
 11
33.2675185034482
 21
2.303645258485623
 31
0.0
  0
LINE
  5
7CAF
330
6A34
100
AcDbEntity
  8
1
100
AcDbLine
 10
34.0414048019615
 20
4.996082360556343
 30
0.0
 11
33.2675185034482
 21
2.303645258485623
 31
0.0
  0
CIRCLE
  5
7CB0
330
6A34
100
AcDbEntity
  8
1
100
AcDbCircle
 10
36.62068379221631
 20
3.001176113843087
 30
0.0
 40
1.255206518985224
  0
ARC
  5
7CB1
330
6A34
100
AcDbEntity
  8
CUT
100
AcDbCircle
 10
34.22860575565639
 20
2.02740027003719
 30
0.0
 40
1.0
100
AcDbArc
 50
163.9637789131361
 51
180.8929251581054
1001
GENIUS_GENODEF_13
1002
{
1000
HIER
1070
     0
1002
}
1002
{
1000
MANEDIT
1070
     0
1002
}
1002
{
1000
NOSEL
1070
     0
1002
}
1002
{
1000
BEHIND
1070
     0
1002
}
1002
{
1000
OTHER
1070
     0
1002
}
1002
{
1000
REACTOR
1002
}
1001
GENIUS_GENOBJ-N-FIL_13
1002
{
1000
OWNER
1000
GEN
1002
}
  0
LINE
  5
7CB2
330
6A34
100
AcDbEntity
  8
CUT
100
AcDbLine
 10
33.24139187155526
 20
1.199235457058065
 30
0.0
 11
33.22872719126905
 21
2.011816416896593
 31
0.0
  0
ARC
  5
7CB3
330
6A34
100
AcDbEntity
  8
1
100
AcDbCircle
 10
34.22860575565639
 20
2.02740027003719
 30
0.0
 40
1.0
100
AcDbArc
 50
163.9637789131361
 51
180.8929251581054
1001
GENIUS_GENODEF_13
1002
{
1000
HIER
1070
     0
1002
}
1002
{
1000
MANEDIT
1070
     0
1002
}
1002
{
1000
NOSEL
1070
     0
1002
}
1002
{
1000
BEHIND
1070
     0
1002
}
1002
{
1000
OTHER
1070
     0
1002
}
1002
{
1000
REACTOR
1002
}
1001
GENIUS_GENOBJ-N-FIL_13
1002
{
1000
OWNER
1000
GEN
1002
}
  0
LINE
  5
7CB4
330
6A34
100
AcDbEntity
  8
1
100
AcDbLine
 10
33.24139187155526
 20
1.199235457058065
 30
0.0
 11
33.22872719126905
 21
2.011816416896593
 31
0.0
  0
ARC
  5
7CB5
330
6A34
100
AcDbEntity
  8
CUT
100
AcDbCircle
 10
39.19578257189153
 20
159.2727739410875
 30
0.0
 40
158.3751292476171
100
AcDbArc
 50
267.9151181052122
 51
269.9493100169676
  0
ARC
  5
7CB6
330
6A34
100
AcDbEntity
  8
1
100
AcDbCircle
 10
39.19578257189153
 20
159.2727739410875
 30
0.0
 40
158.3751292476171
100
AcDbArc
 50
267.9151181052122
 51
269.9493100169676
  0
ARC
  5
7CB7
330
6A34
100
AcDbEntity
  8
CUT
100
AcDbCircle
 10
33.44136758443267
 20
1.202352227686198
 30
0.0
 40
0.2
100
AcDbArc
 50
180.8929251581096
 51
267.9151181052105
1001
GENIUS_GENODEF_13
1002
{
1000
HIER
1070
     0
1002
}
1002
{
1000
MANEDIT
1070
     0
1002
}
1002
{
1000
NOSEL
1070
     0
1002
}
1002
{
1000
BEHIND
1070
     0
1002
}
1002
{
1000
OTHER
1070
     0
1002
}
1002
{
1000
REACTOR
1002
}
1001
GENIUS_GENOBJ-N-FIL_13
1002
{
1000
OWNER
1000
GEN
1002
}
  0
ARC
  5
7CB8
330
6A34
100
AcDbEntity
  8
1
100
AcDbCircle
 10
33.44136758443267
 20
1.202352227686198
 30
0.0
 40
0.2
100
AcDbArc
 50
180.8929251581096
 51
267.9151181052105
1001
GENIUS_GENODEF_13
1002
{
1000
HIER
1070
     0
1002
}
1002
{
1000
MANEDIT
1070
     0
1002
}
1002
{
1000
NOSEL
1070
     0
1002
}
1002
{
1000
BEHIND
1070
     0
1002
}
1002
{
1000
OTHER
1070
     0
1002
}
1002
{
1000
REACTOR
1002
}
1001
GENIUS_GENOBJ-N-FIL_13
1002
{
1000
OWNER
1000
GEN
1002
}
  0
ARC
  5
7CB9
330
6A34
100
AcDbEntity
  8
CUT
100
AcDbCircle
 10
39.05579969464
 20
1.047706615397217
 30
0.0
 40
0.15
100
AcDbArc
 50
269.9493100169253
 51
343.9637789131317
1001
GENIUS_GENOBJ-N-FIL_13
1002
{
1000
OWNER
1000
GEN
1002
}
1001
GENIUS_GENODEF_13
1002
{
1000
HIER
1070
     0
1002
}
1002
{
1000
MANEDIT
1070
     0
1002
}
1002
{
1000
NOSEL
1070
     0
1002
}
1002
{
1000
BEHIND
1070
     0
1002
}
1002
{
1000
OTHER
1070
     0
1002
}
1002
{
1000
REACTOR
1002
}
  0
ARC
  5
7CBA
330
6A34
100
AcDbEntity
  8
1
100
AcDbCircle
 10
39.05579969464
 20
1.047706615397217
 30
0.0
 40
0.15
100
AcDbArc
 50
269.9493100169253
 51
343.9637789131317
1001
GENIUS_GENOBJ-N-FIL_13
1002
{
1000
OWNER
1000
GEN
1002
}
1001
GENIUS_GENODEF_13
1002
{
1000
HIER
1070
     0
1002
}
1002
{
1000
MANEDIT
1070
     0
1002
}
1002
{
1000
NOSEL
1070
     0
1002
}
1002
{
1000
BEHIND
1070
     0
1002
}
1002
{
1000
OTHER
1070
     0
1002
}
1002
{
1000
REACTOR
1002
}
  0
LINE
  5
7CBB
330
6A34
100
AcDbEntity
  8
CUT
100
AcDbLine
 10
39.19996278247123
 20
1.006269867129944
 30
0.0
 11
39.9738490809845
 21
3.698706969200578
 31
0.0
  0
LINE
  5
7CBC
330
6A34
100
AcDbEntity
  8
1
100
AcDbLine
 10
39.19996278247123
 20
1.006269867129944
 30
0.0
 11
39.9738490809845
 21
3.698706969200578
 31
0.0
  0
ARC
  5
7CBD
330
6A34
100
AcDbEntity
  8
CUT
100
AcDbCircle
 10
34.04558501254124
 20
-153.2704217134012
 30
0.0
 40
158.3751292476171
100
AcDbArc
 50
87.91511810521221
 51
89.94931001696762
  0
ARC
  5
7CBE
330
6A34
100
AcDbEntity
  8
1
100
AcDbCircle
 10
34.04558501254124
 20
-153.2704217134012
 30
0.0
 40
158.3751292476171
100
AcDbArc
 50
87.91511810521221
 51
89.94931001696762
  0
ARC
  5
7CBF
330
6A34
100
AcDbEntity
  8
CUT
100
AcDbCircle
 10
34.1855678897927
 20
4.954645612289098
 30
0.0
 40
0.15
100
AcDbArc
 50
89.94931001695949
 51
163.9637789131396
1001
GENIUS_GENOBJ-N-FIL_13
1002
{
1000
OWNER
1000
GEN
1002
}
1001
GENIUS_GENODEF_13
1002
{
1000
HIER
1070
     0
1002
}
1002
{
1000
MANEDIT
1070
     0
1002
}
1002
{
1000
NOSEL
1070
     0
1002
}
1002
{
1000
BEHIND
1070
     0
1002
}
1002
{
1000
OTHER
1070
     0
1002
}
1002
{
1000
REACTOR
1002
}
  0
ARC
  5
7CC0
330
6A34
100
AcDbEntity
  8
1
100
AcDbCircle
 10
34.1855678897927
 20
4.954645612289098
 30
0.0
 40
0.15
100
AcDbArc
 50
89.94931001695949
 51
163.9637789131396
1001
GENIUS_GENOBJ-N-FIL_13
1002
{
1000
OWNER
1000
GEN
1002
}
1001
GENIUS_GENODEF_13
1002
{
1000
HIER
1070
     0
1002
}
1002
{
1000
MANEDIT
1070
     0
1002
}
1002
{
1000
NOSEL
1070
     0
1002
}
1002
{
1000
BEHIND
1070
     0
1002
}
1002
{
1000
OTHER
1070
     0
1002
}
1002
{
1000
REACTOR
1002
}
  0
ARC
  5
7CC1
330
6A34
100
AcDbEntity
  8
CUT
100
AcDbCircle
 10
39.01276182877626
 20
3.974951957649011
 30
0.0
 40
1.0
100
AcDbArc
 50
343.9637789131365
 51
0.8929251581055208
1001
GENIUS_GENODEF_13
1002
{
1000
HIER
1070
     0
1002
}
1002
{
1000
MANEDIT
1070
     0
1002
}
1002
{
1000
NOSEL
1070
     0
1002
}
1002
{
1000
BEHIND
1070
     0
1002
}
1002
{
1000
OTHER
1070
     0
1002
}
1002
{
1000
REACTOR
1002
}
1001
GENIUS_GENOBJ-N-FIL_13
1002
{
1000
OWNER
1000
GEN
1002
}
  0
LINE
  5
7CC2
330
6A34
100
AcDbEntity
  8
CUT
100
AcDbLine
 10
39.99997571287741
 20
4.803116770628136
 30
0.0
 11
40.01264039316365
 21
3.990535810789616
 31
0.0
  0
ARC
  5
7CC3
330
6A34
100
AcDbEntity
  8
1
100
AcDbCircle
 10
39.01276182877626
 20
3.974951957649011
 30
0.0
 40
1.0
100
AcDbArc
 50
343.9637789131365
 51
0.8929251581055208
1001
GENIUS_GENODEF_13
1002
{
1000
HIER
1070
     0
1002
}
1002
{
1000
MANEDIT
1070
     0
1002
}
1002
{
1000
NOSEL
1070
     0
1002
}
1002
{
1000
BEHIND
1070
     0
1002
}
1002
{
1000
OTHER
1070
     0
1002
}
1002
{
1000
REACTOR
1002
}
1001
GENIUS_GENOBJ-N-FIL_13
1002
{
1000
OWNER
1000
GEN
1002
}
  0
LINE
  5
7CC4
330
6A34
100
AcDbEntity
  8
1
100
AcDbLine
 10
39.99997571287741
 20
4.803116770628136
 30
0.0
 11
40.01264039316365
 21
3.990535810789616
 31
0.0
  0
ARC
  5
7CC5
330
6A34
100
AcDbEntity
  8
CUT
100
AcDbCircle
 10
39.80000000000001
 20
4.800000000000004
 30
0.0
 40
0.2
100
AcDbArc
 50
0.8929251581095913
 51
87.91511810521058
1001
GENIUS_GENODEF_13
1002
{
1000
HIER
1070
     0
1002
}
1002
{
1000
MANEDIT
1070
     0
1002
}
1002
{
1000
NOSEL
1070
     0
1002
}
1002
{
1000
BEHIND
1070
     0
1002
}
1002
{
1000
OTHER
1070
     0
1002
}
1002
{
1000
REACTOR
1002
}
1001
GENIUS_GENOBJ-N-FIL_13
1002
{
1000
OWNER
1000
GEN
1002
}
  0
ARC
  5
7CC6
330
6A34
100
AcDbEntity
  8
1
100
AcDbCircle
 10
39.80000000000001
 20
4.800000000000004
 30
0.0
 40
0.2
100
AcDbArc
 50
0.8929251581095913
 51
87.91511810521058
1001
GENIUS_GENODEF_13
1002
{
1000
HIER
1070
     0
1002
}
1002
{
1000
MANEDIT
1070
     0
1002
}
1002
{
1000
NOSEL
1070
     0
1002
}
1002
{
1000
BEHIND
1070
     0
1002
}
1002
{
1000
OTHER
1070
     0
1002
}
1002
{
1000
REACTOR
1002
}
1001
GENIUS_GENOBJ-N-FIL_13
1002
{
1000
OWNER
1000
GEN
1002
}
  0
LINE
  5
7CC7
330
6A34
100
AcDbEntity
  8
SK3
 48
0.2
100
AcDbLine
 10
30.1534828069762
 20
-0.5359652158118849
 30
0.0
 11
38.99679480008379
 21
-0.5359652158120057
 31
0.0
  0
ARC
  5
7CC8
330
6A34
100
AcDbEntity
  8
SK3
 48
0.5
100
AcDbCircle
 10
39.19578257188934
 20
-159.2727739410875
 30
0.0
 40
158.3751292476171
100
AcDbArc
 50
90.07198833903467
 51
92.08488189478776
  0
CIRCLE
  5
7CC9
330
6A34
100
AcDbEntity
  8
SK3
100
AcDbCircle
 10
36.62068379221625
 20
-3.001176113843044
 30
0.0
 40
1.255206518985224
  0
LINE
  5
7CCA
330
6A34
100
AcDbEntity
  8
SK3
 48
0.5
100
AcDbLine
 10
34.04253084776046
 20
-4.999999999999993
 30
0.0
 11
33.26751850344814
 21
-2.303645258485538
 31
0.0
  0
ARC
  5
7CCB
330
6A34
100
AcDbEntity
  8
SK3
100
AcDbCircle
 10
33.44136758443261
 20
-1.202352227686112
 30
0.0
 40
0.2
100
AcDbArc
 50
92.08488189478941
 51
179.1070748418896
1001
GENIUS_GENODEF_13
1002
{
1000
HIER
1070
     0
1002
}
1002
{
1000
MANEDIT
1070
     0
1002
}
1002
{
1000
NOSEL
1070
     0
1002
}
1002
{
1000
BEHIND
1070
     0
1002
}
1002
{
1000
OTHER
1070
     0
1002
}
1002
{
1000
REACTOR
1002
}
1001
GENIUS_GENOBJ-N-FIL_13
1002
{
1000
OWNER
1000
GEN
1002
}
  0
ARC
  5
7CCC
330
6A34
100
AcDbEntity
  8
SK3
 48
0.2
100
AcDbCircle
 10
30.39430201856322
 20
-6.517932846452396
 30
0.0
 40
5.986813060944881
100
AcDbArc
 50
92.30534141739632
 51
165.3125507207388
1001
GENIUS_GENOBJ-N-FIL_13
1002
{
1000
OWNER
1000
GEN
1002
}
1001
GENIUS_GENODEF_13
1002
{
1000
HIER
1070
     0
1002
}
1002
{
1000
MANEDIT
1070
     0
1002
}
1002
{
1000
NOSEL
1070
     0
1002
}
1002
{
1000
BEHIND
1070
     0
1002
}
1002
{
1000
OTHER
1070
     0
1002
}
1002
{
1000
REACTOR
1002
}
  0
ARC
  5
7CCD
330
6A34
100
AcDbEntity
  8
1
100
AcDbCircle
 10
34.04558501254328
 20
153.2704217134013
 30
0.0
 40
158.3751292476171
100
AcDbArc
 50
270.0506899830323
 51
272.0848818947877
  0
ARC
  5
7CCF
330
6A34
100
AcDbEntity
  8
1
100
AcDbCircle
 10
34.18556788979259
 20
-4.954645612289027
 30
0.0
 40
0.15
100
AcDbArc
 50
196.0362210868595
 51
270.0506899830405
1001
GENIUS_GENOBJ-N-FIL_13
1002
{
1000
OWNER
1000
GEN
1002
}
1001
GENIUS_GENODEF_13
1002
{
1000
HIER
1070
     0
1002
}
1002
{
1000
MANEDIT
1070
     0
1002
}
1002
{
1000
NOSEL
1070
     0
1002
}
1002
{
1000
BEHIND
1070
     0
1002
}
1002
{
1000
OTHER
1070
     0
1002
}
1002
{
1000
REACTOR
1002
}
  0
LINE
  5
7CD0
330
6A34
100
AcDbEntity
  8
1
100
AcDbLine
 10
39.1999627824712
 20
-1.006269867129937
 30
0.0
 11
39.97384908098442
 21
-3.698706969200586
 31
0.0
  0
LINE
  5
7CD1
330
6A34
100
AcDbEntity
  8
1
100
AcDbLine
 10
39.99997571287733
 20
-4.803116770628143
 30
0.0
 11
40.01264039316356
 21
-3.990535810789623
 31
0.0
  0
ARC
  5
7CD2
330
6A34
100
AcDbEntity
  8
1
100
AcDbCircle
 10
39.0127618287762
 20
-3.974951957648997
 30
0.0
 40
1.0
100
AcDbArc
 50
359.1070748418936
 51
16.03622108686307
1001
GENIUS_GENODEF_13
1002
{
1000
HIER
1070
     0
1002
}
1002
{
1000
MANEDIT
1070
     0
1002
}
1002
{
1000
NOSEL
1070
     0
1002
}
1002
{
1000
BEHIND
1070
     0
1002
}
1002
{
1000
OTHER
1070
     0
1002
}
1002
{
1000
REACTOR
1002
}
1001
GENIUS_GENOBJ-N-FIL_13
1002
{
1000
OWNER
1000
GEN
1002
}
  0
ARC
  5
7CD3
330
6A34
100
AcDbEntity
  8
1
100
AcDbCircle
 10
39.05579969463997
 20
-1.04770661539721
 30
0.0
 40
0.15
100
AcDbArc
 50
16.03622108686744
 51
90.0506899830747
1001
GENIUS_GENOBJ-N-FIL_13
1002
{
1000
OWNER
1000
GEN
1002
}
1001
GENIUS_GENODEF_13
1002
{
1000
HIER
1070
     0
1002
}
1002
{
1000
MANEDIT
1070
     0
1002
}
1002
{
1000
NOSEL
1070
     0
1002
}
1002
{
1000
BEHIND
1070
     0
1002
}
1002
{
1000
OTHER
1070
     0
1002
}
1002
{
1000
REACTOR
1002
}
  0
ARC
  5
7CD4
330
6A34
100
AcDbEntity
  8
1
100
AcDbCircle
 10
39.19578257188934
 20
-159.2727739410875
 30
0.0
 40
158.3751292476171
100
AcDbArc
 50
90.05068998303235
 51
90.07198833903467
  0
ARC
  5
7CD5
330
6A34
100
AcDbEntity
  8
1
100
AcDbCircle
 10
39.79999999999992
 20
-4.800000000000011
 30
0.0
 40
0.2
100
AcDbArc
 50
272.0848818947894
 51
359.1070748418895
1001
GENIUS_GENODEF_13
1002
{
1000
HIER
1070
     0
1002
}
1002
{
1000
MANEDIT
1070
     0
1002
}
1002
{
1000
NOSEL
1070
     0
1002
}
1002
{
1000
BEHIND
1070
     0
1002
}
1002
{
1000
OTHER
1070
     0
1002
}
1002
{
1000
REACTOR
1002
}
1001
GENIUS_GENOBJ-N-FIL_13
1002
{
1000
OWNER
1000
GEN
1002
}
  0
DIMENSION
  5
7CE8
330
6A34
100
AcDbEntity
  8
2
100
AcDbDimension
  2
*D6
 10
62.24403921479961
 20
-5.000000000000014
 30
0.0
 11
58.99403921479962
 21
0.0000000000000001
 31
0.0
 70
    32
  1
%%c<>
  3
AM_DIN
100
AcDbAlignedDimension
 13
40.0
 23
5.0
 33
0.0
 14
39.99999999999991
 24
-5.000000000000007
 34
0.0
 50
90.0
100
AcDbRotatedDimension
  0
LINE
  5
7D21
330
6A34
100
AcDbEntity
  8
0
100
AcDbLine
 10
34.29999999999999
 20
5.104503187018451
 30
0.0
 11
34.29999999999999
 21
5.535310509393525
 31
0.0
  0
DIMENSION
  5
7D32
330
6A34
100
AcDbEntity
  8
2
100
AcDbDimension
  2
*D7
 10
34.29999999999999
 20
44.99999999999997
 30
0.0
 11
37.19305788425717
 21
47.2887033407031
 31
0.0
 70
   160
  3
AM_DIN
100
AcDbAlignedDimension
 13
40.0
 23
5.0
 33
0.0
 14
34.29999999999999
 24
5.104503187018451
 34
0.0
100
AcDbRotatedDimension
  0
LINE
  5
7DB9
330
6A34
100
AcDbEntity
  8
SK3
 48
0.3
100
AcDbLine
 10
33.24139187155518
 20
-1.199235457057943
 30
0.0
 11
33.22872719126894
 21
-2.011816416896464
 31
0.0
  0
ARC
  5
7DBA
330
6A34
100
AcDbEntity
  8
SK3
100
AcDbCircle
 10
34.2286057556563
 20
-2.02740027003709
 30
0.0
 40
1.0
100
AcDbArc
 50
179.1070748418936
 51
196.036221086863
1001
GENIUS_GENODEF_13
1002
{
1000
HIER
1070
     0
1002
}
1002
{
1000
MANEDIT
1070
     0
1002
}
1002
{
1000
NOSEL
1070
     0
1002
}
1002
{
1000
BEHIND
1070
     0
1002
}
1002
{
1000
OTHER
1070
     0
1002
}
1002
{
1000
REACTOR
1002
}
1001
GENIUS_GENOBJ-N-FIL_13
1002
{
1000
OWNER
1000
GEN
1002
}
  0
ENDSEC
  0
SECTION
  2
OBJECTS
  0
DICTIONARY
  5
6A22
330
0
100
AcDbDictionary
  3
ACAD_GROUP
350
6A23
  3
ACAD_LAYOUT
350
6A2F
  3
ACAD_MLINESTYLE
350
6A2C
  3
ACAD_PLOTSETTINGS
350
6A2E
  3
ACAD_PLOTSTYLENAME
350
6A24
  3
ACDBHEADERROUNDTRIPXREC
350
7DC5
  3
ACDBVARIABLEDICTIONARY
350
6B78
  3
ACMDICTIONARY
350
6B39
  3
AMG
350
6B22
  3
AMGSNAPSETTINGS
350
6B59
  3
DWGPROPS
350
7DB7
  0
DICTIONARY
  5
6B62
330
6A34
100
AcDbDictionary
280
     1
  3
ACAD_INDEX
360
6B63
  3
ACAD_LAYOUTSELFREF
360
7DE8
  0
DICTIONARY
  5
7DE6
330
6A30
100
AcDbDictionary
280
     1
  3
ACAD_LAYOUTSELFREF
360
7DE7
  0
DICTIONARY
  5
6A23
102
{ACAD_REACTORS
330
6A22
102
}
330
6A22
100
AcDbDictionary
  0
DICTIONARY
  5
6A2F
102
{ACAD_REACTORS
330
6A22
102
}
330
6A22
100
AcDbDictionary
  0
DICTIONARY
  5
6A2C
102
{ACAD_REACTORS
330
6A22
102
}
330
6A22
100
AcDbDictionary
  3
STANDARD
350
6A2D
  0
DICTIONARY
  5
6A2E
102
{ACAD_REACTORS
330
6A22
102
}
330
6A22
100
AcDbDictionary
  0
ACDBDICTIONARYWDFLT
  5
6A24
102
{ACAD_REACTORS
330
6A22
102
}
330
6A22
100
AcDbDictionary
281
     1
  3
Normal
350
6A25
100
AcDbDictionaryWithDefault
340
6A25
  0
DICTIONARY
  5
7DC5
102
{ACAD_REACTORS
330
6A22
102
}
330
6A22
100
AcDbDictionary
  3
CEPSNTYPE
350
7DCF
  3
DIMSTYLEDATA
350
7DD3
  3
FINGERPRINTGUID
350
7DD0
  3
HYPERLINKBASE
350
7DC8
  3
INSUNITS
350
7DCE
  3
LAYOUTDICT
350
7DCA
  3
LWETCUNION
350
7DCD
  3
PLOTSETDICT
350
7DCB
  3
PLOTSTYLNAMDICT
350
7DCC
  3
PSVPSCALE
350
7DD2
  3
PUCSBASE
350
7DD6
  3
PUCSORGBACK
350
7DDC
  3
PUCSORGBOTTOM
350
7DD8
  3
PUCSORGFRONT
350
7DDB
  3
PUCSORGLEFT
350
7DD9
  3
PUCSORGRIGHT
350
7DDA
  3
PUCSORGTOP
350
7DD7
  3
PUCSORTHOREF
350
7DD4
  3
PUCSORTHOVIEW
350
7DD5
  3
STYLESHEET
350
7DC9
  3
TSTACKALIGN
350
7DC6
  3
TSTACKSIZE
350
7DC7
  3
UCSBASE
350
7DDF
  3
UCSORGBACK
350
7DE5
  3
UCSORGBOTTOM
350
7DE1
  3
UCSORGFRONT
350
7DE4
  3
UCSORGLEFT
350
7DE2
  3
UCSORGRIGHT
350
7DE3
  3
UCSORGTOP
350
7DE0
  3
UCSORTHOREF
350
7DDD
  3
UCSORTHOVIEW
350
7DDE
  3
VERSIONGUID
350
7DD1
  0
DICTIONARY
  5
6B78
102
{ACAD_REACTORS
330
6A22
102
}
330
6A22
100
AcDbDictionary
  3
DIMASSOC
350
6B7A
  3
INDEXCTL
350
6B79
  0
DICTIONARY
  5
6B39
102
{ACAD_REACTORS
330
6A22
102
}
330
6A22
100
AcDbDictionary
  3
ACMSTDDICTIONARY
350
6B3F
  0
DICTIONARY
  5
6B22
102
{ACAD_REACTORS
330
6A22
102
}
330
6A22
100
AcDbDictionary
  3
ACMGSETTINGS
350
6B23
  0
DICTIONARY
  5
6B59
102
{ACAD_REACTORS
330
6A22
102
}
330
6A22
100
AcDbDictionary
  0
XRECORD
  5
7DB7
102
{ACAD_REACTORS
330
6A22
102
}
330
6A22
100
AcDbXrecord
  1
DWGPROPS COOKIE
  2

  3

  4

  6

  7

  8

  9

300
AmdtFileType=84
301
=
302
=
303
=
304
=
305
=
306
=
307
=
308
=
309
=
 40
0.1106682638888889
 41
2453447.471737477
 42
2453593.322998449
  1

 90
        1
  0
DICTIONARY
  5
6B63
102
{ACAD_REACTORS
330
6B62
102
}
330
6B62
100
AcDbDictionary
  3
*A1
350
6B64
  0
XRECORD
  5
7DE8
102
{ACAD_REACTORS
330
6B62
102
}
330
6B62
100
AcDbXrecord
340
6A34
  0
XRECORD
  5
7DE7
102
{ACAD_REACTORS
330
7DE6
102
}
330
7DE6
100
AcDbXrecord
340
6A30
  0
MLINESTYLE
  5
6A2D
102
{ACAD_REACTORS
330
6A2C
102
}
330
6A2C
100
AcDbMlineStyle
  2
STANDARD
 70
     0
  3

 62
   256
 51
90.0
 52
90.0
 71
     2
 49
0.5
 62
   256
  6
BYLAYER
 49
-0.5
 62
   256
  6
BYLAYER
  0
ACDBPLACEHOLDER
  5
6A25
102
{ACAD_REACTORS
330
6A24
102
}
330
6A24
100
AcDbPlaceHolder
280
     0
  0
XRECORD
  5
7DCF
102
{ACAD_REACTORS
330
7DC5
102
}
330
7DC5
100
AcDbXrecord
 90
        0
  0
XRECORD
  5
7DD3
102
{ACAD_REACTORS
330
7DC5
102
}
330
7DC5
100
AcDbXrecord
1000
DSTYLE
1002
{
1070
   279
 70
     2
1002
}
  0
XRECORD
  5
7DD0
102
{ACAD_REACTORS
330
7DC5
102
}
330
7DC5
100
AcDbXrecord
  1
{5E8163B8-4D8F-4110-B677-A6458ADDE735}
  0
XRECORD
  5
7DC8
102
{ACAD_REACTORS
330
7DC5
102
}
330
7DC5
100
AcDbXrecord
  1

  0
XRECORD
  5
7DCE
102
{ACAD_REACTORS
330
7DC5
102
}
330
7DC5
100
AcDbXrecord
 90
        4
  0
XRECORD
  5
7DCA
102
{ACAD_REACTORS
330
7DC5
102
}
330
7DC5
100
AcDbXrecord
340
6A2F
  0
XRECORD
  5
7DCD
102
{ACAD_REACTORS
330
7DC5
102
}
330
7DC5
100
AcDbXrecord
 90
    10781
  0
XRECORD
  5
7DCB
102
{ACAD_REACTORS
330
7DC5
102
}
330
7DC5
100
AcDbXrecord
340
6A2E
  0
XRECORD
  5
7DCC
102
{ACAD_REACTORS
330
7DC5
102
}
330
7DC5
100
AcDbXrecord
340
6A24
  0
XRECORD
  5
7DD2
102
{ACAD_REACTORS
330
7DC5
102
}
330
7DC5
100
AcDbXrecord
 40
0.0
  0
XRECORD
  5
7DD6
102
{ACAD_REACTORS
330
7DC5
102
}
330
7DC5
100
AcDbXrecord
340
0
  0
XRECORD
  5
7DDC
102
{ACAD_REACTORS
330
7DC5
102
}
330
7DC5
100
AcDbXrecord
 10
0.0
 20
0.0
 30
0.0
  0
XRECORD
  5
7DD8
102
{ACAD_REACTORS
330
7DC5
102
}
330
7DC5
100
AcDbXrecord
 10
0.0
 20
0.0
 30
0.0
  0
XRECORD
  5
7DDB
102
{ACAD_REACTORS
330
7DC5
102
}
330
7DC5
100
AcDbXrecord
 10
0.0
 20
0.0
 30
0.0
  0
XRECORD
  5
7DD9
102
{ACAD_REACTORS
330
7DC5
102
}
330
7DC5
100
AcDbXrecord
 10
0.0
 20
0.0
 30
0.0
  0
XRECORD
  5
7DDA
102
{ACAD_REACTORS
330
7DC5
102
}
330
7DC5
100
AcDbXrecord
 10
0.0
 20
0.0
 30
0.0
  0
XRECORD
  5
7DD7
102
{ACAD_REACTORS
330
7DC5
102
}
330
7DC5
100
AcDbXrecord
 10
0.0
 20
0.0
 30
0.0
  0
XRECORD
  5
7DD4
102
{ACAD_REACTORS
330
7DC5
102
}
330
7DC5
100
AcDbXrecord
340
0
  0
XRECORD
  5
7DD5
102
{ACAD_REACTORS
330
7DC5
102
}
330
7DC5
100
AcDbXrecord
 70
     0
  0
XRECORD
  5
7DC9
102
{ACAD_REACTORS
330
7DC5
102
}
330
7DC5
100
AcDbXrecord
  1

  0
XRECORD
  5
7DC6
102
{ACAD_REACTORS
330
7DC5
102
}
330
7DC5
100
AcDbXrecord
 90
        1
  0
XRECORD
  5
7DC7
102
{ACAD_REACTORS
330
7DC5
102
}
330
7DC5
100
AcDbXrecord
 90
       70
  0
XRECORD
  5
7DDF
102
{ACAD_REACTORS
330
7DC5
102
}
330
7DC5
100
AcDbXrecord
340
0
  0
XRECORD
  5
7DE5
102
{ACAD_REACTORS
330
7DC5
102
}
330
7DC5
100
AcDbXrecord
 10
0.0
 20
0.0
 30
0.0
  0
XRECORD
  5
7DE1
102
{ACAD_REACTORS
330
7DC5
102
}
330
7DC5
100
AcDbXrecord
 10
0.0
 20
0.0
 30
0.0
  0
XRECORD
  5
7DE4
102
{ACAD_REACTORS
330
7DC5
102
}
330
7DC5
100
AcDbXrecord
 10
0.0
 20
0.0
 30
0.0
  0
XRECORD
  5
7DE2
102
{ACAD_REACTORS
330
7DC5
102
}
330
7DC5
100
AcDbXrecord
 10
0.0
 20
0.0
 30
0.0
  0
XRECORD
  5
7DE3
102
{ACAD_REACTORS
330
7DC5
102
}
330
7DC5
100
AcDbXrecord
 10
0.0
 20
0.0
 30
0.0
  0
XRECORD
  5
7DE0
102
{ACAD_REACTORS
330
7DC5
102
}
330
7DC5
100
AcDbXrecord
 10
0.0
 20
0.0
 30
0.0
  0
XRECORD
  5
7DDD
102
{ACAD_REACTORS
330
7DC5
102
}
330
7DC5
100
AcDbXrecord
340
0
  0
XRECORD
  5
7DDE
102
{ACAD_REACTORS
330
7DC5
102
}
330
7DC5
100
AcDbXrecord
 70
     0
  0
XRECORD
  5
7DD1
102
{ACAD_REACTORS
330
7DC5
102
}
330
7DC5
100
AcDbXrecord
  1
{2378787F-ACEB-47F2-AF8B-B43EDF9A5EF7}
  0
DICTIONARYVAR
  5
6B7A
102
{ACAD_REACTORS
330
6B78
102
}
330
6B78
100
DictionaryVariables
280
     0
  1
1
  0
DICTIONARYVAR
  5
6B79
102
{ACAD_REACTORS
330
6B78
102
}
330
6B78
100
DictionaryVariables
280
     0
  1
1
  0
DICTIONARY
  5
6B3F
102
{ACAD_REACTORS
330
6B39
102
}
330
6B39
100
AcDbDictionary
  0
DICTIONARY
  5
6B23
102
{ACAD_REACTORS
330
6B22
102
}
330
6B22
100
AcDbDictionary
  3
DWGSETTINGS
350
6B24
  0
LAYER_INDEX
  5
6B64
102
{ACAD_REACTORS
330
6B63
102
}
330
6B63
100
AcDbIndex
 40
2453594.379757638
100
AcDbLayerIndex
  8
0
360
6B65
 90
        1
  8
DEFPOINTS
360
6B68
 90
        0
  8
1
360
6B69
 90
       34
  8
2
360
6B6A
 90
        4
  8
SK1
360
6B70
 90
       29
  8
SK2
360
6B71
 90
        3
  8
SK3
360
6B72
 90
       24
  8
SK4
360
6B73
 90
        4
  8
NOCUT
360
6B75
 90
        8
  8
4
360
712F
 90
        2
  8
6
360
7130
 90
        3
  8
CUT
360
7131
 90
       12
  8
SK6
360
742E
 90
        1
  0
XRECORD
  5
6B24
102
{ACAD_REACTORS
330
6B23
102
}
330
6B23
100
AcDbXrecord
  1
VERSION
140
15.0
  1
PRODUCT
  2
AutoCAD Mechanical 2000
  0
IDBUFFER
  5
6B65
330
0
100
AcDbIdBuffer
330
7D21
  0
IDBUFFER
  5
6B68
330
0
100
AcDbIdBuffer
  0
IDBUFFER
  5
6B69
330
0
100
AcDbIdBuffer
330
7CCD
330
7CCF
330
7CD0
330
7CD1
330
7CD2
330
7CD3
330
7CD4
330
7CD5
330
6E60
330
6E63
330
6E94
330
6E96
330
6E97
330
6E98
330
786F
330
7870
330
787B
330
797B
330
797C
330
7CAB
330
7CAC
330
7CAF
330
7CB0
330
7CB3
330
7CB4
330
7CB6
330
7CB8
330
7CBA
330
7CBC
330
7CBE
330
7CC0
330
7CC3
330
7CC4
330
7CC6
  0
IDBUFFER
  5
6B6A
330
0
100
AcDbIdBuffer
330
76A8
330
79ED
330
7CE8
330
7D32
  0
IDBUFFER
  5
6B70
330
0
100
AcDbIdBuffer
330
7CA7
330
7CA8
330
7CA9
330
6E59
330
6E5D
330
6E5E
330
6E5F
330
6E65
330
6E66
330
6E68
330
6E69
330
6E6A
330
6E6B
330
6E6C
330
6E6D
330
6E6E
330
6E6F
330
6E70
330
6E71
330
6E76
330
6E77
330
6E7A
330
6E8E
330
6E91
330
6E92
330
6E93
330
7878
330
7879
330
787A
  0
IDBUFFER
  5
6B71
330
0
100
AcDbIdBuffer
330
6E8F
330
6E90
330
73F1
  0
IDBUFFER
  5
6B72
330
0
100
AcDbIdBuffer
330
7DB9
330
7DBA
330
7CC7
330
7CC8
330
7CC9
330
7CCA
330
7CCB
330
7CCC
330
6E7B
330
6E7C
330
6E7E
330
6E7F
330
6E80
330
6E81
330
6E83
330
6E84
330
6E85
330
6E86
330
6E87
330
6E88
330
6E89
330
6E8B
330
6E8C
330
6E8D
  0
IDBUFFER
  5
6B73
330
0
100
AcDbIdBuffer
330
6E79
330
6E7D
330
6E82
330
6E8A
  0
IDBUFFER
  5
6B75
330
0
100
AcDbIdBuffer
330
717D
330
717E
330
717F
330
7180
330
755D
330
7883
330
78B5
330
7977
  0
IDBUFFER
  5
712F
330
0
100
AcDbIdBuffer
330
7505
330
7CAA
  0
IDBUFFER
  5
7130
330
0
100
AcDbIdBuffer
330
70AF
330
7884
330
7BE4
  0
IDBUFFER
  5
7131
330
0
100
AcDbIdBuffer
330
7CAD
330
7CC5
330
7CB1
330
7CB2
330
7CB5
330
7CB7
330
7CB9
330
7CBB
330
7CBD
330
7CBF
330
7CC1
330
7CC2
  0
IDBUFFER
  5
742E
330
0
100
AcDbIdBuffer
330
73D1
  0
ENDSEC
  0
EOF
