  0
SECTION
  2
HEADER
  9
$ACADVER
  1
AC1015
  9
$ACADMAINTVER
 70
     6
  9
$DWGCODEPAGE
  3
ANSI_1252
  9
$INSBASE
 10
0.0
 20
0.0
 30
0.0
  9
$EXTMIN
 10
0.0
 20
0.0
 30
0.0
  9
$EXTMAX
 10
594.0
 20
420.0
 30
0.0
  9
$LIMMIN
 10
0.0
 20
0.0
  9
$LIMMAX
 10
594.0
 20
420.0
  9
$ORTHOMODE
 70
     0
  9
$REGENMODE
 70
     1
  9
$FILLMODE
 70
     1
  9
$QTEXTMODE
 70
     0
  9
$MIRRTEXT
 70
     1
  9
$LTSCALE
 40
1.0
  9
$ATTMODE
 70
     1
  9
$TEXTSIZE
 40
0.2
  9
$TRACEWID
 40
0.05
  9
$TEXTSTYLE
  7
STANDARD
  9
$CLAYER
  8
0
  9
$CELTYPE
  6
BYLAYER
  9
$CECOLOR
 62
   256
  9
$CELTSCALE
 40
1.0
  9
$DISPSILH
 70
     0
  9
$DIMSCALE
 40
1.0
  9
$DIMASZ
 40
2.5
  9
$DIMEXO
 40
3.7125
  9
$DIMDLI
 40
22.572
  9
$DIMRND
 40
0.0
  9
$DIMDLE
 40
0.0
  9
$DIMEXE
 40
10.692
  9
$DIMTP
 40
0.0
  9
$DIMTM
 40
0.0
  9
$DIMTXT
 40
3.5
  9
$DIMCEN
 40
5.346
  9
$DIMTSZ
 40
0.0
  9
$DIMTOL
 70
     0
  9
$DIMLIM
 70
     0
  9
$DIMTIH
 70
     1
  9
$DIMTOH
 70
     1
  9
$DIMSE1
 70
     0
  9
$DIMSE2
 70
     0
  9
$DIMTAD
 70
     0
  9
$DIMZIN
 70
     0
  9
$DIMBLK
  1
FILLED
  9
$DIMASO
 70
     1
  9
$DIMSHO
 70
     1
  9
$DIMPOST
  1

  9
$DIMAPOST
  1

  9
$DIMALT
 70
     0
  9
$DIMALTD
 70
     2
  9
$DIMALTF
 40
25.4
  9
$DIMLFAC
 40
1.0
  9
$DIMTOFL
 70
     0
  9
$DIMTVP
 40
0.0
  9
$DIMTIX
 70
     0
  9
$DIMSOXD
 70
     0
  9
$DIMSAH
 70
     0
  9
$DIMBLK1
  1

  9
$DIMBLK2
  1

  9
$DIMSTYLE
  2
STANDARD
  9
$DIMCLRD
 70
     0
  9
$DIMCLRE
 70
     0
  9
$DIMCLRT
 70
     0
  9
$DIMTFAC
 40
1.0
  9
$DIMGAP
 40
0.09
  9
$DIMJUST
 70
     0
  9
$DIMSD1
 70
     0
  9
$DIMSD2
 70
     0
  9
$DIMTOLJ
 70
     1
  9
$DIMTZIN
 70
     0
  9
$DIMALTZ
 70
     0
  9
$DIMALTTZ
 70
     0
  9
$DIMUPT
 70
     0
  9
$DIMDEC
 70
     4
  9
$DIMTDEC
 70
     4
  9
$DIMALTU
 70
     2
  9
$DIMALTTD
 70
     2
  9
$DIMTXSTY
  7
STANDARD
  9
$DIMAUNIT
 70
     0
  9
$DIMADEC
 70
     0
  9
$DIMALTRND
 40
0.0
  9
$DIMAZIN
 70
     0
  9
$DIMDSEP
 70
    46
  9
$DIMATFIT
 70
     3
  9
$DIMFRAC
 70
     0
  9
$DIMLDRBLK
  1

  9
$DIMLUNIT
 70
     2
  9
$DIMLWD
 70
    -2
  9
$DIMLWE
 70
    -2
  9
$DIMTMOVE
 70
     0
  9
$LUNITS
 70
     2
  9
$LUPREC
 70
     4
  9
$SKETCHINC
 40
0.1
  9
$FILLETRAD
 40
0.5
  9
$AUNITS
 70
     0
  9
$AUPREC
 70
     0
  9
$MENU
  1
.
  9
$ELEVATION
 40
0.0
  9
$PELEVATION
 40
0.0
  9
$THICKNESS
 40
0.0
  9
$LIMCHECK
 70
     0
  9
$CHAMFERA
 40
0.5
  9
$CHAMFERB
 40
0.5
  9
$CHAMFERC
 40
1.0
  9
$CHAMFERD
 40
0.0
  9
$SKPOLY
 70
     0
  9
$TDCREATE
 40
2447893.041666667
  9
$TDUCREATE
 40
0.0
  9
$TDUPDATE
 40
2447893.041666667
  9
$TDUUPDATE
 40
0.0
  9
$TDINDWG
 40
0.0
  9
$TDUSRTIMER
 40
0.0
  9
$USRTIMER
 70
     1
  9
$ANGBASE
 50
0.0
  9
$ANGDIR
 70
     0
  9
$PDMODE
 70
     3
  9
$PDSIZE
 40
0.3125
  9
$PLINEWID
 40
0.0
  9
$SPLFRAME
 70
     0
  9
$SPLINETYPE
 70
     6
  9
$SPLINESEGS
 70
     8
  9
$HANDSEED
  5
66E
  9
$SURFTAB1
 70
     6
  9
$SURFTAB2
 70
     6
  9
$SURFTYPE
 70
     6
  9
$SURFU
 70
     6
  9
$SURFV
 70
     6
  9
$UCSBASE
  2

  9
$UCSNAME
  2

  9
$UCSORG
 10
0.0
 20
0.0
 30
0.0
  9
$UCSXDIR
 10
1.0
 20
0.0
 30
0.0
  9
$UCSYDIR
 10
0.0
 20
1.0
 30
0.0
  9
$UCSORTHOREF
  2

  9
$UCSORTHOVIEW
 70
     0
  9
$UCSORGTOP
 10
0.0
 20
0.0
 30
0.0
  9
$UCSORGBOTTOM
 10
0.0
 20
0.0
 30
0.0
  9
$UCSORGLEFT
 10
0.0
 20
0.0
 30
0.0
  9
$UCSORGRIGHT
 10
0.0
 20
0.0
 30
0.0
  9
$UCSORGFRONT
 10
0.0
 20
0.0
 30
0.0
  9
$UCSORGBACK
 10
0.0
 20
0.0
 30
0.0
  9
$PUCSBASE
  2

  9
$PUCSNAME
  2

  9
$PUCSORG
 10
0.0
 20
0.0
 30
0.0
  9
$PUCSXDIR
 10
1.0
 20
0.0
 30
0.0
  9
$PUCSYDIR
 10
0.0
 20
1.0
 30
0.0
  9
$PUCSORTHOREF
  2

  9
$PUCSORTHOVIEW
 70
     0
  9
$PUCSORGTOP
 10
0.0
 20
0.0
 30
0.0
  9
$PUCSORGBOTTOM
 10
0.0
 20
0.0
 30
0.0
  9
$PUCSORGLEFT
 10
0.0
 20
0.0
 30
0.0
  9
$PUCSORGRIGHT
 10
0.0
 20
0.0
 30
0.0
  9
$PUCSORGFRONT
 10
0.0
 20
0.0
 30
0.0
  9
$PUCSORGBACK
 10
0.0
 20
0.0
 30
0.0
  9
$USERI1
 70
     0
  9
$USERI2
 70
     0
  9
$USERI3
 70
     0
  9
$USERI4
 70
     0
  9
$USERI5
 70
     0
  9
$USERR1
 40
0.0
  9
$USERR2
 40
0.0
  9
$USERR3
 40
0.0
  9
$USERR4
 40
0.0
  9
$USERR5
 40
0.0
  9
$WORLDVIEW
 70
     1
  9
$SHADEDGE
 70
     3
  9
$SHADEDIF
 70
    70
  9
$TILEMODE
 70
     1
  9
$MAXACTVP
 70
    64
  9
$PINSBASE
 10
0.0
 20
0.0
 30
0.0
  9
$PLIMCHECK
 70
     0
  9
$PEXTMIN
 10
1.000000000000000E+20
 20
1.000000000000000E+20
 30
1.000000000000000E+20
  9
$PEXTMAX
 10
-1.000000000000000E+20
 20
-1.000000000000000E+20
 30
-1.000000000000000E+20
  9
$PLIMMIN
 10
0.0
 20
0.0
  9
$PLIMMAX
 10
12.0
 20
9.0
  9
$UNITMODE
 70
     0
  9
$VISRETAIN
 70
     1
  9
$PLINEGEN
 70
     0
  9
$PSLTSCALE
 70
     1
  9
$TREEDEPTH
 70
  3020
  9
$CMLSTYLE
  2
Standard
  9
$CMLJUST
 70
     0
  9
$CMLSCALE
 40
1.0
  9
$PROXYGRAPHICS
 70
     1
  9
$MEASUREMENT
 70
     1
  9
$CELWEIGHT
370
    -1
  9
$ENDCAPS
280
     0
  9
$JOINSTYLE
280
     0
  9
$LWDISPLAY
290
     0
  9
$INSUNITS
 70
     4
  9
$HYPERLINKBASE
  1

  9
$STYLESHEET
  1

  9
$XEDIT
290
     1
  9
$CEPSNTYPE
380
     0
  9
$PSTYLEMODE
290
     1
  9
$FINGERPRINTGUID
  2
{A4D6043C-44A0-450F-9845-8879CA86919D}
  9
$VERSIONGUID
  2
{FAEB1C32-E019-11D5-929B-00C0DF256EC4}
  9
$EXTNAMES
290
     1
  9
$PSVPSCALE
 40
0.0
  9
$OLESTARTUP
290
     0
  0
ENDSEC
  0
SECTION
  2
CLASSES
  0
CLASS
  1
ACDBDICTIONARYWDFLT
  2
AcDbDictionaryWithDefault
  3
ObjectDBX Classes
 90
        0
280
     0
281
     0
  0
CLASS
  1
ACDBPLACEHOLDER
  2
AcDbPlaceHolder
  3
ObjectDBX Classes
 90
        0
280
     0
281
     0
  0
CLASS
  1
LAYOUT
  2
AcDbLayout
  3
ObjectDBX Classes
 90
        0
280
     0
281
     0
  0
ENDSEC
  0
SECTION
  2
TABLES
  0
TABLE
  2
VPORT
  5
8
330
0
100
AcDbSymbolTable
 70
     1
  0
VPORT
  5
1F4
330
8
100
AcDbSymbolTableRecord
100
AcDbViewportTableRecord
  2
*ACTIVE
 70
     0
 10
0.0
 20
0.0
 11
1.0
 21
1.0
 12
297.0
 22
210.0
 13
0.0
 23
0.0
 14
1.0
 24
1.0
 15
0.0
 25
0.0
 16
0.0
 26
0.0
 36
1.0
 17
0.0
 27
0.0
 37
0.0
 40
420.0
 41
1.4142857143
 42
50.0
 43
0.0
 44
0.0
 50
0.0
 51
0.0
 71
     0
 72
   100
 73
     1
 74
     1
 75
     0
 76
     0
 77
     0
 78
     0
281
     0
 65
     1
110
0.0
120
0.0
130
0.0
111
1.0
121
0.0
131
0.0
112
0.0
122
1.0
132
0.0
 79
     0
146
0.0
  0
ENDTAB
  0
TABLE
  2
LTYPE
  5
5
330
0
100
AcDbSymbolTable
 70
     8
  0
LTYPE
  5
14
330
5
100
AcDbSymbolTableRecord
100
AcDbLinetypeTableRecord
  2
BYBLOCK
 70
     0
  3

 72
    65
 73
     0
 40
0.0
  0
LTYPE
  5
15
330
5
100
AcDbSymbolTableRecord
100
AcDbLinetypeTableRecord
  2
BYLAYER
 70
     0
  3

 72
    65
 73
     0
 40
0.0
  0
LTYPE
  5
16
330
5
100
AcDbSymbolTableRecord
100
AcDbLinetypeTableRecord
  2
CONTINUOUS
 70
     0
  3
Solid line
 72
    65
 73
     0
 40
0.0
  0
LTYPE
  5
1F5
330
5
100
AcDbSymbolTableRecord
100
AcDbLinetypeTableRecord
  2
CENTER
 70
     0
  3
____ _ ____ _ ____ _ ____ _ ____ _ ____ _ ____
 72
    65
 73
     4
 40
0.6
 49
0.375
 74
     0
 49
-0.075
 74
     0
 49
0.075
 74
     0
 49
-0.075
 74
     0
  0
LTYPE
  5
1F6
330
5
100
AcDbSymbolTableRecord
100
AcDbLinetypeTableRecord
  2
HIDDEN
 70
     0
  3
- - - - - - - - - - - - - - - - - - - -
 72
    65
 73
     2
 40
0.2
 49
0.1
 74
     0
 49
-0.1
 74
     0
  0
LTYPE
  5
1F7
330
5
100
AcDbSymbolTableRecord
100
AcDbLinetypeTableRecord
  2
PHANTOM
 70
     0
  3
_____ _ _ _____ _ _ _____ _ _ _____
 72
    65
 73
     6
 40
0.8
 49
0.45
 74
     0
 49
-0.05
 74
     0
 49
0.1
 74
     0
 49
-0.05
 74
     0
 49
0.1
 74
     0
 49
-0.05
 74
     0
  0
LTYPE
  5
1F8
330
5
100
AcDbSymbolTableRecord
100
AcDbLinetypeTableRecord
  2
DOT
 70
     0
  3
. . . . . . . . . . . . . . . . . . . .
 72
    65
 73
     2
 40
0.2
 49
0.1
 74
     0
 49
-0.1
 74
     0
  0
LTYPE
  5
1F9
330
5
100
AcDbSymbolTableRecord
100
AcDbLinetypeTableRecord
  2
DASHED
 70
     0
  3
- - - - - - - - - - - - - - - - - - - -
 72
    65
 73
     2
 40
0.2
 49
0.1
 74
     0
 49
-0.1
 74
     0
  0
LTYPE
  5
366
330
5
100
AcDbSymbolTableRecord
100
AcDbLinetypeTableRecord
  2
MITTE
 70
     0
  3
Mitte ____ _ ____ _ ____ _ ____ _ ____ _ ____
 72
    65
 73
     4
 40
50.8
 49
31.75
 74
     4
 75
     0
340
0
 46
1.0
 50
0.0
 44
0.0
 45
0.0
 49
-6.35
 74
     4
 75
     0
340
0
 46
1.0
 50
0.0
 44
0.0
 45
0.0
 49
6.35
 74
     4
 75
     0
340
0
 46
1.0
 50
0.0
 44
0.0
 45
0.0
 49
-6.35
 74
     4
 75
     0
340
0
 46
1.0
 50
0.0
 44
0.0
 45
0.0
  0
LTYPE
  5
367
330
5
100
AcDbSymbolTableRecord
100
AcDbLinetypeTableRecord
  2
STRICHLINIE
 70
     0
  3
Strichlinie __ __ __ __ __ __ __ __ __ __ __ __
 72
    65
 73
     2
 40
19.05
 49
12.7
 74
     4
 75
     0
340
0
 46
1.0
 50
0.0
 44
0.0
 45
0.0
 49
-6.35
 74
     4
 75
     0
340
0
 46
1.0
 50
0.0
 44
0.0
 45
0.0
  0
ENDTAB
  0
TABLE
  2
LAYER
  5
2
330
0
100
AcDbSymbolTable
 70
    54
  0
LAYER
  5
10
330
2
100
AcDbSymbolTableRecord
100
AcDbLayerTableRecord
  2
0
 70
     0
 62
     7
  6
CONTINUOUS
370
    -3
390
F
  0
LAYER
  5
368
330
2
100
AcDbSymbolTableRecord
100
AcDbLayerTableRecord
  2
1
 70
     0
 62
     4
  6
CONTINUOUS
370
    50
390
F
  0
LAYER
  5
369
330
2
100
AcDbSymbolTableRecord
100
AcDbLayerTableRecord
  2
2
 70
     0
 62
     7
  6
CONTINUOUS
370
    25
390
F
  0
LAYER
  5
36B
330
2
100
AcDbSymbolTableRecord
100
AcDbLayerTableRecord
  2
4
 70
     0
 62
     2
  6
MITTE
370
    25
390
F
  0
LAYER
  5
36D
330
2
100
AcDbSymbolTableRecord
100
AcDbLayerTableRecord
  2
6
 70
     0
 62
     5
  6
CONTINUOUS
370
    35
390
F
  0
LAYER
  5
36E
330
2
100
AcDbSymbolTableRecord
100
AcDbLayerTableRecord
  2
CUT
 70
     0
 62
     1
  6
CONTINUOUS
370
    25
390
F
  0
LAYER
  5
36F
330
2
100
AcDbSymbolTableRecord
100
AcDbLayerTableRecord
  2
NOCUT
 70
     0
 62
     7
  6
CONTINUOUS
370
    25
390
F
  0
LAYER
  5
370
330
2
100
AcDbSymbolTableRecord
100
AcDbLayerTableRecord
  2
SK1
 70
     0
 62
     4
  6
CONTINUOUS
370
    25
390
F
  0
LAYER
  5
371
330
2
100
AcDbSymbolTableRecord
100
AcDbLayerTableRecord
  2
SK2
 70
     0
 62
     7
  6
CONTINUOUS
370
    25
390
F
  0
LAYER
  5
372
330
2
100
AcDbSymbolTableRecord
100
AcDbLayerTableRecord
  2
SK3
 70
     0
 62
     1
  6
STRICHLINIE
370
    25
390
F
  0
LAYER
  5
376
330
2
100
AcDbSymbolTableRecord
100
AcDbLayerTableRecord
  2
7
 70
     0
 62
     5
  6
CONTINUOUS
370
    25
390
F
  0
ENDTAB
  0
TABLE
  2
STYLE
  5
3
330
0
100
AcDbSymbolTable
 70
     3
  0
STYLE
  5
11
330
3
100
AcDbSymbolTableRecord
100
AcDbTextStyleTableRecord
  2
STANDARD
 70
     0
 40
0.0
 41
1.0
 50
0.0
 71
     0
 42
2.5
  3
monos.ttf
  4

1001
ACAD
1000
Monospac821 BT
1071
       49
  0
STYLE
  5
21D
330
3
100
AcDbSymbolTableRecord
100
AcDbTextStyleTableRecord
  2
TEXTSTYLE_1
 70
     0
 40
0.0
 41
0.8
 50
0.0
 71
     0
 42
0.2
  3
monospace 821 bold bt
  4

  0
STYLE
  5
3BE
330
3
100
AcDbSymbolTableRecord
100
AcDbTextStyleTableRecord
  2
KX-STANDARD
 70
     0
 40
0.0
 41
1.0
 50
0.0
 71
     0
 42
2.5
  3
monospace 821 bold bt
  4

  0
ENDTAB
  0
TABLE
  2
VIEW
  5
6
330
0
100
AcDbSymbolTable
 70
     0
  0
ENDTAB
  0
TABLE
  2
UCS
  5
7
330
0
100
AcDbSymbolTable
 70
     0
  0
ENDTAB
  0
TABLE
  2
APPID
  5
9
330
0
100
AcDbSymbolTable
 70
     1
  0
APPID
  5
21E
330
9
100
AcDbSymbolTableRecord
100
AcDbRegAppTableRecord
  2
ACAD
 70
     0
  0
ENDTAB
  0
TABLE
  2
DIMSTYLE
  5
A
330
0
100
AcDbSymbolTable
 70
     3
100
AcDbDimStyleTable
  0
DIMSTYLE
105
227
330
A
100
AcDbSymbolTableRecord
100
AcDbDimStyleTableRecord
  2
STANDARD
 70
     0
 41
2.5
 47
0.01
 48
0.01
 73
     0
 74
     0
 77
     1
 78
     8
140
3.5
178
     7
271
     3
272
     3
284
     8
340
11
341
221
342
221
343
221
344
221
  0
DIMSTYLE
105
228
330
A
100
AcDbSymbolTableRecord
100
AcDbDimStyleTableRecord
  2
DIMSTYLE_1
 70
     0
 41
2.5
 73
     0
 74
     0
 77
     1
 78
     8
140
3.5
271
     3
272
     3
284
     8
340
11
341
221
342
221
343
221
344
221
  0
DIMSTYLE
105
229
330
A
100
AcDbSymbolTableRecord
100
AcDbDimStyleTableRecord
  2
DIMSTYLE_2
 70
     0
 41
2.5
 73
     0
 74
     0
 77
     1
 78
     8
140
3.5
178
     7
271
     3
272
     3
284
     8
340
11
341
221
342
221
343
221
344
221
  0
ENDTAB
  0
TABLE
  2
BLOCK_RECORD
  5
1
330
0
100
AcDbSymbolTable
 70
     6
  0
BLOCK_RECORD
  5
21F
330
1
100
AcDbSymbolTableRecord
100
AcDbBlockTableRecord
  2
*Model_Space
340
364
  0
BLOCK_RECORD
  5
220
330
1
100
AcDbSymbolTableRecord
100
AcDbBlockTableRecord
  2
*Paper_Space
340
365
  0
BLOCK_RECORD
  5
221
330
1
100
AcDbSymbolTableRecord
100
AcDbBlockTableRecord
  2
_FILLED
340
0
  0
BLOCK_RECORD
  5
222
330
1
100
AcDbSymbolTableRecord
100
AcDbBlockTableRecord
  2
*D1
340
0
  0
BLOCK_RECORD
  5
223
330
1
100
AcDbSymbolTableRecord
100
AcDbBlockTableRecord
  2
*D2
340
0
  0
BLOCK_RECORD
  5
224
330
1
100
AcDbSymbolTableRecord
100
AcDbBlockTableRecord
  2
*D3
340
0
  0
BLOCK_RECORD
  5
225
330
1
100
AcDbSymbolTableRecord
100
AcDbBlockTableRecord
  2
*D4
340
0
  0
BLOCK_RECORD
  5
226
330
1
100
AcDbSymbolTableRecord
100
AcDbBlockTableRecord
  2
NULLPUNKT_BL0
340
0
  0
ENDTAB
  0
ENDSEC
  0
SECTION
  2
BLOCKS
  0
BLOCK
  5
20
330
21F
100
AcDbEntity
  8
0
100
AcDbBlockBegin
  2
*Model_Space
 70
     0
 10
0.0
 20
0.0
 30
0.0
  3
*Model_Space
  1

  0
ENDBLK
  5
21
330
21F
100
AcDbEntity
  8
0
100
AcDbBlockEnd
  0
BLOCK
  5
1C
330
220
100
AcDbEntity
 67
     1
  8
0
100
AcDbBlockBegin
  2
*Paper_Space
 70
     0
 10
0.0
 20
0.0
 30
0.0
  3
*Paper_Space
  1

  0
ENDBLK
  5
1D
330
220
100
AcDbEntity
 67
     1
  8
0
100
AcDbBlockEnd
  0
BLOCK
  5
23B
330
221
100
AcDbEntity
  8
7
100
AcDbBlockBegin
  2
_FILLED
 70
     0
 10
0.0
 20
0.0
 30
0.0
  3
_FILLED
  1

  0
SOLID
  5
23C
330
221
100
AcDbEntity
  8
7
100
AcDbTrace
 10
0.0
 20
0.0
 30
0.0
 11
-1.0
 21
0.132
 31
0.0
 12
-1.0
 22
-0.132
 32
0.0
 13
-1.0
 23
-0.132
 33
0.0
  0
ENDBLK
  5
23D
330
221
100
AcDbEntity
  8
7
100
AcDbBlockEnd
  0
BLOCK
  5
23E
330
222
100
AcDbEntity
  8
7
100
AcDbBlockBegin
  2
*D1
 70
     1
 10
0.0
 20
0.0
 30
0.0
  3
*D1
  1

  0
MTEXT
  5
23F
330
222
100
AcDbEntity
  8
2
100
AcDbMText
 10
8.5
 20
19.383297697
 30
0.0
 40
3.5
 41
5.6
 71
     2
 72
     1
  1
17
 73
     1
 44
0.9
  0
LINE
  5
240
330
222
100
AcDbEntity
  8
2
100
AcDbLine
 10
17.0
 20
5.8663324841
 30
0.0
 11
17.0
 21
17.008297697
 31
0.0
  0
LINE
  5
241
330
222
100
AcDbEntity
  8
2
100
AcDbLine
 10
0.0
 20
5.0269466291
 30
0.0
 11
0.0
 21
17.008297697
 31
0.0
  0
SOLID
  5
37C
330
222
100
AcDbEntity
  8
2
100
AcDbTrace
 10
17.0
 20
15.008297697
 30
0.0
 11
14.5
 21
15.338297697
 31
0.0
 12
14.5
 22
14.678297697
 32
0.0
 13
14.5
 23
14.678297697
 33
0.0
  0
SOLID
  5
37D
330
222
100
AcDbEntity
  8
2
100
AcDbTrace
 10
0.0
 20
15.008297697
 30
0.0
 11
2.5
 21
14.678297697
 31
0.0
 12
2.5
 22
15.338297697
 32
0.0
 13
2.5
 23
15.338297697
 33
0.0
  0
LWPOLYLINE
  5
668
330
222
100
AcDbEntity
  8
2
100
AcDbPolyline
 90
        3
 70
     0
 43
0.0
 10
17.0
 20
15.008297697
 10
8.5
 20
15.008297697
 10
0.0
 20
15.008297697
  0
ENDBLK
  5
246
330
222
100
AcDbEntity
  8
7
100
AcDbBlockEnd
  0
BLOCK
  5
247
330
223
100
AcDbEntity
  8
7
100
AcDbBlockBegin
  2
*D2
 70
     1
 10
0.0
 20
0.0
 30
0.0
  3
*D2
  1

  0
MTEXT
  5
248
330
223
100
AcDbEntity
  8
2
100
AcDbMText
 10
22.7993237116
 20
8.2321649276
 30
0.0
 40
3.5
 41
10.2666666667
 71
     1
 72
     1
  1
{\Fgdt;%%c}\FMONOS.TTF;10
 11
0.0
 21
1.0
 31
0.0
 73
     1
 44
0.9
  0
LINE
  5
249
330
223
100
AcDbEntity
  8
2
100
AcDbLine
 10
17.6743237116
 20
-5.0
 30
0.0
 11
29.1743237116
 21
-5.0
 31
0.0
  0
LINE
  5
24A
330
223
100
AcDbEntity
  8
2
100
AcDbLine
 10
17.6743237116
 20
5.0
 30
0.0
 11
29.1743237116
 21
5.0
 31
0.0
  0
SOLID
  5
37E
330
223
100
AcDbEntity
  8
2
100
AcDbTrace
 10
27.1743237116
 20
-5.0
 30
0.0
 11
26.8443237116
 21
-7.5
 31
0.0
 12
27.5043237116
 22
-7.5
 32
0.0
 13
27.5043237116
 23
-7.5
 33
0.0
  0
SOLID
  5
37F
330
223
100
AcDbEntity
  8
2
100
AcDbTrace
 10
27.1743237116
 20
5.0
 30
0.0
 11
27.5043237116
 21
7.5
 31
0.0
 12
26.8443237116
 22
7.5
 32
0.0
 13
26.8443237116
 23
7.5
 33
0.0
  0
LWPOLYLINE
  5
669
330
223
100
AcDbEntity
  8
2
100
AcDbPolyline
 90
        5
 70
     0
 43
0.0
 10
27.1743237116
 20
-5.0
 10
27.1743237116
 20
-10.0
 10
27.1743237116
 20
0.0
 10
27.1743237116
 20
18.4988315943
 10
27.1743237116
 20
5.0
  0
ENDBLK
  5
251
330
223
100
AcDbEntity
  8
7
100
AcDbBlockEnd
  0
BLOCK
  5
252
330
224
100
AcDbEntity
  8
7
100
AcDbBlockBegin
  2
*D3
 70
     1
 10
0.0
 20
0.0
 30
0.0
  3
*D3
  1

  0
MTEXT
  5
253
330
224
100
AcDbEntity
  8
SK2
100
AcDbMText
 10
-28.875
 20
0.0
 30
0.0
 40
3.5
 41
5.6
 71
     2
 72
     1
  1
M6
 11
0.0
 21
1.0
 31
0.0
 73
     1
 44
0.9
  0
LINE
  5
254
330
224
100
AcDbEntity
  8
SK2
100
AcDbLine
 10
-14.0
 20
-3.0
 30
0.0
 11
-26.5
 21
-3.0
 31
0.0
  0
LINE
  5
255
330
224
100
AcDbEntity
  8
SK2
100
AcDbLine
 10
-14.0
 20
3.0
 30
0.0
 11
-26.5
 21
3.0
 31
0.0
  0
SOLID
  5
380
330
224
100
AcDbEntity
  8
SK2
100
AcDbTrace
 10
-24.5
 20
-3.0
 30
0.0
 11
-24.83
 21
-5.5
 31
0.0
 12
-24.17
 22
-5.5
 32
0.0
 13
-24.17
 23
-5.5
 33
0.0
  0
SOLID
  5
381
330
224
100
AcDbEntity
  8
SK2
100
AcDbTrace
 10
-24.5
 20
3.0
 30
0.0
 11
-24.17
 21
5.5
 31
0.0
 12
-24.83
 22
5.5
 32
0.0
 13
-24.83
 23
5.5
 33
0.0
  0
LWPOLYLINE
  5
66A
330
224
100
AcDbEntity
  8
SK2
100
AcDbPolyline
 90
        5
 70
     0
 43
0.0
 10
-24.5
 20
-3.0
 10
-24.5
 20
-8.0
 10
-24.5
 20
0.0
 10
-24.5
 20
8.0
 10
-24.5
 20
3.0
  0
ENDBLK
  5
25C
330
224
100
AcDbEntity
  8
7
100
AcDbBlockEnd
  0
BLOCK
  5
25D
330
225
100
AcDbEntity
  8
7
100
AcDbBlockBegin
  2
*D4
 70
     1
 10
0.0
 20
0.0
 30
0.0
  3
*D4
  1

  0
MTEXT
  5
25E
330
225
100
AcDbEntity
  8
SK2
100
AcDbMText
 10
-37.375
 20
7.4074751721
 30
0.0
 40
3.5
 41
13.0666666667
 71
     1
 72
     1
  1
{\Fgdt;%%c}\FMONOS.TTF;9.8
 11
0.0
 21
1.0
 31
0.0
 73
     1
 44
0.9
  0
LINE
  5
25F
330
225
100
AcDbEntity
  8
SK2
100
AcDbLine
 10
0.0157037542
 20
-4.9
 30
0.0
 11
-23.5
 21
-4.9
 31
0.0
  0
LINE
  5
260
330
225
100
AcDbEntity
  8
SK2
100
AcDbLine
 10
-25.5
 20
-4.9
 30
0.0
 11
-35.0
 21
-4.9
 31
0.0
  0
LINE
  5
261
330
225
100
AcDbEntity
  8
SK2
100
AcDbLine
 10
0.0716407559
 20
4.9
 30
0.0
 11
-23.5
 21
4.9
 31
0.0
  0
LINE
  5
262
330
225
100
AcDbEntity
  8
SK2
100
AcDbLine
 10
-25.5
 20
4.9
 30
0.0
 11
-35.0
 21
4.9
 31
0.0
  0
SOLID
  5
382
330
225
100
AcDbEntity
  8
SK2
100
AcDbTrace
 10
-33.0
 20
-4.9
 30
0.0
 11
-33.33
 21
-7.4
 31
0.0
 12
-32.67
 22
-7.4
 32
0.0
 13
-32.67
 23
-7.4
 33
0.0
  0
SOLID
  5
383
330
225
100
AcDbEntity
  8
SK2
100
AcDbTrace
 10
-33.0
 20
4.9
 30
0.0
 11
-32.67
 21
7.4
 31
0.0
 12
-33.33
 22
7.4
 32
0.0
 13
-33.33
 23
7.4
 33
0.0
  0
LWPOLYLINE
  5
66B
330
225
100
AcDbEntity
  8
SK2
100
AcDbPolyline
 90
        5
 70
     0
 43
0.0
 10
-33.0
 20
-4.9
 10
-33.0
 20
-9.9
 10
-33.0
 20
0.0
 10
-33.0
 20
20.4741418387
 10
-33.0
 20
4.9
  0
ENDBLK
  5
269
330
225
100
AcDbEntity
  8
7
100
AcDbBlockEnd
  0
BLOCK
  5
22A
330
226
100
AcDbEntity
  8
7
100
AcDbBlockBegin
  2
NULLPUNKT_BL0
 70
     0
 10
0.0
 20
0.0
 30
0.0
  3
NULLPUNKT_BL0
  1

  0
SOLID
  5
384
330
226
100
AcDbEntity
  8
1
100
AcDbTrace
 10
-1.4917828431
 20
0.0
 30
0.0
 11
-1.5
 21
0.0
 31
0.0
 12
-1.4917828431
 22
0.1567926949
 32
0.0
 13
-1.4917828431
 23
0.1567926949
 33
0.0
  0
SOLID
  5
385
330
226
100
AcDbEntity
  8
1
100
AcDbTrace
 10
1.4917828431
 20
0.0
 30
0.0
 11
1.4917828431
 21
0.1567926949
 31
0.0
 12
1.4672214011
 22
0.0
 32
0.0
 13
1.4672214011
 23
0.0
 33
0.0
210
0.0
220
0.0
230
-1.0
  0
SOLID
  5
386
330
226
100
AcDbEntity
  8
1
100
AcDbTrace
 10
-1.4672214011
 20
0.0
 30
0.0
 11
-1.4917828431
 21
0.1567926949
 31
0.0
 12
-1.4672214011
 22
0.3118675362
 32
0.0
 13
-1.4672214011
 23
0.3118675362
 33
0.0
  0
SOLID
  5
387
330
226
100
AcDbEntity
  8
1
100
AcDbTrace
 10
1.4672214011
 20
0.0
 30
0.0
 11
1.4672214011
 21
0.3118675362
 31
0.0
 12
1.4265847744
 22
0.0
 32
0.0
 13
1.4265847744
 23
0.0
 33
0.0
210
0.0
220
0.0
230
-1.0
  0
SOLID
  5
388
330
226
100
AcDbEntity
  8
1
100
AcDbTrace
 10
-1.4265847744
 20
0.0
 30
0.0
 11
-1.4672214011
 21
0.3118675362
 31
0.0
 12
-1.4265847744
 22
0.4635254916
 32
0.0
 13
-1.4265847744
 23
0.4635254916
 33
0.0
  0
SOLID
  5
389
330
226
100
AcDbEntity
  8
1
100
AcDbTrace
 10
1.4265847744
 20
0.0
 30
0.0
 11
1.4265847744
 21
0.4635254916
 31
0.0
 12
1.3703181865
 22
0.0
 32
0.0
 13
1.3703181865
 23
0.0
 33
0.0
210
0.0
220
0.0
230
-1.0
  0
SOLID
  5
38A
330
226
100
AcDbEntity
  8
1
100
AcDbTrace
 10
-1.3703181865
 20
0.0
 30
0.0
 11
-1.4265847744
 21
0.4635254916
 31
0.0
 12
-1.3703181865
 22
0.6101049646
 32
0.0
 13
-1.3703181865
 23
0.6101049646
 33
0.0
  0
SOLID
  5
38B
330
226
100
AcDbEntity
  8
1
100
AcDbTrace
 10
1.3703181865
 20
0.0
 30
0.0
 11
1.3703181865
 21
0.6101049646
 31
0.0
 12
1.2990381057
 22
0.0
 32
0.0
 13
1.2990381057
 23
0.0
 33
0.0
210
0.0
220
0.0
230
-1.0
  0
SOLID
  5
38C
330
226
100
AcDbEntity
  8
1
100
AcDbTrace
 10
-1.2990381057
 20
0.0
 30
0.0
 11
-1.3703181865
 21
0.6101049646
 31
0.0
 12
-1.2990381057
 22
0.75
 32
0.0
 13
-1.2990381057
 23
0.75
 33
0.0
  0
SOLID
  5
38D
330
226
100
AcDbEntity
  8
1
100
AcDbTrace
 10
1.2990381057
 20
0.0
 30
0.0
 11
1.2990381057
 21
0.75
 31
0.0
 12
1.2135254916
 22
0.0
 32
0.0
 13
1.2135254916
 23
0.0
 33
0.0
210
0.0
220
0.0
230
-1.0
  0
SOLID
  5
38E
330
226
100
AcDbEntity
  8
1
100
AcDbTrace
 10
-1.2135254916
 20
0.0
 30
0.0
 11
-1.2990381057
 21
0.75
 31
0.0
 12
-1.2135254916
 22
0.8816778784
 32
0.0
 13
-1.2135254916
 23
0.8816778784
 33
0.0
  0
SOLID
  5
38F
330
226
100
AcDbEntity
  8
1
100
AcDbTrace
 10
1.2135254916
 20
0.0
 30
0.0
 11
1.2135254916
 21
0.8816778784
 31
0.0
 12
1.1147172382
 22
0.0
 32
0.0
 13
1.1147172382
 23
0.0
 33
0.0
210
0.0
220
0.0
230
-1.0
  0
SOLID
  5
390
330
226
100
AcDbEntity
  8
1
100
AcDbTrace
 10
-1.1147172382
 20
0.0
 30
0.0
 11
-1.2135254916
 21
0.8816778784
 31
0.0
 12
-1.1147172382
 22
1.0036959095
 32
0.0
 13
-1.1147172382
 23
1.0036959095
 33
0.0
  0
SOLID
  5
391
330
226
100
AcDbEntity
  8
1
100
AcDbTrace
 10
1.1147172382
 20
0.0
 30
0.0
 11
1.1147172382
 21
1.0036959095
 31
0.0
 12
1.0036959095
 22
0.0
 32
0.0
 13
1.0036959095
 23
0.0
 33
0.0
210
0.0
220
0.0
230
-1.0
  0
SOLID
  5
392
330
226
100
AcDbEntity
  8
1
100
AcDbTrace
 10
-1.0036959095
 20
0.0
 30
0.0
 11
-1.1147172382
 21
1.0036959095
 31
0.0
 12
-1.0036959095
 22
1.1147172382
 32
0.0
 13
-1.0036959095
 23
1.1147172382
 33
0.0
  0
SOLID
  5
393
330
226
100
AcDbEntity
  8
1
100
AcDbTrace
 10
1.0036959095
 20
0.0
 30
0.0
 11
1.0036959095
 21
1.1147172382
 31
0.0
 12
0.8816778784
 22
0.0
 32
0.0
 13
0.8816778784
 23
0.0
 33
0.0
210
0.0
220
0.0
230
-1.0
  0
SOLID
  5
394
330
226
100
AcDbEntity
  8
1
100
AcDbTrace
 10
-0.8816778784
 20
0.0
 30
0.0
 11
-1.0036959095
 21
1.1147172382
 31
0.0
 12
-0.8816778784
 22
1.2135254916
 32
0.0
 13
-0.8816778784
 23
1.2135254916
 33
0.0
  0
SOLID
  5
395
330
226
100
AcDbEntity
  8
1
100
AcDbTrace
 10
0.8816778784
 20
0.0
 30
0.0
 11
0.8816778784
 21
1.2135254916
 31
0.0
 12
0.75
 22
0.0
 32
0.0
 13
0.75
 23
0.0
 33
0.0
210
0.0
220
0.0
230
-1.0
  0
SOLID
  5
396
330
226
100
AcDbEntity
  8
1
100
AcDbTrace
 10
-0.75
 20
0.0
 30
0.0
 11
-0.8816778784
 21
1.2135254916
 31
0.0
 12
-0.75
 22
1.2990381057
 32
0.0
 13
-0.75
 23
1.2990381057
 33
0.0
  0
SOLID
  5
397
330
226
100
AcDbEntity
  8
1
100
AcDbTrace
 10
0.75
 20
0.0
 30
0.0
 11
0.75
 21
1.2990381057
 31
0.0
 12
0.6101049646
 22
0.0
 32
0.0
 13
0.6101049646
 23
0.0
 33
0.0
210
0.0
220
0.0
230
-1.0
  0
SOLID
  5
398
330
226
100
AcDbEntity
  8
1
100
AcDbTrace
 10
-0.6101049646
 20
0.0
 30
0.0
 11
-0.75
 21
1.2990381057
 31
0.0
 12
-0.6101049646
 22
1.3703181865
 32
0.0
 13
-0.6101049646
 23
1.3703181865
 33
0.0
  0
SOLID
  5
399
330
226
100
AcDbEntity
  8
1
100
AcDbTrace
 10
0.6101049646
 20
0.0
 30
0.0
 11
0.6101049646
 21
1.3703181865
 31
0.0
 12
0.4635254916
 22
0.0
 32
0.0
 13
0.4635254916
 23
0.0
 33
0.0
210
0.0
220
0.0
230
-1.0
  0
SOLID
  5
39A
330
226
100
AcDbEntity
  8
1
100
AcDbTrace
 10
-0.4635254916
 20
0.0
 30
0.0
 11
-0.6101049646
 21
1.3703181865
 31
0.0
 12
-0.4635254916
 22
1.4265847744
 32
0.0
 13
-0.4635254916
 23
1.4265847744
 33
0.0
  0
SOLID
  5
39B
330
226
100
AcDbEntity
  8
1
100
AcDbTrace
 10
0.4635254916
 20
0.0
 30
0.0
 11
0.4635254916
 21
1.4265847744
 31
0.0
 12
0.3118675362
 22
0.0
 32
0.0
 13
0.3118675362
 23
0.0
 33
0.0
210
0.0
220
0.0
230
-1.0
  0
SOLID
  5
39C
330
226
100
AcDbEntity
  8
1
100
AcDbTrace
 10
-0.3118675362
 20
0.0
 30
0.0
 11
-0.4635254916
 21
1.4265847744
 31
0.0
 12
-0.3118675362
 22
1.4672214011
 32
0.0
 13
-0.3118675362
 23
1.4672214011
 33
0.0
  0
SOLID
  5
39D
330
226
100
AcDbEntity
  8
1
100
AcDbTrace
 10
0.3118675362
 20
0.0
 30
0.0
 11
0.3118675362
 21
1.4672214011
 31
0.0
 12
0.1567926949
 22
0.0
 32
0.0
 13
0.1567926949
 23
0.0
 33
0.0
210
0.0
220
0.0
230
-1.0
  0
SOLID
  5
39E
330
226
100
AcDbEntity
  8
1
100
AcDbTrace
 10
-0.1567926949
 20
0.0
 30
0.0
 11
-0.3118675362
 21
1.4672214011
 31
0.0
 12
-0.1567926949
 22
1.4917828431
 32
0.0
 13
-0.1567926949
 23
1.4917828431
 33
0.0
  0
SOLID
  5
39F
330
226
100
AcDbEntity
  8
1
100
AcDbTrace
 10
0.1567926949
 20
0.0
 30
0.0
 11
0.1567926949
 21
1.4917828431
 31
0.0
 12
0.0
 22
0.0
 32
0.0
 13
0.0
 23
0.0
 33
0.0
210
0.0
220
0.0
230
-1.0
  0
SOLID
  5
3A0
330
226
100
AcDbEntity
  8
1
100
AcDbTrace
 10
0.0
 20
0.0
 30
0.0
 11
-0.1567926949
 21
1.4917828431
 31
0.0
 12
0.0
 22
1.5
 32
0.0
 13
0.0
 23
1.5
 33
0.0
  0
SOLID
  5
3A1
330
226
100
AcDbEntity
  8
1
100
AcDbTrace
 10
0.0
 20
-1.5
 30
0.0
 11
0.0
 21
0.0
 31
0.0
 12
-0.1567926949
 22
-1.4917828431
 32
0.0
 13
-0.1567926949
 23
-1.4917828431
 33
0.0
210
0.0
220
0.0
230
-1.0
  0
SOLID
  5
3A2
330
226
100
AcDbEntity
  8
1
100
AcDbTrace
 10
-0.1567926949
 20
-1.4917828431
 30
0.0
 11
0.0
 21
0.0
 31
0.0
 12
-0.1567926949
 22
0.0
 32
0.0
 13
-0.1567926949
 23
0.0
 33
0.0
210
0.0
220
0.0
230
-1.0
  0
SOLID
  5
3A3
330
226
100
AcDbEntity
  8
1
100
AcDbTrace
 10
-0.1567926949
 20
-1.4917828431
 30
0.0
 11
-0.1567926949
 21
0.0
 31
0.0
 12
-0.3118675362
 22
-1.4672214011
 32
0.0
 13
-0.3118675362
 23
-1.4672214011
 33
0.0
210
0.0
220
0.0
230
-1.0
  0
SOLID
  5
3A4
330
226
100
AcDbEntity
  8
1
100
AcDbTrace
 10
-0.3118675362
 20
-1.4672214011
 30
0.0
 11
-0.1567926949
 21
0.0
 31
0.0
 12
-0.3118675362
 22
0.0
 32
0.0
 13
-0.3118675362
 23
0.0
 33
0.0
210
0.0
220
0.0
230
-1.0
  0
SOLID
  5
3A5
330
226
100
AcDbEntity
  8
1
100
AcDbTrace
 10
-0.3118675362
 20
-1.4672214011
 30
0.0
 11
-0.3118675362
 21
0.0
 31
0.0
 12
-0.4635254916
 22
-1.4265847744
 32
0.0
 13
-0.4635254916
 23
-1.4265847744
 33
0.0
210
0.0
220
0.0
230
-1.0
  0
SOLID
  5
3A6
330
226
100
AcDbEntity
  8
1
100
AcDbTrace
 10
-0.4635254916
 20
-1.4265847744
 30
0.0
 11
-0.3118675362
 21
0.0
 31
0.0
 12
-0.4635254916
 22
0.0
 32
0.0
 13
-0.4635254916
 23
0.0
 33
0.0
210
0.0
220
0.0
230
-1.0
  0
SOLID
  5
3A7
330
226
100
AcDbEntity
  8
1
100
AcDbTrace
 10
-0.4635254916
 20
-1.4265847744
 30
0.0
 11
-0.4635254916
 21
0.0
 31
0.0
 12
-0.6101049646
 22
-1.3703181865
 32
0.0
 13
-0.6101049646
 23
-1.3703181865
 33
0.0
210
0.0
220
0.0
230
-1.0
  0
SOLID
  5
3A8
330
226
100
AcDbEntity
  8
1
100
AcDbTrace
 10
-0.6101049646
 20
-1.3703181865
 30
0.0
 11
-0.4635254916
 21
0.0
 31
0.0
 12
-0.6101049646
 22
0.0
 32
0.0
 13
-0.6101049646
 23
0.0
 33
0.0
210
0.0
220
0.0
230
-1.0
  0
SOLID
  5
3A9
330
226
100
AcDbEntity
  8
1
100
AcDbTrace
 10
-0.6101049646
 20
-1.3703181865
 30
0.0
 11
-0.6101049646
 21
0.0
 31
0.0
 12
-0.75
 22
-1.2990381057
 32
0.0
 13
-0.75
 23
-1.2990381057
 33
0.0
210
0.0
220
0.0
230
-1.0
  0
SOLID
  5
3AA
330
226
100
AcDbEntity
  8
1
100
AcDbTrace
 10
-0.75
 20
-1.2990381057
 30
0.0
 11
-0.6101049646
 21
0.0
 31
0.0
 12
-0.75
 22
0.0
 32
0.0
 13
-0.75
 23
0.0
 33
0.0
210
0.0
220
0.0
230
-1.0
  0
SOLID
  5
3AB
330
226
100
AcDbEntity
  8
1
100
AcDbTrace
 10
-0.75
 20
-1.2990381057
 30
0.0
 11
-0.75
 21
0.0
 31
0.0
 12
-0.8816778784
 22
-1.2135254916
 32
0.0
 13
-0.8816778784
 23
-1.2135254916
 33
0.0
210
0.0
220
0.0
230
-1.0
  0
SOLID
  5
3AC
330
226
100
AcDbEntity
  8
1
100
AcDbTrace
 10
-0.8816778784
 20
-1.2135254916
 30
0.0
 11
-0.75
 21
0.0
 31
0.0
 12
-0.8816778784
 22
0.0
 32
0.0
 13
-0.8816778784
 23
0.0
 33
0.0
210
0.0
220
0.0
230
-1.0
  0
SOLID
  5
3AD
330
226
100
AcDbEntity
  8
1
100
AcDbTrace
 10
-0.8816778784
 20
-1.2135254916
 30
0.0
 11
-0.8816778784
 21
0.0
 31
0.0
 12
-1.0036959095
 22
-1.1147172382
 32
0.0
 13
-1.0036959095
 23
-1.1147172382
 33
0.0
210
0.0
220
0.0
230
-1.0
  0
SOLID
  5
3AE
330
226
100
AcDbEntity
  8
1
100
AcDbTrace
 10
-1.0036959095
 20
-1.1147172382
 30
0.0
 11
-0.8816778784
 21
0.0
 31
0.0
 12
-1.0036959095
 22
0.0
 32
0.0
 13
-1.0036959095
 23
0.0
 33
0.0
210
0.0
220
0.0
230
-1.0
  0
SOLID
  5
3AF
330
226
100
AcDbEntity
  8
1
100
AcDbTrace
 10
-1.0036959095
 20
-1.1147172382
 30
0.0
 11
-1.0036959095
 21
0.0
 31
0.0
 12
-1.1147172382
 22
-1.0036959095
 32
0.0
 13
-1.1147172382
 23
-1.0036959095
 33
0.0
210
0.0
220
0.0
230
-1.0
  0
SOLID
  5
3B0
330
226
100
AcDbEntity
  8
1
100
AcDbTrace
 10
-1.1147172382
 20
-1.0036959095
 30
0.0
 11
-1.0036959095
 21
0.0
 31
0.0
 12
-1.1147172382
 22
0.0
 32
0.0
 13
-1.1147172382
 23
0.0
 33
0.0
210
0.0
220
0.0
230
-1.0
  0
SOLID
  5
3B1
330
226
100
AcDbEntity
  8
1
100
AcDbTrace
 10
-1.1147172382
 20
-1.0036959095
 30
0.0
 11
-1.1147172382
 21
0.0
 31
0.0
 12
-1.2135254916
 22
-0.8816778784
 32
0.0
 13
-1.2135254916
 23
-0.8816778784
 33
0.0
210
0.0
220
0.0
230
-1.0
  0
SOLID
  5
3B2
330
226
100
AcDbEntity
  8
1
100
AcDbTrace
 10
-1.2135254916
 20
-0.8816778784
 30
0.0
 11
-1.1147172382
 21
0.0
 31
0.0
 12
-1.2135254916
 22
0.0
 32
0.0
 13
-1.2135254916
 23
0.0
 33
0.0
210
0.0
220
0.0
230
-1.0
  0
SOLID
  5
3B3
330
226
100
AcDbEntity
  8
1
100
AcDbTrace
 10
-1.2135254916
 20
-0.8816778784
 30
0.0
 11
-1.2135254916
 21
0.0
 31
0.0
 12
-1.2990381057
 22
-0.75
 32
0.0
 13
-1.2990381057
 23
-0.75
 33
0.0
210
0.0
220
0.0
230
-1.0
  0
SOLID
  5
3B4
330
226
100
AcDbEntity
  8
1
100
AcDbTrace
 10
-1.2990381057
 20
-0.75
 30
0.0
 11
-1.2135254916
 21
0.0
 31
0.0
 12
-1.2990381057
 22
0.0
 32
0.0
 13
-1.2990381057
 23
0.0
 33
0.0
210
0.0
220
0.0
230
-1.0
  0
SOLID
  5
3B5
330
226
100
AcDbEntity
  8
1
100
AcDbTrace
 10
-1.2990381057
 20
-0.75
 30
0.0
 11
-1.2990381057
 21
0.0
 31
0.0
 12
-1.3703181865
 22
-0.6101049646
 32
0.0
 13
-1.3703181865
 23
-0.6101049646
 33
0.0
210
0.0
220
0.0
230
-1.0
  0
SOLID
  5
3B6
330
226
100
AcDbEntity
  8
1
100
AcDbTrace
 10
-1.3703181865
 20
-0.6101049646
 30
0.0
 11
-1.2990381057
 21
0.0
 31
0.0
 12
-1.3703181865
 22
0.0
 32
0.0
 13
-1.3703181865
 23
0.0
 33
0.0
210
0.0
220
0.0
230
-1.0
  0
SOLID
  5
3B7
330
226
100
AcDbEntity
  8
1
100
AcDbTrace
 10
-1.3703181865
 20
-0.6101049646
 30
0.0
 11
-1.3703181865
 21
0.0
 31
0.0
 12
-1.4265847744
 22
-0.4635254916
 32
0.0
 13
-1.4265847744
 23
-0.4635254916
 33
0.0
210
0.0
220
0.0
230
-1.0
  0
SOLID
  5
3B8
330
226
100
AcDbEntity
  8
1
100
AcDbTrace
 10
-1.4265847744
 20
-0.4635254916
 30
0.0
 11
-1.3703181865
 21
0.0
 31
0.0
 12
-1.4265847744
 22
0.0
 32
0.0
 13
-1.4265847744
 23
0.0
 33
0.0
210
0.0
220
0.0
230
-1.0
  0
SOLID
  5
3B9
330
226
100
AcDbEntity
  8
1
100
AcDbTrace
 10
-1.4265847744
 20
-0.4635254916
 30
0.0
 11
-1.4265847744
 21
0.0
 31
0.0
 12
-1.4672214011
 22
-0.3118675362
 32
0.0
 13
-1.4672214011
 23
-0.3118675362
 33
0.0
210
0.0
220
0.0
230
-1.0
  0
SOLID
  5
3BA
330
226
100
AcDbEntity
  8
1
100
AcDbTrace
 10
-1.4672214011
 20
-0.3118675362
 30
0.0
 11
-1.4265847744
 21
0.0
 31
0.0
 12
-1.4672214011
 22
0.0
 32
0.0
 13
-1.4672214011
 23
0.0
 33
0.0
210
0.0
220
0.0
230
-1.0
  0
SOLID
  5
3BB
330
226
100
AcDbEntity
  8
1
100
AcDbTrace
 10
-1.4672214011
 20
-0.3118675362
 30
0.0
 11
-1.4672214011
 21
0.0
 31
0.0
 12
-1.4917828431
 22
-0.1567926949
 32
0.0
 13
-1.4917828431
 23
-0.1567926949
 33
0.0
210
0.0
220
0.0
230
-1.0
  0
SOLID
  5
3BC
330
226
100
AcDbEntity
  8
1
100
AcDbTrace
 10
-1.4917828431
 20
-0.1567926949
 30
0.0
 11
-1.4672214011
 21
0.0
 31
0.0
 12
-1.4917828431
 22
0.0
 32
0.0
 13
-1.4917828431
 23
0.0
 33
0.0
210
0.0
220
0.0
230
-1.0
  0
SOLID
  5
3BD
330
226
100
AcDbEntity
  8
1
100
AcDbTrace
 10
-1.4917828431
 20
-0.1567926949
 30
0.0
 11
-1.4917828431
 21
0.0
 31
0.0
 12
-1.5
 22
0.0
 32
0.0
 13
-1.5
 23
0.0
 33
0.0
210
0.0
220
0.0
230
-1.0
  0
LWPOLYLINE
  5
66C
330
226
100
AcDbEntity
  8
1
100
AcDbPolyline
 90
       44
 70
     0
 43
0.0
 10
1.5
 20
0.0
 10
1.4917828431
 20
-0.1567926949
 10
1.4672214011
 20
-0.3118675362
 10
1.4265847744
 20
-0.4635254916
 10
1.3703181865
 20
-0.6101049646
 10
1.2990381057
 20
-0.75
 10
1.2135254916
 20
-0.8816778784
 10
1.1147172382
 20
-1.0036959095
 10
1.0036959095
 20
-1.1147172382
 10
0.8816778784
 20
-1.2135254916
 10
0.75
 20
-1.2990381057
 10
0.6101049646
 20
-1.3703181865
 10
0.4635254916
 20
-1.4265847744
 10
0.3118675362
 20
-1.4672214011
 10
0.1567926949
 20
-1.4917828431
 10
-0.0000000000000003
 20
-1.5
 42
0.414213562373095
 10
1.5
 20
0.0
 42
0.414213562373095
 10
0.0000000000000001
 20
1.5
 42
0.414213562373095
 10
-1.5
 20
0.0000000000000002
 42
0.414213562373095
 10
0.0
 20
-1.5
 10
0.0
 20
0.0
 10
1.5
 20
0.0
 42
-0.414213562373095
 10
-0.0000000000000003
 20
-1.5
 10
0.0
 20
0.0
 10
0.0
 20
1.5
 10
-0.1567926949
 20
1.4917828431
 10
-0.3118675362
 20
1.4672214011
 10
-0.4635254916
 20
1.4265847744
 10
-0.6101049646
 20
1.3703181865
 10
-0.75
 20
1.2990381057
 10
-0.8816778784
 20
1.2135254916
 10
-1.0036959095
 20
1.1147172382
 10
-1.1147172382
 20
1.0036959095
 10
-1.2135254916
 20
0.8816778784
 10
-1.2990381057
 20
0.75
 10
-1.3703181865
 20
0.6101049646
 10
-1.4265847744
 20
0.4635254916
 10
-1.4672214011
 20
0.3118675362
 10
-1.4917828431
 20
0.1567926949
 10
-1.5
 20
0.0
 10
0.0
 20
0.0
 10
1.5
 20
0.0
 10
0.0
 20
0.0
 10
-1.5
 20
0.0
  0
LWPOLYLINE
  5
66D
330
226
100
AcDbEntity
  8
1
100
AcDbPolyline
 90
        3
 70
     0
 43
0.0
 10
0.0
 20
1.5
 10
0.0
 20
0.0
 10
0.0
 20
-1.5
  0
ENDBLK
  5
23A
330
226
100
AcDbEntity
  8
7
100
AcDbBlockEnd
  0
ENDSEC
  0
SECTION
  2
ENTITIES
  0
DIMENSION
  5
26A
330
21F
100
AcDbEntity
  8
2
100
AcDbDimension
  2
*D1
 10
0.0
 20
15.008297697
 30
0.0
 11
5.7
 21
17.633297697
 31
0.0
 70
   160
 71
     2
 42
17.0
  3
DIMSTYLE_1
100
AcDbAlignedDimension
 13
17.0
 23
5.8663324841
 33
0.0
 14
0.0
 24
5.0269466291
 34
0.0
 50
180.0
100
AcDbRotatedDimension
  0
DIMENSION
  5
26B
330
21F
100
AcDbEntity
  8
2
100
AcDbDimension
  2
*D2
 10
27.1743237116
 20
5.0
 30
0.0
 11
24.5493237116
 21
13.3654982609
 31
0.0
 70
   160
  1
%%c<>
 71
     1
 42
10.0
  3
DIMSTYLE_1
100
AcDbAlignedDimension
 13
17.6743237116
 23
-5.0
 33
0.0
 14
17.6743237116
 24
5.0
 34
0.0
 50
90.0
100
AcDbRotatedDimension
  0
DIMENSION
  5
26C
330
21F
100
AcDbEntity
  8
SK2
100
AcDbDimension
  2
*D3
 10
-24.5
 20
3.0
 30
0.0
 11
-26.4976969374
 21
-1.251595329
 31
0.0
 70
   160
  1
M<>
 71
     2
 42
6.0
  3
DIMSTYLE_2
100
AcDbAlignedDimension
 13
-14.0
 23
-3.0
 33
0.0
 14
-14.0
 24
3.0
 34
0.0
 50
90.0
100
AcDbRotatedDimension
  0
DIMENSION
  5
26D
330
21F
100
AcDbEntity
  8
SK2
100
AcDbDimension
  2
*D4
 10
-33.0
 20
4.9
 30
0.0
 11
-35.625
 21
13.9408085054
 31
0.0
 70
   160
  1
%%c<>
 71
     1
 42
9.8
  3
DIMSTYLE_2
100
AcDbAlignedDimension
 13
0.0157037542
 23
-4.9
 33
0.0
 14
0.0716407559
 24
4.9
 34
0.0
 50
90.0
100
AcDbRotatedDimension
  0
MTEXT
  5
26E
330
21F
100
AcDbEntity
  8
6
100
AcDbMText
 10
-28.5542507148
 20
-12.3380875171
 30
0.0
 40
5.0
 41
64.0
 71
     1
 72
     1
  1
12J1D010017X4R00
 73
     1
 44
0.9
  0
MTEXT
  5
26F
330
21F
100
AcDbEntity
  8
6
100
AcDbMText
 10
32.1953842593
 20
-4.1221031143
 30
0.0
 40
3.5
 41
8.4
 71
     1
 72
     1
  1
Z=2
 11
0.0
 21
1.0
 31
0.0
 73
     1
 44
0.9
  0
MTEXT
  5
270
330
21F
100
AcDbEntity
  8
6
100
AcDbMText
 10
9.6764388611
 20
26.8835392659
 30
0.0
 40
3.5
 41
30.8
 71
     1
 72
     1
  1
AOMT060202R
 73
     1
 44
0.9
  0
LINE
  5
276
330
21F
100
AcDbEntity
  8
SK1
100
AcDbLine
 10
-14.0
 20
-2.5
 30
0.0
 11
-7.7
 21
-2.5
 31
0.0
  0
LINE
  5
278
330
21F
100
AcDbEntity
  8
SK1
100
AcDbLine
 10
-14.0
 20
2.5
 30
0.0
 11
-7.7
 21
2.5
 31
0.0
  0
LINE
  5
292
330
21F
100
AcDbEntity
  8
SK1
100
AcDbLine
 10
-8.2
 20
-3.0
 30
0.0
 11
-13.5
 21
-3.0
 31
0.0
  0
LINE
  5
296
330
21F
100
AcDbEntity
  8
4
 48
0.2
100
AcDbLine
 10
17.798894649
 20
0.0
 30
0.0
 11
-15.8909120196
 21
0.0
 31
0.0
  0
LINE
  5
297
330
21F
100
AcDbEntity
  8
4
 48
0.2
100
AcDbLine
 10
18.1645470585
 20
0.0
 30
0.0
 11
19.3019699595
 21
0.0
 31
0.0
  0
LINE
  5
29C
330
21F
100
AcDbEntity
  8
SK1
100
AcDbLine
 10
-8.2
 20
3.0
 30
0.0
 11
-13.5
 21
3.0
 31
0.0
  0
LINE
  5
2A5
330
21F
100
AcDbEntity
  8
1
100
AcDbLine
 10
10.3019699595
 20
4.8327670346
 30
0.0
 11
10.3019699595
 21
-4.8327670346
 31
0.0
  0
LINE
  5
2AB
330
21F
100
AcDbEntity
  8
1
100
AcDbLine
 10
15.7823547172
 20
4.8327670346
 30
0.0
 11
15.7823547172
 21
-4.8327670346
 31
0.0
  0
SOLID
  5
3CC
330
21F
100
AcDbEntity
  8
1
100
AcDbTrace
 10
-1.4917828431
 20
0.0
 30
0.0
 11
-1.5
 21
0.0
 31
0.0
 12
-1.4917828431
 22
0.1567926949
 32
0.0
 13
-1.4917828431
 23
0.1567926949
 33
0.0
  0
SOLID
  5
3CD
330
21F
100
AcDbEntity
  8
1
100
AcDbTrace
 10
1.4917828431
 20
0.0
 30
0.0
 11
1.4917828431
 21
0.1567926949
 31
0.0
 12
1.4672214011
 22
0.0
 32
0.0
 13
1.4672214011
 23
0.0
 33
0.0
210
0.0
220
0.0
230
-1.0
  0
SOLID
  5
3CE
330
21F
100
AcDbEntity
  8
1
100
AcDbTrace
 10
-1.4672214011
 20
0.0
 30
0.0
 11
-1.4917828431
 21
0.1567926949
 31
0.0
 12
-1.4672214011
 22
0.3118675362
 32
0.0
 13
-1.4672214011
 23
0.3118675362
 33
0.0
  0
SOLID
  5
3CF
330
21F
100
AcDbEntity
  8
1
100
AcDbTrace
 10
1.4672214011
 20
0.0
 30
0.0
 11
1.4672214011
 21
0.3118675362
 31
0.0
 12
1.4265847744
 22
0.0
 32
0.0
 13
1.4265847744
 23
0.0
 33
0.0
210
0.0
220
0.0
230
-1.0
  0
SOLID
  5
3D0
330
21F
100
AcDbEntity
  8
1
100
AcDbTrace
 10
-1.4265847744
 20
0.0
 30
0.0
 11
-1.4672214011
 21
0.3118675362
 31
0.0
 12
-1.4265847744
 22
0.4635254916
 32
0.0
 13
-1.4265847744
 23
0.4635254916
 33
0.0
  0
SOLID
  5
3D1
330
21F
100
AcDbEntity
  8
1
100
AcDbTrace
 10
1.4265847744
 20
0.0
 30
0.0
 11
1.4265847744
 21
0.4635254916
 31
0.0
 12
1.3703181865
 22
0.0
 32
0.0
 13
1.3703181865
 23
0.0
 33
0.0
210
0.0
220
0.0
230
-1.0
  0
SOLID
  5
3D2
330
21F
100
AcDbEntity
  8
1
100
AcDbTrace
 10
-1.3703181865
 20
0.0
 30
0.0
 11
-1.4265847744
 21
0.4635254916
 31
0.0
 12
-1.3703181865
 22
0.6101049646
 32
0.0
 13
-1.3703181865
 23
0.6101049646
 33
0.0
  0
SOLID
  5
3D3
330
21F
100
AcDbEntity
  8
1
100
AcDbTrace
 10
1.3703181865
 20
0.0
 30
0.0
 11
1.3703181865
 21
0.6101049646
 31
0.0
 12
1.2990381057
 22
0.0
 32
0.0
 13
1.2990381057
 23
0.0
 33
0.0
210
0.0
220
0.0
230
-1.0
  0
SOLID
  5
3D4
330
21F
100
AcDbEntity
  8
1
100
AcDbTrace
 10
-1.2990381057
 20
0.0
 30
0.0
 11
-1.3703181865
 21
0.6101049646
 31
0.0
 12
-1.2990381057
 22
0.75
 32
0.0
 13
-1.2990381057
 23
0.75
 33
0.0
  0
SOLID
  5
3D5
330
21F
100
AcDbEntity
  8
1
100
AcDbTrace
 10
1.2990381057
 20
0.0
 30
0.0
 11
1.2990381057
 21
0.75
 31
0.0
 12
1.2135254916
 22
0.0
 32
0.0
 13
1.2135254916
 23
0.0
 33
0.0
210
0.0
220
0.0
230
-1.0
  0
SOLID
  5
3D6
330
21F
100
AcDbEntity
  8
1
100
AcDbTrace
 10
-1.2135254916
 20
0.0
 30
0.0
 11
-1.2990381057
 21
0.75
 31
0.0
 12
-1.2135254916
 22
0.8816778784
 32
0.0
 13
-1.2135254916
 23
0.8816778784
 33
0.0
  0
SOLID
  5
3D7
330
21F
100
AcDbEntity
  8
1
100
AcDbTrace
 10
1.2135254916
 20
0.0
 30
0.0
 11
1.2135254916
 21
0.8816778784
 31
0.0
 12
1.1147172382
 22
0.0
 32
0.0
 13
1.1147172382
 23
0.0
 33
0.0
210
0.0
220
0.0
230
-1.0
  0
SOLID
  5
3D8
330
21F
100
AcDbEntity
  8
1
100
AcDbTrace
 10
-1.1147172382
 20
0.0
 30
0.0
 11
-1.2135254916
 21
0.8816778784
 31
0.0
 12
-1.1147172382
 22
1.0036959095
 32
0.0
 13
-1.1147172382
 23
1.0036959095
 33
0.0
  0
SOLID
  5
3D9
330
21F
100
AcDbEntity
  8
1
100
AcDbTrace
 10
1.1147172382
 20
0.0
 30
0.0
 11
1.1147172382
 21
1.0036959095
 31
0.0
 12
1.0036959095
 22
0.0
 32
0.0
 13
1.0036959095
 23
0.0
 33
0.0
210
0.0
220
0.0
230
-1.0
  0
SOLID
  5
3DA
330
21F
100
AcDbEntity
  8
1
100
AcDbTrace
 10
-1.0036959095
 20
0.0
 30
0.0
 11
-1.1147172382
 21
1.0036959095
 31
0.0
 12
-1.0036959095
 22
1.1147172382
 32
0.0
 13
-1.0036959095
 23
1.1147172382
 33
0.0
  0
SOLID
  5
3DB
330
21F
100
AcDbEntity
  8
1
100
AcDbTrace
 10
1.0036959095
 20
0.0
 30
0.0
 11
1.0036959095
 21
1.1147172382
 31
0.0
 12
0.8816778784
 22
0.0
 32
0.0
 13
0.8816778784
 23
0.0
 33
0.0
210
0.0
220
0.0
230
-1.0
  0
SOLID
  5
3DC
330
21F
100
AcDbEntity
  8
1
100
AcDbTrace
 10
-0.8816778784
 20
0.0
 30
0.0
 11
-1.0036959095
 21
1.1147172382
 31
0.0
 12
-0.8816778784
 22
1.2135254916
 32
0.0
 13
-0.8816778784
 23
1.2135254916
 33
0.0
  0
SOLID
  5
3DD
330
21F
100
AcDbEntity
  8
1
100
AcDbTrace
 10
0.8816778784
 20
0.0
 30
0.0
 11
0.8816778784
 21
1.2135254916
 31
0.0
 12
0.75
 22
0.0
 32
0.0
 13
0.75
 23
0.0
 33
0.0
210
0.0
220
0.0
230
-1.0
  0
SOLID
  5
3DE
330
21F
100
AcDbEntity
  8
1
100
AcDbTrace
 10
-0.75
 20
0.0
 30
0.0
 11
-0.8816778784
 21
1.2135254916
 31
0.0
 12
-0.75
 22
1.2990381057
 32
0.0
 13
-0.75
 23
1.2990381057
 33
0.0
  0
SOLID
  5
3DF
330
21F
100
AcDbEntity
  8
1
100
AcDbTrace
 10
0.75
 20
0.0
 30
0.0
 11
0.75
 21
1.2990381057
 31
0.0
 12
0.6101049646
 22
0.0
 32
0.0
 13
0.6101049646
 23
0.0
 33
0.0
210
0.0
220
0.0
230
-1.0
  0
SOLID
  5
3E0
330
21F
100
AcDbEntity
  8
1
100
AcDbTrace
 10
-0.6101049646
 20
0.0
 30
0.0
 11
-0.75
 21
1.2990381057
 31
0.0
 12
-0.6101049646
 22
1.3703181865
 32
0.0
 13
-0.6101049646
 23
1.3703181865
 33
0.0
  0
SOLID
  5
3E1
330
21F
100
AcDbEntity
  8
1
100
AcDbTrace
 10
0.6101049646
 20
0.0
 30
0.0
 11
0.6101049646
 21
1.3703181865
 31
0.0
 12
0.4635254916
 22
0.0
 32
0.0
 13
0.4635254916
 23
0.0
 33
0.0
210
0.0
220
0.0
230
-1.0
  0
SOLID
  5
3E2
330
21F
100
AcDbEntity
  8
1
100
AcDbTrace
 10
-0.4635254916
 20
0.0
 30
0.0
 11
-0.6101049646
 21
1.3703181865
 31
0.0
 12
-0.4635254916
 22
1.4265847744
 32
0.0
 13
-0.4635254916
 23
1.4265847744
 33
0.0
  0
SOLID
  5
3E3
330
21F
100
AcDbEntity
  8
1
100
AcDbTrace
 10
0.4635254916
 20
0.0
 30
0.0
 11
0.4635254916
 21
1.4265847744
 31
0.0
 12
0.3118675362
 22
0.0
 32
0.0
 13
0.3118675362
 23
0.0
 33
0.0
210
0.0
220
0.0
230
-1.0
  0
SOLID
  5
3E4
330
21F
100
AcDbEntity
  8
1
100
AcDbTrace
 10
-0.3118675362
 20
0.0
 30
0.0
 11
-0.4635254916
 21
1.4265847744
 31
0.0
 12
-0.3118675362
 22
1.4672214011
 32
0.0
 13
-0.3118675362
 23
1.4672214011
 33
0.0
  0
SOLID
  5
3E5
330
21F
100
AcDbEntity
  8
1
100
AcDbTrace
 10
0.3118675362
 20
0.0
 30
0.0
 11
0.3118675362
 21
1.4672214011
 31
0.0
 12
0.1567926949
 22
0.0
 32
0.0
 13
0.1567926949
 23
0.0
 33
0.0
210
0.0
220
0.0
230
-1.0
  0
SOLID
  5
3E6
330
21F
100
AcDbEntity
  8
1
100
AcDbTrace
 10
-0.1567926949
 20
0.0
 30
0.0
 11
-0.3118675362
 21
1.4672214011
 31
0.0
 12
-0.1567926949
 22
1.4917828431
 32
0.0
 13
-0.1567926949
 23
1.4917828431
 33
0.0
  0
SOLID
  5
3E7
330
21F
100
AcDbEntity
  8
1
100
AcDbTrace
 10
0.1567926949
 20
0.0
 30
0.0
 11
0.1567926949
 21
1.4917828431
 31
0.0
 12
0.0
 22
0.0
 32
0.0
 13
0.0
 23
0.0
 33
0.0
210
0.0
220
0.0
230
-1.0
  0
SOLID
  5
3E8
330
21F
100
AcDbEntity
  8
1
100
AcDbTrace
 10
0.0
 20
0.0
 30
0.0
 11
-0.1567926949
 21
1.4917828431
 31
0.0
 12
0.0
 22
1.5
 32
0.0
 13
0.0
 23
1.5
 33
0.0
  0
SOLID
  5
3E9
330
21F
100
AcDbEntity
  8
1
100
AcDbTrace
 10
0.0
 20
-1.5
 30
0.0
 11
0.0
 21
0.0
 31
0.0
 12
-0.1567926949
 22
-1.4917828431
 32
0.0
 13
-0.1567926949
 23
-1.4917828431
 33
0.0
210
0.0
220
0.0
230
-1.0
  0
SOLID
  5
3EA
330
21F
100
AcDbEntity
  8
1
100
AcDbTrace
 10
-0.1567926949
 20
-1.4917828431
 30
0.0
 11
0.0
 21
0.0
 31
0.0
 12
-0.1567926949
 22
0.0
 32
0.0
 13
-0.1567926949
 23
0.0
 33
0.0
210
0.0
220
0.0
230
-1.0
  0
SOLID
  5
3EB
330
21F
100
AcDbEntity
  8
1
100
AcDbTrace
 10
-0.1567926949
 20
-1.4917828431
 30
0.0
 11
-0.1567926949
 21
0.0
 31
0.0
 12
-0.3118675362
 22
-1.4672214011
 32
0.0
 13
-0.3118675362
 23
-1.4672214011
 33
0.0
210
0.0
220
0.0
230
-1.0
  0
SOLID
  5
3EC
330
21F
100
AcDbEntity
  8
1
100
AcDbTrace
 10
-0.3118675362
 20
-1.4672214011
 30
0.0
 11
-0.1567926949
 21
0.0
 31
0.0
 12
-0.3118675362
 22
0.0
 32
0.0
 13
-0.3118675362
 23
0.0
 33
0.0
210
0.0
220
0.0
230
-1.0
  0
SOLID
  5
3ED
330
21F
100
AcDbEntity
  8
1
100
AcDbTrace
 10
-0.3118675362
 20
-1.4672214011
 30
0.0
 11
-0.3118675362
 21
0.0
 31
0.0
 12
-0.4635254916
 22
-1.4265847744
 32
0.0
 13
-0.4635254916
 23
-1.4265847744
 33
0.0
210
0.0
220
0.0
230
-1.0
  0
SOLID
  5
3EE
330
21F
100
AcDbEntity
  8
1
100
AcDbTrace
 10
-0.4635254916
 20
-1.4265847744
 30
0.0
 11
-0.3118675362
 21
0.0
 31
0.0
 12
-0.4635254916
 22
0.0
 32
0.0
 13
-0.4635254916
 23
0.0
 33
0.0
210
0.0
220
0.0
230
-1.0
  0
SOLID
  5
3EF
330
21F
100
AcDbEntity
  8
1
100
AcDbTrace
 10
-0.4635254916
 20
-1.4265847744
 30
0.0
 11
-0.4635254916
 21
0.0
 31
0.0
 12
-0.6101049646
 22
-1.3703181865
 32
0.0
 13
-0.6101049646
 23
-1.3703181865
 33
0.0
210
0.0
220
0.0
230
-1.0
  0
SOLID
  5
3F0
330
21F
100
AcDbEntity
  8
1
100
AcDbTrace
 10
-0.6101049646
 20
-1.3703181865
 30
0.0
 11
-0.4635254916
 21
0.0
 31
0.0
 12
-0.6101049646
 22
0.0
 32
0.0
 13
-0.6101049646
 23
0.0
 33
0.0
210
0.0
220
0.0
230
-1.0
  0
SOLID
  5
3F1
330
21F
100
AcDbEntity
  8
1
100
AcDbTrace
 10
-0.6101049646
 20
-1.3703181865
 30
0.0
 11
-0.6101049646
 21
0.0
 31
0.0
 12
-0.75
 22
-1.2990381057
 32
0.0
 13
-0.75
 23
-1.2990381057
 33
0.0
210
0.0
220
0.0
230
-1.0
  0
SOLID
  5
3F2
330
21F
100
AcDbEntity
  8
1
100
AcDbTrace
 10
-0.75
 20
-1.2990381057
 30
0.0
 11
-0.6101049646
 21
0.0
 31
0.0
 12
-0.75
 22
0.0
 32
0.0
 13
-0.75
 23
0.0
 33
0.0
210
0.0
220
0.0
230
-1.0
  0
SOLID
  5
3F3
330
21F
100
AcDbEntity
  8
1
100
AcDbTrace
 10
-0.75
 20
-1.2990381057
 30
0.0
 11
-0.75
 21
0.0
 31
0.0
 12
-0.8816778784
 22
-1.2135254916
 32
0.0
 13
-0.8816778784
 23
-1.2135254916
 33
0.0
210
0.0
220
0.0
230
-1.0
  0
SOLID
  5
3F4
330
21F
100
AcDbEntity
  8
1
100
AcDbTrace
 10
-0.8816778784
 20
-1.2135254916
 30
0.0
 11
-0.75
 21
0.0
 31
0.0
 12
-0.8816778784
 22
0.0
 32
0.0
 13
-0.8816778784
 23
0.0
 33
0.0
210
0.0
220
0.0
230
-1.0
  0
SOLID
  5
3F5
330
21F
100
AcDbEntity
  8
1
100
AcDbTrace
 10
-0.8816778784
 20
-1.2135254916
 30
0.0
 11
-0.8816778784
 21
0.0
 31
0.0
 12
-1.0036959095
 22
-1.1147172382
 32
0.0
 13
-1.0036959095
 23
-1.1147172382
 33
0.0
210
0.0
220
0.0
230
-1.0
  0
SOLID
  5
3F6
330
21F
100
AcDbEntity
  8
1
100
AcDbTrace
 10
-1.0036959095
 20
-1.1147172382
 30
0.0
 11
-0.8816778784
 21
0.0
 31
0.0
 12
-1.0036959095
 22
0.0
 32
0.0
 13
-1.0036959095
 23
0.0
 33
0.0
210
0.0
220
0.0
230
-1.0
  0
SOLID
  5
3F7
330
21F
100
AcDbEntity
  8
1
100
AcDbTrace
 10
-1.0036959095
 20
-1.1147172382
 30
0.0
 11
-1.0036959095
 21
0.0
 31
0.0
 12
-1.1147172382
 22
-1.0036959095
 32
0.0
 13
-1.1147172382
 23
-1.0036959095
 33
0.0
210
0.0
220
0.0
230
-1.0
  0
SOLID
  5
3F8
330
21F
100
AcDbEntity
  8
1
100
AcDbTrace
 10
-1.1147172382
 20
-1.0036959095
 30
0.0
 11
-1.0036959095
 21
0.0
 31
0.0
 12
-1.1147172382
 22
0.0
 32
0.0
 13
-1.1147172382
 23
0.0
 33
0.0
210
0.0
220
0.0
230
-1.0
  0
SOLID
  5
3F9
330
21F
100
AcDbEntity
  8
1
100
AcDbTrace
 10
-1.1147172382
 20
-1.0036959095
 30
0.0
 11
-1.1147172382
 21
0.0
 31
0.0
 12
-1.2135254916
 22
-0.8816778784
 32
0.0
 13
-1.2135254916
 23
-0.8816778784
 33
0.0
210
0.0
220
0.0
230
-1.0
  0
SOLID
  5
3FA
330
21F
100
AcDbEntity
  8
1
100
AcDbTrace
 10
-1.2135254916
 20
-0.8816778784
 30
0.0
 11
-1.1147172382
 21
0.0
 31
0.0
 12
-1.2135254916
 22
0.0
 32
0.0
 13
-1.2135254916
 23
0.0
 33
0.0
210
0.0
220
0.0
230
-1.0
  0
SOLID
  5
3FB
330
21F
100
AcDbEntity
  8
1
100
AcDbTrace
 10
-1.2135254916
 20
-0.8816778784
 30
0.0
 11
-1.2135254916
 21
0.0
 31
0.0
 12
-1.2990381057
 22
-0.75
 32
0.0
 13
-1.2990381057
 23
-0.75
 33
0.0
210
0.0
220
0.0
230
-1.0
  0
SOLID
  5
3FC
330
21F
100
AcDbEntity
  8
1
100
AcDbTrace
 10
-1.2990381057
 20
-0.75
 30
0.0
 11
-1.2135254916
 21
0.0
 31
0.0
 12
-1.2990381057
 22
0.0
 32
0.0
 13
-1.2990381057
 23
0.0
 33
0.0
210
0.0
220
0.0
230
-1.0
  0
SOLID
  5
3FD
330
21F
100
AcDbEntity
  8
1
100
AcDbTrace
 10
-1.2990381057
 20
-0.75
 30
0.0
 11
-1.2990381057
 21
0.0
 31
0.0
 12
-1.3703181865
 22
-0.6101049646
 32
0.0
 13
-1.3703181865
 23
-0.6101049646
 33
0.0
210
0.0
220
0.0
230
-1.0
  0
SOLID
  5
3FE
330
21F
100
AcDbEntity
  8
1
100
AcDbTrace
 10
-1.3703181865
 20
-0.6101049646
 30
0.0
 11
-1.2990381057
 21
0.0
 31
0.0
 12
-1.3703181865
 22
0.0
 32
0.0
 13
-1.3703181865
 23
0.0
 33
0.0
210
0.0
220
0.0
230
-1.0
  0
SOLID
  5
3FF
330
21F
100
AcDbEntity
  8
1
100
AcDbTrace
 10
-1.3703181865
 20
-0.6101049646
 30
0.0
 11
-1.3703181865
 21
0.0
 31
0.0
 12
-1.4265847744
 22
-0.4635254916
 32
0.0
 13
-1.4265847744
 23
-0.4635254916
 33
0.0
210
0.0
220
0.0
230
-1.0
  0
SOLID
  5
400
330
21F
100
AcDbEntity
  8
1
100
AcDbTrace
 10
-1.4265847744
 20
-0.4635254916
 30
0.0
 11
-1.3703181865
 21
0.0
 31
0.0
 12
-1.4265847744
 22
0.0
 32
0.0
 13
-1.4265847744
 23
0.0
 33
0.0
210
0.0
220
0.0
230
-1.0
  0
SOLID
  5
401
330
21F
100
AcDbEntity
  8
1
100
AcDbTrace
 10
-1.4265847744
 20
-0.4635254916
 30
0.0
 11
-1.4265847744
 21
0.0
 31
0.0
 12
-1.4672214011
 22
-0.3118675362
 32
0.0
 13
-1.4672214011
 23
-0.3118675362
 33
0.0
210
0.0
220
0.0
230
-1.0
  0
SOLID
  5
402
330
21F
100
AcDbEntity
  8
1
100
AcDbTrace
 10
-1.4672214011
 20
-0.3118675362
 30
0.0
 11
-1.4265847744
 21
0.0
 31
0.0
 12
-1.4672214011
 22
0.0
 32
0.0
 13
-1.4672214011
 23
0.0
 33
0.0
210
0.0
220
0.0
230
-1.0
  0
SOLID
  5
403
330
21F
100
AcDbEntity
  8
1
100
AcDbTrace
 10
-1.4672214011
 20
-0.3118675362
 30
0.0
 11
-1.4672214011
 21
0.0
 31
0.0
 12
-1.4917828431
 22
-0.1567926949
 32
0.0
 13
-1.4917828431
 23
-0.1567926949
 33
0.0
210
0.0
220
0.0
230
-1.0
  0
SOLID
  5
404
330
21F
100
AcDbEntity
  8
1
100
AcDbTrace
 10
-1.4917828431
 20
-0.1567926949
 30
0.0
 11
-1.4672214011
 21
0.0
 31
0.0
 12
-1.4917828431
 22
0.0
 32
0.0
 13
-1.4917828431
 23
0.0
 33
0.0
210
0.0
220
0.0
230
-1.0
  0
SOLID
  5
405
330
21F
100
AcDbEntity
  8
1
100
AcDbTrace
 10
-1.4917828431
 20
-0.1567926949
 30
0.0
 11
-1.4917828431
 21
0.0
 31
0.0
 12
-1.5
 22
0.0
 32
0.0
 13
-1.5
 23
0.0
 33
0.0
210
0.0
220
0.0
230
-1.0
  0
LINE
  5
40E
330
21F
100
AcDbEntity
  8
1
100
AcDbLine
 10
11.252196
 20
-5.002727
 30
0.0
 11
11.243718
 21
-5.00231
 31
0.0
  0
LINE
  5
440
330
21F
100
AcDbEntity
  8
1
100
AcDbLine
 10
15.9989
 20
-1.1011
 30
0.0
 11
16.007751
 21
-1.101219
 31
0.0
  0
LINE
  5
52B
330
21F
100
AcDbEntity
  8
1
100
AcDbLine
 10
10.3803145273
 20
-1.3778336168
 30
0.0
 11
10.385553
 21
-1.377883
 31
0.0
  0
LINE
  5
611
330
21F
100
AcDbEntity
  8
CUT
100
AcDbLine
 10
16.8116475473
 20
4.9999323952
 30
0.0
 11
16.806415
 21
5.0
 31
0.0
  0
LWPOLYLINE
  5
656
330
21F
100
AcDbEntity
  8
NOCUT
100
AcDbPolyline
 90
       12
 70
     1
 43
0.0
 10
9.9576513561
 20
4.6339745962
 10
10.3019699595
 20
4.8327670346
 10
15.7823547172
 20
4.8327670346
 10
16.3019699595
 20
4.5327670346
 10
16.3019699595
 20
0.0
 10
0.0
 20
0.0
 10
0.0000010744
 20
4.6999989256
 10
0.2
 20
4.9
 10
4.037179677
 20
4.9
 10
4.3819237886
 20
4.7009618943
 42
0.1316524975873959
 10
5.1319237886
 20
4.5
 10
9.4576513561
 20
4.5
 42
0.1316524975873959
  0
LWPOLYLINE
  5
657
330
21F
100
AcDbEntity
  8
SK1
100
AcDbPolyline
 90
        4
 70
     1
 43
0.0
 10
-14.5
 20
-2.0
 10
-13.5
 20
-3.0
 10
-13.5
 20
3.0
 10
-14.5
 20
2.0
  0
LWPOLYLINE
  5
658
330
21F
100
AcDbEntity
  8
SK1
100
AcDbPolyline
 90
       10
 70
     0
 43
0.0
 10
-6.0
 20
2.725
 42
-0.414213562373095
 10
-6.4
 20
2.325
 10
-7.3593145751
 20
2.325
 42
-0.198912367379658
 10
-7.6421572875
 20
2.4421572875
 10
-8.2
 20
3.0
 10
-8.2
 20
-3.0
 10
-7.6421572875
 20
-2.4421572875
 42
-0.198912367379658
 10
-7.3593145751
 20
-2.325
 10
-6.4
 20
-2.325
 42
-0.414213562373095
 10
-6.0
 20
-2.725
  0
LWPOLYLINE
  5
659
330
21F
100
AcDbEntity
  8
SK1
100
AcDbPolyline
 90
        4
 70
     1
 43
0.0
 10
-6.0
 20
-3.0190598923
 10
-5.6
 20
-3.25
 10
-5.6
 20
3.25
 10
-6.0
 20
3.0190598923
  0
LWPOLYLINE
  5
65A
330
21F
100
AcDbEntity
  8
1
100
AcDbPolyline
 90
        8
 70
     0
 43
0.0
 10
0.2
 20
4.9
 10
4.037179677
 20
4.9
 10
4.037179677
 20
-4.9
 10
0.2
 20
-4.9
 10
0.0000010744
 20
-4.6999989256
 10
0.0
 20
4.7
 10
0.2000011201
 20
4.8999988799
 10
0.2
 20
-4.9
  0
LWPOLYLINE
  5
65B
330
21F
100
AcDbEntity
  8
1
100
AcDbPolyline
 90
       16
 70
     0
 43
0.0
 10
4.037179677
 20
4.9
 10
4.381923788599999
 20
4.700961894323342
 42
0.1316524975873959
 10
5.1319237886
 20
4.5
 10
9.4576513561
 20
4.5
 42
0.1316524975873959
 10
9.9576513561
 20
4.6339745962
 10
10.3019699595
 20
4.8327670346
 10
15.7823546572
 20
4.8327669306
 10
16.3019699595
 20
4.5327670346
 10
16.3019699032
 20
-4.5327669371
 10
15.7823547172
 20
-4.8327670346
 10
10.3019699595
 20
-4.8327670346
 10
9.9576513561
 20
-4.6339745962
 42
0.1316524975873959
 10
9.4576513561
 20
-4.5
 10
5.1319237886
 20
-4.5
 42
0.1316524975873958
 10
4.3819237886
 20
-4.700961894323342
 10
4.037179677
 20
-4.9
  0
LWPOLYLINE
  5
65C
330
21F
100
AcDbEntity
  8
SK1
100
AcDbPolyline
 90
        4
 70
     0
 43
0.0
 10
-5.6
 20
3.25
 10
-1.1990711605
 20
3.25
 10
-1.1990711605
 20
-3.25
 10
-5.6
 20
-3.25
  0
LWPOLYLINE
  5
65D
330
21F
100
AcDbEntity
  8
SK1
100
AcDbPolyline
 90
        5
 70
     0
 43
0.0
 10
0.0000657797444812
 20
-3.137802777397388
 42
0.1704583031644968
 10
-0.25
 20
-3.05
 10
-0.4
 20
-3.05
 42
0.0655434628152383
 10
-0.503527618
 20
-3.0636296695
 10
-1.1990711605
 20
-3.25
  0
LWPOLYLINE
  5
65E
330
21F
100
AcDbEntity
  8
SK1
100
AcDbPolyline
 90
        5
 70
     0
 43
0.0
 10
0.0000657797444811
 20
3.137802777397388
 42
-0.1704583031644968
 10
-0.25
 20
3.05
 10
-0.4
 20
3.05
 42
-0.0655434628152382
 10
-0.5035276180410083
 20
3.063629669484373
 10
-1.1990711605
 20
3.25
  0
LWPOLYLINE
  5
65F
330
21F
100
AcDbEntity
  8
SK3
 48
0.2
100
AcDbPolyline
 90
        8
 70
     1
 43
0.0
 10
15.7219699595
 20
1.7161705406
 10
15.7219699595
 20
-1.7161705406
 42
0.0692328220372294
 10
15.7523543607
 20
-1.9345551329
 10
16.27158555825775
 20
-3.764393148412127
 42
-0.0692328220372294
 10
16.3019699595
 20
-3.9827777407
 10
16.3019699595
 20
3.9827777407
 42
-0.0692328220372295
 10
16.2715855583
 20
3.7643931484
 10
15.7523543607
 20
1.9345551329
 42
0.0692328220372293
  0
LWPOLYLINE
  5
660
330
21F
100
AcDbEntity
  8
1
100
AcDbPolyline
 90
      325
 70
     1
 43
0.0
 10
16.806415
 20
-5.0
 10
16.806415
 20
-5.0
 10
16.719787
 20
-4.999949
 10
16.242491
 20
-5.000806
 10
16.120691
 20
-5.001226
 10
16.063695
 20
-5.001442
 10
16.009978
 20
-5.001656
 10
15.960136
 20
-5.001861
 10
15.735119
 20
-5.002828
 10
15.472183
 20
-5.00398
 10
14.927703
 20
-5.005971
 10
14.438766
 20
-5.007305
 10
13.975109
 20
-5.008049
 10
13.40365
 20
-5.008273
 10
12.954179
 20
-5.007815
 10
12.433607
 20
-5.006519
 10
11.829591
 20
-5.003923
 10
11.480966
 20
-5.001911
 10
11.46906
 20
-5.00195
 10
11.445614
 20
-5.002191
 10
11.368127
 20
-5.003539
 10
11.347375
 20
-5.003757
 10
11.327081
 20
-5.003832
 10
11.297522
 20
-5.00381
 10
11.288006
 20
-5.003739
 10
11.278706
 20
-5.003601
 10
11.269647
 20
-5.003383
 10
11.260827
 20
-5.003088
 10
11.252196
 20
-5.002727
 10
11.210964
 20
-5.000413
 10
11.202997
 20
-5.0
 10
11.1993818042
 20
-4.9997805224
 10
11.195773
 20
-4.999476
 10
11.1921433812
 20
-4.99908684
 10
11.188523
 20
-4.998619
 10
11.181276
 20
-4.997455
 10
11.174059
 20
-4.996009
 10
11.166899
 20
-4.994306
 10
11.159821
 20
-4.992383
 10
11.152878
 20
-4.99025
 10
11.146087
 20
-4.98788
 10
11.139441
 20
-4.985265
 10
11.132929
 20
-4.982403
 10
11.126544
 20
-4.979288
 10
11.120287
 20
-4.975918
 10
11.114225
 20
-4.972338
 10
11.108363
 20
-4.968566
 10
11.102693
 20
-4.964605
 10
11.097207
 20
-4.960452
 10
11.091894
 20
-4.956083
 10
11.086745
 20
-4.95147
 10
11.0842284073
 20
-4.9490601631
 10
11.081768
 20
-4.946593
 10
11.0793626732
 20
-4.9440641308
 10
11.077019
 20
-4.941478
 10
11.0747507268
 20
-4.9388484681
 10
11.072549
 20
-4.936163
 10
11.0704399492
 20
-4.9334525718
 10
11.068401
 20
-4.930689
 10
11.0664666596
 20
-4.9279211817
 10
11.064605
 20
-4.925104
 10
11.0628490476
 20
-4.9222881813
 10
11.061168
 20
-4.919427
 10
11.0595757672
 20
-4.9165447191
 10
11.058061
 20
-4.913621
 10
11.0566331049
 20
-4.910673676
 10
11.055285
 20
-4.907689
 10
11.0540214211
 20
-4.9046775755
 10
11.05284
 20
-4.901633
 10
11.051743013
 20
-4.8985598582
 10
10.926105
 20
-4.404655
 10
10.900441
 20
-4.305197
 10
10.874343
 20
-4.206128
 10
10.847616
 20
-4.107464
 10
10.820133
 20
-4.0097
 10
10.791709
 20
-3.913044
 10
10.762308
 20
-3.817883
 10
10.731905
 20
-3.724266
 10
10.700942
 20
-3.633103
 10
10.669648
 20
-3.544535
 10
10.638207
 20
-3.458741
 10
10.606858
 20
-3.37593
 10
10.575448
 20
-3.295254
 10
10.544185
 20
-3.216854
 10
10.513105
 20
-3.140315
 10
10.42124
 20
-2.916935
 10
10.391216
 20
-2.84318
 10
10.361214
 20
-2.768478
 10
10.33149
 20
-2.692962
 10
10.302764
 20
-2.615911
 10
10.276473
 20
-2.5372
 10
10.2645984746
 20
-2.4970153991
 10
10.253836
 20
-2.45652
 10
10.2441751017
 20
-2.4152338186
 10
10.235737
 20
-2.373679
 10
10.2284132716
 20
-2.3314738703
 10
10.222265
 20
-2.289082
 10
10.2172156425
 20
-2.2460661166
 10
10.213319
 20
-2.20293
 10
10.2105450655
 20
-2.1594957945
 10
10.208896
 20
-2.116006
 10
10.207615
 20
-2.067286
 10
10.195706
 20
-1.674249
 10
10.192688
 20
-1.561588
 10
10.191518
 20
-1.508745
 10
10.1915177903
 20
-1.504914929
 10
10.191674
 20
-1.501088
 10
10.1919839273
 20
-1.4972961002
 10
10.192448
 20
-1.49352
 10
10.1930643162
 20
-1.489773973
 10
10.193832
 20
-1.486056
 10
10.1947510884
 20
-1.4823636616
 10
10.195817
 20
-1.478711
 10
10.1970348168
 20
-1.4750797484
 10
10.198394
 20
-1.471499
 10
10.1999129855
 20
-1.4679225707
 10
10.201568
 20
-1.464407
 10
10.2033838719
 20
-1.460900498
 10
10.205329
 20
-1.457464
 10
10.2074262626
 20
-1.4540554464
 10
10.209644
 20
-1.450724
 10
10.2120011372
 20
-1.4474378385
 10
10.214469
 20
-1.444234
 10
10.217059941
 20
-1.4410923478
 10
10.219751
 20
-1.438036
 10
10.2225629452
 20
-1.4350374459
 10
10.225465
 20
-1.432126
 10
10.228492081
 20
-1.4292644334
 10
10.231601
 20
-1.426492
 10
10.2348389097
 20
-1.4237657093
 10
10.238151
 20
-1.42113
 10
10.2415964118
 20
-1.4185366338
 10
10.245109
 20
-1.416035
 10
10.2487573856
 20
-1.4135763074
 10
10.252467
 20
-1.411211
 10
10.2562995434
 20
-1.4088992297
 10
10.260187
 20
-1.406681
 10
10.2641968464
 20
-1.4045170053
 10
10.268256
 20
-1.402447
 10
10.2724408475
 20
-1.400432651
 10
10.27667
 20
-1.398513
 10
10.2810281768
 20
-1.3966496826
 10
10.285426
 20
-1.394882
 10
10.2899628049
 20
-1.3931715515
 10
10.294535
 20
-1.391558
 10
10.2992518174
 20
-1.390003667
 10
10.304
 20
-1.388548
 10
10.3088633664
 20
-1.3871666025
 10
10.313754
 20
-1.385885
 10
10.3187250584
 20
-1.3846887538
 10
10.323719
 20
-1.383592
 10
10.328757219
 20
-1.382589401
 10
10.333814
 20
-1.381685
 10
10.3388957864
 20
-1.3808762025
 10
10.343992
 20
-1.380164
 10
10.349128146
 20
-1.3795448268
 10
10.354275
 20
-1.379022
 10
10.359455471
 20
-1.3785929531
 10
10.364643
 20
-1.37826
 10
10.3698577455
 20
-1.378021967
 10
10.375076
 20
-1.37788
 10
10.3803145273
 20
-1.3778336168
 10
10.500047
 20
-1.379929
 10
10.528081
 20
-1.380214
 10
10.556314
 20
-1.380341
 10
10.584728
 20
-1.380322
 10
10.613313
 20
-1.380165
 10
10.642066
 20
-1.379875
 10
10.700101
 20
-1.378909
 10
10.758868
 20
-1.377446
 10
10.818339
 20
-1.375499
 10
10.878535
 20
-1.3731
 10
10.939438
 20
-1.370297
 10
11.001036
 20
-1.367139
 10
11.094732
 20
-1.361843
 10
11.222133
 20
-1.353956
 10
11.61343
 20
-1.328768
 10
12.004815
 20
-1.304366
 10
12.398408
 20
-1.280649
 10
12.695807
 20
-1.26323
 10
13.054053
 20
-1.242811
 10
13.431873
 20
-1.221926
 10
13.81441
 20
-1.201449
 10
14.187375
 20
-1.182115
 10
14.518112
 20
-1.165493
 10
14.945656
 20
-1.144744
 10
15.345327
 20
-1.126116
 10
15.761933
 20
-1.107506
 10
15.795773
 20
-1.106195
 10
15.85082
 20
-1.10436
 10
15.9435
 20
-1.101707
 10
15.962582
 20
-1.101257
 10
15.971867
 20
-1.101116
 10
15.980992
 20
-1.101045
 10
15.989991
 20
-1.101041
 10
15.9989
 20
-1.1011
 10
16.043129
 20
-1.101985
 10
16.05042
 20
-1.102266
 10
16.057748
 20
-1.102789
 10
16.065078
 20
-1.103537
 10
16.072376
 20
-1.104493
 10
16.07961
 20
-1.105638
 10
16.08675
 20
-1.106947
 10
16.093734
 20
-1.108413
 10
16.100543
 20
-1.110053
 10
16.107188
 20
-1.111873
 10
16.113685
 20
-1.113875
 10
16.120046
 20
-1.116063
 10
16.126277
 20
-1.118438
 10
16.132318
 20
-1.120972
 10
16.138164
 20
-1.123649
 10
16.143823
 20
-1.126466
 10
16.149303
 20
-1.129422
 10
16.154609
 20
-1.132533
 10
16.159747
 20
-1.135816
 10
16.164711
 20
-1.139287
 10
16.1671004375
 20
-1.1410801249
 10
16.169447
 20
-1.142929
 10
16.1717008511
 20
-1.1447954309
 10
16.173907
 20
-1.146718
 10
16.1760057646
 20
-1.1486451643
 10
16.178052
 20
-1.150628
 10
16.179978959
 20
-1.1526015058
 10
16.181849
 20
-1.154629
 10
16.1836002745
 20
-1.1566424444
 10
16.185291
 20
-1.158707
 10
16.1868802423
 20
-1.1607726351
 10
16.188404
 20
-1.162887
 10
16.1898290792
 20
-1.1650052185
 10
16.191184
 20
-1.167169
 10
16.1924437737
 20
-1.1693382041
 10
16.193629
 20
-1.171549
 10
16.212184
 20
-1.223823
 10
16.220582
 20
-1.249114
 10
16.230674
 20
-1.280016
 10
16.240782
 20
-1.311488
 10
16.252598
 20
-1.348887
 10
16.269197
 20
-1.402441
 10
16.292211
 20
-1.478471
 10
16.315943
 20
-1.558722
 10
16.340448
 20
-1.643096
 10
16.447351
 20
-2.01748
 10
16.506164
 20
-2.220546
 10
16.567533
 20
-2.428823
 10
16.630008
 20
-2.638143
 10
16.721875
 20
-2.943077
 10
16.837102
 20
-3.321935
 10
16.863594
 20
-3.409892
 10
16.888173
 20
-3.49456
 10
16.909951
 20
-3.575306
 10
16.928691
 20
-3.652871
 10
16.9442
 20
-3.726392
 10
16.956453
 20
-3.794663
 10
16.96581
 20
-3.857415
 10
16.972664
 20
-3.91466
 10
16.977368
 20
-3.966324
 10
16.978303
 20
-3.978792
 10
16.979169
 20
-3.991323
 10
16.979966
 20
-4.00392
 10
16.980698
 20
-4.016581
 10
16.981364
 20
-4.029313
 10
16.981968
 20
-4.042119
 10
16.982511
 20
-4.055004
 10
16.982996
 20
-4.067973
 10
16.983423
 20
-4.081032
 10
16.990171
 20
-4.336651
 10
16.995594
 20
-4.562677
 10
16.998864
 20
-4.723311
 10
17.000341
 20
-4.80899
 10
17.000344971
 20
-4.814069668
 10
17.000193
 20
-4.819147
 10
16.9998863252
 20
-4.8242153149
 10
16.999426
 20
-4.829272
 10
16.9988124587
 20
-4.8343183202
 10
16.998048
 20
-4.839344
 10
16.9971319428
 20
-4.8443581465
 10
16.996068
 20
-4.849343
 10
16.9948531564
 20
-4.8543137449
 10
16.993494
 20
-4.859247
 10
16.9919787477
 20
-4.8641843311
 10
16.990322
 20
-4.869076
 10
16.9885111351
 20
-4.8739577694
 10
16.986562
 20
-4.878786
 10
16.9844709048
 20
-4.8835721197
 10
16.982247
 20
-4.888298
 10
16.9798976092
 20
-4.8929529455
 10
16.977422
 20
-4.897542
 10
16.9748404845
 20
-4.9020327602
 10
16.97214
 20
-4.906453
 10
16.9693385636
 20
-4.9107773728
 10
16.966425
 20
-4.915027
 10
16.9634089427
 20
-4.919190395
 10
16.960287
 20
-4.923275
 10
16.9570617878
 20
-4.927279072
 10
16.953736
 20
-4.9312
 10
16.9503045958
 20
-4.9350435448
 10
16.946777
 20
-4.938799
 10
16.9431428151
 20
-4.9424769222
 10
16.939417
 20
-4.946062
 10
16.9356002967
 20
-4.9495540363
 10
16.931697
 20
-4.952949
 10
16.9277035266
 20
-4.9562494365
 10
16.923628
 20
-4.959448
 10
16.9194597664
 20
-4.9625519609
 10
16.915214
 20
-4.965549
 10
16.9108729997
 20
-4.9684501571
 10
16.906459
 20
-4.971239
 10
16.9019398721
 20
-4.9739333931
 10
16.897352
 20
-4.976509
 10
16.8926536721
 20
-4.9789860414
 10
16.887891
 20
-4.981337
 10
16.8830453371
 20
-4.9835690227
 10
16.878141
 20
-4.985669
 10
16.873187466
 20
-4.9876322429
 10
16.868182
 20
-4.989459
 10
16.8631601909
 20
-4.9911366061
 10
16.858094
 20
-4.992675
 10
16.8530277646
 20
-4.994061595
 10
16.847925
 20
-4.995307
 10
16.8428028999
 20
-4.9964064585
 10
16.837652
 20
-4.997362
 10
16.832483898
 20
-4.9981712024
 10
16.827295
 20
-4.998834
 10
16.8220917789
 20
-4.9993487265
 10
16.816876
 20
-4.999715
  0
LWPOLYLINE
  5
661
330
21F
100
AcDbEntity
  8
CUT
100
AcDbPolyline
 90
      286
 70
     0
 43
0.0
 10
11.048955
 20
4.889169
 10
11.0498000566
 20
4.8923254574
 10
11.05073
 20
4.895458
 10
11.05284
 20
4.901633
 10
11.0540214211
 20
4.9046775755
 10
11.055285
 20
4.907689
 10
11.058061
 20
4.913621
 10
11.0595757672
 20
4.9165447191
 10
11.061168
 20
4.919427
 10
11.064605
 20
4.925104
 10
11.0664666596
 20
4.9279211817
 10
11.068401
 20
4.930689
 10
11.072549
 20
4.936163
 10
11.0747507268
 20
4.9388484681
 10
11.077019
 20
4.941478
 10
11.081768
 20
4.946593
 10
11.0842284073
 20
4.9490601631
 10
11.091894
 20
4.956083
 10
11.102693
 20
4.964605
 10
11.114225
 20
4.972338
 10
11.126544
 20
4.979288
 10
11.139441
 20
4.985265
 10
11.152878
 20
4.99025
 10
11.166899
 20
4.994306
 10
11.181276
 20
4.997455
 10
11.1921433812
 20
4.99908684
 10
11.195773
 20
4.999476
 10
11.202997
 20
5.0
 10
11.202997
 20
5.0
 10
11.1921433812
 20
4.99908684
 10
11.181276
 20
4.997455
 10
11.166899
 20
4.994306
 10
11.152878
 20
4.99025
 10
11.139441
 20
4.985265
 10
11.126544
 20
4.979288
 10
11.114225
 20
4.972338
 10
11.102693
 20
4.964605
 10
11.091894
 20
4.956083
 10
11.081768
 20
4.946593
 10
11.072549
 20
4.936163
 10
11.064605
 20
4.925104
 10
11.058061
 20
4.913621
 10
11.05284
 20
4.901633
 10
11.048955
 20
4.889169
 10
10.926105
 20
4.404655
 10
10.900441
 20
4.305197
 10
10.874343
 20
4.206128
 10
10.847616
 20
4.107464
 10
10.820133
 20
4.0097
 10
10.791709
 20
3.913044
 10
10.762308
 20
3.817883
 10
10.731905
 20
3.724266
 10
10.700942
 20
3.633103
 10
10.669648
 20
3.544535
 10
10.638207
 20
3.458741
 10
10.606858
 20
3.37593
 10
10.575448
 20
3.295254
 10
10.544185
 20
3.216854
 10
10.513105
 20
3.140315
 10
10.391216
 20
2.84318
 10
10.361214
 20
2.768478
 10
10.33149
 20
2.692962
 10
10.302764
 20
2.615911
 10
10.276473
 20
2.5372
 10
10.2645984746
 20
2.4970153991
 10
10.253836
 20
2.45652
 10
10.2441751017
 20
2.4152338186
 10
10.235737
 20
2.373679
 10
10.2284132716
 20
2.3314738703
 10
10.222265
 20
2.289082
 10
10.2172156425
 20
2.2460661166
 10
10.213319
 20
2.20293
 10
10.2105450655
 20
2.1594957945
 10
10.208896
 20
2.116006
 10
10.204911
 20
1.972873
 10
10.196284
 20
1.693926
 10
10.193131
 20
1.579721
 10
10.191674
 20
1.501088
 10
10.1930643162
 20
1.489773973
 10
10.195817
 20
1.478711
 10
10.1999129855
 20
1.4679225707
 10
10.205329
 20
1.457464
 10
10.2120011372
 20
1.4474378385
 10
10.2225629452
 20
1.4350374459
 10
10.2348389097
 20
1.4237657093
 10
10.245109
 20
1.416035
 10
10.2562995434
 20
1.4088992297
 10
10.268256
 20
1.402447
 10
10.2810281768
 20
1.3966496826
 10
10.294535
 20
1.391558
 10
10.3088633664
 20
1.3871666025
 10
10.323719
 20
1.383592
 10
10.333814
 20
1.381685
 10
10.343992
 20
1.380164
 10
10.354275
 20
1.379022
 10
10.364643
 20
1.37826
 10
10.375076
 20
1.37788
 10
10.385553
 20
1.377883
 10
10.500047
 20
1.379929
 10
10.528081
 20
1.380214
 10
10.556314
 20
1.380341
 10
10.584728
 20
1.380322
 10
10.613313
 20
1.380165
 10
10.642066
 20
1.379875
 10
10.700101
 20
1.378909
 10
10.758868
 20
1.377446
 10
10.818339
 20
1.375499
 10
10.878535
 20
1.3731
 10
10.939438
 20
1.370297
 10
11.001036
 20
1.367139
 10
11.094732
 20
1.361843
 10
11.222133
 20
1.353956
 10
11.482777
 20
1.337096
 10
12.004815
 20
1.304366
 10
12.539565
 20
1.272331
 10
13.054053
 20
1.242811
 10
13.431873
 20
1.221926
 10
13.81441
 20
1.201449
 10
14.187375
 20
1.182115
 10
14.668297
 20
1.158109
 10
15.211418
 20
1.132274
 10
15.75056
 20
1.107991
 10
15.784547
 20
1.10661
 10
15.829044
 20
1.105052
 10
15.903522
 20
1.102818
 10
15.9435
 20
1.101707
 10
15.962582
 20
1.101257
 10
15.971867
 20
1.101116
 10
15.980992
 20
1.101045
 10
15.989991
 20
1.101041
 10
15.9989
 20
1.1011
 10
16.007751
 20
1.101219
 10
16.043129
 20
1.101985
 10
16.05042
 20
1.102266
 10
16.057748
 20
1.102789
 10
16.065078
 20
1.103537
 10
16.072376
 20
1.104493
 10
16.07961
 20
1.105638
 10
16.08675
 20
1.106947
 10
16.093734
 20
1.108413
 10
16.100543
 20
1.110053
 10
16.107188
 20
1.111873
 10
16.113685
 20
1.113875
 10
16.120046
 20
1.116063
 10
16.126277
 20
1.118438
 10
16.132318
 20
1.120972
 10
16.138164
 20
1.123649
 10
16.143823
 20
1.126466
 10
16.149303
 20
1.129422
 10
16.154609
 20
1.132533
 10
16.159747
 20
1.135816
 10
16.164711
 20
1.139287
 10
16.1671004375
 20
1.1410801249
 10
16.169447
 20
1.142929
 10
16.1717008511
 20
1.1447954309
 10
16.173907
 20
1.146718
 10
16.1760057646
 20
1.1486451643
 10
16.178052
 20
1.150628
 10
16.179978959
 20
1.1526015058
 10
16.181849
 20
1.154629
 10
16.1836002745
 20
1.1566424444
 10
16.185291
 20
1.158707
 10
16.1868802423
 20
1.1607726351
 10
16.188404
 20
1.162887
 10
16.1898290792
 20
1.1650052185
 10
16.191184
 20
1.167169
 10
16.1924437737
 20
1.1693382041
 10
16.193629
 20
1.171549
 10
16.212184
 20
1.223823
 10
16.220582
 20
1.249114
 10
16.230674
 20
1.280016
 10
16.240782
 20
1.311488
 10
16.252598
 20
1.348887
 10
16.269197
 20
1.402441
 10
16.292211
 20
1.478471
 10
16.315943
 20
1.558722
 10
16.340448
 20
1.643096
 10
16.447351
 20
2.01748
 10
16.506164
 20
2.220546
 10
16.567533
 20
2.428823
 10
16.630008
 20
2.638143
 10
16.721875
 20
2.943077
 10
16.809476
 20
3.231436
 10
16.837102
 20
3.321935
 10
16.863594
 20
3.409892
 10
16.888173
 20
3.49456
 10
16.909951
 20
3.575306
 10
16.928691
 20
3.652871
 10
16.9442
 20
3.726392
 10
16.956453
 20
3.794663
 10
16.96581
 20
3.857415
 10
16.972664
 20
3.91466
 10
16.977368
 20
3.966324
 10
16.978303
 20
3.978792
 10
16.979169
 20
3.991323
 10
16.979966
 20
4.00392
 10
16.980698
 20
4.016581
 10
16.981364
 20
4.029313
 10
16.981968
 20
4.042119
 10
16.982511
 20
4.055004
 10
16.982996
 20
4.067973
 10
16.983423
 20
4.081032
 10
16.990171
 20
4.336651
 10
16.997109
 20
4.633173
 10
17.000341
 20
4.80899
 10
17.000344971
 20
4.814069668
 10
17.000193
 20
4.819147
 10
16.9998863252
 20
4.8242153149
 10
16.999426
 20
4.829272
 10
16.9988124587
 20
4.8343183202
 10
16.998048
 20
4.839344
 10
16.9971319428
 20
4.8443581465
 10
16.996068
 20
4.849343
 10
16.9948531564
 20
4.8543137449
 10
16.993494
 20
4.859247
 10
16.9919787477
 20
4.8641843311
 10
16.990322
 20
4.869076
 10
16.9885111351
 20
4.8739577694
 10
16.986562
 20
4.878786
 10
16.9844709048
 20
4.8835721197
 10
16.982247
 20
4.888298
 10
16.9798976092
 20
4.8929529455
 10
16.977422
 20
4.897542
 10
16.9748404845
 20
4.9020327602
 10
16.97214
 20
4.906453
 10
16.9693385636
 20
4.9107773728
 10
16.966425
 20
4.915027
 10
16.9634089427
 20
4.919190395
 10
16.960287
 20
4.923275
 10
16.9570617878
 20
4.927279072
 10
16.953736
 20
4.9312
 10
16.9503045958
 20
4.9350435448
 10
16.946777
 20
4.938799
 10
16.9431428151
 20
4.9424769222
 10
16.939417
 20
4.946062
 10
16.9356002967
 20
4.9495540363
 10
16.931697
 20
4.952949
 10
16.9277035266
 20
4.9562494365
 10
16.923628
 20
4.959448
 10
16.9194597664
 20
4.9625519609
 10
16.915214
 20
4.965549
 10
16.9108729997
 20
4.9684501571
 10
16.906459
 20
4.971239
 10
16.9019398721
 20
4.9739333931
 10
16.897352
 20
4.976509
 10
16.8926536721
 20
4.9789860414
 10
16.887891
 20
4.981337
 10
16.8830453371
 20
4.9835690227
 10
16.878141
 20
4.985669
 10
16.873187466
 20
4.9876322429
 10
16.868182
 20
4.989459
 10
16.8631601909
 20
4.9911366061
 10
16.858094
 20
4.992675
 10
16.8530277646
 20
4.994061595
 10
16.847925
 20
4.995307
 10
16.8428028999
 20
4.9964064585
 10
16.837652
 20
4.997362
 10
16.832483898
 20
4.9981712024
 10
16.827295
 20
4.998834
 10
16.8220917789
 20
4.9993487265
 10
16.816876
 20
4.999715
 10
16.8116475473
 20
4.9999323952
 10
16.536412
 20
5.000092
 10
16.336141
 20
5.000526
 10
16.273484
 20
5.000709
 10
16.18085
 20
5.001011
 10
15.960136
 20
5.001861
 10
15.544718
 20
5.003668
 10
14.696359
 20
5.006661
 10
13.605932
 20
5.008292
 10
12.954179
 20
5.007815
 10
12.433607
 20
5.006519
 10
11.480966
 20
5.001911
 10
11.46906
 20
5.00195
 10
11.445614
 20
5.002191
 10
11.368127
 20
5.003539
 10
11.347375
 20
5.003757
 10
11.327081
 20
5.003832
 10
11.297522
 20
5.00381
 10
11.288006
 20
5.003739
 10
11.278706
 20
5.003601
 10
11.269647
 20
5.003383
 10
11.260827
 20
5.003088
 10
11.252196
 20
5.002727
 10
11.243718
 20
5.00231
 10
11.210964
 20
5.000413
  0
LWPOLYLINE
  5
662
330
21F
100
AcDbEntity
  8
1
100
AcDbPolyline
 90
       44
 70
     0
 43
0.0
 10
1.5
 20
0.0
 10
1.4917828431
 20
-0.1567926949
 10
1.4672214011
 20
-0.3118675362
 10
1.4265847744
 20
-0.4635254916
 10
1.3703181865
 20
-0.6101049646
 10
1.2990381057
 20
-0.75
 10
1.2135254916
 20
-0.8816778784
 10
1.1147172382
 20
-1.0036959095
 10
1.0036959095
 20
-1.1147172382
 10
0.8816778784
 20
-1.2135254916
 10
0.75
 20
-1.2990381057
 10
0.6101049646
 20
-1.3703181865
 10
0.4635254916
 20
-1.4265847744
 10
0.3118675362
 20
-1.4672214011
 10
0.1567926949
 20
-1.4917828431
 10
-0.0000000000000003
 20
-1.5
 42
0.414213562373095
 10
1.5
 20
0.0
 42
0.414213562373095
 10
0.0000000000000001
 20
1.5
 42
0.414213562373095
 10
-1.5
 20
0.0000000000000002
 42
0.414213562373095
 10
0.0
 20
-1.5
 10
0.0
 20
0.0
 10
1.5
 20
0.0
 42
-0.414213562373095
 10
-0.0000000000000003
 20
-1.5
 10
0.0
 20
0.0
 10
0.0
 20
1.5
 10
-0.1567926949
 20
1.4917828431
 10
-0.3118675362
 20
1.4672214011
 10
-0.4635254916
 20
1.4265847744
 10
-0.6101049646
 20
1.3703181865
 10
-0.75
 20
1.2990381057
 10
-0.8816778784
 20
1.2135254916
 10
-1.0036959095
 20
1.1147172382
 10
-1.1147172382
 20
1.0036959095
 10
-1.2135254916
 20
0.8816778784
 10
-1.2990381057
 20
0.75
 10
-1.3703181865
 20
0.6101049646
 10
-1.4265847744
 20
0.4635254916
 10
-1.4672214011
 20
0.3118675362
 10
-1.4917828431
 20
0.1567926949
 10
-1.5
 20
0.0
 10
0.0
 20
0.0
 10
1.5
 20
0.0
 10
0.0
 20
0.0
 10
-1.5
 20
0.0
  0
LWPOLYLINE
  5
663
330
21F
100
AcDbEntity
  8
1
100
AcDbPolyline
 90
        3
 70
     1
 43
0.0
 10
11.048955
 20
-4.889169
 10
11.0498000566
 20
-4.8923254574
 10
11.051743013
 20
-4.8985598582
  0
LWPOLYLINE
  5
664
330
21F
100
AcDbEntity
  8
1
100
AcDbPolyline
 90
        4
 70
     1
 43
0.0
 10
16.197501
 20
-1.1806
 10
16.1966597241
 20
-1.17829802
 10
16.195736
 20
-1.176028
 10
16.193629
 20
-1.171549
  0
LWPOLYLINE
  5
665
330
21F
100
AcDbEntity
  8
CUT
100
AcDbPolyline
 90
        4
 70
     1
 43
0.0
 10
16.197501
 20
1.1806
 10
16.1966597241
 20
1.17829802
 10
16.195736
 20
1.176028
 10
16.193629
 20
1.171549
  0
LWPOLYLINE
  5
666
330
21F
100
AcDbEntity
  8
CUT
100
AcDbPolyline
 90
       39
 70
     0
 43
0.0
 10
10.385553
 20
1.377883
 10
10.375076
 20
1.37788
 10
10.364643
 20
1.37826
 10
10.354275
 20
1.379022
 10
10.343992
 20
1.380164
 10
10.333814
 20
1.381685
 10
10.323719
 20
1.383592
 10
10.3187250584
 20
1.3846887538
 10
10.3088633664
 20
1.3871666025
 10
10.304
 20
1.388548
 10
10.294535
 20
1.391558
 10
10.2899628049
 20
1.3931715515
 10
10.2810281768
 20
1.3966496826
 10
10.27667
 20
1.398513
 10
10.268256
 20
1.402447
 10
10.2641968464
 20
1.4045170053
 10
10.2562995434
 20
1.4088992297
 10
10.252467
 20
1.411211
 10
10.245109
 20
1.416035
 10
10.2415964118
 20
1.4185366338
 10
10.2348389097
 20
1.4237657093
 10
10.231601
 20
1.426492
 10
10.228492081
 20
1.4292644334
 10
10.2225629452
 20
1.4350374459
 10
10.219751
 20
1.438036
 10
10.217059941
 20
1.4410923478
 10
10.2120011372
 20
1.4474378385
 10
10.209644
 20
1.450724
 10
10.205329
 20
1.457464
 10
10.2033838719
 20
1.460900498
 10
10.1999129855
 20
1.4679225707
 10
10.198394
 20
1.471499
 10
10.195817
 20
1.478711
 10
10.1947510884
 20
1.4823636616
 10
10.1930643162
 20
1.489773973
 10
10.192448
 20
1.49352
 10
10.191674
 20
1.501088
 10
10.191518
 20
1.508745
 10
10.1915177903
 20
1.504914929
  0
LWPOLYLINE
  5
667
330
21F
100
AcDbEntity
  8
1
100
AcDbPolyline
 90
        3
 70
     0
 43
0.0
 10
0.0
 20
1.5
 10
0.0
 20
0.0
 10
0.0
 20
-1.5
  0
ENDSEC
  0
SECTION
  2
OBJECTS
  0
DICTIONARY
  5
C
330
0
100
AcDbDictionary
281
     1
  3
ACAD_GROUP
350
D
  3
ACAD_LAYOUT
350
1A
  3
ACAD_MLEADERSTYLE
350
37B
  3
ACAD_MLINESTYLE
350
17
  3
ACAD_PLOTSETTINGS
350
19
  3
ACAD_PLOTSTYLENAME
350
E
  3
ACAD_TABLESTYLE
350
37A
  0
DICTIONARY
  5
D
102
{ACAD_REACTORS
330
C
102
}
330
C
100
AcDbDictionary
281
     1
  0
DICTIONARY
  5
1A
102
{ACAD_REACTORS
330
C
102
}
330
C
100
AcDbDictionary
281
     1
  3
Layout1
350
365
  3
Model
350
364
  0
DICTIONARY
  5
37B
102
{ACAD_REACTORS
330
C
102
}
330
C
100
AcDbDictionary
281
     1
  0
DICTIONARY
  5
17
102
{ACAD_REACTORS
330
C
102
}
330
C
100
AcDbDictionary
281
     1
  3
Standard
350
18
  0
DICTIONARY
  5
19
102
{ACAD_REACTORS
330
C
102
}
330
C
100
AcDbDictionary
281
     1
  0
ACDBDICTIONARYWDFLT
  5
E
102
{ACAD_REACTORS
330
C
102
}
330
C
100
AcDbDictionary
281
     1
  3
Normal
350
F
100
AcDbDictionaryWithDefault
340
F
  0
DICTIONARY
  5
37A
102
{ACAD_REACTORS
330
C
102
}
330
C
100
AcDbDictionary
281
     1
  0
LAYOUT
  5
365
102
{ACAD_REACTORS
330
1A
102
}
330
1A
100
AcDbPlotSettings
  1

  2
none_device
  4
ISO_A2_(594.00_x_420.00_MM)
  6

 40
0.0
 41
0.0
 42
0.0
 43
0.0
 44
594.0
 45
420.0
 46
0.0
 47
0.0
 48
0.0
 49
0.0
140
0.0
141
0.0
142
1.0
143
1.0
 70
     0
 72
     1
 73
     0
 74
     0
  7

 75
     0
147
1.0
148
0.0
149
0.0
100
AcDbLayout
  1
Layout1
 70
     0
 71
     1
 10
0.0
 20
0.0
 11
594.0
 21
420.0
 12
0.0
 22
0.0
 32
0.0
 14
0.0
 24
0.0
 34
0.0
 15
0.0
 25
0.0
 35
0.0
146
0.0
 13
0.0
 23
0.0
 33
0.0
 16
1.0
 26
0.0
 36
0.0
 17
0.0
 27
1.0
 37
0.0
 76
     0
330
220
  0
LAYOUT
  5
364
102
{ACAD_REACTORS
330
1A
102
}
330
1A
100
AcDbPlotSettings
  1

  2
none_device
  4
ISO_A2_(594.00_x_420.00_MM)
  6

 40
0.0
 41
0.0
 42
0.0
 43
0.0
 44
594.0
 45
420.0
 46
0.0
 47
0.0
 48
0.0
 49
0.0
140
0.0
141
0.0
142
1.0
143
1.0
 70
  1024
 72
     1
 73
     0
 74
     0
  7

 75
     0
147
1.0
148
0.0
149
0.0
100
AcDbLayout
  1
Model
 70
     0
 71
     0
 10
0.0
 20
0.0
 11
594.0
 21
420.0
 12
0.0
 22
0.0
 32
0.0
 14
0.0
 24
0.0
 34
0.0
 15
0.0
 25
0.0
 35
0.0
146
0.0
 13
0.0
 23
0.0
 33
0.0
 16
1.0
 26
0.0
 36
0.0
 17
0.0
 27
1.0
 37
0.0
 76
     0
330
21F
331
1F4
  0
MLINESTYLE
  5
18
102
{ACAD_REACTORS
330
17
102
}
330
17
100
AcDbMlineStyle
  2
STANDARD
 70
     0
  3

 62
   256
 51
90.0
 52
90.0
 71
     2
 49
0.5
 62
   256
  6
BYLAYER
 49
-0.5
 62
   256
  6
BYLAYER
  0
ACDBPLACEHOLDER
  5
F
102
{ACAD_REACTORS
330
E
102
}
330
E
  0
ENDSEC
  0
EOF
