  0
SECTION
  2
HEADER
  9
$ACADVER
  1
AC1015
  9
$ACADMAINTVER
 70
    20
  9
$DWGCODEPAGE
  3
ANSI_1252
  9
$INSBASE
 10
0.0
 20
0.0
 30
0.0
  9
$EXTMIN
 10
-17.26046142767768
 20
-24.06987260091705
 30
-0.0000000000112498
  9
$EXTMAX
 10
55.85057152056333
 20
17.85290203175736
 30
0.0000000000002956
  9
$LIMMIN
 10
0.0
 20
0.0
  9
$LIMMAX
 10
594.0
 20
420.0
  9
$ORTHOMODE
 70
     0
  9
$REGENMODE
 70
     1
  9
$FILLMODE
 70
     1
  9
$QTEXTMODE
 70
     0
  9
$MIRRTEXT
 70
     0
  9
$LTSCALE
 40
32.67
  9
$ATTMODE
 70
     1
  9
$TEXTSIZE
 40
0.2
  9
$TRACEWID
 40
0.05
  9
$TEXTSTYLE
  7
STANDARD
  9
$CLAYER
  8
0
  9
$CELTYPE
  6
BYLAYER
  9
$CECOLOR
 62
   256
  9
$CELTSCALE
 40
1.0
  9
$DISPSILH
 70
     0
  9
$DIMSCALE
 40
1.0
  9
$DIMASZ
 40
2.5
  9
$DIMEXO
 40
0.625
  9
$DIMDLI
 40
3.75
  9
$DIMRND
 40
0.0
  9
$DIMDLE
 40
0.0
  9
$DIMEXE
 40
1.25
  9
$DIMTP
 40
0.0
  9
$DIMTM
 40
0.0
  9
$DIMTXT
 40
2.5
  9
$DIMCEN
 40
2.5
  9
$DIMTSZ
 40
0.0
  9
$DIMTOL
 70
     0
  9
$DIMLIM
 70
     0
  9
$DIMTIH
 70
     0
  9
$DIMTOH
 70
     0
  9
$DIMSE1
 70
     0
  9
$DIMSE2
 70
     0
  9
$DIMTAD
 70
     1
  9
$DIMZIN
 70
     8
  9
$DIMBLK
  1

  9
$DIMASO
 70
     1
  9
$DIMSHO
 70
     1
  9
$DIMPOST
  1

  9
$DIMAPOST
  1

  9
$DIMALT
 70
     0
  9
$DIMALTD
 70
     3
  9
$DIMALTF
 40
0.03937007874016
  9
$DIMLFAC
 40
1.0
  9
$DIMTOFL
 70
     1
  9
$DIMTVP
 40
0.0
  9
$DIMTIX
 70
     0
  9
$DIMSOXD
 70
     0
  9
$DIMSAH
 70
     0
  9
$DIMBLK1
  1

  9
$DIMBLK2
  1

  9
$DIMSTYLE
  2
ISO-25
  9
$DIMCLRD
 70
     0
  9
$DIMCLRE
 70
     0
  9
$DIMCLRT
 70
     0
  9
$DIMTFAC
 40
1.0
  9
$DIMGAP
 40
0.625
  9
$DIMJUST
 70
     0
  9
$DIMSD1
 70
     0
  9
$DIMSD2
 70
     0
  9
$DIMTOLJ
 70
     0
  9
$DIMTZIN
 70
     8
  9
$DIMALTZ
 70
     0
  9
$DIMALTTZ
 70
     0
  9
$DIMUPT
 70
     0
  9
$DIMDEC
 70
     2
  9
$DIMTDEC
 70
     2
  9
$DIMALTU
 70
     2
  9
$DIMALTTD
 70
     3
  9
$DIMTXSTY
  7
STANDARD
  9
$DIMAUNIT
 70
     0
  9
$DIMADEC
 70
     0
  9
$DIMALTRND
 40
0.0
  9
$DIMAZIN
 70
     0
  9
$DIMDSEP
 70
    44
  9
$DIMATFIT
 70
     3
  9
$DIMFRAC
 70
     0
  9
$DIMLDRBLK
  1

  9
$DIMLUNIT
 70
     2
  9
$DIMLWD
 70
    -2
  9
$DIMLWE
 70
    -2
  9
$DIMTMOVE
 70
     0
  9
$LUNITS
 70
     2
  9
$LUPREC
 70
     4
  9
$SKETCHINC
 40
0.1
  9
$FILLETRAD
 40
0.0
  9
$AUNITS
 70
     0
  9
$AUPREC
 70
     0
  9
$MENU
  1
.
  9
$ELEVATION
 40
0.0
  9
$PELEVATION
 40
0.0
  9
$THICKNESS
 40
0.0
  9
$LIMCHECK
 70
     0
  9
$CHAMFERA
 40
0.0
  9
$CHAMFERB
 40
0.0
  9
$CHAMFERC
 40
0.0
  9
$CHAMFERD
 40
0.0
  9
$SKPOLY
 70
     0
  9
$TDCREATE
 40
2454208.463163253
  9
$TDUCREATE
 40
2454208.379829919
  9
$TDUPDATE
 40
2454209.613996702
  9
$TDUUPDATE
 40
2454209.530663368
  9
$TDINDWG
 40
0.9700041782
  9
$TDUSRTIMER
 40
0.9700039931
  9
$USRTIMER
 70
     1
  9
$ANGBASE
 50
0.0
  9
$ANGDIR
 70
     0
  9
$PDMODE
 70
     3
  9
$PDSIZE
 40
0.3125
  9
$PLINEWID
 40
0.0
  9
$SPLFRAME
 70
     0
  9
$SPLINETYPE
 70
     6
  9
$SPLINESEGS
 70
     8
  9
$HANDSEED
  5
1E6D
  9
$SURFTAB1
 70
     6
  9
$SURFTAB2
 70
     6
  9
$SURFTYPE
 70
     6
  9
$SURFU
 70
     6
  9
$SURFV
 70
     6
  9
$UCSBASE
  2

  9
$UCSNAME
  2

  9
$UCSORG
 10
0.0
 20
0.0
 30
0.0
  9
$UCSXDIR
 10
1.0
 20
0.0
 30
0.0
  9
$UCSYDIR
 10
0.0
 20
1.0
 30
0.0
  9
$UCSORTHOREF
  2

  9
$UCSORTHOVIEW
 70
     0
  9
$UCSORGTOP
 10
0.0
 20
0.0
 30
0.0
  9
$UCSORGBOTTOM
 10
0.0
 20
0.0
 30
0.0
  9
$UCSORGLEFT
 10
0.0
 20
0.0
 30
0.0
  9
$UCSORGRIGHT
 10
0.0
 20
0.0
 30
0.0
  9
$UCSORGFRONT
 10
0.0
 20
0.0
 30
0.0
  9
$UCSORGBACK
 10
0.0
 20
0.0
 30
0.0
  9
$PUCSBASE
  2

  9
$PUCSNAME
  2

  9
$PUCSORG
 10
0.0
 20
0.0
 30
0.0
  9
$PUCSXDIR
 10
1.0
 20
0.0
 30
0.0
  9
$PUCSYDIR
 10
0.0
 20
1.0
 30
0.0
  9
$PUCSORTHOREF
  2

  9
$PUCSORTHOVIEW
 70
     0
  9
$PUCSORGTOP
 10
0.0
 20
0.0
 30
0.0
  9
$PUCSORGBOTTOM
 10
0.0
 20
0.0
 30
0.0
  9
$PUCSORGLEFT
 10
0.0
 20
0.0
 30
0.0
  9
$PUCSORGRIGHT
 10
0.0
 20
0.0
 30
0.0
  9
$PUCSORGFRONT
 10
0.0
 20
0.0
 30
0.0
  9
$PUCSORGBACK
 10
0.0
 20
0.0
 30
0.0
  9
$USERI1
 70
     0
  9
$USERI2
 70
     0
  9
$USERI3
 70
     0
  9
$USERI4
 70
     0
  9
$USERI5
 70
     0
  9
$USERR1
 40
0.0
  9
$USERR2
 40
0.0
  9
$USERR3
 40
0.0
  9
$USERR4
 40
0.0
  9
$USERR5
 40
0.0
  9
$WORLDVIEW
 70
     1
  9
$SHADEDGE
 70
     3
  9
$SHADEDIF
 70
    70
  9
$TILEMODE
 70
     1
  9
$MAXACTVP
 70
    64
  9
$PINSBASE
 10
0.0
 20
0.0
 30
0.0
  9
$PLIMCHECK
 70
     0
  9
$PEXTMIN
 10
1.000000000000000E+20
 20
1.000000000000000E+20
 30
1.000000000000000E+20
  9
$PEXTMAX
 10
-1.000000000000000E+20
 20
-1.000000000000000E+20
 30
-1.000000000000000E+20
  9
$PLIMMIN
 10
0.0
 20
0.0
  9
$PLIMMAX
 10
12.0
 20
9.0
  9
$UNITMODE
 70
     0
  9
$VISRETAIN
 70
     1
  9
$PLINEGEN
 70
     0
  9
$PSLTSCALE
 70
     1
  9
$TREEDEPTH
 70
  3020
  9
$CMLSTYLE
  2
STANDARD
  9
$CMLJUST
 70
     0
  9
$CMLSCALE
 40
1.0
  9
$PROXYGRAPHICS
 70
     1
  9
$MEASUREMENT
 70
     1
  9
$CELWEIGHT
370
    -1
  9
$ENDCAPS
280
     0
  9
$JOINSTYLE
280
     0
  9
$LWDISPLAY
290
     0
  9
$INSUNITS
 70
     0
  9
$HYPERLINKBASE
  1

  9
$STYLESHEET
  1

  9
$XEDIT
290
     1
  9
$CEPSNTYPE
380
     0
  9
$PSTYLEMODE
290
     1
  9
$FINGERPRINTGUID
  2
{6206891C-D737-40DC-87A6-D952E8016DD2}
  9
$VERSIONGUID
  2
{153285BF-02E4-422F-8391-05CDA58AF242}
  9
$EXTNAMES
290
     1
  9
$PSVPSCALE
 40
0.0
  9
$OLESTARTUP
290
     0
  0
ENDSEC
  0
SECTION
  2
CLASSES
  0
CLASS
  1
ACDBDICTIONARYWDFLT
  2
AcDbDictionaryWithDefault
  3
ObjectDBX Classes
 90
        0
280
     0
281
     0
  0
CLASS
  1
TABLESTYLE
  2
AcDbTableStyle
  3
ObjectDBX Classes
 90
     2047
280
     0
281
     0
  0
CLASS
  1
SORTENTSTABLE
  2
AcDbSortentsTable
  3
ObjectDBX Classes
 90
        0
280
     0
281
     0
  0
CLASS
  1
DICTIONARYVAR
  2
AcDbDictionaryVar
  3
ObjectDBX Classes
 90
        0
280
     0
281
     0
  0
CLASS
  1
ACDBPLACEHOLDER
  2
AcDbPlaceHolder
  3
ObjectDBX Classes
 90
        0
280
     0
281
     0
  0
CLASS
  1
LAYOUT
  2
AcDbLayout
  3
ObjectDBX Classes
 90
        0
280
     0
281
     0
  0
ENDSEC
  0
SECTION
  2
TABLES
  0
TABLE
  2
VPORT
  5
8
330
0
100
AcDbSymbolTable
 70
     7
  0
VPORT
  5
1E67
330
8
100
AcDbSymbolTableRecord
100
AcDbViewportTableRecord
  2
*Active
 70
     0
 10
0.0
 20
0.0
 11
1.0
 21
1.0
 12
19.29505504644282
 22
-3.108485284579842
 13
0.0
 23
0.0
 14
1.0
 24
1.0
 15
0.0
 25
0.0
 16
0.0
 26
0.0
 36
1.0
 17
0.0
 27
0.0
 37
0.0
 40
48.52632506066077
 41
1.514429109159347
 42
50.0
 43
0.0
 44
0.0
 50
0.0
 51
0.0
 71
     0
 72
   100
 73
     1
 74
     1
 75
     0
 76
     0
 77
     0
 78
     0
281
     0
 65
     1
110
0.0
120
0.0
130
0.0
111
1.0
121
0.0
131
0.0
112
0.0
122
1.0
132
0.0
 79
     0
146
0.0
  0
ENDTAB
  0
TABLE
  2
LTYPE
  5
5
330
0
100
AcDbSymbolTable
 70
     2
  0
LTYPE
  5
14
330
5
100
AcDbSymbolTableRecord
100
AcDbLinetypeTableRecord
  2
BYBLOCK
 70
     0
  3

 72
    65
 73
     0
 40
0.0
  0
LTYPE
  5
15
330
5
100
AcDbSymbolTableRecord
100
AcDbLinetypeTableRecord
  2
BYLAYER
 70
     0
  3

 72
    65
 73
     0
 40
0.0
  0
LTYPE
  5
16
330
5
100
AcDbSymbolTableRecord
100
AcDbLinetypeTableRecord
  2
CONTINUOUS
 70
     0
  3
Solid line
 72
    65
 73
     0
 40
0.0
  0
LTYPE
  5
1B04
330
5
100
AcDbSymbolTableRecord
100
AcDbLinetypeTableRecord
  2
CENTER
 70
     0
  3
____ _ ____ _ ____ _ ____ _ ____ _ ____ _ ____
 72
    65
 73
     4
 40
0.6
 49
0.375
 74
     0
 49
-0.075
 74
     0
 49
0.075
 74
     0
 49
-0.075
 74
     0
  0
ENDTAB
  0
TABLE
  2
LAYER
  5
2
330
0
100
AcDbSymbolTable
 70
    11
  0
LAYER
  5
10
330
2
100
AcDbSymbolTableRecord
100
AcDbLayerTableRecord
  2
0
 70
     0
 62
     7
  6
CONTINUOUS
370
    -3
390
1167
  0
LAYER
  5
1171
330
2
100
AcDbSymbolTableRecord
100
AcDbLayerTableRecord
  2
Defpoints
 70
     0
 62
     7
  6
CONTINUOUS
290
     0
370
    -3
390
1167
  0
LAYER
  5
1B06
330
2
100
AcDbSymbolTableRecord
100
AcDbLayerTableRecord
  2
SK1
 70
     0
 62
     4
  6
CONTINUOUS
370
    -3
390
1167
  0
LAYER
  5
1B07
330
2
100
AcDbSymbolTableRecord
100
AcDbLayerTableRecord
  2
1
 70
     0
 62
     4
  6
CONTINUOUS
370
    -3
390
1167
  0
LAYER
  5
1B08
330
2
100
AcDbSymbolTableRecord
100
AcDbLayerTableRecord
  2
2
 70
     0
 62
     7
  6
CONTINUOUS
370
    -3
390
1167
  0
LAYER
  5
1B09
330
2
100
AcDbSymbolTableRecord
100
AcDbLayerTableRecord
  2
4
 70
     0
 62
     2
  6
CENTER
370
    -3
390
1167
  0
LAYER
  5
1B0A
330
2
100
AcDbSymbolTableRecord
100
AcDbLayerTableRecord
  2
SK4
 70
     0
 62
     2
  6
CENTER
370
    -3
390
1167
  0
LAYER
  5
1B0B
330
2
100
AcDbSymbolTableRecord
100
AcDbLayerTableRecord
  2
6
 70
     0
 62
     5
  6
CONTINUOUS
370
    -3
390
1167
  0
LAYER
  5
1B0C
330
2
100
AcDbSymbolTableRecord
100
AcDbLayerTableRecord
  2
CUT
 70
     0
 62
     1
  6
CONTINUOUS
370
    -3
390
1167
  0
LAYER
  5
1B0D
330
2
100
AcDbSymbolTableRecord
100
AcDbLayerTableRecord
  2
NOCUT
 70
     0
 62
     7
  6
CONTINUOUS
370
    -3
390
1167
  0
LAYER
  5
1B0E
330
2
100
AcDbSymbolTableRecord
100
AcDbLayerTableRecord
  2
SK2
 70
     0
 62
     7
  6
CONTINUOUS
370
    -3
390
1167
  0
ENDTAB
  0
TABLE
  2
STYLE
  5
3
330
0
100
AcDbSymbolTable
 70
     1
  0
STYLE
  5
11
330
3
100
AcDbSymbolTableRecord
100
AcDbTextStyleTableRecord
  2
STANDARD
 70
     0
 40
0.0
 41
0.8
 50
0.0
 71
     0
 42
0.2
  3
isocp.shx
  4

  0
ENDTAB
  0
TABLE
  2
VIEW
  5
6
330
0
100
AcDbSymbolTable
 70
     0
  0
ENDTAB
  0
TABLE
  2
UCS
  5
7
330
0
100
AcDbSymbolTable
 70
     0
  0
ENDTAB
  0
TABLE
  2
APPID
  5
9
330
0
100
AcDbSymbolTable
 70
     1
  0
APPID
  5
32E
330
9
100
AcDbSymbolTableRecord
100
AcDbRegAppTableRecord
  2
ACAD
 70
     0
  0
ENDTAB
  0
TABLE
  2
DIMSTYLE
  5
A
330
0
100
AcDbSymbolTable
 70
     2
100
AcDbDimStyleTable
 71
     1
340
11D9
  0
DIMSTYLE
105
351
330
A
100
AcDbSymbolTableRecord
100
AcDbDimStyleTableRecord
  2
STANDARD
 70
     0
 41
2.5
 47
0.01
 48
0.01
 71
     1
 73
     0
 74
     0
 77
     1
 78
     8
140
3.5
178
     5
271
     3
272
     3
284
     8
340
11
341
32F
342
32F
343
32F
344
32F
  0
DIMSTYLE
105
11D9
102
{ACAD_REACTORS
330
1C6E
330
1C6F
330
1C70
330
1E3E
102
}
330
A
100
AcDbSymbolTableRecord
100
AcDbDimStyleTableRecord
  2
ISO-25
 70
     0
 41
2.5
 42
0.625
 43
3.75
 44
1.25
 73
     0
 74
     0
 77
     1
 78
     8
140
2.5
141
2.5
143
0.03937007874016
147
0.625
171
     3
172
     1
271
     2
272
     2
274
     3
278
    44
283
     0
284
     8
340
11
  0
ENDTAB
  0
TABLE
  2
BLOCK_RECORD
  5
1
330
0
100
AcDbSymbolTable
 70
     8
  0
BLOCK_RECORD
  5
1F
102
{ACAD_XDICTIONARY
360
17F9
102
}
330
1
100
AcDbSymbolTableRecord
100
AcDbBlockTableRecord
  2
*MODEL_SPACE
340
116E
  0
BLOCK_RECORD
  5
1B
330
1
100
AcDbSymbolTableRecord
100
AcDbBlockTableRecord
  2
*PAPER_SPACE
340
116F
  0
BLOCK_RECORD
  5
32F
330
1
100
AcDbSymbolTableRecord
100
AcDbBlockTableRecord
  2
_ARROW_FILLED
340
0
  0
BLOCK_RECORD
  5
1AF5
330
1
100
AcDbSymbolTableRecord
100
AcDbBlockTableRecord
  2
nullp
340
0
310
2800000020000000200000000100080000000000000400000000000000000000000000000000000000000000000080000080000000808000800000008000800080800000C0C0C000C0DCC000F0CAA6000020400000206000002080000020A0000020C0000020E00000400000004020000040400000406000004080000040A0
310
000040C0000040E00000600000006020000060400000606000006080000060A0000060C0000060E00000800000008020000080400000806000008080000080A0000080C0000080E00000A0000000A0200000A0400000A0600000A0800000A0A00000A0C00000A0E00000C0000000C0200000C0400000C0600000C0800000C0
310
A00000C0C00000C0E00000E0000000E0200000E0400000E0600000E0800000E0A00000E0C00000E0E00040000000400020004000400040006000400080004000A0004000C0004000E00040200000402020004020400040206000402080004020A0004020C0004020E000404000004040200040404000404060004040800040
310
40A0004040C0004040E00040600000406020004060400040606000406080004060A0004060C0004060E00040800000408020004080400040806000408080004080A0004080C0004080E00040A0000040A0200040A0400040A0600040A0800040A0A00040A0C00040A0E00040C0000040C0200040C0400040C0600040C08000
310
40C0A00040C0C00040C0E00040E0000040E0200040E0400040E0600040E0800040E0A00040E0C00040E0E00080000000800020008000400080006000800080008000A0008000C0008000E00080200000802020008020400080206000802080008020A0008020C0008020E00080400000804020008040400080406000804080
310
008040A0008040C0008040E00080600000806020008060400080606000806080008060A0008060C0008060E00080800000808020008080400080806000808080008080A0008080C0008080E00080A0000080A0200080A0400080A0600080A0800080A0A00080A0C00080A0E00080C0000080C0200080C0400080C0600080C0
310
800080C0A00080C0C00080C0E00080E0000080E0200080E0400080E0600080E0800080E0A00080E0C00080E0E000C0000000C0002000C0004000C0006000C0008000C000A000C000C000C000E000C0200000C0202000C0204000C0206000C0208000C020A000C020C000C020E000C0400000C0402000C0404000C0406000C0
310
408000C040A000C040C000C040E000C0600000C0602000C0604000C0606000C0608000C060A000C060C000C060E000C0800000C0802000C0804000C0806000C0808000C080A000C080C000C080E000C0A00000C0A02000C0A04000C0A06000C0A08000C0A0A000C0A0C000C0A0E000C0C00000C0C02000C0C04000C0C06000
310
C0C08000C0C0A000F0FBFF00A4A0A000808080000000FF0000FF000000FFFF00FF000000FF00FF00FFFF0000FFFFFF0000000000000000000000000000000000000000000000000000000000000000000000000000000000000000000000FEFEFE00000000000000000000000000000000000000000000000000FEFEFEFEFE
310
FEFEFEFE000000000000000000000000000000000000000000FEFEFEFEFEFEFEFEFE0000FEFE000000000000000000000000000000000000FEFEFEFEFEFEFEFEFEFE00000000FEFE00000000000000000000000000000000FEFEFEFEFEFEFEFEFEFE000000000000FEFE00000000000000000000000000FEFEFEFEFEFEFEFE
310
FEFEFE0000000000000000FEFE00000000000000000000FEFEFEFEFEFEFEFEFEFEFEFE000000000000000000FE000000000000000000FEFEFEFEFEFEFEFEFEFEFEFEFE00000000000000000000FE00000000000000FEFEFEFEFEFEFEFEFEFEFEFEFEFE00000000000000000000FE000000000000FEFEFEFEFEFEFEFEFEFEFE
310
FEFEFEFE0000000000000000000000FE0000000000FEFEFEFEFEFEFEFEFEFEFEFEFEFEFE0000000000000000000000FE0000000000FEFEFEFEFEFEFEFEFEFEFEFEFEFEFE0000000000000000000000FE00000000FEFEFEFEFEFEFEFEFEFEFEFEFEFEFEFE000000000000000000000000FE000000FEFEFEFEFEFEFEFEFEFEFE
310
FEFEFEFEFE000000000000000000000000FE000000FEFEFEFEFEFEFEFEFEFEFEFEFEFEFEFE00000000000000000000000000FE0000FEFEFEFEFEFEFEFEFEFEFEFEFEFEFEFEFEFEFEFEFEFEFEFEFEFEFEFEFEFE000000FE000000000000000000000000FEFEFEFEFEFEFEFEFEFEFEFEFEFEFEFE000000FE0000000000000000
310
00000000FEFEFEFEFEFEFEFEFEFEFEFEFEFEFEFE000000FE000000000000000000000000FEFEFEFEFEFEFEFEFEFEFEFEFEFEFE00000000FE000000000000000000000000FEFEFEFEFEFEFEFEFEFEFEFEFEFEFE0000000000FE0000000000000000000000FEFEFEFEFEFEFEFEFEFEFEFEFEFEFE000000000000FE0000000000
310
0000000000FEFEFEFEFEFEFEFEFEFEFEFEFEFE00000000000000FE00000000000000000000FEFEFEFEFEFEFEFEFEFEFEFEFE000000000000000000FE000000000000000000FEFEFEFEFEFEFEFEFEFEFEFE0000000000000000000000FE0000000000000000FEFEFEFEFEFEFEFEFEFEFEFE000000000000000000000000FE00
310
000000000000FEFEFEFEFEFEFEFEFEFEFE00000000000000000000000000FE00000000000000FEFEFEFEFEFEFEFEFE00000000000000000000000000000000FEFEFEFEFE0000FEFEFEFEFEFEFEFE00000000000000000000000000000000000000000000FEFEFEFEFEFEFEFEFE000000000000000000000000000000000000
310
00000000000000FEFEFEFE000000000000000000000000000000000000000000000000000000000000000000000000000000000000000000
102
{BLKREFS
331
1DC5
102
}
  0
BLOCK_RECORD
  5
1AFE
330
1
100
AcDbSymbolTableRecord
100
AcDbBlockTableRecord
  2
nullp1
340
0
310
2800000020000000200000000100080000000000000400000000000000000000000000000000000000000000000080000080000000808000800000008000800080800000C0C0C000C0DCC000F0CAA6000020400000206000002080000020A0000020C0000020E00000400000004020000040400000406000004080000040A0
310
000040C0000040E00000600000006020000060400000606000006080000060A0000060C0000060E00000800000008020000080400000806000008080000080A0000080C0000080E00000A0000000A0200000A0400000A0600000A0800000A0A00000A0C00000A0E00000C0000000C0200000C0400000C0600000C0800000C0
310
A00000C0C00000C0E00000E0000000E0200000E0400000E0600000E0800000E0A00000E0C00000E0E00040000000400020004000400040006000400080004000A0004000C0004000E00040200000402020004020400040206000402080004020A0004020C0004020E000404000004040200040404000404060004040800040
310
40A0004040C0004040E00040600000406020004060400040606000406080004060A0004060C0004060E00040800000408020004080400040806000408080004080A0004080C0004080E00040A0000040A0200040A0400040A0600040A0800040A0A00040A0C00040A0E00040C0000040C0200040C0400040C0600040C08000
310
40C0A00040C0C00040C0E00040E0000040E0200040E0400040E0600040E0800040E0A00040E0C00040E0E00080000000800020008000400080006000800080008000A0008000C0008000E00080200000802020008020400080206000802080008020A0008020C0008020E00080400000804020008040400080406000804080
310
008040A0008040C0008040E00080600000806020008060400080606000806080008060A0008060C0008060E00080800000808020008080400080806000808080008080A0008080C0008080E00080A0000080A0200080A0400080A0600080A0800080A0A00080A0C00080A0E00080C0000080C0200080C0400080C0600080C0
310
800080C0A00080C0C00080C0E00080E0000080E0200080E0400080E0600080E0800080E0A00080E0C00080E0E000C0000000C0002000C0004000C0006000C0008000C000A000C000C000C000E000C0200000C0202000C0204000C0206000C0208000C020A000C020C000C020E000C0400000C0402000C0404000C0406000C0
310
408000C040A000C040C000C040E000C0600000C0602000C0604000C0606000C0608000C060A000C060C000C060E000C0800000C0802000C0804000C0806000C0808000C080A000C080C000C080E000C0A00000C0A02000C0A04000C0A06000C0A08000C0A0A000C0A0C000C0A0E000C0C00000C0C02000C0C04000C0C06000
310
C0C08000C0C0A000F0FBFF00A4A0A000808080000000FF0000FF000000FFFF00FF000000FF00FF00FFFF0000FFFFFF00000000000000000000000000000000000000000000000000000000000000000000000000000000000000000000000000FE0000000000000000000000000000000000000000000000000000000000FE
310
FEFEFEFE000000000000000000000000000000000000000000FEFEFEFEFEFE0000FE0000FEFE000000000000000000000000000000000000FE0000000000000000FE00000000FEFE00000000000000000000000000000000FE0000000000000000FE000000000000FEFE00000000000000000000000000FE00000000000000
310
0000FE0000000000000000FEFE00000000000000000000FE00000000000000000000FE000000000000000000FE000000000000000000FE0000000000000000000000FE00000000000000000000FE0000000000000000FE0000000000000000000000FE00000000000000000000FE00000000000000FE000000000000000000
310
000000FE0000000000000000000000FE0000000000FE00000000000000000000000000FE0000000000000000000000FE0000000000FE00000000000000000000000000FE0000000000000000000000FE0000000000FE00000000000000000000000000FE000000000000000000000000FE00000000FE000000000000000000
310
00000000FE000000000000000000000000FE00000000FE00000000000000000000000000FE00000000000000000000000000FE0000FEFEFEFEFEFEFEFEFEFEFEFEFEFEFEFEFEFEFEFEFEFEFEFEFEFEFEFEFEFE000000FE00000000000000000000000000FE00000000000000000000000000FE000000FE0000000000000000
310
0000000000FE000000000000000000000000FE00000000FE00000000000000000000000000FE000000000000000000000000FE00000000FE00000000000000000000000000FE0000000000000000000000FE000000000000FE000000000000000000000000FE0000000000000000000000FE00000000000000FE0000000000
310
000000000000FE00000000000000000000FE0000000000000000FE0000000000000000000000FE00000000000000000000FE000000000000000000FE00000000000000000000FE000000000000000000FE0000000000000000000000FE000000000000000000FE000000000000000000FE000000000000000000000000FE00
310
00000000000000FE00000000000000FEFE00000000000000000000000000FE0000000000000000FE0000000000FEFE00000000000000000000000000000000FEFEFEFEFE000000FE000000FEFE0000000000000000000000000000000000000000000000FEFEFEFEFEFEFE0000000000000000000000000000000000000000
310
0000000000000000FE0000000000000000000000000000000000000000000000000000000000000000000000000000000000000000000000
102
{BLKREFS
331
1DC6
102
}
  0
BLOCK_RECORD
  5
1DC7
330
1
100
AcDbSymbolTableRecord
100
AcDbBlockTableRecord
  2
*D3
340
0
  0
BLOCK_RECORD
  5
1DD3
330
1
100
AcDbSymbolTableRecord
100
AcDbBlockTableRecord
  2
*D4
340
0
  0
BLOCK_RECORD
  5
1DDF
330
1
100
AcDbSymbolTableRecord
100
AcDbBlockTableRecord
  2
*D5
340
0
  0
BLOCK_RECORD
  5
1E32
330
1
100
AcDbSymbolTableRecord
100
AcDbBlockTableRecord
  2
*D6
340
0
  0
BLOCK_RECORD
  5
1E3F
330
1
100
AcDbSymbolTableRecord
100
AcDbBlockTableRecord
  2
*D7
340
0
  0
ENDTAB
  0
ENDSEC
  0
SECTION
  2
BLOCKS
  0
BLOCK
  5
20
330
1F
100
AcDbEntity
  8
0
100
AcDbBlockBegin
  2
*MODEL_SPACE
 70
     0
 10
0.0
 20
0.0
 30
0.0
  3
*MODEL_SPACE
  1

  0
ENDBLK
  5
21
330
1F
100
AcDbEntity
  8
0
100
AcDbBlockEnd
  0
BLOCK
  5
1C
330
1B
100
AcDbEntity
 67
     1
  8
0
100
AcDbBlockBegin
  2
*PAPER_SPACE
 70
     0
 10
0.0
 20
0.0
 30
0.0
  3
*PAPER_SPACE
  1

  0
ENDBLK
  5
1D
330
1B
100
AcDbEntity
 67
     1
  8
0
100
AcDbBlockEnd
  0
BLOCK
  5
8DF
330
32F
100
AcDbEntity
  8
0
100
AcDbBlockBegin
  2
_ARROW_FILLED
 70
     0
 10
0.0
 20
0.0
 30
0.0
  3
_ARROW_FILLED
  1

  0
SOLID
  5
8E0
330
32F
100
AcDbEntity
  8
0
  6
ByBlock
 62
     0
100
AcDbTrace
 10
0.0
 20
0.0
 30
0.0
 11
-1.0
 21
0.132
 31
0.0
 12
-1.0
 22
-0.132
 32
0.0
 13
-1.0
 23
-0.132
 33
0.0
  0
ENDBLK
  5
8E1
330
32F
100
AcDbEntity
  8
0
  6
ByBlock
 62
     0
100
AcDbBlockEnd
  0
BLOCK
  5
1AF6
330
1AF5
100
AcDbEntity
  8
0
100
AcDbBlockBegin
  2
nullp
 70
     0
 10
0.0
 20
0.0
 30
0.0
  3
nullp
  1

  0
HATCH
  5
1AF7
330
1AF5
100
AcDbEntity
  8
1
100
AcDbHatch
 10
0.0
 20
0.0
 30
0.0
210
0.0
220
0.0
230
1.0
  2
SOLID
 70
     1
 71
     0
 91
        2
 92
        7
 72
     1
 73
     1
 93
        3
 10
271.9386450411704
 20
389.8959796344513
 42
0.0
 10
274.8896170952829
 20
389.8959796344513
 42
0.4142135623730966
 10
271.9386450411704
 20
392.8469516885638
 42
0.0
 97
        0
 92
        7
 72
     1
 73
     1
 93
        3
 10
271.9386450411704
 20
386.9450075803387
 42
0.0
 10
271.9386450411704
 20
389.8959796344513
 42
0.0
 10
268.9876729870576
 20
389.8959796344513
 42
0.4142135623730966
 97
        0
 75
     0
 76
     1
 47
0.1190009775223266
 98
        2
 10
272.6831980999823
 20
390.8172041078278
 10
270.6591804393174
 20
388.1991827114049
  0
LWPOLYLINE
  5
1AF8
330
1AF5
100
AcDbEntity
  8
1
100
AcDbPolyline
 90
        3
 70
     1
 43
0.0
 10
271.9386450411702
 20
389.8959796344513
 10
268.9876729870576
 20
389.8959796344513
 42
0.4142135623730966
 10
271.9386450411702
 20
386.9450075803387
  0
LINE
  5
1AF9
330
1AF5
100
AcDbEntity
  8
1
100
AcDbLine
 10
271.9386450411702
 20
392.8469516885638
 30
0.0
 11
271.9386450411702
 21
386.9450075803387
 31
0.0
  0
LWPOLYLINE
  5
1AFA
330
1AF5
100
AcDbEntity
  8
1
100
AcDbPolyline
 90
        3
 70
     1
 43
0.0
 10
271.9386450411702
 20
392.8469516885638
 10
271.9386450411702
 20
389.8959796344513
 10
274.8896170952829
 20
389.8959796344513
 42
0.4142135623730966
  0
LINE
  5
1AFB
330
1AF5
100
AcDbEntity
  8
1
100
AcDbLine
 10
268.9876729870575
 20
389.8959796344513
 30
0.0
 11
274.8896170952828
 21
389.8959796344513
 31
0.0
  0
CIRCLE
  5
1AFC
330
1AF5
100
AcDbEntity
  8
1
100
AcDbCircle
 10
271.9386450411704
 20
389.8959796344513
 30
0.0
 40
2.950972054112601
  0
ENDBLK
  5
1AFD
330
1AF5
100
AcDbEntity
  8
0
100
AcDbBlockEnd
  0
BLOCK
  5
1AFF
330
1AFE
100
AcDbEntity
  8
0
100
AcDbBlockBegin
  2
nullp1
 70
     0
 10
0.0
 20
0.0
 30
0.0
  3
nullp1
  1

  0
LINE
  5
1B00
330
1AFE
100
AcDbEntity
  8
1
100
AcDbLine
 10
442.6007601796219
 20
432.5849634019313
 30
0.0
 11
443.5282989193195
 21
432.5849634019313
 31
0.0
  0
CIRCLE
  5
1B01
330
1AFE
100
AcDbEntity
  8
1
100
AcDbCircle
 10
443.0645295494706
 20
432.5849634019313
 30
0.0
 40
0.463769369848821
  0
LINE
  5
1B02
330
1AFE
100
AcDbEntity
  8
1
100
AcDbLine
 10
443.0645295494706
 20
433.0487327717801
 30
0.0
 11
443.0645295494706
 21
432.1211940320826
 31
0.0
  0
ENDBLK
  5
1B03
330
1AFE
100
AcDbEntity
  8
0
100
AcDbBlockEnd
  0
BLOCK
  5
1DD1
330
1DC7
100
AcDbEntity
  8
0
100
AcDbBlockBegin
  2
*D3
 70
     1
 10
0.0
 20
0.0
 30
0.0
  3
*D3
  1

  0
LINE
  5
1E0A
330
1DC7
100
AcDbEntity
  8
2
 62
     0
370
    -2
100
AcDbLine
 10
16.0
 20
-4.592392465185355
 30
0.0
 11
16.0
 21
15.66084382519432
 31
0.0
  0
LINE
  5
1E0B
330
1DC7
100
AcDbEntity
  8
2
 62
     0
370
    -2
100
AcDbLine
 10
0.0
 20
6.45791469951007
 30
0.0
 11
0.0000000000000006
 21
15.66084382519432
 31
0.0
  0
LINE
  5
1E0C
330
1DC7
100
AcDbEntity
  8
2
 62
     0
370
    -2
100
AcDbLine
 10
13.5
 20
14.41084382519432
 30
0.0
 11
2.5
 21
14.41084382519432
 31
0.0
  0
SOLID
  5
1E0D
330
1DC7
100
AcDbEntity
  8
2
 62
     0
100
AcDbTrace
 10
13.5
 20
14.82751049186098
 30
0.0
 11
13.5
 21
13.99417715852765
 31
0.0
 12
16.0
 22
14.41084382519432
 32
0.0
 13
16.0
 23
14.41084382519432
 33
0.0
  0
SOLID
  5
1E0E
330
1DC7
100
AcDbEntity
  8
2
 62
     0
100
AcDbTrace
 10
2.5
 20
14.82751049186098
 30
0.0
 11
2.5
 21
13.99417715852765
 31
0.0
 12
0.0000000000000005
 22
14.41084382519432
 32
0.0
 13
0.0000000000000005
 23
14.41084382519432
 33
0.0
  0
MTEXT
  5
1E0F
330
1DC7
100
AcDbEntity
  8
2
 62
     0
100
AcDbMText
 10
8.0
 20
16.28584382519432
 30
0.0
 40
2.5
 41
0.0
 71
     5
 72
     1
  1
16
 73
     1
 44
1.0
1001
ACAD
1000
MTEXTBEGIN
1070
    73
1070
     1
1070
    44
1040
1.0
1070
    74
1070
     0
1000
MTEXTEND
  0
POINT
  5
1E10
330
1DC7
100
AcDbEntity
  8
Defpoints
 62
     0
100
AcDbPoint
 10
16.0
 20
-5.217392465185355
 30
0.0
  0
POINT
  5
1E11
330
1DC7
100
AcDbEntity
  8
Defpoints
 62
     0
100
AcDbPoint
 10
0.0
 20
5.83291469951007
 30
0.0
  0
POINT
  5
1E12
330
1DC7
100
AcDbEntity
  8
Defpoints
 62
     0
100
AcDbPoint
 10
0.0000000000000005
 20
14.41084382519432
 30
0.0
  0
ENDBLK
  5
1DD2
330
1DC7
100
AcDbEntity
  8
0
100
AcDbBlockEnd
  0
BLOCK
  5
1DDD
330
1DD3
100
AcDbEntity
  8
0
100
AcDbBlockBegin
  2
*D4
 70
     1
 10
0.0
 20
0.0
 30
0.0
  3
*D4
  1

  0
LINE
  5
1E13
330
1DD3
100
AcDbEntity
  8
2
 62
     0
370
    -2
100
AcDbLine
 10
17.125
 20
-5.0
 30
0.0
 11
25.44938938728009
 21
-5.000000000000001
 31
0.0
  0
LINE
  5
1E14
330
1DD3
100
AcDbEntity
  8
2
 62
     0
370
    -2
100
AcDbLine
 10
17.125
 20
5.0
 30
0.0
 11
25.44938938728009
 21
4.999999999999997
 31
0.0
  0
LINE
  5
1E15
330
1DD3
100
AcDbEntity
  8
2
 62
     0
370
    -2
100
AcDbLine
 10
24.19938938728009
 20
-2.500000000000002
 30
0.0
 11
24.19938938728009
 21
2.499999999999996
 31
0.0
  0
SOLID
  5
1E16
330
1DD3
100
AcDbEntity
  8
2
 62
     0
100
AcDbTrace
 10
23.78272272061343
 20
-2.500000000000002
 30
0.0
 11
24.61605605394676
 21
-2.500000000000002
 31
0.0
 12
24.19938938728009
 22
-5.000000000000001
 32
0.0
 13
24.19938938728009
 23
-5.000000000000001
 33
0.0
  0
SOLID
  5
1E17
330
1DD3
100
AcDbEntity
  8
2
 62
     0
100
AcDbTrace
 10
23.78272272061343
 20
2.499999999999996
 30
0.0
 11
24.61605605394676
 21
2.499999999999996
 31
0.0
 12
24.19938938728009
 22
4.999999999999997
 32
0.0
 13
24.19938938728009
 23
4.999999999999997
 33
0.0
  0
MTEXT
  5
1E18
330
1DD3
100
AcDbEntity
  8
2
 62
     0
100
AcDbMText
 10
22.32438938728009
 20
0.4164963635556094
 30
0.0
 40
2.5
 41
0.0
 71
     5
 72
     1
  1
%%c10
 11
0.0000000000000001
 21
1.0
 31
0.0
 73
     1
 44
1.0
1001
ACAD
1000
MTEXTBEGIN
1070
    73
1070
     1
1070
    44
1040
1.0
1070
    74
1070
     0
1000
MTEXTEND
  0
POINT
  5
1E19
330
1DD3
100
AcDbEntity
  8
Defpoints
 62
     0
100
AcDbPoint
 10
16.5
 20
-5.0
 30
0.0
  0
POINT
  5
1E1A
330
1DD3
100
AcDbEntity
  8
Defpoints
 62
     0
100
AcDbPoint
 10
16.5
 20
5.0
 30
0.0
  0
POINT
  5
1E1B
330
1DD3
100
AcDbEntity
  8
Defpoints
 62
     0
100
AcDbPoint
 10
24.19938938728009
 20
4.999999999999997
 30
0.0
  0
ENDBLK
  5
1DDE
330
1DD3
100
AcDbEntity
  8
0
100
AcDbBlockEnd
  0
BLOCK
  5
1DEB
330
1DDF
100
AcDbEntity
  8
0
100
AcDbBlockBegin
  2
*D5
 70
     1
 10
0.0
 20
0.0
 30
0.0
  3
*D5
  1

  0
LINE
  5
1E1C
330
1DDF
100
AcDbEntity
  8
SK2
 62
     0
370
    -2
100
AcDbLine
 10
-7.375
 20
3.099999999999965
 30
0.0
 11
-15.35955300390006
 21
3.099999999999968
 31
0.0
  0
LINE
  5
1E1D
330
1DDF
100
AcDbEntity
  8
SK2
 62
     0
370
    -2
100
AcDbLine
 10
-7.425000008099972
 20
-3.100000000000021
 30
0.0
 11
-15.35955300390006
 21
-3.10000000000002
 31
0.0
  0
LINE
  5
1E1E
330
1DDF
100
AcDbEntity
  8
SK2
 62
     0
370
    -2
100
AcDbLine
 10
-14.10955300390006
 20
5.599999999999967
 30
0.0
 11
-14.10955300390006
 21
8.099999999999969
 31
0.0
  0
LINE
  5
1E1F
330
1DDF
100
AcDbEntity
  8
SK2
 62
     0
370
    -2
100
AcDbLine
 10
-14.10955300390006
 20
-5.600000000000019
 30
0.0
 11
-14.10955300390006
 21
-8.100000000000019
 31
0.0
  0
LINE
  5
1E20
330
1DDF
100
AcDbEntity
  8
SK2
 62
     0
370
    -2
100
AcDbLine
 10
-14.10955300390006
 20
3.099999999999968
 30
0.0
 11
-14.10955300390006
 21
-3.10000000000002
 31
0.0
  0
SOLID
  5
1E21
330
1DDF
100
AcDbEntity
  8
SK2
 62
     0
100
AcDbTrace
 10
-14.52621967056672
 20
5.599999999999967
 30
0.0
 11
-13.69288633723339
 21
5.599999999999966
 31
0.0
 12
-14.10955300390006
 22
3.099999999999968
 32
0.0
 13
-14.10955300390006
 23
3.099999999999968
 33
0.0
  0
SOLID
  5
1E22
330
1DDF
100
AcDbEntity
  8
SK2
 62
     0
100
AcDbTrace
 10
-14.52621967056673
 20
-5.600000000000019
 30
0.0
 11
-13.69288633723339
 21
-5.600000000000019
 31
0.0
 12
-14.10955300390006
 22
-3.10000000000002
 32
0.0
 13
-14.10955300390006
 23
-3.10000000000002
 33
0.0
  0
MTEXT
  5
1E23
330
1DDF
100
AcDbEntity
  8
SK2
 62
     0
100
AcDbMText
 10
-15.98455300390006
 20
-0.0000000000000282
 30
0.0
 40
2.5
 41
0.0
 71
     5
 72
     1
  1
TS6
 11
0.0000000000000001
 21
1.0
 31
0.0
 73
     1
 44
1.0
1001
ACAD
1000
MTEXTBEGIN
1070
    73
1070
     1
1070
    44
1040
1.0
1070
    74
1070
     0
1000
MTEXTEND
  0
POINT
  5
1E24
330
1DDF
100
AcDbEntity
  8
Defpoints
 62
     0
100
AcDbPoint
 10
-6.75
 20
3.099999999999965
 30
0.0
  0
POINT
  5
1E25
330
1DDF
100
AcDbEntity
  8
Defpoints
 62
     0
100
AcDbPoint
 10
-6.800000008099972
 20
-3.100000000000021
 30
0.0
  0
POINT
  5
1E26
330
1DDF
100
AcDbEntity
  8
Defpoints
 62
     0
100
AcDbPoint
 10
-14.10955300390006
 20
-3.10000000000002
 30
0.0
  0
ENDBLK
  5
1DEC
330
1DDF
100
AcDbEntity
  8
0
100
AcDbBlockEnd
  0
BLOCK
  5
1E3C
330
1E32
100
AcDbEntity
  8
0
100
AcDbBlockBegin
  2
*D6
 70
     1
 10
0.0
 20
0.0
 30
0.0
  3
*D6
  1

  0
LINE
  5
1E33
330
1E32
100
AcDbEntity
  8
0
 62
     0
370
    -2
100
AcDbLine
 10
16.0
 20
-5.625
 30
0.0
 11
16.0
 21
-11.82153749527637
 31
0.0
  0
LINE
  5
1E34
330
1E32
100
AcDbEntity
  8
0
 62
     0
370
    -2
100
AcDbLine
 10
8.5743889679093
 20
-5.624999999999999
 30
0.0
 11
8.5743889679093
 21
-11.82153749527637
 31
0.0
  0
LINE
  5
1E35
330
1E32
100
AcDbEntity
  8
0
 62
     0
370
    -2
100
AcDbLine
 10
13.5
 20
-10.57153749527637
 30
0.0
 11
11.0743889679093
 21
-10.57153749527637
 31
0.0
  0
SOLID
  5
1E36
330
1E32
100
AcDbEntity
  8
0
 62
     0
100
AcDbTrace
 10
13.5
 20
-10.15487082860971
 30
0.0
 11
13.5
 21
-10.98820416194304
 31
0.0
 12
16.0
 22
-10.57153749527637
 32
0.0
 13
16.0
 23
-10.57153749527637
 33
0.0
  0
SOLID
  5
1E37
330
1E32
100
AcDbEntity
  8
0
 62
     0
100
AcDbTrace
 10
11.0743889679093
 20
-10.15487082860971
 30
0.0
 11
11.0743889679093
 21
-10.98820416194304
 31
0.0
 12
8.5743889679093
 22
-10.57153749527637
 32
0.0
 13
8.5743889679093
 23
-10.57153749527637
 33
0.0
  0
MTEXT
  5
1E38
330
1E32
100
AcDbEntity
  8
0
 62
     0
100
AcDbMText
 10
12.28719448395465
 20
-8.509037495276373
 30
0.0
 40
2.5
 41
0.0
 71
     5
 72
     1
  1
7,43
 73
     1
 44
1.0
1001
ACAD
1000
MTEXTBEGIN
1070
    73
1070
     1
1070
    44
1040
1.0
1070
    74
1070
     0
1000
MTEXTEND
  0
POINT
  5
1E39
330
1E32
100
AcDbEntity
  8
Defpoints
 62
     0
100
AcDbPoint
 10
16.0
 20
-5.0
 30
0.0
  0
POINT
  5
1E3A
330
1E32
100
AcDbEntity
  8
Defpoints
 62
     0
100
AcDbPoint
 10
8.5743889679093
 20
-4.999999999999999
 30
0.0
  0
POINT
  5
1E3B
330
1E32
100
AcDbEntity
  8
Defpoints
 62
     0
100
AcDbPoint
 10
8.5743889679093
 20
-10.57153749527637
 30
0.0
  0
ENDBLK
  5
1E3D
330
1E32
100
AcDbEntity
  8
0
100
AcDbBlockEnd
  0
BLOCK
  5
1E4B
330
1E3F
100
AcDbEntity
  8
0
100
AcDbBlockBegin
  2
*D7
 70
     1
 10
0.0
 20
0.0
 30
0.0
  3
*D7
  1

  0
LINE
  5
1E54
330
1E3F
100
AcDbEntity
  8
2
 62
     0
370
    -2
100
AcDbLine
 10
16.0
 20
-5.625
 30
0.0
 11
16.0
 21
-15.07316974034916
 31
0.0
  0
LINE
  5
1E55
330
1E3F
100
AcDbEntity
  8
2
 62
     0
370
    -2
100
AcDbLine
 10
10.3
 20
-5.624999999999999
 30
0.0
 11
10.3
 21
-15.07316974034916
 31
0.0
  0
LINE
  5
1E56
330
1E3F
100
AcDbEntity
  8
2
 62
     0
370
    -2
100
AcDbLine
 10
18.5
 20
-13.82316974034916
 30
0.0
 11
21.0
 21
-13.82316974034916
 31
0.0
  0
LINE
  5
1E57
330
1E3F
100
AcDbEntity
  8
2
 62
     0
370
    -2
100
AcDbLine
 10
7.8
 20
-13.82316974034916
 30
0.0
 11
5.3
 21
-13.82316974034916
 31
0.0
  0
LINE
  5
1E58
330
1E3F
100
AcDbEntity
  8
2
 62
     0
370
    -2
100
AcDbLine
 10
16.0
 20
-13.82316974034916
 30
0.0
 11
10.3
 21
-13.82316974034916
 31
0.0
  0
SOLID
  5
1E59
330
1E3F
100
AcDbEntity
  8
2
 62
     0
100
AcDbTrace
 10
18.5
 20
-13.40650307368249
 30
0.0
 11
18.5
 21
-14.23983640701582
 31
0.0
 12
16.0
 22
-13.82316974034916
 32
0.0
 13
16.0
 23
-13.82316974034916
 33
0.0
  0
SOLID
  5
1E5A
330
1E3F
100
AcDbEntity
  8
2
 62
     0
100
AcDbTrace
 10
7.8
 20
-13.40650307368249
 30
0.0
 11
7.8
 21
-14.23983640701582
 31
0.0
 12
10.3
 22
-13.82316974034916
 32
0.0
 13
10.3
 23
-13.82316974034916
 33
0.0
  0
MTEXT
  5
1E5B
330
1E3F
100
AcDbEntity
  8
2
 62
     0
100
AcDbMText
 10
13.15
 20
-11.76066974034916
 30
0.0
 40
2.5
 41
0.0
 71
     5
 72
     1
  1
5,7
 73
     1
 44
1.0
1001
ACAD
1000
MTEXTBEGIN
1070
    73
1070
     1
1070
    44
1040
1.0
1070
    74
1070
     0
1000
MTEXTEND
  0
POINT
  5
1E5C
330
1E3F
100
AcDbEntity
  8
Defpoints
 62
     0
100
AcDbPoint
 10
16.0
 20
-5.0
 30
0.0
  0
POINT
  5
1E5D
330
1E3F
100
AcDbEntity
  8
Defpoints
 62
     0
100
AcDbPoint
 10
10.3
 20
-4.999999999999999
 30
0.0
  0
POINT
  5
1E5E
330
1E3F
100
AcDbEntity
  8
Defpoints
 62
     0
100
AcDbPoint
 10
10.3
 20
-13.82316974034916
 30
0.0
  0
ENDBLK
  5
1E4C
330
1E3F
100
AcDbEntity
  8
0
100
AcDbBlockEnd
  0
ENDSEC
  0
SECTION
  2
ENTITIES
  0
DIMENSION
  5
1C6E
330
1F
100
AcDbEntity
  8
2
100
AcDbDimension
  2
*D3
 10
0.0000000000000005
 20
14.41084382519432
 30
0.0
 11
8.0
 21
14.41084382519432
 31
0.0
 70
   160
 71
     5
 42
16.0
  3
ISO-25
100
AcDbAlignedDimension
 13
16.0
 23
-5.217392465185355
 33
0.0
 14
0.0
 24
5.83291469951007
 34
0.0
 50
180.0
100
AcDbRotatedDimension
  0
DIMENSION
  5
1C6F
330
1F
100
AcDbEntity
  8
2
100
AcDbDimension
  2
*D4
 10
24.19938938728009
 20
4.999999999999997
 30
0.0
 11
24.19938938728009
 21
0.4164963635556093
 31
0.0
 70
   160
  1
%%c<>
 71
     5
 42
10.0
  3
ISO-25
100
AcDbAlignedDimension
 13
16.5
 23
-5.0
 33
0.0
 14
16.5
 24
5.0
 34
0.0
 50
90.0
100
AcDbRotatedDimension
  0
DIMENSION
  5
1C70
330
1F
100
AcDbEntity
  8
SK2
100
AcDbDimension
  2
*D5
 10
-14.10955300390006
 20
-3.10000000000002
 30
0.0
 11
-14.10955300390006
 21
-0.0000000000000284
 31
0.0
 70
   160
  1
TS6
 71
     5
 42
6.199999999999986
  3
ISO-25
100
AcDbAlignedDimension
 13
-6.75
 23
3.099999999999965
 33
0.0
 14
-6.800000008099972
 24
-3.100000000000021
 34
0.0
 50
270.0
100
AcDbRotatedDimension
  0
TEXT
  5
1C71
330
1F
100
AcDbEntity
  8
6
100
AcDbText
 10
-16.34871010874331
 20
-24.02403876858557
 30
0.0
 40
3.5
  1
12J1D010016T6R00
 41
1.199999999999999
 72
     1
 11
5.912943434563741
 21
-24.02403876858557
 31
0.0
100
AcDbText
  0
LWPOLYLINE
  5
1C72
330
1F
100
AcDbEntity
  8
CUT
100
AcDbPolyline
 90
      339
 70
     1
 43
0.0
 10
15.97830242340001
 20
-3.978791999999998
 10
15.97916842340001
 20
-3.991323000000022
 10
15.97996542339999
 20
-4.003919999999993
 10
15.98069742339999
 20
-4.016581000000029
 10
15.98136342340001
 20
-4.029313000000001
 10
15.98196742339999
 20
-4.042119000000012
 10
15.98251042339998
 20
-4.055003999999995
 10
15.98299542340001
 20
-4.067972999999993
 10
15.98342242339998
 20
-4.081031999999993
 10
15.98881642340001
 20
-4.283535000000028
 10
15.99332642339999
 20
-4.464878999999996
 10
15.9966224234
 20
-4.609948000000031
 10
15.99886342339999
 20
-4.723311000000022
 10
16.00034042339999
 20
-4.808989999999994
 10
16.00034439429999
 20
-4.814069667900014
 10
16.00019242339999
 20
-4.819146999999985
 10
15.99988574860001
 20
-4.824215314800028
 10
15.9994254234
 20
-4.829272000000003
 10
15.99881188210003
 20
-4.83431832010001
 10
15.9980474234
 20
-4.839344000000039
 10
15.99713136620002
 20
-4.844358146399996
 10
15.9960674234
 20
-4.849343000000033
 10
15.99485257980004
 20
-4.854313744800093
 10
15.9934934234
 20
-4.859247000000038
 10
15.99197817110001
 20
-4.864184330999988
 10
15.99032142339999
 20
-4.869076000000005
 10
15.98851055840001
 20
-4.873957769400021
 10
15.98656142339999
 20
-4.87878599999999
 10
15.9844703281
 20
-4.883572119699976
 10
15.9822464234
 20
-4.888298000000019
 10
15.97989703260001
 20
-4.892952945399997
 10
15.97742142339999
 20
-4.897541999999987
 10
15.97483990790002
 20
-4.902032760200028
 10
15.97213942339999
 20
-4.906452999999999
 10
15.96933798700002
 20
-4.910777372799997
 10
15.96642442339998
 20
-4.915027000000009
 10
15.9634083661
 20
-4.919190394900113
 10
15.96028642339999
 20
-4.923274999999987
 10
15.95706121110001
 20
-4.927279072000033
 10
15.95373542339999
 20
-4.931199999999988
 10
15.95030401920002
 20
-4.935043544800008
 10
15.94677642339999
 20
-4.938799000000016
 10
15.94314223839998
 20
-4.942476922100013
 10
15.93941642339999
 20
-4.946062000000096
 10
15.93559972
 20
-4.949554036300128
 10
15.93169642340001
 20
-4.952948999999987
 10
15.92770295
 20
-4.956249436400013
 10
15.9236274234
 20
-4.959448000000008
 10
15.9194591897
 20
-4.9625519609001
 10
15.91521342339999
 20
-4.965549000000009
 10
15.91087242300003
 20
-4.968450157099994
 10
15.90645842340001
 20
-4.971239000000025
 10
15.90193929550003
 20
-4.973933392999981
 10
15.89735142340001
 20
-4.976509000000021
 10
15.89265309539999
 20
-4.97898604139999
 10
15.88789042339999
 20
-4.981336999999995
 10
15.88304476050004
 20
-4.983569022600021
 10
15.87814042339999
 20
-4.985668999999916
 10
15.87318688940001
 20
-4.987632242900018
 10
15.86818142339999
 20
-4.989459000000009
 10
15.8631596143
 20
-4.991136606100042
 10
15.85809342339999
 20
-4.992675000000018
 10
15.85302718800003
 20
-4.99406159490013
 10
15.8479244234
 20
-4.995306999999911
 10
15.84280232330002
 20
-4.996406458500018
 10
15.83765142339999
 20
-4.997362000000008
 10
15.8324833213
 20
-4.9981712023
 10
15.82729442339999
 20
-4.998833999999988
 10
15.82209120230004
 20
-4.999348726499988
 10
15.8168754234
 20
-4.999715000000036
 10
15.81164697060001
 20
-4.999932395100016
 10
15.80641442339998
 20
-5.0
 10
15.71978642339999
 20
-4.999949000000015
 10
14.13252542340001
 20
-5.005287000000008
 10
13.6963584234
 20
-5.006661000000007
 10
13.29728642340001
 20
-5.007583000000009
 10
12.79516542339999
 20
-5.008211000000017
 10
12.4036494234
 20
-5.008273000000031
 10
11.95417842340001
 20
-5.007814999999993
 10
11.7035384234
 20
-5.007295999999995
 10
11.43360642339999
 20
-5.006519000000025
 10
11.14296842339999
 20
-5.005420000000015
 10
10.82959042339999
 20
-5.003922999999986
 10
10.48096542339999
 20
-5.001911000000005
 10
10.46905942340001
 20
-5.001950000000021
 10
10.4456134234
 20
-5.002191000000038
 10
10.36812642339998
 20
-5.003538999999988
 10
10.34737442339999
 20
-5.003757000000006
 10
10.32708042339999
 20
-5.003831999999988
 10
10.29752142339993
 20
-5.003809999999987
 10
10.28800542339999
 20
-5.003738999999995
 10
10.2787054234
 20
-5.003601000000003
 10
10.26964642339999
 20
-5.003382999999985
 10
10.2608264234
 20
-5.003087999999991
 10
10.25219542339999
 20
-5.002726999999993
 10
10.2437174234
 20
-5.002310000000021
 10
10.21096342339999
 20
-5.000413000000037
 10
10.20299642340001
 20
-5.0
 10
10.1993812275
 20
-4.999780522399987
 10
10.1957724234
 20
-4.999476000000014
 10
10.19214280450001
 20
-4.999086839899972
 10
10.1885224234
 20
-4.998619000000018
 10
10.18127542339999
 20
-4.997455000000002
 10
10.1740584234
 20
-4.996009000000015
 10
10.1668984234
 20
-4.994305999999993
 10
10.15982042339999
 20
-4.992383000000018
 10
10.15287742339998
 20
-4.990250000000003
 10
10.14608642339999
 20
-4.987880000000018
 10
10.1394404234
 20
-4.985265000000025
 10
10.13292842339999
 20
-4.982403000000033
 10
10.12654342339999
 20
-4.979287999999995
 10
10.12028642339999
 20
-4.975918000000035
 10
10.1142244234
 20
-4.972338000000092
 10
10.10836242339999
 20
-4.968566000000008
 10
10.10269242339998
 20
-4.964605000000005
 10
10.09720642339999
 20
-4.960452000000032
 10
10.09189342339999
 20
-4.956083000000035
 10
10.0867444234
 20
-4.951470000000028
 10
10.08422783070003
 20
-4.949060163000011
 10
10.08176742340001
 20
-4.946593000000006
 10
10.0793620965
 20
-4.944064130799971
 10
10.0770184234
 20
-4.941478000000016
 10
10.07475015010001
 20
-4.938848468100103
 10
10.0725484234
 20
-4.936163000000021
 10
10.0704393725
 20
-4.933452571700115
 10
10.06840042339999
 20
-4.930689000000028
 10
10.06646608300002
 20
-4.927921181700127
 10
10.0646044234
 20
-4.925104000000033
 10
10.06284847100002
 20
-4.922288181199974
 10
10.06116742340001
 20
-4.919426999999982
 10
10.05957519060001
 20
-4.916544719100101
 10
10.05806042340001
 20
-4.913621000000033
 10
10.05663252830001
 20
-4.910673675900112
 10
10.05528442339999
 20
-4.907689000000003
 10
10.05402084440001
 20
-4.904677575499988
 10
10.0528394234
 20
-4.901633000000003
 10
10.0517424363
 20
-4.89855985820003
 10
10.05072942339998
 20
-4.895458000000018
 10
10.0497994799
 20
-4.892325457399977
 10
10.0489544234
 20
-4.889169000000038
 10
9.926104423400003
 20
-4.404654999999991
 10
9.9004404234
 20
-4.305197000000021
 10
9.874342423400007
 20
-4.206128000000035
 10
9.847615423399986
 20
-4.107463999999993
 10
9.820132423399995
 20
-4.009700000000009
 10
9.791708423399995
 20
-3.913044000000013
 10
9.762307423399988
 20
-3.817882999999993
 10
9.73190442340001
 20
-3.724266
 10
9.700941423399996
 20
-3.633103000000004
 10
9.669647423399991
 20
-3.544534999999995
 10
9.638206423399992
 20
-3.45874100000003
 10
9.606857423399986
 20
-3.375930000000038
 10
9.575447423399991
 20
-3.295253999999999
 10
9.544184423399995
 20
-3.216854000000012
 10
9.513104423399994
 20
-3.140314999999986
 10
9.42123942340001
 20
-2.916935000000023
 10
9.391215423400012
 20
-2.843180000000018
 10
9.361213423399988
 20
-2.768478000000015
 10
9.3314894234
 20
-2.692962000000021
 10
9.302763423399994
 20
-2.615911000000039
 10
9.276472423400006
 20
-2.537200000000041
 10
9.264597898000033
 20
-2.497015398999962
 10
9.253835423400003
 20
-2.45652000000001
 10
9.244174525100019
 20
-2.415233818600029
 10
9.235736423399998
 20
-2.373679000000095
 10
9.228412695000002
 20
-2.331473870200113
 10
9.222264423399991
 20
-2.289082000000006
 10
9.217215065800019
 20
-2.24606611659999
 10
9.213318423400012
 20
-2.202930000000037
 10
9.210544488799996
 20
-2.159495794500116
 10
9.208895423400006
 20
-2.116006000000026
 10
9.2076144234
 20
-2.06728599999991
 10
9.196283423399988
 20
-1.693926000000033
 10
9.193599423400002
 20
-1.598111000000016
 10
9.191879423399996
 20
-1.526099999999985
 10
9.1915174234
 20
-1.508745000000033
 10
9.191517213600008
 20
-1.504914928999994
 10
9.191673423400004
 20
-1.501088000000038
 10
9.191983350599995
 20
-1.497296100100014
 10
9.192447423400011
 20
-1.493519999999989
 10
9.193063739600033
 20
-1.489773972900025
 10
9.193831423399984
 20
-1.486056000000019
 10
9.19475051170002
 20
-1.482363661600004
 10
9.195816423400003
 20
-1.478711000000031
 10
9.197034240199995
 20
-1.475079748399991
 10
9.198393423400004
 20
-1.471498999999994
 10
9.19991240890002
 20
-1.467922570599967
 10
9.201567423400007
 20
-1.464406999999994
 10
9.203383295300026
 20
-1.460900498
 10
9.205328423400004
 20
-1.457464000000014
 10
9.20742568600002
 20
-1.45405544639999
 10
9.209643423399995
 20
-1.450724000000035
 10
9.21200056050003
 20
-1.447437838499979
 10
9.214468423400006
 20
-1.444233999999994
 10
9.217059364400027
 20
-1.441092347700021
 10
9.2197504234
 20
-1.43803600000001
 10
9.222562368500007
 20
-1.435037445900035
 10
9.225464423400012
 20
-1.432126000000039
 10
9.228491504299995
 20
-1.42926443340002
 10
9.23160042340001
 20
-1.426491999999995
 10
9.234838333100016
 20
-1.423765709300026
 10
9.238150423399986
 20
-1.421130000000004
 10
9.2415958352
 20
-1.418536633799988
 10
9.245108423400012
 20
-1.416035000000022
 10
9.248756809000012
 20
-1.413576307399978
 10
9.252466423399994
 20
-1.411211000000036
 10
9.256298966700027
 20
-1.40889922970001
 10
9.2601864234
 20
-1.40668099999999
 10
9.264196269800036
 20
-1.404517005200033
 10
9.268255423400006
 20
-1.402446999999995
 10
9.272440270900004
 20
-1.400432650999903
 10
9.276669423399994
 20
-1.398513000000035
 10
9.28102760019999
 20
-1.396649682600012
 10
9.285425423399999
 20
-1.394881999999995
 10
9.289962228200039
 20
-1.39317155140003
 10
9.294534423399994
 20
-1.39155800000003
 10
9.299251240800003
 20
-1.390003667000029
 10
9.3039994234
 20
-1.388548000000014
 10
9.308862789800032
 20
-1.38716660250003
 10
9.313753423399989
 20
-1.38588500000003
 10
9.318724481700028
 20
-1.384688753799991
 10
9.323718423400007
 20
-1.38359200000002
 10
9.328756642300019
 20
-1.382589401000018
 10
9.333813423399988
 20
-1.381685000000004
 10
9.338895209700012
 20
-1.380876202500018
 10
9.343991423400012
 20
-1.380164000000092
 10
9.349127569400023
 20
-1.379544826800042
 10
9.354274423399999
 20
-1.379022000000019
 10
9.359454894299998
 20
-1.378592953100109
 10
9.364642423400001
 20
-1.37826000000001
 10
9.369857168900038
 20
-1.378021966900007
 10
9.375075423400003
 20
-1.377880000000004
 10
9.380313950599996
 20
-1.377833616799988
 10
9.385552423399984
 20
-1.377882999999997
 10
9.500046423399991
 20
-1.379929000000004
 10
9.528080423400012
 20
-1.380214000000022
 10
9.556313423399984
 20
-1.380340999999987
 10
9.584727423400012
 20
-1.380322000000034
 10
9.613312423400003
 20
-1.380165000000033
 10
9.642065423399998
 20
-1.379875000000025
 10
9.670990423399985
 20
-1.379456000000004
 10
9.729396423400004
 20
-1.378239000000007
 10
9.788512423399991
 20
-1.376531999999996
 10
9.848346423399988
 20
-1.374352999999985
 10
9.908898423399987
 20
-1.37174600000003
 10
9.970149423399988
 20
-1.36875900000001
 10
10.0320934234
 20
-1.365443000000027
 10
10.1263154234
 20
-1.359948000000031
 10
10.48277642339999
 20
-1.33709600000003
 10
10.74397742339999
 20
-1.320541999999989
 10
11.0048144234
 20
-1.304366000000014
 10
11.26570642339999
 20
-1.28855500000003
 10
11.53956442340001
 20
-1.272331000000008
 10
11.86837342339993
 20
-1.25331600000004
 10
12.24392742340001
 20
-1.232232000000009
 10
12.62188442339999
 20
-1.21167200000002
 10
13.00468942340001
 20
-1.191507
 10
13.35798542340001
 20
-1.17348000000004
 10
13.66829642339999
 20
-1.158109000000024
 10
13.94565542340001
 20
-1.144744000000001
 10
14.21141742340001
 20
-1.132273999999995
 10
14.48052542339999
 20
-1.119982999999989
 10
14.7732644234
 20
-1.107046000000024
 10
14.8069354234
 20
-1.105797999999991
 10
14.8615684234
 20
-1.104031000000019
 10
14.9531224234
 20
-1.10146000000003
 10
14.96258142339999
 20
-1.101257000000032
 10
14.9718664234
 20
-1.101115999999989
 10
14.98099142339998
 20
-1.101044999999998
 10
14.9899904234
 20
-1.101041000000009
 10
14.99889942339999
 20
-1.10110000000003
 10
15.0077504234
 20
-1.101219000000014
 10
15.04312842339999
 20
-1.101985000000012
 10
15.0504194234
 20
-1.102265999999985
 10
15.0577474234
 20
-1.102789000000029
 10
15.0650774234
 20
-1.103537000000017
 10
15.07237542339999
 20
-1.104492999999989
 10
15.0796094234
 20
-1.105637999999999
 10
15.08674942339999
 20
-1.10694699999999
 10
15.09373342340001
 20
-1.10841300000004
 10
15.10054242339998
 20
-1.110052999999992
 10
15.1071874234
 20
-1.111873000000001
 10
15.1136844234
 20
-1.113875000000007
 10
15.1200454234
 20
-1.116062999999995
 10
15.12627642339998
 20
-1.118438000000026
 10
15.13231742339999
 20
-1.120971999999994
 10
15.13816342339999
 20
-1.123648999999999
 10
15.14382242339999
 20
-1.126465999999992
 10
15.1493024234
 20
-1.129422000000033
 10
15.15460842339999
 20
-1.132533000000022
 10
15.15974642340001
 20
-1.135816000000033
 10
15.16471042340001
 20
-1.139286999999909
 10
15.16709986080002
 20
-1.141080124800112
 10
15.16944642339999
 20
-1.142929000000037
 10
15.17170027440002
 20
-1.144795430800001
 10
15.17390642340001
 20
-1.14671800000002
 10
15.17600518800002
 20
-1.148645164300035
 10
15.17805142340001
 20
-1.15062800000004
 10
15.17997838230002
 20
-1.152601505700032
 10
15.1818484234
 20
-1.154628999999999
 10
15.1835996979
 20
-1.156642444300018
 10
15.1852904234
 20
-1.158706999999991
 10
15.1868796656
 20
-1.160772635099988
 10
15.18840342339999
 20
-1.162887000000011
 10
15.18982850260002
 20
-1.165005218499969
 10
15.19118342339999
 20
-1.167169000000001
 10
15.19244319710003
 20
-1.169338204100029
 10
15.19362842339998
 20
-1.171549000000027
 10
15.1947213688
 20
-1.173769959100013
 10
15.19573542340001
 20
-1.17602800000003
 10
15.19665914749998
 20
-1.178298019999999
 10
15.19750042339999
 20
-1.180600000000025
 10
15.2121834234
 20
-1.223823000000038
 10
15.2205814234
 20
-1.24911400000002
 10
15.23067342339999
 20
-1.280015999999988
 10
15.24078142339999
 20
-1.311487999999997
 10
15.2525974234
 20
-1.348886999999989
 10
15.26919642339999
 20
-1.40244100000001
 10
15.29221042340001
 20
-1.478471000000013
 10
15.3159424234
 20
-1.558721999999988
 10
15.3404474234
 20
-1.643096000000014
 10
15.44735042339999
 20
-2.017480000000034
 10
15.4763594234
 20
-2.118118000000038
 10
15.50616342340001
 20
-2.220546000000013
 10
15.53653442339998
 20
-2.324026000000003
 10
15.56753242339999
 20
-2.428823000000022
 10
15.6300074234
 20
-2.638143000000013
 10
15.69168842339999
 20
-2.843191999999986
 10
15.7515874234
 20
-3.041083000000013
 10
15.83710142339998
 20
-3.321934999999995
 10
15.8635934234
 20
-3.409892000000013
 10
15.88817242339999
 20
-3.494560000000034
 10
15.9099504234
 20
-3.575306000000011
 10
15.92869042339998
 20
-3.652871000000004
 10
15.94419942339999
 20
-3.726392000000031
 10
15.95645242340001
 20
-3.794663000000013
 10
15.9658094234
 20
-3.857415000000003
 10
15.97266342340001
 20
-3.914660000000026
 10
15.97736742340001
 20
-3.966323999999985
  0
LWPOLYLINE
  5
1C73
330
1F
100
AcDbEntity
  8
1
100
AcDbPolyline
 90
       16
 70
     0
 43
0.0
 10
15.30524882860001
 20
-4.221164327800011
 10
15.29819818920001
 20
-4.236077876600005
 10
15.28937072780002
 20
-4.249952026400023
 10
15.27886248669995
 20
-4.262516780400004
 10
15.26650057820004
 20
-4.273356827300005
 10
15.2528148492
 20
-4.282588711400022
 10
15.23817171940001
 20
-4.290094188099998
 10
15.2228885829
 20
-4.296162313100011
 10
15.2074357095
 20
-4.300969929899963
 10
15.191720892
 20
-4.304735430999983
 10
15.17581282180001
 20
-4.307715352199976
 10
15.15969907289999
 20
-4.309972107499901
 10
15.14341307060002
 20
-4.311629466600037
 10
15.12688595230003
 20
-4.312759897399984
 10
15.11005278230004
 20
-4.313491340200015
 10
15.09293520569991
 20
-4.313781148299995
  0
LWPOLYLINE
  5
1C74
330
1F
100
AcDbEntity
  8
1
100
AcDbPolyline
 90
        9
 70
     0
 43
0.0
 10
15.3186502245
 20
-4.447654762900014
 10
15.33886335920002
 20
-4.429135091799992
 10
15.35816632230003
 20
-4.408955544700005
 10
15.37619749200002
 20
-4.386975359400024
 10
15.3940417334
 20
-4.363616822300001
 10
15.41348988800001
 20
-4.339843091399983
 10
15.43206240410003
 20
-4.313890789399977
 10
15.44764135150001
 20
-4.284137301200018
 10
15.46093270690002
 20
-4.251123498500021
  0
LINE
  5
1C75
330
1F
100
AcDbEntity
  8
1
100
AcDbLine
 10
15.19295819499999
 20
-4.276690571900018
 30
0.0
 11
15.30196995950001
 21
-4.212769974699995
 31
0.0
  0
LWPOLYLINE
  5
1C76
330
1F
100
AcDbEntity
  8
1
100
AcDbPolyline
 90
        9
 70
     0
 43
0.0
 10
15.75507672730003
 20
4.717856761799963
 10
15.77311492050003
 20
4.710517511500028
 10
15.79063851320003
 20
4.700315148700041
 10
15.80752523989994
 20
4.687076209700023
 10
15.82297809940001
 20
4.670921023400011
 10
15.83641489730001
 20
4.652253521500028
 10
15.84817399350001
 20
4.631243378799978
 10
15.85819394940003
 20
4.608009394199996
 10
15.86611713660002
 20
4.583486497899968
  0
LWPOLYLINE
  5
1C77
330
1F
100
AcDbEntity
  8
1
100
AcDbPolyline
 90
        9
 70
     0
 43
0.0
 10
15.86611713660002
 20
4.583486497899968
 10
15.87317320320002
 20
4.550342127800091
 10
15.87674320120001
 20
4.514847868999993
 10
15.87663925249998
 20
4.47659243229998
 10
15.87346034870003
 20
4.43497578260002
 10
15.86865081870002
 20
4.389691589899995
 10
15.86446693010001
 20
4.34078419100001
 10
15.86200262320003
 20
4.288495068500026
 10
15.86094430120002
 20
4.233743527000001
  0
LINE
  5
1C78
330
1F
100
AcDbEntity
  8
1
100
AcDbLine
 10
15.44971240580003
 20
-3.753755821299988
 30
0.0
 11
15.43237371929999
 21
-3.554003900999986
 31
0.0
  0
LWPOLYLINE
  5
1C79
330
1F
100
AcDbEntity
  8
1
100
AcDbPolyline
 90
        6
 70
     0
 43
0.0
 10
15.97736828409992
 20
-3.713775324100026
 10
15.97884023360001
 20
-3.734956965200011
 10
15.9801346856
 20
-3.756387214699997
 10
15.98125735809992
 20
-3.778065928600028
 10
15.98221658420001
 20
-3.7999873041
 10
15.9830212279
 20
-3.822145807799983
  0
LWPOLYLINE
  5
1C7A
330
1F
100
AcDbEntity
  8
1
100
AcDbPolyline
 90
       13
 70
     0
 43
0.0
 10
16.0003410326
 20
4.599897541900019
 10
15.99892591710002
 20
4.625527147699982
 10
15.99396393020001
 20
4.650805418700031
 10
15.98553390080002
 20
4.675540919299976
 10
15.97394838190001
 20
4.699004081999987
 10
15.95975675620002
 20
4.720500975699962
 10
15.9431448656
 20
4.740045960200006
 10
15.92431328560001
 20
4.757456101200033
 10
15.90346504359999
 20
4.772477383899967
 10
15.88060167320003
 20
4.784907710399976
 10
15.85640622440002
 20
4.794175443299991
 10
15.83161920860002
 20
4.799956340899996
 10
15.8064154818
 20
4.802200160899985
  0
LWPOLYLINE
  5
1C7B
330
1F
100
AcDbEntity
  8
1
100
AcDbPolyline
 90
        9
 70
     0
 43
0.0
 10
15.31987705420002
 20
-4.0207814452001
 10
15.32267356970001
 20
-4.088615110700003
 10
15.32288852810001
 20
-4.105946791400015
 10
15.32266005820003
 20
-4.123075706900009
 10
15.32185225859999
 20
-4.140011782700013
 10
15.3203880384
 20
-4.156788463700023
 10
15.31813626710001
 20
-4.173331882900015
 10
15.31502326650002
 20
-4.189604644100028
 10
15.31079958980004
 20
-4.205530779799913
  0
LINE
  5
1C7C
330
1F
100
AcDbEntity
  8
1
100
AcDbLine
 10
15.9830212279
 20
-3.822145807799983
 30
0.0
 11
15.98641652370003
 21
-3.952359454399982
 31
0.0
  0
LINE
  5
1C7D
330
1F
100
AcDbEntity
  8
1
100
AcDbLine
 10
15.98641652370003
 20
-3.952359454399982
 30
0.0
 11
15.99139288460003
 21
-4.156512664399996
 31
0.0
  0
LINE
  5
1C7E
330
1F
100
AcDbEntity
  8
1
100
AcDbLine
 10
15.46197560129994
 20
-4.297000754400015
 30
0.0
 11
15.45323577260001
 21
-3.916944745600004
 31
0.0
  0
LINE
  5
1C7F
330
1F
100
AcDbEntity
  8
1
100
AcDbLine
 10
15.99139288460003
 20
-4.156512664399996
 30
0.0
 11
15.99566015030001
 21
-4.3453369499
 31
0.0
  0
LINE
  5
1C80
330
1F
100
AcDbEntity
  8
1
100
AcDbLine
 10
15.45323577260001
 20
-3.916944745600004
 30
0.0
 11
15.44971235740002
 21
-3.753755822300036
 31
0.0
  0
LWPOLYLINE
  5
1C81
330
1F
100
AcDbEntity
  8
1
100
AcDbPolyline
 90
        3
 70
     0
 43
0.0
 10
15.99566015030001
 20
-4.3453369499
 10
15.99901344190002
 20
-4.518871641899976
 10
16.0003410326
 20
-4.599897541900019
  0
LWPOLYLINE
  5
1C82
330
1F
100
AcDbEntity
  8
1
100
AcDbPolyline
 90
        6
 70
     0
 43
0.0
 10
15.31499156310002
 20
-3.761504420899996
 10
15.31543914070002
 20
-3.814385020600012
 10
15.31612392580001
 20
-3.866754315900037
 10
15.31699999710002
 20
-3.918614461599986
 10
15.31820511850003
 20
-3.969958992900046
 10
15.31987705420002
 20
-4.0207814452001
  0
LINE
  5
1C83
330
1F
100
AcDbEntity
  8
1
100
AcDbLine
 10
15.30196995950001
 20
1.249550411500024
 30
0.0
 11
15.30196995950001
 21
-4.212769974699995
 31
0.0
  0
LWPOLYLINE
  5
1C84
330
1F
100
AcDbEntity
  8
1
100
AcDbPolyline
 90
        8
 70
     0
 43
0.0
 10
15.86094430120002
 20
4.233743527000001
 10
15.86029676249998
 20
4.118675397700086
 10
15.85863460059994
 20
4.057374192699967
 10
15.85440836370003
 20
3.993355342099959
 10
15.8491105322
 20
3.926232411400008
 10
15.84573566870003
 20
3.856204782800033
 10
15.84523064949999
 20
3.785692037600028
 10
15.84643814310001
 20
3.713547032199982
  0
LWPOLYLINE
  5
1C85
330
1F
100
AcDbEntity
  8
1
100
AcDbPolyline
 90
        9
 70
     0
 43
0.0
 10
15.84643814310001
 20
3.713547032199982
 10
15.84545337680001
 20
3.6410457586
 10
15.83996634300001
 20
3.563702417099988
 10
15.82862306420003
 20
3.485304155899996
 10
15.81065774000001
 20
3.405580247000045
 10
15.7871006997
 20
3.323612656100009
 10
15.76091657650002
 20
3.238901815300038
 10
15.73416967780002
 20
3.150625185600006
 10
15.70732594760002
 20
3.058364043199901
  0
LINE
  5
1C86
330
1F
100
AcDbEntity
  8
1
100
AcDbLine
 10
15.99746107199999
 20
4.434015729599991
 30
0.0
 11
16.0003410326
 21
4.599897541900019
 31
0.0
  0
LINE
  5
1C87
330
1F
100
AcDbEntity
  8
1
100
AcDbLine
 10
15.9936239031
 20
4.252834228500034
 30
0.0
 11
15.99746107199999
 21
4.434015729599991
 31
0.0
  0
LINE
  5
1C88
330
1F
100
AcDbEntity
  8
1
100
AcDbLine
 10
15.98641652370003
 20
3.952359454400037
 30
0.0
 11
15.9936239031
 21
4.252834228500034
 31
0.0
  0
LWPOLYLINE
  5
1C89
330
1F
100
AcDbEntity
  8
1
100
AcDbPolyline
 90
       13
 70
     0
 43
0.0
 10
16.0003410326
 20
-4.599897541900019
 10
15.99892591710002
 20
-4.625527147700039
 10
15.99396393020001
 20
-4.650805418600042
 10
15.98553390080002
 20
-4.675540919199987
 10
15.97394838190001
 20
-4.699004082000043
 10
15.95975675620002
 20
-4.720500975599974
 10
15.9431448656
 20
-4.740045960100018
 10
15.92431328560001
 20
-4.757456101100046
 10
15.90346504359999
 20
-4.77247738379998
 10
15.88060167320003
 20
-4.784907710299988
 10
15.85640622440002
 20
-4.794175443200002
 10
15.83161920860002
 20
-4.799956340800007
 10
15.8064154818
 20
-4.802200160799998
  0
LWPOLYLINE
  5
1C8A
330
1F
100
AcDbEntity
  8
1
100
AcDbPolyline
 90
        7
 70
     0
 43
0.0
 10
15.97736828409992
 20
3.713775324200013
 10
15.97884023360001
 20
3.734956965299999
 10
15.9801346856
 20
3.756387214699997
 10
15.98125735809992
 20
3.77806592859997
 10
15.98221658420001
 20
3.7999873041
 10
15.9830212279
 20
3.82214580789997
 10
15.98641652370003
 20
3.952359454400037
  0
LWPOLYLINE
  5
1C8B
330
1F
100
AcDbEntity
  8
1
100
AcDbPolyline
 90
        7
 70
     0
 43
0.0
 10
15.46197560129994
 20
-4.297000754400015
 10
15.45709352550003
 20
-4.335840273999962
 10
15.44434641040001
 20
-4.369536066199998
 10
15.42348783920002
 20
-4.398414830700004
 10
15.39525706220002
 20
-4.421496468099974
 10
15.3603933295
 20
-4.437800878900019
 10
15.3186502245
 20
-4.447654762900014
  0
LINE
  5
1C8C
330
1F
100
AcDbEntity
  8
1
100
AcDbLine
 10
15.31079958980004
 20
-4.205530779799913
 30
0.0
 11
15.30524882860001
 21
-4.221164327800011
 31
0.0
  0
LINE
  5
1C8D
330
1F
100
AcDbEntity
  8
1
100
AcDbLine
 10
15.81162351340001
 20
-3.290353118600022
 30
0.0
 11
15.4323743745
 21
-3.554003741399981
 31
0.0
  0
LWPOLYLINE
  5
1C8E
330
1F
100
AcDbEntity
  8
1
100
AcDbPolyline
 90
        6
 70
     0
 43
0.0
 10
9.294165782199939
 20
4.509423198399987
 10
9.296936967600032
 20
4.509991089499976
 10
9.312241064800019
 20
4.51003674719999
 10
9.340150189000011
 20
4.508414915800016
 10
9.380729983700037
 20
4.505150612900023
 10
9.434053816200018
 20
4.500329757099962
  0
LWPOLYLINE
  5
1C8F
330
1F
100
AcDbEntity
  8
1
100
AcDbPolyline
 90
        5
 70
     0
 43
0.0
 10
10.42158346370001
 20
4.866659477700011
 10
10.4404547604
 20
4.870437064700012
 10
10.45025094149994
 20
4.872544061399992
 10
10.46023422780001
 20
4.874831808800022
 10
10.48066156109999
 20
4.879772883599968
  0
LWPOLYLINE
  5
1C90
330
1F
100
AcDbEntity
  8
1
100
AcDbPolyline
 90
       11
 70
     0
 43
0.0
 10
10.20299716940002
 20
4.966289313800018
 10
10.18200003600003
 20
4.964098330099999
 10
10.16122795839999
 20
4.959486082800026
 10
10.14142027920002
 20
4.952927896799963
 10
10.12277052429999
 20
4.944257450400016
 10
10.10550442850001
 20
4.933644158199966
 10
10.08981568820002
 20
4.921343126299972
 10
10.07564682780003
 20
4.906977607200018
 10
10.06389079390004
 20
4.891014023600006
 10
10.05502516299992
 20
4.874048372400012
 10
10.04895458679999
 20
4.856015974599984
  0
LWPOLYLINE
  5
1C91
330
1F
100
AcDbEntity
  8
1
100
AcDbPolyline
 90
        9
 70
     0
 43
0.0
 10
10.48066156109999
 20
4.879772883599968
 10
10.52936363250001
 20
4.883162988399988
 10
10.57809088039999
 20
4.885576355800026
 10
10.62677764550002
 20
4.887140413099983
 10
10.67527300910004
 20
4.887744978400006
 10
10.72370719550002
 20
4.887313384499974
 10
10.77230333320003
 20
4.885969483099983
 10
10.8207857436
 20
4.883811802499906
 10
10.86917890789999
 20
4.88101015479998
  0
LINE
  5
1C92
330
1F
100
AcDbEntity
  8
1
100
AcDbLine
 10
1.477147318900023
 20
4.872149168699991
 30
0.0
 11
1.516824747800028
 21
4.872666095599981
 31
0.0
  0
LINE
  5
1C93
330
1F
100
AcDbEntity
  8
1
100
AcDbLine
 10
1.516824747800028
 20
4.872666095599981
 30
0.0
 11
1.558348479299922
 21
4.872969318700028
 31
0.0
  0
LWPOLYLINE
  5
1C94
330
1F
100
AcDbEntity
  8
1
100
AcDbPolyline
 90
        3
 70
     0
 43
0.0
 10
1.558348479299922
 20
4.872969318700028
 10
1.888258596199904
 20
4.874224424700003
 10
2.216754860700035
 20
4.874831726900025
  0
LINE
  5
1C95
330
1F
100
AcDbEntity
  8
1
100
AcDbLine
 10
1.558348479299922
 20
4.875
 30
0.0
 11
0.3000000000000114
 21
4.875
 31
0.0
  0
LINE
  5
1C96
330
1F
100
AcDbEntity
  8
1
100
AcDbLine
 10
2.216754860700035
 20
4.874831726900025
 30
0.0
 11
2.589908871499943
 21
4.874998868200008
 31
0.0
  0
LINE
  5
1C97
330
1F
100
AcDbEntity
  8
1
100
AcDbLine
 10
4.465512285599941
 20
4.87389055279999
 30
0.0
 11
5.396609167599906
 21
4.874094123100007
 31
0.0
  0
LWPOLYLINE
  5
1C98
330
1F
100
AcDbEntity
  8
1
100
AcDbPolyline
 90
        3
 70
     0
 43
0.0
 10
2.589908871499943
 20
4.874998868200008
 10
3.193151401400029
 20
4.874675909199993
 10
4.465512285599941
 20
4.87389055279999
  0
LINE
  5
1C99
330
1F
100
AcDbEntity
  8
1
100
AcDbLine
 10
13.50074471420001
 20
4.821120242000005
 30
0.0
 11
13.80533362150001
 21
4.818494964100011
 31
0.0
  0
LINE
  5
1C9A
330
1F
100
AcDbEntity
  8
1
100
AcDbLine
 10
13.26534805149993
 20
4.823450339399983
 30
0.0
 11
13.50074471420001
 21
4.821120242000005
 31
0.0
  0
LWPOLYLINE
  5
1C9B
330
1F
100
AcDbEntity
  8
1
100
AcDbPolyline
 90
       10
 70
     0
 43
0.0
 10
13.80533362150001
 20
4.818494964100011
 10
13.9700138627
 20
4.816722767999976
 10
14.0585085488
 20
4.815534690899994
 10
14.15257850990002
 20
4.814014213300026
 10
14.25158431280002
 20
4.812073055499978
 10
14.35628249659993
 20
4.809562542900096
 10
14.46492097820004
 20
4.806403709100094
 10
14.57681882740002
 20
4.802494117799994
 10
14.69027239410002
 20
4.797853539100002
 10
14.80404827980004
 20
4.792652699499966
  0
LINE
  5
1C9C
330
1F
100
AcDbEntity
  8
1
100
AcDbLine
 10
11.20716723000001
 20
4.865070536199993
 30
0.0
 11
11.34995993910004
 21
4.863538519299992
 31
0.0
  0
LINE
  5
1C9D
330
1F
100
AcDbEntity
  8
1
100
AcDbLine
 10
11.34995993910004
 20
4.863538519299992
 30
0.0
 11
11.44607502560001
 21
4.862099318899993
 31
0.0
  0
LWPOLYLINE
  5
1C9E
330
1F
100
AcDbEntity
  8
1
100
AcDbPolyline
 90
       17
 70
     0
 43
0.0
 10
5.396609167599906
 20
4.874094123100007
 10
5.46310406620003
 20
4.873025542699906
 10
5.529525383999923
 20
4.869749069600003
 10
5.595800545899919
 20
4.864268215700008
 10
5.661853674100028
 20
4.856588583399967
 10
5.727610427499996
 20
4.846718525399978
 10
5.792995291099911
 20
4.834669420300031
 10
5.857932695899932
 20
4.820455552499993
 10
5.922351460500038
 20
4.804093152699976
 10
5.986178722699917
 20
4.785601452200011
 10
6.049347796600044
 20
4.765000546999999
 10
6.111792508200038
 20
4.742312399100001
 10
6.173442525199988
 20
4.717562973899987
 10
6.234223246099928
 20
4.690783094999971
 10
6.294086839800029
 20
4.661994106399959
 10
6.352985130000008
 20
4.631217113599972
 10
6.410845770199927
 20
4.598487104199988
  0
LINE
  5
1C9F
330
1F
100
AcDbEntity
  8
1
100
AcDbLine
 10
15.8064154818
 20
4.802200160899985
 30
0.0
 11
15.71978729670002
 21
4.803785823800011
 31
0.0
  0
LINE
  5
1CA0
330
1F
100
AcDbEntity
  8
1
100
AcDbLine
 10
11.44607502560001
 20
4.862099318899993
 30
0.0
 11
11.7642938493
 21
4.856402535600011
 31
0.0
  0
LINE
  5
1CA1
330
1F
100
AcDbEntity
  8
1
100
AcDbLine
 10
11.7642938493
 20
4.856402535600011
 30
0.0
 11
11.99050646060001
 21
4.851705214899992
 31
0.0
  0
LWPOLYLINE
  5
1CA2
330
1F
100
AcDbEntity
  8
1
100
AcDbPolyline
 90
        5
 70
     0
 43
0.0
 10
15.71978729670002
 20
4.803785823800011
 10
15.62941743530001
 20
4.805802674000005
 10
15.54228469420002
 20
4.80817993559998
 10
15.45874907200001
 20
4.810813538800005
 10
15.3787934634
 20
4.813630417900014
  0
LWPOLYLINE
  5
1CA3
330
1F
100
AcDbEntity
  8
1
100
AcDbPolyline
 90
        3
 70
     0
 43
0.0
 10
10.4929828125
 20
4.963875506400086
 10
10.44997138720001
 20
4.964854212999965
 10
10.3694421458
 20
4.967589492400009
  0
LWPOLYLINE
  5
1CA4
330
1F
100
AcDbEntity
  8
1
100
AcDbPolyline
 90
        6
 70
     0
 43
0.0
 10
10.3694421458
 20
4.967589492400009
 10
10.33211674750001
 20
4.9684529095
 10
10.29632133609999
 20
4.968938087999902
 10
10.2630112752
 20
4.968740526000033
 10
10.2322722902
 20
4.967611813500012
 10
10.20299716940002
 20
4.966289313800018
  0
LWPOLYLINE
  5
1CA5
330
1F
100
AcDbEntity
  8
1
100
AcDbPolyline
 90
        5
 70
     0
 43
0.0
 10
12.78583609960003
 20
4.831962155600023
 10
12.89438320019999
 20
4.829443330999993
 10
12.99574249600002
 20
4.827432282400025
 10
13.09115698249999
 20
4.825830353500008
 10
13.26534805149993
 20
4.823450339399983
  0
LINE
  5
1CA6
330
1F
100
AcDbEntity
  8
1
100
AcDbLine
 10
11.99050646060001
 20
4.851705214899992
 30
0.0
 11
12.18488007429999
 21
4.847298411800012
 31
0.0
  0
LINE
  5
1CA7
330
1F
100
AcDbEntity
  8
1
100
AcDbLine
 10
12.18488007429999
 20
4.847298411800012
 30
0.0
 11
12.47362573830003
 21
4.840270792400018
 31
0.0
  0
LWPOLYLINE
  5
1CA8
330
1F
100
AcDbEntity
  8
1
100
AcDbPolyline
 90
       10
 70
     0
 43
0.0
 10
12.3760272806
 20
4.926232081900026
 10
12.21055290879994
 20
4.930635851500028
 10
12.0357106861
 20
4.935062855500007
 10
11.85090081379994
 20
4.939488027700007
 10
11.65533086650001
 20
4.943885032399974
 10
11.44833130859999
 20
4.948217677299965
 10
11.22931811150002
 20
4.952439743399962
 10
10.99746679940003
 20
4.956500936499992
 10
10.75195410710003
 20
4.960341268100023
 10
10.4929828125
 20
4.963875506400086
  0
LINE
  5
1CA9
330
1F
100
AcDbEntity
  8
1
100
AcDbLine
 10
12.47362573830003
 20
4.840270792400018
 30
0.0
 11
12.78583609960003
 21
4.831962155600023
 31
0.0
  0
LINE
  5
1CAA
330
1F
100
AcDbEntity
  8
1
100
AcDbLine
 10
12.68197952100001
 20
4.917545591500014
 30
0.0
 11
12.3760272806
 21
4.926232081900026
 31
0.0
  0
LINE
  5
1CAB
330
1F
100
AcDbEntity
  8
1
100
AcDbLine
 10
12.96126835510003
 20
4.909004924300005
 30
0.0
 11
12.68197952100001
 21
4.917545591500014
 31
0.0
  0
LINE
  5
1CAC
330
1F
100
AcDbEntity
  8
1
100
AcDbLine
 10
13.21371774980002
 20
4.900799785000002
 30
0.0
 11
12.96126835510003
 21
4.909004924300005
 31
0.0
  0
LINE
  5
1CAD
330
1F
100
AcDbEntity
  8
1
100
AcDbLine
 10
13.53709651230002
 20
4.889610260100027
 30
0.0
 11
13.21371774980002
 21
4.900799785000002
 31
0.0
  0
LINE
  5
1CAE
330
1F
100
AcDbEntity
  8
1
100
AcDbLine
 10
13.90455214190001
 20
4.875919601100007
 30
0.0
 11
13.53709651230002
 21
4.889610260100027
 31
0.0
  0
LINE
  5
1CAF
330
1F
100
AcDbEntity
  8
1
100
AcDbLine
 10
15.3787934634
 20
4.813630417900014
 30
0.0
 11
15.22703467560001
 21
4.819585588300013
 31
0.0
  0
LINE
  5
1CB0
330
1F
100
AcDbEntity
  8
1
100
AcDbLine
 10
14.34373469820002
 20
4.858318042599988
 30
0.0
 11
13.90455214190001
 21
4.875919601100007
 31
0.0
  0
LINE
  5
1CB1
330
1F
100
AcDbEntity
  8
1
100
AcDbLine
 10
15.22703467560001
 20
4.819585588300013
 30
0.0
 11
15.08229656740002
 21
4.825767915200002
 31
0.0
  0
LINE
  5
1CB2
330
1F
100
AcDbEntity
  8
1
100
AcDbLine
 10
14.84620738780003
 20
4.836417820000007
 30
0.0
 11
14.34373469820002
 21
4.858318042599988
 31
0.0
  0
LINE
  5
1CB3
330
1F
100
AcDbEntity
  8
1
100
AcDbLine
 10
15.08229656740002
 20
4.825767915200002
 30
0.0
 11
14.84620738780003
 21
4.836417820000007
 31
0.0
  0
LWPOLYLINE
  5
1CB4
330
1F
100
AcDbEntity
  8
1
100
AcDbPolyline
 90
       10
 70
     0
 43
0.0
 10
14.80404827980004
 20
4.792652699499966
 10
14.91626047900001
 20
4.787141873999985
 10
15.02467430100003
 20
4.781554053100022
 10
15.13097081050003
 20
4.775751401399985
 10
15.23590160990002
 20
4.769610941800009
 10
15.33978786700001
 20
4.76317544699998
 10
15.44098023839999
 20
4.756507028899988
 10
15.53587277760002
 20
4.748844183799973
 10
15.6214169509
 20
4.739822759600087
 10
15.69706585070003
 20
4.729339405199993
  0
LWPOLYLINE
  5
1CB5
330
1F
100
AcDbEntity
  8
1
100
AcDbPolyline
 90
        7
 70
     0
 43
0.0
 10
10.86917890789999
 20
4.88101015479998
 10
10.96611356320002
 20
4.874464625799987
 10
11.01453973790001
 20
4.871387190800021
 10
11.06291041059992
 20
4.868837417000007
 10
11.11126125140003
 20
4.867011299199987
 10
11.15934503559993
 20
4.86582612379999
 10
11.20716723000001
 20
4.865070536199993
  0
LWPOLYLINE
  5
1CB6
330
1F
100
AcDbEntity
  8
1
100
AcDbPolyline
 90
        7
 70
     0
 43
0.0
 10
15.69706585070003
 20
4.729339405199993
 10
15.70739877780002
 20
4.727786058199966
 10
15.71747768979992
 20
4.726212259600004
 10
15.72732982629992
 20
4.724593050900011
 10
15.73690895249999
 20
4.722751028200092
 10
15.74615438600003
 20
4.720511926799986
 10
15.75507672730003
 20
4.717856761799963
  0
LINE
  5
1CB7
330
1F
100
AcDbEntity
  8
1
100
AcDbLine
 10
15.30196995950001
 20
-3.611411694100013
 30
0.0
 11
15.31499156310002
 21
-3.761504420899996
 31
0.0
  0
LWPOLYLINE
  5
1CB8
330
1F
100
AcDbEntity
  8
1
100
AcDbPolyline
 90
       20
 70
     0
 43
0.0
 10
13.77792965100002
 20
-2.6619357175
 10
13.77264243329995
 20
-2.587132375700035
 10
13.76187099960003
 20
-2.513343123600009
 10
13.7455623026
 20
-2.440366167399985
 10
13.72387548420002
 20
-2.368806888600033
 10
13.69688719699999
 20
-2.299079045599966
 10
13.66479186180001
 20
-2.231555713099908
 10
13.62772685820002
 20
-2.166634588100008
 10
13.5859399631
 20
-2.104655561599996
 10
13.53962621390002
 20
-2.045991385299998
 10
13.48908120899995
 20
-1.990941173799909
 10
13.43455328690001
 20
-1.939844406900022
 10
13.37637926410002
 20
-1.892952741300006
 10
13.31485523280003
 20
-1.850564801100005
 10
13.25035170360002
 20
-1.812879163600029
 10
13.18320590830001
 20
-1.7801469268
 10
13.11381377500001
 20
-1.752509152199991
 10
13.04254614179999
 20
-1.730163802800006
 10
12.9698155099
 20
-1.7131912735
 10
12.89601804
 20
-1.70173196950003
  0
LINE
  5
1CB9
330
1F
100
AcDbEntity
  8
1
100
AcDbLine
 10
13.80551397399995
 20
-3.498651397000002
 30
0.0
 11
13.77792965100002
 21
-2.6619357175
 31
0.0
  0
LINE
  5
1CBA
330
1F
100
AcDbEntity
  8
1
100
AcDbLine
 10
14.60914822420003
 20
-4.297443239100005
 30
0.0
 11
14.60914822420003
 21
1.201719875700007
 31
0.0
  0
LWPOLYLINE
  5
1CBB
330
1F
100
AcDbEntity
  8
1
100
AcDbPolyline
 90
        7
 70
     0
 43
0.0
 10
13.80551397399995
 20
-3.498651397000002
 10
13.80817427010001
 20
-3.370850275700036
 10
13.81040841960003
 20
-3.238235649100033
 10
13.81221805100003
 20
-3.100664165599993
 10
13.81359827839992
 20
-2.958565880200011
 10
13.81454421620003
 20
-2.812370848099988
 10
13.81505749280004
 20
-2.6619357175
  0
LINE
  5
1CBC
330
1F
100
AcDbEntity
  8
1
100
AcDbLine
 10
15.25506085220001
 20
1.061699635100012
 30
0.0
 11
15.30662540920002
 21
1.268193706599958
 31
0.0
  0
LWPOLYLINE
  5
1CBD
330
1F
100
AcDbEntity
  8
1
100
AcDbPolyline
 90
        9
 70
     0
 43
0.0
 10
15.30662540920002
 20
1.268193706599958
 10
15.34600448280002
 20
1.424711396500014
 10
15.38767568380001
 20
1.586916019299961
 10
15.43165949780001
 20
1.752216124400034
 10
15.47799760499998
 20
1.9183629086001
 10
15.52634981880001
 20
2.083886523700015
 10
15.57622123570005
 20
2.248491560699959
 10
15.6265639636
 20
2.410158412700013
 10
15.67638797340001
 20
2.567193531899988
  0
LWPOLYLINE
  5
1CBE
330
1F
100
AcDbEntity
  8
1
100
AcDbPolyline
 90
        4
 70
     0
 43
0.0
 10
15.55043536780002
 20
2.512644507999993
 10
15.47581977410004
 20
2.237502697800095
 10
15.43883433510001
 20
2.106391696000001
 10
15.39953084530003
 20
1.980101672900048
  0
LINE
  5
1CBF
330
1F
100
AcDbEntity
  8
1
100
AcDbLine
 10
15.59045377110001
 20
2.65578364160001
 30
0.0
 11
15.55043536780002
 21
2.512644507999993
 31
0.0
  0
LWPOLYLINE
  5
1CC0
330
1F
100
AcDbEntity
  8
1
100
AcDbPolyline
 90
        4
 70
     0
 43
0.0
 10
15.70732594760002
 20
3.058364043199901
 10
15.65117060810002
 20
2.8633620672
 10
15.62118317140002
 20
2.761588214500021
 10
15.59045377110001
 20
2.65578364160001
  0
LWPOLYLINE
  5
1CC1
330
1F
100
AcDbEntity
  8
1
100
AcDbPolyline
 90
        9
 70
     0
 43
0.0
 10
15.67638797340001
 20
2.567193531899988
 10
15.77281816640004
 20
2.867454473800023
 10
15.81878519820003
 20
3.010999069299998
 10
15.86216319300001
 20
3.149045077399988
 10
15.90064339730003
 20
3.281002166000006
 10
15.93150385569993
 20
3.405767614400018
 10
15.95399986929999
 20
3.521297291200028
 10
15.96875623310001
 20
3.624134508899998
 10
15.97736828409992
 20
3.713775324200013
  0
LWPOLYLINE
  5
1CC2
330
1F
100
AcDbEntity
  8
1
100
AcDbPolyline
 90
        7
 70
     0
 43
0.0
 10
15.39953084530003
 20
1.980101672900048
 10
15.319209685
 20
1.739649921199998
 10
15.28091514910002
 20
1.617659826299984
 10
15.24452298540001
 20
1.492426602099953
 10
15.20818599350002
 20
1.364727134600001
 10
15.17069818210004
 20
1.235237319299983
 10
15.13188023850003
 20
1.104884250199972
  0
LWPOLYLINE
  5
1CC3
330
1F
100
AcDbEntity
  8
1
100
AcDbPolyline
 90
        7
 70
     0
 43
0.0
 10
13.06662412210002
 20
-3.461989354600007
 10
13.02159600730002
 20
-3.47897213340002
 10
12.9768781002
 20
-3.492891686800021
 10
12.93234523110001
 20
-3.503733006099991
 10
12.88837290980004
 20
-3.511692072799973
 10
12.8453366459
 20
-3.516954986200004
 10
12.8031112697
 20
-3.519481175700036
  0
LINE
  5
1CC4
330
1F
100
AcDbEntity
  8
SK1
100
AcDbLine
 10
0.0
 20
3.349999999999965
 30
0.0
 11
-0.9992960355999683
 21
3.312484226900038
 31
0.0
  0
LWPOLYLINE
  5
1CC5
330
1F
100
AcDbEntity
  8
1
100
AcDbPolyline
 90
       11
 70
     0
 43
0.0
 10
7.935977507600027
 20
4.184286484100083
 10
8.066596248900026
 20
4.187252911200005
 10
8.196631242699993
 20
4.195845467499963
 10
8.326139008799996
 20
4.210068112200018
 10
8.454949987899992
 20
4.229908967600009
 10
8.583049576500004
 20
4.255382381000003
 10
8.710029426900035
 20
4.286413636299982
 10
8.835610736900008
 20
4.322988903300029
 10
8.959390266100003
 20
4.364939871499983
 10
9.080809818500027
 20
4.412072005200002
 10
9.200055459299989
 20
4.464450149699985
  0
LINE
  5
1CC6
330
1F
100
AcDbEntity
  8
SK1
100
AcDbLine
 10
-0.9992960355999683
 20
3.099999999999965
 30
0.0
 11
-1.490047939100064
 21
3.099999999999965
 31
0.0
  0
LINE
  5
1CC7
330
1F
100
AcDbEntity
  8
SK1
100
AcDbLine
 10
-2.059952061000075
 20
3.099999999999965
 30
0.0
 11
-2.875
 21
3.099999999999965
 31
0.0
  0
LINE
  5
1CC8
330
1F
100
AcDbEntity
  8
SK1
100
AcDbLine
 10
-3.675000000000011
 20
3.099999999999965
 30
0.0
 11
-4.375
 21
3.099999999999965
 31
0.0
  0
LINE
  5
1CC9
330
1F
100
AcDbEntity
  8
SK1
100
AcDbLine
 10
-5.175000000000068
 20
3.099999999999965
 30
0.0
 11
-5.875
 21
3.099999999999965
 31
0.0
  0
LINE
  5
1CCA
330
1F
100
AcDbEntity
  8
SK1
100
AcDbLine
 10
-1.564496393499979
 20
2.932941508499993
 30
0.0
 11
-1.945575632399993
 21
2.932941508499993
 31
0.0
  0
LWPOLYLINE
  5
1CCB
330
1F
100
AcDbEntity
  8
1
100
AcDbPolyline
 90
       43
 70
     0
 43
0.0
 10
12.5947294279
 20
3.99487604059999
 10
12.68425326990001
 20
3.991522792700095
 10
12.77328903610001
 20
3.981479958500016
 10
12.86134262690001
 20
3.964800018700031
 10
12.94790933230004
 20
3.941576215099984
 10
13.03249073019992
 20
3.911943013599966
 10
13.11462620980003
 20
3.876062826900009
 10
13.19386605380001
 20
3.834130235600013
 10
13.26975703230002
 20
3.786383034500089
 10
13.34186905160004
 20
3.733091947999979
 10
13.40979931679999
 20
3.674555704400006
 10
13.47316448140003
 20
3.611106620600025
 10
13.53161861429998
 20
3.543092393499988
 10
13.5848424154
 20
3.470881691999977
 10
13.63252824140002
 20
3.394888872099953
 10
13.67440344969992
 20
3.315550846999996
 10
13.71024011060001
 20
3.233302897000044
 10
13.7398401604
 20
3.148598856000091
 10
13.76303671120001
 20
3.061913748400002
 10
13.77969989019999
 20
2.973728955200101
 10
13.78973449030002
 20
2.884545924400014
 10
13.79308487800003
 20
2.794875654099996
 10
13.78973445510002
 20
2.705205439899998
 10
13.77969984820004
 20
2.616022601100098
 10
13.76303670379994
 20
2.527838054699997
 10
13.73984022399995
 20
2.441153185699988
 10
13.71024027030003
 20
2.356449345899989
 10
13.6744037034
 20
2.274201515800029
 10
13.63252857030002
 20
2.194863533800003
 10
13.58484277309992
 20
2.118870668800012
 10
13.5316189479
 20
2.046659860700003
 10
13.47316471980002
 20
1.978645472000095
 10
13.40979941770001
 20
1.915196224700024
 10
13.34186900749992
 20
1.856659852199981
 10
13.26975685730002
 20
1.803368681400001
 10
13.19386580870002
 20
1.755621458099994
 10
13.1146259402
 20
1.713688878500021
 10
13.03249048049991
 20
1.677808723600094
 10
12.94790913330001
 20
1.648175558899993
 10
12.8613424959
 20
1.624951786800011
 10
12.77328897449999
 20
1.608271867600024
 10
12.68425325499999
 20
1.598229041600006
 10
12.57379503030003
 20
1.594875794900019
  0
LWPOLYLINE
  5
1CCC
330
1F
100
AcDbEntity
  8
1
100
AcDbPolyline
 90
        5
 70
     0
 43
0.0
 10
9.946625808100007
 20
4.449000497000041
 10
9.885364015600003
 20
4.451805172700004
 10
9.687697504600038
 20
4.465757069799906
 10
9.490662537699988
 20
4.484582420599906
 10
9.294259114800039
 20
4.508281224999961
  0
LWPOLYLINE
  5
1CCD
330
1F
100
AcDbEntity
  8
1
100
AcDbPolyline
 90
        5
 70
     0
 43
0.0
 10
9.686432047400018
 20
4.476872877099991
 10
9.760223761200023
 20
4.470515031200021
 10
9.838414245899995
 20
4.464219975300011
 10
9.920813636499929
 20
4.458147062099897
 10
9.948473984900003
 20
4.456326423400013
  0
LWPOLYLINE
  5
1CCE
330
1F
100
AcDbEntity
  8
1
100
AcDbPolyline
 90
        3
 70
     0
 43
0.0
 10
9.434053816200018
 20
4.500329757099962
 10
9.556011981099999
 20
4.488855171099999
 10
9.686432047400018
 20
4.476872877099991
  0
LWPOLYLINE
  5
1CCF
330
1F
100
AcDbEntity
  8
1
100
AcDbPolyline
 90
        6
 70
     0
 43
0.0
 10
7.371237249100031
 20
4.237295585699996
 10
7.406205989999987
 20
4.230853610899997
 10
7.537749654000009
 20
4.210419076300013
 10
7.670098482500008
 20
4.195827043800021
 10
7.80292039790001
 20
4.18711259639997
 10
7.935977507600027
 20
4.184286484100083
  0
LWPOLYLINE
  5
1CD0
330
1F
100
AcDbEntity
  8
1
100
AcDbPolyline
 90
        8
 70
     0
 43
0.0
 10
15.77281816640004
 20
-2.867454473699978
 10
15.81878519820003
 20
-3.010999069200011
 10
15.86216319300001
 20
-3.149045077300002
 10
15.90064339730003
 20
-3.281002166000006
 10
15.93150385569993
 20
-3.405767614300031
 10
15.95399986929999
 20
-3.52129729110004
 10
15.96875623310001
 20
-3.624134508800011
 10
15.97736828409992
 20
-3.713775324100026
  0
LWPOLYLINE
  5
1CD1
330
1F
100
AcDbEntity
  8
1
100
AcDbPolyline
 90
        9
 70
     0
 43
0.0
 10
15.34600448280002
 20
-1.424711396400027
 10
15.38767568380001
 20
-1.586916019199975
 10
15.43165949780001
 20
-1.75221612429999
 10
15.47799760499998
 20
-1.918362908499999
 10
15.52634981880001
 20
-2.083886523600028
 10
15.57622123570005
 20
-2.248491560599973
 10
15.6265639636
 20
-2.410158412599912
 10
15.67638797340001
 20
-2.5671935318
 10
15.77281816640004
 20
-2.867454473699978
  0
LINE
  5
1CD2
330
1F
100
AcDbEntity
  8
1
100
AcDbLine
 10
15.30196995950001
 20
-1.24955041139998
 30
0.0
 11
15.34600448280002
 21
-1.424711396400027
 31
0.0
  0
LINE
  5
1CD3
330
1F
100
AcDbEntity
  8
1
100
AcDbLine
 10
15.4323743745
 20
-3.554003741399981
 30
0.0
 11
15.30196995950001
 21
-3.024813451800013
 31
0.0
  0
LWPOLYLINE
  5
1CD4
330
1F
100
AcDbEntity
  8
1
100
AcDbPolyline
 90
       24
 70
     0
 43
0.0
 10
11.81105155510002
 20
-2.727925012000014
 10
11.81441845839993
 20
-2.649797296299992
 10
11.82334463879999
 20
-2.573152660400011
 10
11.83794982749998
 20
-2.498025990900031
 10
11.85787483120003
 20
-2.424787366299995
 10
11.88288788280002
 20
-2.353717410400008
 10
11.9127264361
 20
-2.28511488709995
 10
11.94714865589992
 20
-2.219282357699909
 10
11.98586064140002
 20
-2.15647690410003
 10
12.02855148880002
 20
-2.097013723099961
 10
12.07503037170002
 20
-2.040996649800034
 10
12.12512340630002
 20
-1.988531500499901
 10
12.17846886090001
 20
-1.939883833899898
 10
12.23469008650002
 20
-1.895329713199998
 10
12.29365795100003
 20
-1.854911556700016
 10
12.3552975186999
 20
-1.818665796999994
 10
12.41906955070004
 20
-1.786842992400011
 10
12.48443648980003
 20
-1.75970197769999
 10
12.55131835520001
 20
-1.737221764799983
 10
12.61964830440001
 20
-1.719419156400021
 10
12.68884936610001
 20
-1.70639940129996
 10
12.75837125660004
 20
-1.698274722900009
 10
12.82806707110001
 20
-1.695005004300013
 10
12.84028039850003
 20
-1.694930676000011
  0
LWPOLYLINE
  5
1CD5
330
1F
100
AcDbEntity
  8
1
100
AcDbPolyline
 90
        9
 70
     0
 43
0.0
 10
6.410845770199927
 20
-4.598487104199988
 10
6.527038777399951
 20
-4.533606516299983
 10
6.646260063799926
 20
-4.473813459100028
 10
6.768435118200044
 20
-4.419199747299898
 10
6.892905784600031
 20
-4.370089820600013
 10
7.018917845800016
 20
-4.326739476900002
 10
7.146529687800011
 20
-4.289074481900001
 10
7.275617092400011
 20
-4.257111548799969
 10
7.371232730600012
 20
-4.237296445699996
  0
LWPOLYLINE
  5
1CD6
330
1F
100
AcDbEntity
  8
1
100
AcDbPolyline
 90
       11
 70
     0
 43
0.0
 10
6.0
 20
-4.269200518300009
 10
5.946772468600016
 20
-4.294555910599966
 10
5.891264768499894
 20
-4.317917807700098
 10
5.833283619399908
 20
-4.339442279500018
 10
5.773408862400002
 20
-4.358661115900019
 10
5.712033141799935
 20
-4.375194644399981
 10
5.649524767600013
 20
-4.388933322700039
 10
5.586198347800035
 20
-4.399641088999999
 10
5.522607631900028
 20
-4.4073178287
 10
5.459493565800016
 20
-4.411874889399995
 10
5.396609167599906
 20
-4.413341822000005
  0
LWPOLYLINE
  5
1CD7
330
1F
100
AcDbEntity
  8
1
100
AcDbPolyline
 90
       27
 70
     0
 43
0.0
 10
9.369384781299999
 20
2.763483463
 10
9.342341870100026
 20
2.760766980000084
 10
9.314377056999999
 20
2.755393076500013
 10
9.285454353900036
 20
2.747399323399974
 10
9.255779187900003
 20
2.736609930699955
 10
9.225506904300004
 20
2.722860768399981
 10
9.194769316500014
 20
2.70617080369999
 10
9.163826773599991
 20
2.686581121000017
 10
9.132456508299952
 20
2.663877642499982
 10
9.10051055910003
 20
2.63787509299999
 10
9.068063431000012
 20
2.608506982699963
 10
9.03510792290001
 20
2.575626704099988
 10
9.001774008700008
 20
2.539285212899982
 10
8.968130104100026
 20
2.49941468679998
 10
8.93437205980004
 20
2.456232633899958
 10
8.900722721200025
 20
2.409949982499995
 10
8.867158468700012
 20
2.360538642800008
 10
8.833802201799924
 20
2.308165845399969
 10
8.800466954499993
 20
2.252454454599956
 10
8.767055316600021
 20
2.193152407299975
 10
8.733546736800008
 20
2.130020047800087
 10
8.699926339400008
 20
2.062801105099993
 10
8.666229350100023
 20
1.99126820370003
 10
8.632539542200021
 20
1.915228235399979
 10
8.598882056299999
 20
1.834301489999973
 10
8.565280629100044
 20
1.747993222099978
 10
8.532113994800027
 20
1.656427997799994
  0
LINE
  5
1CD8
330
1F
100
AcDbEntity
  8
1
100
AcDbLine
 10
9.417054353300015
 20
2.766503672800013
 30
0.0
 11
9.369384781299999
 21
2.763483463
 31
0.0
  0
LWPOLYLINE
  5
1CD9
330
1F
100
AcDbEntity
  8
1
100
AcDbPolyline
 90
        6
 70
     0
 43
0.0
 10
9.448700750400007
 20
1.319608514499975
 10
9.397842640600003
 20
1.31663152530001
 10
9.347548041600019
 20
1.313935952699978
 10
9.297818124499995
 20
1.311511160200097
 10
9.248654060600015
 20
1.3093467507
 10
9.200055459299989
 20
1.307442222099949
  0
LINE
  5
1CDA
330
1F
100
AcDbEntity
  8
SK1
100
AcDbLine
 10
-3.074999999999988
 20
2.699999999999988
 30
0.0
 11
-3.454154926799957
 21
2.699999999999988
 31
0.0
  0
LINE
  5
1CDB
330
1F
100
AcDbEntity
  8
SK1
100
AcDbLine
 10
-4.574999999999987
 20
2.699999999999988
 30
0.0
 11
-4.954154926799957
 21
2.699999999999988
 31
0.0
  0
LINE
  5
1CDC
330
1F
100
AcDbEntity
  8
SK1
100
AcDbLine
 10
-6.074999999999986
 20
2.699999999999988
 30
0.0
 11
-6.454154926799956
 21
2.699999999999988
 31
0.0
  0
LWPOLYLINE
  5
1CDD
330
1F
100
AcDbEntity
  8
1
100
AcDbPolyline
 90
       43
 70
     0
 43
0.0
 10
12.57379503030003
 20
1.594875794900019
 10
12.48427118819992
 20
1.598229043800016
 10
12.39523542220001
 20
1.608271879099958
 10
12.30718183160005
 20
1.624951820100021
 10
12.2206151265
 20
1.648175624799988
 10
12.13603372900002
 20
1.677808827299998
 10
12.05389824990001
 20
1.713689014999999
 10
11.97465840629999
 20
1.755621607299985
 10
11.89876742850001
 20
1.803368809400011
 10
11.82665540980002
 20
1.856659896899998
 10
11.75872514530002
 20
1.915196141199999
 10
11.69535998150002
 20
1.978645225799994
 10
11.63690584950001
 20
2.046659453699986
 10
11.58368204929999
 20
2.118870155899969
 10
11.53599622429999
 20
2.194862976399974
 10
11.49412101690001
 20
2.274201001999982
 10
11.45828435710001
 20
2.356448952499988
 10
11.42868430830001
 20
2.441152993799903
 10
11.40548775870002
 20
2.5278381018
 10
11.38882458070003
 20
2.616022895100002
 10
11.37878998170001
 20
2.705205926000019
 10
11.37543959530002
 20
2.794876196399968
 10
11.3787900193
 20
2.884546410499978
 10
11.38882462720002
 20
2.973729249200005
 10
11.40548777280002
 20
3.061913795400016
 10
11.42868425370002
 20
3.148598664100006
 10
11.45828420839999
 20
3.233302503599986
 10
11.49412077640002
 20
3.315550333200008
 10
11.5359959104
 20
3.394888314699982
 10
11.58368170860001
 20
3.470881179000002
 10
11.63690553470002
 20
3.543091986500029
 10
11.69535976370002
 20
3.611106374499968
 10
11.75872506660002
 20
3.674555621000024
 10
11.8266554775
 20
3.733091992600008
 10
11.89876762839992
 20
3.786383162499987
 10
11.9746586775
 20
3.834130384899991
 10
12.05389854660004
 20
3.876062963500031
 10
12.1360340068
 20
3.911943117299983
 10
12.22061535430001
 20
3.941576280999981
 10
12.30718199200001
 20
3.964800052000042
 10
12.3952355136
 20
3.981479970099996
 10
12.48427123330001
 20
3.991522794999979
 10
12.5947294279
 20
3.99487604059999
  0
LWPOLYLINE
  5
1CDE
330
1F
100
AcDbEntity
  8
1
100
AcDbPolyline
 90
        7
 70
     0
 43
0.0
 10
15.30196995950001
 20
1.052078301499989
 10
15.18639381480002
 20
1.0757836482
 10
15.07085952700001
 20
1.099984442899994
 10
14.95536701800003
 20
1.124679277000096
 10
14.839917192
 20
1.149867399900017
 10
14.72451095380001
 20
1.175548079699978
 10
14.60914822420003
 20
1.201719875700007
  0
LWPOLYLINE
  5
1CDF
330
1F
100
AcDbEntity
  8
1
100
AcDbPolyline
 90
        9
 70
     0
 43
0.0
 10
6.410845770199927
 20
4.598487104199988
 10
6.527055631600035
 20
4.533597589500003
 10
6.646302217099844
 20
4.473793477800028
 10
6.768512148999946
 20
4.419167354799982
 10
6.893025233000031
 20
4.3700457443
 10
7.019093801200027
 20
4.326683284299973
 10
7.146750412600026
 20
4.289014623899902
 10
7.275843287900015
 20
4.25706083540001
 10
7.371237249100031
 20
4.237295585699996
  0
LWPOLYLINE
  5
1CE0
330
1F
100
AcDbEntity
  8
1
100
AcDbPolyline
 90
        7
 70
     0
 43
0.0
 10
15.32196988460003
 20
-4.071083973200018
 10
15.33475334760001
 20
-4.098561806500015
 10
15.35213423339999
 20
-4.127882679299999
 10
15.37378094429999
 20
-4.158443906100046
 10
15.399418604
 20
-4.189645798000015
 10
15.42861911550003
 20
-4.220789554800091
 10
15.4609330593
 20
-4.251123498600009
  0
LWPOLYLINE
  5
1CE1
330
1F
100
AcDbEntity
  8
1
100
AcDbPolyline
 90
        7
 70
     0
 43
0.0
 10
11.80382871150001
 20
-3.397395252500017
 10
11.80570976669994
 20
-3.293093610699997
 10
11.80732081780002
 20
-3.185797861100013
 10
11.808662704
 20
-3.075429801700011
 10
11.80973290790001
 20
-2.962224038099975
 10
11.81052891190001
 20
-2.846415175499998
 10
11.81105155510002
 20
-2.727925012000014
  0
LWPOLYLINE
  5
1CE2
330
1F
100
AcDbEntity
  8
1
100
AcDbPolyline
 90
        9
 70
     0
 43
0.0
 10
10.85155726370001
 20
-4.453892528999914
 10
10.85066855300002
 20
-4.463802951300009
 10
10.8499378736
 20
-4.476387216200008
 10
10.84937561799992
 20
-4.491477175800013
 10
10.84899037670001
 20
-4.508858104599994
 10
10.84878786100003
 20
-4.528281596499994
 10
10.84877101470002
 20
-4.549467914399997
 10
10.8489399567
 20
-4.572106830899997
 10
10.8492919345
 20
-4.595882251899978
  0
LWPOLYLINE
  5
1CE3
330
1F
100
AcDbEntity
  8
1
100
AcDbPolyline
 90
        4
 70
     0
 43
0.0
 10
12.58159043900002
 20
1.265419300399968
 10
12.51555868170001
 20
1.25519340080001
 10
12.44917027379992
 20
1.248488866000001
 10
12.38260642690002
 20
1.245317518799992
  0
LWPOLYLINE
  5
1CE4
330
1F
100
AcDbEntity
  8
1
100
AcDbPolyline
 90
       23
 70
     0
 43
0.0
 10
9.200055459299989
 20
1.307442222099949
 10
9.086383486700015
 20
1.304798218099904
 10
8.970288416299922
 20
1.305176721200097
 10
8.851759944500001
 20
1.308621494900022
 10
8.731553202800029
 20
1.315082940299987
 10
8.610272455600011
 20
1.324566481900034
 10
8.488503117899995
 20
1.336930487400024
 10
8.367075005499913
 20
1.35205418480001
 10
8.245913749400017
 20
1.369846708599993
 10
8.125663178800008
 20
1.390122510799982
 10
8.004933980300021
 20
1.413106220700001
 10
7.882854809200011
 20
1.438966166400006
 10
7.758460228000017
 20
1.468052178399999
 10
7.630788999999992
 20
1.500778829900013
 10
7.49912539969992
 20
1.537601771399977
 10
7.361420654699942
 20
1.579550526399998
 10
7.221146329300012
 20
1.625915903100008
 10
7.080706272400021
 20
1.676201413
 10
6.941186584400013
 20
1.730127254400031
 10
6.804454192400014
 20
1.787008775200091
 10
6.670288290399922
 20
1.846955181100098
 10
6.538973005299906
 20
1.909752003700019
 10
6.410845770199927
 20
1.9755702681
  0
LINE
  5
1CE5
330
1F
100
AcDbEntity
  8
1
100
AcDbLine
 10
12.38260642690002
 20
1.245317518799992
 30
0.0
 11
12.35616601870004
 21
1.245039259500002
 31
0.0
  0
LINE
  5
1CE6
330
1F
100
AcDbEntity
  8
SK1
100
AcDbLine
 10
-1.26117755160007
 20
0.7857396244999677
 30
0.0
 11
-1.661177551600076
 21
0.7857396244999677
 31
0.0
  0
LINE
  5
1CE7
330
1F
100
AcDbEntity
  8
1
100
AcDbLine
 10
5.396609167599906
 20
0.4133418220999944
 30
0.0
 11
0.9999999999999149
 21
0.4133418220999944
 31
0.0
  0
LINE
  5
1CE8
330
1F
100
AcDbEntity
  8
4
  6
CENTER
 62
     2
100
AcDbLine
 10
18.00527515245241
 20
0.0
 30
0.0
 11
0.0
 21
0.0
 31
0.0
  0
LINE
  5
1CE9
330
1F
100
AcDbEntity
  8
SK4
  6
CENTER
 62
     2
100
AcDbLine
 10
0.0
 20
0.0
 30
0.0
 11
-8.034386914394103
 21
0.0
 31
0.0
  0
LWPOLYLINE
  5
1CEA
330
1F
100
AcDbEntity
  8
1
100
AcDbPolyline
 90
        6
 70
     0
 43
0.0
 10
12.35616601870004
 20
1.245039259500002
 10
12.31607571839999
 20
1.245681700499972
 10
12.2497790036
 20
1.249570042299978
 10
12.18391643130002
 20
1.256958442600023
 10
12.11869237499999
 20
1.267808980899985
 10
12.05428004230003
 20
1.282076494900024
  0
LWPOLYLINE
  5
1CEB
330
1F
100
AcDbEntity
  8
1
100
AcDbPolyline
 90
       11
 70
     0
 43
0.0
 10
5.396609167599906
 20
0.4133418220999944
 10
5.459493565800016
 20
0.4118748894999841
 10
5.522607631900028
 20
0.4073178287000019
 10
5.586198347800035
 20
0.3996410890999868
 10
5.649524767600013
 20
0.3889333226999838
 10
5.712033141799935
 20
0.3751946444999703
 10
5.773408862400002
 20
0.3586611160000075
 10
5.833283619399908
 20
0.3394422795000196
 10
5.891264768499894
 20
0.3179178078000291
 10
5.946772468600016
 20
0.2945559107000122
 10
6.0
 20
0.2692005183999981
  0
LWPOLYLINE
  5
1CEC
330
1F
100
AcDbEntity
  8
1
100
AcDbPolyline
 90
       17
 70
     0
 43
0.0
 10
10.32248125350003
 20
1.336986863999981
 10
10.26982466420003
 20
1.338300902500008
 10
10.21722914320003
 20
1.339324079899995
 10
10.16473383160004
 20
1.340054908500007
 10
10.11236694089999
 20
1.3404938627001
 10
10.06015320350002
 20
1.340640606000021
 10
10.0081419059
 20
1.34049569909996
 10
9.956388303500006
 20
1.340059735700093
 10
9.904897653600015
 20
1.339334083500034
 10
9.853715416800014
 20
1.33831938610001
 10
9.802777529799923
 20
1.337015620499983
 10
9.752056849500007
 20
1.335419462599986
 10
9.701500758200038
 20
1.333528342299985
 10
9.651069321000022
 20
1.331335022500012
 10
9.600719130599998
 20
1.328834030099983
 10
9.550370772600018
 20
1.326016283199975
 10
9.448700750400007
 20
1.319608514499975
  0
LINE
  5
1CED
330
1F
100
AcDbEntity
  8
1
100
AcDbLine
 10
14.60914822420003
 20
1.201719875700007
 30
0.0
 11
12.58159043900002
 21
1.265419300399968
 31
0.0
  0
LINE
  5
1CEE
330
1F
100
AcDbEntity
  8
1
100
AcDbLine
 10
12.05428004230003
 20
1.282076494900024
 30
0.0
 11
10.32248125350003
 21
1.336986863999981
 31
0.0
  0
LWPOLYLINE
  5
1CEF
330
1F
100
AcDbEntity
  8
1
100
AcDbPolyline
 90
        9
 70
     0
 43
0.0
 10
12.32391170970001
 20
1.245575120400018
 10
12.29218827780002
 20
1.246903546700024
 10
12.26011063679999
 20
1.249055889200008
 10
12.22751829440003
 20
1.252071493399967
 10
12.19436933370002
 20
1.255992210399995
 10
12.16063631310001
 20
1.260864705499955
 10
12.1261343061
 20
1.266769764299965
 10
12.09063828460003
 20
1.2738203376
 10
12.05428004230003
 20
1.282076494900024
  0
LWPOLYLINE
  5
1CF0
330
1F
100
AcDbEntity
  8
SK1
100
AcDbPolyline
 90
       25
 70
     0
 43
0.0
 10
-4.574999999999987
 20
2.699999999999988
 10
-4.57117647410007
 20
2.699653718100022
 10
-4.557352944699971
 20
2.69262677109998
 10
-4.543529415300071
 20
2.676574352200019
 10
-4.529705885900084
 20
2.651550267999994
 10
-4.515882356400084
 20
2.617638397199981
 10
-4.502058827000097
 20
2.574952409700017
 10
-4.488235297599999
 20
2.523635385499972
 10
-4.474411768099969
 20
2.46385933519997
 10
-4.460588238700068
 20
2.395824623500003
 10
-4.446764709299968
 20
2.31975929729998
 10
-4.432941179800081
 20
2.235918321599966
 10
-4.419117650400096
 20
2.144582724599955
 10
-4.405294120999997
 20
2.0460586561
 10
-4.39147059150008
 20
1.940676360899999
 10
-4.377647062099981
 20
1.82878907219998
 10
-4.363823532699966
 20
1.710771827299993
 10
-4.350000003300067
 20
1.587020210599973
 10
-4.336176473799979
 20
1.457949027799998
 10
-4.322352944400051
 20
1.323990915299987
 10
-4.308529415000008
 20
1.185594890000004
 10
-4.294705885500007
 20
1.043224844500002
 10
-4.280882356099964
 20
0.8973579919000369
 10
-4.26705882669998
 20
0.7484832663000134
 10
-4.253235297199978
 20
0.5970996840999874
  0
LWPOLYLINE
  5
1CF1
330
1F
100
AcDbEntity
  8
SK1
100
AcDbPolyline
 90
       24
 70
     0
 43
0.0
 10
-1.490044096999979
 20
3.099999999299996
 10
-1.484759464399985
 20
3.09857003579998
 10
-1.475448848200073
 20
3.089108320100023
 10
-1.466154672600054
 20
3.070854797299999
 10
-1.456883108600094
 20
3.043928819000028
 10
-1.447610247599981
 20
3.008367404699981
 10
-1.438312733500055
 20
2.964146070600008
 10
-1.428995079299965
 20
2.911350804400001
 10
-1.419645941200059
 20
2.849998800000093
 10
-1.410289533600091
 20
2.780373763700025
 10
-1.400944994100085
 20
2.702824669599976
 10
-1.391616209600073
 20
2.617641996000088
 10
-1.382321357199969
 20
2.525296632200023
 10
-1.373036703500075
 20
2.425868842800014
 10
-1.363749797600063
 20
2.319517423700006
 10
-1.354444969600081
 20
2.206344002200011
 10
-1.345092488399955
 20
2.086242904900017
 10
-1.335722086400067
 20
1.959876210199978
 10
-1.326349822799982
 20
1.827807214500012
 10
-1.316986986999977
 20
1.690583748999983
 10
-1.307651858000069
 20
1.548899839700026
 10
-1.298339526799964
 20
1.403126200699999
 10
-1.289060781000074
 20
1.253886412099972
 10
-1.279786810399968
 20
1.101165692099981
  0
LWPOLYLINE
  5
1CF2
330
1F
100
AcDbEntity
  8
1
100
AcDbPolyline
 90
       29
 70
     0
 43
0.0
 10
5.396609167599906
 20
2.446969833799983
 10
5.075546192900019
 20
2.582132432999969
 10
4.770967243999933
 20
2.71700751139997
 10
4.482912592499984
 20
2.85164679769997
 10
4.211261423800009
 20
2.984667471900023
 10
3.956050829600029
 20
3.115050370999994
 10
3.716847363200031
 20
3.242116417999965
 10
3.493370034699921
 20
3.365150372199991
 10
3.285198565800016
 20
3.483618704299998
 10
3.092113374299913
 20
3.596908984700006
 10
2.913231382699933
 20
3.704945654699997
 10
2.747842861799909
 20
3.807518855599993
 10
2.595208185300009
 20
3.904650692000018
 10
2.454601052199933
 20
3.996280815700004
 10
2.325271757300042
 20
4.082586968800002
 10
2.206421403000035
 20
4.163673229700008
 10
2.097471264699918
 20
4.239715675300033
 10
1.99766715719994
 20
4.310913552099975
 10
1.906736564499936
 20
4.377263675199968
 10
1.824331425100011
 20
4.438771139700008
 10
1.749924189299916
 20
4.495698211800003
 10
1.682957629799914
 20
4.548235518899956
 10
1.62317271699993
 20
4.596495596299972
 10
1.570178547500005
 20
4.640622988899963
 10
1.523813515599924
 20
4.680652559599991
 10
1.483876806899899
 20
4.716612624899994
 10
1.450095144100031
 20
4.748707906200023
 10
1.42214938150002
 20
4.777073332099972
 10
1.411208588799921
 20
4.78893318979999
  0
LWPOLYLINE
  5
1CF3
330
1F
100
AcDbEntity
  8
1
100
AcDbPolyline
 90
       17
 70
     0
 43
0.0
 10
6.410845770199927
 20
1.9755702681
 10
6.351591434600037
 20
2.006748324700025
 10
6.291431022899928
 20
2.037844882099989
 10
6.230437078399916
 20
2.068847547000018
 10
6.168710916799937
 20
2.099700658100004
 10
6.106347384999991
 20
2.130357437899987
 10
6.043441156600039
 20
2.160776973599979
 10
5.980097308599937
 20
2.190910410000014
 10
5.916378845999901
 20
2.220735347900017
 10
5.852384754899928
 20
2.250206592999973
 10
5.788104133500012
 20
2.279339375400013
 10
5.723556182500003
 20
2.308121894400017
 10
5.658733444800018
 20
2.336566843399964
 10
5.593633601100008
 20
2.364669036299971
 10
5.528250181900033
 20
2.392438853700014
 10
5.462539338900028
 20
2.419897154500005
 10
5.396609167599906
 20
2.446969833799983
  0
LINE
  5
1CF4
330
1F
100
AcDbEntity
  8
1
100
AcDbLine
 10
15.42647603700001
 20
-4.548998594800025
 30
0.0
 11
15.31877587730003
 21
-4.448143921200028
 31
0.0
  0
LINE
  5
1CF5
330
1F
100
AcDbEntity
  8
1
100
AcDbLine
 10
15.63842437910003
 20
-4.748418127000036
 30
0.0
 11
15.42647603700001
 21
-4.548998594800025
 31
0.0
  0
LWPOLYLINE
  5
1CF6
330
1F
100
AcDbEntity
  8
1
100
AcDbPolyline
 90
       15
 70
     0
 43
0.0
 10
9.338648548100023
 20
1.838557883100008
 10
9.338193636600037
 20
1.881392266500028
 10
9.33869887900002
 20
1.924178858199979
 10
9.3400898095
 20
1.96690396179997
 10
9.342646836400037
 20
2.009393674900024
 10
9.346828669500011
 20
2.051643278100015
 10
9.352087264200008
 20
2.093820622500004
 10
9.35784158040002
 20
2.13578496330001
 10
9.364637096399915
 20
2.177283664699984
 10
9.372706848200039
 20
2.21832711319996
 10
9.382388573700012
 20
2.259098032299958
 10
9.394028924200027
 20
2.299263055600022
 10
9.406728789600037
 20
2.338725844400015
 10
9.420050845500014
 20
2.377878155699988
 10
9.433664864600016
 20
2.416927306100091
  0
LINE
  5
1CF7
330
1F
100
AcDbEntity
  8
1
100
AcDbLine
 10
9.20889604230004
 20
1.842854220599974
 30
0.0
 11
9.205713310599945
 21
1.707889212199972
 31
0.0
  0
LWPOLYLINE
  5
1CF8
330
1F
100
AcDbEntity
  8
1
100
AcDbPolyline
 90
        3
 70
     0
 43
0.0
 10
9.205713310599945
 20
1.707889212199972
 10
9.199093892100023
 20
1.448886016000017
 10
9.195720943100011
 20
1.307534688399982
  0
LWPOLYLINE
  5
1CF9
330
1F
100
AcDbEntity
  8
1
100
AcDbPolyline
 90
       13
 70
     0
 43
0.0
 10
9.33024312389992
 20
1.313092178200008
 10
9.330497096100003
 20
1.317169137299969
 10
9.332496878500023
 20
1.355544232099986
 10
9.334255588500012
 20
1.395533124300015
 10
9.335831025400011
 20
1.437344563300029
 10
9.337256109900009
 20
1.481000393999976
 10
9.338561374500015
 20
1.527012622399978
 10
9.339686185400012
 20
1.575244277800038
 10
9.340520755800014
 20
1.625321582800096
 10
9.340889354500006
 20
1.676751685300018
 10
9.340687828000026
 20
1.729255562800004
 10
9.339947998500006
 20
1.782873475799988
 10
9.338648548100023
 20
1.838557883100008
  0
LWPOLYLINE
  5
1CFA
330
1F
100
AcDbEntity
  8
1
100
AcDbPolyline
 90
        7
 70
     0
 43
0.0
 10
10.1179858481
 20
4.597438759700025
 10
10.1242107681
 20
4.623345262099973
 10
10.13073781850002
 20
4.648445624700001
 10
10.13765887420001
 20
4.672723379600085
 10
10.14508699760003
 20
4.696114779000026
 10
10.15309933330002
 20
4.71855247229996
 10
10.16171510339998
 20
4.740027443799988
  0
LINE
  5
1CFB
330
1F
100
AcDbEntity
  8
1
100
AcDbLine
 10
10.04895464910004
 20
4.856015958900002
 30
0.0
 11
9.952365413300016
 21
4.471751526899993
 31
0.0
  0
LWPOLYLINE
  5
1CFC
330
1F
100
AcDbEntity
  8
1
100
AcDbPolyline
 90
       15
 70
     0
 43
0.0
 10
9.952365413300016
 20
4.471751526899993
 10
9.927805943799995
 20
4.374401063399999
 10
9.903023684000002
 20
4.277233414400028
 10
9.877855937400028
 20
4.180221260300014
 10
9.852119552900004
 20
4.083250606799992
 10
9.825697713700037
 20
3.986626317800016
 10
9.798429026799992
 20
3.89048756149998
 10
9.770247322100033
 20
3.794999565000011
 10
9.741110691300008
 20
3.700180000499982
 10
9.711298451499999
 20
3.606584345800001
 10
9.681154124100032
 20
3.514755847900004
 10
9.650776983300003
 20
3.424609996800086
 10
9.620440017600033
 20
3.336589526000011
 10
9.590109383700024
 20
3.250156397099998
 10
9.559788181700014
 20
3.164957516299977
  0
LWPOLYLINE
  5
1CFD
330
1F
100
AcDbEntity
  8
1
100
AcDbPolyline
 90
       23
 70
     0
 43
0.0
 10
12.84028039850003
 20
-1.694930676000011
 10
12.89775402580002
 20
-1.696590453099985
 10
12.96698947339999
 20
-1.702985785000008
 10
13.03537515940002
 20
-1.714172775700091
 10
13.10259512210001
 20
-1.730035231700014
 10
13.16825451140002
 20
-1.750464944500038
 10
13.2321917376
 20
-1.775386362700031
 10
13.29426487020001
 20
-1.804762060100016
 10
13.3540200827
 20
-1.838335422800014
 10
13.41095456490001
 20
-1.875827970800003
 10
13.46507333820003
 20
-1.917241321599987
 10
13.51634841380002
 20
-1.962576147499986
 10
13.56437601199999
 20
-2.011518430400029
 10
13.60876523460001
 20
-2.063739699099983
 10
13.64944944769999
 20
-2.119261521699967
 10
13.6863420697
 20
-2.17808172040003
 10
13.71911204490001
 20
-2.239896828199903
 10
13.74747045210003
 20
-2.304445971399899
 10
13.77120430530001
 20
-2.371574926800008
 10
13.79009396570004
 20
-2.44110408329999
 10
13.80387047120001
 20
-2.512816635900037
 10
13.81214887499999
 20
-2.586449663200028
 10
13.81505749280004
 20
-2.6619357175
  0
LINE
  5
1CFE
330
1F
100
AcDbEntity
  8
1
100
AcDbLine
 10
12.89601804
 20
-1.70173196950003
 30
0.0
 11
12.82157359170003
 21
-1.695803823699975
 31
0.0
  0
LWPOLYLINE
  5
1CFF
330
1F
100
AcDbEntity
  8
SK1
100
AcDbPolyline
 90
       24
 70
     0
 43
0.0
 10
-3.074999999999988
 20
2.699999999999988
 10
-3.064411766199981
 20
2.697344863599994
 10
-3.050588236799966
 20
2.685896372499995
 10
-3.036764707299993
 20
2.665444969400026
 10
-3.022941177899979
 20
2.636059205700006
 10
-3.009117648500051
 20
2.597837580200006
 10
-2.995294119100066
 20
2.550908208800023
 10
-2.981470589600006
 20
2.495428395000088
 10
-2.967647060199964
 20
2.431584102800002
 10
-2.953823530799978
 20
2.359589333100018
 10
-2.940000001300091
 20
2.279685406700024
 10
-2.926176471900078
 20
2.192140155300023
 10
-2.912352942500091
 20
2.097247023600004
 10
-2.898529413000062
 20
1.995324085899994
 10
-2.884705883599963
 20
1.886712979799995
 10
-2.870882354200062
 20
1.771777761099996
 10
-2.857058824699975
 20
1.650903683699993
 10
-2.843235295300075
 20
1.524495907700099
 10
-2.829411765899975
 20
1.392978142199979
 10
-2.815588236499991
 20
1.256791224200014
 10
-2.801764706999961
 20
1.116391641500001
 10
-2.787941177599974
 20
0.9722500022999723
 10
-2.77411764819999
 20
0.8248494581000045
 10
-2.760294118700073
 20
0.6746840838999903
  0
LWPOLYLINE
  5
1D00
330
1F
100
AcDbEntity
  8
SK1
100
AcDbPolyline
 90
       24
 70
     0
 43
0.0
 10
-6.074999999999986
 20
2.699999999999988
 10
-6.064117652699962
 20
2.697195335300023
 10
-6.050294123200075
 20
2.685554788700017
 10
-6.036470593799974
 20
2.66491247509998
 10
-6.022647064400075
 20
2.635337585800016
 10
-6.008823534900158
 20
2.596929253599966
 10
-5.995000005500059
 20
2.549816219999968
 10
-5.981176476099959
 20
2.494156404299984
 10
-5.967352946599987
 20
2.430136373700008
 10
-5.953529417199972
 20
2.357970718399997
 10
-5.939705887800072
 20
2.27790133190001
 10
-5.925882358399974
 20
2.190196600400099
 10
-5.912058828900085
 20
2.095150503300033
 10
-5.898235299499957
 20
1.993081627499974
 10
-5.884411770099972
 20
1.884332099900007
 10
-5.870588240599971
 20
1.769266440299985
 10
-5.856764711199986
 20
1.648270339600003
 10
-5.842941181799973
 20
1.52174936709997
 10
-5.829117652300083
 20
1.390127611299988
 10
-5.815294122900096
 20
1.25384625769999
 10
-5.801470593500056
 20
1.113362110799982
 10
-5.787647063999968
 20
0.9691460620999803
 10
-5.773823534600068
 20
0.8216815125999801
 10
-5.760000005200081
 20
0.6714627517000054
  0
LWPOLYLINE
  5
1D01
330
1F
100
AcDbEntity
  8
SK1
100
AcDbPolyline
 90
       25
 70
     0
 43
0.0
 10
-1.564496393499979
 20
2.932941508499993
 10
-1.554158867400104
 20
2.930178097400016
 10
-1.541420549300084
 20
2.919158879000008
 10
-1.528682231199978
 20
2.899727390300029
 10
-1.515943913200089
 20
2.87190024260002
 10
-1.503205595099984
 20
2.835718348400007
 10
-1.490467276999964
 20
2.791246914200087
 10
-1.477728958900057
 20
2.738575362099993
 10
-1.464990640800066
 20
2.677817181199997
 10
-1.452252322799977
 20
2.609109708300024
 10
-1.439514004700157
 20
2.532613838200005
 10
-1.426775686599995
 20
2.4485136646
 10
-1.414037368499975
 20
2.357016051599998
 10
-1.401299050500057
 20
2.258350137900094
 10
-1.388560732400093
 20
2.152766773099982
 10
-1.375822414299959
 20
2.040537889500001
 10
-1.363084096200053
 20
1.921955809300015
 10
-1.350345778200079
 20
1.797332489799998
 10
-1.337607460100059
 20
1.666998708199968
 10
-1.324869141999982
 20
1.531303188100024
 10
-1.312130823900075
 20
1.390611670800012
 10
-1.299392505899959
 20
1.245305931800089
 10
-1.286654187800052
 20
1.095782747899987
 10
-1.27391586970009
 20
0.9424528156000063
 10
-1.26117755160007
 20
0.7857396244999677
  0
LWPOLYLINE
  5
1D02
330
1F
100
AcDbEntity
  8
SK1
100
AcDbPolyline
 90
       24
 70
     0
 43
0.0
 10
-2.875000000199975
 20
3.099999999999965
 10
-2.861551818799966
 20
3.095082762599986
 10
-2.848098333599978
 20
3.080338906000008
 10
-2.834702300500083
 20
3.055940660299994
 10
-2.821339098800081
 20
3.022017785200091
 10
-2.807999848900066
 20
2.97871473629999
 10
-2.79467374309999
 20
2.926170761499975
 10
-2.781349048099968
 20
2.864518497699975
 10
-2.76801966039997
 20
2.79391848130001
 10
-2.754670138099982
 20
2.714484601200013
 10
-2.741316763399963
 20
2.62653854360002
 10
-2.727977003900064
 20
2.530479196300006
 10
-2.714631861099973
 20
2.426477510700009
 10
-2.701272455300056
 20
2.314772327900016
 10
-2.687885897699969
 20
2.195571451999966
 10
-2.674444047200096
 20
2.06893435889998
 10
-2.660983780199956
 20
1.935553135600001
 10
-2.647525456699979
 20
1.796041073200001
 10
-2.634090483999982
 20
1.651079273999981
 10
-2.620724075399976
 20
1.501668805999996
 10
-2.60737517329997
 20
1.347756891000017
 10
-2.594011571699978
 20
1.18945595240001
 10
-2.580621928500049
 20
1.027109822699969
 10
-2.567171236399985
 20
0.8607720411000059
  0
LWPOLYLINE
  5
1D03
330
1F
100
AcDbEntity
  8
1
100
AcDbPolyline
 90
       11
 70
     0
 43
0.0
 10
10.59606353999999
 20
-4.478123822900045
 10
10.60199875210003
 20
-4.498228020099985
 10
10.6104477565
 20
-4.518118605599909
 10
10.62127299870002
 20
-4.536812779999991
 10
10.63454557240001
 20
-4.55355738540004
 10
10.65034590730002
 20
-4.567869321800003
 10
10.66853235230002
 20
-4.579415332300014
 10
10.68856571340001
 20
-4.588162650699985
 10
10.71013157249999
 20
-4.594336569099993
 10
10.73277184900002
 20
-4.598119022599972
 10
10.7553214543
 20
-4.599499186400008
  0
LINE
  5
1D04
330
1F
100
AcDbEntity
  8
1
100
AcDbLine
 10
10.04895464910004
 20
-4.856015958900002
 30
0.0
 11
9.948472431200029
 21
-4.4563202649
 31
0.0
  0
LINE
  5
1D05
330
1F
100
AcDbEntity
  8
1
100
AcDbLine
 10
10.584345627
 20
-4.42962570559996
 30
0.0
 11
10.58982264160002
 21
-4.451852339099899
 31
0.0
  0
LINE
  5
1D06
330
1F
100
AcDbEntity
  8
1
100
AcDbLine
 10
10.58982264160002
 20
-4.451852339099899
 30
0.0
 11
10.59606353999999
 21
-4.478123822900045
 31
0.0
  0
LWPOLYLINE
  5
1D07
330
1F
100
AcDbEntity
  8
1
100
AcDbPolyline
 90
        8
 70
     0
 43
0.0
 10
8.822152758599997
 20
1.310212963200001
 10
8.817787848000023
 20
1.332160271000019
 10
8.808040481299997
 20
1.398623499300015
 10
8.801892986300002
 20
1.4633838556
 10
8.799141956500022
 20
1.523565582400009
 10
8.799178874900007
 20
1.582384088299988
 10
8.802127798399991
 20
1.642560194700024
 10
8.808116088399998
 20
1.702892232599991
  0
LWPOLYLINE
  5
1D08
330
1F
100
AcDbEntity
  8
1
100
AcDbPolyline
 90
       15
 70
     0
 43
0.0
 10
8.808116088399998
 20
1.702892232599991
 10
8.818736669600014
 20
1.765069646799985
 10
8.834334868300004
 20
1.826963282199983
 10
8.855228245899921
 20
1.888595937900048
 10
8.881052457600018
 20
1.949661256599995
 10
8.911589527200021
 20
2.0099101399
 10
8.946737215800027
 20
2.069133830400005
 10
8.986326615199999
 20
2.127174568599969
 10
9.030197774400022
 20
2.183599988799983
 10
9.078201428800014
 20
2.238150381100011
 10
9.129870706700014
 20
2.29014942240002
 10
9.184752129200004
 20
2.339023047299974
 10
9.242281412800023
 20
2.384275902900014
 10
9.301612280900002
 20
2.425213028699999
 10
9.303380338999943
 20
2.426275405699982
  0
LWPOLYLINE
  5
1D09
330
1F
100
AcDbEntity
  8
1
100
AcDbPolyline
 90
        7
 70
     0
 43
0.0
 10
9.561889500699919
 20
2.801658953799972
 10
9.573538443800003
 20
2.839865906999988
 10
9.584971184500004
 20
2.878042114999971
 10
9.596181924800019
 20
2.916253883699993
 10
9.607195611400015
 20
2.954616048800004
 10
9.618019729999986
 20
2.993112487500013
 10
9.628644797199996
 20
3.031642849099966
  0
LWPOLYLINE
  5
1D0A
330
1F
100
AcDbEntity
  8
1
100
AcDbPolyline
 90
        7
 70
     0
 43
0.0
 10
9.628644797199996
 20
3.031642849099966
 10
9.6727676422
 20
3.175063638899985
 10
9.715910589299994
 20
3.31410414039999
 10
9.758401791700007
 20
3.449060967399987
 10
9.800357831000011
 20
3.580042068999999
 10
9.841452132800014
 20
3.7062845129999
 10
9.881758354299988
 20
3.827995358199983
  0
LWPOLYLINE
  5
1D0B
330
1F
100
AcDbEntity
  8
1
100
AcDbPolyline
 90
       10
 70
     0
 43
0.0
 10
8.532113994800027
 20
1.656427997799994
 10
8.520781331500018
 20
1.62158850259999
 10
8.510882141300013
 20
1.586114873899986
 10
8.502493990800017
 20
1.550136722999979
 10
8.495603761900014
 20
1.513267072199994
 10
8.490228476800012
 20
1.475256622900019
 10
8.486521829999986
 20
1.43586795179999
 10
8.484627567499982
 20
1.39482525530002
 10
8.484807876600028
 20
1.352082654500009
 10
8.48565248280002
 20
1.337285529899985
  0
LWPOLYLINE
  5
1D0C
330
1F
100
AcDbEntity
  8
1
100
AcDbPolyline
 90
        6
 70
     0
 43
0.0
 10
9.487490592200003
 20
2.571150496500024
 10
9.500526270399999
 20
2.609489096200036
 10
9.513332777300037
 20
2.647978862199976
 10
9.525765489700006
 20
2.686499770800024
 10
9.537941243000032
 20
2.725009902199984
 10
9.561889500699919
 20
2.801658953799972
  0
LWPOLYLINE
  5
1D0D
330
1F
100
AcDbEntity
  8
1
100
AcDbPolyline
 90
        3
 70
     0
 43
0.0
 10
9.433664864600016
 20
2.416927306100091
 10
9.460391522400016
 20
2.494472682700005
 10
9.487490592200003
 20
2.571150496500024
  0
LWPOLYLINE
  5
1D0E
330
1F
100
AcDbEntity
  8
1
100
AcDbPolyline
 90
       13
 70
     0
 43
0.0
 10
9.469959345700033
 20
2.915527230199983
 10
9.440426571100003
 20
2.832835429400006
 10
9.411224509200023
 20
2.749958225400006
 10
9.382201175699918
 20
2.666259365699999
 10
9.353259156000007
 20
2.581194811999977
 10
9.324643986900014
 20
2.49480446389998
 10
9.297266363800018
 20
2.406571121599994
 10
9.272418631200023
 20
2.316618828199977
 10
9.251147948000037
 20
2.2247493168
 10
9.234185085800019
 20
2.131090781099998
 10
9.221527133100011
 20
2.035973401299997
 10
9.213098599999996
 20
1.939630100300006
 10
9.20889604230004
 20
1.842854220599974
  0
LINE
  5
1D0F
330
1F
100
AcDbEntity
  8
1
100
AcDbLine
 10
9.559788181700014
 20
3.164957516299977
 30
0.0
 11
9.469959345700033
 21
2.915527230199983
 31
0.0
  0
LWPOLYLINE
  5
1D10
330
1F
100
AcDbEntity
  8
1
100
AcDbPolyline
 90
        7
 70
     0
 43
0.0
 10
9.881758354299988
 20
3.827995358199983
 10
9.925149580400015
 20
3.943255772500093
 10
9.967845076400037
 20
4.063481829999999
 10
10.01021669870002
 20
4.18826046380002
 10
10.05006318470001
 20
4.318737293600008
 10
10.08622993190002
 20
4.455210487300006
 10
10.11798589490001
 20
4.597438758899953
  0
LINE
  5
1D11
330
1F
100
AcDbEntity
  8
1
100
AcDbLine
 10
10.16171510339998
 20
4.740027443799988
 30
0.0
 11
10.16980693140002
 21
4.759263975800023
 31
0.0
  0
LWPOLYLINE
  5
1D12
330
1F
100
AcDbEntity
  8
1
100
AcDbPolyline
 90
        5
 70
     0
 43
0.0
 10
10.16980693140002
 20
4.759263975800023
 10
10.17378742400001
 20
4.768564992999983
 10
10.17785631080002
 20
4.777584255699991
 10
10.18211492480003
 20
4.786277948699988
 10
10.18660769499999
 20
4.794604523799987
  0
LWPOLYLINE
  5
1D13
330
1F
100
AcDbEntity
  8
1
100
AcDbPolyline
 90
       33
 70
     0
 43
0.0
 10
10.18660769499999
 20
4.794604523799987
 10
10.19162504850001
 20
4.802625412999987
 10
10.19749944240001
 20
4.810176286900001
 10
10.20414500000001
 20
4.817199560099993
 10
10.21132848990001
 20
4.823455998700011
 10
10.21908323120001
 20
4.829011587699993
 10
10.22750082570002
 20
4.833707734099903
 10
10.2362289609
 20
4.837518263199966
 10
10.2451475224
 20
4.840473241099971
 10
10.25424922120001
 20
4.842545141000016
 10
10.2634367942
 20
4.843918820999988
 10
10.27276435109999
 20
4.844737189499993
 10
10.28211715310002
 20
4.845207994799975
 10
10.29149629800002
 20
4.845500560499998
 10
10.30071835949999
 20
4.845367422099967
 10
10.30939813720002
 20
4.844687148499986
 10
10.3175616977
 20
4.843425698400096
 10
10.3249721333
 20
4.841649997200021
 10
10.33182767550002
 20
4.83982895150001
 10
10.33827442400002
 20
4.838329949699981
 10
10.3444076586
 20
4.837283325200018
 10
10.35038348860001
 20
4.836836586499997
 10
10.35618586929999
 20
4.837137267800016
 10
10.36189578710002
 20
4.838366137600018
 10
10.36749883350001
 20
4.840608695800028
 10
10.37296934080001
 20
4.843626996900012
 10
10.37845831499999
 20
4.847205832600025
 10
10.3841836254
 20
4.851120217400023
 10
10.39028415339999
 20
4.855103542099981
 10
10.3969886815
 20
4.858863463100021
 10
10.40446509540001
 20
4.862037454199992
 10
10.4127185154
 20
4.864591612399976
 10
10.42158346370001
 20
4.866659477700011
  0
LINE
  5
1D14
330
1F
100
AcDbEntity
  8
SK1
100
AcDbLine
 10
-5.724999999999994
 20
-2.699999999999988
 30
0.0
 11
-5.345844937899983
 21
-2.699999999999988
 31
0.0
  0
LINE
  5
1D15
330
1F
100
AcDbEntity
  8
SK1
100
AcDbLine
 10
-4.224999999999993
 20
-2.699999999999988
 30
0.0
 11
-3.845844937900096
 21
-2.699999999999988
 31
0.0
  0
LINE
  5
1D16
330
1F
100
AcDbEntity
  8
SK1
100
AcDbLine
 10
-2.724999999999993
 20
-2.699999999999988
 30
0.0
 11
-2.345844937899983
 21
-2.699999999999988
 31
0.0
  0
LINE
  5
1D17
330
1F
100
AcDbEntity
  8
SK1
100
AcDbLine
 10
-0.9992960355999683
 20
-3.100000000000021
 30
0.0
 11
-2.125000000000084
 21
-3.100000000000021
 31
0.0
  0
LINE
  5
1D18
330
1F
100
AcDbEntity
  8
SK1
100
AcDbLine
 10
-2.925000000000011
 20
-3.100000000000021
 30
0.0
 11
-3.625
 21
-3.100000000000021
 31
0.0
  0
LINE
  5
1D19
330
1F
100
AcDbEntity
  8
SK1
100
AcDbLine
 10
-4.425000000000068
 20
-3.100000000000021
 30
0.0
 11
-5.125
 21
-3.100000000000021
 31
0.0
  0
LINE
  5
1D1A
330
1F
100
AcDbEntity
  8
SK1
100
AcDbLine
 10
-5.925000000000012
 20
-3.100000000000021
 30
0.0
 11
-6.300000007400085
 21
-3.100000000000021
 31
0.0
  0
LINE
  5
1D1B
330
1F
100
AcDbEntity
  8
1
100
AcDbLine
 10
15.85924604519999
 20
-3.823509383200017
 30
0.0
 11
15.87823425499999
 21
-3.826650289300004
 31
0.0
  0
LINE
  5
1D1C
330
1F
100
AcDbEntity
  8
1
100
AcDbLine
 10
15.44971235740002
 20
-3.753755822300036
 30
0.0
 11
15.83052899430001
 21
-3.81851449879997
 31
0.0
  0
LINE
  5
1D1D
330
1F
100
AcDbEntity
  8
1
100
AcDbLine
 10
15.83052899430001
 20
-3.81851449879997
 30
0.0
 11
15.85924604519999
 21
-3.823509383200017
 31
0.0
  0
LWPOLYLINE
  5
1D1E
330
1F
100
AcDbEntity
  8
SK1
100
AcDbPolyline
 90
       24
 70
     0
 43
0.0
 10
-4.375000116200054
 20
3.099999999999965
 10
-4.361658451299972
 20
3.095160412199902
 10
-4.348245725100071
 20
3.080553533199973
 10
-4.334867902899986
 20
3.056301186200016
 10
-4.321498734100089
 20
3.022479131500006
 10
-4.308127965100055
 20
2.979175096599988
 10
-4.294744201900073
 20
2.926472703099988
 10
-4.281320319599983
 20
2.864375861200016
 10
-4.267893257999986
 20
2.793206934099997
 10
-4.254491527600066
 20
2.713363701899993
 10
-4.241113291600071
 20
2.625134190899983
 10
-4.227782285899961
 20
2.529017785199981
 10
-4.214450303200067
 20
2.425009559099976
 10
-4.201074905100056
 20
2.313065240900016
 10
-4.18766252120008
 20
2.193522776399959
 10
-4.174194062800069
 20
2.066515843099978
 10
-4.16070364609996
 20
1.932710366900096
 10
-4.147211716099973
 20
1.792718944999989
 10
-4.133740198599979
 20
1.647227778099987
 10
-4.120324377600069
 20
1.497126122299959
 10
-4.106944622400162
 20
1.342719918099987
 10
-4.093602084100068
 20
1.184543893399904
 10
-4.080269700399981
 20
1.022793279300002
 10
-4.066920977800066
 20
0.8576496855999947
  0
LWPOLYLINE
  5
1D1F
330
1F
100
AcDbEntity
  8
SK1
100
AcDbPolyline
 90
       24
 70
     0
 43
0.0
 10
-5.874999897900096
 20
3.099999999999965
 10
-5.861584974100082
 20
3.095106972400003
 10
-5.848248850199978
 20
3.080558071200016
 10
-5.834912701699978
 20
3.056398462999993
 10
-5.821563409800062
 20
3.022665659599964
 10
-5.808186961500097
 20
2.979386800100029
 10
-5.794776587999989
 20
2.926611403700006
 10
-5.781308932800072
 20
2.864319314700026
 10
-5.767819746400077
 20
2.792792761099974
 10
-5.754329787800059
 20
2.712347367500001
 10
-5.740860674499969
 20
2.623387985600003
 10
-5.727448429100063
 20
2.52650818530003
 10
-5.714070595100053
 20
2.421934970300013
 10
-5.700732493399954
 20
2.31010261389997
 10
-5.687386815099983
 20
2.190991515900008
 10
-5.673974700100075
 20
2.064391716800001
 10
-5.660536122899968
 20
1.931009089200016
 10
-5.647083257899963
 20
1.79135783600003
 10
-5.633640644699966
 20
1.646132504799993
 10
-5.620245880899971
 20
1.49623348990002
 10
-5.606871966200059
 20
1.341869489999907
 10
-5.593507966099963
 20
1.183414396800002
 10
-5.580143281400068
 20
1.021243475499999
 10
-5.56675363890008
 20
0.8555613529999844
  0
LINE
  5
1D20
330
1F
100
AcDbEntity
  8
1
100
AcDbLine
 10
6.0
 20
-4.269200518300009
 30
0.0
 11
6.0
 21
0.2692005183999981
 31
0.0
  0
LINE
  5
1D21
330
1F
100
AcDbEntity
  8
1
100
AcDbLine
 10
9.294259114800039
 20
4.508281224999961
 30
0.0
 11
9.200055459299989
 21
4.464450149699985
 31
0.0
  0
LINE
  5
1D22
330
1F
100
AcDbEntity
  8
1
100
AcDbLine
 10
15.30196995950001
 20
-3.576730185699999
 30
0.0
 11
15.30773126780002
 21
-3.575640252699996
 31
0.0
  0
LINE
  5
1D23
330
1F
100
AcDbEntity
  8
1
100
AcDbLine
 10
15.30773126780002
 20
-3.575640252699996
 30
0.0
 11
15.33316331280002
 21
-3.57105538600001
 31
0.0
  0
LINE
  5
1D24
330
1F
100
AcDbEntity
  8
1
100
AcDbLine
 10
15.33316331280002
 20
-3.57105538600001
 30
0.0
 11
15.38775392190001
 21
-3.561578950500006
 31
0.0
  0
LINE
  5
1D25
330
1F
100
AcDbEntity
  8
1
100
AcDbLine
 10
15.38775392190001
 20
-3.561578950500006
 30
0.0
 11
15.43237371929999
 21
-3.554003900999986
 31
0.0
  0
LWPOLYLINE
  5
1D26
330
1F
100
AcDbEntity
  8
1
100
AcDbPolyline
 90
        8
 70
     0
 43
0.0
 10
9.436125971700024
 20
-4.500146709399983
 10
9.620096524800032
 20
-4.482875761800016
 10
9.689040077100033
 20
-4.476642531200012
 10
9.76306587640002
 20
-4.470277810000027
 10
9.841511658800015
 20
-4.463980399100023
 10
9.923682266600023
 20
-4.457946740500005
 10
10.00908180440001
 20
-4.45234370129998
 10
10.0964288902
 20
-4.447371383799974
  0
LINE
  5
1D27
330
1F
100
AcDbEntity
  8
1
100
AcDbLine
 10
15.36602937030002
 20
-3.758464071399997
 30
0.0
 11
15.31499156310002
 21
-3.761504420899996
 31
0.0
  0
LINE
  5
1D28
330
1F
100
AcDbEntity
  8
1
100
AcDbLine
 10
15.44971240580003
 20
-3.753755821299988
 30
0.0
 11
15.36602937030002
 21
-3.758464071399997
 31
0.0
  0
LWPOLYLINE
  5
1D29
330
1F
100
AcDbEntity
  8
1
100
AcDbPolyline
 90
        3
 70
     0
 43
0.0
 10
10.0964288902
 20
-4.447371383799974
 10
10.18408907370002
 20
-4.443197654599997
 10
10.27259960740002
 20
-4.439854359299999
  0
LWPOLYLINE
  5
1D2A
330
1F
100
AcDbEntity
  8
1
100
AcDbPolyline
 90
        3
 70
     0
 43
0.0
 10
15.19295819499999
 20
-4.276690571900018
 10
14.72714400110001
 20
-4.293294710699909
 10
14.60914822420003
 20
-4.297443239100005
  0
LINE
  5
1D2B
330
1F
100
AcDbEntity
  8
1
100
AcDbLine
 10
15.09293520569991
 20
-4.313781148299995
 30
0.0
 11
10.85155721140003
 21
-4.453892400799985
 31
0.0
  0
LINE
  5
1D2C
330
1F
100
AcDbEntity
  8
1
100
AcDbLine
 10
10.27259960740002
 20
-4.439854359299999
 30
0.0
 11
14.60914822420003
 21
-4.297443239100005
 31
0.0
  0
LINE
  5
1D2D
330
1F
100
AcDbEntity
  8
1
100
AcDbLine
 10
15.31877587730003
 20
-4.448143921200028
 30
0.0
 11
10.81666204629999
 21
-4.596964486200021
 31
0.0
  0
LINE
  5
1D2E
330
1F
100
AcDbEntity
  8
1
100
AcDbLine
 10
12.8031112697
 20
-3.519481175700036
 30
0.0
 11
12.77921090769999
 21
-3.519893323699988
 31
0.0
  0
LWPOLYLINE
  5
1D2F
330
1F
100
AcDbEntity
  8
1
100
AcDbPolyline
 90
       17
 70
     0
 43
0.0
 10
5.396609167599906
 20
-4.874094123000019
 10
5.463104272600019
 20
-4.873025535900011
 10
5.529525934499928
 20
-4.869749033200093
 10
5.595801612499997
 20
-4.864268109600003
 10
5.661855316999917
 20
-4.856588364599986
 10
5.727612631400035
 20
-4.846718156900009
 10
5.792997969800039
 20
-4.834668880500032
 10
5.857935681099918
 20
-4.820454846800032
 10
5.922354554799909
 20
-4.804092311700003
 10
5.986181645399937
 20
-4.785600552400011
 10
6.049350363399923
 20
-4.764999662399985
 10
6.111794573599922
 20
-4.742311609500005
 10
6.173444028700032
 20
-4.717562341000018
 10
6.234224196500008
 20
-4.690782657199973
 10
6.294087314200027
 20
-4.661993868500018
 10
6.352985300499908
 20
-4.631217020799964
 10
6.410845770199927
 20
-4.598487104199988
  0
LWPOLYLINE
  5
1D30
330
1F
100
AcDbEntity
  8
1
100
AcDbPolyline
 90
        5
 70
     0
 43
0.0
 10
10.75532159420001
 20
-4.599491574900013
 10
10.77032453410004
 20
-4.599299069500034
 10
10.7853679842
 20
-4.598574855799995
 10
10.80078424219999
 20
-4.597695153799974
 10
10.81666204629999
 20
-4.596964486200021
  0
LINE
  5
1D31
330
1F
100
AcDbEntity
  8
1
100
AcDbLine
 10
5.396609167599906
 20
-4.413341822000005
 30
0.0
 11
0.9999999999999149
 21
-4.413341822000005
 31
0.0
  0
LWPOLYLINE
  5
1D32
330
1F
100
AcDbEntity
  8
1
100
AcDbPolyline
 90
       11
 70
     0
 43
0.0
 10
12.77921090769999
 20
-3.519893323699988
 10
12.76593415010001
 20
-3.519774324899968
 10
12.72871446990001
 20
-3.518118416399999
 10
12.6914043902
 20
-3.514523702199993
 10
12.65414742769999
 20
-3.508942781200004
 10
12.61710038390004
 20
-3.501357362799978
 10
12.58017556559994
 20
-3.491666217800001
 10
12.54330264470002
 20
-3.479788815900008
 10
12.50658632690002
 20
-3.465615325300007
 10
12.47011803270001
 20
-3.448996103599995
 10
12.4338672888
 20
-3.429934470700004
  0
LINE
  5
1D33
330
1F
100
AcDbEntity
  8
SK1
100
AcDbLine
 10
0.0
 20
-3.350000000000021
 30
0.0
 11
-0.9992960355999683
 21
-3.312484226799995
 31
0.0
  0
LWPOLYLINE
  5
1D34
330
1F
100
AcDbEntity
  8
1
100
AcDbPolyline
 90
        3
 70
     0
 43
0.0
 10
13.80551397399995
 20
-3.498651397000002
 10
13.25030535620001
 20
-3.47117980019999
 10
13.06662412210002
 20
-3.461989354600007
  0
LWPOLYLINE
  5
1D35
330
1F
100
AcDbEntity
  8
1
100
AcDbPolyline
 90
        3
 70
     0
 43
0.0
 10
12.4338672888
 20
-3.429934470700004
 10
11.96055109550002
 20
-3.405548417200008
 10
11.80382871150001
 20
-3.397395252500017
  0
LWPOLYLINE
  5
1D36
330
1F
100
AcDbEntity
  8
1
100
AcDbPolyline
 90
        6
 70
     0
 43
0.0
 10
9.294482602100034
 20
-4.509395084400011
 10
9.297646014600019
 20
-4.509983824400022
 10
9.313686758800002
 20
-4.509982267800011
 10
9.342652106000032
 20
-4.508234652299902
 10
9.383732802899999
 20
-4.504889637500014
 10
9.436125971700024
 20
-4.500146709399983
  0
LWPOLYLINE
  5
1D37
330
1F
100
AcDbEntity
  8
1
100
AcDbPolyline
 90
        5
 70
     0
 43
0.0
 10
10.85155721140003
 20
-4.453892400799985
 10
10.8258236529
 20
-4.448468096199973
 10
10.8024023104
 20
-4.439797460000021
 10
10.78131351429999
 20
-4.427873010300003
 10
10.77568998140003
 20
-4.423343693899993
  0
LINE
  5
1D38
330
1F
100
AcDbEntity
  8
1
100
AcDbLine
 10
9.299419929999999
 20
-4.511793341399993
 30
0.0
 11
9.200055459299989
 21
-4.465458927799999
 31
0.0
  0
LWPOLYLINE
  5
1D39
330
1F
100
AcDbEntity
  8
1
100
AcDbPolyline
 90
        6
 70
     0
 43
0.0
 10
1.411208588799921
 20
4.78893318979999
 10
1.399976309400017
 20
4.80176844729999
 10
1.383411699100037
 20
4.822860223100008
 10
1.372439461099928
 20
4.840354198999988
 10
1.366979909199925
 20
4.854270704099973
 10
1.367059605300028
 20
4.864619392000007
  0
LINE
  5
1D3A
330
1F
100
AcDbEntity
  8
1
100
AcDbLine
 10
15.22703467560001
 20
-4.819585588300013
 30
0.0
 11
14.40539953820004
 21
-4.855732597700011
 31
0.0
  0
LINE
  5
1D3B
330
1F
100
AcDbEntity
  8
1
100
AcDbLine
 10
14.40539953820004
 20
-4.855732597700011
 30
0.0
 11
14.21120764990002
 21
-4.863771168900028
 31
0.0
  0
LINE
  5
1D3C
330
1F
100
AcDbEntity
  8
1
100
AcDbLine
 10
14.21120764990002
 20
-4.863771168900028
 30
0.0
 11
13.98680901610001
 21
-4.872724087899996
 31
0.0
  0
LINE
  5
1D3D
330
1F
100
AcDbEntity
  8
1
100
AcDbLine
 10
13.98680901610001
 20
-4.872724087899996
 30
0.0
 11
13.72831306740002
 21
-4.882607186200004
 31
0.0
  0
LINE
  5
1D3E
330
1F
100
AcDbEntity
  8
1
100
AcDbLine
 10
13.72831306740002
 20
-4.882607186200004
 30
0.0
 11
13.53709651230002
 21
-4.889610260000096
 31
0.0
  0
LINE
  5
1D3F
330
1F
100
AcDbEntity
  8
1
100
AcDbLine
 10
13.53709651230002
 20
-4.889610260000096
 30
0.0
 11
13.32799201560002
 21
-4.896938341999997
 31
0.0
  0
LWPOLYLINE
  5
1D40
330
1F
100
AcDbEntity
  8
1
100
AcDbPolyline
 90
        7
 70
     0
 43
0.0
 10
10.44997138720001
 20
-4.964854212900036
 10
10.3694421458
 20
-4.967589492299906
 10
10.33211674750001
 20
-4.968452909400014
 10
10.29632133609999
 20
-4.968938087900028
 10
10.2630112752
 20
-4.968740525899988
 10
10.2322722902
 20
-4.967611813500012
 10
10.20299716940002
 20
-4.96628931379996
  0
LINE
  5
1D41
330
1F
100
AcDbEntity
  8
1
100
AcDbLine
 10
13.32799201560002
 20
-4.896938341999997
 30
0.0
 11
13.0914658161
 21
-4.904829388099983
 31
0.0
  0
LINE
  5
1D42
330
1F
100
AcDbEntity
  8
1
100
AcDbLine
 10
13.0914658161
 20
-4.904829388099983
 30
0.0
 11
12.82414160390002
 21
-4.913270318099987
 31
0.0
  0
LWPOLYLINE
  5
1D43
330
1F
100
AcDbEntity
  8
1
100
AcDbPolyline
 90
       12
 70
     0
 43
0.0
 10
12.82414160390002
 20
-4.913270318099987
 10
12.53299228
 20
-4.921863564600016
 10
12.3760272806
 20
-4.926232081800036
 10
12.21055290879994
 20
-4.930635851399983
 10
12.0357106861
 20
-4.935062855400018
 10
11.85090081379994
 20
-4.939488027600019
 10
11.65533086650001
 20
-4.943885032399974
 10
11.44833130859999
 20
-4.948217677199976
 10
11.22931811150002
 20
-4.952439743299976
 10
10.99746679940003
 20
-4.956500936400003
 10
10.75195410710003
 20
-4.960341267999978
 10
10.4929828125
 20
-4.963875506299983
  0
LINE
  5
1D44
330
1F
100
AcDbEntity
  8
1
100
AcDbLine
 10
10.4929828125
 20
-4.963875506299983
 30
0.0
 11
10.44997138720001
 21
-4.964854212900036
 31
0.0
  0
LWPOLYLINE
  5
1D45
330
1F
100
AcDbEntity
  8
1
100
AcDbPolyline
 90
        6
 70
     0
 43
0.0
 10
15.71978729670002
 20
-4.803785823800011
 10
15.62941743530001
 20
-4.805802673900018
 10
15.54228469420002
 20
-4.808179935499993
 10
15.45874907200001
 20
-4.810813538800005
 10
15.3787934634
 20
-4.813630417800027
 10
15.22703467560001
 20
-4.819585588300013
  0
LINE
  5
1D46
330
1F
100
AcDbEntity
  8
1
100
AcDbLine
 10
15.8064154818
 20
-4.802200160799998
 30
0.0
 11
15.71978729670002
 21
-4.803785823800011
 31
0.0
  0
LINE
  5
1D47
330
1F
100
AcDbEntity
  8
1
100
AcDbLine
 10
4.011092298000022
 20
-4.874054199499993
 30
0.0
 11
4.540875743500008
 21
-4.873879765400032
 31
0.0
  0
LINE
  5
1D48
330
1F
100
AcDbEntity
  8
1
100
AcDbLine
 10
2.569789421600034
 20
-4.874999860300022
 30
0.0
 11
4.011092298000022
 21
-4.874054199499993
 31
0.0
  0
LINE
  5
1D49
330
1F
100
AcDbEntity
  8
1
100
AcDbLine
 10
2.569961008000035
 20
-4.875
 30
0.0
 11
0.3000000000000114
 21
-4.875
 31
0.0
  0
LINE
  5
1D4A
330
1F
100
AcDbEntity
  8
1
100
AcDbLine
 10
4.540875743500008
 20
-4.873879765400032
 30
0.0
 11
5.396609167599906
 21
-4.874094123000019
 31
0.0
  0
LWPOLYLINE
  5
1D4B
330
1F
100
AcDbEntity
  8
1
100
AcDbPolyline
 90
       11
 70
     0
 43
0.0
 10
10.20299716940002
 20
-4.96628931379996
 10
10.18200003600003
 20
-4.964098330000012
 10
10.16122795839999
 20
-4.959486082800026
 10
10.14142027920002
 20
-4.952927896699974
 10
10.12277052429999
 20
-4.944257450300028
 10
10.10550442850001
 20
-4.933644158200022
 10
10.08981568820002
 20
-4.921343126199984
 10
10.07564682780003
 20
-4.906977607100031
 10
10.06389079390004
 20
-4.891014023500019
 10
10.05502516299992
 20
-4.87404837229991
 10
10.04895458679999
 20
-4.856015974499996
  0
LWPOLYLINE
  5
1D4C
330
1F
100
AcDbEntity
  8
SK1
100
AcDbPolyline
 90
        7
 70
     0
 43
0.0
 10
-0.8589771930999743
 20
-3.284206707700036
 10
-0.8823558858999547
 20
-3.280067396200023
 10
-0.9057376662999844
 20
-3.275778028200022
 10
-0.9291225112999653
 20
-3.271338826799989
 10
-0.9525104903000567
 20
-3.266750004400023
 10
-0.9759016727999776
 20
-3.262011778600026
 10
-0.9992960355999683
 20
-3.257124391700016
  0
LWPOLYLINE
  5
1D4D
330
1F
100
AcDbEntity
  8
SK1
100
AcDbPolyline
 90
       25
 70
     0
 43
0.0
 10
-2.924999021099977
 20
-3.099999999899977
 10
-2.937046096099976
 20
-3.096054433000006
 10
-2.949972101999975
 20
-3.0830557214
 10
-2.962899844499958
 20
-3.061017341499904
 10
-2.97580189179996
 20
-3.030075525000028
 10
-2.988720553900066
 20
-2.990228870500003
 10
-3.001697058700073
 20
-2.941391042299983
 10
-3.014707220300067
 20
-2.883704480900006
 10
-3.027748862100081
 20
-2.817285180599981
 10
-3.040797184499978
 20
-2.742419914899982
 10
-3.053831736900065
 20
-2.659455992999994
 10
-3.066837295700082
 20
-2.568776836899984
 10
-3.079771138100085
 20
-2.471038376199999
 10
-3.092695311600067
 20
-2.3661299062
 10
-3.105662416600068
 20
-2.253905822900037
 10
-3.118658071999958
 20
-2.134764912100024
 10
-3.131695322300059
 20
-2.008888310500025
 10
-3.144744491999972
 20
-1.876898937900023
 10
-3.157786564499986
 20
-1.739379557900007
 10
-3.170802607300061
 20
-1.596960016600006
 10
-3.183755345100053
 20
-1.45052108420009
 10
-3.196680788900066
 20
-1.300134984599991
 10
-3.209603914699981
 20
-1.145966629300004
 10
-3.222520552300068
 20
-0.9885209189000081
 10
-3.235434445399959
 20
-0.8282164985999996
  0
LWPOLYLINE
  5
1D4E
330
1F
100
AcDbEntity
  8
SK1
100
AcDbPolyline
 90
       24
 70
     0
 43
0.0
 10
-4.424999975699988
 20
-3.100000000000021
 10
-4.438415497999983
 20
-3.095106628099982
 10
-4.451849346600083
 20
-3.08041522709999
 10
-4.465237211200076
 20
-3.056072517399911
 10
-4.478605807500001
 20
-3.022177159100009
 10
-4.491965900399974
 20
-2.978837893499984
 10
-4.505328377899985
 20
-2.926161668799977
 10
-4.518718557599981
 20
-2.864182771100103
 10
-4.532103914499969
 20
-2.793222859699994
 10
-4.545452537100061
 20
-2.713714897000101
 10
-4.558787903399973
 20
-2.625816377200009
 10
-4.572116886200062
 20
-2.529774736599904
 10
-4.585457390000017
 20
-2.425756063999982
 10
-4.598828103399966
 20
-2.313903569800003
 10
-4.612233546900056
 20
-2.194476217800001
 10
-4.625696222300063
 20
-2.067577578499991
 10
-4.639180873200075
 20
-1.933882575099971
 10
-4.652667009499964
 20
-1.794003460400005
 10
-4.666132834199969
 20
-1.648624233199995
 10
-4.679543629899966
 20
-1.498626721200024
 10
-4.692917667800059
 20
-1.344331448700017
 10
-4.706245489100068
 20
-1.186372756600007
 10
-4.719575565599966
 20
-1.024689814400004
 10
-4.732964080299978
 20
-0.8590838778000032
  0
LWPOLYLINE
  5
1D4F
330
1F
100
AcDbEntity
  8
SK1
100
AcDbPolyline
 90
       24
 70
     0
 43
0.0
 10
-5.925000000099997
 20
-3.100000000000021
 10
-5.938472743299995
 20
-3.095064789100035
 10
-5.951932012199988
 20
-3.080294571800038
 10
-5.965335003799964
 20
-3.055859243700012
 10
-5.978702491099965
 20
-3.021897368700023
 10
-5.992035720199964
 20
-2.978586773699987
 10
-6.005358183599979
 20
-2.926033860499956
 10
-6.018692615799977
 20
-2.864311624299999
 10
-6.032042536999965
 20
-2.793568456699971
 10
-6.045430191099968
 20
-2.713855156600003
 10
-6.058822142499991
 20
-2.625580028400008
 10
-6.072184028900068
 20
-2.529270722500029
 10
-6.085540874999991
 20
-2.425080919399988
 10
-6.09890221699996
 20
-2.313263017199971
 10
-6.112280157800058
 20
-2.19404867410003
 10
-6.125702257799986
 20
-2.067519182700038
 10
-6.139131681099968
 20
-1.934381771000005
 10
-6.152543291099958
 20
-1.795313384999985
 10
-6.165929550199963
 20
-1.650859088000004
 10
-6.179256022199979
 20
-1.501894893200016
 10
-6.192578267600055
 20
-1.3483013206
 10
-6.205942334900099
 20
-1.190008653299968
 10
-6.219342323599959
 20
-1.027547787900005
 10
-6.232799171399987
 20
-0.8611411877000135
  0
LWPOLYLINE
  5
1D50
330
1F
100
AcDbEntity
  8
SK1
100
AcDbPolyline
 90
        5
 70
     0
 43
0.0
 10
-2.001321462599975
 20
3.042281040900093
 10
-2.015259389899994
 20
3.066417803700004
 10
-2.032040093700061
 20
3.086887163899973
 10
-2.048897541699971
 20
3.097941960000013
 10
-2.059947641799965
 20
3.099999999700002
  0
LINE
  5
1D51
330
1F
100
AcDbEntity
  8
1
100
AcDbLine
 10
0.9999999999999149
 20
-4.413341822000005
 30
0.0
 11
0.9999999999999149
 21
0.4133418220999944
 31
0.0
  0
LINE
  5
1D52
330
1F
100
AcDbEntity
  8
1
100
AcDbLine
 10
0.3000000000000114
 20
4.875
 30
0.0
 11
0.3000000000000114
 21
-4.875
 31
0.0
  0
LINE
  5
1D53
330
1F
100
AcDbEntity
  8
SK1
100
AcDbLine
 10
0.0
 20
4.574999999999987
 30
0.0
 11
0.0
 21
-4.574999999900001
 31
0.0
  0
LINE
  5
1D54
330
1F
100
AcDbEntity
  8
SK1
100
AcDbLine
 10
-2.888516652100064
 20
-3.063871252800026
 30
0.0
 11
-2.744704171700049
 21
-2.779925512399984
 31
0.0
  0
LINE
  5
1D55
330
1F
100
AcDbEntity
  8
SK1
100
AcDbLine
 10
-2.744704171700049
 20
-2.779925512399984
 30
0.0
 11
-2.704154926799957
 21
-2.699999999999988
 31
0.0
  0
LWPOLYLINE
  5
1D56
330
1F
100
AcDbEntity
  8
SK1
100
AcDbPolyline
 90
        4
 70
     0
 43
0.0
 10
-2.888516652100064
 20
-3.063871252800026
 10
-2.898318446099978
 20
-3.080658994799988
 10
-2.911239279699968
 20
-3.094851615099968
 10
-2.924999021099977
 20
-3.099999999899977
  0
LINE
  5
1D57
330
1F
100
AcDbEntity
  8
1
100
AcDbLine
 10
0.0000005991999501
 20
4.574999400699994
 30
0.0
 11
0.3000006385999256
 21
4.874999361499988
 31
0.0
  0
LWPOLYLINE
  5
1D58
330
1F
100
AcDbEntity
  8
1
100
AcDbPolyline
 90
       13
 70
     0
 43
0.0
 10
1.367059605300028
 20
4.864619392000007
 10
1.368088794200018
 20
4.865531513700034
 10
1.370458759699942
 20
4.866382594400021
 10
1.374158688200025
 20
4.867174167699999
 10
1.379221021099936
 20
4.867912614499972
 10
1.385623459499925
 20
4.8686027823
 10
1.393519411600038
 20
4.869247642199978
 10
1.403021465199913
 20
4.869853005900097
 10
1.414229782699919
 20
4.870413126000016
 10
1.427312867500005
 20
4.870928559599973
 10
1.442178285000011
 20
4.87139166579999
 10
1.458929744000015
 20
4.87179979030003
 10
1.477147318900023
 20
4.872149168699991
  0
LINE
  5
1D59
330
1F
100
AcDbEntity
  8
1
100
AcDbLine
 10
0.0000005991999501
 20
-4.574999400699994
 30
0.0
 11
0.3000006385999256
 21
-4.874999361399999
 31
0.0
  0
LWPOLYLINE
  5
1D5A
330
1F
100
AcDbEntity
  8
SK1
100
AcDbPolyline
 90
        4
 70
     0
 43
0.0
 10
-3.63851665209998
 20
3.063871252899957
 10
-3.648098333599961
 20
3.080338906000008
 10
-3.661551818800091
 20
3.095082762599986
 10
-3.675000000199958
 20
3.099999999999965
  0
LINE
  5
1D5B
330
1F
100
AcDbEntity
  8
SK1
100
AcDbLine
 10
-1.926676102800058
 20
2.895901186599984
 30
0.0
 11
-2.001321462599975
 21
3.042281040900093
 31
0.0
  0
LWPOLYLINE
  5
1D5C
330
1F
100
AcDbEntity
  8
SK1
100
AcDbPolyline
 90
       22
 70
     0
 43
0.0
 10
-1.926676102800058
 20
2.895901186599984
 10
-1.915943913200067
 20
2.87190024260002
 10
-1.903205595100074
 20
2.835718348400007
 10
-1.890467276999969
 20
2.791246914200087
 10
-1.877728958900063
 20
2.738575362099993
 10
-1.864990640800073
 20
2.677817181199997
 10
-1.852252322800069
 20
2.609109708300024
 10
-1.839514004699964
 20
2.532613838200005
 10
-1.826775686600085
 20
2.4485136646
 10
-1.814037368500065
 20
2.357016051599998
 10
-1.801299050500063
 20
2.258350137900094
 10
-1.7885607324001
 20
2.152766773099982
 10
-1.775822414299965
 20
2.040537889500001
 10
-1.76308409620006
 20
1.921955809300015
 10
-1.750345778200084
 20
1.797332489799998
 10
-1.73760746009998
 20
1.666998708199968
 10
-1.72486914199996
 20
1.531303188100024
 10
-1.712130823900081
 20
1.390611670800012
 10
-1.699392505899965
 20
1.245305931800089
 10
-1.686654187800058
 20
1.095782747899987
 10
-1.673915869699981
 20
0.9424528156000063
 10
-1.661177551600076
 20
0.7857396244999677
  0
LWPOLYLINE
  5
1D5D
330
1F
100
AcDbEntity
  8
SK1
100
AcDbPolyline
 90
       13
 70
     0
 43
0.0
 10
-0.9992960355999683
 20
-2.415500301400014
 10
-0.9876027987999691
 20
-2.523378198099976
 10
-0.9759095619000676
 20
-2.625593825700036
 10
-0.9642163249999951
 20
-2.721877961000018
 10
-0.9525230880999799
 20
-2.811974729600024
 10
-0.9408298511999928
 20
-2.895642279300033
 10
-0.9291366142999775
 20
-2.972653422000007
 10
-0.9174433775000068
 20
-3.042796242400014
 10
-0.9057501405999913
 20
-3.105874671399988
 10
-0.8940569037000614
 20
-3.161709023100002
 10
-0.8823636667999608
 20
-3.210136493899995
 10
-0.8706704298999737
 20
-3.251011622199996
 10
-0.8589771930999743
 20
-3.284206707700036
  0
LWPOLYLINE
  5
1D5E
330
1F
100
AcDbEntity
  8
SK1
100
AcDbPolyline
 90
       22
 70
     0
 43
0.0
 10
-1.661177551600076
 20
0.7857396244999677
 10
-1.678043650100049
 20
0.9511654385000268
 10
-1.694888166700053
 20
1.113445993200002
 10
-1.711699624100076
 20
1.271986331200025
 10
-1.728512454600006
 20
1.426633664699976
 10
-1.745355769100085
 20
1.577168189400025
 10
-1.762234054899976
 20
1.723138954200009
 10
-1.779178588799965
 20
1.864317842700016
 10
-1.796138113700066
 20
1.999798694300011
 10
-1.81307560579998
 20
2.128867167099997
 10
-1.829979642200157
 20
2.251065849399991
 10
-1.846812072200093
 20
2.365803832700009
 10
-1.863616055499987
 20
2.473084537000089
 10
-1.880411129400073
 20
2.572727924599973
 10
-1.897230011599986
 20
2.664611826599979
 10
-1.914131086200058
 20
2.748695644500002
 10
-1.931056890600103
 20
2.824353953500008
 10
-1.947975414100084
 20
2.891195283599984
 10
-1.964868685299989
 20
2.948966633499992
 10
-1.981697693399978
 20
2.997427796500005
 10
-1.998493545700084
 20
3.036598384699971
 10
-2.001321462599975
 20
3.042281040900093
  0
LWPOLYLINE
  5
1D5F
330
1F
100
AcDbEntity
  8
SK1
100
AcDbPolyline
 90
       17
 70
     0
 43
0.0
 10
-0.9992960355999683
 20
-1.971999475000018
 10
-0.990497870099972
 20
-2.101702005099979
 10
-0.9817041984000807
 20
-2.226201365999997
 10
-0.9729118711000808
 20
-2.345240512100019
 10
-0.9641303362999735
 20
-2.458410086500009
 10
-0.9553722072000994
 20
-2.565303863099984
 10
-0.9466248389000782
 20
-2.66584986009991
 10
-0.9378833862999725
 20
-2.759876167799972
 10
-0.9291370630999722
 20
-2.847270214899991
 10
-0.9203711853000696
 20
-2.927936226399991
 10
-0.9115926017000504
 20
-3.001574327800028
 10
-0.9027980539000848
 20
-3.067994669200003
 10
-0.8940031800999861
 20
-3.126894188899996
 10
-0.8852227389000686
 20
-3.178046384399975
 10
-0.8764561107000757
 20
-3.221365267199984
 10
-0.8677081328999634
 20
-3.256763029800026
 10
-0.8589771930999743
 20
-3.284206707700036
  0
LINE
  5
1D60
330
1F
100
AcDbEntity
  8
SK1
100
AcDbLine
 10
-1.279786810399968
 20
1.101165692099981
 30
0.0
 11
-1.26117755160007
 21
0.7857396244999677
 31
0.0
  0
LINE
  5
1D61
330
1F
100
AcDbEntity
  8
SK1
100
AcDbLine
 10
-0.9992960355999683
 20
3.312484226900038
 30
0.0
 11
-0.9992960355999683
 21
-3.312470238999991
 31
0.0
  0
LINE
  5
1D62
330
1F
100
AcDbEntity
  8
SK1
100
AcDbLine
 10
-1.509523349900091
 20
3.080626053900004
 30
0.0
 11
-1.583853585299975
 21
2.932941508499993
 31
0.0
  0
LINE
  5
1D63
330
1F
100
AcDbEntity
  8
SK1
100
AcDbLine
 10
-4.388516652100064
 20
-3.063871252800026
 30
0.0
 11
-4.244704171900052
 21
-2.77992551279999
 31
0.0
  0
LINE
  5
1D64
330
1F
100
AcDbEntity
  8
SK1
100
AcDbLine
 10
-4.244704171900052
 20
-2.77992551279999
 30
0.0
 11
-4.204154926799957
 21
-2.699999999999988
 31
0.0
  0
LWPOLYLINE
  5
1D65
330
1F
100
AcDbEntity
  8
SK1
100
AcDbPolyline
 90
        4
 70
     0
 43
0.0
 10
-4.388516652100064
 20
-3.063871252800026
 10
-4.398144009000104
 20
-3.080405542700019
 10
-4.411545198100099
 20
-3.095077920999982
 10
-4.424999975699988
 20
-3.100000000000021
  0
LWPOLYLINE
  5
1D66
330
1F
100
AcDbEntity
  8
SK1
100
AcDbPolyline
 90
        4
 70
     0
 43
0.0
 10
-1.509523349900091
 20
3.080626053900004
 10
-1.503435415199958
 20
3.090840302199978
 10
-1.494095895500066
 20
3.099162181800011
 10
-1.490044096999979
 20
3.099999999299996
  0
LWPOLYLINE
  5
1D67
330
1F
100
AcDbEntity
  8
SK1
100
AcDbPolyline
 90
        4
 70
     0
 43
0.0
 10
-6.523817912399977
 20
2.837351405899993
 10
-6.533109458299974
 20
2.850761064499977
 10
-6.541798850100065
 20
2.854407341500007
 10
-6.549993536000071
 20
2.850006468499998
  0
LWPOLYLINE
  5
1D68
330
1F
100
AcDbEntity
  8
SK1
100
AcDbPolyline
 90
        4
 70
     0
 43
0.0
 10
-2.161483330199955
 20
-3.063871287900041
 10
-2.149972101999964
 20
-3.0830557214
 10
-2.137046096099965
 20
-3.096054433000006
 10
-2.124999021099966
 20
-3.099999999899977
  0
LWPOLYLINE
  5
1D69
330
1F
100
AcDbEntity
  8
SK1
100
AcDbPolyline
 90
        4
 70
     0
 43
0.0
 10
-5.13851665209998
 20
3.063871252899957
 10
-5.148245725100053
 20
3.080553533199973
 10
-5.161658451300097
 20
3.095160412199902
 10
-5.175000116199981
 20
3.099999999999965
  0
LINE
  5
1D6A
330
1F
100
AcDbEntity
  8
SK1
100
AcDbLine
 10
-3.433215245700068
 20
2.658748693700033
 30
0.0
 11
-3.567869089299961
 21
2.924298121599973
 31
0.0
  0
LINE
  5
1D6B
330
1F
100
AcDbEntity
  8
SK1
100
AcDbLine
 10
-3.567869089299961
 20
2.924298121599973
 30
0.0
 11
-3.63851665209998
 21
3.063871252899957
 31
0.0
  0
LWPOLYLINE
  5
1D6C
330
1F
100
AcDbEntity
  8
SK1
100
AcDbPolyline
 90
       21
 70
     0
 43
0.0
 10
-3.433215245700068
 20
2.658748693700033
 10
-3.419871796400058
 20
2.628331561700008
 10
-3.406089745100075
 20
2.588297940100004
 10
-3.392307693800091
 20
2.539640520200009
 10
-3.378525642499993
 20
2.48252142069998
 10
-3.364743591200066
 20
2.417130953600008
 10
-3.350961539899968
 20
2.343686989499984
 10
-3.337179488599957
 20
2.262434231999975
 10
-3.323397437300086
 20
2.173643402399989
 10
-3.309615386000075
 20
2.077610337599991
 10
-3.295833334699977
 20
1.974655004700025
 10
-3.282051283400078
 20
1.865120434499998
 10
-3.268269232099981
 20
1.749371578699991
 10
-3.254487180799968
 20
1.627794094300099
 10
-3.240705129499986
 20
1.500793058099985
 10
-3.226923078200087
 20
1.368791617400005
 10
-3.213141026900074
 20
1.23222958010001
 10
-3.199358975599976
 20
1.091561949200013
 10
-3.185576924299964
 20
0.9472574070999826
 10
-3.171794873000066
 20
0.7997967534000168
 10
-3.158012821699997
 20
0.6496713038000053
  0
LWPOLYLINE
  5
1D6D
330
1F
100
AcDbEntity
  8
SK1
100
AcDbPolyline
 90
       24
 70
     0
 43
0.0
 10
-3.033974360000001
 20
-0.7372491927000056
 10
-3.020192308699988
 20
-0.8858856781999975
 10
-3.006410257400091
 20
-1.031570532999978
 10
-2.992628206099965
 20
-1.173818358400011
 10
-2.978846154800066
 20
-1.312155207199964
 10
-2.965064103499997
 20
-1.446120162900001
 10
-2.951282052200098
 20
-1.575266875500004
 10
-2.937500000800071
 20
-1.699165048700024
 10
-2.923717949499973
 20
-1.817401873499988
 10
-2.909935898200075
 20
-1.929583403399988
 10
-2.896153846900062
 20
-2.035335867399908
 10
-2.882371795599965
 20
-2.134306915000024
 10
-2.868589744299981
 20
-2.226166790500029
 10
-2.854807693000083
 20
-2.31060943120002
 10
-2.84102564170007
 20
-2.38735348770001
 10
-2.827243590400086
 20
-2.456143261000022
 10
-2.813461539100075
 20
-2.516749554499995
 10
-2.799679487799977
 20
-2.568970437500013
 10
-2.785897436499993
 20
-2.61263191849997
 10
-2.772115385200151
 20
-2.647588524100001
 10
-2.758333333900083
 20
-2.673723784699973
 10
-2.744551282599985
 20
-2.690950621699983
 10
-2.730769231300087
 20
-2.699211637799975
 10
-2.724999999999993
 20
-2.699999999999988
  0
LWPOLYLINE
  5
1D6E
330
1F
100
AcDbEntity
  8
SK1
100
AcDbPolyline
 90
       21
 70
     0
 43
0.0
 10
-2.635882353900086
 20
-0.7164669992999963
 10
-2.622058824400056
 20
-0.8659176268999997
 10
-2.608235295000014
 20
-1.012465767200012
 10
-2.59441176559997
 20
-1.155620202299985
 10
-2.58058823609997
 20
-1.294901090099982
 10
-2.566764706699983
 20
-1.429841571800011
 10
-2.552941177300084
 20
-1.559989337800004
 10
-2.539117647800054
 20
-1.684908143000028
 10
-2.525294118399954
 20
-1.804179269500025
 10
-2.511470588999969
 20
-1.917402929800005
 10
-2.497647059499968
 20
-2.024199607399963
 10
-2.483823530100067
 20
-2.124211328000001
 10
-2.470000000700081
 20
-2.217102860500005
 10
-2.456176471300095
 20
-2.3025628396
 10
-2.442352941799981
 20
-2.380304810400048
 10
-2.428529412399966
 20
-2.450068187900001
 10
-2.414705883000066
 20
-2.511619130700011
 10
-2.40088235349998
 20
-2.56475132500003
 10
-2.38705882410008
 20
-2.609286675899908
 10
-2.373235294700094
 20
-2.645075904400016
 10
-2.366784723800094
 20
-2.658748753899998
  0
LINE
  5
1D6F
330
1F
100
AcDbEntity
  8
SK1
100
AcDbLine
 10
-2.663529412699972
 20
-0.4108701185999168
 30
0.0
 11
-2.635882353900086
 21
-0.7164669992999963
 31
0.0
  0
LINE
  5
1D70
330
1F
100
AcDbEntity
  8
SK1
100
AcDbLine
 10
-3.061538462600053
 20
-0.4331104471999653
 30
0.0
 11
-3.033974360000001
 21
-0.7372491927000056
 31
0.0
  0
LINE
  5
1D71
330
1F
100
AcDbEntity
  8
SK1
100
AcDbLine
 10
-2.760294118700073
 20
0.6746840838999903
 30
0.0
 11
-2.732647059900159
 21
0.3680797952000034
 31
0.0
  0
LINE
  5
1D72
330
1F
100
AcDbEntity
  8
SK1
100
AcDbLine
 10
-3.158012821699997
 20
0.6496713038000053
 30
0.0
 11
-3.130448719100086
 21
0.3434340056999758
 31
0.0
  0
LINE
  5
1D73
330
1F
100
AcDbEntity
  8
SK1
100
AcDbLine
 10
-2.732647059900159
 20
0.3680797952000034
 30
0.0
 11
-2.663529412699972
 21
-0.4108701185999168
 31
0.0
  0
LINE
  5
1D74
330
1F
100
AcDbEntity
  8
SK1
100
AcDbLine
 10
-3.130448719100086
 20
0.3434340056999758
 30
0.0
 11
-3.061538462600053
 21
-0.4331104471999653
 31
0.0
  0
LWPOLYLINE
  5
1D75
330
1F
100
AcDbEntity
  8
SK1
100
AcDbPolyline
 90
       22
 70
     0
 43
0.0
 10
-3.367171236400082
 20
0.8607720411000059
 10
-3.380621928499977
 20
1.027109822699969
 10
-3.394011571699991
 20
1.18945595240001
 10
-3.407375173299981
 20
1.347756891000017
 10
-3.420724075399959
 20
1.501668805999996
 10
-3.434090483999966
 20
1.651079273999981
 10
-3.447525456700049
 20
1.796041073200001
 10
-3.460983780199966
 20
1.935553135600001
 10
-3.474444047199966
 20
2.06893435889998
 10
-3.487885897699981
 20
2.195571451999966
 10
-3.501272455300068
 20
2.314772327900016
 10
-3.514631861099957
 20
2.426477510700009
 10
-3.527977003900076
 20
2.530479196300006
 10
-3.541316763399975
 20
2.62653854360002
 10
-3.554670138099965
 20
2.714484601200013
 10
-3.568019660400095
 20
2.79391848130001
 10
-3.581349048100093
 20
2.864518497699975
 10
-3.594673743100087
 20
2.926170761499975
 10
-3.607999848900077
 20
2.97871473629999
 10
-3.621339098799977
 20
3.022017785200091
 10
-3.634702300499981
 20
3.055940660299994
 10
-3.63851665209998
 20
3.063871252899957
  0
LWPOLYLINE
  5
1D76
330
1F
100
AcDbEntity
  8
SK1
100
AcDbPolyline
 90
       23
 70
     0
 43
0.0
 10
-2.435434445399976
 20
-0.8282164985999996
 10
-2.422520552300084
 20
-0.9885209189000081
 10
-2.40960391469997
 20
-1.145966629300004
 10
-2.396680788900083
 20
-1.300134984599991
 10
-2.38375534510007
 20
-1.45052108420009
 10
-2.370802607300078
 20
-1.596960016600006
 10
-2.357786564499974
 20
-1.739379557900007
 10
-2.34474449199996
 20
-1.876898937900023
 10
-2.331695322300078
 20
-2.008888310500025
 10
-2.318658071999975
 20
-2.134764912100024
 10
-2.305662416600084
 20
-2.253905822900037
 10
-2.292695311600084
 20
-2.3661299062
 10
-2.279771138100101
 20
-2.471038376199999
 10
-2.26683729570007
 20
-2.568776836899984
 10
-2.253831736899996
 20
-2.659455992999994
 10
-2.240797184499967
 20
-2.742419914899982
 10
-2.22774886210007
 20
-2.817285180599981
 10
-2.214707220300056
 20
-2.883704480900006
 10
-2.201697058700004
 20
-2.941391042299983
 10
-2.188720553900083
 20
-2.990228870500003
 10
-2.175801891799976
 20
-3.030075525000028
 10
-2.162899844499975
 20
-3.061017341499904
 10
-2.161483330199955
 20
-3.063871287900041
  0
LINE
  5
1D77
330
1F
100
AcDbEntity
  8
SK1
100
AcDbLine
 10
-2.567171236399985
 20
0.8607720411000059
 30
0.0
 11
-2.540222831799979
 21
0.5198358943999894
 31
0.0
  0
LINE
  5
1D78
330
1F
100
AcDbEntity
  8
SK1
100
AcDbLine
 10
-3.340222831799962
 20
0.5198358943999894
 30
0.0
 11
-3.367171236400082
 21
0.8607720411000059
 31
0.0
  0
LINE
  5
1D79
330
1F
100
AcDbEntity
  8
SK1
100
AcDbLine
 10
-2.461260717300064
 20
-0.5008345084000326
 30
0.0
 11
-2.435434445399976
 21
-0.8282164985999996
 31
0.0
  0
LINE
  5
1D7A
330
1F
100
AcDbEntity
  8
SK1
100
AcDbLine
 10
-3.235434445399959
 20
-0.8282164985999996
 30
0.0
 11
-3.261260717300075
 21
-0.5008345084000326
 31
0.0
  0
LINE
  5
1D7B
330
1F
100
AcDbEntity
  8
SK1
100
AcDbLine
 10
-2.540222831799979
 20
0.5198358943999894
 30
0.0
 11
-2.5
 21
0.0
 31
0.0
  0
LINE
  5
1D7C
330
1F
100
AcDbEntity
  8
SK1
100
AcDbLine
 10
-2.5
 20
0.0
 30
0.0
 11
-2.461260717300064
 21
-0.5008345084000326
 31
0.0
  0
LINE
  5
1D7D
330
1F
100
AcDbEntity
  8
SK1
100
AcDbLine
 10
-3.300000000000011
 20
0.0
 30
0.0
 11
-3.340222831799962
 21
0.5198358943999894
 31
0.0
  0
LINE
  5
1D7E
330
1F
100
AcDbEntity
  8
SK1
100
AcDbLine
 10
-3.261260717300075
 20
-0.5008345084000326
 30
0.0
 11
-3.300000000000011
 21
0.0
 31
0.0
  0
LINE
  5
1D7F
330
1F
100
AcDbEntity
  8
SK1
100
AcDbLine
 10
-5.88851665209998
 20
-3.063871252800026
 30
0.0
 11
-5.74470417179998
 21
-2.779925512600016
 31
0.0
  0
LINE
  5
1D80
330
1F
100
AcDbEntity
  8
SK1
100
AcDbLine
 10
-2.911483330199956
 20
3.063871287899984
 30
0.0
 11
-3.055910478599968
 21
2.778713475499954
 31
0.0
  0
LINE
  5
1D81
330
1F
100
AcDbEntity
  8
SK1
100
AcDbLine
 10
-5.74470417179998
 20
-2.779925512600016
 30
0.0
 11
-5.704154926799956
 21
-2.699999999999988
 31
0.0
  0
LINE
  5
1D82
330
1F
100
AcDbEntity
  8
SK1
100
AcDbLine
 10
-3.055910478599968
 20
2.778713475499954
 30
0.0
 11
-3.095844937899983
 21
2.699999999999988
 31
0.0
  0
LWPOLYLINE
  5
1D83
330
1F
100
AcDbEntity
  8
SK1
100
AcDbPolyline
 90
        4
 70
     0
 43
0.0
 10
-2.911483330199956
 20
3.063871287899984
 10
-2.901953862499993
 20
3.080262618300024
 10
-2.888500714900088
 20
3.095044280699993
 10
-2.875000000199975
 20
3.099999999999965
  0
LWPOLYLINE
  5
1D84
330
1F
100
AcDbEntity
  8
SK1
100
AcDbPolyline
 90
        4
 70
     0
 43
0.0
 10
-5.88851665209998
 20
-3.063871252800026
 10
-5.89805228519998
 20
-3.080271610900013
 10
-5.911511734600081
 20
-3.095053413599997
 10
-5.925000000099997
 20
-3.100000000000021
  0
LINE
  5
1D85
330
1F
100
AcDbEntity
  8
SK1
100
AcDbLine
 10
-6.800000003000008
 20
2.600000003300009
 30
0.0
 11
-6.550000002300066
 21
2.850000004599961
 31
0.0
  0
LINE
  5
1D86
330
1F
100
AcDbEntity
  8
SK1
100
AcDbLine
 10
-6.800000003000008
 20
-2.600000003200023
 30
0.0
 11
-6.300000007400085
 21
-3.100000000000021
 31
0.0
  0
LWPOLYLINE
  5
1D87
330
1F
100
AcDbEntity
  8
SK1
100
AcDbPolyline
 90
        4
 70
     0
 43
0.0
 10
-3.661483330199956
 20
-3.063871287900041
 10
-3.651849346600072
 20
-3.08041522709999
 10
-3.638415498000056
 20
-3.095106628099982
 10
-3.624999975700063
 20
-3.100000000000021
  0
LINE
  5
1D88
330
1F
100
AcDbEntity
  8
SK1
100
AcDbLine
 10
-6.433215245700067
 20
2.658748693700033
 30
0.0
 11
-6.523817912399977
 21
2.837351405899993
 31
0.0
  0
LINE
  5
1D89
330
1F
100
AcDbEntity
  8
SK1
100
AcDbLine
 10
-4.933215245700068
 20
2.658748693700033
 30
0.0
 11
-5.067869089299961
 21
2.924298121599973
 31
0.0
  0
LINE
  5
1D8A
330
1F
100
AcDbEntity
  8
SK1
100
AcDbLine
 10
-2.366784723800094
 20
-2.658748753899998
 30
0.0
 11
-2.232744037599985
 21
-2.923087501600035
 31
0.0
  0
LINE
  5
1D8B
330
1F
100
AcDbEntity
  8
SK1
100
AcDbLine
 10
-3.866784723799979
 20
-2.658748753899998
 30
0.0
 11
-3.732744037800073
 21
-2.923087501200028
 31
0.0
  0
LINE
  5
1D8C
330
1F
100
AcDbEntity
  8
SK1
100
AcDbLine
 10
-5.067869089299961
 20
2.924298121599973
 30
0.0
 11
-5.13851665209998
 21
3.063871252899957
 31
0.0
  0
LINE
  5
1D8D
330
1F
100
AcDbEntity
  8
SK1
100
AcDbLine
 10
-2.232744037599985
 20
-2.923087501600035
 30
0.0
 11
-2.161483330199955
 21
-3.063871287900041
 31
0.0
  0
LINE
  5
1D8E
330
1F
100
AcDbEntity
  8
SK1
100
AcDbLine
 10
-3.732744037800073
 20
-2.923087501200028
 30
0.0
 11
-3.661483330199956
 21
-3.063871287900041
 31
0.0
  0
LWPOLYLINE
  5
1D8F
330
1F
100
AcDbEntity
  8
SK1
100
AcDbPolyline
 90
       21
 70
     0
 43
0.0
 10
-4.933215245700068
 20
2.658748693700033
 10
-4.922115388399959
 20
2.634022946699984
 10
-4.908333337100059
 20
2.595406590799996
 10
-4.894551285799991
 20
2.548142751599981
 10
-4.880769234500093
 20
2.492388905000098
 10
-4.866987183200079
 20
2.428330813700029
 10
-4.853205131900068
 20
2.356181909200017
 10
-4.839423080599971
 20
2.276182580300029
 10
-4.825641029299958
 20
2.188599371999997
 10
-4.811858978000059
 20
2.093724097599988
 10
-4.798076926700048
 20
1.99187286660009
 10
-4.784294875399978
 20
1.883385030999987
 10
-4.770512824100079
 20
1.768622055200012
 10
-4.756730772800068
 20
1.647966311200035
 10
-4.742948721500083
 20
1.521819804699986
 10
-4.729166670199957
 20
1.390602836000027
 10
-4.715384618900059
 20
1.254752599200003
 10
-4.701602567600047
 20
1.114721725700007
 10
-4.687820516300091
 20
0.9709767762000184
 10
-4.674038464999995
 20
0.8239966859999865
 10
-4.660256413700068
 20
0.6742711695000027
  0
LWPOLYLINE
  5
1D90
330
1F
100
AcDbEntity
  8
SK1
100
AcDbPolyline
 90
       24
 70
     0
 43
0.0
 10
-4.536217951999958
 20
-0.7128068373999668
 10
-4.522435900700088
 20
-0.8618771859000274
 10
-4.508653849299974
 20
-1.008075896299999
 10
-4.494871797999991
 20
-1.15091585760001
 10
-4.481089746700063
 20
-1.28992114990001
 10
-4.467307695400079
 20
-1.424628629399989
 10
-4.453525644100068
 20
-1.554589472200006
 10
-4.439743592800057
 20
-1.679370669399985
 10
-4.425961541500099
 20
-1.798556469900005
 10
-4.412179490200087
 20
-1.91174976540003
 10
-4.398397438900076
 20
-2.0185734138999
 10
-4.384615387600063
 20
-2.118671495900001
 10
-4.370833336299966
 20
-2.211710500400045
 10
-4.357051285000068
 20
-2.297380436299988
 10
-4.343269233700056
 20
-2.375395864899985
 10
-4.3294871824001
 20
-2.445496851100017
 10
-4.315705131099973
 20
-2.507449829699964
 10
-4.301923079800076
 20
-2.561048383000013
 10
-4.288141028500064
 20
-2.606113929300021
 10
-4.274358977199966
 20
-2.642496317199912
 10
-4.260576925899953
 20
-2.670074326500014
 10
-4.246794874600055
 20
-2.688756071499994
 10
-4.233012823300072
 20
-2.698479307700039
 10
-4.224999999999993
 20
-2.699999999999988
  0
LWPOLYLINE
  5
1D91
330
1F
100
AcDbEntity
  8
SK1
100
AcDbPolyline
 90
       21
 70
     0
 43
0.0
 10
-4.142647061800089
 20
-0.6424249944000167
 10
-4.128823532400105
 20
-0.7931139734000113
 10
-4.115000002899961
 20
-0.9411444971000262
 10
-4.101176473499974
 20
-1.086020378900002
 10
-4.087352944100075
 20
-1.227256006399897
 10
-4.073529414600074
 20
-1.364377968999974
 10
-4.059705885199973
 20
-1.496926644500091
 10
-4.045882355800046
 20
-1.62445774050002
 10
-4.032058826400059
 20
-1.746543782599984
 10
-4.018235296900002
 20
-1.862775548300021
 10
-4.004411767500073
 20
-1.972763437799983
 10
-3.990588238099973
 20
-2.076138780400014
 10
-3.976764708600086
 20
-2.172555070099973
 10
-3.962941179200071
 20
-2.261689127199986
 10
-3.949117649800086
 20
-2.343242181399999
 10
-3.935294120300056
 20
-2.416940873300005
 10
-3.921470590899956
 20
-2.482538170700024
 10
-3.907647061499971
 20
-2.53981419659999
 10
-3.89382353199997
 20
-2.588576966399898
 10
-3.880000002599985
 20
-2.628663031100018
 10
-3.866784723799979
 20
-2.658748753899998
  0
LINE
  5
1D92
330
1F
100
AcDbEntity
  8
SK1
100
AcDbLine
 10
-4.563782054600068
 20
-0.4080458541999974
 30
0.0
 11
-4.536217951999958
 21
-0.7128068373999668
 31
0.0
  0
LINE
  5
1D93
330
1F
100
AcDbEntity
  8
SK1
100
AcDbLine
 10
-4.660256413700068
 20
0.6742711695000027
 30
0.0
 11
-4.632692311099957
 21
0.3685867896999753
 31
0.0
  0
LINE
  5
1D94
330
1F
100
AcDbEntity
  8
SK1
100
AcDbLine
 10
-4.170294120700076
 20
-0.3350992786999996
 30
0.0
 11
-4.142647061800089
 21
-0.6424249944000167
 31
0.0
  0
LINE
  5
1D95
330
1F
100
AcDbEntity
  8
SK1
100
AcDbLine
 10
-4.253235297199978
 20
0.5970996840999874
 30
0.0
 11
-4.225588238399978
 21
0.2888423613999862
 31
0.0
  0
LINE
  5
1D96
330
1F
100
AcDbEntity
  8
SK1
100
AcDbLine
 10
-4.225588238399978
 20
0.2888423613999862
 30
0.0
 11
-4.170294120700076
 21
-0.3350992786999996
 31
0.0
  0
LINE
  5
1D97
330
1F
100
AcDbEntity
  8
SK1
100
AcDbLine
 10
-4.632692311099957
 20
0.3685867896999753
 30
0.0
 11
-4.563782054600068
 21
-0.4080458541999974
 31
0.0
  0
LWPOLYLINE
  5
1D98
330
1F
100
AcDbEntity
  8
SK1
100
AcDbPolyline
 90
       22
 70
     0
 43
0.0
 10
-3.932964080300051
 20
-0.8590838778000032
 10
-3.919575565599983
 20
-1.024689814400004
 10
-3.906245489100086
 20
-1.186372756600007
 10
-3.892917667800076
 20
-1.344331448700017
 10
-3.879543629900097
 20
-1.498626721200024
 10
-3.866132834200071
 20
-1.648624233199995
 10
-3.852667009499981
 20
-1.794003460400005
 10
-3.839180873200063
 20
-1.933882575099971
 10
-3.825696222300081
 20
-2.067577578499991
 10
-3.812233546900074
 20
-2.194476217800001
 10
-3.798828103399955
 20
-2.313903569800003
 10
-3.785457390000004
 20
-2.425756063999982
 10
-3.77211688620008
 20
-2.529774736599904
 10
-3.758787903399962
 20
-2.625816377200009
 10
-3.745452537100077
 20
-2.713714897000101
 10
-3.732103914499958
 20
-2.793222859699994
 10
-3.718718557600055
 20
-2.864182771100103
 10
-3.705328377899973
 20
-2.926161668799977
 10
-3.691965900399963
 20
-2.978837893499984
 10
-3.67860580749999
 20
-3.022177159100009
 10
-3.665237211199978
 20
-3.056072517399911
 10
-3.661483330199956
 20
-3.063871287900041
  0
LWPOLYLINE
  5
1D99
330
1F
100
AcDbEntity
  8
SK1
100
AcDbPolyline
 90
       22
 70
     0
 43
0.0
 10
-4.866920977800076
 20
0.8576496855999947
 10
-4.880269700399963
 20
1.022793279300002
 10
-4.893602084099994
 20
1.184543893399904
 10
-4.906944622399977
 20
1.342719918099987
 10
-4.920324377600053
 20
1.497126122299959
 10
-4.933740198599963
 20
1.647227778099987
 10
-4.947211716099957
 20
1.792718944999989
 10
-4.960703646099971
 20
1.932710366900096
 10
-4.97419406280008
 20
2.066515843099978
 10
-4.987662521199978
 20
2.193522776399959
 10
-5.001074905099983
 20
2.313065240900016
 10
-5.014450303200078
 20
2.425009559099976
 10
-5.027782285899973
 20
2.529017785199981
 10
-5.041113291600082
 20
2.625134190899983
 10
-5.054491527600048
 20
2.713363701899993
 10
-5.067893258000083
 20
2.793206934099997
 10
-5.08132031960008
 20
2.864375861200016
 10
-5.094744201900056
 20
2.926472703099988
 10
-5.108127965100067
 20
2.979175096599988
 10
-5.121498734100072
 20
3.022479131500006
 10
-5.134867902899968
 20
3.056301186200016
 10
-5.13851665209998
 20
3.063871252899957
  0
LINE
  5
1D9A
330
1F
100
AcDbEntity
  8
SK1
100
AcDbLine
 10
-4.066920977800066
 20
0.8576496855999947
 30
0.0
 11
-4.040152259600063
 21
0.5189324506000049
 31
0.0
  0
LINE
  5
1D9B
330
1F
100
AcDbEntity
  8
SK1
100
AcDbLine
 10
-3.959813644899979
 20
-0.5193689371999996
 30
0.0
 11
-3.932964080300051
 21
-0.8590838778000032
 31
0.0
  0
LINE
  5
1D9C
330
1F
100
AcDbEntity
  8
SK1
100
AcDbLine
 10
-4.840152259600074
 20
0.5189324506000049
 30
0.0
 11
-4.866920977800076
 21
0.8576496855999947
 31
0.0
  0
LINE
  5
1D9D
330
1F
100
AcDbEntity
  8
SK1
100
AcDbLine
 10
-4.732964080299978
 20
-0.8590838778000032
 30
0.0
 11
-4.759813644900106
 21
-0.5193689371999996
 31
0.0
  0
LINE
  5
1D9E
330
1F
100
AcDbEntity
  8
SK1
100
AcDbLine
 10
-4.000000000000085
 20
0.0
 30
0.0
 11
-3.959813644899979
 21
-0.5193689371999996
 31
0.0
  0
LINE
  5
1D9F
330
1F
100
AcDbEntity
  8
SK1
100
AcDbLine
 10
-4.040152259600063
 20
0.5189324506000049
 30
0.0
 11
-4.000000000000085
 21
0.0
 31
0.0
  0
LINE
  5
1DA0
330
1F
100
AcDbEntity
  8
SK1
100
AcDbLine
 10
-4.800000000000068
 20
0.0
 30
0.0
 11
-4.840152259600074
 21
0.5189324506000049
 31
0.0
  0
LINE
  5
1DA1
330
1F
100
AcDbEntity
  8
SK1
100
AcDbLine
 10
-4.759813644900106
 20
-0.5193689371999996
 30
0.0
 11
-4.800000000000068
 21
0.0
 31
0.0
  0
LINE
  5
1DA2
330
1F
100
AcDbEntity
  8
SK1
100
AcDbLine
 10
-4.411483330199955
 20
3.063871287899984
 30
0.0
 11
-4.555910478500066
 21
2.7787134756
 31
0.0
  0
LINE
  5
1DA3
330
1F
100
AcDbEntity
  8
SK1
100
AcDbLine
 10
-4.555910478500066
 20
2.7787134756
 30
0.0
 11
-4.595844937900096
 21
2.699999999999988
 31
0.0
  0
LWPOLYLINE
  5
1DA4
330
1F
100
AcDbEntity
  8
SK1
100
AcDbPolyline
 90
        4
 70
     0
 43
0.0
 10
-4.411483330199955
 20
3.063871287899984
 10
-4.40180292719998
 20
3.080482817199992
 10
-4.388445878299988
 20
3.095084446200018
 10
-4.375000116200054
 20
3.099999999999965
  0
LWPOLYLINE
  5
1DA5
330
1F
100
AcDbEntity
  8
SK1
100
AcDbPolyline
 90
        4
 70
     0
 43
0.0
 10
-5.161483330199955
 20
-3.063871287900041
 10
-5.151932012200092
 20
-3.080294571800038
 10
-5.13847274330007
 20
-3.095064789100035
 10
-5.125000000099987
 20
-3.100000000000021
  0
LINE
  5
1DA6
330
1F
100
AcDbEntity
  8
SK1
100
AcDbLine
 10
-5.366784723799979
 20
-2.658748753899998
 30
0.0
 11
-5.23274403760007
 21
-2.923087501499991
 31
0.0
  0
LINE
  5
1DA7
330
1F
100
AcDbEntity
  8
SK1
100
AcDbLine
 10
-5.23274403760007
 20
-2.923087501499991
 30
0.0
 11
-5.161483330199955
 21
-3.063871287900041
 31
0.0
  0
LWPOLYLINE
  5
1DA8
330
1F
100
AcDbEntity
  8
SK1
100
AcDbPolyline
 90
       21
 70
     0
 43
0.0
 10
-6.433215245700067
 20
2.658748693700033
 10
-6.424358980399972
 20
2.639481693300011
 10
-6.410576929100074
 20
2.602286013699994
 10
-6.396794877800061
 20
2.556419929699984
 10
-6.383012826499992
 20
2.50203626000001
 10
-6.36923077519998
 20
2.439316202200018
 10
-6.355448723900082
 20
2.368468729699997
 10
-6.341666672600068
 20
2.289729894999993
 10
-6.327884621299972
 20
2.203362043299989
 10
-6.314102569999986
 20
2.109652938700036
 10
-6.300320518700003
 20
2.008914805100004
 10
-6.286538467400106
 20
1.901483285899985
 10
-6.272756416099979
 20
1.787716326000007
 10
-6.258974364800081
 20
1.667992978799985
 10
-6.245192313499983
 20
1.542712143399966
 10
-6.231410262199973
 20
1.412291235899999
 10
-6.21762821089996
 20
1.277164797900012
 10
-6.203846159600061
 20
1.137783049299968
 10
-6.190064108299991
 20
0.9946103881
 10
-6.17628205699998
 20
0.8481238427000903
 10
-6.162500005700081
 20
0.698811483199961
  0
LWPOLYLINE
  5
1DA9
330
1F
100
AcDbEntity
  8
SK1
100
AcDbPolyline
 90
       21
 70
     0
 43
0.0
 10
-5.635588240300079
 20
-0.7196735509000405
 10
-5.621764710899952
 20
-0.8690676085000177
 10
-5.607941181400065
 20
-1.015548620300023
 10
-5.594117651999964
 20
-1.158625593500004
 10
-5.580294122600065
 20
-1.297818945400024
 10
-5.566470593200079
 20
-1.432662110900024
 10
-5.552647063700077
 20
-1.562703106500008
 10
-5.538823534299978
 20
-1.687506044899975
 10
-5.525000004900106
 20
-1.80665259660003
 10
-5.511176475399962
 20
-1.919743391899999
 10
-5.497352945999979
 20
-2.026399359200013
 10
-5.483529416600076
 20
-2.126262996299999
 10
-5.469705887099991
 20
-2.218999568199989
 10
-5.455882357699976
 20
-2.304298229100026
 10
-5.442058828300048
 20
-2.381873064800003
 10
-5.42823529879996
 20
-2.451464050500021
 10
-5.414411769399976
 20
-2.5128379227001
 10
-5.40058823999999
 20
-2.565788961199984
 10
-5.386764710599976
 20
-2.610139678099983
 10
-5.372941181100088
 20
-2.645741413400002
 10
-5.366784723799979
 20
-2.658748753899998
  0
LWPOLYLINE
  5
1DAA
330
1F
100
AcDbEntity
  8
SK1
100
AcDbPolyline
 90
       24
 70
     0
 43
0.0
 10
-6.038461543900067
 20
-0.6883015267000019
 10
-6.024679492599972
 20
-0.837792572199987
 10
-6.010897441299986
 20
-0.984492225800011
 10
-5.997115390000003
 20
-1.127911707400015
 10
-5.983333338700077
 20
-1.267573165999975
 10
-5.969551287399981
 20
-1.403011271900027
 10
-5.955769236099968
 20
-1.53377476669999
 10
-5.941987184800067
 20
-1.659427967199974
 10
-5.9282051335
 20
-1.779552216900014
 10
-5.914423082199987
 20
-1.893747280699983
 10
-5.900641030899976
 20
-2.001632679000009
 10
-5.886858979600076
 20
-2.102848954600004
 10
-5.873076928300066
 20
-2.197058870900035
 10
-5.859294876999967
 20
-2.283948535500029
 10
-5.845512825700068
 20
-2.363228445800018
 10
-5.831730774400058
 20
-2.43463445360004
 10
-5.817948723100156
 20
-2.497928645599984
 10
-5.804166671799976
 20
-2.552900135400022
 10
-5.790384620500076
 20
-2.599365766699975
 10
-5.77660256919998
 20
-2.637170723600036
 10
-5.76282051790008
 20
-2.666189045799966
 10
-5.749038466600068
 20
-2.686324048899904
 10
-5.735256415300058
 20
-2.697508646299978
 10
-5.724999999999994
 20
-2.699999999999988
  0
LINE
  5
1DAB
330
1F
100
AcDbEntity
  8
SK1
100
AcDbLine
 10
-5.663235299199983
 20
-0.4141574121999838
 30
0.0
 11
-5.635588240300079
 21
-0.7196735509000405
 31
0.0
  0
LINE
  5
1DAC
330
1F
100
AcDbEntity
  8
SK1
100
AcDbLine
 10
-6.162500005700081
 20
0.698811483199961
 30
0.0
 11
-6.134935903099973
 21
0.3937070197999901
 31
0.0
  0
LINE
  5
1DAD
330
1F
100
AcDbEntity
  8
SK1
100
AcDbLine
 10
-6.06602564649998
 20
-0.3829452223000089
 30
0.0
 11
-6.038461543900067
 21
-0.6883015267000019
 31
0.0
  0
LINE
  5
1DAE
330
1F
100
AcDbEntity
  8
SK1
100
AcDbLine
 10
-5.760000005200081
 20
0.6714627517000054
 30
0.0
 11
-5.732352946300096
 21
0.3647842254000011
 31
0.0
  0
LINE
  5
1DAF
330
1F
100
AcDbEntity
  8
SK1
100
AcDbLine
 10
-5.732352946300096
 20
0.3647842254000011
 30
0.0
 11
-5.663235299199983
 21
-0.4141574121999838
 31
0.0
  0
LINE
  5
1DB0
330
1F
100
AcDbEntity
  8
SK1
100
AcDbLine
 10
-6.134935903099973
 20
0.3937070197999901
 30
0.0
 11
-6.06602564649998
 21
-0.3829452223000089
 31
0.0
  0
LWPOLYLINE
  5
1DB1
330
1F
100
AcDbEntity
  8
SK1
100
AcDbPolyline
 90
       22
 70
     0
 43
0.0
 10
-5.432799171400063
 20
-0.8611411877000135
 10
-5.419342323599976
 20
-1.027547787900005
 10
-5.405942334899974
 20
-1.190008653299968
 10
-5.392578267599986
 20
-1.3483013206
 10
-5.379256022199967
 20
-1.501894893200016
 10
-5.365929550199978
 20
-1.650859088000004
 10
-5.352543291099975
 20
-1.795313384999985
 10
-5.339131681099956
 20
-1.934381771000005
 10
-5.325702257800059
 20
-2.067519182700038
 10
-5.312280157799988
 20
-2.19404867410003
 10
-5.298902216999976
 20
-2.313263017199971
 10
-5.285540875000066
 20
-2.425080919399988
 10
-5.272184028900085
 20
-2.529270722500029
 10
-5.258822142500007
 20
-2.625580028400008
 10
-5.245430191099983
 20
-2.713855156600003
 10
-5.232042536999983
 20
-2.793568456699971
 10
-5.21869261580005
 20
-2.864311624299999
 10
-5.205358183599968
 20
-2.926033860499956
 10
-5.192035720199981
 20
-2.978586773699987
 10
-5.178702491100096
 20
-3.021897368700023
 10
-5.165335003800095
 20
-3.055859243700012
 10
-5.161483330199955
 20
-3.063871287900041
  0
LINE
  5
1DB2
330
1F
100
AcDbEntity
  8
SK1
100
AcDbLine
 10
-5.56675363890008
 20
0.8555613529999844
 30
0.0
 11
-5.540019513700058
 21
0.5172329545999901
 31
0.0
  0
LINE
  5
1DB3
330
1F
100
AcDbEntity
  8
SK1
100
AcDbLine
 10
-5.45975986690007
 20
-0.5200573747999897
 30
0.0
 11
-5.432799171400063
 21
-0.8611411877000135
 31
0.0
  0
LINE
  5
1DB4
330
1F
100
AcDbEntity
  8
SK1
100
AcDbLine
 10
-6.232799171399987
 20
-0.8611411877000135
 30
0.0
 11
-6.259759866900053
 21
-0.5200573747999897
 31
0.0
  0
LINE
  5
1DB5
330
1F
100
AcDbEntity
  8
SK1
100
AcDbLine
 10
-5.5
 20
0.0
 30
0.0
 11
-5.45975986690007
 21
-0.5200573747999897
 31
0.0
  0
LINE
  5
1DB6
330
1F
100
AcDbEntity
  8
SK1
100
AcDbLine
 10
-5.540019513700058
 20
0.5172329545999901
 30
0.0
 11
-5.5
 21
0.0
 31
0.0
  0
LINE
  5
1DB7
330
1F
100
AcDbEntity
  8
SK1
100
AcDbLine
 10
-6.259759866900053
 20
-0.5200573747999897
 30
0.0
 11
-6.300000000000068
 21
0.0
 31
0.0
  0
LWPOLYLINE
  5
1DB8
330
1F
100
AcDbEntity
  8
SK1
100
AcDbPolyline
 90
       21
 70
     0
 43
0.0
 10
-6.351274559400052
 20
0.9652975992000277
 10
-6.359852236500159
 20
1.116528170700006
 10
-6.368433083900072
 20
1.263710373799995
 10
-6.377013569299974
 20
1.406373509300009
 10
-6.385611463099991
 20
1.544405552199974
 10
-6.394251691300097
 20
1.677773935099991
 10
-6.402909254999997
 20
1.805670916700023
 10
-6.411571280500082
 20
1.927535916599993
 10
-6.420226317500066
 20
2.042882162400019
 10
-6.42885032980007
 20
2.151126488099976
 10
-6.437468201499967
 20
2.25234237530003
 10
-6.44609086460008
 20
2.346400328500009
 10
-6.454736139899977
 20
2.433222562899969
 10
-6.463434105999994
 20
2.512796189599952
 10
-6.472158921700071
 20
2.584583320299997
 10
-6.480899260000001
 20
2.64826172139999
 10
-6.489641656899976
 20
2.703563648400005
 10
-6.498369673399963
 20
2.75028480359998
 10
-6.507080907300063
 20
2.788366778700036
 10
-6.515759505700087
 20
2.817749087300001
 10
-6.523817912399977
 20
2.837351405899993
  0
LINE
  5
1DB9
330
1F
100
AcDbEntity
  8
SK1
100
AcDbLine
 10
-6.334121543499975
 20
0.6522759235999729
 30
0.0
 11
-6.351274559400052
 21
0.9652975992000277
 31
0.0
  0
LINE
  5
1DBA
330
1F
100
AcDbEntity
  8
SK1
100
AcDbLine
 10
-6.317048328900084
 20
0.3296078053999736
 30
0.0
 11
-6.334121543499975
 21
0.6522759235999729
 31
0.0
  0
LINE
  5
1DBB
330
1F
100
AcDbEntity
  8
SK1
100
AcDbLine
 10
-6.30000000250007
 20
-0.000000000200032
 30
0.0
 11
-6.317048328900084
 21
0.3296078053999736
 31
0.0
  0
LINE
  5
1DBC
330
1F
100
AcDbEntity
  8
SK1
100
AcDbLine
 10
-6.300000000000068
 20
0.0
 30
0.0
 11
-6.300000007400085
 21
-3.100000000000021
 31
0.0
  0
LINE
  5
1DBD
330
1F
100
AcDbEntity
  8
SK1
100
AcDbLine
 10
-5.911483330199955
 20
3.063871287899984
 30
0.0
 11
-6.055910478299978
 21
2.778713476000006
 31
0.0
  0
LINE
  5
1DBE
330
1F
100
AcDbEntity
  8
SK1
100
AcDbLine
 10
-6.055910478299978
 20
2.778713476000006
 30
0.0
 11
-6.095844937900095
 21
2.699999999999988
 31
0.0
  0
LWPOLYLINE
  5
1DBF
330
1F
100
AcDbEntity
  8
SK1
100
AcDbPolyline
 90
        4
 70
     0
 43
0.0
 10
-5.911483330199955
 20
3.063871287899984
 10
-5.901691382899968
 20
3.080644757400022
 10
-5.888308319299966
 20
3.095184483600006
 10
-5.874999897900096
 20
3.099999999999965
  0
LINE
  5
1DC0
330
1F
100
AcDbEntity
  8
SK1
100
AcDbLine
 10
-6.800000000000012
 20
2.599991656100086
 30
0.0
 11
-6.800000000000012
 21
-2.599991655999986
 31
0.0
  0
ARC
  5
1DC1
330
1F
100
AcDbEntity
  8
1
100
AcDbCircle
 10
7.932200674100045
 20
-7.184382288899996
 30
0.0
 40
3.0
100
AcDbArc
 50
65.00000000000027
 51
100.7767656618006
  0
LWPOLYLINE
  5
1DC2
330
1F
100
AcDbEntity
  8
NOCUT
100
AcDbPolyline
 90
       10
 70
     1
 43
0.0
 10
9.200055459322099
 20
4.465458927790108
 42
-0.2468826814962996
 10
6.410845770222607
 20
4.598752915559713
 42
0.1337485691758345
 10
5.39660916759999
 20
4.875
 10
0.3000012770999945
 20
4.875
 10
-0.0000000000000284
 20
4.574998801400056
 10
-0.0000000000000568
 20
0.0
 10
15.30196995949998
 20
0.0
 10
15.30196995949998
 20
4.792767034500001
 10
10.34535928479999
 20
4.792767034500001
 42
0.1095178116832414
 10
9.500122761299991
 20
4.605382608599994
  0
TEXT
  5
1DC3
330
1F
100
AcDbEntity
  8
6
100
AcDbText
 10
26.14252777730835
 20
14.82451809426709
 30
0.0
 40
3.0
  1
AOMT060202R
 41
1.199999999999999
100
AcDbText
  0
TEXT
  5
1DC4
330
1F
100
AcDbEntity
  8
6
100
AcDbText
 10
34.28134265129902
 20
-4.774280908178582
 30
0.0
 40
3.0
  1
Z=2
 50
90.0
 41
1.199999999999999
100
AcDbText
  0
INSERT
  5
1DC5
330
1F
100
AcDbEntity
  8
SK1
100
AcDbBlockReference
  2
nullp
 10
-271.9386450411702
 20
-389.8959796344513
 30
0.0
  0
INSERT
  5
1DC6
330
1F
100
AcDbEntity
  8
0
100
AcDbBlockReference
  2
nullp1
 10
-427.0645295494706
 20
-437.5849634019314
 30
0.0
  0
DIMENSION
  5
1E3E
330
1F
100
AcDbEntity
  8
2
100
AcDbDimension
  2
*D7
 10
10.3
 20
-13.82316974034916
 30
0.0
 11
13.15
 21
-11.76066974034916
 31
0.0
 70
    32
 71
     5
 42
5.699999999999999
  3
ISO-25
100
AcDbAlignedDimension
 13
16.0
 23
-5.0
 33
0.0
 14
10.3
 24
-4.999999999999999
 34
0.0
100
AcDbRotatedDimension
  0
ENDSEC
  0
SECTION
  2
OBJECTS
  0
DICTIONARY
  5
115F
330
0
100
AcDbDictionary
281
     1
  3
ACAD_COLOR
350
1169
  3
ACAD_GROUP
350
1160
  3
ACAD_LAYOUT
350
116C
  3
ACAD_MATERIAL
350
1168
  3
ACAD_MLINESTYLE
350
1161
  3
ACAD_PLOTSETTINGS
350
116D
  3
ACAD_PLOTSTYLENAME
350
1166
  3
ACAD_TABLESTYLE
350
116A
  3
ACDBHEADERROUNDTRIPXREC
350
1E68
  3
AcDbVariableDictionary
350
136B
  0
DICTIONARY
  5
17F9
330
1F
100
AcDbDictionary
280
     1
281
     1
  3
ACAD_SORTENTS
360
17FA
  0
DICTIONARY
  5
1169
102
{ACAD_REACTORS
330
115F
102
}
330
115F
100
AcDbDictionary
281
     1
  0
DICTIONARY
  5
1160
102
{ACAD_REACTORS
330
115F
102
}
330
115F
100
AcDbDictionary
281
     1
  0
DICTIONARY
  5
116C
102
{ACAD_REACTORS
330
115F
102
}
330
115F
100
AcDbDictionary
281
     1
  3
Layout1
350
116F
  3
Model
350
116E
  0
DICTIONARY
  5
1168
102
{ACAD_REACTORS
330
115F
102
}
330
115F
100
AcDbDictionary
281
     1
  0
DICTIONARY
  5
1161
102
{ACAD_REACTORS
330
115F
102
}
330
115F
100
AcDbDictionary
281
     1
  3
STANDARD
350
1162
  0
DICTIONARY
  5
116D
102
{ACAD_REACTORS
330
115F
102
}
330
115F
100
AcDbDictionary
281
     1
  0
ACDBDICTIONARYWDFLT
  5
1166
102
{ACAD_REACTORS
330
115F
102
}
330
115F
100
AcDbDictionary
281
     1
  3
Normal
350
1167
100
AcDbDictionaryWithDefault
340
1167
  0
DICTIONARY
  5
116A
102
{ACAD_REACTORS
330
115F
102
}
330
115F
100
AcDbDictionary
281
     1
  3
Standard
350
116B
  0
DICTIONARY
  5
1E68
102
{ACAD_REACTORS
330
115F
102
}
330
115F
100
AcDbDictionary
281
     1
  0
DICTIONARY
  5
136B
102
{ACAD_REACTORS
330
115F
102
}
330
115F
100
AcDbDictionary
281
     1
  3
CTABLESTYLE
350
136C
  3
DIMASSOC
350
136E
  3
PROJECTNAME
350
136F
  0
SORTENTSTABLE
  5
17FA
102
{ACAD_REACTORS
330
17F9
102
}
330
17F9
100
AcDbSortentsTable
330
1F
  0
LAYOUT
  5
116F
102
{ACAD_XDICTIONARY
360
1E6B
102
}
102
{ACAD_REACTORS
330
116C
102
}
330
116C
100
AcDbPlotSettings
  1

  2
\\ingdom02\ITB3
  4

  6

 40
0.0
 41
0.0
 42
0.0
 43
0.0
 44
0.0
 45
0.0
 46
0.0
 47
0.0
 48
0.0
 49
0.0
140
0.0
141
0.0
142
1.0
143
1.0
 70
   688
 72
     0
 73
     0
 74
     5
  7

 75
    16
147
1.0
148
0.0
149
0.0
100
AcDbLayout
  1
Layout1
 70
     1
 71
     1
 10
0.0
 20
0.0
 11
12.0
 21
9.0
 12
0.0
 22
0.0
 32
0.0
 14
1.000000000000000E+20
 24
1.000000000000000E+20
 34
1.000000000000000E+20
 15
-1.000000000000000E+20
 25
-1.000000000000000E+20
 35
-1.000000000000000E+20
146
0.0
 13
0.0
 23
0.0
 33
0.0
 16
1.0
 26
0.0
 36
0.0
 17
0.0
 27
1.0
 37
0.0
 76
     0
330
1B
  0
LAYOUT
  5
116E
102
{ACAD_XDICTIONARY
360
1E69
102
}
102
{ACAD_REACTORS
330
116C
102
}
330
116C
100
AcDbPlotSettings
  1

  2
\\ingdom02\ITB3
  4

  6

 40
0.0
 41
0.0
 42
0.0
 43
0.0
 44
0.0
 45
0.0
 46
0.0
 47
0.0
 48
0.0
 49
0.0
140
0.0
141
0.0
142
1.0
143
1.0
 70
  1712
 72
     0
 73
     0
 74
     0
  7

 75
     0
147
1.0
148
0.0
149
0.0
100
AcDbLayout
  1
Model
 70
     1
 71
     0
 10
0.0
 20
0.0
 11
12.0
 21
9.0
 12
0.0
 22
0.0
 32
0.0
 14
0.0
 24
0.0
 34
0.0
 15
0.0
 25
0.0
 35
0.0
146
0.0
 13
0.0
 23
0.0
 33
0.0
 16
1.0
 26
0.0
 36
0.0
 17
0.0
 27
1.0
 37
0.0
 76
     0
330
1F
  0
MLINESTYLE
  5
1162
102
{ACAD_REACTORS
330
1161
102
}
330
1161
100
AcDbMlineStyle
  2
STANDARD
 70
     0
  3

 62
   256
 51
90.0
 52
90.0
 71
     2
 49
0.5
 62
   256
  6
BYLAYER
 49
-0.5
 62
   256
  6
BYLAYER
  0
ACDBPLACEHOLDER
  5
1167
102
{ACAD_REACTORS
330
1166
102
}
330
1166
  0
TABLESTYLE
  5
116B
102
{ACAD_REACTORS
330
116A
102
}
330
116A
100
AcDbTableStyle
  3
Standard
 70
     0
 71
     0
 40
1.5
 41
1.5
280
     0
281
     0
  7
STANDARD
140
4.5
170
     2
 62
     0
 63
     7
283
     0
274
    -2
284
     1
 64
     0
275
    -2
285
     1
 65
     0
276
    -2
286
     1
 66
     0
277
    -2
287
     1
 67
     0
278
    -2
288
     1
 68
     0
279
    -2
289
     1
 69
     0
  7
STANDARD
140
6.0
170
     5
 62
     0
 63
     7
283
     0
274
    -2
284
     1
 64
     0
275
    -2
285
     1
 65
     0
276
    -2
286
     1
 66
     0
277
    -2
287
     1
 67
     0
278
    -2
288
     1
 68
     0
279
    -2
289
     1
 69
     0
  7
STANDARD
140
4.5
170
     5
 62
     0
 63
     7
283
     0
274
    -2
284
     1
 64
     0
275
    -2
285
     1
 65
     0
276
    -2
286
     1
 66
     0
277
    -2
287
     1
 67
     0
278
    -2
288
     1
 68
     0
279
    -2
289
     1
 69
     0
  0
DICTIONARYVAR
  5
136C
102
{ACAD_REACTORS
330
136B
102
}
330
136B
100
DictionaryVariables
280
     0
  1
STANDARD
  0
DICTIONARYVAR
  5
136E
102
{ACAD_REACTORS
330
136B
102
}
330
136B
100
DictionaryVariables
280
     0
  1
1
  0
DICTIONARYVAR
  5
136F
102
{ACAD_REACTORS
330
136B
102
}
330
136B
100
DictionaryVariables
280
     0
  1

  0
DICTIONARY
  5
1E6B
330
116F
100
AcDbDictionary
280
     1
281
     1
  3
ACAD_XREC_ROUNDTRIP
360
1E6C
  0
DICTIONARY
  5
1E69
330
116E
100
AcDbDictionary
280
     1
281
     1
  3
ACAD_XREC_ROUNDTRIP
360
1E6A
  0
XRECORD
  5
1E6C
102
{ACAD_REACTORS
330
1E6B
102
}
330
1E6B
100
AcDbXrecord
280
     1
102
SHADEPLOT
 70
     0
102
SHADEPLOTRESLEVEL
 70
     2
102
SHADEPLOTCUSTOMDPI
 70
   300
  0
XRECORD
  5
1E6A
102
{ACAD_REACTORS
330
1E69
102
}
330
1E69
100
AcDbXrecord
280
     1
102
SHADEPLOT
 70
     0
102
SHADEPLOTRESLEVEL
 70
     2
102
SHADEPLOTCUSTOMDPI
 70
   300
  0
ENDSEC
  0
EOF
