  0
SECTION
  2
HEADER
  9
$ACADVER
  1
AC1014
  9
$ACADMAINTVER
 70
     9
  9
$DWGCODEPAGE
  3
ANSI_1252
  9
$INSBASE
 10
0.0
 20
0.0
 30
0.0
  9
$EXTMIN
 10
-82.97687229428357
 20
-42.05392783394609
 30
-0.000000000000013
  9
$EXTMAX
 10
165.0597140169713
 20
80.01231509859598
 30
0.0000000000000023
  9
$LIMMIN
 10
0.0
 20
0.0
  9
$LIMMAX
 10
210.0
 20
297.0
  9
$ORTHOMODE
 70
     0
  9
$REGENMODE
 70
     1
  9
$FILLMODE
 70
     1
  9
$QTEXTMODE
 70
     0
  9
$MIRRTEXT
 70
     1
  9
$DRAGMODE
 70
     2
  9
$LTSCALE
 40
1.0
  9
$OSMODE
 70
  2599
  9
$ATTMODE
 70
     1
  9
$TEXTSIZE
 40
2.5
  9
$TRACEWID
 40
1.0
  9
$TEXTSTYLE
  7
STANDARD
  9
$CLAYER
  8
0
  9
$CELTYPE
  6
BYLAYER
  9
$CECOLOR
 62
   256
  9
$CELTSCALE
 40
1.0
  9
$DELOBJ
 70
     1
  9
$DISPSILH
 70
     0
  9
$DIMSCALE
 40
1.0
  9
$DIMASZ
 40
2.5
  9
$DIMEXO
 40
0.0
  9
$DIMDLI
 40
10.0
  9
$DIMRND
 40
0.0
  9
$DIMDLE
 40
0.0
  9
$DIMEXE
 40
1.0
  9
$DIMTP
 40
0.1
  9
$DIMTM
 40
0.1
  9
$DIMTXT
 40
3.5
  9
$DIMCEN
 40
0.0
  9
$DIMTSZ
 40
0.0
  9
$DIMTOL
 70
     0
  9
$DIMLIM
 70
     0
  9
$DIMTIH
 70
     0
  9
$DIMTOH
 70
     0
  9
$DIMSE1
 70
     0
  9
$DIMSE2
 70
     0
  9
$DIMTAD
 70
     1
  9
$DIMZIN
 70
     8
  9
$DIMBLK
  1

  9
$DIMASO
 70
     1
  9
$DIMSHO
 70
     1
  9
$DIMPOST
  1

  9
$DIMAPOST
  1
"
  9
$DIMALT
 70
     0
  9
$DIMALTD
 70
     2
  9
$DIMALTF
 40
0.0393701
  9
$DIMLFAC
 40
1.0
  9
$DIMTOFL
 70
     1
  9
$DIMTVP
 40
0.0
  9
$DIMTIX
 70
     0
  9
$DIMSOXD
 70
     0
  9
$DIMSAH
 70
     0
  9
$DIMBLK1
  1

  9
$DIMBLK2
  1

  9
$DIMSTYLE
  2
AM_DIN
  9
$DIMCLRD
 70
   256
  9
$DIMCLRE
 70
   256
  9
$DIMCLRT
 70
     2
  9
$DIMTFAC
 40
0.71
  9
$DIMGAP
 40
1.5
  9
$DIMJUST
 70
     0
  9
$DIMSD1
 70
     0
  9
$DIMSD2
 70
     0
  9
$DIMTOLJ
 70
     1
  9
$DIMTZIN
 70
     8
  9
$DIMALTZ
 70
     8
  9
$DIMALTTZ
 70
     8
  9
$DIMFIT
 70
     5
  9
$DIMUPT
 70
     0
  9
$DIMUNIT
 70
     2
  9
$DIMDEC
 70
     2
  9
$DIMTDEC
 70
     2
  9
$DIMALTU
 70
     2
  9
$DIMALTTD
 70
     2
  9
$DIMTXSTY
  7
STANDARD
  9
$DIMAUNIT
 70
     0
  9
$LUNITS
 70
     2
  9
$LUPREC
 70
     2
  9
$SKETCHINC
 40
1.0
  9
$FILLETRAD
 40
2.5
  9
$AUNITS
 70
     0
  9
$AUPREC
 70
     0
  9
$MENU
  1
.
  9
$ELEVATION
 40
0.0
  9
$PELEVATION
 40
0.0
  9
$THICKNESS
 40
0.0
  9
$LIMCHECK
 70
     0
  9
$BLIPMODE
 70
     0
  9
$CHAMFERA
 40
2.5
  9
$CHAMFERB
 40
2.5
  9
$CHAMFERC
 40
0.0
  9
$CHAMFERD
 40
0.0
  9
$SKPOLY
 70
     0
  9
$TDCREATE
 40
2453447.471737477
  9
$TDUPDATE
 40
2453588.427225613
  9
$TDINDWG
 40
0.1459823380
  9
$TDUSRTIMER
 40
0.1459579977
  9
$USRTIMER
 70
     1
  9
$ANGBASE
 50
0.0
  9
$ANGDIR
 70
     0
  9
$PDMODE
 70
     0
  9
$PDSIZE
 40
0.0
  9
$PLINEWID
 40
0.0
  9
$COORDS
 70
     0
  9
$SPLFRAME
 70
     0
  9
$SPLINETYPE
 70
     6
  9
$SPLINESEGS
 70
     8
  9
$ATTDIA
 70
     1
  9
$ATTREQ
 70
     1
  9
$HANDLING
 70
 22529
  9
$HANDSEED
  5
86AA
  9
$SURFTAB1
 70
     6
  9
$SURFTAB2
 70
     6
  9
$SURFTYPE
 70
     6
  9
$SURFU
 70
     6
  9
$SURFV
 70
     6
  9
$UCSNAME
  2

  9
$UCSORG
 10
0.0
 20
0.0
 30
0.0
  9
$UCSXDIR
 10
1.0
 20
0.0
 30
0.0
  9
$UCSYDIR
 10
0.0
 20
1.0
 30
0.0
  9
$PUCSNAME
  2

  9
$PUCSORG
 10
0.0
 20
0.0
 30
0.0
  9
$PUCSXDIR
 10
1.0
 20
0.0
 30
0.0
  9
$PUCSYDIR
 10
0.0
 20
1.0
 30
0.0
  9
$USERI1
 70
     0
  9
$USERI2
 70
     0
  9
$USERI3
 70
     0
  9
$USERI4
 70
     0
  9
$USERI5
 70
     0
  9
$USERR1
 40
0.0
  9
$USERR2
 40
0.0
  9
$USERR3
 40
0.0
  9
$USERR4
 40
0.0
  9
$USERR5
 40
0.0
  9
$WORLDVIEW
 70
     1
  9
$SHADEDGE
 70
     3
  9
$SHADEDIF
 70
    70
  9
$TILEMODE
 70
     1
  9
$MAXACTVP
 70
    64
  9
$PINSBASE
 10
0.0
 20
0.0
 30
0.0
  9
$PLIMCHECK
 70
     0
  9
$PEXTMIN
 10
1.000000000000000E+20
 20
1.000000000000000E+20
 30
1.000000000000000E+20
  9
$PEXTMAX
 10
-1.000000000000000E+20
 20
-1.000000000000000E+20
 30
-1.000000000000000E+20
  9
$PLIMMIN
 10
0.0
 20
0.0
  9
$PLIMMAX
 10
420.0
 20
297.0
  9
$UNITMODE
 70
     0
  9
$VISRETAIN
 70
     1
  9
$PLINEGEN
 70
     0
  9
$PSLTSCALE
 70
     1
  9
$TREEDEPTH
 70
  3020
  9
$PICKSTYLE
 70
     0
  9
$CMLSTYLE
  2
STANDARD
  9
$CMLJUST
 70
     0
  9
$CMLSCALE
 40
1.0
  9
$PROXYGRAPHICS
 70
     1
  9
$MEASUREMENT
 70
     1
  0
ENDSEC
  0
SECTION
  2
CLASSES
  0
CLASS
  1
ACDBDICTIONARYWDFLT
  2
AcDbDictionaryWithDefault
  3
AutoCAD 2000
 90
        0
280
     0
281
     0
  0
CLASS
  1
ACDBPLACEHOLDER
  2
AcDbPlaceHolder
  3
AutoCAD 2000
 90
        0
280
     0
281
     0
  0
CLASS
  1
LAYOUT
  2
AcDbLayout
  3
AutoCAD 2000
 90
        0
280
     0
281
     0
  0
CLASS
  1
AMGSETTINGSOBJ
  2
AmgSettingsObj
  3
"AcadM|Product Description: AutoCAD Mechanical 2000|Company: Autodesk"
 90
        0
280
     0
281
     0
  0
CLASS
  1
ACME_DOCUMENT
  2
AcMeDbDoc
  3
AcMeServices
 90
        0
280
     0
281
     0
  0
CLASS
  1
ACMESCOPE
  2
AcMeScope
  3
AcMeServices
 90
        0
280
     0
281
     0
  0
CLASS
  1
ACMECOMMANDHISTORY
  2
AcMeCommandHistory
  3
AcMeServices
 90
        0
280
     0
281
     0
  0
CLASS
  1
ACIMSYSVARMAN
  2
AcImSysVarManager
  3
AcMeServices
 90
        0
280
     0
281
     0
  0
CLASS
  1
ACIMREALSYSVAR
  2
AcImRealSysVar
  3
AcMeServices
 90
        0
280
     0
281
     0
  0
CLASS
  1
ACIMINTSYSVAR
  2
AcImIntSysVar
  3
AcMeServices
 90
        0
280
     0
281
     0
  0
CLASS
  1
ACMEDRAWINGMAN
  2
AcMeDrawingMan
  3
AcMeServices
 90
        0
280
     0
281
     0
  0
CLASS
  1
ACMEVIEW
  2
AcMeView
  3
AcMeServices
 90
        0
280
     0
281
     0
  0
CLASS
  1
ACDBENTITYCACHE
  2
AcMeEntityCache
  3
AcMeServices
 90
        0
280
     0
281
     0
  0
CLASS
  1
GSMANAGER
  2
AcMeGSManager
  3
AcMeServices
 90
        0
280
     0
281
     0
  0
CLASS
  1
AMDTINTERNALREACTOR
  2
AmdtInternalReactor
  3
AcMeServices
 90
        0
280
     0
281
     0
  0
CLASS
  1
ACMESTATEMGR
  2
AcMeStateMgr
  3
AcMeServices
 90
        0
280
     0
281
     0
  0
CLASS
  1
ACGREFMASTER
  2
AcGrefMaster
  3
AcAttribServices
 90
        0
280
     0
281
     0
  0
CLASS
  1
ACME_DATABASE
  2
AcMeDbDatabase
  3
AcMeServices
 90
        0
280
     0
281
     0
  0
CLASS
  1
ACRFINSADJUSTERMGR
  2
AcRfInsAdjusterMgr
  3
AcMeServices
 90
        0
280
     0
281
     0
  0
CLASS
  1
ACGREFACADMASTER
  2
AcGrefacadMaster
  3
AcGrefServices
 90
        0
280
     0
281
     0
  0
CLASS
  1
AMIMASTER
  2
AmiMaster
  3
AmiServices
 90
        0
280
     0
281
     0
  0
CLASS
  1
ACMDATADICTIONARY
  2
AcmDataDictionary
  3
"AcmSymBB|Product Description: AutoCAD Mechanical 2000|Company: Autodesk"
 90
        0
280
     0
281
     0
  0
CLASS
  1
ACMDATAENTRYBLOCK
  2
AcmDataEntryBlock
  3
"AcmSymBB|Product Description: AutoCAD Mechanical 2000|Company: Autodesk"
 90
        0
280
     0
281
     0
  0
CLASS
  1
ACIMSTRSYSVAR
  2
AcImStrSysVar
  3
AcMeServices
 90
        0
280
     0
281
     0
  0
CLASS
  1
ACMSTANDARDANSI
  2
AcmStandardANSI
  3
"Amdt_StdImp|Product Description: AutoCAD Mechanical 2000|Company: Autodesk"
 90
        0
280
     0
281
     0
  0
CLASS
  1
AMGOBJPROPCFG
  2
AmgObjPropCfg
  3
"AmgLay|Product Description: AutoCAD Mechanical 2000|Company: Autodesk"
 90
        1
280
     0
281
     0
  0
CLASS
  1
ACMSURFSTANDARDANSI
  2
AcmSurfTextStdANSI
  3
"Amdt_StdImp|Product Description: AutoCAD Mechanical 2000|Company: Autodesk"
 90
        0
280
     0
281
     0
  0
CLASS
  1
ACMFCFSTANDARDANSI
  2
AcmFCFStdANSI
  3
"Amdt_StdImp|Product Description: AutoCAD Mechanical 2000|Company: Autodesk"
 90
        0
280
     0
281
     0
  0
CLASS
  1
ACMWELDSTANDARDANSI
  2
AcmWeldingStdANSI
  3
"Amdt_StdImp|Product Description: AutoCAD Mechanical 2000|Company: Autodesk"
 90
        0
280
     0
281
     0
  0
CLASS
  1
ACMIDSTANDARDANSI
  2
AcmIdStdANSI
  3
"Amdt_StdImp|Product Description: AutoCAD Mechanical 2000|Company: Autodesk"
 90
        0
280
     0
281
     0
  0
CLASS
  1
ACMDATUMSTANDARDANSI
  2
AcmDatumStdANSI
  3
"Amdt_StdImp|Product Description: AutoCAD Mechanical 2000|Company: Autodesk"
 90
        0
280
     0
281
     0
  0
CLASS
  1
ACMBOMSTANDARDANSI
  2
AcmBOMStdANSI
  3
"Amdt_StdImp|Product Description: AutoCAD Mechanical 2000|Company: Autodesk"
 90
        0
280
     0
281
     0
  0
CLASS
  1
ACMDETAILSTANDARDANSI
  2
AmdtDetailSymStdANSI
  3
"Amdt_StdImp|Product Description: AutoCAD Mechanical 2000|Company: Autodesk"
 90
        0
280
     0
281
     0
  0
CLASS
  1
ACMSECTIONSTANDARDANSI
  2
AmdtSectionSymStdANSI
  3
"Amdt_StdImp|Product Description: AutoCAD Mechanical 2000|Company: Autodesk"
 90
        0
280
     0
281
     0
  0
CLASS
  1
ACMCENTERLINESTANDARDANSI
  2
AmdtCenterLineStdANSI
  3
"Amdt_StdImp|Product Description: AutoCAD Mechanical 2000|Company: Autodesk"
 90
        0
280
     0
281
     0
  0
CLASS
  1
ACMNOTESTANDARDANSI
  2
AmdtNoteStdANSI
  3
"Amdt_StdImp|Product Description: AutoCAD Mechanical 2000|Company: Autodesk"
 90
        0
280
     0
281
     0
  0
CLASS
  1
ACAMGLAYSTD
  2
AcAmgLayStd
  3
"AcAmgLayStd|Product Description: AutoCAD Mechanical 2000|Company: Autodesk"
 90
        0
280
     0
281
     0
  0
CLASS
  1
ACAMGDIMSTD
  2
AcAmgDimStd
  3
"AcAmgDimStd|Product Description: AutoCAD Mechanical 2000|Company: Autodesk"
 90
        0
280
     0
281
     0
  0
CLASS
  1
ACAMGHOLECHARTSTDANSI
  2
AcAmgHoleChartStdANSI
  3
ACMSYMBB_MODULE_NAME
 90
        0
280
     0
281
     0
  0
CLASS
  1
ACAMGTITLESTD
  2
AcAmgTitleStd
  3
"TITLEAPP"
 90
        0
280
     0
281
     0
  0
CLASS
  1
ACAMGFILTERDAT
  2
AcAmgFilterDat
  3
"AcadM|Product Description: AutoCAD Mechanical 2000|Company: Autodesk"
 90
        0
280
     0
281
     0
  0
CLASS
  1
LAYER_INDEX
  2
AcDbLayerIndex
  3
AutoCAD 2000
 90
        0
280
     0
281
     0
  0
CLASS
  1
IDBUFFER
  2
AcDbIdBuffer
  3
AutoCAD 2000
 90
        0
280
     0
281
     0
  0
CLASS
  1
DICTIONARYVAR
  2
AcDbDictionaryVar
  3
AutoCAD 2000
 90
        0
280
     0
281
     0
  0
CLASS
  1
ACMSTANDARDDIN
  2
AcmStandardDIN
  3
"Amdt_StdImp|Product Description: AutoCAD Mechanical 2000|Company: Autodesk"
 90
        0
280
     0
281
     0
  0
CLASS
  1
AMDTEDGESTANDARDDIN
  2
AmdtEdgeStdDIN
  3
"Amdt_StdImp|Product Description: AutoCAD Mechanical 2000|Company: Autodesk"
 90
        0
280
     0
281
     0
  0
CLASS
  1
ACMSURFSTANDARDDIN
  2
AcmSurfTextStdDIN
  3
"Amdt_StdImp|Product Description: AutoCAD Mechanical 2000|Company: Autodesk"
 90
        0
280
     0
281
     0
  0
CLASS
  1
ACMFCFSTANDARDDIN
  2
AcmFCFStdDIN
  3
"Amdt_StdImp|Product Description: AutoCAD Mechanical 2000|Company: Autodesk"
 90
        0
280
     0
281
     0
  0
CLASS
  1
ACMWELDSTANDARDDIN
  2
AcmWeldingStdDIN
  3
"Amdt_StdImp|Product Description: AutoCAD Mechanical 2000|Company: Autodesk"
 90
        0
280
     0
281
     0
  0
CLASS
  1
ACMIDSTANDARDDIN
  2
AcmIdStdDIN
  3
"Amdt_StdImp|Product Description: AutoCAD Mechanical 2000|Company: Autodesk"
 90
        0
280
     0
281
     0
  0
CLASS
  1
ACMDATUMSTANDARDDIN
  2
AcmDatumStdDIN
  3
"Amdt_StdImp|Product Description: AutoCAD Mechanical 2000|Company: Autodesk"
 90
        0
280
     0
281
     0
  0
CLASS
  1
ACMBOMSTANDARDDIN
  2
AcmBOMStdDIN
  3
"Amdt_StdImp|Product Description: AutoCAD Mechanical 2000|Company: Autodesk"
 90
        0
280
     0
281
     0
  0
CLASS
  1
ACMDETAILSTANDARDDIN
  2
AmdtDetailSymStdDIN
  3
"Amdt_StdImp|Product Description: AutoCAD Mechanical 2000|Company: Autodesk"
 90
        0
280
     0
281
     0
  0
CLASS
  1
ACMSECTIONSTANDARDDIN
  2
AmdtSectionSymStdDIN
  3
"Amdt_StdImp|Product Description: AutoCAD Mechanical 2000|Company: Autodesk"
 90
        0
280
     0
281
     0
  0
CLASS
  1
ACMCENTERLINESTANDARDDIN
  2
AmdtCenterLineStdDIN
  3
"Amdt_StdImp|Product Description: AutoCAD Mechanical 2000|Company: Autodesk"
 90
        0
280
     0
281
     0
  0
CLASS
  1
ACMNOTESTANDARDDIN
  2
AmdtNoteStdDIN
  3
"Amdt_StdImp|Product Description: AutoCAD Mechanical 2000|Company: Autodesk"
 90
        0
280
     0
281
     0
  0
CLASS
  1
ACAMGHOLECHARTSTDDIN
  2
AcAmgHoleChartStdDIN
  3
ACMSYMBB_MODULE_NAME
 90
        0
280
     0
281
     0
  0
CLASS
  1
AMDTFORMULAUPDATEDISPATCHER
  2
AmdtFormulaUpdateDispatcher
  3
AcMeServices
 90
        0
280
     0
281
     0
  0
CLASS
  1
LONG_TRANSACTION
  2
AcDbLongTransaction
  3
AutoCAD 2000
 90
        0
280
     0
281
     0
  0
CLASS
  1
LWPOLYLINE
  2
AcDbPolyline
  3
AutoCAD 2000
 90
        0
280
     0
281
     1
  0
CLASS
  1
HATCH
  2
AcDbHatch
  3
AutoCAD 2000
 90
        0
280
     0
281
     1
  0
CLASS
  1
XRECORD
  2
AcDbXrecord
  3
AutoCAD 2000
 90
        0
280
     0
281
     0
  0
ENDSEC
  0
SECTION
  2
TABLES
  0
TABLE
  2
VPORT
  5
6A1E
330
0
100
AcDbSymbolTable
 70
     4
  0
VPORT
  5
8685
330
6A1E
100
AcDbSymbolTableRecord
100
AcDbViewportTableRecord
  2
*ACTIVE
 70
     0
 10
0.0
 20
0.0
 11
1.0
 21
1.0
 12
63.51156385285827
 22
127.4730360830269
 13
0.0
 23
0.0
 14
2.5
 24
2.5
 15
10.0
 25
10.0
 16
0.0
 26
0.0
 36
1.0
 17
0.0
 27
0.0
 37
0.0
 40
342.928829866334
 41
1.755725190839694
 42
50.0
 43
0.0
 44
0.0
 50
0.0
 51
0.0
 71
    16
 72
 10000
 73
     1
 74
     3
 75
     0
 76
     0
 77
     0
 78
     0
  0
ENDTAB
  0
TABLE
  2
LTYPE
  5
6A1B
330
0
100
AcDbSymbolTable
 70
    16
  0
LTYPE
  5
6A29
330
6A1B
100
AcDbSymbolTableRecord
100
AcDbLinetypeTableRecord
  2
BYBLOCK
 70
     0
  3

 72
    65
 73
     0
 40
0.0
  0
LTYPE
  5
6A2A
330
6A1B
100
AcDbSymbolTableRecord
100
AcDbLinetypeTableRecord
  2
BYLAYER
 70
     0
  3

 72
    65
 73
     0
 40
0.0
  0
LTYPE
  5
6A2B
330
6A1B
100
AcDbSymbolTableRecord
100
AcDbLinetypeTableRecord
  2
CONTINUOUS
 70
     0
  3
Solid line
 72
    65
 73
     0
 40
0.0
  0
LTYPE
  5
6A39
330
6A1B
100
AcDbSymbolTableRecord
100
AcDbLinetypeTableRecord
  2
AMCONSTR
 70
     0
  3
_______________________
 72
    65
 73
     2
 40
9999.0
 49
9999.0
 74
     0
 49
0.0
 74
     0
  0
LTYPE
  5
6A43
330
6A1B
100
AcDbSymbolTableRecord
100
AcDbLinetypeTableRecord
  2
CENTER
 70
     0
  3
__ . __
 72
    65
 73
     4
 40
7.0
 49
4.0
 74
     0
 49
-1.0
 74
     0
 49
1.0
 74
     0
 49
-1.0
 74
     0
  0
LTYPE
  5
6A45
330
6A1B
100
AcDbSymbolTableRecord
100
AcDbLinetypeTableRecord
  2
PHANTOM2
 70
     0
  3
Phantom (.5x) ___ _ _ ___ _ _ ___ _ _ ___ _ _
 72
    65
 73
     6
 40
1.25
 49
0.625
 74
     0
 49
-0.125
 74
     0
 49
0.125
 74
     0
 49
-0.125
 74
     0
 49
0.125
 74
     0
 49
-0.125
 74
     0
  0
LTYPE
  5
6A46
330
6A1B
100
AcDbSymbolTableRecord
100
AcDbLinetypeTableRecord
  2
ACANSTGB
 70
     0
  3
__ . . __ . .
 72
    65
 73
     6
 40
0.35433070866
 49
0.15748031496
 74
     0
 49
-0.03937007874
 74
     0
 49
0.03937007874
 74
     0
 49
-0.03937007874
 74
     0
 49
0.03937007874
 74
     0
 49
-0.03937007874
 74
     0
  0
LTYPE
  5
6A47
330
6A1B
100
AcDbSymbolTableRecord
100
AcDbLinetypeTableRecord
  2
ACANSTGL
 70
     0
  3
_ _ _ _ _
 72
    65
 73
     2
 40
0.11811023622
 49
0.07874015748
 74
     0
 49
-0.03937007874
 74
     0
  0
LTYPE
  5
6A48
330
6A1B
100
AcDbSymbolTableRecord
100
AcDbLinetypeTableRecord
  2
DASHED
 70
     0
  3
__ __ __ __ __ __ __ __ __ __ __ __ __ __ __ __
 72
    65
 73
     2
 40
19.05
 49
12.7
 74
     0
 49
-6.349999999999998
 74
     0
  0
LTYPE
  5
6D97
330
6A1B
100
AcDbSymbolTableRecord
100
AcDbLinetypeTableRecord
  2
ACDINWELD
 70
     0
  3
_ _ _ _ _
 72
    65
 73
     2
 40
2.0
 49
2.0
 74
     0
 49
-1.0
 74
     0
  0
LTYPE
  5
6D98
330
6A1B
100
AcDbSymbolTableRecord
100
AcDbLinetypeTableRecord
  2
ACDINTGB
 70
     0
  3
__ . . __ . .
 72
    65
 73
     6
 40
9.0
 49
4.0
 74
     0
 49
-1.0
 74
     0
 49
1.0
 74
     0
 49
-1.0
 74
     0
 49
1.0
 74
     0
 49
-1.0
 74
     0
  0
LTYPE
  5
6D99
330
6A1B
100
AcDbSymbolTableRecord
100
AcDbLinetypeTableRecord
  2
ACDINTGL
 70
     0
  3
_ _ _ _ _
 72
    65
 73
     2
 40
3.0
 49
2.0
 74
     0
 49
-1.0
 74
     0
  0
LTYPE
  5
7F02
330
6A1B
100
AcDbSymbolTableRecord
100
AcDbLinetypeTableRecord
  2
AMZIGZAG
 70
     0
  3
/\/-/\/-/\/-/\/-/\/-/\/
 72
    65
 73
     2
 40
11.00009999999999
 49
0.0001
 74
     4
 75
   135
340
6A5B
 46
0.04
 50
0.0
 44
0.0
 45
0.0
 49
-11.0
 74
     0
  0
LTYPE
  5
7F03
330
6A1B
100
AcDbSymbolTableRecord
100
AcDbLinetypeTableRecord
  2
AM_DIN_F_W050
 70
     0
  3
__ __ __ __ __ __ __ __ __ __ __ __ __ __ __
 72
    65
 73
     2
 40
6.25
 49
4.75
 74
     0
 49
-1.5
 74
     0
  0
LTYPE
  5
7F04
330
6A1B
100
AcDbSymbolTableRecord
100
AcDbLinetypeTableRecord
  2
AM_DIN_G_W050
 70
     0
  3
____ . ____ . ____ . ____ . ____ . ____ . ____
 72
    65
 73
     4
 40
13.75
 49
9.75
 74
     0
 49
-1.5
 74
     0
 49
1.0
 74
     0
 49
-1.5
 74
     0
  0
LTYPE
  5
7F05
330
6A1B
100
AcDbSymbolTableRecord
100
AcDbLinetypeTableRecord
  2
AM_DIN_K_W050
 70
     0
  3
_____ . . _____ . . _____ . . ____ .. ____
 72
    65
 73
     6
 40
16.25
 49
9.75
 74
     0
 49
-1.5
 74
     0
 49
1.0
 74
     0
 49
-1.5
 74
     0
 49
1.0
 74
     0
 49
-1.5
 74
     0
  0
LTYPE
  5
7F06
330
6A1B
100
AcDbSymbolTableRecord
100
AcDbLinetypeTableRecord
  2
AM_DIN_G_W050X2
 70
     0
  3
__ . __ . __ . __ . __ . __
 72
    65
 73
     4
 40
6.875
 49
4.75
 74
     0
 49
-0.875
 74
     0
 49
0.375
 74
     0
 49
-0.875
 74
     0
  0
LTYPE
  5
7F07
330
6A1B
100
AcDbSymbolTableRecord
100
AcDbLinetypeTableRecord
  2
AM_DIN_F_W050X2
 70
     0
  3
 _ _ _ _ _ _ _ _ _ _ _ _
 72
    65
 73
     2
 40
3.125
 49
2.25
 74
     0
 49
-0.875
 74
     0
  0
ENDTAB
  0
TABLE
  2
LAYER
  5
6A18
330
0
100
AcDbSymbolTable
 70
    12
  0
LAYER
  5
6A26
330
6A18
100
AcDbSymbolTableRecord
100
AcDbLayerTableRecord
  2
0
 70
     0
 62
     7
  6
CONTINUOUS
  0
LAYER
  5
6A4B
330
6A18
100
AcDbSymbolTableRecord
100
AcDbLayerTableRecord
  2
DEFPOINTS
 70
     0
 62
     7
  6
CONTINUOUS
  0
LAYER
  5
6A4C
330
6A18
100
AcDbSymbolTableRecord
100
AcDbLayerTableRecord
  2
1
 70
     0
 62
     4
  6
CONTINUOUS
  0
LAYER
  5
6A4D
330
6A18
100
AcDbSymbolTableRecord
100
AcDbLayerTableRecord
  2
2
 70
     0
 62
     7
  6
CONTINUOUS
  0
LAYER
  5
6A4F
330
6A18
100
AcDbSymbolTableRecord
100
AcDbLayerTableRecord
  2
4
 70
     0
 62
     2
  6
CENTER
  0
LAYER
  5
6A50
330
6A18
100
AcDbSymbolTableRecord
100
AcDbLayerTableRecord
  2
6
 70
     0
 62
     5
  6
CONTINUOUS
  0
LAYER
  5
6A53
330
6A18
100
AcDbSymbolTableRecord
100
AcDbLayerTableRecord
  2
SK1
 70
     0
 62
     4
  6
CONTINUOUS
  0
LAYER
  5
6A54
330
6A18
100
AcDbSymbolTableRecord
100
AcDbLayerTableRecord
  2
SK2
 70
     0
 62
     7
  6
CONTINUOUS
  0
LAYER
  5
6A55
330
6A18
100
AcDbSymbolTableRecord
100
AcDbLayerTableRecord
  2
SK3
 70
     0
 62
     1
  6
DASHED
  0
LAYER
  5
6A56
330
6A18
100
AcDbSymbolTableRecord
100
AcDbLayerTableRecord
  2
SK4
 70
     0
 62
     2
  6
CENTER
  0
LAYER
  5
6A57
330
6A18
100
AcDbSymbolTableRecord
100
AcDbLayerTableRecord
  2
CUT
 70
     0
 62
     1
  6
CONTINUOUS
  0
LAYER
  5
6A58
330
6A18
100
AcDbSymbolTableRecord
100
AcDbLayerTableRecord
  2
NOCUT
 70
     0
 62
     7
  6
CONTINUOUS
  0
ENDTAB
  0
TABLE
  2
STYLE
  5
6A19
330
0
100
AcDbSymbolTable
 70
     6
  0
STYLE
  5
6A27
330
6A19
100
AcDbSymbolTableRecord
100
AcDbTextStyleTableRecord
  2
STANDARD
 70
     0
 40
0.0
 41
1.0
 50
0.0
 71
     0
 42
2.5
  3
ISOCP.SHX
  4

  0
STYLE
  5
6A5B
330
6A19
100
AcDbSymbolTableRecord
100
AcDbTextStyleTableRecord
  2

 70
     1
 40
0.0
 41
1.0
 50
0.0
 71
     0
 42
2.5
  3
ltypeshp.shx
  4

  0
STYLE
  5
6A5E
330
6A19
100
AcDbSymbolTableRecord
100
AcDbTextStyleTableRecord
  2
ACANSTS
 70
     0
 40
1.0
 41
1.0
 50
0.0
 71
     0
 42
0.2
  3
romans.shx
  4

  0
STYLE
  5
6A5F
330
6A19
100
AcDbSymbolTableRecord
100
AcDbTextStyleTableRecord
  2
ACANSGDT
 70
     0
 40
0.0
 41
1.0
 50
0.0
 71
     0
 42
0.2
  3
amgdtans.shx
  4

  0
STYLE
  5
6D9A
330
6A19
100
AcDbSymbolTableRecord
100
AcDbTextStyleTableRecord
  2
ACDINTS
 70
     0
 40
1.0
 41
1.0
 50
0.0
 71
     0
 42
2.5
  3
isocp.shx
  4

  0
STYLE
  5
6D9B
330
6A19
100
AcDbSymbolTableRecord
100
AcDbTextStyleTableRecord
  2
ACDINGDT
 70
     0
 40
0.0
 41
1.0
 50
0.0
 71
     0
 42
2.5
  3
amgdt.shx
  4

  0
ENDTAB
  0
TABLE
  2
VIEW
  5
6A1C
330
0
100
AcDbSymbolTable
 70
     6
  0
VIEW
  5
6A60
330
6A1C
100
AcDbSymbolTableRecord
100
AcDbViewTableRecord
  2
AM_VIEW1
 70
     0
 40
148.5
 10
131.508173076923
 20
222.75
 41
263.016346153846
 11
0.0
 21
0.0
 31
1.0
 12
0.0
 22
0.0
 32
0.0
 42
50.0
 43
0.0
 44
0.0
 50
0.0
 71
    16
  0
VIEW
  5
6A61
330
6A1C
100
AcDbSymbolTableRecord
100
AcDbViewTableRecord
  2
AM_VIEW2
 70
     0
 40
148.5
 10
78.4918269230769
 20
222.75
 41
263.016346153846
 11
0.0
 21
0.0
 31
1.0
 12
0.0
 22
0.0
 32
0.0
 42
50.0
 43
0.0
 44
0.0
 50
0.0
 71
    16
  0
VIEW
  5
6A62
330
6A1C
100
AcDbSymbolTableRecord
100
AcDbViewTableRecord
  2
AM_VIEW3
 70
     0
 40
148.5
 10
131.508173076923
 20
74.25
 41
263.016346153846
 11
0.0
 21
0.0
 31
1.0
 12
0.0
 22
0.0
 32
0.0
 42
50.0
 43
0.0
 44
0.0
 50
0.0
 71
    16
  0
VIEW
  5
6A63
330
6A1C
100
AcDbSymbolTableRecord
100
AcDbViewTableRecord
  2
AM_VIEW4
 70
     0
 40
148.5
 10
78.4918269230769
 20
74.25
 41
263.016346153846
 11
0.0
 21
0.0
 31
1.0
 12
0.0
 22
0.0
 32
0.0
 42
50.0
 43
0.0
 44
0.0
 50
0.0
 71
    16
  0
VIEW
  5
6A64
330
6A1C
100
AcDbSymbolTableRecord
100
AcDbViewTableRecord
  2
AM_VIEW5
 70
     0
 40
148.5
 10
105.0
 20
148.5
 41
263.016346153846
 11
0.0
 21
0.0
 31
1.0
 12
0.0
 22
0.0
 32
0.0
 42
50.0
 43
0.0
 44
0.0
 50
0.0
 71
    16
  0
VIEW
  5
6A65
330
6A1C
100
AcDbSymbolTableRecord
100
AcDbViewTableRecord
  2
AM_VIEW6
 70
     0
 40
296.9970299999999
 10
105.0
 20
148.5
 41
526.0274319807693
 11
0.0
 21
0.0
 31
1.0
 12
0.0
 22
0.0
 32
0.0
 42
50.0
 43
0.0
 44
0.0
 50
0.0
 71
    16
  0
ENDTAB
  0
TABLE
  2
UCS
  5
6A1D
330
0
100
AcDbSymbolTable
 70
     0
  0
ENDTAB
  0
TABLE
  2
APPID
  5
6A1F
330
0
100
AcDbSymbolTable
 70
    42
  0
APPID
  5
6A28
330
6A1F
100
AcDbSymbolTableRecord
100
AcDbRegAppTableRecord
  2
ACAD
 70
     0
  0
APPID
  5
6A66
330
6A1F
100
AcDbSymbolTableRecord
100
AcDbRegAppTableRecord
  2
MCAD_NO_VIS
 70
     0
  0
APPID
  5
6A67
330
6A1F
100
AcDbSymbolTableRecord
100
AcDbRegAppTableRecord
  2
ACAD_TEMP_GRAPHIC
 70
     0
  0
APPID
  5
6A68
330
6A1F
100
AcDbSymbolTableRecord
100
AcDbRegAppTableRecord
  2
ACATTRIBSERVICES
 70
     0
  0
APPID
  5
6A69
330
6A1F
100
AcDbSymbolTableRecord
100
AcDbRegAppTableRecord
  2
GENIUS_GENDIMSH_14
 70
     0
  0
APPID
  5
6A6A
330
6A1F
100
AcDbSymbolTableRecord
100
AcDbRegAppTableRecord
  2
GENIUS_GENBLLY_14
 70
     0
  0
APPID
  5
6A6B
330
6A1F
100
AcDbSymbolTableRecord
100
AcDbRegAppTableRecord
  2
GENIUS_GENTRA_14
 70
     0
  0
APPID
  5
6A6C
330
6A1F
100
AcDbSymbolTableRecord
100
AcDbRegAppTableRecord
  2
GENIUS_GENODEF_13
 70
     0
  0
APPID
  5
6A6D
330
6A1F
100
AcDbSymbolTableRecord
100
AcDbRegAppTableRecord
  2
GENIUS_GENOLIS_13
 70
     0
  0
APPID
  5
6A6E
330
6A1F
100
AcDbSymbolTableRecord
100
AcDbRegAppTableRecord
  2
GENIUS_GENOENT_13
 70
     0
  0
APPID
  5
6A6F
330
6A1F
100
AcDbSymbolTableRecord
100
AcDbRegAppTableRecord
  2
GENIUS_GENOBJ-N-TIT_13
 70
     0
  0
APPID
  5
6A70
330
6A1F
100
AcDbSymbolTableRecord
100
AcDbRegAppTableRecord
  2
GENIUS_GENTITLE_13
 70
     0
  0
APPID
  5
6A71
330
6A1F
100
AcDbSymbolTableRecord
100
AcDbRegAppTableRecord
  2
GENIUS_GENOREF_13
 70
     0
  0
APPID
  5
6A72
330
6A1F
100
AcDbSymbolTableRecord
100
AcDbRegAppTableRecord
  2
GENIUS_GENSCREG_15
 70
     0
  0
APPID
  5
6A73
330
6A1F
100
AcDbSymbolTableRecord
100
AcDbRegAppTableRecord
  2
GENIUS_GENOBJ-N-SDF_13
 70
     0
  0
APPID
  5
6A74
330
6A1F
100
AcDbSymbolTableRecord
100
AcDbRegAppTableRecord
  2
ACADIGES
 70
     0
  0
APPID
  5
6A75
330
6A1F
100
AcDbSymbolTableRecord
100
AcDbRegAppTableRecord
  2
GENIUS_GENOBJ-N-HTC_13
 70
     0
  0
APPID
  5
6A76
330
6A1F
100
AcDbSymbolTableRecord
100
AcDbRegAppTableRecord
  2
GENIUS_GENHATCH_13
 70
     0
  0
APPID
  5
6DA2
330
6A1F
100
AcDbSymbolTableRecord
100
AcDbRegAppTableRecord
  2
GENIUS_GENOBJ-N-CRS_13
 70
     0
  0
APPID
  5
6DA3
330
6A1F
100
AcDbSymbolTableRecord
100
AcDbRegAppTableRecord
  2
GENIUS_GENOBJ-N-FIL_13
 70
     0
  0
APPID
  5
6DD2
330
6A1F
100
AcDbSymbolTableRecord
100
AcDbRegAppTableRecord
  2
GENIUS_GENFIL_13
 70
     0
  0
APPID
  5
6DD3
330
6A1F
100
AcDbSymbolTableRecord
100
AcDbRegAppTableRecord
  2
GENIUS_GENOBJ-N-CHA_13
 70
     0
  0
APPID
  5
7FE2
330
6A1F
100
AcDbSymbolTableRecord
100
AcDbRegAppTableRecord
  2
GENIUS12
 70
     0
  0
APPID
  5
7FE3
330
6A1F
100
AcDbSymbolTableRecord
100
AcDbRegAppTableRecord
  2
GENIUS_GENCFG_13
 70
     0
  0
APPID
  5
7FE4
330
6A1F
100
AcDbSymbolTableRecord
100
AcDbRegAppTableRecord
  2
GENIUS_GENCFG0_13
 70
     0
  0
APPID
  5
7FE5
330
6A1F
100
AcDbSymbolTableRecord
100
AcDbRegAppTableRecord
  2
GENIUS_GENCFG1_13
 70
     0
  0
APPID
  5
7FE6
330
6A1F
100
AcDbSymbolTableRecord
100
AcDbRegAppTableRecord
  2
GENIUS_GENCFG2_13
 70
     0
  0
APPID
  5
7FE7
330
6A1F
100
AcDbSymbolTableRecord
100
AcDbRegAppTableRecord
  2
GENIUS_GENCFG3_13
 70
     0
  0
APPID
  5
7FE8
330
6A1F
100
AcDbSymbolTableRecord
100
AcDbRegAppTableRecord
  2
GENIUS_GENCFG4_13
 70
     0
  0
APPID
  5
7FE9
330
6A1F
100
AcDbSymbolTableRecord
100
AcDbRegAppTableRecord
  2
GENIUS_GEVCFG0_13
 70
     0
  0
APPID
  5
7FEA
330
6A1F
100
AcDbSymbolTableRecord
100
AcDbRegAppTableRecord
  2
GENIUS_GEFCFG0_13
 70
     0
  0
APPID
  5
7FEB
330
6A1F
100
AcDbSymbolTableRecord
100
AcDbRegAppTableRecord
  2
GENIUS_GENOBJ-F-SUF_13
 70
     0
  0
APPID
  5
7FEC
330
6A1F
100
AcDbSymbolTableRecord
100
AcDbRegAppTableRecord
  2
GENIUS_GENDIM_13
 70
     0
  0
APPID
  5
7FED
330
6A1F
100
AcDbSymbolTableRecord
100
AcDbRegAppTableRecord
  2
GENIUS_GENDTOL_13
 70
     0
  0
APPID
  5
7FEE
330
6A1F
100
AcDbSymbolTableRecord
100
AcDbRegAppTableRecord
  2
GENIUS_GE3DTOL_13
 70
     0
  0
APPID
  5
7FEF
330
6A1F
100
AcDbSymbolTableRecord
100
AcDbRegAppTableRecord
  2
AD_DRAW
 70
     0
  0
APPID
  5
7FF0
330
6A1F
100
AcDbSymbolTableRecord
100
AcDbRegAppTableRecord
  2
ASURF_PCURVE_APPNAME
 70
     0
  0
APPID
  5
7FF1
330
6A1F
100
AcDbSymbolTableRecord
100
AcDbRegAppTableRecord
  2
AMG_3D2D_5_0
 70
     0
  0
APPID
  5
7FF2
330
6A1F
100
AcDbSymbolTableRecord
100
AcDbRegAppTableRecord
  2
DESIGNERASSEMBLIES
 70
     0
  0
APPID
  5
7FF3
330
6A1F
100
AcDbSymbolTableRecord
100
AcDbRegAppTableRecord
  2
ACADM_DIM_EDIT
 70
     0
  0
APPID
  5
7FF4
330
6A1F
100
AcDbSymbolTableRecord
100
AcDbRegAppTableRecord
  2
AMDT_DM_ADJ
 70
     0
  0
APPID
  5
8053
330
6A1F
100
AcDbSymbolTableRecord
100
AcDbRegAppTableRecord
  2
GENIUS_GENOBJ-N-CEN_13
 70
     0
  0
ENDTAB
  0
TABLE
  2
DIMSTYLE
  5
6A20
330
0
100
AcDbSymbolTable
 70
    14
  0
DIMSTYLE
105
6A77
102
{ACAD_REACTORS
330
8119
330
81C5
330
8207
330
8321
330
8371
102
}
330
6A20
100
AcDbSymbolTableRecord
100
AcDbDimStyleTableRecord
  2
AM_DIN
 70
     0
  3

  4
"
  5

  6

  7

 40
1.0
 41
2.5
 42
0.0
 43
10.0
 44
1.0
 45
0.0
 46
0.0
 47
0.1
 48
0.1
140
3.5
141
0.0
142
0.0
143
0.0393701
144
1.0
145
0.0
146
0.71
147
1.5
 71
     0
 72
     0
 73
     0
 74
     0
 75
     0
 76
     0
 77
     1
 78
     8
170
     0
171
     2
172
     1
173
     0
174
     0
175
     0
176
   256
177
   256
178
     2
270
     2
271
     2
272
     2
273
     2
274
     2
340
6A27
275
     0
280
     0
281
     0
282
     0
283
     1
284
     8
285
     8
286
     8
287
     5
288
     0
  0
DIMSTYLE
105
6A7E
330
6A20
100
AcDbSymbolTableRecord
100
AcDbDimStyleTableRecord
  2
STANDARD
 70
     0
  3

  4

  5

  6

  7

 40
1.0
 41
0.18
 42
0.0625
 43
0.38
 44
0.18
 45
0.0
 46
0.0
 47
0.0
 48
0.0
140
0.18
141
0.09
142
0.0
143
25.4
144
1.0
145
0.0
146
1.0
147
0.09
 71
     0
 72
     0
 73
     1
 74
     1
 75
     0
 76
     0
 77
     0
 78
     0
170
     0
171
     2
172
     0
173
     0
174
     0
175
     0
176
     0
177
     0
178
     0
270
     2
271
     2
272
     2
273
     2
274
     2
340
6A27
275
     0
280
     0
281
     0
282
     0
283
     1
284
     8
285
     8
286
     8
287
     5
288
     0
  0
DIMSTYLE
105
6A7F
102
{ACAD_REACTORS
330
7BAB
102
}
330
6A20
100
AcDbSymbolTableRecord
100
AcDbDimStyleTableRecord
  2
AM_ANSI
 70
     0
  3

  4
mm
  5

  6

  7

 40
1.0
 41
0.1
 42
0.05
 43
0.5
 44
0.1
 45
0.0
 46
0.0
 47
0.1
 48
0.1
140
0.12
141
0.0
142
0.0
143
25.4
144
1.0
145
0.0
146
0.71
147
0.06
 71
     0
 72
     0
 73
     1
 74
     1
 75
     0
 76
     0
 77
     0
 78
     7
170
     0
171
     2
172
     0
173
     0
174
     0
175
     0
176
   256
177
   256
178
     2
270
     2
271
     2
272
     2
273
     2
274
     2
340
6A27
275
     0
280
     0
281
     0
282
     0
283
     1
284
     8
285
     8
286
     8
287
     5
288
     0
  0
DIMSTYLE
105
6A80
330
6A20
100
AcDbSymbolTableRecord
100
AcDbDimStyleTableRecord
  2
AM_ANSI$3
 70
     0
  3

  4
mm
  5

  6

  7

 40
1.0
 41
0.1
 42
0.05
 43
0.5
 44
0.1
 45
0.0
 46
0.0
 47
0.1
 48
0.1
140
0.12
141
0.0
142
0.0
143
25.4
144
1.0
145
0.0
146
0.71
147
0.06
 71
     0
 72
     0
 73
     1
 74
     1
 75
     0
 76
     0
 77
     0
 78
     7
170
     0
171
     2
172
     0
173
     0
174
     0
175
     0
176
   256
177
   256
178
     2
270
     2
271
     2
272
     2
273
     2
274
     2
340
6A27
275
     0
280
     0
281
     0
282
     0
283
     1
284
     8
285
     8
286
     8
287
     5
288
     0
  0
DIMSTYLE
105
6A81
330
6A20
100
AcDbSymbolTableRecord
100
AcDbDimStyleTableRecord
  2
AM_ANSI$4
 70
     0
  3

  4
mm
  5

  6

  7

 40
1.0
 41
0.1
 42
0.05
 43
0.5
 44
0.1
 45
0.0
 46
0.0
 47
0.1
 48
0.1
140
0.12
141
0.0
142
0.0
143
25.4
144
1.0
145
0.0
146
0.71
147
0.06
 71
     0
 72
     0
 73
     1
 74
     1
 75
     0
 76
     0
 77
     0
 78
     7
170
     0
171
     2
172
     0
173
     0
174
     0
175
     0
176
   256
177
   256
178
     2
270
     2
271
     2
272
     2
273
     2
274
     2
340
6A27
275
     0
280
     0
281
     0
282
     0
283
     1
284
     8
285
     8
286
     8
287
     5
288
     0
  0
DIMSTYLE
105
6A82
330
6A20
100
AcDbSymbolTableRecord
100
AcDbDimStyleTableRecord
  2
AM_ANSI$7
 70
     0
  3

  4
mm
  5

  6

  7

 40
1.0
 41
0.1
 42
0.05
 43
0.5
 44
0.1
 45
0.0
 46
0.0
 47
0.1
 48
0.1
140
0.24
141
0.0
142
0.0
143
25.4
144
1.0
145
0.0
146
0.71
147
0.06
 71
     0
 72
     0
 73
     1
 74
     1
 75
     0
 76
     0
 77
     0
 78
     7
170
     0
171
     2
172
     0
173
     0
174
     0
175
     0
176
   256
177
   256
178
     2
270
     2
271
     2
272
     2
273
     2
274
     2
340
6A27
275
     0
280
     0
281
     0
282
     0
283
     1
284
     8
285
     8
286
     8
287
     5
288
     0
  0
DIMSTYLE
105
6A83
330
6A20
100
AcDbSymbolTableRecord
100
AcDbDimStyleTableRecord
  2
AM_ANSI$SF
 70
     0
  3

  4
mm
  5

  6

  7

 40
1.0
 41
0.1
 42
0.05
 43
0.5
 44
0.1
 45
0.0
 46
0.0
 47
0.1
 48
0.1
140
0.12
141
0.0
142
0.0
143
25.4
144
1.0
145
0.0
146
0.71
147
0.06
 71
     0
 72
     0
 73
     1
 74
     1
 75
     1
 76
     1
 77
     0
 78
     7
170
     0
171
     2
172
     0
173
     0
174
     0
175
     0
176
   256
177
   256
178
     2
270
     2
271
     2
272
     2
273
     2
274
     2
340
6A27
275
     0
280
     0
281
     0
282
     0
283
     1
284
     8
285
     8
286
     8
287
     5
288
     0
  0
DIMSTYLE
105
6A84
330
6A20
100
AcDbSymbolTableRecord
100
AcDbDimStyleTableRecord
  2
AM_ANSI$SH
 70
     0
  3

  4
mm
  5

  6

  7

 40
1.0
 41
0.1
 42
0.05
 43
0.5
 44
0.1
 45
0.0
 46
0.0
 47
0.1
 48
0.1
140
0.12
141
0.0
142
0.0
143
25.4
144
1.0
145
0.0
146
0.71
147
0.06
 71
     0
 72
     0
 73
     1
 74
     1
 75
     1
 76
     1
 77
     0
 78
     7
170
     0
171
     2
172
     0
173
     1
174
     0
175
     0
176
   256
177
   256
178
     2
270
     2
271
     2
272
     2
273
     2
274
     2
340
6A27
275
     0
280
     0
281
     0
282
     0
283
     1
284
     8
285
     8
286
     8
287
     5
288
     0
  0
DIMSTYLE
105
6D9C
330
6A20
100
AcDbSymbolTableRecord
100
AcDbDimStyleTableRecord
  2
AM_DIN$3
 70
     0
  3

  4
"
  5

  6

  7

 40
1.0
 41
3.5
 42
0.0
 43
10.0
 44
1.0
 45
0.0
 46
0.0
 47
0.1
 48
0.1
140
3.5
141
0.0
142
0.0
143
0.0393701
144
1.0
145
0.0
146
0.71
147
1.5
 71
     0
 72
     0
 73
     0
 74
     1
 75
     0
 76
     0
 77
     1
 78
     8
170
     0
171
     2
172
     0
173
     0
174
     0
175
     0
176
   256
177
   256
178
     2
270
     2
271
     2
272
     2
273
     2
274
     2
340
6A27
275
     0
280
     0
281
     0
282
     0
283
     0
284
     8
285
     0
286
     0
287
     0
288
     1
  0
DIMSTYLE
105
6D9D
330
6A20
100
AcDbSymbolTableRecord
100
AcDbDimStyleTableRecord
  2
AM_DIN$4
 70
     0
  3

  4
"
  5

  6

  7

 40
1.0
 41
3.5
 42
0.0
 43
10.0
 44
1.0
 45
0.0
 46
0.0
 47
0.1
 48
0.1
140
3.5
141
0.0
142
0.0
143
0.0393701
144
1.0
145
0.0
146
0.71
147
1.5
 71
     0
 72
     0
 73
     0
 74
     1
 75
     0
 76
     0
 77
     1
 78
     8
170
     0
171
     2
172
     0
173
     0
174
     0
175
     0
176
   256
177
   256
178
     2
270
     2
271
     2
272
     2
273
     2
274
     2
340
6A27
275
     0
280
     0
281
     0
282
     0
283
     0
284
     8
285
     0
286
     0
287
     0
288
     1
  0
DIMSTYLE
105
6D9E
330
6A20
100
AcDbSymbolTableRecord
100
AcDbDimStyleTableRecord
  2
AM_DIN$6
 70
     0
  3

  4
"
  5

  6

  7

 40
1.0
 41
3.5
 42
0.0
 43
0.0
 44
1.0
 45
0.0
 46
0.0
 47
0.1
 48
0.1
140
3.5
141
0.0
142
0.0
143
0.0393701
144
1.0
145
0.0
146
0.71
147
1.5
 71
     0
 72
     0
 73
     0
 74
     0
 75
     0
 76
     0
 77
     0
 78
     8
170
     0
171
     2
172
     1
173
     0
174
     0
175
     0
176
   256
177
   256
178
     2
270
     2
271
     2
272
     2
273
     2
274
     2
340
6A27
275
     0
280
     0
281
     0
282
     0
283
     0
284
     8
285
     0
286
     0
287
     3
288
     0
  0
DIMSTYLE
105
6D9F
330
6A20
100
AcDbSymbolTableRecord
100
AcDbDimStyleTableRecord
  2
AM_DIN$7
 70
     0
  3

  4
"
  5

  6

  7

 40
1.0
 41
3.5
 42
0.0
 43
10.0
 44
1.0
 45
0.0
 46
0.0
 47
0.1
 48
0.1
140
3.5
141
0.0
142
0.0
143
0.0393701
144
1.0
145
0.0
146
0.71
147
1.5
 71
     0
 72
     0
 73
     0
 74
     0
 75
     0
 76
     0
 77
     1
 78
     8
170
     0
171
     2
172
     1
173
     0
174
     0
175
     0
176
   256
177
   256
178
     2
270
     2
271
     2
272
     2
273
     2
274
     2
340
6A27
275
     0
280
     0
281
     0
282
     0
283
     0
284
     8
285
     0
286
     0
287
     3
288
     0
  0
DIMSTYLE
105
6DA0
330
6A20
100
AcDbSymbolTableRecord
100
AcDbDimStyleTableRecord
  2
AM_DIN$SF
 70
     0
  3

  4
"
  5

  6

  7

 40
1.0
 41
2.5
 42
1.0
 43
10.0
 44
1.0
 45
0.0
 46
0.0
 47
0.1
 48
0.1
140
3.5
141
0.0
142
0.0
143
0.0393701
144
1.0
145
0.0
146
0.71
147
1.5
 71
     0
 72
     0
 73
     0
 74
     0
 75
     1
 76
     1
 77
     1
 78
     8
170
     0
171
     2
172
     1
173
     0
174
     0
175
     0
176
   256
177
   256
178
     2
270
     2
271
     2
272
     3
273
     2
274
     4
340
6A27
275
     0
280
     0
281
     0
282
     0
283
     0
284
     8
285
     0
286
     0
287
     3
288
     0
  0
DIMSTYLE
105
6DA1
330
6A20
100
AcDbSymbolTableRecord
100
AcDbDimStyleTableRecord
  2
AM_DIN$SH
 70
     0
  3

  4
"
  5

  6
GENAXEH
  7

 40
1.0
 41
2.5
 42
1.0
 43
10.0
 44
1.0
 45
0.0
 46
0.0
 47
0.1
 48
0.1
140
3.5
141
0.0
142
0.0
143
0.0393701
144
2.0
145
0.0
146
0.71
147
1.5
 71
     0
 72
     0
 73
     0
 74
     0
 75
     1
 76
     1
 77
     1
 78
     8
170
     0
171
     2
172
     1
173
     1
174
     0
175
     0
176
   256
177
   256
178
     2
270
     2
271
     2
272
     3
273
     2
274
     4
340
6A27
275
     0
280
     0
281
     0
282
     0
283
     0
284
     8
285
     0
286
     0
287
     3
288
     0
  0
ENDTAB
  0
TABLE
  2
BLOCK_RECORD
  5
6A17
330
0
100
AcDbSymbolTable
 70
     7
  0
BLOCK_RECORD
  5
6A34
102
{ACAD_XDICTIONARY
360
6B62
102
}
330
6A17
100
AcDbSymbolTableRecord
100
AcDbBlockTableRecord
  2
*MODEL_SPACE
  0
BLOCK_RECORD
  5
6A30
102
{ACAD_XDICTIONARY
360
86A7
102
}
330
6A17
100
AcDbSymbolTableRecord
100
AcDbBlockTableRecord
  2
*PAPER_SPACE
  0
BLOCK_RECORD
  5
6D93
330
6A17
100
AcDbSymbolTableRecord
100
AcDbBlockTableRecord
  2
GENAXEH
  0
BLOCK_RECORD
  5
7C08
330
6A17
100
AcDbSymbolTableRecord
100
AcDbBlockTableRecord
  2
*D1
  0
BLOCK_RECORD
  5
813E
330
6A17
100
AcDbSymbolTableRecord
100
AcDbBlockTableRecord
  2
*D2
  0
BLOCK_RECORD
  5
81C6
330
6A17
100
AcDbSymbolTableRecord
100
AcDbBlockTableRecord
  2
*D3
  0
BLOCK_RECORD
  5
8208
330
6A17
100
AcDbSymbolTableRecord
100
AcDbBlockTableRecord
  2
*D4
  0
BLOCK_RECORD
  5
8322
330
6A17
100
AcDbSymbolTableRecord
100
AcDbBlockTableRecord
  2
*D5
  0
BLOCK_RECORD
  5
8372
330
6A17
100
AcDbSymbolTableRecord
100
AcDbBlockTableRecord
  2
*D6
  0
ENDTAB
  0
ENDSEC
  0
SECTION
  2
BLOCKS
  0
BLOCK
  5
6A35
330
6A34
100
AcDbEntity
  8
0
100
AcDbBlockBegin
  2
*MODEL_SPACE
 70
     0
 10
0.0
 20
0.0
 30
0.0
  3
*MODEL_SPACE
  1

  0
ENDBLK
  5
6A36
330
6A34
100
AcDbEntity
  8
0
100
AcDbBlockEnd
  0
BLOCK
  5
6A31
330
6A30
100
AcDbEntity
 67
     1
  8
0
100
AcDbBlockBegin
  2
*PAPER_SPACE
 70
     0
 10
0.0
 20
0.0
 30
0.0
  3
*PAPER_SPACE
  1

  0
ENDBLK
  5
6A32
330
6A30
100
AcDbEntity
 67
     1
  8
0
100
AcDbBlockEnd
  0
BLOCK
  5
6D95
330
6D93
100
AcDbEntity
  8
0
100
AcDbBlockBegin
  2
GENAXEH
 70
     0
 10
0.0
 20
0.0
 30
0.0
  3
GENAXEH
  1

  0
LINE
  5
6D94
330
6D93
100
AcDbEntity
  8
0
100
AcDbLine
 10
-1.0
 20
0.0
 30
0.0
 11
1.0
 21
0.0
 31
0.0
  0
ENDBLK
  5
6D96
330
6D93
100
AcDbEntity
  8
0
100
AcDbBlockEnd
  0
BLOCK
  5
7C12
330
7C08
100
AcDbEntity
  8
0
100
AcDbBlockBegin
  2
*D1
 70
     1
 10
0.0
 20
0.0
 30
0.0
  3
*D1
  1

  0
LINE
  5
8638
330
7C08
100
AcDbEntity
  8
2
100
AcDbLine
 10
125.0499999999999
 20
16.0
 30
0.0
 11
146.4818448706633
 21
15.99999999999999
 31
0.0
  0
LINE
  5
8639
330
7C08
100
AcDbEntity
  8
2
100
AcDbLine
 10
125.0499999999999
 20
-16.0
 30
0.0
 11
146.4818448706633
 21
-16.0
 31
0.0
  0
LINE
  5
863A
330
7C08
100
AcDbEntity
  8
2
100
AcDbLine
 10
146.3818448706633
 20
13.49999999999999
 30
0.0
 11
146.3818448706633
 21
-13.5
 31
0.0
  0
MTEXT
  5
863B
330
7C08
100
AcDbEntity
  8
2
 62
     2
100
AcDbMText
 10
143.1042571768909
 20
0.1477481439527537
 30
0.0
 40
3.5
 41
0.0
 71
     5
 72
     1
  1
\A1;%%c32
 11
0.0000000000000001
 21
1.0
 31
0.0
1001
ACAD
1000
MTEXTBEGIN
1070
    73
1070
     1
1070
    44
1040
1.0
1070
    74
1070
     0
1000
MTEXTEND
  0
SOLID
  5
863C
330
7C08
100
AcDbEntity
  8
2
100
AcDbTrace
 10
145.9651782039967
 20
13.49999999999999
 30
0.0
 11
146.79851153733
 21
13.49999999999999
 31
0.0
 12
146.3818448706633
 22
15.99999999999999
 32
0.0
 13
146.3818448706633
 23
15.99999999999999
 33
0.0
  0
SOLID
  5
863D
330
7C08
100
AcDbEntity
  8
2
100
AcDbTrace
 10
145.9651782039967
 20
-13.5
 30
0.0
 11
146.79851153733
 21
-13.5
 31
0.0
 12
146.3818448706633
 22
-16.0
 32
0.0
 13
146.3818448706633
 23
-16.0
 33
0.0
  0
POINT
  5
863E
330
7C08
100
AcDbEntity
  8
DEFPOINTS
 62
     0
100
AcDbPoint
 10
124.9999999999999
 20
16.0
 30
0.0
  0
POINT
  5
863F
330
7C08
100
AcDbEntity
  8
DEFPOINTS
 62
     0
100
AcDbPoint
 10
124.9999999999999
 20
-16.0
 30
0.0
  0
POINT
  5
8640
330
7C08
100
AcDbEntity
  8
DEFPOINTS
 62
     0
100
AcDbPoint
 10
146.3818448706633
 20
-16.0
 30
0.0
  0
ENDBLK
  5
7C13
330
7C08
100
AcDbEntity
  8
0
100
AcDbBlockEnd
  0
BLOCK
  5
814A
330
813E
100
AcDbEntity
  8
0
100
AcDbBlockBegin
  2
*D2
 70
     1
 10
0.0
 20
0.0
 30
0.0
  3
*D2
  1

  0
LINE
  5
861D
330
813E
100
AcDbEntity
  8
2
100
AcDbLine
 10
124.9999999999999
 20
16.0
 30
0.0
 11
124.9999999999999
 21
46.0
 31
0.0
  0
LINE
  5
861E
330
813E
100
AcDbEntity
  8
2
100
AcDbLine
 10
112.4999999999999
 20
16.0
 30
0.0
 11
112.4999999999999
 21
46.0
 31
0.0
  0
LINE
  5
861F
330
813E
100
AcDbEntity
  8
2
100
AcDbLine
 10
122.4999999999999
 20
45.0
 30
0.0
 11
114.9999999999999
 21
45.0
 31
0.0
  0
SOLID
  5
8620
330
813E
100
AcDbEntity
  8
2
100
AcDbTrace
 10
122.4999999999999
 20
45.41666666666666
 30
0.0
 11
122.4999999999999
 21
44.58333333333333
 31
0.0
 12
124.9999999999999
 22
45.0
 32
0.0
 13
124.9999999999999
 23
45.0
 33
0.0
  0
SOLID
  5
8621
330
813E
100
AcDbEntity
  8
2
100
AcDbTrace
 10
114.9999999999999
 20
45.41666666666666
 30
0.0
 11
114.9999999999999
 21
44.58333333333333
 31
0.0
 12
112.4999999999999
 22
45.0
 32
0.0
 13
112.4999999999999
 23
45.0
 33
0.0
  0
MTEXT
  5
8622
330
813E
100
AcDbEntity
  8
2
 62
     2
100
AcDbMText
 10
118.7499999999999
 20
48.25034448818898
 30
0.0
 40
3.5
 41
0.0
 71
     5
 72
     1
  1
\A1;12.5
1001
ACAD
1000
MTEXTBEGIN
1070
    73
1070
     1
1070
    44
1040
1.0
1070
    74
1070
     0
1000
MTEXTEND
  0
POINT
  5
8623
330
813E
100
AcDbEntity
  8
DEFPOINTS
 62
     0
100
AcDbPoint
 10
124.9999999999999
 20
16.0
 30
0.0
  0
POINT
  5
8624
330
813E
100
AcDbEntity
  8
DEFPOINTS
 62
     0
100
AcDbPoint
 10
112.4999999999999
 20
16.0
 30
0.0
  0
POINT
  5
8625
330
813E
100
AcDbEntity
  8
DEFPOINTS
 62
     0
100
AcDbPoint
 10
112.4999999999999
 20
45.0
 30
0.0
  0
ENDBLK
  5
814B
330
813E
100
AcDbEntity
  8
0
100
AcDbBlockEnd
  0
BLOCK
  5
81D0
330
81C6
100
AcDbEntity
  8
0
100
AcDbBlockBegin
  2
*D3
 70
     1
 10
0.0
 20
0.0
 30
0.0
  3
*D3
  1

  0
LINE
  5
81EE
330
81C6
100
AcDbEntity
  8
SK2
100
AcDbLine
 10
-59.0
 20
16.00000000000003
 30
0.0
 11
-78.95709209529195
 21
16.00000000000003
 31
0.0
  0
LINE
  5
81EF
330
81C6
100
AcDbEntity
  8
SK2
100
AcDbLine
 10
-59.00000000000003
 20
-15.99999999999996
 30
0.0
 11
-78.95709209529195
 21
-15.99999999999996
 31
0.0
  0
LINE
  5
81F0
330
81C6
100
AcDbEntity
  8
SK2
100
AcDbLine
 10
-77.95709209529196
 20
13.50000000000003
 30
0.0
 11
-77.95709209529196
 21
-13.49999999999996
 31
0.0
  0
SOLID
  5
81F1
330
81C6
100
AcDbEntity
  8
SK2
100
AcDbTrace
 10
-78.37375876195863
 20
13.50000000000003
 30
0.0
 11
-77.54042542862528
 21
13.50000000000003
 31
0.0
 12
-77.95709209529196
 22
16.00000000000003
 32
0.0
 13
-77.95709209529196
 23
16.00000000000003
 33
0.0
  0
SOLID
  5
81F2
330
81C6
100
AcDbEntity
  8
SK2
100
AcDbTrace
 10
-78.37375876195863
 20
-13.49999999999996
 30
0.0
 11
-77.54042542862528
 21
-13.49999999999996
 31
0.0
 12
-77.95709209529196
 22
-15.99999999999996
 32
0.0
 13
-77.95709209529196
 23
-15.99999999999996
 33
0.0
  0
MTEXT
  5
81F3
330
81C6
100
AcDbEntity
  8
SK2
 62
     2
100
AcDbMText
 10
-81.20743658348093
 20
0.000000000000022
 30
0.0
 40
3.5
 41
0.0
 71
     5
 72
     1
  1
\A1;%%c32
 11
0.0000000000000001
 21
1.0
 31
0.0
1001
ACAD
1000
MTEXTBEGIN
1070
    73
1070
     1
1070
    44
1040
1.0
1070
    74
1070
     0
1000
MTEXTEND
  0
POINT
  5
81F4
330
81C6
100
AcDbEntity
  8
DEFPOINTS
 62
     0
100
AcDbPoint
 10
-59.0
 20
16.00000000000003
 30
0.0
  0
POINT
  5
81F5
330
81C6
100
AcDbEntity
  8
DEFPOINTS
 62
     0
100
AcDbPoint
 10
-59.00000000000003
 20
-15.99999999999996
 30
0.0
  0
POINT
  5
81F6
330
81C6
100
AcDbEntity
  8
DEFPOINTS
 62
     0
100
AcDbPoint
 10
-77.95709209529196
 20
-15.99999999999996
 30
0.0
  0
ENDBLK
  5
81D1
330
81C6
100
AcDbEntity
  8
0
100
AcDbBlockEnd
  0
BLOCK
  5
8212
330
8208
100
AcDbEntity
  8
0
100
AcDbBlockBegin
  2
*D4
 70
     1
 10
0.0
 20
0.0
 30
0.0
  3
*D4
  1

  0
LINE
  5
8614
330
8208
100
AcDbEntity
  8
SK2
100
AcDbLine
 10
-60.00000000000003
 20
-15.0
 30
0.0
 11
-60.00000000000003
 21
-42.0347662616366
 31
0.0
  0
LINE
  5
8615
330
8208
100
AcDbEntity
  8
SK2
100
AcDbLine
 10
124.9999999999999
 20
-16.0
 30
0.0
 11
124.9999999999999
 21
-42.0347662616366
 31
0.0
  0
LINE
  5
8616
330
8208
100
AcDbEntity
  8
SK2
100
AcDbLine
 10
-57.50000000000003
 20
-41.03476626163661
 30
0.0
 11
122.4999999999999
 21
-41.03476626163661
 31
0.0
  0
SOLID
  5
8617
330
8208
100
AcDbEntity
  8
SK2
100
AcDbTrace
 10
-57.50000000000003
 20
-40.61809959496994
 30
0.0
 11
-57.50000000000003
 21
-41.45143292830327
 31
0.0
 12
-60.00000000000003
 22
-41.03476626163661
 32
0.0
 13
-60.00000000000003
 23
-41.03476626163661
 33
0.0
  0
SOLID
  5
8618
330
8208
100
AcDbEntity
  8
SK2
100
AcDbTrace
 10
122.4999999999999
 20
-40.61809959496994
 30
0.0
 11
122.4999999999999
 21
-41.45143292830327
 31
0.0
 12
124.9999999999999
 22
-41.03476626163661
 32
0.0
 13
124.9999999999999
 23
-41.03476626163661
 33
0.0
  0
MTEXT
  5
8619
330
8208
100
AcDbEntity
  8
SK2
 62
     2
100
AcDbMText
 10
32.49999999999997
 20
-37.7847662616366
 30
0.0
 40
3.5
 41
0.0
 71
     5
 72
     1
  1
\A1;185
1001
ACAD
1000
MTEXTBEGIN
1070
    73
1070
     1
1070
    44
1040
1.0
1070
    74
1070
     0
1000
MTEXTEND
  0
POINT
  5
861A
330
8208
100
AcDbEntity
  8
DEFPOINTS
 62
     0
100
AcDbPoint
 10
-60.00000000000003
 20
-15.0
 30
0.0
  0
POINT
  5
861B
330
8208
100
AcDbEntity
  8
DEFPOINTS
 62
     0
100
AcDbPoint
 10
124.9999999999999
 20
-16.0
 30
0.0
  0
POINT
  5
861C
330
8208
100
AcDbEntity
  8
DEFPOINTS
 62
     0
100
AcDbPoint
 10
124.9999999999999
 20
-41.03476626163661
 30
0.0
  0
ENDBLK
  5
8213
330
8208
100
AcDbEntity
  8
0
100
AcDbBlockEnd
  0
BLOCK
  5
832C
330
8322
100
AcDbEntity
  8
0
100
AcDbBlockBegin
  2
*D5
 70
     1
 10
0.0
 20
0.0
 30
0.0
  3
*D5
  1

  0
LINE
  5
8669
330
8322
100
AcDbEntity
  8
2
100
AcDbLine
 10
124.9999999999999
 20
16.0
 30
0.0
 11
124.9999999999999
 21
61.0
 31
0.0
  0
LINE
  5
866A
330
8322
100
AcDbEntity
  8
2
100
AcDbLine
 10
5.000000000000071
 20
16.0
 30
0.0
 11
5.000000000000073
 21
61.0
 31
0.0
  0
LINE
  5
866B
330
8322
100
AcDbEntity
  8
2
100
AcDbLine
 10
122.4999999999999
 20
60.0
 30
0.0
 11
7.500000000000073
 21
60.0
 31
0.0
  0
SOLID
  5
866C
330
8322
100
AcDbEntity
  8
2
100
AcDbTrace
 10
122.4999999999999
 20
60.41666666666666
 30
0.0
 11
122.4999999999999
 21
59.58333333333333
 31
0.0
 12
124.9999999999999
 22
60.0
 32
0.0
 13
124.9999999999999
 23
60.0
 33
0.0
  0
SOLID
  5
866D
330
8322
100
AcDbEntity
  8
2
100
AcDbTrace
 10
7.500000000000073
 20
60.41666666666666
 30
0.0
 11
7.500000000000073
 21
59.58333333333333
 31
0.0
 12
5.000000000000073
 22
60.0
 32
0.0
 13
5.000000000000073
 23
60.0
 33
0.0
  0
MTEXT
  5
866E
330
8322
100
AcDbEntity
  8
2
 62
     2
100
AcDbMText
 10
65.00000000000003
 20
63.25034448818898
 30
0.0
 40
3.5
 41
0.0
 71
     5
 72
     1
  1
\A1;120
1001
ACAD
1000
MTEXTBEGIN
1070
    73
1070
     1
1070
    44
1040
1.0
1070
    74
1070
     0
1000
MTEXTEND
  0
POINT
  5
866F
330
8322
100
AcDbEntity
  8
DEFPOINTS
 62
     0
100
AcDbPoint
 10
124.9999999999999
 20
16.0
 30
0.0
  0
POINT
  5
8670
330
8322
100
AcDbEntity
  8
DEFPOINTS
 62
     0
100
AcDbPoint
 10
5.000000000000071
 20
16.0
 30
0.0
  0
POINT
  5
8671
330
8322
100
AcDbEntity
  8
DEFPOINTS
 62
     0
100
AcDbPoint
 10
5.000000000000073
 20
60.0
 30
0.0
  0
ENDBLK
  5
832D
330
8322
100
AcDbEntity
  8
0
100
AcDbBlockEnd
  0
BLOCK
  5
837C
330
8372
100
AcDbEntity
  8
0
100
AcDbBlockBegin
  2
*D6
 70
     1
 10
0.0
 20
0.0
 30
0.0
  3
*D6
  1

  0
LINE
  5
8626
330
8372
100
AcDbEntity
  8
2
100
AcDbLine
 10
124.9999999999999
 20
16.0
 30
0.0
 11
124.9999999999999
 21
76.00000000000008
 31
0.0
  0
LINE
  5
8627
330
8372
100
AcDbEntity
  8
2
100
AcDbLine
 10
0.0000000000000004
 20
16.0
 30
0.0
 11
0.0000000000000041
 21
76.00000000000008
 31
0.0
  0
LINE
  5
8628
330
8372
100
AcDbEntity
  8
2
100
AcDbLine
 10
122.4999999999999
 20
75.00000000000008
 30
0.0
 11
2.500000000000003
 21
75.00000000000008
 31
0.0
  0
SOLID
  5
8629
330
8372
100
AcDbEntity
  8
2
100
AcDbTrace
 10
122.4999999999999
 20
75.41666666666675
 30
0.0
 11
122.4999999999999
 21
74.58333333333341
 31
0.0
 12
124.9999999999999
 22
75.00000000000008
 32
0.0
 13
124.9999999999999
 23
75.00000000000008
 33
0.0
  0
SOLID
  5
862A
330
8372
100
AcDbEntity
  8
2
100
AcDbTrace
 10
2.500000000000003
 20
75.41666666666675
 30
0.0
 11
2.500000000000003
 21
74.58333333333341
 31
0.0
 12
0.0000000000000041
 22
75.00000000000008
 32
0.0
 13
0.0000000000000041
 23
75.00000000000008
 33
0.0
  0
MTEXT
  5
862B
330
8372
100
AcDbEntity
  8
2
 62
     2
100
AcDbMText
 10
62.49999999999997
 20
78.25034448818906
 30
0.0
 40
3.5
 41
0.0
 71
     5
 72
     1
  1
\A1;125
1001
ACAD
1000
MTEXTBEGIN
1070
    73
1070
     1
1070
    44
1040
1.0
1070
    74
1070
     0
1000
MTEXTEND
  0
POINT
  5
862C
330
8372
100
AcDbEntity
  8
DEFPOINTS
 62
     0
100
AcDbPoint
 10
124.9999999999999
 20
16.0
 30
0.0
  0
POINT
  5
862D
330
8372
100
AcDbEntity
  8
DEFPOINTS
 62
     0
100
AcDbPoint
 10
0.0000000000000004
 20
16.0
 30
0.0
  0
POINT
  5
862E
330
8372
100
AcDbEntity
  8
DEFPOINTS
 62
     0
100
AcDbPoint
 10
0.0000000000000041
 20
75.00000000000008
 30
0.0
  0
ENDBLK
  5
837D
330
8372
100
AcDbEntity
  8
0
100
AcDbBlockEnd
  0
ENDSEC
  0
SECTION
  2
ENTITIES
  0
LINE
  5
7B98
330
6A34
100
AcDbEntity
  8
SK4
100
AcDbLine
 10
0.0
 20
0.0000000000001137
 30
0.0
 11
-62.4249186784946
 21
0.0
 31
0.0
  0
DIMENSION
  5
7BAB
330
6A34
100
AcDbEntity
  8
2
100
AcDbDimension
  2
*D1
 10
146.3818448706633
 20
-16.0
 30
0.0
 11
143.1042571768909
 21
0.1477481439527537
 31
0.0
 70
   160
  1
%%c<>
 53
90.0
  3
AM_ANSI
100
AcDbAlignedDimension
 13
124.9999999999999
 23
16.0
 33
0.0
 14
124.9999999999999
 24
-16.0
 34
0.0
 50
90.0
100
AcDbRotatedDimension
1001
ACAD
1000
DSTYLE
1002
{
1070
    41
1040
2.5
1070
    77
1070
     1
1070
   140
1040
3.5
1070
   147
1040
1.0
1070
   271
1070
     0
1002
}
  0
TEXT
  5
7BAC
330
6A34
100
AcDbEntity
  8
6
100
AcDbText
 10
127.0646881596252
 20
-25.95427022506254
 30
0.0
 40
3.5
  1
12J1C032120W6R00
100
AcDbText
  0
LINE
  5
7BAD
330
6A34
100
AcDbEntity
  8
1
100
AcDbLine
 10
123.9967948000837
 20
-15.27113434341686
 30
0.0
 11
5.000000000000071
 21
-15.27113434341686
 31
0.0
  0
LINE
  5
7BAE
330
6A34
100
AcDbEntity
  8
NOCUT
100
AcDbLine
 10
5.000000000000071
 20
-15.27113434341686
 30
0.0
 11
123.9967948000837
 21
-15.27113434341685
 31
0.0
  0
LINE
  5
7BAF
330
6A34
100
AcDbEntity
  8
1
100
AcDbLine
 10
111.5558058715983
 20
15.27113434341674
 30
0.0
 11
5.000000000000071
 21
15.27113434341674
 31
0.0
  0
LINE
  5
7BB0
330
6A34
100
AcDbEntity
  8
4
100
AcDbLine
 10
128.7525392395209
 20
0.0
 30
0.0
 11
0.0
 21
0.0000000000001137
 31
0.0
  0
LINE
  5
7BB1
330
6A34
100
AcDbEntity
  8
NOCUT
100
AcDbLine
 10
123.9967948000837
 20
0.0000000000000124
 30
0.0
 11
0.0
 21
0.0
 31
0.0
  0
LINE
  5
7BB3
330
6A34
100
AcDbEntity
  8
SK1
100
AcDbLine
 10
0.0
 20
12.5
 30
0.0
 11
0.0
 21
-15.99999999999999
 31
0.0
  0
LINE
  5
7BB4
330
6A34
100
AcDbEntity
  8
NOCUT
100
AcDbLine
 10
0.0
 20
0.0
 30
0.0
 11
0.0
 21
-16.0
 31
0.0
  0
LINE
  5
7BB7
330
6A34
100
AcDbEntity
  8
NOCUT
100
AcDbLine
 10
0.0
 20
-12.50000000000011
 30
0.0
 11
0.0000000000009663
 21
-12.50000000000034
 31
0.0
  0
LINE
  5
7BB9
330
6A34
100
AcDbEntity
  8
SK1
100
AcDbLine
 10
0.0
 20
3.200115174948678
 30
0.0
 11
0.0
 21
-3.200115174948678
 31
0.0
  0
CIRCLE
  5
7BBA
330
6A34
100
AcDbEntity
  8
SK1
100
AcDbCircle
 10
0.0
 20
0.0
 30
0.0
 40
3.200115174948665
  0
LINE
  5
7BBB
330
6A34
100
AcDbEntity
  8
SK1
100
AcDbLine
 10
-3.200115174948678
 20
0.0
 30
0.0
 11
6.200115174948777
 21
0.0
 31
0.0
  0
LINE
  5
7BBD
330
6A34
100
AcDbEntity
  8
NOCUT
100
AcDbLine
 10
123.9967948000837
 20
-15.27113434341685
 30
0.0
 11
123.9967948000837
 21
0.0000000000000124
 31
0.0
  0
LINE
  5
7BBE
330
6A34
100
AcDbEntity
  8
1
100
AcDbLine
 10
123.9967948000837
 20
11.21968382392515
 30
0.0
 11
123.9967948000837
 21
-15.27113434341686
 31
0.0
  0
LINE
  5
7BCB
330
6A34
100
AcDbEntity
  8
SK1
100
AcDbLine
 10
124.9999999999999
 20
-16.46376936984881
 30
0.0
 11
124.9999999999999
 21
-15.53623063015118
 31
0.0
  0
LINE
  5
7BCC
330
6A34
100
AcDbEntity
  8
SK1
100
AcDbLine
 10
124.5362306301511
 20
-16.0
 30
0.0
 11
125.4637693698487
 21
-16.0
 31
0.0
  0
CIRCLE
  5
7BCD
330
6A34
100
AcDbEntity
  8
SK1
100
AcDbCircle
 10
124.9999999999999
 20
-16.0
 30
0.0
 40
0.4637693698488208
  0
LINE
  5
7BF6
330
6A34
100
AcDbEntity
  8
SK1
100
AcDbLine
 10
124.9999999999999
 20
16.46376936984881
 30
0.0
 11
124.9999999999999
 21
15.53623063015118
 31
0.0
  0
LINE
  5
7BF7
330
6A34
100
AcDbEntity
  8
SK1
100
AcDbLine
 10
124.5362306301511
 20
16.0
 30
0.0
 11
125.4637693698487
 21
16.0
 31
0.0
  0
CIRCLE
  5
7BF8
330
6A34
100
AcDbEntity
  8
SK1
100
AcDbCircle
 10
124.9999999999999
 20
16.0
 30
0.0
 40
0.4637693698488208
  0
TEXT
  5
7BFB
330
6A34
100
AcDbEntity
  8
6
100
AcDbText
 10
152.1164027307172
 20
-4.389388396538606
 30
0.0
 40
3.5
  1
Z=2
 50
90.0
100
AcDbText
  0
LINE
  5
7EE3
330
6A34
100
AcDbEntity
  8
4
100
AcDbLine
 10
96.17209364092438
 20
0.0000000000000721
 30
0.0
 11
116.2035401105303
 21
8.064920890471691
 31
0.0
  0
LINE
  5
800D
330
6A34
100
AcDbEntity
  8
1
100
AcDbLine
 10
5.000000000000071
 20
16.0
 30
0.0
 11
0.0000000000000004
 21
16.0
 31
0.0
  0
LINE
  5
800E
330
6A34
100
AcDbEntity
  8
SK1
100
AcDbLine
 10
-59.0
 20
16.00000000000003
 30
0.0
 11
-60.0
 21
15.00000000000002
 31
0.0
  0
LINE
  5
800F
330
6A34
100
AcDbEntity
  8
SK1
100
AcDbLine
 10
-60.0
 20
15.00000000000002
 30
0.0
 11
-60.00000000000003
 21
-15.0
 31
0.0
  0
LINE
  5
8010
330
6A34
100
AcDbEntity
  8
SK1
100
AcDbLine
 10
-60.00000000000003
 20
-15.0
 30
0.0
 11
-59.00000000000003
 21
-15.99999999999997
 31
0.0
  0
LINE
  5
8011
330
6A34
100
AcDbEntity
  8
SK1
100
AcDbLine
 10
-59.00000000000003
 20
-15.99999999999997
 30
0.0
 11
-59.00000000000003
 21
-7.749999999999943
 31
0.0
  0
LINE
  5
8012
330
6A34
100
AcDbEntity
  8
SK1
100
AcDbLine
 10
-59.0
 20
16.00000000000003
 30
0.0
 11
-59.0
 21
7.750000000000028
 31
0.0
  0
LINE
  5
8013
330
6A34
100
AcDbEntity
  8
SK1
100
AcDbLine
 10
-60.00000000000003
 20
-7.749999999999971
 30
0.0
 11
-40.99999999999781
 21
-7.749999999999971
 31
0.0
  0
LINE
  5
8014
330
6A34
100
AcDbEntity
  8
SK1
100
AcDbLine
 10
-40.99999999999781
 20
-7.749999999999971
 30
0.0
 11
-40.99999999999778
 21
7.750000000000113
 31
0.0
  0
LINE
  5
8015
330
6A34
100
AcDbEntity
  8
SK1
100
AcDbLine
 10
-40.99999999999778
 20
7.750000000000113
 30
0.0
 11
-60.0
 21
7.750000000000028
 31
0.0
  0
LINE
  5
8016
330
6A34
100
AcDbEntity
  8
SK1
100
AcDbLine
 10
-16.99999999999778
 20
7.750000000000056
 30
0.0
 11
-30.99999999999778
 21
7.75
 31
0.0
  0
LINE
  5
8017
330
6A34
100
AcDbEntity
  8
SK1
100
AcDbLine
 10
-30.99999999999778
 20
7.75
 30
0.0
 11
-30.99999999999781
 21
-7.749999999999971
 31
0.0
  0
LINE
  5
8018
330
6A34
100
AcDbEntity
  8
SK1
100
AcDbLine
 10
-30.99999999999781
 20
-7.749999999999971
 30
0.0
 11
-16.99999999999781
 21
-7.75
 31
0.0
  0
LINE
  5
8019
330
6A34
100
AcDbEntity
  8
SK1
100
AcDbLine
 10
-16.99999999999781
 20
-7.75
 30
0.0
 11
-16.99999999999778
 21
7.750000000000056
 31
0.0
  0
LINE
  5
801A
330
6A34
100
AcDbEntity
  8
1
100
AcDbLine
 10
5.000000000000071
 20
-16.0
 30
0.0
 11
-0.0000000000000002
 21
-16.0
 31
0.0
  0
ARC
  5
801B
330
6A34
100
AcDbEntity
  8
SK1
100
AcDbCircle
 10
-31.01562499999792
 20
0.0000000000000284
 30
0.0
 40
16.01562500000011
100
AcDbArc
 50
331.0594117998681
 51
28.94058820013178
  0
ARC
  5
801C
330
6A34
100
AcDbEntity
  8
SK1
100
AcDbCircle
 10
-16.98437499999806
 20
0.0000000000000284
 30
0.0
 40
16.01562499999976
100
AcDbArc
 50
151.0594117998682
 51
208.940588200132
  0
ARC
  5
801D
330
6A34
100
AcDbEntity
  8
SK1
100
AcDbCircle
 10
-55.01562499999775
 20
0.0000000000000853
 30
0.0
 40
16.01562499999996
100
AcDbArc
 50
331.0594117998681
 51
28.94058820013178
  0
DIMENSION
  5
8119
330
6A34
100
AcDbEntity
  8
2
100
AcDbDimension
  2
*D2
 10
112.4999999999999
 20
45.0
 30
0.0
 11
118.7499999999999
 21
48.25034448818898
 31
0.0
 70
    32
  3
AM_DIN
100
AcDbAlignedDimension
 13
124.9999999999999
 23
16.0
 33
0.0
 14
112.4999999999999
 24
16.0
 34
0.0
100
AcDbRotatedDimension
  0
DIMENSION
  5
81C5
330
6A34
100
AcDbEntity
  8
SK2
100
AcDbDimension
  2
*D3
 10
-77.95709209529196
 20
-15.99999999999996
 30
0.0
 11
-81.20743658348093
 21
0.000000000000022
 31
0.0
 70
    32
  1
%%c<>
  3
AM_DIN
100
AcDbAlignedDimension
 13
-59.0
 23
16.00000000000003
 33
0.0
 14
-59.00000000000003
 24
-15.99999999999996
 34
0.0
 50
89.99999999999996
100
AcDbRotatedDimension
  0
DIMENSION
  5
8207
330
6A34
100
AcDbEntity
  8
SK2
100
AcDbDimension
  2
*D4
 10
124.9999999999999
 20
-41.03476626163661
 30
0.0
 11
32.49999999999997
 21
-37.7847662616366
 31
0.0
 70
    32
  3
AM_DIN
100
AcDbAlignedDimension
 13
-60.00000000000003
 23
-15.0
 33
0.0
 14
124.9999999999999
 24
-16.0
 34
0.0
 50
0.0000000000001132
100
AcDbRotatedDimension
  0
LINE
  5
82E8
330
6A34
100
AcDbEntity
  8
1
100
AcDbLine
 10
5.000000000000071
 20
-16.0
 30
0.0
 11
5.000000000000071
 21
16.0
 31
0.0
  0
LINE
  5
8309
330
6A34
100
AcDbEntity
  8
SK1
100
AcDbLine
 10
0.0000000000000004
 20
16.0
 30
0.0
 11
-59.0
 21
16.00000000000003
 31
0.0
  0
LINE
  5
830A
330
6A34
100
AcDbEntity
  8
SK1
100
AcDbLine
 10
-0.0000000000000002
 20
-16.0
 30
0.0
 11
-59.00000000000003
 21
-15.99999999999997
 31
0.0
  0
DIMENSION
  5
8321
330
6A34
100
AcDbEntity
  8
2
100
AcDbDimension
  2
*D5
 10
5.000000000000073
 20
60.0
 30
0.0
 11
65.00000000000003
 21
63.25034448818898
 31
0.0
 70
    32
  3
AM_DIN
100
AcDbAlignedDimension
 13
124.9999999999999
 23
16.0
 33
0.0
 14
5.000000000000071
 24
16.0
 34
0.0
100
AcDbRotatedDimension
  0
DIMENSION
  5
8371
330
6A34
100
AcDbEntity
  8
2
100
AcDbDimension
  2
*D6
 10
0.0000000000000041
 20
75.00000000000008
 30
0.0
 11
62.49999999999997
 21
78.25034448818906
 31
0.0
 70
    32
  3
AM_DIN
100
AcDbAlignedDimension
 13
124.9999999999999
 23
16.0
 33
0.0
 14
0.0000000000000004
 24
16.0
 34
0.0
100
AcDbRotatedDimension
  0
LINE
  5
83AF
330
6A34
100
AcDbEntity
  8
NOCUT
100
AcDbLine
 10
0.0
 20
-16.0
 30
0.0
 11
5.000000000000071
 21
-16.0
 31
0.0
  0
LINE
  5
83B0
330
6A34
100
AcDbEntity
  8
NOCUT
100
AcDbLine
 10
5.000000000000071
 20
-16.0
 30
0.0
 11
5.000000000000071
 21
-15.27113434341686
 31
0.0
  0
TEXT
  5
84B3
330
6A34
100
AcDbEntity
  8
6
100
AcDbText
 10
127.8066474189415
 20
20.2599191074928
 30
0.0
 40
2.5
  1
BCKT130404R
100
AcDbText
  0
LINE
  5
8574
330
6A34
100
AcDbEntity
  8
1
100
AcDbLine
 10
113.2034828069761
 20
5.271134343416775
 30
0.0
 11
124.0467948000837
 21
5.271134343416775
 31
0.0
  0
ARC
  5
8575
330
6A34
100
AcDbEntity
  8
1
100
AcDbCircle
 10
113.2034828069762
 20
13.27113434341677
 30
0.0
 40
8.0
100
AcDbArc
 50
165.5224878140701
 51
270.0
1001
GENIUS_GENOBJ-N-FIL_13
1002
{
1000
OWNER
1000
GEN
1002
}
1001
GENIUS_GENODEF_13
1002
{
1000
HIER
1070
     0
1002
}
1002
{
1000
MANEDIT
1070
     0
1002
}
1002
{
1000
NOSEL
1070
     0
1002
}
1002
{
1000
BEHIND
1070
     0
1002
}
1002
{
1000
OTHER
1070
     0
1002
}
1002
{
1000
REACTOR
1002
}
  0
CIRCLE
  5
8576
330
6A34
100
AcDbEntity
  8
CUT
100
AcDbCircle
 10
117.5599999999999
 20
11.97999999999999
 30
0.0
 40
2.749999999999976
  0
LINE
  5
8577
330
6A34
100
AcDbEntity
  8
CUT
100
AcDbLine
 10
123.0599999999999
 20
7.960000000000015
 30
0.0
 11
110.4699999999999
 21
7.959999999999986
 31
0.0
  0
LINE
  5
8578
330
6A34
100
AcDbEntity
  8
1
100
AcDbLine
 10
123.0599999999999
 20
7.960000000000015
 30
0.0
 11
110.4699999999999
 21
7.959999999999986
 31
0.0
  0
CIRCLE
  5
8579
330
6A34
100
AcDbEntity
  8
1
100
AcDbCircle
 10
117.5599999999999
 20
11.97999999999999
 30
0.0
 40
2.749999999999976
  0
ARC
  5
857A
330
6A34
100
AcDbEntity
  8
CUT
100
AcDbCircle
 10
123.102178537791
 20
8.359999999999935
 30
0.0
 40
0.4
100
AcDbArc
 50
270.0
 51
350.3
1001
GENIUS_GENODEF_13
1002
{
1000
HIER
1070
     0
1002
}
1002
{
1000
MANEDIT
1070
     0
1002
}
1002
{
1000
NOSEL
1070
     0
1002
}
1002
{
1000
BEHIND
1070
     0
1002
}
1002
{
1000
OTHER
1070
     0
1002
}
1002
{
1000
REACTOR
1002
}
1001
GENIUS_GENOBJ-N-FIL_13
1002
{
1000
OWNER
1000
GEN
1002
}
  0
LINE
  5
857B
330
6A34
100
AcDbEntity
  8
CUT
100
AcDbLine
 10
124.3011098170671
 20
12.99999999999994
 30
0.0
 11
123.4964599254265
 21
8.292604248173923
 31
0.0
  0
ARC
  5
857C
330
6A34
100
AcDbEntity
  8
1
100
AcDbCircle
 10
123.102178537791
 20
8.359999999999935
 30
0.0
 40
0.4
100
AcDbArc
 50
270.0
 51
350.3
1001
GENIUS_GENODEF_13
1002
{
1000
HIER
1070
     0
1002
}
1002
{
1000
MANEDIT
1070
     0
1002
}
1002
{
1000
NOSEL
1070
     0
1002
}
1002
{
1000
BEHIND
1070
     0
1002
}
1002
{
1000
OTHER
1070
     0
1002
}
1002
{
1000
REACTOR
1002
}
1001
GENIUS_GENOBJ-N-FIL_13
1002
{
1000
OWNER
1000
GEN
1002
}
  0
LINE
  5
857D
330
6A34
100
AcDbEntity
  8
1
100
AcDbLine
 10
124.3011098170671
 20
12.99999999999994
 30
0.0
 11
123.4964599254265
 21
8.292604248173923
 31
0.0
  0
LINE
  5
857E
330
6A34
100
AcDbEntity
  8
CUT
100
AcDbLine
 10
110.0699999999999
 20
9.959999999999979
 30
0.0
 11
110.8188901829327
 21
10.95999999999995
 31
0.0
  0
ARC
  5
857F
330
6A34
100
AcDbEntity
  8
CUT
100
AcDbCircle
 10
110.4699999999999
 20
8.359999999999963
 30
0.0
 40
0.4
100
AcDbArc
 50
180.0
 51
270.0
1001
GENIUS_GENOBJ-N-FIL_13
1002
{
1000
OWNER
1000
GEN
1002
}
1001
GENIUS_GENODEF_13
1002
{
1000
HIER
1070
     0
1002
}
1002
{
1000
MANEDIT
1070
     0
1002
}
1002
{
1000
NOSEL
1070
     0
1002
}
1002
{
1000
BEHIND
1070
     0
1002
}
1002
{
1000
OTHER
1070
     0
1002
}
1002
{
1000
REACTOR
1002
}
  0
LINE
  5
8580
330
6A34
100
AcDbEntity
  8
CUT
100
AcDbLine
 10
110.0699999999999
 20
8.359999999999992
 30
0.0
 11
110.0699999999999
 21
9.959999999999951
 31
0.0
  0
ARC
  5
8581
330
6A34
100
AcDbEntity
  8
1
100
AcDbCircle
 10
110.4699999999999
 20
8.359999999999963
 30
0.0
 40
0.4
100
AcDbArc
 50
180.0
 51
270.0
1001
GENIUS_GENOBJ-N-FIL_13
1002
{
1000
OWNER
1000
GEN
1002
}
1001
GENIUS_GENODEF_13
1002
{
1000
HIER
1070
     0
1002
}
1002
{
1000
MANEDIT
1070
     0
1002
}
1002
{
1000
NOSEL
1070
     0
1002
}
1002
{
1000
BEHIND
1070
     0
1002
}
1002
{
1000
OTHER
1070
     0
1002
}
1002
{
1000
REACTOR
1002
}
  0
LINE
  5
8582
330
6A34
100
AcDbEntity
  8
1
100
AcDbLine
 10
110.0699999999999
 20
9.959999999999979
 30
0.0
 11
110.8188901829327
 21
10.95999999999995
 31
0.0
  0
LINE
  5
8583
330
6A34
100
AcDbEntity
  8
1
100
AcDbLine
 10
110.0699999999999
 20
8.359999999999992
 30
0.0
 11
110.0699999999999
 21
9.959999999999951
 31
0.0
  0
LINE
  5
8584
330
6A34
100
AcDbEntity
  8
CUT
100
AcDbLine
 10
110.8188901829327
 20
10.96000000000003
 30
0.0
 11
111.6235400745733
 21
15.66739575182606
 31
0.0
  0
LINE
  5
8585
330
6A34
100
AcDbEntity
  8
1
100
AcDbLine
 10
110.8188901829327
 20
10.96000000000003
 30
0.0
 11
111.6235400745733
 21
15.66739575182606
 31
0.0
  0
ARC
  5
8586
330
6A34
100
AcDbEntity
  8
CUT
100
AcDbCircle
 10
112.0178214622088
 20
15.60000000000002
 30
0.0
 40
0.4
100
AcDbArc
 50
90.0
 51
170.3
1001
GENIUS_GENODEF_13
1002
{
1000
HIER
1070
     0
1002
}
1002
{
1000
MANEDIT
1070
     0
1002
}
1002
{
1000
NOSEL
1070
     0
1002
}
1002
{
1000
BEHIND
1070
     0
1002
}
1002
{
1000
OTHER
1070
     0
1002
}
1002
{
1000
REACTOR
1002
}
1001
GENIUS_GENOBJ-N-FIL_13
1002
{
1000
OWNER
1000
GEN
1002
}
  0
ARC
  5
8587
330
6A34
100
AcDbEntity
  8
1
100
AcDbCircle
 10
112.0178214622088
 20
15.60000000000002
 30
0.0
 40
0.4
100
AcDbArc
 50
90.0
 51
170.3
1001
GENIUS_GENODEF_13
1002
{
1000
HIER
1070
     0
1002
}
1002
{
1000
MANEDIT
1070
     0
1002
}
1002
{
1000
NOSEL
1070
     0
1002
}
1002
{
1000
BEHIND
1070
     0
1002
}
1002
{
1000
OTHER
1070
     0
1002
}
1002
{
1000
REACTOR
1002
}
1001
GENIUS_GENOBJ-N-FIL_13
1002
{
1000
OWNER
1000
GEN
1002
}
  0
LINE
  5
8588
330
6A34
100
AcDbEntity
  8
CUT
100
AcDbLine
 10
112.0599999999999
 20
15.99999999999994
 30
0.0
 11
124.6499999999999
 21
16.0
 31
0.0
  0
LINE
  5
8589
330
6A34
100
AcDbEntity
  8
1
100
AcDbLine
 10
112.0599999999999
 20
15.99999999999994
 30
0.0
 11
124.6499999999999
 21
16.0
 31
0.0
  0
LINE
  5
858A
330
6A34
100
AcDbEntity
  8
CUT
100
AcDbLine
 10
125.0499999999999
 20
14.0
 30
0.0
 11
124.3011098170671
 21
13.00000000000002
 31
0.0
  0
LINE
  5
858B
330
6A34
100
AcDbEntity
  8
1
100
AcDbLine
 10
125.0499999999999
 20
14.0
 30
0.0
 11
124.3011098170671
 21
13.00000000000002
 31
0.0
  0
LINE
  5
858C
330
6A34
100
AcDbEntity
  8
CUT
100
AcDbLine
 10
125.0499999999999
 20
15.59999999999999
 30
0.0
 11
125.0499999999999
 21
14.00000000000003
 31
0.0
  0
LINE
  5
858D
330
6A34
100
AcDbEntity
  8
1
100
AcDbLine
 10
125.0499999999999
 20
15.59999999999999
 30
0.0
 11
125.0499999999999
 21
14.00000000000003
 31
0.0
  0
ARC
  5
858E
330
6A34
100
AcDbEntity
  8
CUT
100
AcDbCircle
 10
124.6499999999999
 20
15.59999999999999
 30
0.0
 40
0.4
100
AcDbArc
 50
0.0
 51
90.0
1001
GENIUS_GENOBJ-N-FIL_13
1002
{
1000
OWNER
1000
GEN
1002
}
1001
GENIUS_GENODEF_13
1002
{
1000
HIER
1070
     0
1002
}
1002
{
1000
MANEDIT
1070
     0
1002
}
1002
{
1000
NOSEL
1070
     0
1002
}
1002
{
1000
BEHIND
1070
     0
1002
}
1002
{
1000
OTHER
1070
     0
1002
}
1002
{
1000
REACTOR
1002
}
  0
ARC
  5
858F
330
6A34
100
AcDbEntity
  8
1
100
AcDbCircle
 10
124.6499999999999
 20
15.59999999999999
 30
0.0
 40
0.4
100
AcDbArc
 50
0.0
 51
90.0
1001
GENIUS_GENOBJ-N-FIL_13
1002
{
1000
OWNER
1000
GEN
1002
}
1001
GENIUS_GENODEF_13
1002
{
1000
HIER
1070
     0
1002
}
1002
{
1000
MANEDIT
1070
     0
1002
}
1002
{
1000
NOSEL
1070
     0
1002
}
1002
{
1000
BEHIND
1070
     0
1002
}
1002
{
1000
OTHER
1070
     0
1002
}
1002
{
1000
REACTOR
1002
}
  0
LINE
  5
859F
330
6A34
100
AcDbEntity
  8
SK3
100
AcDbLine
 10
123.0099999999999
 20
-7.960000000000029
 30
0.0
 11
110.4199999999999
 21
-7.96
 31
0.0
  0
CIRCLE
  5
85A0
330
6A34
100
AcDbEntity
  8
SK3
100
AcDbCircle
 10
117.5099999999999
 20
-11.98000000000001
 30
0.0
 40
2.749999999999976
  0
LINE
  5
85A1
330
6A34
100
AcDbEntity
  8
SK3
100
AcDbLine
 10
110.7688901829327
 20
-10.96000000000005
 30
0.0
 11
111.5058058715983
 21
-15.27113434341688
 31
0.0
  0
ARC
  5
85A2
330
6A34
100
AcDbEntity
  8
SK3
 48
0.3
100
AcDbCircle
 10
113.1534828069759
 20
-13.2711343434168
 30
0.0
 40
8.0
100
AcDbArc
 50
89.99999999999836
 51
194.4775121859306
1001
GENIUS_GENOBJ-N-FIL_13
1002
{
1000
OWNER
1000
GEN
1002
}
1001
GENIUS_GENODEF_13
1002
{
1000
HIER
1070
     0
1002
}
1002
{
1000
MANEDIT
1070
     0
1002
}
1002
{
1000
NOSEL
1070
     0
1002
}
1002
{
1000
BEHIND
1070
     0
1002
}
1002
{
1000
OTHER
1070
     0
1002
}
1002
{
1000
REACTOR
1002
}
  0
LINE
  5
85A3
330
6A34
100
AcDbEntity
  8
SK3
100
AcDbLine
 10
110.0199999999999
 20
-9.96
 30
0.0
 11
110.7688901829327
 21
-10.95999999999997
 31
0.0
  0
LINE
  5
85A4
330
6A34
100
AcDbEntity
  8
SK3
100
AcDbLine
 10
110.0199999999999
 20
-8.360000000000006
 30
0.0
 11
110.0199999999999
 21
-9.959999999999972
 31
0.0
  0
ARC
  5
85A5
330
6A34
100
AcDbEntity
  8
SK3
100
AcDbCircle
 10
110.4199999999999
 20
-8.359999999999978
 30
0.0
 40
0.4
100
AcDbArc
 50
90.0
 51
180.0
1001
GENIUS_GENOBJ-N-FIL_13
1002
{
1000
OWNER
1000
GEN
1002
}
1001
GENIUS_GENODEF_13
1002
{
1000
HIER
1070
     0
1002
}
1002
{
1000
MANEDIT
1070
     0
1002
}
1002
{
1000
NOSEL
1070
     0
1002
}
1002
{
1000
BEHIND
1070
     0
1002
}
1002
{
1000
OTHER
1070
     0
1002
}
1002
{
1000
REACTOR
1002
}
  0
ARC
  5
85A6
330
6A34
100
AcDbEntity
  8
SK3
100
AcDbCircle
 10
123.052178537791
 20
-8.359999999999949
 30
0.0
 40
0.4
100
AcDbArc
 50
9.699999999999931
 51
90.0
1001
GENIUS_GENODEF_13
1002
{
1000
HIER
1070
     0
1002
}
1002
{
1000
MANEDIT
1070
     0
1002
}
1002
{
1000
NOSEL
1070
     0
1002
}
1002
{
1000
BEHIND
1070
     0
1002
}
1002
{
1000
OTHER
1070
     0
1002
}
1002
{
1000
REACTOR
1002
}
1001
GENIUS_GENOBJ-N-FIL_13
1002
{
1000
OWNER
1000
GEN
1002
}
  0
LINE
  5
85A7
330
6A34
100
AcDbEntity
  8
1
100
AcDbLine
 10
111.5058058715983
 20
-15.27113434341688
 30
0.0
 11
111.5735400745733
 21
-15.66739575182608
 31
0.0
  0
ARC
  5
85A8
330
6A34
100
AcDbEntity
  8
1
100
AcDbCircle
 10
111.9678214622088
 20
-15.60000000000004
 30
0.0
 40
0.4
100
AcDbArc
 50
189.6999999999999
 51
270.0
1001
GENIUS_GENODEF_13
1002
{
1000
HIER
1070
     0
1002
}
1002
{
1000
MANEDIT
1070
     0
1002
}
1002
{
1000
NOSEL
1070
     0
1002
}
1002
{
1000
BEHIND
1070
     0
1002
}
1002
{
1000
OTHER
1070
     0
1002
}
1002
{
1000
REACTOR
1002
}
1001
GENIUS_GENOBJ-N-FIL_13
1002
{
1000
OWNER
1000
GEN
1002
}
  0
LINE
  5
85A9
330
6A34
100
AcDbEntity
  8
1
100
AcDbLine
 10
112.0099999999999
 20
-15.99999999999996
 30
0.0
 11
124.5999999999999
 21
-16.00000000000002
 31
0.0
  0
ARC
  5
85AA
330
6A34
100
AcDbEntity
  8
1
100
AcDbCircle
 10
124.5999999999999
 20
-15.60000000000001
 30
0.0
 40
0.4
100
AcDbArc
 50
270.0
 51
0.0
1001
GENIUS_GENOBJ-N-FIL_13
1002
{
1000
OWNER
1000
GEN
1002
}
1001
GENIUS_GENODEF_13
1002
{
1000
HIER
1070
     0
1002
}
1002
{
1000
MANEDIT
1070
     0
1002
}
1002
{
1000
NOSEL
1070
     0
1002
}
1002
{
1000
BEHIND
1070
     0
1002
}
1002
{
1000
OTHER
1070
     0
1002
}
1002
{
1000
REACTOR
1002
}
  0
LINE
  5
85AB
330
6A34
100
AcDbEntity
  8
1
100
AcDbLine
 10
124.9999999999999
 20
-14.00000000000002
 30
0.0
 11
124.2511098170671
 21
-13.00000000000005
 31
0.0
  0
LINE
  5
85AC
330
6A34
100
AcDbEntity
  8
1
100
AcDbLine
 10
124.9999999999999
 20
-15.60000000000001
 30
0.0
 11
124.9999999999999
 21
-14.00000000000004
 31
0.0
  0
LINE
  5
85AD
330
6A34
100
AcDbEntity
  8
1
100
AcDbLine
 10
124.2511098170671
 20
-12.99999999999996
 30
0.0
 11
123.9967948000837
 21
-11.51219587175668
 31
0.0
  0
LINE
  5
85AE
330
6A34
100
AcDbEntity
  8
SK3
 48
0.3
100
AcDbLine
 10
113.153482806976
 20
-5.271134343416804
 30
0.0
 11
123.9967948000836
 21
-5.271134343417088
 31
0.0
  0
LINE
  5
85AF
330
6A34
100
AcDbEntity
  8
SK3
100
AcDbLine
 10
123.9967948000837
 20
-11.51219587175668
 30
0.0
 11
123.4464599254265
 21
-8.292604248173937
 31
0.0
  0
ARC
  5
85B0
330
6A34
100
AcDbEntity
  8
SK3
100
AcDbCircle
 10
123.052178537791
 20
-8.359999999999949
 30
0.0
 40
0.4
100
AcDbArc
 50
9.699999999999931
 51
90.0
1001
GENIUS_GENODEF_13
1002
{
1000
HIER
1070
     0
1002
}
1002
{
1000
MANEDIT
1070
     0
1002
}
1002
{
1000
NOSEL
1070
     0
1002
}
1002
{
1000
BEHIND
1070
     0
1002
}
1002
{
1000
OTHER
1070
     0
1002
}
1002
{
1000
REACTOR
1002
}
1001
GENIUS_GENOBJ-N-FIL_13
1002
{
1000
OWNER
1000
GEN
1002
}
  0
ENDSEC
  0
SECTION
  2
OBJECTS
  0
DICTIONARY
  5
6A22
330
0
100
AcDbDictionary
  3
ACAD_GROUP
350
6A23
  3
ACAD_LAYOUT
350
6A2F
  3
ACAD_MLINESTYLE
350
6A2C
  3
ACAD_PLOTSETTINGS
350
6A2E
  3
ACAD_PLOTSTYLENAME
350
6A24
  3
ACDBHEADERROUNDTRIPXREC
350
8686
  3
ACDBVARIABLEDICTIONARY
350
6B78
  3
ACMDICTIONARY
350
6B39
  3
AMG
350
6B22
  3
AMGSNAPSETTINGS
350
6B59
  3
DWGPROPS
350
8682
  0
DICTIONARY
  5
6B62
330
6A34
100
AcDbDictionary
280
     1
  3
ACAD_INDEX
360
6B63
  3
ACAD_LAYOUTSELFREF
360
86A9
  0
DICTIONARY
  5
86A7
330
6A30
100
AcDbDictionary
280
     1
  3
ACAD_LAYOUTSELFREF
360
86A8
  0
DICTIONARY
  5
6A23
102
{ACAD_REACTORS
330
6A22
102
}
330
6A22
100
AcDbDictionary
  0
DICTIONARY
  5
6A2F
102
{ACAD_REACTORS
330
6A22
102
}
330
6A22
100
AcDbDictionary
  0
DICTIONARY
  5
6A2C
102
{ACAD_REACTORS
330
6A22
102
}
330
6A22
100
AcDbDictionary
  3
STANDARD
350
6A2D
  0
DICTIONARY
  5
6A2E
102
{ACAD_REACTORS
330
6A22
102
}
330
6A22
100
AcDbDictionary
  0
ACDBDICTIONARYWDFLT
  5
6A24
102
{ACAD_REACTORS
330
6A22
102
}
330
6A22
100
AcDbDictionary
281
     1
  3
Normal
350
6A25
100
AcDbDictionaryWithDefault
340
6A25
  0
DICTIONARY
  5
8686
102
{ACAD_REACTORS
330
6A22
102
}
330
6A22
100
AcDbDictionary
  3
CEPSNTYPE
350
8690
  3
DIMSTYLEDATA
350
8694
  3
FINGERPRINTGUID
350
8691
  3
HYPERLINKBASE
350
8689
  3
INSUNITS
350
868F
  3
LAYOUTDICT
350
868B
  3
LWETCUNION
350
868E
  3
PLOTSETDICT
350
868C
  3
PLOTSTYLNAMDICT
350
868D
  3
PSVPSCALE
350
8693
  3
PUCSBASE
350
8697
  3
PUCSORGBACK
350
869D
  3
PUCSORGBOTTOM
350
8699
  3
PUCSORGFRONT
350
869C
  3
PUCSORGLEFT
350
869A
  3
PUCSORGRIGHT
350
869B
  3
PUCSORGTOP
350
8698
  3
PUCSORTHOREF
350
8695
  3
PUCSORTHOVIEW
350
8696
  3
STYLESHEET
350
868A
  3
TSTACKALIGN
350
8687
  3
TSTACKSIZE
350
8688
  3
UCSBASE
350
86A0
  3
UCSORGBACK
350
86A6
  3
UCSORGBOTTOM
350
86A2
  3
UCSORGFRONT
350
86A5
  3
UCSORGLEFT
350
86A3
  3
UCSORGRIGHT
350
86A4
  3
UCSORGTOP
350
86A1
  3
UCSORTHOREF
350
869E
  3
UCSORTHOVIEW
350
869F
  3
VERSIONGUID
350
8692
  0
DICTIONARY
  5
6B78
102
{ACAD_REACTORS
330
6A22
102
}
330
6A22
100
AcDbDictionary
  3
DIMASSOC
350
6B7A
  3
INDEXCTL
350
6B79
  0
DICTIONARY
  5
6B39
102
{ACAD_REACTORS
330
6A22
102
}
330
6A22
100
AcDbDictionary
  3
ACMSTDDICTIONARY
350
6B3F
  0
DICTIONARY
  5
6B22
102
{ACAD_REACTORS
330
6A22
102
}
330
6A22
100
AcDbDictionary
  3
ACMGSETTINGS
350
6B23
  0
DICTIONARY
  5
6B59
102
{ACAD_REACTORS
330
6A22
102
}
330
6A22
100
AcDbDictionary
  0
XRECORD
  5
8682
102
{ACAD_REACTORS
330
6A22
102
}
330
6A22
100
AcDbXrecord
  1
DWGPROPS COOKIE
  2

  3

  4

  6

  7

  8

  9

300
AmdtFileType=84
301
=
302
=
303
=
304
=
305
=
306
=
307
=
308
=
309
=
 40
0.1453928356481481
 41
2453447.471737477
 42
2453587.614682823
  1

 90
        1
  0
DICTIONARY
  5
6B63
102
{ACAD_REACTORS
330
6B62
102
}
330
6B62
100
AcDbDictionary
  3
*A1
350
6B64
  0
XRECORD
  5
86A9
102
{ACAD_REACTORS
330
6B62
102
}
330
6B62
100
AcDbXrecord
340
6A34
  0
XRECORD
  5
86A8
102
{ACAD_REACTORS
330
86A7
102
}
330
86A7
100
AcDbXrecord
340
6A30
  0
MLINESTYLE
  5
6A2D
102
{ACAD_REACTORS
330
6A2C
102
}
330
6A2C
100
AcDbMlineStyle
  2
STANDARD
 70
     0
  3

 62
   256
 51
90.0
 52
90.0
 71
     2
 49
0.5
 62
   256
  6
BYLAYER
 49
-0.5
 62
   256
  6
BYLAYER
  0
ACDBPLACEHOLDER
  5
6A25
102
{ACAD_REACTORS
330
6A24
102
}
330
6A24
100
AcDbPlaceHolder
280
     0
  0
XRECORD
  5
8690
102
{ACAD_REACTORS
330
8686
102
}
330
8686
100
AcDbXrecord
 90
        0
  0
XRECORD
  5
8694
102
{ACAD_REACTORS
330
8686
102
}
330
8686
100
AcDbXrecord
1000
DSTYLE
1002
{
1070
   279
 70
     2
1002
}
  0
XRECORD
  5
8691
102
{ACAD_REACTORS
330
8686
102
}
330
8686
100
AcDbXrecord
  1
{5E8163B8-4D8F-4110-B677-A6458ADDE735}
  0
XRECORD
  5
8689
102
{ACAD_REACTORS
330
8686
102
}
330
8686
100
AcDbXrecord
  1

  0
XRECORD
  5
868F
102
{ACAD_REACTORS
330
8686
102
}
330
8686
100
AcDbXrecord
 90
        4
  0
XRECORD
  5
868B
102
{ACAD_REACTORS
330
8686
102
}
330
8686
100
AcDbXrecord
340
6A2F
  0
XRECORD
  5
868E
102
{ACAD_REACTORS
330
8686
102
}
330
8686
100
AcDbXrecord
 90
    10781
  0
XRECORD
  5
868C
102
{ACAD_REACTORS
330
8686
102
}
330
8686
100
AcDbXrecord
340
6A2E
  0
XRECORD
  5
868D
102
{ACAD_REACTORS
330
8686
102
}
330
8686
100
AcDbXrecord
340
6A24
  0
XRECORD
  5
8693
102
{ACAD_REACTORS
330
8686
102
}
330
8686
100
AcDbXrecord
 40
0.0
  0
XRECORD
  5
8697
102
{ACAD_REACTORS
330
8686
102
}
330
8686
100
AcDbXrecord
340
0
  0
XRECORD
  5
869D
102
{ACAD_REACTORS
330
8686
102
}
330
8686
100
AcDbXrecord
 10
0.0
 20
0.0
 30
0.0
  0
XRECORD
  5
8699
102
{ACAD_REACTORS
330
8686
102
}
330
8686
100
AcDbXrecord
 10
0.0
 20
0.0
 30
0.0
  0
XRECORD
  5
869C
102
{ACAD_REACTORS
330
8686
102
}
330
8686
100
AcDbXrecord
 10
0.0
 20
0.0
 30
0.0
  0
XRECORD
  5
869A
102
{ACAD_REACTORS
330
8686
102
}
330
8686
100
AcDbXrecord
 10
0.0
 20
0.0
 30
0.0
  0
XRECORD
  5
869B
102
{ACAD_REACTORS
330
8686
102
}
330
8686
100
AcDbXrecord
 10
0.0
 20
0.0
 30
0.0
  0
XRECORD
  5
8698
102
{ACAD_REACTORS
330
8686
102
}
330
8686
100
AcDbXrecord
 10
0.0
 20
0.0
 30
0.0
  0
XRECORD
  5
8695
102
{ACAD_REACTORS
330
8686
102
}
330
8686
100
AcDbXrecord
340
0
  0
XRECORD
  5
8696
102
{ACAD_REACTORS
330
8686
102
}
330
8686
100
AcDbXrecord
 70
     0
  0
XRECORD
  5
868A
102
{ACAD_REACTORS
330
8686
102
}
330
8686
100
AcDbXrecord
  1

  0
XRECORD
  5
8687
102
{ACAD_REACTORS
330
8686
102
}
330
8686
100
AcDbXrecord
 90
        1
  0
XRECORD
  5
8688
102
{ACAD_REACTORS
330
8686
102
}
330
8686
100
AcDbXrecord
 90
       70
  0
XRECORD
  5
86A0
102
{ACAD_REACTORS
330
8686
102
}
330
8686
100
AcDbXrecord
340
0
  0
XRECORD
  5
86A6
102
{ACAD_REACTORS
330
8686
102
}
330
8686
100
AcDbXrecord
 10
0.0
 20
0.0
 30
0.0
  0
XRECORD
  5
86A2
102
{ACAD_REACTORS
330
8686
102
}
330
8686
100
AcDbXrecord
 10
0.0
 20
0.0
 30
0.0
  0
XRECORD
  5
86A5
102
{ACAD_REACTORS
330
8686
102
}
330
8686
100
AcDbXrecord
 10
0.0
 20
0.0
 30
0.0
  0
XRECORD
  5
86A3
102
{ACAD_REACTORS
330
8686
102
}
330
8686
100
AcDbXrecord
 10
0.0
 20
0.0
 30
0.0
  0
XRECORD
  5
86A4
102
{ACAD_REACTORS
330
8686
102
}
330
8686
100
AcDbXrecord
 10
0.0
 20
0.0
 30
0.0
  0
XRECORD
  5
86A1
102
{ACAD_REACTORS
330
8686
102
}
330
8686
100
AcDbXrecord
 10
0.0
 20
0.0
 30
0.0
  0
XRECORD
  5
869E
102
{ACAD_REACTORS
330
8686
102
}
330
8686
100
AcDbXrecord
340
0
  0
XRECORD
  5
869F
102
{ACAD_REACTORS
330
8686
102
}
330
8686
100
AcDbXrecord
 70
     0
  0
XRECORD
  5
8692
102
{ACAD_REACTORS
330
8686
102
}
330
8686
100
AcDbXrecord
  1
{0442AB9A-4BDB-4620-BFFF-F818D97754E6}
  0
DICTIONARYVAR
  5
6B7A
102
{ACAD_REACTORS
330
6B78
102
}
330
6B78
100
DictionaryVariables
280
     0
  1
1
  0
DICTIONARYVAR
  5
6B79
102
{ACAD_REACTORS
330
6B78
102
}
330
6B78
100
DictionaryVariables
280
     0
  1
1
  0
DICTIONARY
  5
6B3F
102
{ACAD_REACTORS
330
6B39
102
}
330
6B39
100
AcDbDictionary
  0
DICTIONARY
  5
6B23
102
{ACAD_REACTORS
330
6B22
102
}
330
6B22
100
AcDbDictionary
  3
DWGSETTINGS
350
6B24
  0
LAYER_INDEX
  5
6B64
102
{ACAD_REACTORS
330
6B63
102
}
330
6B63
100
AcDbIndex
 40
2453588.427225613
100
AcDbLayerIndex
  8
0
360
6B65
 90
        0
  8
DEFPOINTS
360
6B66
 90
        0
  8
1
360
6B67
 90
       28
  8
2
360
6B68
 90
        4
  8
4
360
6B69
 90
        2
  8
6
360
6B6A
 90
        3
  8
SK1
360
6B6B
 90
       27
  8
SK2
360
6B6C
 90
        2
  8
SK3
360
6B6D
 90
       11
  8
SK4
360
6B6E
 90
        1
  8
CUT
360
6B6F
 90
       13
  8
NOCUT
360
6B70
 90
        7
  0
XRECORD
  5
6B24
102
{ACAD_REACTORS
330
6B23
102
}
330
6B23
100
AcDbXrecord
  1
VERSION
140
15.0
  1
PRODUCT
  2
AutoCAD Mechanical 2000
  0
IDBUFFER
  5
6B65
330
0
100
AcDbIdBuffer
  0
IDBUFFER
  5
6B66
330
0
100
AcDbIdBuffer
  0
IDBUFFER
  5
6B67
330
0
100
AcDbIdBuffer
330
7BAD
330
7BAF
330
7BBE
330
800D
330
801A
330
82E8
330
8574
330
8575
330
8578
330
8579
330
857C
330
857D
330
8581
330
8582
330
8583
330
8585
330
8587
330
8589
330
858B
330
858D
330
858F
330
85A7
330
85A8
330
85A9
330
85AA
330
85AB
330
85AC
330
85AD
  0
IDBUFFER
  5
6B68
330
0
100
AcDbIdBuffer
330
7BAB
330
8119
330
8321
330
8371
  0
IDBUFFER
  5
6B69
330
0
100
AcDbIdBuffer
330
7BB0
330
7EE3
  0
IDBUFFER
  5
6B6A
330
0
100
AcDbIdBuffer
330
7BAC
330
7BFB
330
84B3
  0
IDBUFFER
  5
6B6B
330
0
100
AcDbIdBuffer
330
7BB3
330
7BB9
330
7BBA
330
7BBB
330
7BCB
330
7BCC
330
7BCD
330
7BF6
330
7BF7
330
7BF8
330
800E
330
800F
330
8010
330
8011
330
8012
330
8013
330
8014
330
8015
330
8016
330
8017
330
8018
330
8019
330
801B
330
801C
330
801D
330
8309
330
830A
  0
IDBUFFER
  5
6B6C
330
0
100
AcDbIdBuffer
330
81C5
330
8207
  0
IDBUFFER
  5
6B6D
330
0
100
AcDbIdBuffer
330
85AE
330
85AF
330
85B0
330
859F
330
85A0
330
85A1
330
85A2
330
85A3
330
85A4
330
85A5
330
85A6
  0
IDBUFFER
  5
6B6E
330
0
100
AcDbIdBuffer
330
7B98
  0
IDBUFFER
  5
6B6F
330
0
100
AcDbIdBuffer
330
8576
330
8577
330
857A
330
857B
330
857E
330
857F
330
8580
330
8584
330
8586
330
8588
330
858A
330
858C
330
858E
  0
IDBUFFER
  5
6B70
330
0
100
AcDbIdBuffer
330
7BAE
330
7BB1
330
7BB4
330
7BB7
330
7BBD
330
83AF
330
83B0
  0
ENDSEC
  0
EOF
