  0
SECTION
  2
HEADER
  9
$ACADVER
  1
AC1014
  9
$ACADMAINTVER
 70
     9
  9
$DWGCODEPAGE
  3
ANSI_1252
  9
$INSBASE
 10
0.0
 20
0.0
 30
0.0
  9
$EXTMIN
 10
-64.57367655854273
 20
-28.56723605342381
 30
-0.0000000000112498
  9
$EXTMAX
 10
82.09214921706076
 20
79.83428822683254
 30
0.0000000000002956
  9
$LIMMIN
 10
0.0
 20
0.0
  9
$LIMMAX
 10
210.0
 20
297.0
  9
$ORTHOMODE
 70
     0
  9
$REGENMODE
 70
     1
  9
$FILLMODE
 70
     1
  9
$QTEXTMODE
 70
     0
  9
$MIRRTEXT
 70
     1
  9
$DRAGMODE
 70
     2
  9
$LTSCALE
 40
1.0
  9
$OSMODE
 70
  2599
  9
$ATTMODE
 70
     1
  9
$TEXTSIZE
 40
2.5
  9
$TRACEWID
 40
1.0
  9
$TEXTSTYLE
  7
STANDARD
  9
$CLAYER
  8
2
  9
$CELTYPE
  6
BYLAYER
  9
$CECOLOR
 62
   256
  9
$CELTSCALE
 40
1.0
  9
$DELOBJ
 70
     1
  9
$DISPSILH
 70
     0
  9
$DIMSCALE
 40
1.0
  9
$DIMASZ
 40
2.5
  9
$DIMEXO
 40
0.0
  9
$DIMDLI
 40
10.0
  9
$DIMRND
 40
0.0
  9
$DIMDLE
 40
0.0
  9
$DIMEXE
 40
1.0
  9
$DIMTP
 40
0.1
  9
$DIMTM
 40
0.1
  9
$DIMTXT
 40
3.5
  9
$DIMCEN
 40
0.0
  9
$DIMTSZ
 40
0.0
  9
$DIMTOL
 70
     0
  9
$DIMLIM
 70
     0
  9
$DIMTIH
 70
     0
  9
$DIMTOH
 70
     0
  9
$DIMSE1
 70
     0
  9
$DIMSE2
 70
     0
  9
$DIMTAD
 70
     1
  9
$DIMZIN
 70
     8
  9
$DIMBLK
  1

  9
$DIMASO
 70
     1
  9
$DIMSHO
 70
     1
  9
$DIMPOST
  1

  9
$DIMAPOST
  1
"
  9
$DIMALT
 70
     0
  9
$DIMALTD
 70
     2
  9
$DIMALTF
 40
0.0393701
  9
$DIMLFAC
 40
1.0
  9
$DIMTOFL
 70
     1
  9
$DIMTVP
 40
0.0
  9
$DIMTIX
 70
     0
  9
$DIMSOXD
 70
     0
  9
$DIMSAH
 70
     0
  9
$DIMBLK1
  1

  9
$DIMBLK2
  1

  9
$DIMSTYLE
  2
AM_DIN
  9
$DIMCLRD
 70
   256
  9
$DIMCLRE
 70
   256
  9
$DIMCLRT
 70
     2
  9
$DIMTFAC
 40
0.71
  9
$DIMGAP
 40
1.5
  9
$DIMJUST
 70
     0
  9
$DIMSD1
 70
     0
  9
$DIMSD2
 70
     0
  9
$DIMTOLJ
 70
     1
  9
$DIMTZIN
 70
     8
  9
$DIMALTZ
 70
     8
  9
$DIMALTTZ
 70
     8
  9
$DIMFIT
 70
     5
  9
$DIMUPT
 70
     0
  9
$DIMUNIT
 70
     2
  9
$DIMDEC
 70
     2
  9
$DIMTDEC
 70
     2
  9
$DIMALTU
 70
     2
  9
$DIMALTTD
 70
     2
  9
$DIMTXSTY
  7
STANDARD
  9
$DIMAUNIT
 70
     0
  9
$LUNITS
 70
     2
  9
$LUPREC
 70
     2
  9
$SKETCHINC
 40
1.0
  9
$FILLETRAD
 40
2.5
  9
$AUNITS
 70
     0
  9
$AUPREC
 70
     0
  9
$MENU
  1
.
  9
$ELEVATION
 40
0.0
  9
$PELEVATION
 40
0.0
  9
$THICKNESS
 40
0.0
  9
$LIMCHECK
 70
     0
  9
$BLIPMODE
 70
     0
  9
$CHAMFERA
 40
2.5
  9
$CHAMFERB
 40
2.5
  9
$CHAMFERC
 40
0.0
  9
$CHAMFERD
 40
0.0
  9
$SKPOLY
 70
     0
  9
$TDCREATE
 40
2453447.471737477
  9
$TDUPDATE
 40
2453609.658864097
  9
$TDINDWG
 40
0.1461964005
  9
$TDUSRTIMER
 40
0.1461720602
  9
$USRTIMER
 70
     1
  9
$ANGBASE
 50
0.0
  9
$ANGDIR
 70
     0
  9
$PDMODE
 70
     0
  9
$PDSIZE
 40
0.0
  9
$PLINEWID
 40
0.0
  9
$COORDS
 70
     0
  9
$SPLFRAME
 70
     0
  9
$SPLINETYPE
 70
     6
  9
$SPLINESEGS
 70
     8
  9
$ATTDIA
 70
     1
  9
$ATTREQ
 70
     1
  9
$HANDLING
 70
 22529
  9
$HANDSEED
  5
85EB
  9
$SURFTAB1
 70
     6
  9
$SURFTAB2
 70
     6
  9
$SURFTYPE
 70
     6
  9
$SURFU
 70
     6
  9
$SURFV
 70
     6
  9
$UCSNAME
  2

  9
$UCSORG
 10
0.0
 20
0.0
 30
0.0
  9
$UCSXDIR
 10
1.0
 20
0.0
 30
0.0
  9
$UCSYDIR
 10
0.0
 20
1.0
 30
0.0
  9
$PUCSNAME
  2

  9
$PUCSORG
 10
0.0
 20
0.0
 30
0.0
  9
$PUCSXDIR
 10
1.0
 20
0.0
 30
0.0
  9
$PUCSYDIR
 10
0.0
 20
1.0
 30
0.0
  9
$USERI1
 70
     0
  9
$USERI2
 70
     0
  9
$USERI3
 70
     0
  9
$USERI4
 70
     0
  9
$USERI5
 70
     0
  9
$USERR1
 40
0.0
  9
$USERR2
 40
0.0
  9
$USERR3
 40
0.0
  9
$USERR4
 40
0.0
  9
$USERR5
 40
0.0
  9
$WORLDVIEW
 70
     1
  9
$SHADEDGE
 70
     3
  9
$SHADEDIF
 70
    70
  9
$TILEMODE
 70
     1
  9
$MAXACTVP
 70
    64
  9
$PINSBASE
 10
0.0
 20
0.0
 30
0.0
  9
$PLIMCHECK
 70
     0
  9
$PEXTMIN
 10
1.000000000000000E+20
 20
1.000000000000000E+20
 30
1.000000000000000E+20
  9
$PEXTMAX
 10
-1.000000000000000E+20
 20
-1.000000000000000E+20
 30
-1.000000000000000E+20
  9
$PLIMMIN
 10
0.0
 20
0.0
  9
$PLIMMAX
 10
420.0
 20
297.0
  9
$UNITMODE
 70
     0
  9
$VISRETAIN
 70
     1
  9
$PLINEGEN
 70
     0
  9
$PSLTSCALE
 70
     1
  9
$TREEDEPTH
 70
  3020
  9
$PICKSTYLE
 70
     0
  9
$CMLSTYLE
  2
STANDARD
  9
$CMLJUST
 70
     0
  9
$CMLSCALE
 40
1.0
  9
$PROXYGRAPHICS
 70
     1
  9
$MEASUREMENT
 70
     1
  0
ENDSEC
  0
SECTION
  2
CLASSES
  0
CLASS
  1
ACDBDICTIONARYWDFLT
  2
AcDbDictionaryWithDefault
  3
AutoCAD 2000
 90
        0
280
     0
281
     0
  0
CLASS
  1
ACDBPLACEHOLDER
  2
AcDbPlaceHolder
  3
AutoCAD 2000
 90
        0
280
     0
281
     0
  0
CLASS
  1
LAYOUT
  2
AcDbLayout
  3
AutoCAD 2000
 90
        0
280
     0
281
     0
  0
CLASS
  1
AMGSETTINGSOBJ
  2
AmgSettingsObj
  3
"AcadM|Product Description: AutoCAD Mechanical 2000|Company: Autodesk"
 90
        0
280
     0
281
     0
  0
CLASS
  1
ACME_DOCUMENT
  2
AcMeDbDoc
  3
AcMeServices
 90
        0
280
     0
281
     0
  0
CLASS
  1
ACMESCOPE
  2
AcMeScope
  3
AcMeServices
 90
        0
280
     0
281
     0
  0
CLASS
  1
ACMECOMMANDHISTORY
  2
AcMeCommandHistory
  3
AcMeServices
 90
        0
280
     0
281
     0
  0
CLASS
  1
ACIMSYSVARMAN
  2
AcImSysVarManager
  3
AcMeServices
 90
        0
280
     0
281
     0
  0
CLASS
  1
ACIMREALSYSVAR
  2
AcImRealSysVar
  3
AcMeServices
 90
        0
280
     0
281
     0
  0
CLASS
  1
ACIMINTSYSVAR
  2
AcImIntSysVar
  3
AcMeServices
 90
        0
280
     0
281
     0
  0
CLASS
  1
ACMEDRAWINGMAN
  2
AcMeDrawingMan
  3
AcMeServices
 90
        0
280
     0
281
     0
  0
CLASS
  1
ACMEVIEW
  2
AcMeView
  3
AcMeServices
 90
        0
280
     0
281
     0
  0
CLASS
  1
ACDBENTITYCACHE
  2
AcMeEntityCache
  3
AcMeServices
 90
        0
280
     0
281
     0
  0
CLASS
  1
GSMANAGER
  2
AcMeGSManager
  3
AcMeServices
 90
        0
280
     0
281
     0
  0
CLASS
  1
AMDTINTERNALREACTOR
  2
AmdtInternalReactor
  3
AcMeServices
 90
        0
280
     0
281
     0
  0
CLASS
  1
ACMESTATEMGR
  2
AcMeStateMgr
  3
AcMeServices
 90
        0
280
     0
281
     0
  0
CLASS
  1
ACGREFMASTER
  2
AcGrefMaster
  3
AcAttribServices
 90
        0
280
     0
281
     0
  0
CLASS
  1
ACME_DATABASE
  2
AcMeDbDatabase
  3
AcMeServices
 90
        0
280
     0
281
     0
  0
CLASS
  1
ACRFINSADJUSTERMGR
  2
AcRfInsAdjusterMgr
  3
AcMeServices
 90
        0
280
     0
281
     0
  0
CLASS
  1
ACGREFACADMASTER
  2
AcGrefacadMaster
  3
AcGrefServices
 90
        0
280
     0
281
     0
  0
CLASS
  1
AMIMASTER
  2
AmiMaster
  3
AmiServices
 90
        0
280
     0
281
     0
  0
CLASS
  1
ACMDATADICTIONARY
  2
AcmDataDictionary
  3
"AcmSymBB|Product Description: AutoCAD Mechanical 2000|Company: Autodesk"
 90
        0
280
     0
281
     0
  0
CLASS
  1
ACMDATAENTRYBLOCK
  2
AcmDataEntryBlock
  3
"AcmSymBB|Product Description: AutoCAD Mechanical 2000|Company: Autodesk"
 90
        0
280
     0
281
     0
  0
CLASS
  1
ACIMSTRSYSVAR
  2
AcImStrSysVar
  3
AcMeServices
 90
        0
280
     0
281
     0
  0
CLASS
  1
ACMSTANDARDANSI
  2
AcmStandardANSI
  3
"Amdt_StdImp|Product Description: AutoCAD Mechanical 2000|Company: Autodesk"
 90
        0
280
     0
281
     0
  0
CLASS
  1
AMGOBJPROPCFG
  2
AmgObjPropCfg
  3
"AmgLay|Product Description: AutoCAD Mechanical 2000|Company: Autodesk"
 90
        1
280
     0
281
     0
  0
CLASS
  1
ACMSURFSTANDARDANSI
  2
AcmSurfTextStdANSI
  3
"Amdt_StdImp|Product Description: AutoCAD Mechanical 2000|Company: Autodesk"
 90
        0
280
     0
281
     0
  0
CLASS
  1
ACMFCFSTANDARDANSI
  2
AcmFCFStdANSI
  3
"Amdt_StdImp|Product Description: AutoCAD Mechanical 2000|Company: Autodesk"
 90
        0
280
     0
281
     0
  0
CLASS
  1
ACMWELDSTANDARDANSI
  2
AcmWeldingStdANSI
  3
"Amdt_StdImp|Product Description: AutoCAD Mechanical 2000|Company: Autodesk"
 90
        0
280
     0
281
     0
  0
CLASS
  1
ACMIDSTANDARDANSI
  2
AcmIdStdANSI
  3
"Amdt_StdImp|Product Description: AutoCAD Mechanical 2000|Company: Autodesk"
 90
        0
280
     0
281
     0
  0
CLASS
  1
ACMDATUMSTANDARDANSI
  2
AcmDatumStdANSI
  3
"Amdt_StdImp|Product Description: AutoCAD Mechanical 2000|Company: Autodesk"
 90
        0
280
     0
281
     0
  0
CLASS
  1
ACMBOMSTANDARDANSI
  2
AcmBOMStdANSI
  3
"Amdt_StdImp|Product Description: AutoCAD Mechanical 2000|Company: Autodesk"
 90
        0
280
     0
281
     0
  0
CLASS
  1
ACMDETAILSTANDARDANSI
  2
AmdtDetailSymStdANSI
  3
"Amdt_StdImp|Product Description: AutoCAD Mechanical 2000|Company: Autodesk"
 90
        0
280
     0
281
     0
  0
CLASS
  1
ACMSECTIONSTANDARDANSI
  2
AmdtSectionSymStdANSI
  3
"Amdt_StdImp|Product Description: AutoCAD Mechanical 2000|Company: Autodesk"
 90
        0
280
     0
281
     0
  0
CLASS
  1
ACMCENTERLINESTANDARDANSI
  2
AmdtCenterLineStdANSI
  3
"Amdt_StdImp|Product Description: AutoCAD Mechanical 2000|Company: Autodesk"
 90
        0
280
     0
281
     0
  0
CLASS
  1
ACMNOTESTANDARDANSI
  2
AmdtNoteStdANSI
  3
"Amdt_StdImp|Product Description: AutoCAD Mechanical 2000|Company: Autodesk"
 90
        0
280
     0
281
     0
  0
CLASS
  1
ACAMGLAYSTD
  2
AcAmgLayStd
  3
"AcAmgLayStd|Product Description: AutoCAD Mechanical 2000|Company: Autodesk"
 90
        0
280
     0
281
     0
  0
CLASS
  1
ACAMGDIMSTD
  2
AcAmgDimStd
  3
"AcAmgDimStd|Product Description: AutoCAD Mechanical 2000|Company: Autodesk"
 90
        0
280
     0
281
     0
  0
CLASS
  1
ACAMGHOLECHARTSTDANSI
  2
AcAmgHoleChartStdANSI
  3
ACMSYMBB_MODULE_NAME
 90
        0
280
     0
281
     0
  0
CLASS
  1
ACAMGTITLESTD
  2
AcAmgTitleStd
  3
"TITLEAPP"
 90
        0
280
     0
281
     0
  0
CLASS
  1
ACAMGFILTERDAT
  2
AcAmgFilterDat
  3
"AcadM|Product Description: AutoCAD Mechanical 2000|Company: Autodesk"
 90
        0
280
     0
281
     0
  0
CLASS
  1
LAYER_INDEX
  2
AcDbLayerIndex
  3
AutoCAD 2000
 90
        0
280
     0
281
     0
  0
CLASS
  1
IDBUFFER
  2
AcDbIdBuffer
  3
AutoCAD 2000
 90
        0
280
     0
281
     0
  0
CLASS
  1
DICTIONARYVAR
  2
AcDbDictionaryVar
  3
AutoCAD 2000
 90
        0
280
     0
281
     0
  0
CLASS
  1
ACMSTANDARDDIN
  2
AcmStandardDIN
  3
"Amdt_StdImp|Product Description: AutoCAD Mechanical 2000|Company: Autodesk"
 90
        0
280
     0
281
     0
  0
CLASS
  1
AMDTEDGESTANDARDDIN
  2
AmdtEdgeStdDIN
  3
"Amdt_StdImp|Product Description: AutoCAD Mechanical 2000|Company: Autodesk"
 90
        0
280
     0
281
     0
  0
CLASS
  1
ACMSURFSTANDARDDIN
  2
AcmSurfTextStdDIN
  3
"Amdt_StdImp|Product Description: AutoCAD Mechanical 2000|Company: Autodesk"
 90
        0
280
     0
281
     0
  0
CLASS
  1
ACMFCFSTANDARDDIN
  2
AcmFCFStdDIN
  3
"Amdt_StdImp|Product Description: AutoCAD Mechanical 2000|Company: Autodesk"
 90
        0
280
     0
281
     0
  0
CLASS
  1
ACMWELDSTANDARDDIN
  2
AcmWeldingStdDIN
  3
"Amdt_StdImp|Product Description: AutoCAD Mechanical 2000|Company: Autodesk"
 90
        0
280
     0
281
     0
  0
CLASS
  1
ACMIDSTANDARDDIN
  2
AcmIdStdDIN
  3
"Amdt_StdImp|Product Description: AutoCAD Mechanical 2000|Company: Autodesk"
 90
        0
280
     0
281
     0
  0
CLASS
  1
ACMDATUMSTANDARDDIN
  2
AcmDatumStdDIN
  3
"Amdt_StdImp|Product Description: AutoCAD Mechanical 2000|Company: Autodesk"
 90
        0
280
     0
281
     0
  0
CLASS
  1
ACMBOMSTANDARDDIN
  2
AcmBOMStdDIN
  3
"Amdt_StdImp|Product Description: AutoCAD Mechanical 2000|Company: Autodesk"
 90
        0
280
     0
281
     0
  0
CLASS
  1
ACMDETAILSTANDARDDIN
  2
AmdtDetailSymStdDIN
  3
"Amdt_StdImp|Product Description: AutoCAD Mechanical 2000|Company: Autodesk"
 90
        0
280
     0
281
     0
  0
CLASS
  1
ACMSECTIONSTANDARDDIN
  2
AmdtSectionSymStdDIN
  3
"Amdt_StdImp|Product Description: AutoCAD Mechanical 2000|Company: Autodesk"
 90
        0
280
     0
281
     0
  0
CLASS
  1
ACMCENTERLINESTANDARDDIN
  2
AmdtCenterLineStdDIN
  3
"Amdt_StdImp|Product Description: AutoCAD Mechanical 2000|Company: Autodesk"
 90
        0
280
     0
281
     0
  0
CLASS
  1
ACMNOTESTANDARDDIN
  2
AmdtNoteStdDIN
  3
"Amdt_StdImp|Product Description: AutoCAD Mechanical 2000|Company: Autodesk"
 90
        0
280
     0
281
     0
  0
CLASS
  1
ACAMGHOLECHARTSTDDIN
  2
AcAmgHoleChartStdDIN
  3
ACMSYMBB_MODULE_NAME
 90
        0
280
     0
281
     0
  0
CLASS
  1
AMDTFORMULAUPDATEDISPATCHER
  2
AmdtFormulaUpdateDispatcher
  3
AcMeServices
 90
        0
280
     0
281
     0
  0
CLASS
  1
LONG_TRANSACTION
  2
AcDbLongTransaction
  3
AutoCAD 2000
 90
        0
280
     0
281
     0
  0
CLASS
  1
LWPOLYLINE
  2
AcDbPolyline
  3
AutoCAD 2000
 90
        0
280
     0
281
     1
  0
CLASS
  1
HATCH
  2
AcDbHatch
  3
AutoCAD 2000
 90
        0
280
     0
281
     1
  0
CLASS
  1
XRECORD
  2
AcDbXrecord
  3
AutoCAD 2000
 90
        0
280
     0
281
     0
  0
ENDSEC
  0
SECTION
  2
TABLES
  0
TABLE
  2
VPORT
  5
6A1E
330
0
100
AcDbSymbolTable
 70
    72
  0
VPORT
  5
85C6
330
6A1E
100
AcDbSymbolTableRecord
100
AcDbViewportTableRecord
  2
*ACTIVE
 70
     0
 10
0.0
 20
0.0
 11
1.0
 21
1.0
 12
72.71316172072864
 22
134.216381973288
 13
0.0
 23
0.0
 14
2.5
 24
2.5
 15
10.0
 25
10.0
 16
0.0
 26
0.0
 36
1.0
 17
0.0
 27
0.0
 37
0.0
 40
329.1580511569542
 41
1.694290976058931
 42
50.0
 43
0.0
 44
0.0
 50
0.0
 51
0.0
 71
    16
 72
 10000
 73
     1
 74
     3
 75
     0
 76
     0
 77
     0
 78
     0
  0
ENDTAB
  0
TABLE
  2
LTYPE
  5
6A1B
330
0
100
AcDbSymbolTable
 70
    16
  0
LTYPE
  5
6A29
330
6A1B
100
AcDbSymbolTableRecord
100
AcDbLinetypeTableRecord
  2
BYBLOCK
 70
     0
  3

 72
    65
 73
     0
 40
0.0
  0
LTYPE
  5
6A2A
330
6A1B
100
AcDbSymbolTableRecord
100
AcDbLinetypeTableRecord
  2
BYLAYER
 70
     0
  3

 72
    65
 73
     0
 40
0.0
  0
LTYPE
  5
6A2B
330
6A1B
100
AcDbSymbolTableRecord
100
AcDbLinetypeTableRecord
  2
CONTINUOUS
 70
     0
  3
Solid line
 72
    65
 73
     0
 40
0.0
  0
LTYPE
  5
6A39
330
6A1B
100
AcDbSymbolTableRecord
100
AcDbLinetypeTableRecord
  2
AMCONSTR
 70
     0
  3
_______________________
 72
    65
 73
     2
 40
9999.0
 49
9999.0
 74
     0
 49
0.0
 74
     0
  0
LTYPE
  5
6A43
330
6A1B
100
AcDbSymbolTableRecord
100
AcDbLinetypeTableRecord
  2
CENTER
 70
     0
  3
__ . __
 72
    65
 73
     4
 40
7.0
 49
4.0
 74
     0
 49
-1.0
 74
     0
 49
1.0
 74
     0
 49
-1.0
 74
     0
  0
LTYPE
  5
6A45
330
6A1B
100
AcDbSymbolTableRecord
100
AcDbLinetypeTableRecord
  2
PHANTOM2
 70
     0
  3
Phantom (.5x) ___ _ _ ___ _ _ ___ _ _ ___ _ _
 72
    65
 73
     6
 40
1.25
 49
0.625
 74
     0
 49
-0.125
 74
     0
 49
0.125
 74
     0
 49
-0.125
 74
     0
 49
0.125
 74
     0
 49
-0.125
 74
     0
  0
LTYPE
  5
6A46
330
6A1B
100
AcDbSymbolTableRecord
100
AcDbLinetypeTableRecord
  2
ACANSTGB
 70
     0
  3
__ . . __ . .
 72
    65
 73
     6
 40
0.35433070866
 49
0.15748031496
 74
     0
 49
-0.03937007874
 74
     0
 49
0.03937007874
 74
     0
 49
-0.03937007874
 74
     0
 49
0.03937007874
 74
     0
 49
-0.03937007874
 74
     0
  0
LTYPE
  5
6A47
330
6A1B
100
AcDbSymbolTableRecord
100
AcDbLinetypeTableRecord
  2
ACANSTGL
 70
     0
  3
_ _ _ _ _
 72
    65
 73
     2
 40
0.11811023622
 49
0.07874015748
 74
     0
 49
-0.03937007874
 74
     0
  0
LTYPE
  5
6A48
330
6A1B
100
AcDbSymbolTableRecord
100
AcDbLinetypeTableRecord
  2
DASHED
 70
     0
  3
__ __ __ __ __ __ __ __ __ __ __ __ __ __ __ __
 72
    65
 73
     2
 40
19.05
 49
12.7
 74
     0
 49
-6.349999999999998
 74
     0
  0
LTYPE
  5
6C79
330
6A1B
100
AcDbSymbolTableRecord
100
AcDbLinetypeTableRecord
  2
ACDINWELD
 70
     0
  3
_ _ _ _ _
 72
    65
 73
     2
 40
2.0
 49
2.0
 74
     0
 49
-1.0
 74
     0
  0
LTYPE
  5
6C7A
330
6A1B
100
AcDbSymbolTableRecord
100
AcDbLinetypeTableRecord
  2
ACDINTGB
 70
     0
  3
__ . . __ . .
 72
    65
 73
     6
 40
9.0
 49
4.0
 74
     0
 49
-1.0
 74
     0
 49
1.0
 74
     0
 49
-1.0
 74
     0
 49
1.0
 74
     0
 49
-1.0
 74
     0
  0
LTYPE
  5
6C7B
330
6A1B
100
AcDbSymbolTableRecord
100
AcDbLinetypeTableRecord
  2
ACDINTGL
 70
     0
  3
_ _ _ _ _
 72
    65
 73
     2
 40
3.0
 49
2.0
 74
     0
 49
-1.0
 74
     0
  0
LTYPE
  5
6C8F
330
6A1B
100
AcDbSymbolTableRecord
100
AcDbLinetypeTableRecord
  2
AMZIGZAG
 70
     0
  3
/\/-/\/-/\/-/\/-/\/-/\/
 72
    65
 73
     2
 40
11.00009999999999
 49
0.0001
 74
     4
 75
   135
340
6A5B
 46
0.04
 50
0.0
 44
0.0
 45
0.0
 49
-11.0
 74
     0
  0
LTYPE
  5
6C90
330
6A1B
100
AcDbSymbolTableRecord
100
AcDbLinetypeTableRecord
  2
AM_DIN_F_W050
 70
     0
  3
__ __ __ __ __ __ __ __ __ __ __ __ __ __ __
 72
    65
 73
     2
 40
6.25
 49
4.75
 74
     0
 49
-1.5
 74
     0
  0
LTYPE
  5
6C91
330
6A1B
100
AcDbSymbolTableRecord
100
AcDbLinetypeTableRecord
  2
AM_DIN_G_W050
 70
     0
  3
____ . ____ . ____ . ____ . ____ . ____ . ____
 72
    65
 73
     4
 40
13.75
 49
9.75
 74
     0
 49
-1.5
 74
     0
 49
1.0
 74
     0
 49
-1.5
 74
     0
  0
LTYPE
  5
6C92
330
6A1B
100
AcDbSymbolTableRecord
100
AcDbLinetypeTableRecord
  2
AM_DIN_K_W050
 70
     0
  3
_____ . . _____ . . _____ . . ____ .. ____
 72
    65
 73
     6
 40
16.25
 49
9.75
 74
     0
 49
-1.5
 74
     0
 49
1.0
 74
     0
 49
-1.5
 74
     0
 49
1.0
 74
     0
 49
-1.5
 74
     0
  0
LTYPE
  5
6C93
330
6A1B
100
AcDbSymbolTableRecord
100
AcDbLinetypeTableRecord
  2
AM_DIN_G_W050X2
 70
     0
  3
__ . __ . __ . __ . __ . __
 72
    65
 73
     4
 40
6.875
 49
4.75
 74
     0
 49
-0.875
 74
     0
 49
0.375
 74
     0
 49
-0.875
 74
     0
  0
LTYPE
  5
6C94
330
6A1B
100
AcDbSymbolTableRecord
100
AcDbLinetypeTableRecord
  2
AM_DIN_F_W050X2
 70
     0
  3
 _ _ _ _ _ _ _ _ _ _ _ _
 72
    65
 73
     2
 40
3.125
 49
2.25
 74
     0
 49
-0.875
 74
     0
  0
ENDTAB
  0
TABLE
  2
LAYER
  5
6A18
330
0
100
AcDbSymbolTable
 70
    15
  0
LAYER
  5
6A26
330
6A18
100
AcDbSymbolTableRecord
100
AcDbLayerTableRecord
  2
0
 70
     0
 62
     7
  6
CONTINUOUS
  0
LAYER
  5
6A4B
330
6A18
100
AcDbSymbolTableRecord
100
AcDbLayerTableRecord
  2
DEFPOINTS
 70
     0
 62
     7
  6
CONTINUOUS
  0
LAYER
  5
6A4C
330
6A18
100
AcDbSymbolTableRecord
100
AcDbLayerTableRecord
  2
1
 70
     0
 62
     4
  6
CONTINUOUS
  0
LAYER
  5
6A4D
330
6A18
100
AcDbSymbolTableRecord
100
AcDbLayerTableRecord
  2
2
 70
     0
 62
     7
  6
CONTINUOUS
  0
LAYER
  5
6A53
330
6A18
100
AcDbSymbolTableRecord
100
AcDbLayerTableRecord
  2
SK1
 70
     0
 62
     4
  6
CONTINUOUS
  0
LAYER
  5
6A54
330
6A18
100
AcDbSymbolTableRecord
100
AcDbLayerTableRecord
  2
SK2
 70
     0
 62
     7
  6
CONTINUOUS
  0
LAYER
  5
6A55
330
6A18
100
AcDbSymbolTableRecord
100
AcDbLayerTableRecord
  2
SK3
 70
     0
 62
     1
  6
DASHED
  0
LAYER
  5
6A56
330
6A18
100
AcDbSymbolTableRecord
100
AcDbLayerTableRecord
  2
SK4
 70
     0
 62
     2
  6
CENTER
  0
LAYER
  5
6A58
330
6A18
100
AcDbSymbolTableRecord
100
AcDbLayerTableRecord
  2
NOCUT
 70
     0
 62
     7
  6
CONTINUOUS
  0
LAYER
  5
6FD0
330
6A18
100
AcDbSymbolTableRecord
100
AcDbLayerTableRecord
  2
4
 70
     0
 62
     2
  6
CENTER
  0
LAYER
  5
6FD1
330
6A18
100
AcDbSymbolTableRecord
100
AcDbLayerTableRecord
  2
6
 70
     0
 62
     5
  6
CONTINUOUS
  0
LAYER
  5
6FD2
330
6A18
100
AcDbSymbolTableRecord
100
AcDbLayerTableRecord
  2
CUT
 70
     0
 62
     1
  6
CONTINUOUS
  0
LAYER
  5
72B2
330
6A18
100
AcDbSymbolTableRecord
100
AcDbLayerTableRecord
  2
SK6
 70
     0
 62
     5
  6
CONTINUOUS
  0
LAYER
  5
856C
330
6A18
100
AcDbSymbolTableRecord
100
AcDbLayerTableRecord
  2
AM_5
 70
     0
 62
     3
  6
CONTINUOUS
  0
ENDTAB
  0
TABLE
  2
STYLE
  5
6A19
330
0
100
AcDbSymbolTable
 70
     6
  0
STYLE
  5
6A27
330
6A19
100
AcDbSymbolTableRecord
100
AcDbTextStyleTableRecord
  2
STANDARD
 70
     0
 40
0.0
 41
1.0
 50
0.0
 71
     0
 42
2.5
  3
ISOCP.SHX
  4

  0
STYLE
  5
6A5B
330
6A19
100
AcDbSymbolTableRecord
100
AcDbTextStyleTableRecord
  2

 70
     1
 40
0.0
 41
1.0
 50
0.0
 71
     0
 42
2.5
  3
ltypeshp.shx
  4

  0
STYLE
  5
6A5E
330
6A19
100
AcDbSymbolTableRecord
100
AcDbTextStyleTableRecord
  2
ACANSTS
 70
     0
 40
1.0
 41
1.0
 50
0.0
 71
     0
 42
0.2
  3
romans.shx
  4

  0
STYLE
  5
6A5F
330
6A19
100
AcDbSymbolTableRecord
100
AcDbTextStyleTableRecord
  2
ACANSGDT
 70
     0
 40
0.0
 41
1.0
 50
0.0
 71
     0
 42
0.2
  3
amgdtans.shx
  4

  0
STYLE
  5
6C6C
330
6A19
100
AcDbSymbolTableRecord
100
AcDbTextStyleTableRecord
  2
ACDINTS
 70
     0
 40
1.0
 41
1.0
 50
0.0
 71
     0
 42
3.5
  3
isocp.shx
  4

  0
STYLE
  5
6C78
330
6A19
100
AcDbSymbolTableRecord
100
AcDbTextStyleTableRecord
  2
ACDINGDT
 70
     0
 40
0.0
 41
1.0
 50
0.0
 71
     0
 42
3.5
  3
amgdt.shx
  4

  0
ENDTAB
  0
TABLE
  2
VIEW
  5
6A1C
330
0
100
AcDbSymbolTable
 70
     6
  0
VIEW
  5
6A60
330
6A1C
100
AcDbSymbolTableRecord
100
AcDbViewTableRecord
  2
AM_VIEW1
 70
     0
 40
148.5
 10
131.508173076923
 20
222.75
 41
263.016346153846
 11
0.0
 21
0.0
 31
1.0
 12
0.0
 22
0.0
 32
0.0
 42
50.0
 43
0.0
 44
0.0
 50
0.0
 71
    16
  0
VIEW
  5
6A61
330
6A1C
100
AcDbSymbolTableRecord
100
AcDbViewTableRecord
  2
AM_VIEW2
 70
     0
 40
148.5
 10
78.4918269230769
 20
222.75
 41
263.016346153846
 11
0.0
 21
0.0
 31
1.0
 12
0.0
 22
0.0
 32
0.0
 42
50.0
 43
0.0
 44
0.0
 50
0.0
 71
    16
  0
VIEW
  5
6A62
330
6A1C
100
AcDbSymbolTableRecord
100
AcDbViewTableRecord
  2
AM_VIEW3
 70
     0
 40
148.5
 10
131.508173076923
 20
74.25
 41
263.016346153846
 11
0.0
 21
0.0
 31
1.0
 12
0.0
 22
0.0
 32
0.0
 42
50.0
 43
0.0
 44
0.0
 50
0.0
 71
    16
  0
VIEW
  5
6A63
330
6A1C
100
AcDbSymbolTableRecord
100
AcDbViewTableRecord
  2
AM_VIEW4
 70
     0
 40
148.5
 10
78.4918269230769
 20
74.25
 41
263.016346153846
 11
0.0
 21
0.0
 31
1.0
 12
0.0
 22
0.0
 32
0.0
 42
50.0
 43
0.0
 44
0.0
 50
0.0
 71
    16
  0
VIEW
  5
6A64
330
6A1C
100
AcDbSymbolTableRecord
100
AcDbViewTableRecord
  2
AM_VIEW5
 70
     0
 40
148.5
 10
105.0
 20
148.5
 41
263.016346153846
 11
0.0
 21
0.0
 31
1.0
 12
0.0
 22
0.0
 32
0.0
 42
50.0
 43
0.0
 44
0.0
 50
0.0
 71
    16
  0
VIEW
  5
6A65
330
6A1C
100
AcDbSymbolTableRecord
100
AcDbViewTableRecord
  2
AM_VIEW6
 70
     0
 40
296.9970299999999
 10
105.0
 20
148.5
 41
526.0274319807693
 11
0.0
 21
0.0
 31
1.0
 12
0.0
 22
0.0
 32
0.0
 42
50.0
 43
0.0
 44
0.0
 50
0.0
 71
    16
  0
ENDTAB
  0
TABLE
  2
UCS
  5
6A1D
330
0
100
AcDbSymbolTable
 70
     0
  0
ENDTAB
  0
TABLE
  2
APPID
  5
6A1F
330
0
100
AcDbSymbolTable
 70
    43
  0
APPID
  5
6A28
330
6A1F
100
AcDbSymbolTableRecord
100
AcDbRegAppTableRecord
  2
ACAD
 70
     0
  0
APPID
  5
6A66
330
6A1F
100
AcDbSymbolTableRecord
100
AcDbRegAppTableRecord
  2
MCAD_NO_VIS
 70
     0
  0
APPID
  5
6A67
330
6A1F
100
AcDbSymbolTableRecord
100
AcDbRegAppTableRecord
  2
ACAD_TEMP_GRAPHIC
 70
     0
  0
APPID
  5
6A68
330
6A1F
100
AcDbSymbolTableRecord
100
AcDbRegAppTableRecord
  2
ACATTRIBSERVICES
 70
     0
  0
APPID
  5
6A69
330
6A1F
100
AcDbSymbolTableRecord
100
AcDbRegAppTableRecord
  2
GENIUS_GENDIMSH_14
 70
     0
  0
APPID
  5
6A6A
330
6A1F
100
AcDbSymbolTableRecord
100
AcDbRegAppTableRecord
  2
GENIUS_GENBLLY_14
 70
     0
  0
APPID
  5
6A6B
330
6A1F
100
AcDbSymbolTableRecord
100
AcDbRegAppTableRecord
  2
GENIUS_GENTRA_14
 70
     0
  0
APPID
  5
6A6C
330
6A1F
100
AcDbSymbolTableRecord
100
AcDbRegAppTableRecord
  2
GENIUS_GENODEF_13
 70
     0
  0
APPID
  5
6A6D
330
6A1F
100
AcDbSymbolTableRecord
100
AcDbRegAppTableRecord
  2
GENIUS_GENOLIS_13
 70
     0
  0
APPID
  5
6A6E
330
6A1F
100
AcDbSymbolTableRecord
100
AcDbRegAppTableRecord
  2
GENIUS_GENOENT_13
 70
     0
  0
APPID
  5
6A6F
330
6A1F
100
AcDbSymbolTableRecord
100
AcDbRegAppTableRecord
  2
GENIUS_GENOBJ-N-TIT_13
 70
     0
  0
APPID
  5
6A70
330
6A1F
100
AcDbSymbolTableRecord
100
AcDbRegAppTableRecord
  2
GENIUS_GENTITLE_13
 70
     0
  0
APPID
  5
6A71
330
6A1F
100
AcDbSymbolTableRecord
100
AcDbRegAppTableRecord
  2
GENIUS_GENOREF_13
 70
     0
  0
APPID
  5
6A72
330
6A1F
100
AcDbSymbolTableRecord
100
AcDbRegAppTableRecord
  2
GENIUS_GENSCREG_15
 70
     0
  0
APPID
  5
6A73
330
6A1F
100
AcDbSymbolTableRecord
100
AcDbRegAppTableRecord
  2
GENIUS_GENOBJ-N-SDF_13
 70
     0
  0
APPID
  5
6A74
330
6A1F
100
AcDbSymbolTableRecord
100
AcDbRegAppTableRecord
  2
ACADIGES
 70
     0
  0
APPID
  5
6A75
330
6A1F
100
AcDbSymbolTableRecord
100
AcDbRegAppTableRecord
  2
GENIUS_GENOBJ-N-HTC_13
 70
     0
  0
APPID
  5
6A76
330
6A1F
100
AcDbSymbolTableRecord
100
AcDbRegAppTableRecord
  2
GENIUS_GENHATCH_13
 70
     0
  0
APPID
  5
6D75
330
6A1F
100
AcDbSymbolTableRecord
100
AcDbRegAppTableRecord
  2
GENIUS_GENOBJ-N-CRS_13
 70
     0
  0
APPID
  5
6D76
330
6A1F
100
AcDbSymbolTableRecord
100
AcDbRegAppTableRecord
  2
GENIUS_GENOBJ-N-FIL_13
 70
     0
  0
APPID
  5
6D77
330
6A1F
100
AcDbSymbolTableRecord
100
AcDbRegAppTableRecord
  2
GENIUS_GENFIL_13
 70
     0
  0
APPID
  5
6D78
330
6A1F
100
AcDbSymbolTableRecord
100
AcDbRegAppTableRecord
  2
GENIUS_GENOBJ-N-CHA_13
 70
     0
  0
APPID
  5
6FD3
330
6A1F
100
AcDbSymbolTableRecord
100
AcDbRegAppTableRecord
  2
GENIUS12
 70
     0
  0
APPID
  5
6FD4
330
6A1F
100
AcDbSymbolTableRecord
100
AcDbRegAppTableRecord
  2
GENIUS_GENCFG_13
 70
     0
  0
APPID
  5
6FD5
330
6A1F
100
AcDbSymbolTableRecord
100
AcDbRegAppTableRecord
  2
GENIUS_GEFCFG0_13
 70
     0
  0
APPID
  5
6FD6
330
6A1F
100
AcDbSymbolTableRecord
100
AcDbRegAppTableRecord
  2
GENIUS_GENCFG0_13
 70
     0
  0
APPID
  5
6FD7
330
6A1F
100
AcDbSymbolTableRecord
100
AcDbRegAppTableRecord
  2
GENIUS_GENCFG1_13
 70
     0
  0
APPID
  5
6FD8
330
6A1F
100
AcDbSymbolTableRecord
100
AcDbRegAppTableRecord
  2
GENIUS_GENCFG2_13
 70
     0
  0
APPID
  5
6FD9
330
6A1F
100
AcDbSymbolTableRecord
100
AcDbRegAppTableRecord
  2
GENIUS_GENCFG3_13
 70
     0
  0
APPID
  5
6FDA
330
6A1F
100
AcDbSymbolTableRecord
100
AcDbRegAppTableRecord
  2
GENIUS_GENCFG4_13
 70
     0
  0
APPID
  5
6FDB
330
6A1F
100
AcDbSymbolTableRecord
100
AcDbRegAppTableRecord
  2
GENIUS_GEVCFG0_13
 70
     0
  0
APPID
  5
6FDC
330
6A1F
100
AcDbSymbolTableRecord
100
AcDbRegAppTableRecord
  2
GENIUS_GENOBJ-F-SUF_13
 70
     0
  0
APPID
  5
6FDD
330
6A1F
100
AcDbSymbolTableRecord
100
AcDbRegAppTableRecord
  2
GENIUS_GENDIM_13
 70
     0
  0
APPID
  5
6FDE
330
6A1F
100
AcDbSymbolTableRecord
100
AcDbRegAppTableRecord
  2
GENIUS_GENDTOL_13
 70
     0
  0
APPID
  5
6FDF
330
6A1F
100
AcDbSymbolTableRecord
100
AcDbRegAppTableRecord
  2
GENIUS_GE3DTOL_13
 70
     0
  0
APPID
  5
6FE0
330
6A1F
100
AcDbSymbolTableRecord
100
AcDbRegAppTableRecord
  2
AD_DRAW
 70
     0
  0
APPID
  5
6FE1
330
6A1F
100
AcDbSymbolTableRecord
100
AcDbRegAppTableRecord
  2
ASURF_PCURVE_APPNAME
 70
     0
  0
APPID
  5
6FE2
330
6A1F
100
AcDbSymbolTableRecord
100
AcDbRegAppTableRecord
  2
AMG_3D2D_5_0
 70
     0
  0
APPID
  5
6FE3
330
6A1F
100
AcDbSymbolTableRecord
100
AcDbRegAppTableRecord
  2
DESIGNERASSEMBLIES
 70
     0
  0
APPID
  5
6FE4
330
6A1F
100
AcDbSymbolTableRecord
100
AcDbRegAppTableRecord
  2
ACADM_DIM_EDIT
 70
     0
  0
APPID
  5
6FE5
330
6A1F
100
AcDbSymbolTableRecord
100
AcDbRegAppTableRecord
  2
AMDT_DM_ADJ
 70
     0
  0
APPID
  5
748B
330
6A1F
100
AcDbSymbolTableRecord
100
AcDbRegAppTableRecord
  2
GEV_VCCNULL_SWITCH_OFF
 70
     0
  0
APPID
  5
7F91
330
6A1F
100
AcDbSymbolTableRecord
100
AcDbRegAppTableRecord
  2
GENIUS_GENOBJ-N-CEN_13
 70
     0
  0
ENDTAB
  0
TABLE
  2
DIMSTYLE
  5
6A20
330
0
100
AcDbSymbolTable
 70
    14
  0
DIMSTYLE
105
6A77
102
{ACAD_REACTORS
330
73F1
330
8022
330
8063
330
857C
102
}
330
6A20
100
AcDbSymbolTableRecord
100
AcDbDimStyleTableRecord
  2
AM_DIN
 70
     0
  3

  4
"
  5

  6

  7

 40
1.0
 41
2.5
 42
0.0
 43
10.0
 44
1.0
 45
0.0
 46
0.0
 47
0.1
 48
0.1
140
3.5
141
0.0
142
0.0
143
0.0393701
144
1.0
145
0.0
146
0.71
147
1.5
 71
     0
 72
     0
 73
     0
 74
     0
 75
     0
 76
     0
 77
     1
 78
     8
170
     0
171
     2
172
     1
173
     0
174
     0
175
     0
176
   256
177
   256
178
     2
270
     2
271
     2
272
     2
273
     2
274
     2
340
6A27
275
     0
280
     0
281
     0
282
     0
283
     1
284
     8
285
     8
286
     8
287
     5
288
     0
  0
DIMSTYLE
105
6A7E
330
6A20
100
AcDbSymbolTableRecord
100
AcDbDimStyleTableRecord
  2
STANDARD
 70
     0
  3

  4

  5

  6

  7

 40
1.0
 41
0.18
 42
0.0625
 43
0.38
 44
0.18
 45
0.0
 46
0.0
 47
0.0
 48
0.0
140
0.18
141
0.09
142
0.0
143
25.4
144
1.0
145
0.0
146
1.0
147
0.09
 71
     0
 72
     0
 73
     1
 74
     1
 75
     0
 76
     0
 77
     0
 78
     0
170
     0
171
     2
172
     0
173
     0
174
     0
175
     0
176
     0
177
     0
178
     0
270
     2
271
     2
272
     2
273
     2
274
     2
340
6A27
275
     0
280
     0
281
     0
282
     0
283
     1
284
     8
285
     8
286
     8
287
     5
288
     0
  0
DIMSTYLE
105
6A7F
102
{ACAD_REACTORS
330
6E8F
330
6E90
330
7F16
102
}
330
6A20
100
AcDbSymbolTableRecord
100
AcDbDimStyleTableRecord
  2
AM_ANSI
 70
     0
  3

  4
mm
  5

  6

  7

 40
1.0
 41
0.1
 42
0.05
 43
0.5
 44
0.1
 45
0.0
 46
0.0
 47
0.1
 48
0.1
140
0.12
141
0.0
142
0.0
143
25.4
144
1.0
145
0.0
146
0.71
147
0.06
 71
     0
 72
     0
 73
     1
 74
     1
 75
     0
 76
     0
 77
     0
 78
     7
170
     0
171
     2
172
     0
173
     0
174
     0
175
     0
176
   256
177
   256
178
     2
270
     2
271
     2
272
     2
273
     2
274
     2
340
6A27
275
     0
280
     0
281
     0
282
     0
283
     1
284
     8
285
     8
286
     8
287
     5
288
     0
  0
DIMSTYLE
105
6A80
330
6A20
100
AcDbSymbolTableRecord
100
AcDbDimStyleTableRecord
  2
AM_ANSI$3
 70
     0
  3

  4
mm
  5

  6

  7

 40
1.0
 41
0.1
 42
0.05
 43
0.5
 44
0.1
 45
0.0
 46
0.0
 47
0.1
 48
0.1
140
0.12
141
0.0
142
0.0
143
25.4
144
1.0
145
0.0
146
0.71
147
0.06
 71
     0
 72
     0
 73
     1
 74
     1
 75
     0
 76
     0
 77
     0
 78
     7
170
     0
171
     2
172
     0
173
     0
174
     0
175
     0
176
   256
177
   256
178
     2
270
     2
271
     2
272
     2
273
     2
274
     2
340
6A27
275
     0
280
     0
281
     0
282
     0
283
     1
284
     8
285
     8
286
     8
287
     5
288
     0
  0
DIMSTYLE
105
6A81
330
6A20
100
AcDbSymbolTableRecord
100
AcDbDimStyleTableRecord
  2
AM_ANSI$4
 70
     0
  3

  4
mm
  5

  6

  7

 40
1.0
 41
0.1
 42
0.05
 43
0.5
 44
0.1
 45
0.0
 46
0.0
 47
0.1
 48
0.1
140
0.12
141
0.0
142
0.0
143
25.4
144
1.0
145
0.0
146
0.71
147
0.06
 71
     0
 72
     0
 73
     1
 74
     1
 75
     0
 76
     0
 77
     0
 78
     7
170
     0
171
     2
172
     0
173
     0
174
     0
175
     0
176
   256
177
   256
178
     2
270
     2
271
     2
272
     2
273
     2
274
     2
340
6A27
275
     0
280
     0
281
     0
282
     0
283
     1
284
     8
285
     8
286
     8
287
     5
288
     0
  0
DIMSTYLE
105
6A82
330
6A20
100
AcDbSymbolTableRecord
100
AcDbDimStyleTableRecord
  2
AM_ANSI$7
 70
     0
  3

  4
mm
  5

  6

  7

 40
1.0
 41
0.1
 42
0.05
 43
0.5
 44
0.1
 45
0.0
 46
0.0
 47
0.1
 48
0.1
140
0.24
141
0.0
142
0.0
143
25.4
144
1.0
145
0.0
146
0.71
147
0.06
 71
     0
 72
     0
 73
     1
 74
     1
 75
     0
 76
     0
 77
     0
 78
     7
170
     0
171
     2
172
     0
173
     0
174
     0
175
     0
176
   256
177
   256
178
     2
270
     2
271
     2
272
     2
273
     2
274
     2
340
6A27
275
     0
280
     0
281
     0
282
     0
283
     1
284
     8
285
     8
286
     8
287
     5
288
     0
  0
DIMSTYLE
105
6A83
330
6A20
100
AcDbSymbolTableRecord
100
AcDbDimStyleTableRecord
  2
AM_ANSI$SF
 70
     0
  3

  4
mm
  5

  6

  7

 40
1.0
 41
0.1
 42
0.05
 43
0.5
 44
0.1
 45
0.0
 46
0.0
 47
0.1
 48
0.1
140
0.12
141
0.0
142
0.0
143
25.4
144
1.0
145
0.0
146
0.71
147
0.06
 71
     0
 72
     0
 73
     1
 74
     1
 75
     1
 76
     1
 77
     0
 78
     7
170
     0
171
     2
172
     0
173
     0
174
     0
175
     0
176
   256
177
   256
178
     2
270
     2
271
     2
272
     2
273
     2
274
     2
340
6A27
275
     0
280
     0
281
     0
282
     0
283
     1
284
     8
285
     8
286
     8
287
     5
288
     0
  0
DIMSTYLE
105
6A84
330
6A20
100
AcDbSymbolTableRecord
100
AcDbDimStyleTableRecord
  2
AM_ANSI$SH
 70
     0
  3

  4
mm
  5

  6

  7

 40
1.0
 41
0.1
 42
0.05
 43
0.5
 44
0.1
 45
0.0
 46
0.0
 47
0.1
 48
0.1
140
0.12
141
0.0
142
0.0
143
25.4
144
1.0
145
0.0
146
0.71
147
0.06
 71
     0
 72
     0
 73
     1
 74
     1
 75
     1
 76
     1
 77
     0
 78
     7
170
     0
171
     2
172
     0
173
     1
174
     0
175
     0
176
   256
177
   256
178
     2
270
     2
271
     2
272
     2
273
     2
274
     2
340
6A27
275
     0
280
     0
281
     0
282
     0
283
     1
284
     8
285
     8
286
     8
287
     5
288
     0
  0
DIMSTYLE
105
6C7E
330
6A20
100
AcDbSymbolTableRecord
100
AcDbDimStyleTableRecord
  2
AM_DIN$3
 70
     0
  3

  4
"
  5

  6

  7

 40
1.0
 41
2.5
 42
0.0
 43
10.0
 44
1.0
 45
0.0
 46
0.0
 47
0.1
 48
0.1
140
3.5
141
0.0
142
0.0
143
0.0393701
144
1.0
145
0.0
146
0.71
147
1.5
 71
     0
 72
     0
 73
     0
 74
     1
 75
     0
 76
     0
 77
     1
 78
     8
170
     0
171
     2
172
     0
173
     0
174
     0
175
     0
176
   256
177
   256
178
     2
270
     2
271
     2
272
     2
273
     2
274
     2
340
6A27
275
     0
280
     0
281
     0
282
     0
283
     1
284
     8
285
     8
286
     8
287
     5
288
     1
  0
DIMSTYLE
105
6C7F
330
6A20
100
AcDbSymbolTableRecord
100
AcDbDimStyleTableRecord
  2
AM_DIN$4
 70
     0
  3

  4
"
  5

  6

  7

 40
1.0
 41
2.5
 42
0.0
 43
10.0
 44
1.0
 45
0.0
 46
0.0
 47
0.1
 48
0.1
140
3.5
141
0.0
142
0.0
143
0.0393701
144
1.0
145
0.0
146
0.71
147
1.5
 71
     0
 72
     0
 73
     0
 74
     1
 75
     0
 76
     0
 77
     1
 78
     8
170
     0
171
     2
172
     0
173
     0
174
     0
175
     0
176
   256
177
   256
178
     2
270
     2
271
     2
272
     2
273
     2
274
     2
340
6A27
275
     0
280
     0
281
     0
282
     0
283
     1
284
     8
285
     8
286
     8
287
     5
288
     1
  0
DIMSTYLE
105
6C80
330
6A20
100
AcDbSymbolTableRecord
100
AcDbDimStyleTableRecord
  2
AM_DIN$6
 70
     0
  3

  4
"
  5

  6

  7

 40
1.0
 41
2.5
 42
0.0
 43
10.0
 44
1.0
 45
0.0
 46
0.0
 47
0.1
 48
0.1
140
3.5
141
0.0
142
0.0
143
0.0393701
144
1.0
145
0.0
146
0.71
147
1.5
 71
     0
 72
     0
 73
     0
 74
     0
 75
     0
 76
     0
 77
     0
 78
     8
170
     0
171
     2
172
     1
173
     0
174
     0
175
     0
176
   256
177
   256
178
     2
270
     2
271
     2
272
     2
273
     2
274
     2
340
6A27
275
     0
280
     0
281
     0
282
     0
283
     0
284
     8
285
     8
286
     8
287
     5
288
     0
  0
DIMSTYLE
105
6C81
330
6A20
100
AcDbSymbolTableRecord
100
AcDbDimStyleTableRecord
  2
AM_DIN$7
 70
     0
  3

  4
"
  5

  6

  7

 40
1.0
 41
2.5
 42
0.0
 43
10.0
 44
1.0
 45
0.0
 46
0.0
 47
0.1
 48
0.1
140
5.0
141
0.0
142
0.0
143
0.0393701
144
1.0
145
0.0
146
0.71
147
1.5
 71
     0
 72
     0
 73
     0
 74
     0
 75
     0
 76
     0
 77
     1
 78
     8
170
     0
171
     2
172
     1
173
     0
174
     0
175
     0
176
   256
177
   256
178
     2
270
     2
271
     2
272
     2
273
     2
274
     2
340
6A27
275
     0
280
     0
281
     0
282
     0
283
     1
284
     8
285
     8
286
     8
287
     5
288
     0
  0
DIMSTYLE
105
6C82
330
6A20
100
AcDbSymbolTableRecord
100
AcDbDimStyleTableRecord
  2
AM_DIN$SF
 70
     0
  3

  4
"
  5

  6

  7

 40
1.0
 41
2.5
 42
1.0
 43
10.0
 44
1.0
 45
0.0
 46
0.0
 47
0.1
 48
0.1
140
3.5
141
0.0
142
0.0
143
0.0393701
144
1.0
145
0.0
146
0.71
147
1.5
 71
     0
 72
     0
 73
     0
 74
     0
 75
     1
 76
     1
 77
     1
 78
     8
170
     0
171
     2
172
     1
173
     0
174
     0
175
     0
176
   256
177
   256
178
     2
270
     2
271
     2
272
     2
273
     2
274
     2
340
6A27
275
     0
280
     0
281
     0
282
     0
283
     1
284
     8
285
     8
286
     8
287
     5
288
     0
  0
DIMSTYLE
105
6C87
330
6A20
100
AcDbSymbolTableRecord
100
AcDbDimStyleTableRecord
  2
AM_DIN$SH
 70
     0
  3

  4
"
  5

  6
GENAXEH
  7

 40
1.0
 41
2.5
 42
1.0
 43
10.0
 44
1.0
 45
0.0
 46
0.0
 47
0.1
 48
0.1
140
3.5
141
0.0
142
0.0
143
0.0393701
144
2.0
145
0.0
146
0.71
147
1.5
 71
     0
 72
     0
 73
     0
 74
     0
 75
     1
 76
     1
 77
     1
 78
     8
170
     0
171
     2
172
     1
173
     1
174
     0
175
     0
176
   256
177
   256
178
     2
270
     2
271
     2
272
     2
273
     2
274
     2
340
6A27
275
     0
280
     0
281
     0
282
     0
283
     1
284
     8
285
     8
286
     8
287
     5
288
     0
  0
ENDTAB
  0
TABLE
  2
BLOCK_RECORD
  5
6A17
330
0
100
AcDbSymbolTable
 70
     8
  0
BLOCK_RECORD
  5
6A34
102
{ACAD_XDICTIONARY
360
6B62
102
}
330
6A17
100
AcDbSymbolTableRecord
100
AcDbBlockTableRecord
  2
*MODEL_SPACE
  0
BLOCK_RECORD
  5
6A30
102
{ACAD_XDICTIONARY
360
85E8
102
}
330
6A17
100
AcDbSymbolTableRecord
100
AcDbBlockTableRecord
  2
*PAPER_SPACE
  0
BLOCK_RECORD
  5
6C83
330
6A17
100
AcDbSymbolTableRecord
100
AcDbBlockTableRecord
  2
GENAXEH
  0
BLOCK_RECORD
  5
6EC4
330
6A17
100
AcDbSymbolTableRecord
100
AcDbBlockTableRecord
  2
*D1
  0
BLOCK_RECORD
  5
6ED0
330
6A17
100
AcDbSymbolTableRecord
100
AcDbBlockTableRecord
  2
*D2
  0
BLOCK_RECORD
  5
73F2
330
6A17
100
AcDbSymbolTableRecord
100
AcDbBlockTableRecord
  2
*D3
  0
BLOCK_RECORD
  5
7F2A
330
6A17
100
AcDbSymbolTableRecord
100
AcDbBlockTableRecord
  2
*D4
  0
BLOCK_RECORD
  5
8023
330
6A17
100
AcDbSymbolTableRecord
100
AcDbBlockTableRecord
  2
*D5
  0
BLOCK_RECORD
  5
8064
330
6A17
100
AcDbSymbolTableRecord
100
AcDbBlockTableRecord
  2
*D6
  0
BLOCK_RECORD
  5
857D
330
6A17
100
AcDbSymbolTableRecord
100
AcDbBlockTableRecord
  2
*D7
  0
ENDTAB
  0
ENDSEC
  0
SECTION
  2
BLOCKS
  0
BLOCK
  5
6A35
330
6A34
100
AcDbEntity
  8
0
100
AcDbBlockBegin
  2
*MODEL_SPACE
 70
     0
 10
0.0
 20
0.0
 30
0.0
  3
*MODEL_SPACE
  1

  0
ENDBLK
  5
6A36
330
6A34
100
AcDbEntity
  8
0
100
AcDbBlockEnd
  0
BLOCK
  5
6A31
330
6A30
100
AcDbEntity
 67
     1
  8
0
100
AcDbBlockBegin
  2
*PAPER_SPACE
 70
     0
 10
0.0
 20
0.0
 30
0.0
  3
*PAPER_SPACE
  1

  0
ENDBLK
  5
6A32
330
6A30
100
AcDbEntity
 67
     1
  8
0
100
AcDbBlockEnd
  0
BLOCK
  5
6C85
330
6C83
100
AcDbEntity
  8
0
100
AcDbBlockBegin
  2
GENAXEH
 70
     0
 10
0.0
 20
0.0
 30
0.0
  3
GENAXEH
  1

  0
LINE
  5
6C84
330
6C83
100
AcDbEntity
  8
0
100
AcDbLine
 10
-1.0
 20
0.0
 30
0.0
 11
1.0
 21
0.0
 31
0.0
  0
ENDBLK
  5
6C86
330
6C83
100
AcDbEntity
  8
0
100
AcDbBlockEnd
  0
BLOCK
  5
6ECE
330
6EC4
100
AcDbEntity
  8
0
100
AcDbBlockBegin
  2
*D1
 70
     1
 10
0.0
 20
0.0
 30
0.0
  3
*D1
  1

  0
LINE
  5
80BC
330
6EC4
100
AcDbEntity
  8
SK2
100
AcDbLine
 10
0.0
 20
24.0
 30
0.0
 11
0.0000000000000023
 21
61.03381914312868
 31
0.0
  0
LINE
  5
80BD
330
6EC4
100
AcDbEntity
  8
SK2
100
AcDbLine
 10
-35.0
 20
11.0
 30
0.0
 11
-35.0
 21
61.03381914312868
 31
0.0
  0
LINE
  5
80BE
330
6EC4
100
AcDbEntity
  8
SK2
100
AcDbLine
 10
-2.399999999999997
 20
60.03381914312868
 30
0.0
 11
-32.6
 21
60.03381914312868
 31
0.0
  0
SOLID
  5
80BF
330
6EC4
100
AcDbEntity
  8
SK2
100
AcDbTrace
 10
-2.399999999999997
 20
60.43381914312868
 30
0.0
 11
-2.399999999999997
 21
59.63381914312869
 31
0.0
 12
0.0000000000000022
 22
60.03381914312868
 32
0.0
 13
0.0000000000000022
 23
60.03381914312868
 33
0.0
  0
SOLID
  5
80C0
330
6EC4
100
AcDbEntity
  8
SK2
100
AcDbTrace
 10
-32.6
 20
60.43381914312868
 30
0.0
 11
-32.6
 21
59.63381914312869
 31
0.0
 12
-35.0
 22
60.03381914312868
 32
0.0
 13
-35.0
 23
60.03381914312868
 33
0.0
  0
MTEXT
  5
80C1
330
6EC4
100
AcDbEntity
  8
SK2
 62
     2
100
AcDbMText
 10
-17.5
 20
62.78381914312868
 30
0.0
 40
3.5
 41
0.0
 71
     5
 72
     1
  1
\A1;35
1001
ACAD
1000
MTEXTBEGIN
1070
    73
1070
     1
1070
    44
1040
1.0
1070
    74
1070
     0
1000
MTEXTEND
  0
POINT
  5
80C2
330
6EC4
100
AcDbEntity
  8
DEFPOINTS
 62
     0
100
AcDbPoint
 10
0.0
 20
24.0
 30
0.0
  0
POINT
  5
80C3
330
6EC4
100
AcDbEntity
  8
DEFPOINTS
 62
     0
100
AcDbPoint
 10
-35.0
 20
11.0
 30
0.0
  0
POINT
  5
80C4
330
6EC4
100
AcDbEntity
  8
DEFPOINTS
 62
     0
100
AcDbPoint
 10
-35.0
 20
60.03381914312868
 30
0.0
  0
ENDBLK
  5
6ECF
330
6EC4
100
AcDbEntity
  8
0
100
AcDbBlockEnd
  0
BLOCK
  5
6EDA
330
6ED0
100
AcDbEntity
  8
0
100
AcDbBlockBegin
  2
*D2
 70
     1
 10
0.0
 20
0.0
 30
0.0
  3
*D2
  1

  0
LINE
  5
80C5
330
6ED0
100
AcDbEntity
  8
SK2
100
AcDbLine
 10
-30.0
 20
12.00000000000002
 30
0.0
 11
-49.30042214622813
 21
12.00000000000003
 31
0.0
  0
LINE
  5
80C6
330
6ED0
100
AcDbEntity
  8
SK2
100
AcDbLine
 10
-30.0
 20
-11.99999999999997
 30
0.0
 11
-49.30042214622813
 21
-11.99999999999996
 31
0.0
  0
LINE
  5
80C7
330
6ED0
100
AcDbEntity
  8
SK2
100
AcDbLine
 10
-48.30042214622813
 20
9.600000000000033
 30
0.0
 11
-48.30042214622813
 21
-9.599999999999965
 31
0.0
  0
MTEXT
  5
80C8
330
6ED0
100
AcDbEntity
  8
SK2
 62
     2
100
AcDbMText
 10
-51.34319359390861
 20
-0.1122779170276829
 30
0.0
 40
3.5
 41
0.0
 71
     5
 72
     1
  1
\A1;%%c24
 11
0.0000000000000001
 21
1.0
 31
0.0
1001
ACAD
1000
MTEXTBEGIN
1070
    73
1070
     1
1070
    44
1040
1.0
1070
    74
1070
     0
1000
MTEXTEND
  0
SOLID
  5
80C9
330
6ED0
100
AcDbEntity
  8
SK2
100
AcDbTrace
 10
-48.70042214622813
 20
9.600000000000033
 30
0.0
 11
-47.90042214622813
 21
9.600000000000033
 31
0.0
 12
-48.30042214622813
 22
12.00000000000003
 32
0.0
 13
-48.30042214622813
 23
12.00000000000003
 33
0.0
  0
SOLID
  5
80CA
330
6ED0
100
AcDbEntity
  8
SK2
100
AcDbTrace
 10
-48.70042214622813
 20
-9.599999999999965
 30
0.0
 11
-47.90042214622813
 21
-9.599999999999965
 31
0.0
 12
-48.30042214622813
 22
-11.99999999999996
 32
0.0
 13
-48.30042214622813
 23
-11.99999999999996
 33
0.0
  0
POINT
  5
80CB
330
6ED0
100
AcDbEntity
  8
DEFPOINTS
 62
     0
100
AcDbPoint
 10
-30.0
 20
12.00000000000002
 30
0.0
  0
POINT
  5
80CC
330
6ED0
100
AcDbEntity
  8
DEFPOINTS
 62
     0
100
AcDbPoint
 10
-30.0
 20
-11.99999999999997
 30
0.0
  0
POINT
  5
80CD
330
6ED0
100
AcDbEntity
  8
DEFPOINTS
 62
     0
100
AcDbPoint
 10
-48.30042214622813
 20
-11.99999999999996
 30
0.0
  0
ENDBLK
  5
6EDB
330
6ED0
100
AcDbEntity
  8
0
100
AcDbBlockEnd
  0
BLOCK
  5
73FC
330
73F2
100
AcDbEntity
  8
0
100
AcDbBlockBegin
  2
*D3
 70
     1
 10
0.0
 20
0.0
 30
0.0
  3
*D3
  1

  0
LINE
  5
80B3
330
73F2
100
AcDbEntity
  8
SK2
100
AcDbLine
 10
0.0
 20
24.0
 30
0.0
 11
-60.74448938991872
 21
24.00000000000002
 31
0.0
  0
LINE
  5
80B4
330
73F2
100
AcDbEntity
  8
SK2
100
AcDbLine
 10
0.0
 20
-24.0
 30
0.0
 11
-60.74448938991874
 21
-23.99999999999998
 31
0.0
  0
LINE
  5
80B5
330
73F2
100
AcDbEntity
  8
SK2
100
AcDbLine
 10
-59.74448938991873
 20
21.50000000000001
 30
0.0
 11
-59.74448938991874
 21
-21.49999999999998
 31
0.0
  0
SOLID
  5
80B6
330
73F2
100
AcDbEntity
  8
SK2
100
AcDbTrace
 10
-60.16115605658539
 20
21.50000000000001
 30
0.0
 11
-59.32782272325206
 21
21.50000000000001
 31
0.0
 12
-59.74448938991873
 22
24.00000000000002
 32
0.0
 13
-59.74448938991873
 23
24.00000000000002
 33
0.0
  0
SOLID
  5
80B7
330
73F2
100
AcDbEntity
  8
SK2
100
AcDbTrace
 10
-60.16115605658541
 20
-21.49999999999998
 30
0.0
 11
-59.32782272325208
 21
-21.49999999999998
 31
0.0
 12
-59.74448938991874
 22
-23.99999999999998
 32
0.0
 13
-59.74448938991874
 23
-23.99999999999998
 33
0.0
  0
MTEXT
  5
80B8
330
73F2
100
AcDbEntity
  8
SK2
 62
     2
100
AcDbMText
 10
-62.99448938991873
 20
0.0000000000000076
 30
0.0
 40
3.5
 41
0.0
 71
     5
 72
     1
  1
\A1;%%c48
 11
0.0000000000000001
 21
1.0
 31
0.0
1001
ACAD
1000
MTEXTBEGIN
1070
    73
1070
     1
1070
    44
1040
1.0
1070
    74
1070
     0
1000
MTEXTEND
  0
POINT
  5
80B9
330
73F2
100
AcDbEntity
  8
DEFPOINTS
 62
     0
100
AcDbPoint
 10
0.0
 20
24.0
 30
0.0
  0
POINT
  5
80BA
330
73F2
100
AcDbEntity
  8
DEFPOINTS
 62
     0
100
AcDbPoint
 10
0.0
 20
-24.0
 30
0.0
  0
POINT
  5
80BB
330
73F2
100
AcDbEntity
  8
DEFPOINTS
 62
     0
100
AcDbPoint
 10
-59.74448938991874
 20
-23.99999999999998
 30
0.0
  0
ENDBLK
  5
73FD
330
73F2
100
AcDbEntity
  8
0
100
AcDbBlockEnd
  0
BLOCK
  5
7F34
330
7F2A
100
AcDbEntity
  8
0
100
AcDbBlockBegin
  2
*D4
 70
     1
 10
0.0
 20
0.0
 30
0.0
  3
*D4
  1

  0
LINE
  5
80E9
330
7F2A
100
AcDbEntity
  8
2
100
AcDbLine
 10
55.04999999999999
 20
16.00000000000005
 30
0.0
 11
76.48184487066342
 21
16.00000000000004
 31
0.0
  0
LINE
  5
80EA
330
7F2A
100
AcDbEntity
  8
2
100
AcDbLine
 10
55.04999999999999
 20
-15.99999999999992
 30
0.0
 11
76.48184487066342
 21
-15.99999999999993
 31
0.0
  0
LINE
  5
80EB
330
7F2A
100
AcDbEntity
  8
2
100
AcDbLine
 10
76.38184487066343
 20
13.50000000000004
 30
0.0
 11
76.38184487066343
 21
-13.49999999999993
 31
0.0
  0
MTEXT
  5
80EC
330
7F2A
100
AcDbEntity
  8
2
 62
     2
100
AcDbMText
 10
73.10425717689105
 20
0.1477481439528248
 30
0.0
 40
3.5
 41
0.0
 71
     5
 72
     1
  1
\A1;%%c32
 11
0.0000000000000001
 21
1.0
 31
0.0
1001
ACAD
1000
MTEXTBEGIN
1070
    73
1070
     1
1070
    44
1040
1.0
1070
    74
1070
     0
1000
MTEXTEND
  0
SOLID
  5
80ED
330
7F2A
100
AcDbEntity
  8
2
100
AcDbTrace
 10
75.96517820399675
 20
13.50000000000005
 30
0.0
 11
76.7985115373301
 21
13.50000000000004
 31
0.0
 12
76.38184487066343
 22
16.00000000000004
 32
0.0
 13
76.38184487066343
 23
16.00000000000004
 33
0.0
  0
SOLID
  5
80EE
330
7F2A
100
AcDbEntity
  8
2
100
AcDbTrace
 10
75.96517820399675
 20
-13.49999999999993
 30
0.0
 11
76.7985115373301
 21
-13.49999999999993
 31
0.0
 12
76.38184487066343
 22
-15.99999999999993
 32
0.0
 13
76.38184487066343
 23
-15.99999999999993
 33
0.0
  0
POINT
  5
80EF
330
7F2A
100
AcDbEntity
  8
DEFPOINTS
 62
     0
100
AcDbPoint
 10
55.0
 20
16.00000000000005
 30
0.0
  0
POINT
  5
80F0
330
7F2A
100
AcDbEntity
  8
DEFPOINTS
 62
     0
100
AcDbPoint
 10
55.0
 20
-15.99999999999992
 30
0.0
  0
POINT
  5
80F1
330
7F2A
100
AcDbEntity
  8
DEFPOINTS
 62
     0
100
AcDbPoint
 10
76.38184487066343
 20
-15.99999999999993
 30
0.0
  0
ENDBLK
  5
7F35
330
7F2A
100
AcDbEntity
  8
0
100
AcDbBlockEnd
  0
BLOCK
  5
802D
330
8023
100
AcDbEntity
  8
0
100
AcDbBlockBegin
  2
*D5
 70
     1
 10
0.0
 20
0.0
 30
0.0
  3
*D5
  1

  0
LINE
  5
80D7
330
8023
100
AcDbEntity
  8
2
100
AcDbLine
 10
0.0
 20
24.0
 30
0.0
 11
0.0000000000000032
 21
76.00000000000003
 31
0.0
  0
LINE
  5
80D8
330
8023
100
AcDbEntity
  8
2
100
AcDbLine
 10
55.0
 20
16.00000000000005
 30
0.0
 11
55.0
 21
76.00000000000003
 31
0.0
  0
LINE
  5
80D9
330
8023
100
AcDbEntity
  8
2
100
AcDbLine
 10
2.500000000000003
 20
75.00000000000003
 30
0.0
 11
52.5
 21
75.00000000000003
 31
0.0
  0
SOLID
  5
80DA
330
8023
100
AcDbEntity
  8
2
100
AcDbTrace
 10
2.500000000000003
 20
75.4166666666667
 30
0.0
 11
2.500000000000003
 21
74.58333333333335
 31
0.0
 12
0.0000000000000031
 22
75.00000000000003
 32
0.0
 13
0.0000000000000031
 23
75.00000000000003
 33
0.0
  0
SOLID
  5
80DB
330
8023
100
AcDbEntity
  8
2
100
AcDbTrace
 10
52.5
 20
75.4166666666667
 30
0.0
 11
52.5
 21
74.58333333333335
 31
0.0
 12
55.0
 22
75.00000000000003
 32
0.0
 13
55.0
 23
75.00000000000003
 33
0.0
  0
MTEXT
  5
80DC
330
8023
100
AcDbEntity
  8
2
 62
     2
100
AcDbMText
 10
27.5
 20
78.25000000000002
 30
0.0
 40
3.5
 41
0.0
 71
     5
 72
     1
  1
\A1;55
1001
ACAD
1000
MTEXTBEGIN
1070
    73
1070
     1
1070
    44
1040
1.0
1070
    74
1070
     0
1000
MTEXTEND
  0
POINT
  5
80DD
330
8023
100
AcDbEntity
  8
DEFPOINTS
 62
     0
100
AcDbPoint
 10
0.0
 20
24.0
 30
0.0
  0
POINT
  5
80DE
330
8023
100
AcDbEntity
  8
DEFPOINTS
 62
     0
100
AcDbPoint
 10
55.0
 20
16.00000000000005
 30
0.0
  0
POINT
  5
80DF
330
8023
100
AcDbEntity
  8
DEFPOINTS
 62
     0
100
AcDbPoint
 10
55.0
 20
75.00000000000003
 30
0.0
  0
ENDBLK
  5
802E
330
8023
100
AcDbEntity
  8
0
100
AcDbBlockEnd
  0
BLOCK
  5
806E
330
8064
100
AcDbEntity
  8
0
100
AcDbBlockBegin
  2
*D6
 70
     1
 10
0.0
 20
0.0
 30
0.0
  3
*D6
  1

  0
LINE
  5
80CE
330
8064
100
AcDbEntity
  8
2
100
AcDbLine
 10
14.0
 20
15.2711343434168
 30
0.0
 11
14.0
 21
61.03381914312868
 31
0.0
  0
LINE
  5
80CF
330
8064
100
AcDbEntity
  8
2
100
AcDbLine
 10
55.0
 20
16.00000000000005
 30
0.0
 11
55.0
 21
61.03381914312868
 31
0.0
  0
LINE
  5
80D0
330
8064
100
AcDbEntity
  8
2
100
AcDbLine
 10
16.5
 20
60.03381914312868
 30
0.0
 11
52.5
 21
60.03381914312868
 31
0.0
  0
SOLID
  5
80D1
330
8064
100
AcDbEntity
  8
2
100
AcDbTrace
 10
16.5
 20
60.45048580979535
 30
0.0
 11
16.5
 21
59.61715247646202
 31
0.0
 12
14.0
 22
60.03381914312868
 32
0.0
 13
14.0
 23
60.03381914312868
 33
0.0
  0
SOLID
  5
80D2
330
8064
100
AcDbEntity
  8
2
100
AcDbTrace
 10
52.5
 20
60.45048580979535
 30
0.0
 11
52.5
 21
59.61715247646202
 31
0.0
 12
55.0
 22
60.03381914312868
 32
0.0
 13
55.0
 23
60.03381914312868
 33
0.0
  0
MTEXT
  5
80D3
330
8064
100
AcDbEntity
  8
2
 62
     2
100
AcDbMText
 10
34.5
 20
63.28381914312868
 30
0.0
 40
3.5
 41
0.0
 71
     5
 72
     1
  1
\A1;41
1001
ACAD
1000
MTEXTBEGIN
1070
    73
1070
     1
1070
    44
1040
1.0
1070
    74
1070
     0
1000
MTEXTEND
  0
POINT
  5
80D4
330
8064
100
AcDbEntity
  8
DEFPOINTS
 62
     0
100
AcDbPoint
 10
14.0
 20
15.2711343434168
 30
0.0
  0
POINT
  5
80D5
330
8064
100
AcDbEntity
  8
DEFPOINTS
 62
     0
100
AcDbPoint
 10
55.0
 20
16.00000000000005
 30
0.0
  0
POINT
  5
80D6
330
8064
100
AcDbEntity
  8
DEFPOINTS
 62
     0
100
AcDbPoint
 10
55.0
 20
60.03381914312868
 30
0.0
  0
ENDBLK
  5
806F
330
8064
100
AcDbEntity
  8
0
100
AcDbBlockEnd
  0
BLOCK
  5
8587
330
857D
100
AcDbEntity
  8
0
100
AcDbBlockBegin
  2
*D7
 70
     1
 10
0.0
 20
0.0
 30
0.0
  3
*D7
  1

  0
LINE
  5
85BB
330
857D
100
AcDbEntity
  8
2
100
AcDbLine
 10
42.5
 20
16.0
 30
0.0
 11
42.5
 21
46.03381914312868
 31
0.0
  0
LINE
  5
85BC
330
857D
100
AcDbEntity
  8
2
100
AcDbLine
 10
55.0
 20
16.00000000000005
 30
0.0
 11
55.0
 21
46.03381914312868
 31
0.0
  0
LINE
  5
85BD
330
857D
100
AcDbEntity
  8
2
100
AcDbLine
 10
45.0
 20
45.03381914312868
 30
0.0
 11
52.5
 21
45.03381914312868
 31
0.0
  0
SOLID
  5
85BE
330
857D
100
AcDbEntity
  8
2
100
AcDbTrace
 10
45.0
 20
45.45048580979535
 30
0.0
 11
45.0
 21
44.61715247646202
 31
0.0
 12
42.5
 22
45.03381914312868
 32
0.0
 13
42.5
 23
45.03381914312868
 33
0.0
  0
SOLID
  5
85BF
330
857D
100
AcDbEntity
  8
2
100
AcDbTrace
 10
52.5
 20
45.45048580979535
 30
0.0
 11
52.5
 21
44.61715247646202
 31
0.0
 12
55.0
 22
45.03381914312868
 32
0.0
 13
55.0
 23
45.03381914312868
 33
0.0
  0
MTEXT
  5
85C0
330
857D
100
AcDbEntity
  8
2
 62
     2
100
AcDbMText
 10
48.75
 20
48.28416363131766
 30
0.0
 40
3.5
 41
0.0
 71
     5
 72
     1
  1
\A1;12.5
1001
ACAD
1000
MTEXTBEGIN
1070
    73
1070
     1
1070
    44
1040
1.0
1070
    74
1070
     0
1000
MTEXTEND
  0
POINT
  5
85C1
330
857D
100
AcDbEntity
  8
DEFPOINTS
 62
     0
100
AcDbPoint
 10
42.5
 20
16.0
 30
0.0
  0
POINT
  5
85C2
330
857D
100
AcDbEntity
  8
DEFPOINTS
 62
     0
100
AcDbPoint
 10
55.0
 20
16.00000000000005
 30
0.0
  0
POINT
  5
85C3
330
857D
100
AcDbEntity
  8
DEFPOINTS
 62
     0
100
AcDbPoint
 10
55.0
 20
45.03381914312868
 30
0.0
  0
ENDBLK
  5
8588
330
857D
100
AcDbEntity
  8
0
100
AcDbBlockEnd
  0
ENDSEC
  0
SECTION
  2
ENTITIES
  0
LINE
  5
6E59
330
6A34
100
AcDbEntity
  8
SK1
100
AcDbLine
 10
0.0
 20
-11.99999999999997
 30
0.0
 11
-30.00000000000005
 21
-11.99999999999997
 31
0.0
  0
LINE
  5
6E5D
330
6A34
100
AcDbEntity
  8
SK1
100
AcDbLine
 10
-30.0
 20
-11.99999999999997
 30
0.0
 11
-33.10000000000002
 21
-11.64999999999997
 31
0.0
  0
ARC
  5
6E5E
330
6A34
100
AcDbEntity
  8
SK1
100
AcDbCircle
 10
-34.0
 20
-11.0
 30
0.0
 40
1.0
100
AcDbArc
 50
180.0
 51
319.4583981264969
1001
GENIUS_GENODEF_13
1002
{
1000
HIER
1070
     0
1002
}
1002
{
1000
MANEDIT
1070
     0
1002
}
1002
{
1000
NOSEL
1070
     0
1002
}
1002
{
1000
BEHIND
1070
     0
1002
}
1002
{
1000
OTHER
1070
     0
1002
}
1002
{
1000
REACTOR
1002
}
1001
GENIUS_GENOBJ-N-FIL_13
1002
{
1000
OWNER
1000
GEN
1002
}
  0
LINE
  5
6E5F
330
6A34
100
AcDbEntity
  8
SK1
100
AcDbLine
 10
-33.10000000000002
 20
-11.64999999999997
 30
0.0
 11
-33.24006579232144
 21
-11.64999999999997
 31
0.0
  0
LINE
  5
6E60
330
6A34
100
AcDbEntity
  8
1
100
AcDbLine
 10
0.0
 20
24.0
 30
0.0
 11
12.0
 21
24.0
 31
0.0
  0
LINE
  5
6E63
330
6A34
100
AcDbEntity
  8
1
100
AcDbLine
 10
0.0
 20
-24.0
 30
0.0
 11
0.0
 21
24.0
 31
0.0
  0
ARC
  5
6E65
330
6A34
100
AcDbEntity
  8
SK1
100
AcDbCircle
 10
-34.0
 20
11.0
 30
0.0
 40
1.0
100
AcDbArc
 50
40.54160187350304
 51
180.0
1001
GENIUS_GENODEF_13
1002
{
1000
HIER
1070
     0
1002
}
1002
{
1000
MANEDIT
1070
     0
1002
}
1002
{
1000
NOSEL
1070
     0
1002
}
1002
{
1000
BEHIND
1070
     0
1002
}
1002
{
1000
OTHER
1070
     0
1002
}
1002
{
1000
REACTOR
1002
}
1001
GENIUS_GENOBJ-N-FIL_13
1002
{
1000
OWNER
1000
GEN
1002
}
  0
LINE
  5
6E66
330
6A34
100
AcDbEntity
  8
SK1
100
AcDbLine
 10
0.0
 20
12.00000000000002
 30
0.0
 11
-30.00000000000005
 21
12.00000000000002
 31
0.0
  0
LINE
  5
6E68
330
6A34
100
AcDbEntity
  8
SK1
100
AcDbLine
 10
-30.0
 20
12.00000000000002
 30
0.0
 11
-33.10000000000002
 21
11.65000000000003
 31
0.0
  0
LINE
  5
6E69
330
6A34
100
AcDbEntity
  8
SK1
100
AcDbLine
 10
-33.10000000000002
 20
11.65000000000003
 30
0.0
 11
-33.24006579232144
 21
11.65000000000003
 31
0.0
  0
LINE
  5
6E6A
330
6A34
100
AcDbEntity
  8
SK1
100
AcDbLine
 10
-35.0
 20
-10.99999999999997
 30
0.0
 11
-35.0
 21
11.00000000000002
 31
0.0
  0
LINE
  5
6E6B
330
6A34
100
AcDbEntity
  8
SK1
100
AcDbLine
 10
-16.98960756861424
 20
-6.999999999999971
 30
0.0
 11
-18.68883222675992
 21
-6.999999999999971
 31
0.0
  0
LINE
  5
6E6C
330
6A34
100
AcDbEntity
  8
SK1
100
AcDbLine
 10
-16.98960756861424
 20
7.000000000000028
 30
0.0
 11
-18.68883222675992
 21
7.000000000000028
 31
0.0
  0
ARC
  5
6E6D
330
6A34
100
AcDbEntity
  8
SK1
100
AcDbCircle
 10
-17.08460432395168
 20
0.0
 30
0.0
 40
7.181472492751646
100
AcDbArc
 50
102.9078848854386
 51
257.0921151145614
  0
LINE
  5
6E6E
330
6A34
100
AcDbEntity
  8
SK1
100
AcDbLine
 10
-18.68883222675992
 20
-3.999999999999971
 30
0.0
 11
-18.68883222675992
 21
4.000000000000028
 31
0.0
  0
ARC
  5
6E6F
330
6A34
100
AcDbEntity
  8
SK1
100
AcDbCircle
 10
-15.19095324358221
 20
-4.0
 30
0.0
 40
3.497878983177713
100
AcDbArc
 50
180.0000000000004
 51
239.0551446332088
  0
ARC
  5
6E70
330
6A34
100
AcDbEntity
  8
SK1
100
AcDbCircle
 10
-15.19095324358221
 20
4.0
 30
0.0
 40
3.497878983177713
100
AcDbArc
 50
120.9448553667911
 51
179.9999999999996
  0
ARC
  5
6E71
330
6A34
100
AcDbEntity
  8
SK1
100
AcDbCircle
 10
-22.86946659883227
 20
0.0
 30
0.0
 40
9.141812851685189
100
AcDbArc
 50
310.0295827564067
 51
49.97041724359328
  0
LINE
  5
6E76
330
6A34
100
AcDbEntity
  8
SK1
100
AcDbLine
 10
-30.0
 20
-11.99999999999997
 30
0.0
 11
-30.0
 21
12.00000000000002
 31
0.0
  0
LINE
  5
6E77
330
6A34
100
AcDbEntity
  8
SK1
100
AcDbLine
 10
-33.24006579232144
 20
-11.64999999999997
 30
0.0
 11
-33.24006579232144
 21
11.65
 31
0.0
  0
LINE
  5
6E79
330
6A34
100
AcDbEntity
  8
SK4
100
AcDbLine
 10
-12.0
 20
-12.82925254711187
 30
0.0
 11
-12.0
 21
13.96286389869328
 31
0.0
  0
CIRCLE
  5
6E7A
330
6A34
100
AcDbEntity
  8
SK1
100
AcDbCircle
 10
-12.0
 20
0.0
 30
0.0
 40
1.75
  0
LINE
  5
6E7B
330
6A34
100
AcDbEntity
  8
SK3
 48
0.3
100
AcDbLine
 10
-10.25
 20
-11.99999999999997
 30
0.0
 11
-10.25
 21
-3.0
 31
0.0
  0
LINE
  5
6E7C
330
6A34
100
AcDbEntity
  8
SK3
 48
0.3
100
AcDbLine
 10
-13.75000000000005
 20
-11.99999999999997
 30
0.0
 11
-13.75
 21
-2.999999999999971
 31
0.0
  0
LINE
  5
6E7D
330
6A34
100
AcDbEntity
  8
SK4
100
AcDbLine
 10
13.7490521878085
 20
18.0
 30
0.0
 11
-2.817613997200623
 21
18.0
 31
0.0
  0
LINE
  5
6E7E
330
6A34
100
AcDbEntity
  8
SK3
 48
0.3
100
AcDbLine
 10
11.41496162197495
 20
-2.999999999999985
 30
0.0
 11
-35.0
 21
-2.999999999999971
 31
0.0
  0
LINE
  5
6E7F
330
6A34
100
AcDbEntity
  8
SK3
 48
0.3
100
AcDbLine
 10
10.26564492474449
 20
3.0
 30
0.0
 11
-35.0
 21
3.000000000000028
 31
0.0
  0
LINE
  5
6E80
330
6A34
100
AcDbEntity
  8
SK3
 48
0.3
100
AcDbLine
 10
-10.25
 20
3.0
 30
0.0
 11
-10.25
 21
12.00000000000002
 31
0.0
  0
LINE
  5
6E81
330
6A34
100
AcDbEntity
  8
SK3
 48
0.3
100
AcDbLine
 10
-13.75
 20
3.000000000000028
 30
0.0
 11
-13.75
 21
12.00000000000002
 31
0.0
  0
LINE
  5
6E82
330
6A34
100
AcDbEntity
  8
SK4
100
AcDbLine
 10
0.0
 20
0.0
 30
0.0
 11
-38.24007757597064
 21
0.0000000000000284
 31
0.0
  0
LINE
  5
6E83
330
6A34
100
AcDbEntity
  8
SK3
 48
0.5
100
AcDbLine
 10
10.0
 20
22.0
 30
0.0
 11
0.0
 21
22.0
 31
0.0
  0
LINE
  5
6E84
330
6A34
100
AcDbEntity
  8
SK3
 48
0.5
100
AcDbLine
 10
10.0
 20
22.0
 30
0.0
 11
12.3094010767586
 21
18.0
 31
0.0
  0
LINE
  5
6E85
330
6A34
100
AcDbEntity
  8
SK3
 48
0.5
100
AcDbLine
 10
10.0
 20
14.0
 30
0.0
 11
10.0
 21
22.0
 31
0.0
  0
LINE
  5
6E86
330
6A34
100
AcDbEntity
  8
SK3
 48
0.5
100
AcDbLine
 10
10.0
 20
14.0
 30
0.0
 11
0.0
 21
14.0
 31
0.0
  0
LINE
  5
6E87
330
6A34
100
AcDbEntity
  8
SK3
 48
0.5
100
AcDbLine
 10
10.0
 20
14.0
 30
0.0
 11
12.3094010767586
 21
18.0
 31
0.0
  0
LINE
  5
6E88
330
6A34
100
AcDbEntity
  8
SK3
 48
0.5
100
AcDbLine
 10
10.0
 20
-22.0
 30
0.0
 11
0.0
 21
-22.0
 31
0.0
  0
LINE
  5
6E89
330
6A34
100
AcDbEntity
  8
SK3
 48
0.5
100
AcDbLine
 10
10.0
 20
-14.0
 30
0.0
 11
0.0
 21
-14.0
 31
0.0
  0
LINE
  5
6E8A
330
6A34
100
AcDbEntity
  8
SK4
100
AcDbLine
 10
14.52561373382195
 20
-18.0
 30
0.0
 11
-1.911625526851821
 21
-18.0
 31
0.0
  0
LINE
  5
6E8B
330
6A34
100
AcDbEntity
  8
SK3
 48
0.5
100
AcDbLine
 10
10.0
 20
-14.0
 30
0.0
 11
12.3094010767586
 21
-18.0
 31
0.0
  0
LINE
  5
6E8C
330
6A34
100
AcDbEntity
  8
SK3
 48
0.5
100
AcDbLine
 10
10.0
 20
-22.0
 30
0.0
 11
12.3094010767586
 21
-18.0
 31
0.0
  0
LINE
  5
6E8D
330
6A34
100
AcDbEntity
  8
SK3
 48
0.5
100
AcDbLine
 10
10.0
 20
-14.0
 30
0.0
 11
10.0
 21
-22.0
 31
0.0
  0
LINE
  5
6E8E
330
6A34
100
AcDbEntity
  8
SK1
100
AcDbLine
 10
-1.828602898698363
 20
12.0
 30
0.0
 11
-1.828602898698363
 21
-12.0
 31
0.0
  0
DIMENSION
  5
6E8F
330
6A34
100
AcDbEntity
  8
SK2
100
AcDbDimension
  2
*D1
 10
-35.0
 20
60.03381914312868
 30
0.0
 11
-17.5
 21
62.78381914312868
 31
0.0
 70
    32
  3
AM_ANSI
100
AcDbAlignedDimension
 13
0.0
 23
24.0
 33
0.0
 14
-35.0
 24
11.0
 34
0.0
100
AcDbRotatedDimension
1001
ACAD
1000
DSTYLE
1002
{
1070
    41
1040
2.399999999999999
1070
    42
1040
0.0
1070
    44
1040
1.0
1070
    77
1070
     1
1070
   140
1040
3.5
1070
   147
1040
1.0
1070
   271
1070
     0
1002
}
  0
DIMENSION
  5
6E90
330
6A34
100
AcDbEntity
  8
SK2
100
AcDbDimension
  2
*D2
 10
-48.30042214622813
 20
-11.99999999999996
 30
0.0
 11
-51.34319359390861
 21
-0.1122779170276829
 31
0.0
 70
   160
  1
%%c<>
 53
90.0
  3
AM_ANSI
100
AcDbAlignedDimension
 13
-30.0
 23
12.00000000000002
 33
0.0
 14
-30.0
 24
-11.99999999999997
 34
0.0
 50
90.0
100
AcDbRotatedDimension
1001
ACAD
1000
DSTYLE
1002
{
1070
    41
1040
2.399999999999999
1070
    42
1040
0.0
1070
    44
1040
1.0
1070
    77
1070
     1
1070
   140
1040
3.5
1070
   147
1040
1.0
1070
   271
1070
     0
1002
}
  0
CIRCLE
  5
6E91
330
6A34
100
AcDbEntity
  8
SK1
100
AcDbCircle
 10
0.0
 20
0.0
 30
0.0
 40
2.950972054112602
  0
LINE
  5
6E92
330
6A34
100
AcDbEntity
  8
SK1
100
AcDbLine
 10
-2.950972054112639
 20
0.0
 30
0.0
 11
2.950972054112583
 21
0.0
 31
0.0
  0
LINE
  5
6E93
330
6A34
100
AcDbEntity
  8
SK1
100
AcDbLine
 10
0.0
 20
2.950972054112611
 30
0.0
 11
0.0
 21
-2.950972054112611
 31
0.0
  0
LINE
  5
6E94
330
6A34
100
AcDbEntity
  8
1
100
AcDbLine
 10
13.0
 20
-23.00000000000004
 30
0.0
 11
13.0
 21
23.0
 31
0.0
  0
ARC
  5
6E95
330
6A34
100
AcDbEntity
  8
1
100
AcDbCircle
 10
14.0
 20
16.2711343434168
 30
0.0
 40
1.0
100
AcDbArc
 50
179.9999999999983
 51
270.0
1001
GENIUS_GENOBJ-N-FIL_13
1002
{
1000
OWNER
1000
GEN
1002
}
1001
GENIUS_GENODEF_13
1002
{
1000
HIER
1070
     0
1002
}
1002
{
1000
MANEDIT
1070
     0
1002
}
1002
{
1000
NOSEL
1070
     0
1002
}
1002
{
1000
BEHIND
1070
     0
1002
}
1002
{
1000
OTHER
1070
     0
1002
}
1002
{
1000
REACTOR
1002
}
  0
LINE
  5
6E96
330
6A34
100
AcDbEntity
  8
1
100
AcDbLine
 10
12.0
 20
24.0
 30
0.0
 11
13.0
 21
23.0
 31
0.0
1001
GENIUS_GENFIL_13
1070
     0
1040
1.0
1040
1.0
1040
0.0
1040
0.0
1002
{
1002
}
1001
GENIUS_GENODEF_13
1002
{
1000
HIER
1070
     0
1002
}
1002
{
1000
MANEDIT
1070
     0
1002
}
1002
{
1000
NOSEL
1070
     0
1002
}
1002
{
1000
BEHIND
1070
     0
1002
}
1002
{
1000
OTHER
1070
     0
1002
}
1002
{
1000
REACTOR
1002
}
1001
GENIUS_GENOBJ-N-CHA_13
1002
{
1000
OWNER
1000
GEN
1002
}
  0
LINE
  5
6E97
330
6A34
100
AcDbEntity
  8
1
100
AcDbLine
 10
0.0
 20
-24.0
 30
0.0
 11
12.0
 21
-24.0
 31
0.0
  0
LINE
  5
6E98
330
6A34
100
AcDbEntity
  8
1
100
AcDbLine
 10
12.0
 20
-24.0
 30
0.0
 11
13.0
 21
-23.0
 31
0.0
1001
GENIUS_GENFIL_13
1070
     0
1040
1.0
1040
1.0
1040
0.0
1040
0.0
1002
{
1002
}
1001
GENIUS_GENODEF_13
1002
{
1000
HIER
1070
     0
1002
}
1002
{
1000
MANEDIT
1070
     0
1002
}
1002
{
1000
NOSEL
1070
     0
1002
}
1002
{
1000
BEHIND
1070
     0
1002
}
1002
{
1000
OTHER
1070
     0
1002
}
1002
{
1000
REACTOR
1002
}
1001
GENIUS_GENOBJ-N-CHA_13
1002
{
1000
OWNER
1000
GEN
1002
}
  0
ARC
  5
6E99
330
6A34
100
AcDbEntity
  8
1
100
AcDbCircle
 10
14.0
 20
-16.27113434341679
 30
0.0
 40
1.0
100
AcDbArc
 50
90.0
 51
180.0000000000016
1001
GENIUS_GENOBJ-N-FIL_13
1002
{
1000
OWNER
1000
GEN
1002
}
1001
GENIUS_GENODEF_13
1002
{
1000
HIER
1070
     0
1002
}
1002
{
1000
MANEDIT
1070
     0
1002
}
1002
{
1000
NOSEL
1070
     0
1002
}
1002
{
1000
BEHIND
1070
     0
1002
}
1002
{
1000
OTHER
1070
     0
1002
}
1002
{
1000
REACTOR
1002
}
  0
TEXT
  5
70AF
330
6A34
100
AcDbEntity
  8
6
100
AcDbText
 10
16.53259005502678
 20
-28.57417465768003
 30
0.0
 40
3.5
  1
12J1C032055Z4R00
100
AcDbText
  0
LINE
  5
717D
330
6A34
100
AcDbEntity
  8
NOCUT
100
AcDbLine
 10
0.0
 20
0.0000000000000284
 30
0.0
 11
0.0
 21
-23.99999999999994
 31
0.0
  0
LINE
  5
717E
330
6A34
100
AcDbEntity
  8
NOCUT
100
AcDbLine
 10
0.0
 20
-23.99999999999994
 30
0.0
 11
12.0
 21
-23.99999999999994
 31
0.0
  0
LINE
  5
717F
330
6A34
100
AcDbEntity
  8
NOCUT
100
AcDbLine
 10
12.0
 20
-23.99999999999994
 30
0.0
 11
13.0
 21
-22.99999999999994
 31
0.0
  0
LINE
  5
7180
330
6A34
100
AcDbEntity
  8
NOCUT
100
AcDbLine
 10
13.0
 20
-22.99999999999994
 30
0.0
 11
13.0
 21
-16.27113434341679
 31
0.0
  0
ARC
  5
7181
330
6A34
100
AcDbEntity
  8
NOCUT
100
AcDbCircle
 10
14.0
 20
-16.27113434341679
 30
0.0
 40
1.0
100
AcDbArc
 50
90.0
 51
180.0
1001
GENIUS_GENODEF_13
1002
{
1000
HIER
1070
     0
1002
}
1002
{
1000
MANEDIT
1070
     0
1002
}
1002
{
1000
NOSEL
1070
     0
1002
}
1002
{
1000
BEHIND
1070
     0
1002
}
1002
{
1000
OTHER
1070
     0
1002
}
1002
{
1000
REACTOR
1002
}
1001
GENIUS_GENOBJ-N-FIL_13
1002
{
1000
OWNER
1000
GEN
1002
}
  0
TEXT
  5
73D1
330
6A34
100
AcDbEntity
  8
SK6
100
AcDbText
 10
-29.28049350239507
 20
16.49936759697439
 30
0.0
 40
2.5
  1
modular 40
100
AcDbText
  0
DIMENSION
  5
73F1
330
6A34
100
AcDbEntity
  8
SK2
100
AcDbDimension
  2
*D3
 10
-59.74448938991874
 20
-23.99999999999998
 30
0.0
 11
-62.99448938991873
 21
0.0000000000000076
 31
0.0
 70
    32
  1
%%c<>
  3
AM_DIN
100
AcDbAlignedDimension
 13
0.0
 23
24.0
 33
0.0
 14
0.0
 24
-24.0
 34
0.0
 50
90.0
100
AcDbRotatedDimension
  0
LINE
  5
7B96
330
6A34
100
AcDbEntity
  8
4
100
AcDbLine
 10
56.63158198657857
 20
0.0000000000001506
 30
0.0
 11
0.0
 21
0.0000000000003411
 31
0.0
  0
LINE
  5
7EC8
330
6A34
100
AcDbEntity
  8
NOCUT
100
AcDbLine
 10
53.99679480008376
 20
-15.27113434341679
 30
0.0
 11
53.99679480008376
 21
0.0000000000000711
 31
0.0
  0
LINE
  5
7ECE
330
6A34
100
AcDbEntity
  8
1
100
AcDbLine
 10
53.99679480008376
 20
11.51219587175692
 30
0.0
 11
53.99679480008376
 21
-15.27113434341679
 31
0.0
  0
LINE
  5
7ED1
330
6A34
100
AcDbEntity
  8
NOCUT
100
AcDbLine
 10
14.0
 20
-15.27113434341679
 30
0.0
 11
53.99679480008376
 21
-15.27113434341679
 31
0.0
  0
LINE
  5
7ED2
330
6A34
100
AcDbEntity
  8
1
100
AcDbLine
 10
53.99679480008376
 20
-15.27113434341679
 30
0.0
 11
14.0
 21
-15.27113434341679
 31
0.0
  0
LINE
  5
7EDC
330
6A34
100
AcDbEntity
  8
SK1
100
AcDbLine
 10
55.0
 20
-16.46376936984874
 30
0.0
 11
55.0
 21
-15.53623063015111
 31
0.0
  0
LINE
  5
7EDD
330
6A34
100
AcDbEntity
  8
SK1
100
AcDbLine
 10
54.53623063015118
 20
-15.99999999999992
 30
0.0
 11
55.46376936984882
 21
-15.99999999999992
 31
0.0
  0
CIRCLE
  5
7EDE
330
6A34
100
AcDbEntity
  8
SK1
100
AcDbCircle
 10
55.0
 20
-15.99999999999992
 30
0.0
 40
0.4637693698488208
  0
LINE
  5
7EE6
330
6A34
100
AcDbEntity
  8
1
100
AcDbLine
 10
41.50580587159835
 20
15.27113434341679
 30
0.0
 11
14.0
 21
15.2711343434168
 31
0.0
  0
LINE
  5
7F0D
330
6A34
100
AcDbEntity
  8
SK1
100
AcDbLine
 10
55.0
 20
16.46376936984887
 30
0.0
 11
55.0
 21
15.53623063015123
 31
0.0
  0
LINE
  5
7F0E
330
6A34
100
AcDbEntity
  8
SK1
100
AcDbLine
 10
54.53623063015118
 20
16.00000000000005
 30
0.0
 11
55.46376936984882
 21
16.00000000000005
 31
0.0
  0
CIRCLE
  5
7F0F
330
6A34
100
AcDbEntity
  8
SK1
100
AcDbCircle
 10
55.0
 20
16.00000000000005
 30
0.0
 40
0.4637693698488208
  0
TEXT
  5
7F12
330
6A34
100
AcDbEntity
  8
6
100
AcDbText
 10
82.11640273071731
 20
-4.389388396538535
 30
0.0
 40
3.5
  1
Z=3
 50
90.0
100
AcDbText
  0
DIMENSION
  5
7F16
330
6A34
100
AcDbEntity
  8
2
100
AcDbDimension
  2
*D4
 10
76.38184487066343
 20
-15.99999999999993
 30
0.0
 11
73.10425717689105
 21
0.1477481439528248
 31
0.0
 70
   160
  1
%%c<>
 53
90.0
  3
AM_ANSI
100
AcDbAlignedDimension
 13
55.0
 23
16.00000000000005
 33
0.0
 14
55.0
 24
-15.99999999999992
 34
0.0
 50
90.0
100
AcDbRotatedDimension
1001
ACAD
1000
DSTYLE
1002
{
1070
    41
1040
2.5
1070
    77
1070
     1
1070
   140
1040
3.5
1070
   147
1040
1.0
1070
   271
1070
     0
1002
}
  0
DIMENSION
  5
8022
330
6A34
100
AcDbEntity
  8
2
100
AcDbDimension
  2
*D5
 10
55.0
 20
75.00000000000003
 30
0.0
 11
27.5
 21
78.25000000000002
 31
0.0
 70
    32
  3
AM_DIN
100
AcDbAlignedDimension
 13
0.0
 23
24.0
 33
0.0
 14
55.0
 24
16.00000000000005
 34
0.0
100
AcDbRotatedDimension
  0
DIMENSION
  5
8063
330
6A34
100
AcDbEntity
  8
2
100
AcDbDimension
  2
*D6
 10
55.0
 20
60.03381914312868
 30
0.0
 11
34.5
 21
63.28381914312868
 31
0.0
 70
    32
  3
AM_DIN
100
AcDbAlignedDimension
 13
14.0
 23
15.2711343434168
 33
0.0
 14
55.0
 24
16.00000000000005
 34
0.0
100
AcDbRotatedDimension
  0
LINE
  5
8080
330
6A34
100
AcDbEntity
  8
NOCUT
100
AcDbLine
 10
0.0
 20
0.0
 30
0.0
 11
53.99679480008376
 21
0.0000000000000711
 31
0.0
  0
LINE
  5
842D
330
6A34
100
AcDbEntity
  8
SK3
100
AcDbLine
 10
53.00999999999999
 20
-7.959999999999958
 30
0.0
 11
40.41999999999996
 21
-7.959999999999929
 31
0.0
  0
CIRCLE
  5
842E
330
6A34
100
AcDbEntity
  8
SK3
100
AcDbCircle
 10
47.50999999999999
 20
-11.97999999999993
 30
0.0
 40
2.749999999999976
  0
LINE
  5
842F
330
6A34
100
AcDbEntity
  8
SK3
100
AcDbLine
 10
40.76889018293281
 20
-10.95999999999998
 30
0.0
 11
41.50580587159839
 21
-15.27113434341681
 31
0.0
  0
ARC
  5
8430
330
6A34
100
AcDbEntity
  8
SK3
 48
0.3
100
AcDbCircle
 10
43.15348280697597
 20
-13.27113434341673
 30
0.0
 40
8.0
100
AcDbArc
 50
89.99999999999836
 51
194.4775121859306
1001
GENIUS_GENOBJ-N-FIL_13
1002
{
1000
OWNER
1000
GEN
1002
}
1001
GENIUS_GENODEF_13
1002
{
1000
HIER
1070
     0
1002
}
1002
{
1000
MANEDIT
1070
     0
1002
}
1002
{
1000
NOSEL
1070
     0
1002
}
1002
{
1000
BEHIND
1070
     0
1002
}
1002
{
1000
OTHER
1070
     0
1002
}
1002
{
1000
REACTOR
1002
}
  0
LINE
  5
8431
330
6A34
100
AcDbEntity
  8
SK3
100
AcDbLine
 10
40.01999999999998
 20
-9.959999999999929
 30
0.0
 11
40.76889018293274
 21
-10.9599999999999
 31
0.0
  0
LINE
  5
8432
330
6A34
100
AcDbEntity
  8
SK3
100
AcDbLine
 10
40.01999999999998
 20
-8.359999999999935
 30
0.0
 11
40.01999999999998
 21
-9.959999999999901
 31
0.0
  0
ARC
  5
8433
330
6A34
100
AcDbEntity
  8
SK3
100
AcDbCircle
 10
40.41999999999996
 20
-8.359999999999907
 30
0.0
 40
0.4
100
AcDbArc
 50
90.0
 51
180.0
1001
GENIUS_GENOBJ-N-FIL_13
1002
{
1000
OWNER
1000
GEN
1002
}
1001
GENIUS_GENODEF_13
1002
{
1000
HIER
1070
     0
1002
}
1002
{
1000
MANEDIT
1070
     0
1002
}
1002
{
1000
NOSEL
1070
     0
1002
}
1002
{
1000
BEHIND
1070
     0
1002
}
1002
{
1000
OTHER
1070
     0
1002
}
1002
{
1000
REACTOR
1002
}
  0
ARC
  5
8434
330
6A34
100
AcDbEntity
  8
SK3
100
AcDbCircle
 10
53.05217853779106
 20
-8.359999999999878
 30
0.0
 40
0.4
100
AcDbArc
 50
9.699999999999931
 51
90.0
1001
GENIUS_GENODEF_13
1002
{
1000
HIER
1070
     0
1002
}
1002
{
1000
MANEDIT
1070
     0
1002
}
1002
{
1000
NOSEL
1070
     0
1002
}
1002
{
1000
BEHIND
1070
     0
1002
}
1002
{
1000
OTHER
1070
     0
1002
}
1002
{
1000
REACTOR
1002
}
1001
GENIUS_GENOBJ-N-FIL_13
1002
{
1000
OWNER
1000
GEN
1002
}
  0
LINE
  5
8435
330
6A34
100
AcDbEntity
  8
1
100
AcDbLine
 10
41.50580587159839
 20
-15.27113434341681
 30
0.0
 11
41.57354007457337
 21
-15.66739575182601
 31
0.0
  0
ARC
  5
8436
330
6A34
100
AcDbEntity
  8
1
100
AcDbCircle
 10
41.96782146220892
 20
-15.59999999999997
 30
0.0
 40
0.4
100
AcDbArc
 50
189.6999999999999
 51
270.0
1001
GENIUS_GENODEF_13
1002
{
1000
HIER
1070
     0
1002
}
1002
{
1000
MANEDIT
1070
     0
1002
}
1002
{
1000
NOSEL
1070
     0
1002
}
1002
{
1000
BEHIND
1070
     0
1002
}
1002
{
1000
OTHER
1070
     0
1002
}
1002
{
1000
REACTOR
1002
}
1001
GENIUS_GENOBJ-N-FIL_13
1002
{
1000
OWNER
1000
GEN
1002
}
  0
LINE
  5
8437
330
6A34
100
AcDbEntity
  8
1
100
AcDbLine
 10
42.00999999999999
 20
-15.99999999999989
 30
0.0
 11
54.60000000000002
 21
-15.99999999999995
 31
0.0
  0
ARC
  5
8438
330
6A34
100
AcDbEntity
  8
1
100
AcDbCircle
 10
54.60000000000002
 20
-15.59999999999994
 30
0.0
 40
0.4
100
AcDbArc
 50
270.0
 51
0.0
1001
GENIUS_GENOBJ-N-FIL_13
1002
{
1000
OWNER
1000
GEN
1002
}
1001
GENIUS_GENODEF_13
1002
{
1000
HIER
1070
     0
1002
}
1002
{
1000
MANEDIT
1070
     0
1002
}
1002
{
1000
NOSEL
1070
     0
1002
}
1002
{
1000
BEHIND
1070
     0
1002
}
1002
{
1000
OTHER
1070
     0
1002
}
1002
{
1000
REACTOR
1002
}
  0
LINE
  5
8439
330
6A34
100
AcDbEntity
  8
1
100
AcDbLine
 10
55.0
 20
-13.99999999999995
 30
0.0
 11
54.25110981706723
 21
-12.99999999999998
 31
0.0
  0
LINE
  5
843A
330
6A34
100
AcDbEntity
  8
1
100
AcDbLine
 10
55.0
 20
-15.59999999999994
 30
0.0
 11
55.0
 21
-13.99999999999997
 31
0.0
  0
LINE
  5
843B
330
6A34
100
AcDbEntity
  8
1
100
AcDbLine
 10
54.25110981706717
 20
-12.99999999999989
 30
0.0
 11
53.99679480008376
 21
-11.5121958717566
 31
0.0
  0
LINE
  5
843C
330
6A34
100
AcDbEntity
  8
SK3
 48
0.3
100
AcDbLine
 10
43.15348280697612
 20
-5.271134343416733
 30
0.0
 11
53.9967948000837
 21
-5.271134343417017
 31
0.0
  0
LINE
  5
843D
330
6A34
100
AcDbEntity
  8
SK3
100
AcDbLine
 10
53.99679480008376
 20
-11.5121958717566
 30
0.0
 11
53.44645992542661
 21
-8.292604248173866
 31
0.0
  0
ARC
  5
843E
330
6A34
100
AcDbEntity
  8
SK3
100
AcDbCircle
 10
53.05217853779106
 20
-8.359999999999878
 30
0.0
 40
0.4
100
AcDbArc
 50
9.699999999999931
 51
90.0
1001
GENIUS_GENODEF_13
1002
{
1000
HIER
1070
     0
1002
}
1002
{
1000
MANEDIT
1070
     0
1002
}
1002
{
1000
NOSEL
1070
     0
1002
}
1002
{
1000
BEHIND
1070
     0
1002
}
1002
{
1000
OTHER
1070
     0
1002
}
1002
{
1000
REACTOR
1002
}
1001
GENIUS_GENOBJ-N-FIL_13
1002
{
1000
OWNER
1000
GEN
1002
}
  0
LINE
  5
84BD
330
6A34
100
AcDbEntity
  8
1
100
AcDbLine
 10
40.7688901829328
 20
10.96000000000009
 30
0.0
 11
41.57354007457336
 21
15.66739575182612
 31
0.0
  0
LINE
  5
84BE
330
6A34
100
AcDbEntity
  8
CUT
100
AcDbLine
 10
40.7688901829328
 20
10.96000000000009
 30
0.0
 11
41.57354007457336
 21
15.66739575182612
 31
0.0
  0
CIRCLE
  5
84BF
330
6A34
100
AcDbEntity
  8
1
100
AcDbCircle
 10
47.50999999999998
 20
11.98000000000004
 30
0.0
 40
2.749999999999976
  0
LINE
  5
84C0
330
6A34
100
AcDbEntity
  8
1
100
AcDbLine
 10
53.00999999999998
 20
7.960000000000064
 30
0.0
 11
40.41999999999995
 21
7.960000000000036
 31
0.0
  0
LINE
  5
84C1
330
6A34
100
AcDbEntity
  8
CUT
100
AcDbLine
 10
53.00999999999998
 20
7.960000000000064
 30
0.0
 11
40.41999999999995
 21
7.960000000000036
 31
0.0
  0
CIRCLE
  5
84C2
330
6A34
100
AcDbEntity
  8
CUT
100
AcDbCircle
 10
47.50999999999998
 20
11.98000000000004
 30
0.0
 40
2.749999999999976
  0
LINE
  5
84C3
330
6A34
100
AcDbEntity
  8
1
100
AcDbLine
 10
43.15348280697622
 20
5.271134343416832
 30
0.0
 11
53.99679480008381
 21
5.271134343416832
 31
0.0
  0
ARC
  5
84C4
330
6A34
100
AcDbEntity
  8
1
100
AcDbCircle
 10
43.15348280697627
 20
13.27113434341683
 30
0.0
 40
8.0
100
AcDbArc
 50
165.5224878140701
 51
270.0
1001
GENIUS_GENOBJ-N-FIL_13
1002
{
1000
OWNER
1000
GEN
1002
}
1001
GENIUS_GENODEF_13
1002
{
1000
HIER
1070
     0
1002
}
1002
{
1000
MANEDIT
1070
     0
1002
}
1002
{
1000
NOSEL
1070
     0
1002
}
1002
{
1000
BEHIND
1070
     0
1002
}
1002
{
1000
OTHER
1070
     0
1002
}
1002
{
1000
REACTOR
1002
}
  0
LINE
  5
84C5
330
6A34
100
AcDbEntity
  8
4
100
AcDbLine
 10
26.12209364092441
 20
0.0000000000001279
 30
0.0
 11
46.15354011053039
 21
8.064920890471753
 31
0.0
  0
LINE
  5
84C6
330
6A34
100
AcDbEntity
  8
1
100
AcDbLine
 10
40.01999999999998
 20
8.360000000000042
 30
0.0
 11
40.01999999999998
 21
9.960000000000007
 31
0.0
  0
LINE
  5
84C7
330
6A34
100
AcDbEntity
  8
CUT
100
AcDbLine
 10
40.01999999999998
 20
8.360000000000042
 30
0.0
 11
40.01999999999998
 21
9.960000000000007
 31
0.0
  0
ARC
  5
84C8
330
6A34
100
AcDbEntity
  8
1
100
AcDbCircle
 10
40.41999999999995
 20
8.360000000000013
 30
0.0
 40
0.4
100
AcDbArc
 50
180.0
 51
270.0
1001
GENIUS_GENOBJ-N-FIL_13
1002
{
1000
OWNER
1000
GEN
1002
}
1001
GENIUS_GENODEF_13
1002
{
1000
HIER
1070
     0
1002
}
1002
{
1000
MANEDIT
1070
     0
1002
}
1002
{
1000
NOSEL
1070
     0
1002
}
1002
{
1000
BEHIND
1070
     0
1002
}
1002
{
1000
OTHER
1070
     0
1002
}
1002
{
1000
REACTOR
1002
}
  0
ARC
  5
84C9
330
6A34
100
AcDbEntity
  8
CUT
100
AcDbCircle
 10
40.41999999999995
 20
8.360000000000013
 30
0.0
 40
0.4
100
AcDbArc
 50
180.0
 51
270.0
1001
GENIUS_GENOBJ-N-FIL_13
1002
{
1000
OWNER
1000
GEN
1002
}
1001
GENIUS_GENODEF_13
1002
{
1000
HIER
1070
     0
1002
}
1002
{
1000
MANEDIT
1070
     0
1002
}
1002
{
1000
NOSEL
1070
     0
1002
}
1002
{
1000
BEHIND
1070
     0
1002
}
1002
{
1000
OTHER
1070
     0
1002
}
1002
{
1000
REACTOR
1002
}
  0
LINE
  5
84CA
330
6A34
100
AcDbEntity
  8
1
100
AcDbLine
 10
40.01999999999998
 20
9.960000000000036
 30
0.0
 11
40.76889018293274
 21
10.96
 31
0.0
  0
LINE
  5
84CB
330
6A34
100
AcDbEntity
  8
CUT
100
AcDbLine
 10
40.01999999999998
 20
9.960000000000036
 30
0.0
 11
40.76889018293274
 21
10.96
 31
0.0
  0
ARC
  5
84CC
330
6A34
100
AcDbEntity
  8
1
100
AcDbCircle
 10
41.96782146220891
 20
15.60000000000008
 30
0.0
 40
0.4
100
AcDbArc
 50
90.0
 51
170.3
1001
GENIUS_GENODEF_13
1002
{
1000
HIER
1070
     0
1002
}
1002
{
1000
MANEDIT
1070
     0
1002
}
1002
{
1000
NOSEL
1070
     0
1002
}
1002
{
1000
BEHIND
1070
     0
1002
}
1002
{
1000
OTHER
1070
     0
1002
}
1002
{
1000
REACTOR
1002
}
1001
GENIUS_GENOBJ-N-FIL_13
1002
{
1000
OWNER
1000
GEN
1002
}
  0
ARC
  5
84CD
330
6A34
100
AcDbEntity
  8
CUT
100
AcDbCircle
 10
41.96782146220891
 20
15.60000000000008
 30
0.0
 40
0.4
100
AcDbArc
 50
90.0
 51
170.3
1001
GENIUS_GENODEF_13
1002
{
1000
HIER
1070
     0
1002
}
1002
{
1000
MANEDIT
1070
     0
1002
}
1002
{
1000
NOSEL
1070
     0
1002
}
1002
{
1000
BEHIND
1070
     0
1002
}
1002
{
1000
OTHER
1070
     0
1002
}
1002
{
1000
REACTOR
1002
}
1001
GENIUS_GENOBJ-N-FIL_13
1002
{
1000
OWNER
1000
GEN
1002
}
  0
LINE
  5
84CE
330
6A34
100
AcDbEntity
  8
1
100
AcDbLine
 10
42.00999999999998
 20
16.0
 30
0.0
 11
54.60000000000001
 21
16.00000000000005
 31
0.0
  0
LINE
  5
84CF
330
6A34
100
AcDbEntity
  8
CUT
100
AcDbLine
 10
42.00999999999998
 20
16.0
 30
0.0
 11
54.60000000000001
 21
16.00000000000005
 31
0.0
  0
LINE
  5
84D0
330
6A34
100
AcDbEntity
  8
1
100
AcDbLine
 10
54.25110981706716
 20
13.0
 30
0.0
 11
53.4464599254266
 21
8.292604248173972
 31
0.0
  0
LINE
  5
84D1
330
6A34
100
AcDbEntity
  8
CUT
100
AcDbLine
 10
54.25110981706716
 20
13.0
 30
0.0
 11
53.4464599254266
 21
8.292604248173972
 31
0.0
  0
ARC
  5
84D2
330
6A34
100
AcDbEntity
  8
1
100
AcDbCircle
 10
53.05217853779105
 20
8.359999999999985
 30
0.0
 40
0.4
100
AcDbArc
 50
270.0
 51
350.3
1001
GENIUS_GENODEF_13
1002
{
1000
HIER
1070
     0
1002
}
1002
{
1000
MANEDIT
1070
     0
1002
}
1002
{
1000
NOSEL
1070
     0
1002
}
1002
{
1000
BEHIND
1070
     0
1002
}
1002
{
1000
OTHER
1070
     0
1002
}
1002
{
1000
REACTOR
1002
}
1001
GENIUS_GENOBJ-N-FIL_13
1002
{
1000
OWNER
1000
GEN
1002
}
  0
ARC
  5
84D3
330
6A34
100
AcDbEntity
  8
CUT
100
AcDbCircle
 10
53.05217853779105
 20
8.359999999999985
 30
0.0
 40
0.4
100
AcDbArc
 50
270.0
 51
350.3
1001
GENIUS_GENODEF_13
1002
{
1000
HIER
1070
     0
1002
}
1002
{
1000
MANEDIT
1070
     0
1002
}
1002
{
1000
NOSEL
1070
     0
1002
}
1002
{
1000
BEHIND
1070
     0
1002
}
1002
{
1000
OTHER
1070
     0
1002
}
1002
{
1000
REACTOR
1002
}
1001
GENIUS_GENOBJ-N-FIL_13
1002
{
1000
OWNER
1000
GEN
1002
}
  0
LINE
  5
84D4
330
6A34
100
AcDbEntity
  8
1
100
AcDbLine
 10
55.0
 20
14.00000000000005
 30
0.0
 11
54.25110981706723
 21
13.00000000000008
 31
0.0
  0
LINE
  5
84D5
330
6A34
100
AcDbEntity
  8
CUT
100
AcDbLine
 10
55.0
 20
14.00000000000005
 30
0.0
 11
54.25110981706723
 21
13.00000000000008
 31
0.0
  0
LINE
  5
84D6
330
6A34
100
AcDbEntity
  8
1
100
AcDbLine
 10
55.0
 20
15.60000000000005
 30
0.0
 11
55.0
 21
14.00000000000008
 31
0.0
  0
LINE
  5
84D7
330
6A34
100
AcDbEntity
  8
CUT
100
AcDbLine
 10
55.0
 20
15.60000000000005
 30
0.0
 11
55.0
 21
14.00000000000008
 31
0.0
  0
ARC
  5
84D8
330
6A34
100
AcDbEntity
  8
1
100
AcDbCircle
 10
54.60000000000001
 20
15.60000000000005
 30
0.0
 40
0.4
100
AcDbArc
 50
0.0
 51
90.0
1001
GENIUS_GENOBJ-N-FIL_13
1002
{
1000
OWNER
1000
GEN
1002
}
1001
GENIUS_GENODEF_13
1002
{
1000
HIER
1070
     0
1002
}
1002
{
1000
MANEDIT
1070
     0
1002
}
1002
{
1000
NOSEL
1070
     0
1002
}
1002
{
1000
BEHIND
1070
     0
1002
}
1002
{
1000
OTHER
1070
     0
1002
}
1002
{
1000
REACTOR
1002
}
  0
ARC
  5
84D9
330
6A34
100
AcDbEntity
  8
CUT
100
AcDbCircle
 10
54.60000000000001
 20
15.60000000000005
 30
0.0
 40
0.4
100
AcDbArc
 50
0.0
 51
90.0
1001
GENIUS_GENOBJ-N-FIL_13
1002
{
1000
OWNER
1000
GEN
1002
}
1001
GENIUS_GENODEF_13
1002
{
1000
HIER
1070
     0
1002
}
1002
{
1000
MANEDIT
1070
     0
1002
}
1002
{
1000
NOSEL
1070
     0
1002
}
1002
{
1000
BEHIND
1070
     0
1002
}
1002
{
1000
OTHER
1070
     0
1002
}
1002
{
1000
REACTOR
1002
}
  0
TEXT
  5
852F
330
6A34
100
AcDbEntity
  8
6
100
AcDbText
 10
61.16740790164067
 20
21.47931307552562
 30
0.0
 40
2.5
  1
BCKT130404R
100
AcDbText
  0
LINE
  5
8565
330
6A34
100
AcDbEntity
  8
AM_5
100
AcDbLine
 10
42.5
 20
16.0
 30
0.0
 11
42.5
 21
18.68921801078897
 31
0.0
  0
DIMENSION
  5
857C
330
6A34
100
AcDbEntity
  8
2
100
AcDbDimension
  2
*D7
 10
55.0
 20
45.03381914312868
 30
0.0
 11
48.75
 21
48.28416363131766
 31
0.0
 70
    32
  3
AM_DIN
100
AcDbAlignedDimension
 13
42.5
 23
16.0
 33
0.0
 14
55.0
 24
16.00000000000005
 34
0.0
 50
0.0000000000002659
100
AcDbRotatedDimension
  0
ENDSEC
  0
SECTION
  2
OBJECTS
  0
DICTIONARY
  5
6A22
330
0
100
AcDbDictionary
  3
ACAD_GROUP
350
6A23
  3
ACAD_LAYOUT
350
6A2F
  3
ACAD_MLINESTYLE
350
6A2C
  3
ACAD_PLOTSETTINGS
350
6A2E
  3
ACAD_PLOTSTYLENAME
350
6A24
  3
ACDBHEADERROUNDTRIPXREC
350
85C7
  3
ACDBVARIABLEDICTIONARY
350
6B78
  3
ACMDICTIONARY
350
6B39
  3
AMG
350
6B22
  3
AMGSNAPSETTINGS
350
6B59
  3
DWGPROPS
350
854D
  0
DICTIONARY
  5
6B62
330
6A34
100
AcDbDictionary
280
     1
  3
ACAD_INDEX
360
6B63
  3
ACAD_LAYOUTSELFREF
360
85EA
  0
DICTIONARY
  5
85E8
330
6A30
100
AcDbDictionary
280
     1
  3
ACAD_LAYOUTSELFREF
360
85E9
  0
DICTIONARY
  5
6A23
102
{ACAD_REACTORS
330
6A22
102
}
330
6A22
100
AcDbDictionary
  0
DICTIONARY
  5
6A2F
102
{ACAD_REACTORS
330
6A22
102
}
330
6A22
100
AcDbDictionary
  0
DICTIONARY
  5
6A2C
102
{ACAD_REACTORS
330
6A22
102
}
330
6A22
100
AcDbDictionary
  3
STANDARD
350
6A2D
  0
DICTIONARY
  5
6A2E
102
{ACAD_REACTORS
330
6A22
102
}
330
6A22
100
AcDbDictionary
  0
ACDBDICTIONARYWDFLT
  5
6A24
102
{ACAD_REACTORS
330
6A22
102
}
330
6A22
100
AcDbDictionary
281
     1
  3
Normal
350
6A25
100
AcDbDictionaryWithDefault
340
6A25
  0
DICTIONARY
  5
85C7
102
{ACAD_REACTORS
330
6A22
102
}
330
6A22
100
AcDbDictionary
  3
CEPSNTYPE
350
85D1
  3
DIMSTYLEDATA
350
85D5
  3
FINGERPRINTGUID
350
85D2
  3
HYPERLINKBASE
350
85CA
  3
INSUNITS
350
85D0
  3
LAYOUTDICT
350
85CC
  3
LWETCUNION
350
85CF
  3
PLOTSETDICT
350
85CD
  3
PLOTSTYLNAMDICT
350
85CE
  3
PSVPSCALE
350
85D4
  3
PUCSBASE
350
85D8
  3
PUCSORGBACK
350
85DE
  3
PUCSORGBOTTOM
350
85DA
  3
PUCSORGFRONT
350
85DD
  3
PUCSORGLEFT
350
85DB
  3
PUCSORGRIGHT
350
85DC
  3
PUCSORGTOP
350
85D9
  3
PUCSORTHOREF
350
85D6
  3
PUCSORTHOVIEW
350
85D7
  3
STYLESHEET
350
85CB
  3
TSTACKALIGN
350
85C8
  3
TSTACKSIZE
350
85C9
  3
UCSBASE
350
85E1
  3
UCSORGBACK
350
85E7
  3
UCSORGBOTTOM
350
85E3
  3
UCSORGFRONT
350
85E6
  3
UCSORGLEFT
350
85E4
  3
UCSORGRIGHT
350
85E5
  3
UCSORGTOP
350
85E2
  3
UCSORTHOREF
350
85DF
  3
UCSORTHOVIEW
350
85E0
  3
VERSIONGUID
350
85D3
  0
DICTIONARY
  5
6B78
102
{ACAD_REACTORS
330
6A22
102
}
330
6A22
100
AcDbDictionary
  3
DIMASSOC
350
6B7A
  3
INDEXCTL
350
6B79
  0
DICTIONARY
  5
6B39
102
{ACAD_REACTORS
330
6A22
102
}
330
6A22
100
AcDbDictionary
  3
ACMSTDDICTIONARY
350
6B3F
  0
DICTIONARY
  5
6B22
102
{ACAD_REACTORS
330
6A22
102
}
330
6A22
100
AcDbDictionary
  3
ACMGSETTINGS
350
6B23
  0
DICTIONARY
  5
6B59
102
{ACAD_REACTORS
330
6A22
102
}
330
6A22
100
AcDbDictionary
  0
XRECORD
  5
854D
102
{ACAD_REACTORS
330
6A22
102
}
330
6A22
100
AcDbXrecord
  1
DWGPROPS COOKIE
  2

  3

  4

  6

  7

  8

  9

300
AmdtFileType=84
301
=
302
=
303
=
304
=
305
=
306
=
307
=
308
=
309
=
 40
0.1443530092592593
 41
2453447.471737477
 42
2453595.343427129
  1

 90
        1
  0
DICTIONARY
  5
6B63
102
{ACAD_REACTORS
330
6B62
102
}
330
6B62
100
AcDbDictionary
  3
*A1
350
6B64
  0
XRECORD
  5
85EA
102
{ACAD_REACTORS
330
6B62
102
}
330
6B62
100
AcDbXrecord
340
6A34
  0
XRECORD
  5
85E9
102
{ACAD_REACTORS
330
85E8
102
}
330
85E8
100
AcDbXrecord
340
6A30
  0
MLINESTYLE
  5
6A2D
102
{ACAD_REACTORS
330
6A2C
102
}
330
6A2C
100
AcDbMlineStyle
  2
STANDARD
 70
     0
  3

 62
   256
 51
90.0
 52
90.0
 71
     2
 49
0.5
 62
   256
  6
BYLAYER
 49
-0.5
 62
   256
  6
BYLAYER
  0
ACDBPLACEHOLDER
  5
6A25
102
{ACAD_REACTORS
330
6A24
102
}
330
6A24
100
AcDbPlaceHolder
280
     0
  0
XRECORD
  5
85D1
102
{ACAD_REACTORS
330
85C7
102
}
330
85C7
100
AcDbXrecord
 90
        0
  0
XRECORD
  5
85D5
102
{ACAD_REACTORS
330
85C7
102
}
330
85C7
100
AcDbXrecord
1000
DSTYLE
1002
{
1070
   279
 70
     2
1002
}
  0
XRECORD
  5
85D2
102
{ACAD_REACTORS
330
85C7
102
}
330
85C7
100
AcDbXrecord
  1
{5E8163B8-4D8F-4110-B677-A6458ADDE735}
  0
XRECORD
  5
85CA
102
{ACAD_REACTORS
330
85C7
102
}
330
85C7
100
AcDbXrecord
  1

  0
XRECORD
  5
85D0
102
{ACAD_REACTORS
330
85C7
102
}
330
85C7
100
AcDbXrecord
 90
        4
  0
XRECORD
  5
85CC
102
{ACAD_REACTORS
330
85C7
102
}
330
85C7
100
AcDbXrecord
340
6A2F
  0
XRECORD
  5
85CF
102
{ACAD_REACTORS
330
85C7
102
}
330
85C7
100
AcDbXrecord
 90
    10781
  0
XRECORD
  5
85CD
102
{ACAD_REACTORS
330
85C7
102
}
330
85C7
100
AcDbXrecord
340
6A2E
  0
XRECORD
  5
85CE
102
{ACAD_REACTORS
330
85C7
102
}
330
85C7
100
AcDbXrecord
340
6A24
  0
XRECORD
  5
85D4
102
{ACAD_REACTORS
330
85C7
102
}
330
85C7
100
AcDbXrecord
 40
0.0
  0
XRECORD
  5
85D8
102
{ACAD_REACTORS
330
85C7
102
}
330
85C7
100
AcDbXrecord
340
0
  0
XRECORD
  5
85DE
102
{ACAD_REACTORS
330
85C7
102
}
330
85C7
100
AcDbXrecord
 10
0.0
 20
0.0
 30
0.0
  0
XRECORD
  5
85DA
102
{ACAD_REACTORS
330
85C7
102
}
330
85C7
100
AcDbXrecord
 10
0.0
 20
0.0
 30
0.0
  0
XRECORD
  5
85DD
102
{ACAD_REACTORS
330
85C7
102
}
330
85C7
100
AcDbXrecord
 10
0.0
 20
0.0
 30
0.0
  0
XRECORD
  5
85DB
102
{ACAD_REACTORS
330
85C7
102
}
330
85C7
100
AcDbXrecord
 10
0.0
 20
0.0
 30
0.0
  0
XRECORD
  5
85DC
102
{ACAD_REACTORS
330
85C7
102
}
330
85C7
100
AcDbXrecord
 10
0.0
 20
0.0
 30
0.0
  0
XRECORD
  5
85D9
102
{ACAD_REACTORS
330
85C7
102
}
330
85C7
100
AcDbXrecord
 10
0.0
 20
0.0
 30
0.0
  0
XRECORD
  5
85D6
102
{ACAD_REACTORS
330
85C7
102
}
330
85C7
100
AcDbXrecord
340
0
  0
XRECORD
  5
85D7
102
{ACAD_REACTORS
330
85C7
102
}
330
85C7
100
AcDbXrecord
 70
     0
  0
XRECORD
  5
85CB
102
{ACAD_REACTORS
330
85C7
102
}
330
85C7
100
AcDbXrecord
  1

  0
XRECORD
  5
85C8
102
{ACAD_REACTORS
330
85C7
102
}
330
85C7
100
AcDbXrecord
 90
        1
  0
XRECORD
  5
85C9
102
{ACAD_REACTORS
330
85C7
102
}
330
85C7
100
AcDbXrecord
 90
       70
  0
XRECORD
  5
85E1
102
{ACAD_REACTORS
330
85C7
102
}
330
85C7
100
AcDbXrecord
340
0
  0
XRECORD
  5
85E7
102
{ACAD_REACTORS
330
85C7
102
}
330
85C7
100
AcDbXrecord
 10
0.0
 20
0.0
 30
0.0
  0
XRECORD
  5
85E3
102
{ACAD_REACTORS
330
85C7
102
}
330
85C7
100
AcDbXrecord
 10
0.0
 20
0.0
 30
0.0
  0
XRECORD
  5
85E6
102
{ACAD_REACTORS
330
85C7
102
}
330
85C7
100
AcDbXrecord
 10
0.0
 20
0.0
 30
0.0
  0
XRECORD
  5
85E4
102
{ACAD_REACTORS
330
85C7
102
}
330
85C7
100
AcDbXrecord
 10
0.0
 20
0.0
 30
0.0
  0
XRECORD
  5
85E5
102
{ACAD_REACTORS
330
85C7
102
}
330
85C7
100
AcDbXrecord
 10
0.0
 20
0.0
 30
0.0
  0
XRECORD
  5
85E2
102
{ACAD_REACTORS
330
85C7
102
}
330
85C7
100
AcDbXrecord
 10
0.0
 20
0.0
 30
0.0
  0
XRECORD
  5
85DF
102
{ACAD_REACTORS
330
85C7
102
}
330
85C7
100
AcDbXrecord
340
0
  0
XRECORD
  5
85E0
102
{ACAD_REACTORS
330
85C7
102
}
330
85C7
100
AcDbXrecord
 70
     0
  0
XRECORD
  5
85D3
102
{ACAD_REACTORS
330
85C7
102
}
330
85C7
100
AcDbXrecord
  1
{3AB01B82-DF7E-4BBF-B433-633A86DB13EE}
  0
DICTIONARYVAR
  5
6B7A
102
{ACAD_REACTORS
330
6B78
102
}
330
6B78
100
DictionaryVariables
280
     0
  1
1
  0
DICTIONARYVAR
  5
6B79
102
{ACAD_REACTORS
330
6B78
102
}
330
6B78
100
DictionaryVariables
280
     0
  1
1
  0
DICTIONARY
  5
6B3F
102
{ACAD_REACTORS
330
6B39
102
}
330
6B39
100
AcDbDictionary
  0
DICTIONARY
  5
6B23
102
{ACAD_REACTORS
330
6B22
102
}
330
6B22
100
AcDbDictionary
  3
DWGSETTINGS
350
6B24
  0
LAYER_INDEX
  5
6B64
102
{ACAD_REACTORS
330
6B63
102
}
330
6B63
100
AcDbIndex
 40
2453609.658864097
100
AcDbLayerIndex
  8
0
360
6B65
 90
        0
  8
DEFPOINTS
360
6B68
 90
        0
  8
1
360
6B69
 90
       33
  8
2
360
6B6A
 90
        4
  8
SK1
360
6B70
 90
       29
  8
SK2
360
6B71
 90
        3
  8
SK3
360
6B72
 90
       27
  8
SK4
360
6B73
 90
        4
  8
NOCUT
360
6B75
 90
        8
  8
4
360
712F
 90
        2
  8
6
360
7130
 90
        3
  8
CUT
360
7131
 90
       13
  8
SK6
360
742E
 90
        1
  8
AM_5
360
85C4
 90
        1
  0
XRECORD
  5
6B24
102
{ACAD_REACTORS
330
6B23
102
}
330
6B23
100
AcDbXrecord
  1
VERSION
140
15.0
  1
PRODUCT
  2
AutoCAD Mechanical 2000
  0
IDBUFFER
  5
6B65
330
0
100
AcDbIdBuffer
  0
IDBUFFER
  5
6B68
330
0
100
AcDbIdBuffer
  0
IDBUFFER
  5
6B69
330
0
100
AcDbIdBuffer
330
6E60
330
6E63
330
6E94
330
6E95
330
6E96
330
6E97
330
6E98
330
6E99
330
7ECE
330
7ED2
330
7EE6
330
8435
330
8436
330
8437
330
8438
330
8439
330
843A
330
843B
330
84BD
330
84BF
330
84C0
330
84C3
330
84C4
330
84C6
330
84C8
330
84CA
330
84CC
330
84CE
330
84D0
330
84D2
330
84D4
330
84D6
330
84D8
  0
IDBUFFER
  5
6B6A
330
0
100
AcDbIdBuffer
330
857C
330
7F16
330
8022
330
8063
  0
IDBUFFER
  5
6B70
330
0
100
AcDbIdBuffer
330
6E59
330
6E5D
330
6E5E
330
6E5F
330
6E65
330
6E66
330
6E68
330
6E69
330
6E6A
330
6E6B
330
6E6C
330
6E6D
330
6E6E
330
6E6F
330
6E70
330
6E71
330
6E76
330
6E77
330
6E7A
330
6E8E
330
6E91
330
6E92
330
6E93
330
7EDC
330
7EDD
330
7EDE
330
7F0D
330
7F0E
330
7F0F
  0
IDBUFFER
  5
6B71
330
0
100
AcDbIdBuffer
330
6E8F
330
6E90
330
73F1
  0
IDBUFFER
  5
6B72
330
0
100
AcDbIdBuffer
330
843C
330
843D
330
843E
330
6E7B
330
6E7C
330
6E7E
330
6E7F
330
6E80
330
6E81
330
6E83
330
6E84
330
6E85
330
6E86
330
6E87
330
6E88
330
6E89
330
6E8B
330
6E8C
330
6E8D
330
842D
330
842E
330
842F
330
8430
330
8431
330
8432
330
8433
330
8434
  0
IDBUFFER
  5
6B73
330
0
100
AcDbIdBuffer
330
6E79
330
6E7D
330
6E82
330
6E8A
  0
IDBUFFER
  5
6B75
330
0
100
AcDbIdBuffer
330
717D
330
717E
330
717F
330
7180
330
7181
330
7EC8
330
7ED1
330
8080
  0
IDBUFFER
  5
712F
330
0
100
AcDbIdBuffer
330
7B96
330
84C5
  0
IDBUFFER
  5
7130
330
0
100
AcDbIdBuffer
330
852F
330
70AF
330
7F12
  0
IDBUFFER
  5
7131
330
0
100
AcDbIdBuffer
330
84BE
330
84C1
330
84C2
330
84C7
330
84C9
330
84CB
330
84CD
330
84CF
330
84D1
330
84D3
330
84D5
330
84D7
330
84D9
  0
IDBUFFER
  5
742E
330
0
100
AcDbIdBuffer
330
73D1
  0
IDBUFFER
  5
85C4
330
0
100
AcDbIdBuffer
330
8565
  0
ENDSEC
  0
EOF
