  0
SECTION
  2
HEADER
  9
$ACADVER
  1
AC1014
  9
$ACADMAINTVER
 70
     9
  9
$DWGCODEPAGE
  3
ANSI_1252
  9
$INSBASE
 10
0.0
 20
0.0
 30
0.0
  9
$EXTMIN
 10
-80.93922880744878
 20
-39.05243822480576
 30
-0.0000000000000058
  9
$EXTMAX
 10
131.0791055050722
 20
79.83089330520113
 30
0.0000000000000104
  9
$LIMMIN
 10
0.0
 20
0.0
  9
$LIMMAX
 10
210.0
 20
297.0
  9
$ORTHOMODE
 70
     0
  9
$REGENMODE
 70
     1
  9
$FILLMODE
 70
     1
  9
$QTEXTMODE
 70
     0
  9
$MIRRTEXT
 70
     1
  9
$DRAGMODE
 70
     2
  9
$LTSCALE
 40
1.0
  9
$OSMODE
 70
  2599
  9
$ATTMODE
 70
     1
  9
$TEXTSIZE
 40
2.5
  9
$TRACEWID
 40
1.0
  9
$TEXTSTYLE
  7
STANDARD
  9
$CLAYER
  8
0
  9
$CELTYPE
  6
BYLAYER
  9
$CECOLOR
 62
   256
  9
$CELTSCALE
 40
1.0
  9
$DELOBJ
 70
     1
  9
$DISPSILH
 70
     0
  9
$DIMSCALE
 40
1.0
  9
$DIMASZ
 40
2.5
  9
$DIMEXO
 40
0.0
  9
$DIMDLI
 40
10.0
  9
$DIMRND
 40
0.0
  9
$DIMDLE
 40
0.0
  9
$DIMEXE
 40
1.0
  9
$DIMTP
 40
0.1
  9
$DIMTM
 40
0.1
  9
$DIMTXT
 40
3.5
  9
$DIMCEN
 40
0.0
  9
$DIMTSZ
 40
0.0
  9
$DIMTOL
 70
     0
  9
$DIMLIM
 70
     0
  9
$DIMTIH
 70
     0
  9
$DIMTOH
 70
     0
  9
$DIMSE1
 70
     0
  9
$DIMSE2
 70
     0
  9
$DIMTAD
 70
     1
  9
$DIMZIN
 70
     8
  9
$DIMBLK
  1

  9
$DIMASO
 70
     1
  9
$DIMSHO
 70
     1
  9
$DIMPOST
  1

  9
$DIMAPOST
  1
"
  9
$DIMALT
 70
     0
  9
$DIMALTD
 70
     2
  9
$DIMALTF
 40
0.0393701
  9
$DIMLFAC
 40
1.0
  9
$DIMTOFL
 70
     1
  9
$DIMTVP
 40
0.0
  9
$DIMTIX
 70
     0
  9
$DIMSOXD
 70
     0
  9
$DIMSAH
 70
     0
  9
$DIMBLK1
  1

  9
$DIMBLK2
  1

  9
$DIMSTYLE
  2
AM_DIN
  9
$DIMCLRD
 70
   256
  9
$DIMCLRE
 70
   256
  9
$DIMCLRT
 70
     2
  9
$DIMTFAC
 40
0.71
  9
$DIMGAP
 40
1.5
  9
$DIMJUST
 70
     0
  9
$DIMSD1
 70
     0
  9
$DIMSD2
 70
     0
  9
$DIMTOLJ
 70
     1
  9
$DIMTZIN
 70
     8
  9
$DIMALTZ
 70
     8
  9
$DIMALTTZ
 70
     8
  9
$DIMFIT
 70
     5
  9
$DIMUPT
 70
     0
  9
$DIMUNIT
 70
     2
  9
$DIMDEC
 70
     2
  9
$DIMTDEC
 70
     2
  9
$DIMALTU
 70
     2
  9
$DIMALTTD
 70
     2
  9
$DIMTXSTY
  7
STANDARD
  9
$DIMAUNIT
 70
     0
  9
$LUNITS
 70
     2
  9
$LUPREC
 70
     2
  9
$SKETCHINC
 40
1.0
  9
$FILLETRAD
 40
2.5
  9
$AUNITS
 70
     0
  9
$AUPREC
 70
     0
  9
$MENU
  1
.
  9
$ELEVATION
 40
0.0
  9
$PELEVATION
 40
0.0
  9
$THICKNESS
 40
0.0
  9
$LIMCHECK
 70
     0
  9
$BLIPMODE
 70
     0
  9
$CHAMFERA
 40
2.5
  9
$CHAMFERB
 40
2.5
  9
$CHAMFERC
 40
0.0
  9
$CHAMFERD
 40
0.0
  9
$SKPOLY
 70
     0
  9
$TDCREATE
 40
2453447.471737477
  9
$TDUPDATE
 40
2453588.421933854
  9
$TDINDWG
 40
0.1220374653
  9
$TDUSRTIMER
 40
0.1220131250
  9
$USRTIMER
 70
     1
  9
$ANGBASE
 50
0.0
  9
$ANGDIR
 70
     0
  9
$PDMODE
 70
     0
  9
$PDSIZE
 40
0.0
  9
$PLINEWID
 40
0.0
  9
$COORDS
 70
     0
  9
$SPLFRAME
 70
     0
  9
$SPLINETYPE
 70
     6
  9
$SPLINESEGS
 70
     8
  9
$ATTDIA
 70
     1
  9
$ATTREQ
 70
     1
  9
$HANDLING
 70
 22529
  9
$HANDSEED
  5
7A81
  9
$SURFTAB1
 70
     6
  9
$SURFTAB2
 70
     6
  9
$SURFTYPE
 70
     6
  9
$SURFU
 70
     6
  9
$SURFV
 70
     6
  9
$UCSNAME
  2

  9
$UCSORG
 10
0.0
 20
0.0
 30
0.0
  9
$UCSXDIR
 10
1.0
 20
0.0
 30
0.0
  9
$UCSYDIR
 10
0.0
 20
1.0
 30
0.0
  9
$PUCSNAME
  2

  9
$PUCSORG
 10
0.0
 20
0.0
 30
0.0
  9
$PUCSXDIR
 10
1.0
 20
0.0
 30
0.0
  9
$PUCSYDIR
 10
0.0
 20
1.0
 30
0.0
  9
$USERI1
 70
     0
  9
$USERI2
 70
     0
  9
$USERI3
 70
     0
  9
$USERI4
 70
     0
  9
$USERI5
 70
     0
  9
$USERR1
 40
0.0
  9
$USERR2
 40
0.0
  9
$USERR3
 40
0.0
  9
$USERR4
 40
0.0
  9
$USERR5
 40
0.0
  9
$WORLDVIEW
 70
     1
  9
$SHADEDGE
 70
     3
  9
$SHADEDIF
 70
    70
  9
$TILEMODE
 70
     1
  9
$MAXACTVP
 70
    64
  9
$PINSBASE
 10
0.0
 20
0.0
 30
0.0
  9
$PLIMCHECK
 70
     0
  9
$PEXTMIN
 10
1.000000000000000E+20
 20
1.000000000000000E+20
 30
1.000000000000000E+20
  9
$PEXTMAX
 10
-1.000000000000000E+20
 20
-1.000000000000000E+20
 30
-1.000000000000000E+20
  9
$PLIMMIN
 10
0.0
 20
0.0
  9
$PLIMMAX
 10
420.0
 20
297.0
  9
$UNITMODE
 70
     0
  9
$VISRETAIN
 70
     1
  9
$PLINEGEN
 70
     0
  9
$PSLTSCALE
 70
     1
  9
$TREEDEPTH
 70
  3020
  9
$PICKSTYLE
 70
     0
  9
$CMLSTYLE
  2
STANDARD
  9
$CMLJUST
 70
     0
  9
$CMLSCALE
 40
1.0
  9
$PROXYGRAPHICS
 70
     1
  9
$MEASUREMENT
 70
     1
  0
ENDSEC
  0
SECTION
  2
CLASSES
  0
CLASS
  1
ACDBDICTIONARYWDFLT
  2
AcDbDictionaryWithDefault
  3
AutoCAD 2000
 90
        0
280
     0
281
     0
  0
CLASS
  1
ACDBPLACEHOLDER
  2
AcDbPlaceHolder
  3
AutoCAD 2000
 90
        0
280
     0
281
     0
  0
CLASS
  1
LAYOUT
  2
AcDbLayout
  3
AutoCAD 2000
 90
        0
280
     0
281
     0
  0
CLASS
  1
AMGSETTINGSOBJ
  2
AmgSettingsObj
  3
"AcadM|Product Description: AutoCAD Mechanical 2000|Company: Autodesk"
 90
        0
280
     0
281
     0
  0
CLASS
  1
ACME_DOCUMENT
  2
AcMeDbDoc
  3
AcMeServices
 90
        0
280
     0
281
     0
  0
CLASS
  1
ACMESCOPE
  2
AcMeScope
  3
AcMeServices
 90
        0
280
     0
281
     0
  0
CLASS
  1
ACMECOMMANDHISTORY
  2
AcMeCommandHistory
  3
AcMeServices
 90
        0
280
     0
281
     0
  0
CLASS
  1
ACIMSYSVARMAN
  2
AcImSysVarManager
  3
AcMeServices
 90
        0
280
     0
281
     0
  0
CLASS
  1
ACIMREALSYSVAR
  2
AcImRealSysVar
  3
AcMeServices
 90
        0
280
     0
281
     0
  0
CLASS
  1
ACIMINTSYSVAR
  2
AcImIntSysVar
  3
AcMeServices
 90
        0
280
     0
281
     0
  0
CLASS
  1
ACMEDRAWINGMAN
  2
AcMeDrawingMan
  3
AcMeServices
 90
        0
280
     0
281
     0
  0
CLASS
  1
ACMEVIEW
  2
AcMeView
  3
AcMeServices
 90
        0
280
     0
281
     0
  0
CLASS
  1
ACDBENTITYCACHE
  2
AcMeEntityCache
  3
AcMeServices
 90
        0
280
     0
281
     0
  0
CLASS
  1
GSMANAGER
  2
AcMeGSManager
  3
AcMeServices
 90
        0
280
     0
281
     0
  0
CLASS
  1
AMDTINTERNALREACTOR
  2
AmdtInternalReactor
  3
AcMeServices
 90
        0
280
     0
281
     0
  0
CLASS
  1
ACMESTATEMGR
  2
AcMeStateMgr
  3
AcMeServices
 90
        0
280
     0
281
     0
  0
CLASS
  1
ACGREFMASTER
  2
AcGrefMaster
  3
AcAttribServices
 90
        0
280
     0
281
     0
  0
CLASS
  1
ACME_DATABASE
  2
AcMeDbDatabase
  3
AcMeServices
 90
        0
280
     0
281
     0
  0
CLASS
  1
ACRFINSADJUSTERMGR
  2
AcRfInsAdjusterMgr
  3
AcMeServices
 90
        0
280
     0
281
     0
  0
CLASS
  1
ACGREFACADMASTER
  2
AcGrefacadMaster
  3
AcGrefServices
 90
        0
280
     0
281
     0
  0
CLASS
  1
AMIMASTER
  2
AmiMaster
  3
AmiServices
 90
        0
280
     0
281
     0
  0
CLASS
  1
ACMDATADICTIONARY
  2
AcmDataDictionary
  3
"AcmSymBB|Product Description: AutoCAD Mechanical 2000|Company: Autodesk"
 90
        0
280
     0
281
     0
  0
CLASS
  1
ACMDATAENTRYBLOCK
  2
AcmDataEntryBlock
  3
"AcmSymBB|Product Description: AutoCAD Mechanical 2000|Company: Autodesk"
 90
        0
280
     0
281
     0
  0
CLASS
  1
ACIMSTRSYSVAR
  2
AcImStrSysVar
  3
AcMeServices
 90
        0
280
     0
281
     0
  0
CLASS
  1
ACMSTANDARDANSI
  2
AcmStandardANSI
  3
"Amdt_StdImp|Product Description: AutoCAD Mechanical 2000|Company: Autodesk"
 90
        0
280
     0
281
     0
  0
CLASS
  1
AMGOBJPROPCFG
  2
AmgObjPropCfg
  3
"AmgLay|Product Description: AutoCAD Mechanical 2000|Company: Autodesk"
 90
        1
280
     0
281
     0
  0
CLASS
  1
ACMSURFSTANDARDANSI
  2
AcmSurfTextStdANSI
  3
"Amdt_StdImp|Product Description: AutoCAD Mechanical 2000|Company: Autodesk"
 90
        0
280
     0
281
     0
  0
CLASS
  1
ACMFCFSTANDARDANSI
  2
AcmFCFStdANSI
  3
"Amdt_StdImp|Product Description: AutoCAD Mechanical 2000|Company: Autodesk"
 90
        0
280
     0
281
     0
  0
CLASS
  1
ACMWELDSTANDARDANSI
  2
AcmWeldingStdANSI
  3
"Amdt_StdImp|Product Description: AutoCAD Mechanical 2000|Company: Autodesk"
 90
        0
280
     0
281
     0
  0
CLASS
  1
ACMIDSTANDARDANSI
  2
AcmIdStdANSI
  3
"Amdt_StdImp|Product Description: AutoCAD Mechanical 2000|Company: Autodesk"
 90
        0
280
     0
281
     0
  0
CLASS
  1
ACMDATUMSTANDARDANSI
  2
AcmDatumStdANSI
  3
"Amdt_StdImp|Product Description: AutoCAD Mechanical 2000|Company: Autodesk"
 90
        0
280
     0
281
     0
  0
CLASS
  1
ACMBOMSTANDARDANSI
  2
AcmBOMStdANSI
  3
"Amdt_StdImp|Product Description: AutoCAD Mechanical 2000|Company: Autodesk"
 90
        0
280
     0
281
     0
  0
CLASS
  1
ACMDETAILSTANDARDANSI
  2
AmdtDetailSymStdANSI
  3
"Amdt_StdImp|Product Description: AutoCAD Mechanical 2000|Company: Autodesk"
 90
        0
280
     0
281
     0
  0
CLASS
  1
ACMSECTIONSTANDARDANSI
  2
AmdtSectionSymStdANSI
  3
"Amdt_StdImp|Product Description: AutoCAD Mechanical 2000|Company: Autodesk"
 90
        0
280
     0
281
     0
  0
CLASS
  1
ACMCENTERLINESTANDARDANSI
  2
AmdtCenterLineStdANSI
  3
"Amdt_StdImp|Product Description: AutoCAD Mechanical 2000|Company: Autodesk"
 90
        0
280
     0
281
     0
  0
CLASS
  1
ACMNOTESTANDARDANSI
  2
AmdtNoteStdANSI
  3
"Amdt_StdImp|Product Description: AutoCAD Mechanical 2000|Company: Autodesk"
 90
        0
280
     0
281
     0
  0
CLASS
  1
ACAMGLAYSTD
  2
AcAmgLayStd
  3
"AcAmgLayStd|Product Description: AutoCAD Mechanical 2000|Company: Autodesk"
 90
        0
280
     0
281
     0
  0
CLASS
  1
ACAMGDIMSTD
  2
AcAmgDimStd
  3
"AcAmgDimStd|Product Description: AutoCAD Mechanical 2000|Company: Autodesk"
 90
        0
280
     0
281
     0
  0
CLASS
  1
ACAMGHOLECHARTSTDANSI
  2
AcAmgHoleChartStdANSI
  3
ACMSYMBB_MODULE_NAME
 90
        0
280
     0
281
     0
  0
CLASS
  1
ACAMGTITLESTD
  2
AcAmgTitleStd
  3
"TITLEAPP"
 90
        0
280
     0
281
     0
  0
CLASS
  1
ACAMGFILTERDAT
  2
AcAmgFilterDat
  3
"AcadM|Product Description: AutoCAD Mechanical 2000|Company: Autodesk"
 90
        0
280
     0
281
     0
  0
CLASS
  1
LAYER_INDEX
  2
AcDbLayerIndex
  3
AutoCAD 2000
 90
        0
280
     0
281
     0
  0
CLASS
  1
IDBUFFER
  2
AcDbIdBuffer
  3
AutoCAD 2000
 90
        0
280
     0
281
     0
  0
CLASS
  1
DICTIONARYVAR
  2
AcDbDictionaryVar
  3
AutoCAD 2000
 90
        0
280
     0
281
     0
  0
CLASS
  1
ACMSTANDARDDIN
  2
AcmStandardDIN
  3
"Amdt_StdImp|Product Description: AutoCAD Mechanical 2000|Company: Autodesk"
 90
        0
280
     0
281
     0
  0
CLASS
  1
AMDTEDGESTANDARDDIN
  2
AmdtEdgeStdDIN
  3
"Amdt_StdImp|Product Description: AutoCAD Mechanical 2000|Company: Autodesk"
 90
        0
280
     0
281
     0
  0
CLASS
  1
ACMSURFSTANDARDDIN
  2
AcmSurfTextStdDIN
  3
"Amdt_StdImp|Product Description: AutoCAD Mechanical 2000|Company: Autodesk"
 90
        0
280
     0
281
     0
  0
CLASS
  1
ACMFCFSTANDARDDIN
  2
AcmFCFStdDIN
  3
"Amdt_StdImp|Product Description: AutoCAD Mechanical 2000|Company: Autodesk"
 90
        0
280
     0
281
     0
  0
CLASS
  1
ACMWELDSTANDARDDIN
  2
AcmWeldingStdDIN
  3
"Amdt_StdImp|Product Description: AutoCAD Mechanical 2000|Company: Autodesk"
 90
        0
280
     0
281
     0
  0
CLASS
  1
ACMIDSTANDARDDIN
  2
AcmIdStdDIN
  3
"Amdt_StdImp|Product Description: AutoCAD Mechanical 2000|Company: Autodesk"
 90
        0
280
     0
281
     0
  0
CLASS
  1
ACMDATUMSTANDARDDIN
  2
AcmDatumStdDIN
  3
"Amdt_StdImp|Product Description: AutoCAD Mechanical 2000|Company: Autodesk"
 90
        0
280
     0
281
     0
  0
CLASS
  1
ACMBOMSTANDARDDIN
  2
AcmBOMStdDIN
  3
"Amdt_StdImp|Product Description: AutoCAD Mechanical 2000|Company: Autodesk"
 90
        0
280
     0
281
     0
  0
CLASS
  1
ACMDETAILSTANDARDDIN
  2
AmdtDetailSymStdDIN
  3
"Amdt_StdImp|Product Description: AutoCAD Mechanical 2000|Company: Autodesk"
 90
        0
280
     0
281
     0
  0
CLASS
  1
ACMSECTIONSTANDARDDIN
  2
AmdtSectionSymStdDIN
  3
"Amdt_StdImp|Product Description: AutoCAD Mechanical 2000|Company: Autodesk"
 90
        0
280
     0
281
     0
  0
CLASS
  1
ACMCENTERLINESTANDARDDIN
  2
AmdtCenterLineStdDIN
  3
"Amdt_StdImp|Product Description: AutoCAD Mechanical 2000|Company: Autodesk"
 90
        0
280
     0
281
     0
  0
CLASS
  1
ACMNOTESTANDARDDIN
  2
AmdtNoteStdDIN
  3
"Amdt_StdImp|Product Description: AutoCAD Mechanical 2000|Company: Autodesk"
 90
        0
280
     0
281
     0
  0
CLASS
  1
ACAMGHOLECHARTSTDDIN
  2
AcAmgHoleChartStdDIN
  3
ACMSYMBB_MODULE_NAME
 90
        0
280
     0
281
     0
  0
CLASS
  1
AMDTFORMULAUPDATEDISPATCHER
  2
AmdtFormulaUpdateDispatcher
  3
AcMeServices
 90
        0
280
     0
281
     0
  0
CLASS
  1
LONG_TRANSACTION
  2
AcDbLongTransaction
  3
AutoCAD 2000
 90
        0
280
     0
281
     0
  0
CLASS
  1
LWPOLYLINE
  2
AcDbPolyline
  3
AutoCAD 2000
 90
        0
280
     0
281
     1
  0
CLASS
  1
HATCH
  2
AcDbHatch
  3
AutoCAD 2000
 90
        0
280
     0
281
     1
  0
CLASS
  1
XRECORD
  2
AcDbXrecord
  3
AutoCAD 2000
 90
        0
280
     0
281
     0
  0
ENDSEC
  0
SECTION
  2
TABLES
  0
TABLE
  2
VPORT
  5
6A1E
330
0
100
AcDbSymbolTable
 70
     5
  0
VPORT
  5
7A5C
330
6A1E
100
AcDbSymbolTableRecord
100
AcDbViewportTableRecord
  2
*ACTIVE
 70
     0
 10
0.0
 20
0.0
 11
1.0
 21
1.0
 12
64.53038559627564
 22
128.9737808875971
 13
0.0
 23
0.0
 14
2.5
 24
2.5
 15
10.0
 25
10.0
 16
0.0
 26
0.0
 36
1.0
 17
0.0
 27
0.0
 37
0.0
 40
339.8930375188035
 41
1.755725190839694
 42
50.0
 43
0.0
 44
0.0
 50
0.0
 51
0.0
 71
    16
 72
 10000
 73
     1
 74
     3
 75
     0
 76
     0
 77
     0
 78
     0
  0
ENDTAB
  0
TABLE
  2
LTYPE
  5
6A1B
330
0
100
AcDbSymbolTable
 70
    16
  0
LTYPE
  5
6A29
330
6A1B
100
AcDbSymbolTableRecord
100
AcDbLinetypeTableRecord
  2
BYBLOCK
 70
     0
  3

 72
    65
 73
     0
 40
0.0
  0
LTYPE
  5
6A2A
330
6A1B
100
AcDbSymbolTableRecord
100
AcDbLinetypeTableRecord
  2
BYLAYER
 70
     0
  3

 72
    65
 73
     0
 40
0.0
  0
LTYPE
  5
6A2B
330
6A1B
100
AcDbSymbolTableRecord
100
AcDbLinetypeTableRecord
  2
CONTINUOUS
 70
     0
  3
Solid line
 72
    65
 73
     0
 40
0.0
  0
LTYPE
  5
6A39
330
6A1B
100
AcDbSymbolTableRecord
100
AcDbLinetypeTableRecord
  2
AMCONSTR
 70
     0
  3
_______________________
 72
    65
 73
     2
 40
9999.0
 49
9999.0
 74
     0
 49
0.0
 74
     0
  0
LTYPE
  5
6A43
330
6A1B
100
AcDbSymbolTableRecord
100
AcDbLinetypeTableRecord
  2
CENTER
 70
     0
  3
__ . __
 72
    65
 73
     4
 40
7.0
 49
4.0
 74
     0
 49
-1.0
 74
     0
 49
1.0
 74
     0
 49
-1.0
 74
     0
  0
LTYPE
  5
6A45
330
6A1B
100
AcDbSymbolTableRecord
100
AcDbLinetypeTableRecord
  2
PHANTOM2
 70
     0
  3
Phantom (.5x) ___ _ _ ___ _ _ ___ _ _ ___ _ _
 72
    65
 73
     6
 40
1.25
 49
0.625
 74
     0
 49
-0.125
 74
     0
 49
0.125
 74
     0
 49
-0.125
 74
     0
 49
0.125
 74
     0
 49
-0.125
 74
     0
  0
LTYPE
  5
6A46
330
6A1B
100
AcDbSymbolTableRecord
100
AcDbLinetypeTableRecord
  2
ACANSTGB
 70
     0
  3
__ . . __ . .
 72
    65
 73
     6
 40
0.35433070866
 49
0.15748031496
 74
     0
 49
-0.03937007874
 74
     0
 49
0.03937007874
 74
     0
 49
-0.03937007874
 74
     0
 49
0.03937007874
 74
     0
 49
-0.03937007874
 74
     0
  0
LTYPE
  5
6A47
330
6A1B
100
AcDbSymbolTableRecord
100
AcDbLinetypeTableRecord
  2
ACANSTGL
 70
     0
  3
_ _ _ _ _
 72
    65
 73
     2
 40
0.11811023622
 49
0.07874015748
 74
     0
 49
-0.03937007874
 74
     0
  0
LTYPE
  5
6A48
330
6A1B
100
AcDbSymbolTableRecord
100
AcDbLinetypeTableRecord
  2
DASHED
 70
     0
  3
__ __ __ __ __ __ __ __ __ __ __ __ __ __ __ __
 72
    65
 73
     2
 40
19.05
 49
12.7
 74
     0
 49
-6.349999999999998
 74
     0
  0
LTYPE
  5
6D97
330
6A1B
100
AcDbSymbolTableRecord
100
AcDbLinetypeTableRecord
  2
ACDINWELD
 70
     0
  3
_ _ _ _ _
 72
    65
 73
     2
 40
2.0
 49
2.0
 74
     0
 49
-1.0
 74
     0
  0
LTYPE
  5
6D98
330
6A1B
100
AcDbSymbolTableRecord
100
AcDbLinetypeTableRecord
  2
ACDINTGB
 70
     0
  3
__ . . __ . .
 72
    65
 73
     6
 40
9.0
 49
4.0
 74
     0
 49
-1.0
 74
     0
 49
1.0
 74
     0
 49
-1.0
 74
     0
 49
1.0
 74
     0
 49
-1.0
 74
     0
  0
LTYPE
  5
6D99
330
6A1B
100
AcDbSymbolTableRecord
100
AcDbLinetypeTableRecord
  2
ACDINTGL
 70
     0
  3
_ _ _ _ _
 72
    65
 73
     2
 40
3.0
 49
2.0
 74
     0
 49
-1.0
 74
     0
  0
LTYPE
  5
75F6
330
6A1B
100
AcDbSymbolTableRecord
100
AcDbLinetypeTableRecord
  2
AMZIGZAG
 70
     0
  3
/\/-/\/-/\/-/\/-/\/-/\/
 72
    65
 73
     2
 40
11.00009999999999
 49
0.0001
 74
     4
 75
   135
340
6A5B
 46
0.04
 50
0.0
 44
0.0
 45
0.0
 49
-11.0
 74
     0
  0
LTYPE
  5
75F7
330
6A1B
100
AcDbSymbolTableRecord
100
AcDbLinetypeTableRecord
  2
AM_DIN_F_W050
 70
     0
  3
__ __ __ __ __ __ __ __ __ __ __ __ __ __ __
 72
    65
 73
     2
 40
6.25
 49
4.75
 74
     0
 49
-1.5
 74
     0
  0
LTYPE
  5
75F8
330
6A1B
100
AcDbSymbolTableRecord
100
AcDbLinetypeTableRecord
  2
AM_DIN_G_W050
 70
     0
  3
____ . ____ . ____ . ____ . ____ . ____ . ____
 72
    65
 73
     4
 40
13.75
 49
9.75
 74
     0
 49
-1.5
 74
     0
 49
1.0
 74
     0
 49
-1.5
 74
     0
  0
LTYPE
  5
75F9
330
6A1B
100
AcDbSymbolTableRecord
100
AcDbLinetypeTableRecord
  2
AM_DIN_K_W050
 70
     0
  3
_____ . . _____ . . _____ . . ____ .. ____
 72
    65
 73
     6
 40
16.25
 49
9.75
 74
     0
 49
-1.5
 74
     0
 49
1.0
 74
     0
 49
-1.5
 74
     0
 49
1.0
 74
     0
 49
-1.5
 74
     0
  0
LTYPE
  5
75FA
330
6A1B
100
AcDbSymbolTableRecord
100
AcDbLinetypeTableRecord
  2
AM_DIN_G_W050X2
 70
     0
  3
__ . __ . __ . __ . __ . __
 72
    65
 73
     4
 40
6.875
 49
4.75
 74
     0
 49
-0.875
 74
     0
 49
0.375
 74
     0
 49
-0.875
 74
     0
  0
LTYPE
  5
75FB
330
6A1B
100
AcDbSymbolTableRecord
100
AcDbLinetypeTableRecord
  2
AM_DIN_F_W050X2
 70
     0
  3
 _ _ _ _ _ _ _ _ _ _ _ _
 72
    65
 73
     2
 40
3.125
 49
2.25
 74
     0
 49
-0.875
 74
     0
  0
ENDTAB
  0
TABLE
  2
LAYER
  5
6A18
330
0
100
AcDbSymbolTable
 70
    12
  0
LAYER
  5
6A26
330
6A18
100
AcDbSymbolTableRecord
100
AcDbLayerTableRecord
  2
0
 70
     0
 62
     7
  6
CONTINUOUS
  0
LAYER
  5
6A4B
330
6A18
100
AcDbSymbolTableRecord
100
AcDbLayerTableRecord
  2
DEFPOINTS
 70
     0
 62
     7
  6
CONTINUOUS
  0
LAYER
  5
6A4C
330
6A18
100
AcDbSymbolTableRecord
100
AcDbLayerTableRecord
  2
1
 70
     0
 62
     4
  6
CONTINUOUS
  0
LAYER
  5
6A4D
330
6A18
100
AcDbSymbolTableRecord
100
AcDbLayerTableRecord
  2
2
 70
     0
 62
     7
  6
CONTINUOUS
  0
LAYER
  5
6A4F
330
6A18
100
AcDbSymbolTableRecord
100
AcDbLayerTableRecord
  2
4
 70
     0
 62
     2
  6
CENTER
  0
LAYER
  5
6A50
330
6A18
100
AcDbSymbolTableRecord
100
AcDbLayerTableRecord
  2
6
 70
     0
 62
     5
  6
CONTINUOUS
  0
LAYER
  5
6A53
330
6A18
100
AcDbSymbolTableRecord
100
AcDbLayerTableRecord
  2
SK1
 70
     0
 62
     4
  6
CONTINUOUS
  0
LAYER
  5
6A54
330
6A18
100
AcDbSymbolTableRecord
100
AcDbLayerTableRecord
  2
SK2
 70
     0
 62
     7
  6
CONTINUOUS
  0
LAYER
  5
6A55
330
6A18
100
AcDbSymbolTableRecord
100
AcDbLayerTableRecord
  2
SK3
 70
     0
 62
     1
  6
DASHED
  0
LAYER
  5
6A56
330
6A18
100
AcDbSymbolTableRecord
100
AcDbLayerTableRecord
  2
SK4
 70
     0
 62
     2
  6
CENTER
  0
LAYER
  5
6A57
330
6A18
100
AcDbSymbolTableRecord
100
AcDbLayerTableRecord
  2
CUT
 70
     0
 62
     1
  6
CONTINUOUS
  0
LAYER
  5
6A58
330
6A18
100
AcDbSymbolTableRecord
100
AcDbLayerTableRecord
  2
NOCUT
 70
     0
 62
     7
  6
CONTINUOUS
  0
ENDTAB
  0
TABLE
  2
STYLE
  5
6A19
330
0
100
AcDbSymbolTable
 70
     6
  0
STYLE
  5
6A27
330
6A19
100
AcDbSymbolTableRecord
100
AcDbTextStyleTableRecord
  2
STANDARD
 70
     0
 40
0.0
 41
1.0
 50
0.0
 71
     0
 42
2.5
  3
ISOCP.SHX
  4

  0
STYLE
  5
6A5B
330
6A19
100
AcDbSymbolTableRecord
100
AcDbTextStyleTableRecord
  2

 70
     1
 40
0.0
 41
1.0
 50
0.0
 71
     0
 42
2.5
  3
ltypeshp.shx
  4

  0
STYLE
  5
6A5E
330
6A19
100
AcDbSymbolTableRecord
100
AcDbTextStyleTableRecord
  2
ACANSTS
 70
     0
 40
1.0
 41
1.0
 50
0.0
 71
     0
 42
0.2
  3
romans.shx
  4

  0
STYLE
  5
6A5F
330
6A19
100
AcDbSymbolTableRecord
100
AcDbTextStyleTableRecord
  2
ACANSGDT
 70
     0
 40
0.0
 41
1.0
 50
0.0
 71
     0
 42
0.2
  3
amgdtans.shx
  4

  0
STYLE
  5
6D9A
330
6A19
100
AcDbSymbolTableRecord
100
AcDbTextStyleTableRecord
  2
ACDINTS
 70
     0
 40
1.0
 41
1.0
 50
0.0
 71
     0
 42
2.5
  3
isocp.shx
  4

  0
STYLE
  5
6D9B
330
6A19
100
AcDbSymbolTableRecord
100
AcDbTextStyleTableRecord
  2
ACDINGDT
 70
     0
 40
0.0
 41
1.0
 50
0.0
 71
     0
 42
2.5
  3
amgdt.shx
  4

  0
ENDTAB
  0
TABLE
  2
VIEW
  5
6A1C
330
0
100
AcDbSymbolTable
 70
     6
  0
VIEW
  5
6A60
330
6A1C
100
AcDbSymbolTableRecord
100
AcDbViewTableRecord
  2
AM_VIEW1
 70
     0
 40
148.5
 10
131.508173076923
 20
222.75
 41
263.016346153846
 11
0.0
 21
0.0
 31
1.0
 12
0.0
 22
0.0
 32
0.0
 42
50.0
 43
0.0
 44
0.0
 50
0.0
 71
    16
  0
VIEW
  5
6A61
330
6A1C
100
AcDbSymbolTableRecord
100
AcDbViewTableRecord
  2
AM_VIEW2
 70
     0
 40
148.5
 10
78.4918269230769
 20
222.75
 41
263.016346153846
 11
0.0
 21
0.0
 31
1.0
 12
0.0
 22
0.0
 32
0.0
 42
50.0
 43
0.0
 44
0.0
 50
0.0
 71
    16
  0
VIEW
  5
6A62
330
6A1C
100
AcDbSymbolTableRecord
100
AcDbViewTableRecord
  2
AM_VIEW3
 70
     0
 40
148.5
 10
131.508173076923
 20
74.25
 41
263.016346153846
 11
0.0
 21
0.0
 31
1.0
 12
0.0
 22
0.0
 32
0.0
 42
50.0
 43
0.0
 44
0.0
 50
0.0
 71
    16
  0
VIEW
  5
6A63
330
6A1C
100
AcDbSymbolTableRecord
100
AcDbViewTableRecord
  2
AM_VIEW4
 70
     0
 40
148.5
 10
78.4918269230769
 20
74.25
 41
263.016346153846
 11
0.0
 21
0.0
 31
1.0
 12
0.0
 22
0.0
 32
0.0
 42
50.0
 43
0.0
 44
0.0
 50
0.0
 71
    16
  0
VIEW
  5
6A64
330
6A1C
100
AcDbSymbolTableRecord
100
AcDbViewTableRecord
  2
AM_VIEW5
 70
     0
 40
148.5
 10
105.0
 20
148.5
 41
263.016346153846
 11
0.0
 21
0.0
 31
1.0
 12
0.0
 22
0.0
 32
0.0
 42
50.0
 43
0.0
 44
0.0
 50
0.0
 71
    16
  0
VIEW
  5
6A65
330
6A1C
100
AcDbSymbolTableRecord
100
AcDbViewTableRecord
  2
AM_VIEW6
 70
     0
 40
296.9970299999999
 10
105.0
 20
148.5
 41
526.0274319807693
 11
0.0
 21
0.0
 31
1.0
 12
0.0
 22
0.0
 32
0.0
 42
50.0
 43
0.0
 44
0.0
 50
0.0
 71
    16
  0
ENDTAB
  0
TABLE
  2
UCS
  5
6A1D
330
0
100
AcDbSymbolTable
 70
     0
  0
ENDTAB
  0
TABLE
  2
APPID
  5
6A1F
330
0
100
AcDbSymbolTable
 70
    40
  0
APPID
  5
6A28
330
6A1F
100
AcDbSymbolTableRecord
100
AcDbRegAppTableRecord
  2
ACAD
 70
     0
  0
APPID
  5
6A66
330
6A1F
100
AcDbSymbolTableRecord
100
AcDbRegAppTableRecord
  2
MCAD_NO_VIS
 70
     0
  0
APPID
  5
6A67
330
6A1F
100
AcDbSymbolTableRecord
100
AcDbRegAppTableRecord
  2
ACAD_TEMP_GRAPHIC
 70
     0
  0
APPID
  5
6A68
330
6A1F
100
AcDbSymbolTableRecord
100
AcDbRegAppTableRecord
  2
ACATTRIBSERVICES
 70
     0
  0
APPID
  5
6A69
330
6A1F
100
AcDbSymbolTableRecord
100
AcDbRegAppTableRecord
  2
GENIUS_GENDIMSH_14
 70
     0
  0
APPID
  5
6A6A
330
6A1F
100
AcDbSymbolTableRecord
100
AcDbRegAppTableRecord
  2
GENIUS_GENBLLY_14
 70
     0
  0
APPID
  5
6A6B
330
6A1F
100
AcDbSymbolTableRecord
100
AcDbRegAppTableRecord
  2
GENIUS_GENTRA_14
 70
     0
  0
APPID
  5
6A6C
330
6A1F
100
AcDbSymbolTableRecord
100
AcDbRegAppTableRecord
  2
GENIUS_GENODEF_13
 70
     0
  0
APPID
  5
6A6D
330
6A1F
100
AcDbSymbolTableRecord
100
AcDbRegAppTableRecord
  2
GENIUS_GENOLIS_13
 70
     0
  0
APPID
  5
6A6E
330
6A1F
100
AcDbSymbolTableRecord
100
AcDbRegAppTableRecord
  2
GENIUS_GENOENT_13
 70
     0
  0
APPID
  5
6A6F
330
6A1F
100
AcDbSymbolTableRecord
100
AcDbRegAppTableRecord
  2
GENIUS_GENOBJ-N-TIT_13
 70
     0
  0
APPID
  5
6A70
330
6A1F
100
AcDbSymbolTableRecord
100
AcDbRegAppTableRecord
  2
GENIUS_GENTITLE_13
 70
     0
  0
APPID
  5
6A71
330
6A1F
100
AcDbSymbolTableRecord
100
AcDbRegAppTableRecord
  2
GENIUS_GENOREF_13
 70
     0
  0
APPID
  5
6A72
330
6A1F
100
AcDbSymbolTableRecord
100
AcDbRegAppTableRecord
  2
GENIUS_GENSCREG_15
 70
     0
  0
APPID
  5
6A73
330
6A1F
100
AcDbSymbolTableRecord
100
AcDbRegAppTableRecord
  2
GENIUS_GENOBJ-N-SDF_13
 70
     0
  0
APPID
  5
6A74
330
6A1F
100
AcDbSymbolTableRecord
100
AcDbRegAppTableRecord
  2
ACADIGES
 70
     0
  0
APPID
  5
6A75
330
6A1F
100
AcDbSymbolTableRecord
100
AcDbRegAppTableRecord
  2
GENIUS_GENOBJ-N-HTC_13
 70
     0
  0
APPID
  5
6A76
330
6A1F
100
AcDbSymbolTableRecord
100
AcDbRegAppTableRecord
  2
GENIUS_GENHATCH_13
 70
     0
  0
APPID
  5
6DA2
330
6A1F
100
AcDbSymbolTableRecord
100
AcDbRegAppTableRecord
  2
GENIUS_GENOBJ-N-CRS_13
 70
     0
  0
APPID
  5
6DA3
330
6A1F
100
AcDbSymbolTableRecord
100
AcDbRegAppTableRecord
  2
GENIUS_GENOBJ-N-FIL_13
 70
     0
  0
APPID
  5
6DD2
330
6A1F
100
AcDbSymbolTableRecord
100
AcDbRegAppTableRecord
  2
GENIUS_GENFIL_13
 70
     0
  0
APPID
  5
6DD3
330
6A1F
100
AcDbSymbolTableRecord
100
AcDbRegAppTableRecord
  2
GENIUS_GENOBJ-N-CHA_13
 70
     0
  0
APPID
  5
766F
330
6A1F
100
AcDbSymbolTableRecord
100
AcDbRegAppTableRecord
  2
GENIUS_GENOBJ-N-CEN_13
 70
     0
  0
APPID
  5
7670
330
6A1F
100
AcDbSymbolTableRecord
100
AcDbRegAppTableRecord
  2
GENIUS_GENDIM_13
 70
     0
  0
APPID
  5
7671
330
6A1F
100
AcDbSymbolTableRecord
100
AcDbRegAppTableRecord
  2
GENIUS_GENDTOL_13
 70
     0
  0
APPID
  5
7672
330
6A1F
100
AcDbSymbolTableRecord
100
AcDbRegAppTableRecord
  2
GENIUS_GE3DTOL_13
 70
     0
  0
APPID
  5
7673
330
6A1F
100
AcDbSymbolTableRecord
100
AcDbRegAppTableRecord
  2
AD_DRAW
 70
     0
  0
APPID
  5
7674
330
6A1F
100
AcDbSymbolTableRecord
100
AcDbRegAppTableRecord
  2
ASURF_PCURVE_APPNAME
 70
     0
  0
APPID
  5
7675
330
6A1F
100
AcDbSymbolTableRecord
100
AcDbRegAppTableRecord
  2
AMG_3D2D_5_0
 70
     0
  0
APPID
  5
7676
330
6A1F
100
AcDbSymbolTableRecord
100
AcDbRegAppTableRecord
  2
DESIGNERASSEMBLIES
 70
     0
  0
APPID
  5
7677
330
6A1F
100
AcDbSymbolTableRecord
100
AcDbRegAppTableRecord
  2
ACADM_DIM_EDIT
 70
     0
  0
APPID
  5
7678
330
6A1F
100
AcDbSymbolTableRecord
100
AcDbRegAppTableRecord
  2
AMDT_DM_ADJ
 70
     0
  0
APPID
  5
7679
330
6A1F
100
AcDbSymbolTableRecord
100
AcDbRegAppTableRecord
  2
GENIUS12
 70
     0
  0
APPID
  5
767A
330
6A1F
100
AcDbSymbolTableRecord
100
AcDbRegAppTableRecord
  2
GENIUS_GENCFG_13
 70
     0
  0
APPID
  5
767B
330
6A1F
100
AcDbSymbolTableRecord
100
AcDbRegAppTableRecord
  2
GENIUS_GENCFG0_13
 70
     0
  0
APPID
  5
767C
330
6A1F
100
AcDbSymbolTableRecord
100
AcDbRegAppTableRecord
  2
GENIUS_GENCFG1_13
 70
     0
  0
APPID
  5
767D
330
6A1F
100
AcDbSymbolTableRecord
100
AcDbRegAppTableRecord
  2
GENIUS_GENCFG2_13
 70
     0
  0
APPID
  5
767E
330
6A1F
100
AcDbSymbolTableRecord
100
AcDbRegAppTableRecord
  2
GENIUS_GENCFG3_13
 70
     0
  0
APPID
  5
767F
330
6A1F
100
AcDbSymbolTableRecord
100
AcDbRegAppTableRecord
  2
GENIUS_GENCFG4_13
 70
     0
  0
APPID
  5
7680
330
6A1F
100
AcDbSymbolTableRecord
100
AcDbRegAppTableRecord
  2
GENIUS_GEVCFG0_13
 70
     0
  0
ENDTAB
  0
TABLE
  2
DIMSTYLE
  5
6A20
330
0
100
AcDbSymbolTable
 70
    14
  0
DIMSTYLE
105
6A77
102
{ACAD_REACTORS
330
77EB
102
}
330
6A20
100
AcDbSymbolTableRecord
100
AcDbDimStyleTableRecord
  2
AM_DIN
 70
     0
  3

  4
"
  5

  6

  7

 40
1.0
 41
2.5
 42
0.0
 43
10.0
 44
1.0
 45
0.0
 46
0.0
 47
0.1
 48
0.1
140
3.5
141
0.0
142
0.0
143
0.0393701
144
1.0
145
0.0
146
0.71
147
1.5
 71
     0
 72
     0
 73
     0
 74
     0
 75
     0
 76
     0
 77
     1
 78
     8
170
     0
171
     2
172
     1
173
     0
174
     0
175
     0
176
   256
177
   256
178
     2
270
     2
271
     2
272
     2
273
     2
274
     2
340
6A27
275
     0
280
     0
281
     0
282
     0
283
     1
284
     8
285
     8
286
     8
287
     5
288
     0
  0
DIMSTYLE
105
6A7E
330
6A20
100
AcDbSymbolTableRecord
100
AcDbDimStyleTableRecord
  2
STANDARD
 70
     0
  3

  4

  5

  6

  7

 40
1.0
 41
0.18
 42
0.0625
 43
0.38
 44
0.18
 45
0.0
 46
0.0
 47
0.0
 48
0.0
140
0.18
141
0.09
142
0.0
143
25.4
144
1.0
145
0.0
146
1.0
147
0.09
 71
     0
 72
     0
 73
     1
 74
     1
 75
     0
 76
     0
 77
     0
 78
     0
170
     0
171
     2
172
     0
173
     0
174
     0
175
     0
176
     0
177
     0
178
     0
270
     2
271
     2
272
     2
273
     2
274
     2
340
6A27
275
     0
280
     0
281
     0
282
     0
283
     1
284
     8
285
     8
286
     8
287
     5
288
     0
  0
DIMSTYLE
105
6A7F
102
{ACAD_REACTORS
330
6F7B
330
7005
330
7049
330
7073
330
740D
102
}
330
6A20
100
AcDbSymbolTableRecord
100
AcDbDimStyleTableRecord
  2
AM_ANSI
 70
     0
  3

  4
mm
  5

  6

  7

 40
1.0
 41
0.1
 42
0.05
 43
0.5
 44
0.1
 45
0.0
 46
0.0
 47
0.1
 48
0.1
140
0.12
141
0.0
142
0.0
143
25.4
144
1.0
145
0.0
146
0.71
147
0.06
 71
     0
 72
     0
 73
     1
 74
     1
 75
     0
 76
     0
 77
     0
 78
     7
170
     0
171
     2
172
     0
173
     0
174
     0
175
     0
176
   256
177
   256
178
     2
270
     2
271
     2
272
     2
273
     2
274
     2
340
6A27
275
     0
280
     0
281
     0
282
     0
283
     1
284
     8
285
     8
286
     8
287
     5
288
     0
  0
DIMSTYLE
105
6A80
330
6A20
100
AcDbSymbolTableRecord
100
AcDbDimStyleTableRecord
  2
AM_ANSI$3
 70
     0
  3

  4
mm
  5

  6

  7

 40
1.0
 41
0.1
 42
0.05
 43
0.5
 44
0.1
 45
0.0
 46
0.0
 47
0.1
 48
0.1
140
0.12
141
0.0
142
0.0
143
25.4
144
1.0
145
0.0
146
0.71
147
0.06
 71
     0
 72
     0
 73
     1
 74
     1
 75
     0
 76
     0
 77
     0
 78
     7
170
     0
171
     2
172
     0
173
     0
174
     0
175
     0
176
   256
177
   256
178
     2
270
     2
271
     2
272
     2
273
     2
274
     2
340
6A27
275
     0
280
     0
281
     0
282
     0
283
     1
284
     8
285
     8
286
     8
287
     5
288
     0
  0
DIMSTYLE
105
6A81
330
6A20
100
AcDbSymbolTableRecord
100
AcDbDimStyleTableRecord
  2
AM_ANSI$4
 70
     0
  3

  4
mm
  5

  6

  7

 40
1.0
 41
0.1
 42
0.05
 43
0.5
 44
0.1
 45
0.0
 46
0.0
 47
0.1
 48
0.1
140
0.12
141
0.0
142
0.0
143
25.4
144
1.0
145
0.0
146
0.71
147
0.06
 71
     0
 72
     0
 73
     1
 74
     1
 75
     0
 76
     0
 77
     0
 78
     7
170
     0
171
     2
172
     0
173
     0
174
     0
175
     0
176
   256
177
   256
178
     2
270
     2
271
     2
272
     2
273
     2
274
     2
340
6A27
275
     0
280
     0
281
     0
282
     0
283
     1
284
     8
285
     8
286
     8
287
     5
288
     0
  0
DIMSTYLE
105
6A82
330
6A20
100
AcDbSymbolTableRecord
100
AcDbDimStyleTableRecord
  2
AM_ANSI$7
 70
     0
  3

  4
mm
  5

  6

  7

 40
1.0
 41
0.1
 42
0.05
 43
0.5
 44
0.1
 45
0.0
 46
0.0
 47
0.1
 48
0.1
140
0.24
141
0.0
142
0.0
143
25.4
144
1.0
145
0.0
146
0.71
147
0.06
 71
     0
 72
     0
 73
     1
 74
     1
 75
     0
 76
     0
 77
     0
 78
     7
170
     0
171
     2
172
     0
173
     0
174
     0
175
     0
176
   256
177
   256
178
     2
270
     2
271
     2
272
     2
273
     2
274
     2
340
6A27
275
     0
280
     0
281
     0
282
     0
283
     1
284
     8
285
     8
286
     8
287
     5
288
     0
  0
DIMSTYLE
105
6A83
330
6A20
100
AcDbSymbolTableRecord
100
AcDbDimStyleTableRecord
  2
AM_ANSI$SF
 70
     0
  3

  4
mm
  5

  6

  7

 40
1.0
 41
0.1
 42
0.05
 43
0.5
 44
0.1
 45
0.0
 46
0.0
 47
0.1
 48
0.1
140
0.12
141
0.0
142
0.0
143
25.4
144
1.0
145
0.0
146
0.71
147
0.06
 71
     0
 72
     0
 73
     1
 74
     1
 75
     1
 76
     1
 77
     0
 78
     7
170
     0
171
     2
172
     0
173
     0
174
     0
175
     0
176
   256
177
   256
178
     2
270
     2
271
     2
272
     2
273
     2
274
     2
340
6A27
275
     0
280
     0
281
     0
282
     0
283
     1
284
     8
285
     8
286
     8
287
     5
288
     0
  0
DIMSTYLE
105
6A84
330
6A20
100
AcDbSymbolTableRecord
100
AcDbDimStyleTableRecord
  2
AM_ANSI$SH
 70
     0
  3

  4
mm
  5

  6

  7

 40
1.0
 41
0.1
 42
0.05
 43
0.5
 44
0.1
 45
0.0
 46
0.0
 47
0.1
 48
0.1
140
0.12
141
0.0
142
0.0
143
25.4
144
1.0
145
0.0
146
0.71
147
0.06
 71
     0
 72
     0
 73
     1
 74
     1
 75
     1
 76
     1
 77
     0
 78
     7
170
     0
171
     2
172
     0
173
     1
174
     0
175
     0
176
   256
177
   256
178
     2
270
     2
271
     2
272
     2
273
     2
274
     2
340
6A27
275
     0
280
     0
281
     0
282
     0
283
     1
284
     8
285
     8
286
     8
287
     5
288
     0
  0
DIMSTYLE
105
6D9C
330
6A20
100
AcDbSymbolTableRecord
100
AcDbDimStyleTableRecord
  2
AM_DIN$3
 70
     0
  3

  4
"
  5

  6

  7

 40
1.0
 41
3.5
 42
0.0
 43
10.0
 44
1.0
 45
0.0
 46
0.0
 47
0.1
 48
0.1
140
3.5
141
0.0
142
0.0
143
0.0393701
144
1.0
145
0.0
146
0.71
147
1.5
 71
     0
 72
     0
 73
     0
 74
     1
 75
     0
 76
     0
 77
     1
 78
     8
170
     0
171
     2
172
     0
173
     0
174
     0
175
     0
176
   256
177
   256
178
     2
270
     2
271
     2
272
     2
273
     2
274
     2
340
6A27
275
     0
280
     0
281
     0
282
     0
283
     0
284
     8
285
     0
286
     0
287
     0
288
     1
  0
DIMSTYLE
105
6D9D
330
6A20
100
AcDbSymbolTableRecord
100
AcDbDimStyleTableRecord
  2
AM_DIN$4
 70
     0
  3

  4
"
  5

  6

  7

 40
1.0
 41
3.5
 42
0.0
 43
10.0
 44
1.0
 45
0.0
 46
0.0
 47
0.1
 48
0.1
140
3.5
141
0.0
142
0.0
143
0.0393701
144
1.0
145
0.0
146
0.71
147
1.5
 71
     0
 72
     0
 73
     0
 74
     1
 75
     0
 76
     0
 77
     1
 78
     8
170
     0
171
     2
172
     0
173
     0
174
     0
175
     0
176
   256
177
   256
178
     2
270
     2
271
     2
272
     2
273
     2
274
     2
340
6A27
275
     0
280
     0
281
     0
282
     0
283
     0
284
     8
285
     0
286
     0
287
     0
288
     1
  0
DIMSTYLE
105
6D9E
330
6A20
100
AcDbSymbolTableRecord
100
AcDbDimStyleTableRecord
  2
AM_DIN$6
 70
     0
  3

  4
"
  5

  6

  7

 40
1.0
 41
3.5
 42
0.0
 43
0.0
 44
1.0
 45
0.0
 46
0.0
 47
0.1
 48
0.1
140
3.5
141
0.0
142
0.0
143
0.0393701
144
1.0
145
0.0
146
0.71
147
1.5
 71
     0
 72
     0
 73
     0
 74
     0
 75
     0
 76
     0
 77
     0
 78
     8
170
     0
171
     2
172
     1
173
     0
174
     0
175
     0
176
   256
177
   256
178
     2
270
     2
271
     2
272
     2
273
     2
274
     2
340
6A27
275
     0
280
     0
281
     0
282
     0
283
     0
284
     8
285
     0
286
     0
287
     3
288
     0
  0
DIMSTYLE
105
6D9F
330
6A20
100
AcDbSymbolTableRecord
100
AcDbDimStyleTableRecord
  2
AM_DIN$7
 70
     0
  3

  4
"
  5

  6

  7

 40
1.0
 41
3.5
 42
0.0
 43
10.0
 44
1.0
 45
0.0
 46
0.0
 47
0.1
 48
0.1
140
3.5
141
0.0
142
0.0
143
0.0393701
144
1.0
145
0.0
146
0.71
147
1.5
 71
     0
 72
     0
 73
     0
 74
     0
 75
     0
 76
     0
 77
     1
 78
     8
170
     0
171
     2
172
     1
173
     0
174
     0
175
     0
176
   256
177
   256
178
     2
270
     2
271
     2
272
     2
273
     2
274
     2
340
6A27
275
     0
280
     0
281
     0
282
     0
283
     0
284
     8
285
     0
286
     0
287
     3
288
     0
  0
DIMSTYLE
105
6DA0
330
6A20
100
AcDbSymbolTableRecord
100
AcDbDimStyleTableRecord
  2
AM_DIN$SF
 70
     0
  3

  4
"
  5

  6

  7

 40
1.0
 41
2.5
 42
1.0
 43
10.0
 44
1.0
 45
0.0
 46
0.0
 47
0.1
 48
0.1
140
3.5
141
0.0
142
0.0
143
0.0393701
144
1.0
145
0.0
146
0.71
147
1.5
 71
     0
 72
     0
 73
     0
 74
     0
 75
     1
 76
     1
 77
     1
 78
     8
170
     0
171
     2
172
     1
173
     0
174
     0
175
     0
176
   256
177
   256
178
     2
270
     2
271
     2
272
     3
273
     2
274
     4
340
6A27
275
     0
280
     0
281
     0
282
     0
283
     0
284
     8
285
     0
286
     0
287
     3
288
     0
  0
DIMSTYLE
105
6DA1
330
6A20
100
AcDbSymbolTableRecord
100
AcDbDimStyleTableRecord
  2
AM_DIN$SH
 70
     0
  3

  4
"
  5

  6
GENAXEH
  7

 40
1.0
 41
2.5
 42
1.0
 43
10.0
 44
1.0
 45
0.0
 46
0.0
 47
0.1
 48
0.1
140
3.5
141
0.0
142
0.0
143
0.0393701
144
2.0
145
0.0
146
0.71
147
1.5
 71
     0
 72
     0
 73
     0
 74
     0
 75
     1
 76
     1
 77
     1
 78
     8
170
     0
171
     2
172
     1
173
     1
174
     0
175
     0
176
   256
177
   256
178
     2
270
     2
271
     2
272
     3
273
     2
274
     4
340
6A27
275
     0
280
     0
281
     0
282
     0
283
     0
284
     8
285
     0
286
     0
287
     3
288
     0
  0
ENDTAB
  0
TABLE
  2
BLOCK_RECORD
  5
6A17
330
0
100
AcDbSymbolTable
 70
     7
  0
BLOCK_RECORD
  5
6A34
102
{ACAD_XDICTIONARY
360
6B62
102
}
330
6A17
100
AcDbSymbolTableRecord
100
AcDbBlockTableRecord
  2
*MODEL_SPACE
  0
BLOCK_RECORD
  5
6A30
102
{ACAD_XDICTIONARY
360
7A7E
102
}
330
6A17
100
AcDbSymbolTableRecord
100
AcDbBlockTableRecord
  2
*PAPER_SPACE
  0
BLOCK_RECORD
  5
6D93
330
6A17
100
AcDbSymbolTableRecord
100
AcDbBlockTableRecord
  2
GENAXEH
  0
BLOCK_RECORD
  5
6F7C
330
6A17
100
AcDbSymbolTableRecord
100
AcDbBlockTableRecord
  2
*D1
  0
BLOCK_RECORD
  5
7006
330
6A17
100
AcDbSymbolTableRecord
100
AcDbBlockTableRecord
  2
*D2
  0
BLOCK_RECORD
  5
704A
330
6A17
100
AcDbSymbolTableRecord
100
AcDbBlockTableRecord
  2
*D3
  0
BLOCK_RECORD
  5
7074
330
6A17
100
AcDbSymbolTableRecord
100
AcDbBlockTableRecord
  2
*D4
  0
BLOCK_RECORD
  5
740E
330
6A17
100
AcDbSymbolTableRecord
100
AcDbBlockTableRecord
  2
*D5
  0
BLOCK_RECORD
  5
77F6
330
6A17
100
AcDbSymbolTableRecord
100
AcDbBlockTableRecord
  2
*D6
  0
ENDTAB
  0
ENDSEC
  0
SECTION
  2
BLOCKS
  0
BLOCK
  5
6A35
330
6A34
100
AcDbEntity
  8
0
100
AcDbBlockBegin
  2
*MODEL_SPACE
 70
     0
 10
0.0
 20
0.0
 30
0.0
  3
*MODEL_SPACE
  1

  0
ENDBLK
  5
6A36
330
6A34
100
AcDbEntity
  8
0
100
AcDbBlockEnd
  0
BLOCK
  5
6A31
330
6A30
100
AcDbEntity
 67
     1
  8
0
100
AcDbBlockBegin
  2
*PAPER_SPACE
 70
     0
 10
0.0
 20
0.0
 30
0.0
  3
*PAPER_SPACE
  1

  0
ENDBLK
  5
6A32
330
6A30
100
AcDbEntity
 67
     1
  8
0
100
AcDbBlockEnd
  0
BLOCK
  5
6D95
330
6D93
100
AcDbEntity
  8
0
100
AcDbBlockBegin
  2
GENAXEH
 70
     0
 10
0.0
 20
0.0
 30
0.0
  3
GENAXEH
  1

  0
LINE
  5
6D94
330
6D93
100
AcDbEntity
  8
0
100
AcDbLine
 10
-1.0
 20
0.0
 30
0.0
 11
1.0
 21
0.0
 31
0.0
  0
ENDBLK
  5
6D96
330
6D93
100
AcDbEntity
  8
0
100
AcDbBlockEnd
  0
BLOCK
  5
6F87
330
6F7C
100
AcDbEntity
  8
0
100
AcDbBlockBegin
  2
*D1
 70
     1
 10
0.0
 20
0.0
 30
0.0
  3
*D1
  1

  0
LINE
  5
79C9
330
6F7C
100
AcDbEntity
  8
2
100
AcDbLine
 10
-0.0000000000000568
 20
12.49999999999997
 30
0.0
 11
-0.000000000000053
 21
76.0
 31
0.0
  0
LINE
  5
79CA
330
6F7C
100
AcDbEntity
  8
2
100
AcDbLine
 10
89.00000000000002
 20
12.50000000000002
 30
0.0
 11
89.00000000000002
 21
76.0
 31
0.0
  0
LINE
  5
79CB
330
6F7C
100
AcDbEntity
  8
2
100
AcDbLine
 10
2.499999999999947
 20
75.0
 30
0.0
 11
86.50000000000002
 21
75.0
 31
0.0
  0
MTEXT
  5
79CC
330
6F7C
100
AcDbEntity
  8
2
 62
     2
100
AcDbMText
 10
41.21959202314542
 20
78.23103846018511
 30
0.0
 40
3.5
 41
0.0
 71
     5
 72
     1
  1
\A1;89
1001
ACAD
1000
MTEXTBEGIN
1070
    73
1070
     1
1070
    44
1040
1.0
1070
    74
1070
     0
1000
MTEXTEND
  0
SOLID
  5
79CD
330
6F7C
100
AcDbEntity
  8
2
100
AcDbTrace
 10
2.499999999999947
 20
75.41666666666667
 30
0.0
 11
2.499999999999947
 21
74.58333333333333
 31
0.0
 12
-0.000000000000053
 22
75.0
 32
0.0
 13
-0.000000000000053
 23
75.0
 33
0.0
  0
SOLID
  5
79CE
330
6F7C
100
AcDbEntity
  8
2
100
AcDbTrace
 10
86.50000000000002
 20
75.41666666666667
 30
0.0
 11
86.50000000000002
 21
74.58333333333333
 31
0.0
 12
89.00000000000002
 22
75.0
 32
0.0
 13
89.00000000000002
 23
75.0
 33
0.0
  0
POINT
  5
79CF
330
6F7C
100
AcDbEntity
  8
DEFPOINTS
 62
     0
100
AcDbPoint
 10
-0.0000000000000568
 20
12.49999999999997
 30
0.0
  0
POINT
  5
79D0
330
6F7C
100
AcDbEntity
  8
DEFPOINTS
 62
     0
100
AcDbPoint
 10
89.00000000000002
 20
12.50000000000002
 30
0.0
  0
POINT
  5
79D1
330
6F7C
100
AcDbEntity
  8
DEFPOINTS
 62
     0
100
AcDbPoint
 10
89.00000000000002
 20
75.0
 30
0.0
  0
ENDBLK
  5
6F88
330
6F7C
100
AcDbEntity
  8
0
100
AcDbBlockEnd
  0
BLOCK
  5
7011
330
7006
100
AcDbEntity
  8
0
100
AcDbBlockBegin
  2
*D2
 70
     1
 10
0.0
 20
0.0
 30
0.0
  3
*D2
  1

  0
LINE
  5
7A52
330
7006
100
AcDbEntity
  8
SK2
100
AcDbLine
 10
-55.99999999999998
 20
-11.50000000000002
 30
0.0
 11
-55.99999999999998
 21
-39.03705926814251
 31
0.0
  0
LINE
  5
7A53
330
7006
100
AcDbEntity
  8
SK2
100
AcDbLine
 10
89.00000000000007
 20
-12.50000000000002
 30
0.0
 11
89.00000000000007
 21
-39.03705926814251
 31
0.0
  0
LINE
  5
7A54
330
7006
100
AcDbEntity
  8
SK2
100
AcDbLine
 10
-53.49999999999998
 20
-38.03705926814251
 30
0.0
 11
86.50000000000007
 21
-38.03705926814251
 31
0.0
  0
MTEXT
  5
7A55
330
7006
100
AcDbEntity
  8
SK2
 62
     2
100
AcDbMText
 10
4.016149141157939
 20
-34.58326761719433
 30
0.0
 40
3.5
 41
0.0
 71
     5
 72
     1
  1
\A1;145
1001
ACAD
1000
MTEXTBEGIN
1070
    73
1070
     1
1070
    44
1040
1.0
1070
    74
1070
     0
1000
MTEXTEND
  0
SOLID
  5
7A56
330
7006
100
AcDbEntity
  8
SK2
100
AcDbTrace
 10
-53.49999999999998
 20
-37.62039260147584
 30
0.0
 11
-53.49999999999998
 21
-38.45372593480917
 31
0.0
 12
-55.99999999999998
 22
-38.03705926814251
 32
0.0
 13
-55.99999999999998
 23
-38.03705926814251
 33
0.0
  0
SOLID
  5
7A57
330
7006
100
AcDbEntity
  8
SK2
100
AcDbTrace
 10
86.50000000000007
 20
-37.62039260147584
 30
0.0
 11
86.50000000000007
 21
-38.45372593480917
 31
0.0
 12
89.00000000000007
 22
-38.03705926814251
 32
0.0
 13
89.00000000000007
 23
-38.03705926814251
 33
0.0
  0
POINT
  5
7A58
330
7006
100
AcDbEntity
  8
DEFPOINTS
 62
     0
100
AcDbPoint
 10
-55.99999999999998
 20
-11.50000000000002
 30
0.0
  0
POINT
  5
7A59
330
7006
100
AcDbEntity
  8
DEFPOINTS
 62
     0
100
AcDbPoint
 10
89.00000000000007
 20
-12.50000000000002
 30
0.0
  0
POINT
  5
7A5A
330
7006
100
AcDbEntity
  8
DEFPOINTS
 62
     0
100
AcDbPoint
 10
89.00000000000007
 20
-38.03705926814251
 30
0.0
  0
ENDBLK
  5
7012
330
7006
100
AcDbEntity
  8
0
100
AcDbBlockEnd
  0
BLOCK
  5
7055
330
704A
100
AcDbEntity
  8
0
100
AcDbBlockBegin
  2
*D3
 70
     1
 10
0.0
 20
0.0
 30
0.0
  3
*D3
  1

  0
LINE
  5
79B7
330
704A
100
AcDbEntity
  8
SK2
100
AcDbLine
 10
3.999999999999971
 20
12.49999999999994
 30
0.0
 11
3.999999999999974
 21
61.0
 31
0.0
  0
LINE
  5
79B8
330
704A
100
AcDbEntity
  8
SK2
100
AcDbLine
 10
89.00000000000002
 20
12.50000000000002
 30
0.0
 11
89.00000000000002
 21
61.0
 31
0.0
  0
LINE
  5
79B9
330
704A
100
AcDbEntity
  8
SK2
100
AcDbLine
 10
6.499999999999975
 20
60.0
 30
0.0
 11
86.50000000000002
 21
60.0
 31
0.0
  0
MTEXT
  5
79BA
330
704A
100
AcDbEntity
  8
SK2
 62
     2
100
AcDbMText
 10
43.99787678071311
 20
63.47436924709246
 30
0.0
 40
3.5
 41
0.0
 71
     5
 72
     1
  1
\A1;85
1001
ACAD
1000
MTEXTBEGIN
1070
    73
1070
     1
1070
    44
1040
1.0
1070
    74
1070
     0
1000
MTEXTEND
  0
SOLID
  5
79BB
330
704A
100
AcDbEntity
  8
SK2
100
AcDbTrace
 10
6.499999999999975
 20
60.41666666666666
 30
0.0
 11
6.499999999999975
 21
59.58333333333333
 31
0.0
 12
3.999999999999974
 22
60.0
 32
0.0
 13
3.999999999999974
 23
60.0
 33
0.0
  0
SOLID
  5
79BC
330
704A
100
AcDbEntity
  8
SK2
100
AcDbTrace
 10
86.50000000000002
 20
60.41666666666666
 30
0.0
 11
86.50000000000002
 21
59.58333333333333
 31
0.0
 12
89.00000000000002
 22
60.0
 32
0.0
 13
89.00000000000002
 23
60.0
 33
0.0
  0
POINT
  5
79BD
330
704A
100
AcDbEntity
  8
DEFPOINTS
 62
     0
100
AcDbPoint
 10
3.999999999999971
 20
12.49999999999994
 30
0.0
  0
POINT
  5
79BE
330
704A
100
AcDbEntity
  8
DEFPOINTS
 62
     0
100
AcDbPoint
 10
89.00000000000002
 20
12.50000000000002
 30
0.0
  0
POINT
  5
79BF
330
704A
100
AcDbEntity
  8
DEFPOINTS
 62
     0
100
AcDbPoint
 10
89.00000000000002
 20
60.0
 30
0.0
  0
ENDBLK
  5
7056
330
704A
100
AcDbEntity
  8
0
100
AcDbBlockEnd
  0
BLOCK
  5
707F
330
7074
100
AcDbEntity
  8
0
100
AcDbBlockBegin
  2
*D4
 70
     1
 10
0.0
 20
0.0
 30
0.0
  3
*D4
  1

  0
LINE
  5
797E
330
7074
100
AcDbEntity
  8
2
100
AcDbLine
 10
89.00000000000002
 20
12.50000000000002
 30
0.0
 11
111.7963465890717
 21
12.50000000000002
 31
0.0
  0
LINE
  5
797F
330
7074
100
AcDbEntity
  8
2
100
AcDbLine
 10
89.00000000000007
 20
-12.50000000000002
 30
0.0
 11
111.7963465890717
 21
-12.50000000000003
 31
0.0
  0
LINE
  5
7980
330
7074
100
AcDbEntity
  8
2
100
AcDbLine
 10
110.7963465890717
 20
10.00000000000002
 30
0.0
 11
110.7963465890717
 21
-10.00000000000003
 31
0.0
  0
MTEXT
  5
7981
330
7074
100
AcDbEntity
  8
2
 62
     2
100
AcDbMText
 10
107.6562155679884
 20
0.0933614557617944
 30
0.0
 40
3.5
 41
0.0
 71
     5
 72
     1
  1
\A1;%%c25
 11
0.0000000000000001
 21
1.0
 31
0.0
1001
ACAD
1000
MTEXTBEGIN
1070
    73
1070
     1
1070
    44
1040
1.0
1070
    74
1070
     0
1000
MTEXTEND
  0
SOLID
  5
7982
330
7074
100
AcDbEntity
  8
2
100
AcDbTrace
 10
110.379679922405
 20
10.00000000000002
 30
0.0
 11
111.2130132557384
 21
10.00000000000002
 31
0.0
 12
110.7963465890717
 22
12.50000000000002
 32
0.0
 13
110.7963465890717
 23
12.50000000000002
 33
0.0
  0
SOLID
  5
7983
330
7074
100
AcDbEntity
  8
2
100
AcDbTrace
 10
110.379679922405
 20
-10.00000000000003
 30
0.0
 11
111.2130132557384
 21
-10.00000000000003
 31
0.0
 12
110.7963465890717
 22
-12.50000000000003
 32
0.0
 13
110.7963465890717
 23
-12.50000000000003
 33
0.0
  0
POINT
  5
7984
330
7074
100
AcDbEntity
  8
DEFPOINTS
 62
     0
100
AcDbPoint
 10
89.00000000000002
 20
12.50000000000002
 30
0.0
  0
POINT
  5
7985
330
7074
100
AcDbEntity
  8
DEFPOINTS
 62
     0
100
AcDbPoint
 10
89.00000000000007
 20
-12.50000000000002
 30
0.0
  0
POINT
  5
7986
330
7074
100
AcDbEntity
  8
DEFPOINTS
 62
     0
100
AcDbPoint
 10
110.7963465890717
 20
-12.50000000000003
 30
0.0
  0
ENDBLK
  5
7080
330
7074
100
AcDbEntity
  8
0
100
AcDbBlockEnd
  0
BLOCK
  5
7419
330
740E
100
AcDbEntity
  8
0
100
AcDbBlockBegin
  2
*D5
 70
     1
 10
0.0
 20
0.0
 30
0.0
  3
*D5
  1

  0
LINE
  5
7506
330
740E
100
AcDbEntity
  8
SK2
100
AcDbLine
 10
-54.99999999999999
 20
-12.50000000000002
 30
0.0
 11
-77.10747231352953
 21
-12.50000000000002
 31
0.0
  0
LINE
  5
7507
330
740E
100
AcDbEntity
  8
SK2
100
AcDbLine
 10
-55.00000000000007
 20
12.5
 30
0.0
 11
-77.10747231352953
 21
12.5
 31
0.0
  0
LINE
  5
7508
330
740E
100
AcDbEntity
  8
SK2
100
AcDbLine
 10
-76.10747231352952
 20
-10.00000000000002
 30
0.0
 11
-76.10747231352952
 21
10.0
 31
0.0
  0
MTEXT
  5
7509
330
740E
100
AcDbEntity
  8
SK2
 62
     2
100
AcDbMText
 10
-79.17522541557328
 20
-0.4833155496131099
 30
0.0
 40
3.5
 41
0.0
 71
     5
 72
     1
  1
\A1;%%c25
 11
0.0000000000000001
 21
1.0
 31
0.0
1001
ACAD
1000
MTEXTBEGIN
1070
    73
1070
     1
1070
    44
1040
1.0
1070
    74
1070
     0
1000
MTEXTEND
  0
SOLID
  5
750A
330
740E
100
AcDbEntity
  8
SK2
100
AcDbTrace
 10
-76.5241389801962
 20
-10.00000000000002
 30
0.0
 11
-75.69080564686285
 21
-10.00000000000002
 31
0.0
 12
-76.10747231352952
 22
-12.50000000000002
 32
0.0
 13
-76.10747231352952
 23
-12.50000000000002
 33
0.0
  0
SOLID
  5
750B
330
740E
100
AcDbEntity
  8
SK2
100
AcDbTrace
 10
-76.5241389801962
 20
10.0
 30
0.0
 11
-75.69080564686285
 21
10.0
 31
0.0
 12
-76.10747231352952
 22
12.5
 32
0.0
 13
-76.10747231352952
 23
12.5
 33
0.0
  0
POINT
  5
750C
330
740E
100
AcDbEntity
  8
DEFPOINTS
 62
     0
100
AcDbPoint
 10
-54.99999999999999
 20
-12.50000000000002
 30
0.0
  0
POINT
  5
750D
330
740E
100
AcDbEntity
  8
DEFPOINTS
 62
     0
100
AcDbPoint
 10
-55.00000000000007
 20
12.5
 30
0.0
  0
POINT
  5
750E
330
740E
100
AcDbEntity
  8
DEFPOINTS
 62
     0
100
AcDbPoint
 10
-76.10747231352952
 20
12.5
 30
0.0
  0
ENDBLK
  5
741A
330
740E
100
AcDbEntity
  8
0
100
AcDbBlockEnd
  0
BLOCK
  5
7802
330
77F6
100
AcDbEntity
  8
0
100
AcDbBlockBegin
  2
*D6
 70
     1
 10
0.0
 20
0.0
 30
0.0
  3
*D6
  1

  0
LINE
  5
7A2E
330
77F6
100
AcDbEntity
  8
2
100
AcDbLine
 10
89.00000000000003
 20
12.50000000000002
 30
0.0
 11
89.00000000000003
 21
46.00000000000003
 31
0.0
  0
LINE
  5
7A2F
330
77F6
100
AcDbEntity
  8
2
100
AcDbLine
 10
76.50000000000003
 20
12.50000000000002
 30
0.0
 11
76.50000000000003
 21
46.00000000000003
 31
0.0
  0
LINE
  5
7A30
330
77F6
100
AcDbEntity
  8
2
100
AcDbLine
 10
86.50000000000003
 20
45.00000000000002
 30
0.0
 11
79.00000000000003
 21
45.00000000000002
 31
0.0
  0
MTEXT
  5
7A31
330
77F6
100
AcDbEntity
  8
2
 62
     2
100
AcDbMText
 10
82.46421572431655
 20
48.39452632487677
 30
0.0
 40
3.5
 41
0.0
 71
     5
 72
     1
  1
\A1;12.5
1001
ACAD
1000
MTEXTBEGIN
1070
    73
1070
     1
1070
    44
1040
1.0
1070
    74
1070
     0
1000
MTEXTEND
  0
SOLID
  5
7A32
330
77F6
100
AcDbEntity
  8
2
100
AcDbTrace
 10
86.50000000000003
 20
45.41666666666669
 30
0.0
 11
86.50000000000003
 21
44.58333333333336
 31
0.0
 12
89.00000000000003
 22
45.00000000000002
 32
0.0
 13
89.00000000000003
 23
45.00000000000002
 33
0.0
  0
SOLID
  5
7A33
330
77F6
100
AcDbEntity
  8
2
100
AcDbTrace
 10
79.00000000000003
 20
45.41666666666669
 30
0.0
 11
79.00000000000003
 21
44.58333333333336
 31
0.0
 12
76.50000000000003
 22
45.00000000000002
 32
0.0
 13
76.50000000000003
 23
45.00000000000002
 33
0.0
  0
POINT
  5
7A34
330
77F6
100
AcDbEntity
  8
DEFPOINTS
 62
     0
100
AcDbPoint
 10
89.00000000000003
 20
12.50000000000002
 30
0.0
  0
POINT
  5
7A35
330
77F6
100
AcDbEntity
  8
DEFPOINTS
 62
     0
100
AcDbPoint
 10
76.50000000000003
 20
12.50000000000002
 30
0.0
  0
POINT
  5
7A36
330
77F6
100
AcDbEntity
  8
DEFPOINTS
 62
     0
100
AcDbPoint
 10
76.50000000000003
 20
45.00000000000002
 30
0.0
  0
ENDBLK
  5
7803
330
77F6
100
AcDbEntity
  8
0
100
AcDbBlockEnd
  0
ENDSEC
  0
SECTION
  2
ENTITIES
  0
LINE
  5
6CF8
330
6A34
100
AcDbEntity
  8
1
100
AcDbLine
 10
3.999999999999971
 20
12.49999999999994
 30
0.0
 11
3.999999999999971
 21
-12.50000000000005
 31
0.0
  0
LINE
  5
6CF9
330
6A34
100
AcDbEntity
  8
1
100
AcDbLine
 10
3.999999999999971
 20
-12.50000000000005
 30
0.0
 11
0.0000000000000711
 21
-12.50000000000002
 31
0.0
  0
LINE
  5
6CFA
330
6A34
100
AcDbEntity
  8
SK1
100
AcDbLine
 10
-55.99999999999998
 20
-11.50000000000002
 30
0.0
 11
-56.00000000000007
 21
11.5
 31
0.0
  0
LINE
  5
6CFB
330
6A34
100
AcDbEntity
  8
SK1
100
AcDbLine
 10
-55.00000000000007
 20
12.5
 30
0.0
 11
-0.0000000000000568
 21
12.49999999999997
 31
0.0
  0
LINE
  5
6D61
330
6A34
100
AcDbEntity
  8
SK1
100
AcDbLine
 10
-30.00000000000001
 20
-6.780000000000029
 30
0.0
 11
-30.00000000000001
 21
6.779999999999972
 31
0.0
  0
LINE
  5
6D62
330
6A34
100
AcDbEntity
  8
SK1
100
AcDbLine
 10
-30.00000000000001
 20
6.779999999999972
 30
0.0
 11
-18.00000000000009
 21
6.779999999999972
 31
0.0
  0
LINE
  5
6D63
330
6A34
100
AcDbEntity
  8
SK1
100
AcDbLine
 10
-18.00000000000009
 20
6.779999999999972
 30
0.0
 11
-18.00000000000009
 21
-6.780000000000029
 31
0.0
  0
LINE
  5
6D64
330
6A34
100
AcDbEntity
  8
SK1
100
AcDbLine
 10
-18.00000000000009
 20
-6.780000000000029
 30
0.0
 11
-30.00000000000001
 21
-6.780000000000029
 31
0.0
  0
LINE
  5
6D65
330
6A34
100
AcDbEntity
  8
SK1
100
AcDbLine
 10
-56.0
 20
-6.780000000000029
 30
0.0
 11
-38.99999999999998
 21
-6.780000000000029
 31
0.0
  0
LINE
  5
6D66
330
6A34
100
AcDbEntity
  8
SK1
100
AcDbLine
 10
-38.99999999999998
 20
-6.780000000000029
 30
0.0
 11
-38.99999999999998
 21
6.779999999999972
 31
0.0
  0
LINE
  5
6D67
330
6A34
100
AcDbEntity
  8
SK1
100
AcDbLine
 10
-38.99999999999998
 20
6.779999999999972
 30
0.0
 11
-56.00000000000005
 21
6.780000000000001
 31
0.0
  0
ARC
  5
6D7F
330
6A34
100
AcDbEntity
  8
SK1
100
AcDbCircle
 10
-28.4920999999999
 20
0.0
 30
0.0
 40
12.49209999999985
100
AcDbArc
 50
327.1294363887067
 51
32.87056361129322
  0
ARC
  5
6D80
330
6A34
100
AcDbEntity
  8
SK1
100
AcDbCircle
 10
-19.50790000000003
 20
0.0000000000000284
 30
0.0
 40
12.49209999999998
100
AcDbArc
 50
147.1294363887073
 51
212.8705636112929
  0
ARC
  5
6D81
330
6A34
100
AcDbEntity
  8
SK1
100
AcDbCircle
 10
-49.49209999999991
 20
0.0000000000000284
 30
0.0
 40
12.49209999999996
100
AcDbArc
 50
327.1294363887069
 51
32.87056361129283
  0
LINE
  5
6DD1
330
6A34
100
AcDbEntity
  8
SK1
100
AcDbLine
 10
-54.99999999999999
 20
-12.50000000000002
 30
0.0
 11
-55.99999999999998
 21
-11.50000000000002
 31
0.0
1001
GENIUS_GENFIL_13
1070
     0
1040
1.0
1040
1.0
1040
0.0
1040
0.0
1002
{
1002
}
1001
GENIUS_GENODEF_13
1002
{
1000
HIER
1070
     0
1002
}
1002
{
1000
MANEDIT
1070
     0
1002
}
1002
{
1000
NOSEL
1070
     0
1002
}
1002
{
1000
BEHIND
1070
     0
1002
}
1002
{
1000
OTHER
1070
     0
1002
}
1002
{
1000
REACTOR
1002
}
1001
GENIUS_GENOBJ-N-CHA_13
1002
{
1000
OWNER
1000
GEN
1002
}
  0
LINE
  5
6DD5
330
6A34
100
AcDbEntity
  8
SK1
100
AcDbLine
 10
-55.00000000000007
 20
12.5
 30
0.0
 11
-56.00000000000007
 21
11.5
 31
0.0
1001
GENIUS_GENFIL_13
1070
     0
1040
1.0
1040
1.0
1040
0.0
1040
0.0
1002
{
1002
}
1001
GENIUS_GENODEF_13
1002
{
1000
HIER
1070
     0
1002
}
1002
{
1000
MANEDIT
1070
     0
1002
}
1002
{
1000
NOSEL
1070
     0
1002
}
1002
{
1000
BEHIND
1070
     0
1002
}
1002
{
1000
OTHER
1070
     0
1002
}
1002
{
1000
REACTOR
1002
}
1001
GENIUS_GENOBJ-N-CHA_13
1002
{
1000
OWNER
1000
GEN
1002
}
  0
LINE
  5
6DD6
330
6A34
100
AcDbEntity
  8
SK1
100
AcDbLine
 10
-54.99999999999999
 20
-12.50000000000002
 30
0.0
 11
-55.0
 21
-6.780000000000029
 31
0.0
  0
LINE
  5
6DE1
330
6A34
100
AcDbEntity
  8
1
100
AcDbLine
 10
75.50580587159839
 20
11.7711343434168
 30
0.0
 11
3.999999999999971
 21
11.7711343434168
 31
0.0
  0
LINE
  5
6DFA
330
6A34
100
AcDbEntity
  8
1
100
AcDbLine
 10
87.99679480008384
 20
-11.77113434341691
 30
0.0
 11
75.50580587159847
 21
-11.77113434341691
 31
0.0
  0
LINE
  5
6DFB
330
6A34
100
AcDbEntity
  8
1
100
AcDbLine
 10
87.99679480008384
 20
8.012195871757011
 30
0.0
 11
87.99679480008382
 21
-8.012195871756709
 31
0.0
  0
LINE
  5
6E09
330
6A34
100
AcDbEntity
  8
4
100
AcDbLine
 10
92.75253923952108
 20
-0.0000000000000853
 30
0.0
 11
-0.0000000000000142
 21
0.000000000000199
 31
0.0
  0
LINE
  5
6E0A
330
6A34
100
AcDbEntity
  8
SK4
100
AcDbLine
 10
-0.0000000000000142
 20
0.000000000000199
 30
0.0
 11
-58.42491867849462
 21
-0.0000000000000284
 31
0.0
  0
LINE
  5
6E0E
330
6A34
100
AcDbEntity
  8
SK1
100
AcDbLine
 10
0.0000000000000711
 20
-12.50000000000002
 30
0.0
 11
-54.99999999999999
 21
-12.50000000000002
 31
0.0
  0
LINE
  5
6E0F
330
6A34
100
AcDbEntity
  8
1
100
AcDbLine
 10
-0.0000000000000568
 20
12.49999999999997
 30
0.0
 11
3.999999999999971
 21
12.49999999999994
 31
0.0
  0
CIRCLE
  5
6E11
330
6A34
100
AcDbEntity
  8
SK1
100
AcDbCircle
 10
0.0
 20
0.0
 30
0.0
 40
3.200115174948665
  0
LINE
  5
6E12
330
6A34
100
AcDbEntity
  8
SK1
100
AcDbLine
 10
0.0
 20
3.200115174948678
 30
0.0
 11
0.0
 21
-3.200115174948678
 31
0.0
  0
LINE
  5
6E13
330
6A34
100
AcDbEntity
  8
SK1
100
AcDbLine
 10
-3.200115174948678
 20
0.0
 30
0.0
 11
3.200115174948678
 21
0.0
 31
0.0
  0
LINE
  5
6E15
330
6A34
100
AcDbEntity
  8
SK1
100
AcDbLine
 10
-55.00000000000005
 20
6.779999999999972
 30
0.0
 11
-55.00000000000007
 21
12.5
 31
0.0
  0
ARC
  5
6E2C
330
6A34
100
AcDbEntity
  8
1
100
AcDbCircle
 10
77.1534828069763
 20
9.771134343416804
 30
0.0
 40
8.0
100
AcDbArc
 50
165.5224878140701
 51
269.9999999999996
1001
GENIUS_GENOBJ-N-FIL_13
1002
{
1000
OWNER
1000
GEN
1002
}
1001
GENIUS_GENODEF_13
1002
{
1000
HIER
1070
     0
1002
}
1002
{
1000
MANEDIT
1070
     0
1002
}
1002
{
1000
NOSEL
1070
     0
1002
}
1002
{
1000
BEHIND
1070
     0
1002
}
1002
{
1000
OTHER
1070
     0
1002
}
1002
{
1000
REACTOR
1002
}
  0
ARC
  5
6E36
330
6A34
100
AcDbEntity
  8
SK3
 48
0.3
100
AcDbCircle
 10
77.15348280697606
 20
-9.771134343416832
 30
0.0
 40
8.0
100
AcDbArc
 50
89.99999999999891
 51
194.4775121859306
1001
GENIUS_GENOBJ-N-FIL_13
1002
{
1000
OWNER
1000
GEN
1002
}
1001
GENIUS_GENODEF_13
1002
{
1000
HIER
1070
     0
1002
}
1002
{
1000
MANEDIT
1070
     0
1002
}
1002
{
1000
NOSEL
1070
     0
1002
}
1002
{
1000
BEHIND
1070
     0
1002
}
1002
{
1000
OTHER
1070
     0
1002
}
1002
{
1000
REACTOR
1002
}
  0
CIRCLE
  5
6ED0
330
6A34
100
AcDbEntity
  8
SK1
100
AcDbCircle
 10
89.00000000000007
 20
-12.50000000000002
 30
0.0
 40
0.4637693698488208
  0
LINE
  5
6ED1
330
6A34
100
AcDbEntity
  8
SK1
100
AcDbLine
 10
88.53623063015126
 20
-12.50000000000002
 30
0.0
 11
89.46376936984888
 21
-12.50000000000002
 31
0.0
  0
LINE
  5
6ED2
330
6A34
100
AcDbEntity
  8
SK1
100
AcDbLine
 10
89.00000000000007
 20
-12.96376936984884
 30
0.0
 11
89.00000000000007
 21
-12.03623063015121
 31
0.0
  0
LINE
  5
6F46
330
6A34
100
AcDbEntity
  8
NOCUT
100
AcDbLine
 10
0.0
 20
0.0
 30
0.0
 11
0.0
 21
-12.50000000000002
 31
0.0
  0
LINE
  5
6F47
330
6A34
100
AcDbEntity
  8
NOCUT
100
AcDbLine
 10
0.0
 20
-12.50000000000002
 30
0.0
 11
3.999999999999971
 21
-12.50000000000005
 31
0.0
  0
LINE
  5
6F48
330
6A34
100
AcDbEntity
  8
NOCUT
100
AcDbLine
 10
3.999999999999971
 20
-12.50000000000005
 30
0.0
 11
3.999999999999971
 21
-11.77113434341691
 31
0.0
  0
LINE
  5
6F49
330
6A34
100
AcDbEntity
  8
NOCUT
100
AcDbLine
 10
3.999999999999971
 20
-11.77113434341691
 30
0.0
 11
75.50580587159847
 21
-11.77113434341691
 31
0.0
  0
LINE
  5
6F4A
330
6A34
100
AcDbEntity
  8
NOCUT
100
AcDbLine
 10
87.99679480008384
 20
-11.77113434341691
 30
0.0
 11
87.99679480008384
 21
-8.012195871756709
 31
0.0
  0
LINE
  5
6F4B
330
6A34
100
AcDbEntity
  8
NOCUT
100
AcDbLine
 10
87.99679480008384
 20
-0.0000000000000568
 30
0.0
 11
0.0
 21
0.0
 31
0.0
  0
DIMENSION
  5
6F7B
330
6A34
100
AcDbEntity
  8
2
100
AcDbDimension
  2
*D1
 10
89.00000000000002
 20
75.0
 30
0.0
 11
41.21959202314542
 21
78.23103846018511
 31
0.0
 70
   160
  3
AM_ANSI
100
AcDbAlignedDimension
 13
-0.0000000000000568
 23
12.49999999999997
 33
0.0
 14
89.00000000000002
 24
12.50000000000002
 34
0.0
100
AcDbRotatedDimension
1001
ACAD
1000
DSTYLE
1002
{
1070
    41
1040
2.5
1070
    42
1040
0.0
1070
    44
1040
1.0
1070
    77
1070
     1
1070
   140
1040
3.5
1070
   147
1040
1.0
1070
   271
1070
     0
1002
}
  0
DIMENSION
  5
7005
330
6A34
100
AcDbEntity
  8
SK2
100
AcDbDimension
  2
*D2
 10
89.00000000000007
 20
-38.03705926814251
 30
0.0
 11
4.016149141157939
 21
-34.58326761719433
 31
0.0
 70
   160
  3
AM_ANSI
100
AcDbAlignedDimension
 13
-55.99999999999998
 23
-11.50000000000002
 33
0.0
 14
89.00000000000007
 24
-12.50000000000002
 34
0.0
100
AcDbRotatedDimension
1001
ACAD
1000
DSTYLE
1002
{
1070
    41
1040
2.5
1070
    42
1040
0.0
1070
    44
1040
1.0
1070
    77
1070
     1
1070
   140
1040
3.5
1070
   147
1040
1.0
1070
   271
1070
     0
1002
}
  0
DIMENSION
  5
7049
330
6A34
100
AcDbEntity
  8
SK2
100
AcDbDimension
  2
*D3
 10
89.00000000000002
 20
60.0
 30
0.0
 11
43.99787678071311
 21
63.47436924709246
 31
0.0
 70
   160
  3
AM_ANSI
100
AcDbAlignedDimension
 13
3.999999999999971
 23
12.49999999999994
 33
0.0
 14
89.00000000000002
 24
12.50000000000002
 34
0.0
100
AcDbRotatedDimension
1001
ACAD
1000
DSTYLE
1002
{
1070
    41
1040
2.5
1070
    42
1040
0.0
1070
    44
1040
1.0
1070
    77
1070
     1
1070
   140
1040
3.5
1070
   147
1040
1.0
1070
   271
1070
     0
1002
}
  0
DIMENSION
  5
7073
330
6A34
100
AcDbEntity
  8
2
100
AcDbDimension
  2
*D4
 10
110.7963465890717
 20
-12.50000000000003
 30
0.0
 11
107.6562155679884
 21
0.0933614557617944
 31
0.0
 70
   160
  1
%%c<>
 53
90.0
  3
AM_ANSI
100
AcDbAlignedDimension
 13
89.00000000000002
 23
12.50000000000002
 33
0.0
 14
89.00000000000007
 24
-12.50000000000002
 34
0.0
 50
90.0
100
AcDbRotatedDimension
1001
ACAD
1000
DSTYLE
1002
{
1070
    41
1040
2.5
1070
    42
1040
0.0
1070
    44
1040
1.0
1070
    77
1070
     1
1070
   140
1040
3.5
1070
   147
1040
1.0
1070
   271
1070
     0
1002
}
  0
DIMENSION
  5
740D
330
6A34
100
AcDbEntity
  8
SK2
100
AcDbDimension
  2
*D5
 10
-76.10747231352952
 20
12.5
 30
0.0
 11
-79.17522541557328
 21
-0.4833155496131099
 31
0.0
 70
   160
  1
%%c<>
 53
90.0
  3
AM_ANSI
100
AcDbAlignedDimension
 13
-54.99999999999999
 23
-12.50000000000002
 33
0.0
 14
-55.00000000000007
 24
12.5
 34
0.0
 50
90.0
100
AcDbRotatedDimension
1001
ACAD
1000
DSTYLE
1002
{
1070
    41
1040
2.5
1070
    42
1040
0.0
1070
    44
1040
1.0
1070
   140
1040
3.5
1070
   147
1040
1.0
1070
   271
1070
     0
1002
}
  0
TEXT
  5
748C
330
6A34
100
AcDbEntity
  8
6
100
AcDbText
 10
116.1164027307173
 20
-4.389388396538663
 30
0.0
 40
3.5
  1
Z=2
 50
90.0
100
AcDbText
  0
TEXT
  5
74DA
330
6A34
100
AcDbEntity
  8
6
100
AcDbText
 10
92.39901424778363
 20
-22.40511522231446
 30
0.0
 40
3.5
  1
12J1C025085W5R00
100
AcDbText
  0
CIRCLE
  5
756C
330
6A34
100
AcDbEntity
  8
SK1
100
AcDbCircle
 10
89.00000000000003
 20
12.50000000000002
 30
0.0
 40
0.4637693698488208
  0
LINE
  5
756D
330
6A34
100
AcDbEntity
  8
SK1
100
AcDbLine
 10
88.5362306301512
 20
12.50000000000002
 30
0.0
 11
89.46376936984885
 21
12.50000000000002
 31
0.0
  0
LINE
  5
756E
330
6A34
100
AcDbEntity
  8
SK1
100
AcDbLine
 10
89.00000000000003
 20
12.96376936984884
 30
0.0
 11
89.00000000000003
 21
12.03623063015121
 31
0.0
  0
LINE
  5
75C4
330
6A34
100
AcDbEntity
  8
4
100
AcDbLine
 10
67.05382925016133
 20
0.0000000000000677
 30
0.0
 11
77.17415493815778
 21
4.617832271152906
 31
0.0
  0
TEXT
  5
7724
330
6A34
100
AcDbEntity
  8
6
100
AcDbText
 10
92.22957908285511
 20
18.08810593044518
 30
0.0
 40
2.5
  1
BCKT130404R
100
AcDbText
  0
DIMENSION
  5
77EB
330
6A34
100
AcDbEntity
  8
2
100
AcDbDimension
  2
*D6
 10
76.50000000000003
 20
45.00000000000002
 30
0.0
 11
82.46421572431655
 21
48.39452632487677
 31
0.0
 70
   160
  3
AM_DIN
100
AcDbAlignedDimension
 13
89.00000000000003
 23
12.50000000000002
 33
0.0
 14
76.50000000000003
 24
12.50000000000002
 34
0.0
100
AcDbRotatedDimension
  0
LINE
  5
7896
330
6A34
100
AcDbEntity
  8
1
100
AcDbLine
 10
76.01000000000002
 20
12.49999999999998
 30
0.0
 11
88.60000000000004
 21
12.50000000000003
 31
0.0
  0
LINE
  5
7897
330
6A34
100
AcDbEntity
  8
1
100
AcDbLine
 10
89.00000000000003
 20
12.10000000000003
 30
0.0
 11
89.00000000000003
 21
10.50000000000006
 31
0.0
  0
LINE
  5
7898
330
6A34
100
AcDbEntity
  8
1
100
AcDbLine
 10
89.00000000000003
 20
10.50000000000003
 30
0.0
 11
88.25110981706727
 21
9.500000000000063
 31
0.0
  0
LINE
  5
7899
330
6A34
100
AcDbEntity
  8
1
100
AcDbLine
 10
88.25110981706719
 20
9.499999999999978
 30
0.0
 11
87.44645992542663
 21
4.792604248173951
 31
0.0
  0
ARC
  5
789A
330
6A34
100
AcDbEntity
  8
1
100
AcDbCircle
 10
88.60000000000004
 20
12.10000000000003
 30
0.0
 40
0.4
100
AcDbArc
 50
0.0
 51
90.0
1001
GENIUS_GENOBJ-N-FIL_13
1002
{
1000
OWNER
1000
GEN
1002
}
1001
GENIUS_GENODEF_13
1002
{
1000
HIER
1070
     0
1002
}
1002
{
1000
MANEDIT
1070
     0
1002
}
1002
{
1000
NOSEL
1070
     0
1002
}
1002
{
1000
BEHIND
1070
     0
1002
}
1002
{
1000
OTHER
1070
     0
1002
}
1002
{
1000
REACTOR
1002
}
  0
ARC
  5
789B
330
6A34
100
AcDbEntity
  8
1
100
AcDbCircle
 10
87.05217853779108
 20
4.859999999999963
 30
0.0
 40
0.4
100
AcDbArc
 50
270.0
 51
350.3
1001
GENIUS_GENODEF_13
1002
{
1000
HIER
1070
     0
1002
}
1002
{
1000
MANEDIT
1070
     0
1002
}
1002
{
1000
NOSEL
1070
     0
1002
}
1002
{
1000
BEHIND
1070
     0
1002
}
1002
{
1000
OTHER
1070
     0
1002
}
1002
{
1000
REACTOR
1002
}
1001
GENIUS_GENOBJ-N-FIL_13
1002
{
1000
OWNER
1000
GEN
1002
}
  0
CIRCLE
  5
789C
330
6A34
100
AcDbEntity
  8
1
100
AcDbCircle
 10
81.51000000000001
 20
8.480000000000025
 30
0.0
 40
2.749999999999976
  0
LINE
  5
789D
330
6A34
100
AcDbEntity
  8
1
100
AcDbLine
 10
74.02000000000001
 20
4.86000000000002
 30
0.0
 11
74.02000000000001
 21
6.459999999999986
 31
0.0
  0
LINE
  5
789E
330
6A34
100
AcDbEntity
  8
1
100
AcDbLine
 10
74.02000000000001
 20
6.460000000000015
 30
0.0
 11
74.76889018293277
 21
7.459999999999986
 31
0.0
  0
LINE
  5
789F
330
6A34
100
AcDbEntity
  8
1
100
AcDbLine
 10
74.76889018293284
 20
7.460000000000071
 30
0.0
 11
75.5735400745734
 21
12.1673957518261
 31
0.0
  0
LINE
  5
78A0
330
6A34
100
AcDbEntity
  8
1
100
AcDbLine
 10
87.01000000000002
 20
4.460000000000043
 30
0.0
 11
74.41999999999999
 21
4.460000000000015
 31
0.0
  0
ARC
  5
78A1
330
6A34
100
AcDbEntity
  8
1
100
AcDbCircle
 10
74.41999999999999
 20
4.859999999999992
 30
0.0
 40
0.4
100
AcDbArc
 50
180.0
 51
270.0
1001
GENIUS_GENOBJ-N-FIL_13
1002
{
1000
OWNER
1000
GEN
1002
}
1001
GENIUS_GENODEF_13
1002
{
1000
HIER
1070
     0
1002
}
1002
{
1000
MANEDIT
1070
     0
1002
}
1002
{
1000
NOSEL
1070
     0
1002
}
1002
{
1000
BEHIND
1070
     0
1002
}
1002
{
1000
OTHER
1070
     0
1002
}
1002
{
1000
REACTOR
1002
}
  0
ARC
  5
78A2
330
6A34
100
AcDbEntity
  8
1
100
AcDbCircle
 10
75.96782146220895
 20
12.10000000000005
 30
0.0
 40
0.4
100
AcDbArc
 50
90.0
 51
170.3
1001
GENIUS_GENODEF_13
1002
{
1000
HIER
1070
     0
1002
}
1002
{
1000
MANEDIT
1070
     0
1002
}
1002
{
1000
NOSEL
1070
     0
1002
}
1002
{
1000
BEHIND
1070
     0
1002
}
1002
{
1000
OTHER
1070
     0
1002
}
1002
{
1000
REACTOR
1002
}
1001
GENIUS_GENOBJ-N-FIL_13
1002
{
1000
OWNER
1000
GEN
1002
}
  0
LINE
  5
78A6
330
6A34
100
AcDbEntity
  8
CUT
100
AcDbLine
 10
76.01000000000002
 20
12.49999999999998
 30
0.0
 11
88.60000000000004
 21
12.50000000000003
 31
0.0
  0
LINE
  5
78A7
330
6A34
100
AcDbEntity
  8
CUT
100
AcDbLine
 10
87.01000000000002
 20
4.460000000000043
 30
0.0
 11
74.41999999999999
 21
4.460000000000015
 31
0.0
  0
CIRCLE
  5
78A8
330
6A34
100
AcDbEntity
  8
CUT
100
AcDbCircle
 10
81.51000000000001
 20
8.480000000000025
 30
0.0
 40
2.749999999999976
  0
LINE
  5
78A9
330
6A34
100
AcDbEntity
  8
CUT
100
AcDbLine
 10
74.76889018293284
 20
7.460000000000071
 30
0.0
 11
75.5735400745734
 21
12.1673957518261
 31
0.0
  0
LINE
  5
78AA
330
6A34
100
AcDbEntity
  8
CUT
100
AcDbLine
 10
74.02000000000001
 20
4.86000000000002
 30
0.0
 11
74.02000000000001
 21
6.459999999999986
 31
0.0
  0
ARC
  5
78AB
330
6A34
100
AcDbEntity
  8
CUT
100
AcDbCircle
 10
74.41999999999999
 20
4.859999999999992
 30
0.0
 40
0.4
100
AcDbArc
 50
180.0
 51
270.0
1001
GENIUS_GENOBJ-N-FIL_13
1002
{
1000
OWNER
1000
GEN
1002
}
1001
GENIUS_GENODEF_13
1002
{
1000
HIER
1070
     0
1002
}
1002
{
1000
MANEDIT
1070
     0
1002
}
1002
{
1000
NOSEL
1070
     0
1002
}
1002
{
1000
BEHIND
1070
     0
1002
}
1002
{
1000
OTHER
1070
     0
1002
}
1002
{
1000
REACTOR
1002
}
  0
LINE
  5
78AC
330
6A34
100
AcDbEntity
  8
CUT
100
AcDbLine
 10
74.02000000000001
 20
6.460000000000015
 30
0.0
 11
74.76889018293277
 21
7.459999999999986
 31
0.0
  0
ARC
  5
78AD
330
6A34
100
AcDbEntity
  8
CUT
100
AcDbCircle
 10
75.96782146220895
 20
12.10000000000005
 30
0.0
 40
0.4
100
AcDbArc
 50
90.0
 51
170.3
1001
GENIUS_GENODEF_13
1002
{
1000
HIER
1070
     0
1002
}
1002
{
1000
MANEDIT
1070
     0
1002
}
1002
{
1000
NOSEL
1070
     0
1002
}
1002
{
1000
BEHIND
1070
     0
1002
}
1002
{
1000
OTHER
1070
     0
1002
}
1002
{
1000
REACTOR
1002
}
1001
GENIUS_GENOBJ-N-FIL_13
1002
{
1000
OWNER
1000
GEN
1002
}
  0
LINE
  5
78AE
330
6A34
100
AcDbEntity
  8
CUT
100
AcDbLine
 10
89.00000000000003
 20
12.10000000000003
 30
0.0
 11
89.00000000000003
 21
10.50000000000006
 31
0.0
  0
LINE
  5
78AF
330
6A34
100
AcDbEntity
  8
CUT
100
AcDbLine
 10
88.25110981706719
 20
9.499999999999978
 30
0.0
 11
87.44645992542663
 21
4.792604248173951
 31
0.0
  0
ARC
  5
78B0
330
6A34
100
AcDbEntity
  8
CUT
100
AcDbCircle
 10
87.05217853779108
 20
4.859999999999963
 30
0.0
 40
0.4
100
AcDbArc
 50
270.0
 51
350.3
1001
GENIUS_GENODEF_13
1002
{
1000
HIER
1070
     0
1002
}
1002
{
1000
MANEDIT
1070
     0
1002
}
1002
{
1000
NOSEL
1070
     0
1002
}
1002
{
1000
BEHIND
1070
     0
1002
}
1002
{
1000
OTHER
1070
     0
1002
}
1002
{
1000
REACTOR
1002
}
1001
GENIUS_GENOBJ-N-FIL_13
1002
{
1000
OWNER
1000
GEN
1002
}
  0
LINE
  5
78B1
330
6A34
100
AcDbEntity
  8
CUT
100
AcDbLine
 10
89.00000000000003
 20
10.50000000000003
 30
0.0
 11
88.25110981706727
 21
9.500000000000063
 31
0.0
  0
ARC
  5
78B2
330
6A34
100
AcDbEntity
  8
CUT
100
AcDbCircle
 10
88.60000000000004
 20
12.10000000000003
 30
0.0
 40
0.4
100
AcDbArc
 50
0.0
 51
90.0
1001
GENIUS_GENOBJ-N-FIL_13
1002
{
1000
OWNER
1000
GEN
1002
}
1001
GENIUS_GENODEF_13
1002
{
1000
HIER
1070
     0
1002
}
1002
{
1000
MANEDIT
1070
     0
1002
}
1002
{
1000
NOSEL
1070
     0
1002
}
1002
{
1000
BEHIND
1070
     0
1002
}
1002
{
1000
OTHER
1070
     0
1002
}
1002
{
1000
REACTOR
1002
}
  0
LINE
  5
791F
330
6A34
100
AcDbEntity
  8
1
100
AcDbLine
 10
88.25110981706727
 20
-9.499999999999992
 30
0.0
 11
87.99679480008384
 21
-8.012195871756709
 31
0.0
  0
LINE
  5
7920
330
6A34
100
AcDbEntity
  8
SK3
100
AcDbLine
 10
74.76889018293289
 20
-7.460000000000086
 30
0.0
 11
75.50580587159847
 21
-11.77113434341692
 31
0.0
  0
CIRCLE
  5
7921
330
6A34
100
AcDbEntity
  8
SK3
100
AcDbCircle
 10
81.51000000000008
 20
-8.480000000000039
 30
0.0
 40
2.749999999999976
  0
LINE
  5
7922
330
6A34
100
AcDbEntity
  8
SK3
100
AcDbLine
 10
87.01000000000007
 20
-4.460000000000057
 30
0.0
 11
74.42000000000004
 21
-4.460000000000029
 31
0.0
  0
ARC
  5
7923
330
6A34
100
AcDbEntity
  8
SK3
100
AcDbCircle
 10
74.42000000000004
 20
-4.860000000000006
 30
0.0
 40
0.4
100
AcDbArc
 50
90.00000000000003
 51
180.0
1001
GENIUS_GENOBJ-N-FIL_13
1002
{
1000
OWNER
1000
GEN
1002
}
1001
GENIUS_GENODEF_13
1002
{
1000
HIER
1070
     0
1002
}
1002
{
1000
MANEDIT
1070
     0
1002
}
1002
{
1000
NOSEL
1070
     0
1002
}
1002
{
1000
BEHIND
1070
     0
1002
}
1002
{
1000
OTHER
1070
     0
1002
}
1002
{
1000
REACTOR
1002
}
  0
LINE
  5
7924
330
6A34
100
AcDbEntity
  8
SK3
100
AcDbLine
 10
74.02000000000007
 20
-4.860000000000034
 30
0.0
 11
74.02000000000007
 21
-6.46
 31
0.0
  0
LINE
  5
7925
330
6A34
100
AcDbEntity
  8
SK3
100
AcDbLine
 10
74.02000000000007
 20
-6.460000000000029
 30
0.0
 11
74.76889018293284
 21
-7.46
 31
0.0
  0
ARC
  5
7926
330
6A34
100
AcDbEntity
  8
SK3
100
AcDbCircle
 10
87.05217853779116
 20
-4.859999999999978
 30
0.0
 40
0.4
100
AcDbArc
 50
9.699999999999919
 51
90.00000000000003
1001
GENIUS_GENODEF_13
1002
{
1000
HIER
1070
     0
1002
}
1002
{
1000
MANEDIT
1070
     0
1002
}
1002
{
1000
NOSEL
1070
     0
1002
}
1002
{
1000
BEHIND
1070
     0
1002
}
1002
{
1000
OTHER
1070
     0
1002
}
1002
{
1000
REACTOR
1002
}
1001
GENIUS_GENOBJ-N-FIL_13
1002
{
1000
OWNER
1000
GEN
1002
}
  0
LINE
  5
7927
330
6A34
100
AcDbEntity
  8
1
100
AcDbLine
 10
76.01000000000007
 20
-12.49999999999999
 30
0.0
 11
88.60000000000011
 21
-12.50000000000005
 31
0.0
  0
ARC
  5
7928
330
6A34
100
AcDbEntity
  8
1
100
AcDbCircle
 10
75.967821462209
 20
-12.10000000000007
 30
0.0
 40
0.4
100
AcDbArc
 50
189.6999999999999
 51
270.0
1001
GENIUS_GENODEF_13
1002
{
1000
HIER
1070
     0
1002
}
1002
{
1000
MANEDIT
1070
     0
1002
}
1002
{
1000
NOSEL
1070
     0
1002
}
1002
{
1000
BEHIND
1070
     0
1002
}
1002
{
1000
OTHER
1070
     0
1002
}
1002
{
1000
REACTOR
1002
}
1001
GENIUS_GENOBJ-N-FIL_13
1002
{
1000
OWNER
1000
GEN
1002
}
  0
LINE
  5
7929
330
6A34
100
AcDbEntity
  8
1
100
AcDbLine
 10
89.00000000000009
 20
-12.10000000000004
 30
0.0
 11
89.00000000000009
 21
-10.50000000000007
 31
0.0
  0
LINE
  5
792A
330
6A34
100
AcDbEntity
  8
1
100
AcDbLine
 10
89.00000000000009
 20
-10.50000000000004
 30
0.0
 11
88.25110981706732
 21
-9.500000000000078
 31
0.0
  0
ARC
  5
792B
330
6A34
100
AcDbEntity
  8
1
100
AcDbCircle
 10
88.60000000000011
 20
-12.10000000000004
 30
0.0
 40
0.4
100
AcDbArc
 50
270.0
 51
0.0
1001
GENIUS_GENOBJ-N-FIL_13
1002
{
1000
OWNER
1000
GEN
1002
}
1001
GENIUS_GENODEF_13
1002
{
1000
HIER
1070
     0
1002
}
1002
{
1000
MANEDIT
1070
     0
1002
}
1002
{
1000
NOSEL
1070
     0
1002
}
1002
{
1000
BEHIND
1070
     0
1002
}
1002
{
1000
OTHER
1070
     0
1002
}
1002
{
1000
REACTOR
1002
}
  0
LINE
  5
7941
330
6A34
100
AcDbEntity
  8
SK3
 48
0.3
100
AcDbLine
 10
77.15348280697622
 20
-1.771134343416832
 30
0.0
 11
87.9967948000838
 21
-1.771134343417116
 31
0.0
  0
LINE
  5
7947
330
6A34
100
AcDbEntity
  8
1
100
AcDbLine
 10
77.15348280697624
 20
1.771134343416804
 30
0.0
 11
87.99679480008384
 21
1.771134343416804
 31
0.0
  0
LINE
  5
794A
330
6A34
100
AcDbEntity
  8
NOCUT
100
AcDbLine
 10
75.50580587159847
 20
-11.77113434341691
 30
0.0
 11
87.99679480008384
 21
-11.77113434341691
 31
0.0
  0
LINE
  5
794B
330
6A34
100
AcDbEntity
  8
1
100
AcDbLine
 10
75.50580587159847
 20
-11.77113434341691
 30
0.0
 11
3.999999999999971
 21
-11.77113434341691
 31
0.0
  0
LINE
  5
794C
330
6A34
100
AcDbEntity
  8
1
100
AcDbLine
 10
75.50580587159847
 20
-11.77113434341692
 30
0.0
 11
75.57354007457345
 21
-12.16739575182611
 31
0.0
  0
LINE
  5
794D
330
6A34
100
AcDbEntity
  8
1
100
AcDbLine
 10
87.99679480008382
 20
-8.012195871756709
 30
0.0
 11
87.99679480008384
 21
-11.77113434341691
 31
0.0
  0
LINE
  5
794E
330
6A34
100
AcDbEntity
  8
NOCUT
100
AcDbLine
 10
87.99679480008384
 20
-8.012195871756709
 30
0.0
 11
87.99679480008384
 21
-0.0000000000000568
 31
0.0
  0
LINE
  5
794F
330
6A34
100
AcDbEntity
  8
SK3
100
AcDbLine
 10
87.99679480008384
 20
-8.012195871756709
 30
0.0
 11
87.4464599254267
 21
-4.792604248173965
 31
0.0
  0
ENDSEC
  0
SECTION
  2
OBJECTS
  0
DICTIONARY
  5
6A22
330
0
100
AcDbDictionary
  3
ACAD_GROUP
350
6A23
  3
ACAD_LAYOUT
350
6A2F
  3
ACAD_MLINESTYLE
350
6A2C
  3
ACAD_PLOTSETTINGS
350
6A2E
  3
ACAD_PLOTSTYLENAME
350
6A24
  3
ACDBHEADERROUNDTRIPXREC
350
7A5D
  3
ACDBVARIABLEDICTIONARY
350
6B78
  3
ACMDICTIONARY
350
6B39
  3
AMG
350
6B22
  3
AMGSNAPSETTINGS
350
6B59
  3
DWGPROPS
350
7A46
  0
DICTIONARY
  5
6B62
330
6A34
100
AcDbDictionary
280
     1
  3
ACAD_INDEX
360
6B63
  3
ACAD_LAYOUTSELFREF
360
7A80
  0
DICTIONARY
  5
7A7E
330
6A30
100
AcDbDictionary
280
     1
  3
ACAD_LAYOUTSELFREF
360
7A7F
  0
DICTIONARY
  5
6A23
102
{ACAD_REACTORS
330
6A22
102
}
330
6A22
100
AcDbDictionary
  0
DICTIONARY
  5
6A2F
102
{ACAD_REACTORS
330
6A22
102
}
330
6A22
100
AcDbDictionary
  0
DICTIONARY
  5
6A2C
102
{ACAD_REACTORS
330
6A22
102
}
330
6A22
100
AcDbDictionary
  3
STANDARD
350
6A2D
  0
DICTIONARY
  5
6A2E
102
{ACAD_REACTORS
330
6A22
102
}
330
6A22
100
AcDbDictionary
  0
ACDBDICTIONARYWDFLT
  5
6A24
102
{ACAD_REACTORS
330
6A22
102
}
330
6A22
100
AcDbDictionary
281
     1
  3
Normal
350
6A25
100
AcDbDictionaryWithDefault
340
6A25
  0
DICTIONARY
  5
7A5D
102
{ACAD_REACTORS
330
6A22
102
}
330
6A22
100
AcDbDictionary
  3
CEPSNTYPE
350
7A67
  3
DIMSTYLEDATA
350
7A6B
  3
FINGERPRINTGUID
350
7A68
  3
HYPERLINKBASE
350
7A60
  3
INSUNITS
350
7A66
  3
LAYOUTDICT
350
7A62
  3
LWETCUNION
350
7A65
  3
PLOTSETDICT
350
7A63
  3
PLOTSTYLNAMDICT
350
7A64
  3
PSVPSCALE
350
7A6A
  3
PUCSBASE
350
7A6E
  3
PUCSORGBACK
350
7A74
  3
PUCSORGBOTTOM
350
7A70
  3
PUCSORGFRONT
350
7A73
  3
PUCSORGLEFT
350
7A71
  3
PUCSORGRIGHT
350
7A72
  3
PUCSORGTOP
350
7A6F
  3
PUCSORTHOREF
350
7A6C
  3
PUCSORTHOVIEW
350
7A6D
  3
STYLESHEET
350
7A61
  3
TSTACKALIGN
350
7A5E
  3
TSTACKSIZE
350
7A5F
  3
UCSBASE
350
7A77
  3
UCSORGBACK
350
7A7D
  3
UCSORGBOTTOM
350
7A79
  3
UCSORGFRONT
350
7A7C
  3
UCSORGLEFT
350
7A7A
  3
UCSORGRIGHT
350
7A7B
  3
UCSORGTOP
350
7A78
  3
UCSORTHOREF
350
7A75
  3
UCSORTHOVIEW
350
7A76
  3
VERSIONGUID
350
7A69
  0
DICTIONARY
  5
6B78
102
{ACAD_REACTORS
330
6A22
102
}
330
6A22
100
AcDbDictionary
  3
DIMASSOC
350
6B7A
  3
INDEXCTL
350
6B79
  0
DICTIONARY
  5
6B39
102
{ACAD_REACTORS
330
6A22
102
}
330
6A22
100
AcDbDictionary
  3
ACMSTDDICTIONARY
350
6B3F
  0
DICTIONARY
  5
6B22
102
{ACAD_REACTORS
330
6A22
102
}
330
6A22
100
AcDbDictionary
  3
ACMGSETTINGS
350
6B23
  0
DICTIONARY
  5
6B59
102
{ACAD_REACTORS
330
6A22
102
}
330
6A22
100
AcDbDictionary
  0
XRECORD
  5
7A46
102
{ACAD_REACTORS
330
6A22
102
}
330
6A22
100
AcDbXrecord
  1
DWGPROPS COOKIE
  2

  3

  4

  6

  7

  8

  9

300
AmdtFileType=84
301
=
302
=
303
=
304
=
305
=
306
=
307
=
308
=
309
=
 40
0.1210914351851852
 41
2453447.471737477
 42
2453587.616714791
  1

 90
        1
  0
DICTIONARY
  5
6B63
102
{ACAD_REACTORS
330
6B62
102
}
330
6B62
100
AcDbDictionary
  3
*A1
350
6B64
  0
XRECORD
  5
7A80
102
{ACAD_REACTORS
330
6B62
102
}
330
6B62
100
AcDbXrecord
340
6A34
  0
XRECORD
  5
7A7F
102
{ACAD_REACTORS
330
7A7E
102
}
330
7A7E
100
AcDbXrecord
340
6A30
  0
MLINESTYLE
  5
6A2D
102
{ACAD_REACTORS
330
6A2C
102
}
330
6A2C
100
AcDbMlineStyle
  2
STANDARD
 70
     0
  3

 62
   256
 51
90.0
 52
90.0
 71
     2
 49
0.5
 62
   256
  6
BYLAYER
 49
-0.5
 62
   256
  6
BYLAYER
  0
ACDBPLACEHOLDER
  5
6A25
102
{ACAD_REACTORS
330
6A24
102
}
330
6A24
100
AcDbPlaceHolder
280
     0
  0
XRECORD
  5
7A67
102
{ACAD_REACTORS
330
7A5D
102
}
330
7A5D
100
AcDbXrecord
 90
        0
  0
XRECORD
  5
7A6B
102
{ACAD_REACTORS
330
7A5D
102
}
330
7A5D
100
AcDbXrecord
1000
DSTYLE
1002
{
1070
   279
 70
     2
1002
}
  0
XRECORD
  5
7A68
102
{ACAD_REACTORS
330
7A5D
102
}
330
7A5D
100
AcDbXrecord
  1
{5E8163B8-4D8F-4110-B677-A6458ADDE735}
  0
XRECORD
  5
7A60
102
{ACAD_REACTORS
330
7A5D
102
}
330
7A5D
100
AcDbXrecord
  1

  0
XRECORD
  5
7A66
102
{ACAD_REACTORS
330
7A5D
102
}
330
7A5D
100
AcDbXrecord
 90
        4
  0
XRECORD
  5
7A62
102
{ACAD_REACTORS
330
7A5D
102
}
330
7A5D
100
AcDbXrecord
340
6A2F
  0
XRECORD
  5
7A65
102
{ACAD_REACTORS
330
7A5D
102
}
330
7A5D
100
AcDbXrecord
 90
    10781
  0
XRECORD
  5
7A63
102
{ACAD_REACTORS
330
7A5D
102
}
330
7A5D
100
AcDbXrecord
340
6A2E
  0
XRECORD
  5
7A64
102
{ACAD_REACTORS
330
7A5D
102
}
330
7A5D
100
AcDbXrecord
340
6A24
  0
XRECORD
  5
7A6A
102
{ACAD_REACTORS
330
7A5D
102
}
330
7A5D
100
AcDbXrecord
 40
0.0
  0
XRECORD
  5
7A6E
102
{ACAD_REACTORS
330
7A5D
102
}
330
7A5D
100
AcDbXrecord
340
0
  0
XRECORD
  5
7A74
102
{ACAD_REACTORS
330
7A5D
102
}
330
7A5D
100
AcDbXrecord
 10
0.0
 20
0.0
 30
0.0
  0
XRECORD
  5
7A70
102
{ACAD_REACTORS
330
7A5D
102
}
330
7A5D
100
AcDbXrecord
 10
0.0
 20
0.0
 30
0.0
  0
XRECORD
  5
7A73
102
{ACAD_REACTORS
330
7A5D
102
}
330
7A5D
100
AcDbXrecord
 10
0.0
 20
0.0
 30
0.0
  0
XRECORD
  5
7A71
102
{ACAD_REACTORS
330
7A5D
102
}
330
7A5D
100
AcDbXrecord
 10
0.0
 20
0.0
 30
0.0
  0
XRECORD
  5
7A72
102
{ACAD_REACTORS
330
7A5D
102
}
330
7A5D
100
AcDbXrecord
 10
0.0
 20
0.0
 30
0.0
  0
XRECORD
  5
7A6F
102
{ACAD_REACTORS
330
7A5D
102
}
330
7A5D
100
AcDbXrecord
 10
0.0
 20
0.0
 30
0.0
  0
XRECORD
  5
7A6C
102
{ACAD_REACTORS
330
7A5D
102
}
330
7A5D
100
AcDbXrecord
340
0
  0
XRECORD
  5
7A6D
102
{ACAD_REACTORS
330
7A5D
102
}
330
7A5D
100
AcDbXrecord
 70
     0
  0
XRECORD
  5
7A61
102
{ACAD_REACTORS
330
7A5D
102
}
330
7A5D
100
AcDbXrecord
  1

  0
XRECORD
  5
7A5E
102
{ACAD_REACTORS
330
7A5D
102
}
330
7A5D
100
AcDbXrecord
 90
        1
  0
XRECORD
  5
7A5F
102
{ACAD_REACTORS
330
7A5D
102
}
330
7A5D
100
AcDbXrecord
 90
       70
  0
XRECORD
  5
7A77
102
{ACAD_REACTORS
330
7A5D
102
}
330
7A5D
100
AcDbXrecord
340
0
  0
XRECORD
  5
7A7D
102
{ACAD_REACTORS
330
7A5D
102
}
330
7A5D
100
AcDbXrecord
 10
0.0
 20
0.0
 30
0.0
  0
XRECORD
  5
7A79
102
{ACAD_REACTORS
330
7A5D
102
}
330
7A5D
100
AcDbXrecord
 10
0.0
 20
0.0
 30
0.0
  0
XRECORD
  5
7A7C
102
{ACAD_REACTORS
330
7A5D
102
}
330
7A5D
100
AcDbXrecord
 10
0.0
 20
0.0
 30
0.0
  0
XRECORD
  5
7A7A
102
{ACAD_REACTORS
330
7A5D
102
}
330
7A5D
100
AcDbXrecord
 10
0.0
 20
0.0
 30
0.0
  0
XRECORD
  5
7A7B
102
{ACAD_REACTORS
330
7A5D
102
}
330
7A5D
100
AcDbXrecord
 10
0.0
 20
0.0
 30
0.0
  0
XRECORD
  5
7A78
102
{ACAD_REACTORS
330
7A5D
102
}
330
7A5D
100
AcDbXrecord
 10
0.0
 20
0.0
 30
0.0
  0
XRECORD
  5
7A75
102
{ACAD_REACTORS
330
7A5D
102
}
330
7A5D
100
AcDbXrecord
340
0
  0
XRECORD
  5
7A76
102
{ACAD_REACTORS
330
7A5D
102
}
330
7A5D
100
AcDbXrecord
 70
     0
  0
XRECORD
  5
7A69
102
{ACAD_REACTORS
330
7A5D
102
}
330
7A5D
100
AcDbXrecord
  1
{13308987-76D3-4631-8345-29A8A11CAD05}
  0
DICTIONARYVAR
  5
6B7A
102
{ACAD_REACTORS
330
6B78
102
}
330
6B78
100
DictionaryVariables
280
     0
  1
1
  0
DICTIONARYVAR
  5
6B79
102
{ACAD_REACTORS
330
6B78
102
}
330
6B78
100
DictionaryVariables
280
     0
  1
1
  0
DICTIONARY
  5
6B3F
102
{ACAD_REACTORS
330
6B39
102
}
330
6B39
100
AcDbDictionary
  0
DICTIONARY
  5
6B23
102
{ACAD_REACTORS
330
6B22
102
}
330
6B22
100
AcDbDictionary
  3
DWGSETTINGS
350
6B24
  0
LAYER_INDEX
  5
6B64
102
{ACAD_REACTORS
330
6B63
102
}
330
6B63
100
AcDbIndex
 40
2453588.421933854
100
AcDbLayerIndex
  8
0
360
6B65
 90
        0
  8
DEFPOINTS
360
6B66
 90
        0
  8
1
360
6B67
 90
       30
  8
2
360
6B68
 90
        3
  8
4
360
6B69
 90
        2
  8
6
360
6B6A
 90
        3
  8
SK1
360
6B6B
 90
       26
  8
SK2
360
6B6C
 90
        3
  8
SK3
360
6B6D
 90
       10
  8
SK4
360
6B6E
 90
        1
  8
CUT
360
6B6F
 90
       13
  8
NOCUT
360
6B70
 90
        8
  0
XRECORD
  5
6B24
102
{ACAD_REACTORS
330
6B23
102
}
330
6B23
100
AcDbXrecord
  1
VERSION
140
15.0
  1
PRODUCT
  2
AutoCAD Mechanical 2000
  0
IDBUFFER
  5
6B65
330
0
100
AcDbIdBuffer
  0
IDBUFFER
  5
6B66
330
0
100
AcDbIdBuffer
  0
IDBUFFER
  5
6B67
330
0
100
AcDbIdBuffer
330
6CF8
330
6CF9
330
6DE1
330
6DFA
330
6DFB
330
6E0F
330
6E2C
330
7896
330
7897
330
7898
330
7899
330
789A
330
789B
330
789C
330
789D
330
789E
330
789F
330
78A0
330
78A1
330
78A2
330
791F
330
7927
330
7928
330
7929
330
792A
330
792B
330
7947
330
794B
330
794C
330
794D
  0
IDBUFFER
  5
6B68
330
0
100
AcDbIdBuffer
330
6F7B
330
7073
330
77EB
  0
IDBUFFER
  5
6B69
330
0
100
AcDbIdBuffer
330
6E09
330
75C4
  0
IDBUFFER
  5
6B6A
330
0
100
AcDbIdBuffer
330
748C
330
74DA
330
7724
  0
IDBUFFER
  5
6B6B
330
0
100
AcDbIdBuffer
330
6CFA
330
6CFB
330
6D61
330
6D62
330
6D63
330
6D64
330
6D65
330
6D66
330
6D67
330
6D7F
330
6D80
330
6D81
330
6DD1
330
6DD5
330
6DD6
330
6E0E
330
6E11
330
6E12
330
6E13
330
6E15
330
6ED0
330
6ED1
330
6ED2
330
756C
330
756D
330
756E
  0
IDBUFFER
  5
6B6C
330
0
100
AcDbIdBuffer
330
7005
330
7049
330
740D
  0
IDBUFFER
  5
6B6D
330
0
100
AcDbIdBuffer
330
6E36
330
7920
330
7921
330
7922
330
7923
330
7924
330
7925
330
7926
330
7941
330
794F
  0
IDBUFFER
  5
6B6E
330
0
100
AcDbIdBuffer
330
6E0A
  0
IDBUFFER
  5
6B6F
330
0
100
AcDbIdBuffer
330
78A6
330
78A7
330
78A8
330
78A9
330
78AA
330
78AB
330
78AC
330
78AD
330
78AE
330
78AF
330
78B0
330
78B1
330
78B2
  0
IDBUFFER
  5
6B70
330
0
100
AcDbIdBuffer
330
6F46
330
6F47
330
6F48
330
6F49
330
6F4A
330
6F4B
330
794A
330
794E
  0
ENDSEC
  0
EOF
