  0
SECTION
  2
HEADER
  9
$ACADVER
  1
AC1015
  9
$ACADMAINTVER
 70
    20
  9
$DWGCODEPAGE
  3
ANSI_1252
  9
$INSBASE
 10
0.0
 20
0.0
 30
0.0
  9
$EXTMIN
 10
-66.64424697727134
 20
-44.2868935735454
 30
-0.0000000349181948
  9
$EXTMAX
 10
84.58505867297754
 20
51.97311167075611
 30
0.0000000814935747
  9
$LIMMIN
 10
0.0
 20
0.0
  9
$LIMMAX
 10
420.0
 20
297.0
  9
$ORTHOMODE
 70
     0
  9
$REGENMODE
 70
     1
  9
$FILLMODE
 70
     1
  9
$QTEXTMODE
 70
     0
  9
$MIRRTEXT
 70
     0
  9
$LTSCALE
 40
23.1
  9
$ATTMODE
 70
     1
  9
$TEXTSIZE
 40
3.5
  9
$TRACEWID
 40
0.05
  9
$TEXTSTYLE
  7
STANDARD
  9
$CLAYER
  8
0
  9
$CELTYPE
  6
BYLAYER
  9
$CECOLOR
 62
   256
  9
$CELTSCALE
 40
1.0
  9
$DISPSILH
 70
     0
  9
$DIMSCALE
 40
1.0
  9
$DIMASZ
 40
4.57
  9
$DIMEXO
 40
0.0625
  9
$DIMDLI
 40
0.38
  9
$DIMRND
 40
0.0
  9
$DIMDLE
 40
0.0
  9
$DIMEXE
 40
0.18
  9
$DIMTP
 40
0.01
  9
$DIMTM
 40
0.01
  9
$DIMTXT
 40
3.5
  9
$DIMCEN
 40
0.09
  9
$DIMTSZ
 40
0.0
  9
$DIMTOL
 70
     0
  9
$DIMLIM
 70
     0
  9
$DIMTIH
 70
     0
  9
$DIMTOH
 70
     0
  9
$DIMSE1
 70
     0
  9
$DIMSE2
 70
     0
  9
$DIMTAD
 70
     1
  9
$DIMZIN
 70
     8
  9
$DIMBLK
  1

  9
$DIMASO
 70
     1
  9
$DIMSHO
 70
     1
  9
$DIMPOST
  1

  9
$DIMAPOST
  1

  9
$DIMALT
 70
     0
  9
$DIMALTD
 70
     2
  9
$DIMALTF
 40
25.4
  9
$DIMLFAC
 40
1.0
  9
$DIMTOFL
 70
     0
  9
$DIMTVP
 40
0.0
  9
$DIMTIX
 70
     0
  9
$DIMSOXD
 70
     0
  9
$DIMSAH
 70
     0
  9
$DIMBLK1
  1

  9
$DIMBLK2
  1

  9
$DIMSTYLE
  2
STANDARD
  9
$DIMCLRD
 70
     0
  9
$DIMCLRE
 70
     0
  9
$DIMCLRT
 70
     0
  9
$DIMTFAC
 40
1.0
  9
$DIMGAP
 40
0.09
  9
$DIMJUST
 70
     0
  9
$DIMSD1
 70
     0
  9
$DIMSD2
 70
     0
  9
$DIMTOLJ
 70
     1
  9
$DIMTZIN
 70
     8
  9
$DIMALTZ
 70
     0
  9
$DIMALTTZ
 70
     0
  9
$DIMUPT
 70
     0
  9
$DIMDEC
 70
     3
  9
$DIMTDEC
 70
     3
  9
$DIMALTU
 70
     2
  9
$DIMALTTD
 70
     2
  9
$DIMTXSTY
  7
STANDARD
  9
$DIMAUNIT
 70
     0
  9
$DIMADEC
 70
     0
  9
$DIMALTRND
 40
0.0
  9
$DIMAZIN
 70
     0
  9
$DIMDSEP
 70
    46
  9
$DIMATFIT
 70
     0
  9
$DIMFRAC
 70
     0
  9
$DIMLDRBLK
  1

  9
$DIMLUNIT
 70
     2
  9
$DIMLWD
 70
    -2
  9
$DIMLWE
 70
    -2
  9
$DIMTMOVE
 70
     0
  9
$LUNITS
 70
     2
  9
$LUPREC
 70
     4
  9
$SKETCHINC
 40
0.1
  9
$FILLETRAD
 40
0.0
  9
$AUNITS
 70
     0
  9
$AUPREC
 70
     0
  9
$MENU
  1
.
  9
$ELEVATION
 40
0.0
  9
$PELEVATION
 40
0.0
  9
$THICKNESS
 40
0.0
  9
$LIMCHECK
 70
     0
  9
$CHAMFERA
 40
0.0
  9
$CHAMFERB
 40
0.0
  9
$CHAMFERC
 40
0.0
  9
$CHAMFERD
 40
0.0
  9
$SKPOLY
 70
     0
  9
$TDCREATE
 40
2458446.363553241
  9
$TDUCREATE
 40
2458446.321893773
  9
$TDUPDATE
 40
2458936.494791667
  9
$TDUUPDATE
 40
2458936.453125000
  9
$TDINDWG
 40
0.0344992014
  9
$TDUSRTIMER
 40
0.0344981366
  9
$USRTIMER
 70
     1
  9
$ANGBASE
 50
0.0
  9
$ANGDIR
 70
     0
  9
$PDMODE
 70
     3
  9
$PDSIZE
 40
0.3125
  9
$PLINEWID
 40
0.0
  9
$SPLFRAME
 70
     0
  9
$SPLINETYPE
 70
     6
  9
$SPLINESEGS
 70
     8
  9
$HANDSEED
  5
224A1
  9
$SURFTAB1
 70
     6
  9
$SURFTAB2
 70
     6
  9
$SURFTYPE
 70
     6
  9
$SURFU
 70
     6
  9
$SURFV
 70
     6
  9
$UCSBASE
  2

  9
$UCSNAME
  2

  9
$UCSORG
 10
0.0
 20
0.0
 30
0.0
  9
$UCSXDIR
 10
1.0
 20
0.0
 30
0.0
  9
$UCSYDIR
 10
0.0
 20
1.0
 30
0.0
  9
$UCSORTHOREF
  2

  9
$UCSORTHOVIEW
 70
     0
  9
$UCSORGTOP
 10
0.0
 20
0.0
 30
0.0
  9
$UCSORGBOTTOM
 10
0.0
 20
0.0
 30
0.0
  9
$UCSORGLEFT
 10
0.0
 20
0.0
 30
0.0
  9
$UCSORGRIGHT
 10
0.0
 20
0.0
 30
0.0
  9
$UCSORGFRONT
 10
0.0
 20
0.0
 30
0.0
  9
$UCSORGBACK
 10
0.0
 20
0.0
 30
0.0
  9
$PUCSBASE
  2

  9
$PUCSNAME
  2

  9
$PUCSORG
 10
0.0
 20
0.0
 30
0.0
  9
$PUCSXDIR
 10
1.0
 20
0.0
 30
0.0
  9
$PUCSYDIR
 10
0.0
 20
1.0
 30
0.0
  9
$PUCSORTHOREF
  2

  9
$PUCSORTHOVIEW
 70
     0
  9
$PUCSORGTOP
 10
0.0
 20
0.0
 30
0.0
  9
$PUCSORGBOTTOM
 10
0.0
 20
0.0
 30
0.0
  9
$PUCSORGLEFT
 10
0.0
 20
0.0
 30
0.0
  9
$PUCSORGRIGHT
 10
0.0
 20
0.0
 30
0.0
  9
$PUCSORGFRONT
 10
0.0
 20
0.0
 30
0.0
  9
$PUCSORGBACK
 10
0.0
 20
0.0
 30
0.0
  9
$USERI1
 70
     0
  9
$USERI2
 70
     0
  9
$USERI3
 70
     0
  9
$USERI4
 70
     0
  9
$USERI5
 70
     0
  9
$USERR1
 40
0.0
  9
$USERR2
 40
0.0
  9
$USERR3
 40
0.0
  9
$USERR4
 40
0.0
  9
$USERR5
 40
0.0
  9
$WORLDVIEW
 70
     1
  9
$SHADEDGE
 70
     3
  9
$SHADEDIF
 70
    70
  9
$TILEMODE
 70
     1
  9
$MAXACTVP
 70
    64
  9
$PINSBASE
 10
0.0
 20
0.0
 30
0.0
  9
$PLIMCHECK
 70
     0
  9
$PEXTMIN
 10
28.69141678810127
 20
19.6363175392151
 30
0.0
  9
$PEXTMAX
 10
258.2227510929107
 20
176.7268578529358
 30
0.0
  9
$PLIMMIN
 10
-5.027069091796875
 20
-6.805083274841307
  9
$PLIMMAX
 10
291.9412536621094
 20
203.1682443618775
  9
$UNITMODE
 70
     0
  9
$VISRETAIN
 70
     1
  9
$PLINEGEN
 70
     0
  9
$PSLTSCALE
 70
     1
  9
$TREEDEPTH
 70
  3020
  9
$CMLSTYLE
  2
STANDARD
  9
$CMLJUST
 70
     0
  9
$CMLSCALE
 40
1.0
  9
$PROXYGRAPHICS
 70
     1
  9
$MEASUREMENT
 70
     1
  9
$CELWEIGHT
370
    -1
  9
$ENDCAPS
280
     0
  9
$JOINSTYLE
280
     0
  9
$LWDISPLAY
290
     0
  9
$INSUNITS
 70
     0
  9
$HYPERLINKBASE
  1

  9
$STYLESHEET
  1
A1-A2.CTB
  9
$XEDIT
290
     1
  9
$CEPSNTYPE
380
     0
  9
$PSTYLEMODE
290
     1
  9
$FINGERPRINTGUID
  2
{6D3BC7B5-ACA7-406D-8A0D-A7DBBE093430}
  9
$VERSIONGUID
  2
{F61880F3-56F1-4E48-BA16-FFB3D6727F6F}
  9
$EXTNAMES
290
     1
  9
$PSVPSCALE
 40
0.0
  9
$OLESTARTUP
290
     0
  0
ENDSEC
  0
SECTION
  2
CLASSES
  0
CLASS
  1
ACDBDICTIONARYWDFLT
  2
AcDbDictionaryWithDefault
  3
ObjectDBX Classes
 90
        0
280
     0
281
     0
  0
CLASS
  1
MATERIAL
  2
AcDbMaterial
  3
ObjectDBX Classes
 90
     1153
280
     0
281
     0
  0
CLASS
  1
VISUALSTYLE
  2
AcDbVisualStyle
  3
ObjectDBX Classes
 90
     4095
280
     0
281
     0
  0
CLASS
  1
TABLESTYLE
  2
AcDbTableStyle
  3
ObjectDBX Classes
 90
     4095
280
     0
281
     0
  0
CLASS
  1
SORTENTSTABLE
  2
AcDbSortentsTable
  3
ObjectDBX Classes
 90
        0
280
     0
281
     0
  0
CLASS
  1
DICTIONARYVAR
  2
AcDbDictionaryVar
  3
ObjectDBX Classes
 90
        0
280
     0
281
     0
  0
CLASS
  1
EXACXREFPANELOBJECT
  2
ExAcXREFPanelObject
  3
EXAC_ESW
 90
    33793
280
     1
281
     0
  0
CLASS
  1
NPOCOLLECTION
  2
AcDbImpNonPersistentObjectsCollection
  3
ObjectDBX Classes
 90
    33921
280
     1
281
     0
  0
CLASS
  1
SCALE
  2
AcDbScale
  3
ObjectDBX Classes
 90
     1153
280
     0
281
     0
  0
CLASS
  1
MLEADERSTYLE
  2
AcDbMLeaderStyle
  3
ACDB_MLEADERSTYLE_CLASS
 90
     4095
280
     0
281
     0
  0
CLASS
  1
ACDBSECTIONVIEWSTYLE
  2
AcDbSectionViewStyle
  3
ObjectDBX Classes
 90
     1025
280
     0
281
     0
  0
CLASS
  1
ACDBDETAILVIEWSTYLE
  2
AcDbDetailViewStyle
  3
ObjectDBX Classes
 90
     1025
280
     0
281
     0
  0
CLASS
  1
CELLSTYLEMAP
  2
AcDbCellStyleMap
  3
ObjectDBX Classes
 90
     1152
280
     0
281
     0
  0
CLASS
  1
ACAD_EVALUATION_GRAPH
  2
AcDbEvalGraph
  3
ObjectDBX Classes
 90
    33921
280
     0
281
     0
  0
CLASS
  1
ACAECUSTOBJ
  2
AcAeEditorObj
  3
AcAeEditorObj
 90
    33792
280
     0
281
     0
  0
CLASS
  1
ACDB_DYNAMICBLOCKPURGEPREVENTER_VERSION
  2
AcDbDynamicBlockPurgePreventer
  3
ObjectDBX Classes
 90
    33921
280
     0
281
     0
  0
CLASS
  1
FIELD
  2
AcDbField
  3
ObjectDBX Classes
 90
    33920
280
     0
281
     0
  0
CLASS
  1
FIELDLIST
  2
AcDbFieldList
  3
ObjectDBX Classes
 90
     1152
280
     0
281
     0
  0
CLASS
  1
ACDB_ALDIMOBJECTCONTEXTDATA_CLASS
  2
AcDbAlignedDimensionObjectContextData
  3
ObjectDBX Classes
 90
    33921
280
     0
281
     0
  0
CLASS
  1
ACDBPLACEHOLDER
  2
AcDbPlaceHolder
  3
ObjectDBX Classes
 90
        0
280
     0
281
     0
  0
CLASS
  1
LAYOUT
  2
AcDbLayout
  3
ObjectDBX Classes
 90
        0
280
     0
281
     0
  0
ENDSEC
  0
SECTION
  2
TABLES
  0
TABLE
  2
VPORT
  5
8
330
0
100
AcDbSymbolTable
 70
     1
  0
VPORT
  5
1F4
330
8
100
AcDbSymbolTableRecord
100
AcDbViewportTableRecord
  2
*ACTIVE
 70
     0
 10
0.0
 20
0.0
 11
1.0
 21
1.0
 12
8.970405847853108
 22
3.843109048605356
 13
0.0
 23
0.0
 14
1.0
 24
1.0
 15
0.0
 25
0.0
 16
0.0
 26
0.0
 36
1.0
 17
0.0
 27
0.0
 37
0.0
 40
96.94431807779182
 41
1.91459074733096
 42
50.0
 43
0.0
 44
0.0
 50
0.0
 51
0.0
 71
     0
 72
  2000
 73
     1
 74
     1
 75
     0
 76
     0
 77
     0
 78
     0
281
     0
 65
     1
110
0.0
120
0.0
130
0.0
111
1.0
121
0.0
131
0.0
112
0.0
122
1.0
132
0.0
 79
     0
146
0.0
1001
ACAD_NAV_VCDISPLAY
1070
     3
  0
ENDTAB
  0
TABLE
  2
LTYPE
  5
5
330
0
100
AcDbSymbolTable
 70
     5
  0
LTYPE
  5
14
330
5
100
AcDbSymbolTableRecord
100
AcDbLinetypeTableRecord
  2
BYBLOCK
 70
     0
  3

 72
    65
 73
     0
 40
0.0
  0
LTYPE
  5
15
330
5
100
AcDbSymbolTableRecord
100
AcDbLinetypeTableRecord
  2
BYLAYER
 70
     0
  3

 72
    65
 73
     0
 40
0.0
  0
LTYPE
  5
16
330
5
100
AcDbSymbolTableRecord
100
AcDbLinetypeTableRecord
  2
CONTINUOUS
 70
     0
  3
Solid line
 72
    65
 73
     0
 40
0.0
  0
LTYPE
  5
9C48
330
5
100
AcDbSymbolTableRecord
100
AcDbLinetypeTableRecord
  2
CENTER
 70
     0
  3
____ _ ____ _ ____ _ ____ _ ____ _ ____ _ ____
 72
    65
 73
     4
 40
0.6
 49
0.375
 74
     0
 49
-0.075
 74
     0
 49
0.075
 74
     0
 49
-0.075
 74
     0
  0
LTYPE
  5
20A82
330
5
100
AcDbSymbolTableRecord
100
AcDbLinetypeTableRecord
  2
HIDDEN
 70
     0
  3
- - - - - - - - - - - - - - - - - - - -
 72
    65
 73
     2
 40
0.2
 49
0.1
 74
     0
 49
-0.1
 74
     0
  0
ENDTAB
  0
TABLE
  2
LAYER
  5
2
102
{ACAD_XDICTIONARY
360
422A
102
}
330
0
100
AcDbSymbolTable
 70
    15
  0
LAYER
  5
10
102
{ACAD_XDICTIONARY
360
1B2F5
102
}
330
2
100
AcDbSymbolTableRecord
100
AcDbLayerTableRecord
  2
0
 70
     0
 62
     7
  6
CONTINUOUS
370
    -3
390
318A
  0
LAYER
  5
3F8C
102
{ACAD_XDICTIONARY
360
1B2F7
102
}
330
2
100
AcDbSymbolTableRecord
100
AcDbLayerTableRecord
  2
1
 70
     0
 62
     4
  6
BYBLOCK
370
    50
390
318A
  0
LAYER
  5
3FA7
330
2
100
AcDbSymbolTableRecord
100
AcDbLayerTableRecord
  2
Defpoints
 70
     0
 62
     7
  6
CONTINUOUS
290
     0
370
    -3
390
318A
  0
LAYER
  5
9C4A
102
{ACAD_XDICTIONARY
360
1B2F9
102
}
330
2
100
AcDbSymbolTableRecord
100
AcDbLayerTableRecord
  2
2
 70
     0
 62
     7
  6
BYBLOCK
370
    25
390
318A
  0
LAYER
  5
9C4B
102
{ACAD_XDICTIONARY
360
1B2FB
102
}
330
2
100
AcDbSymbolTableRecord
100
AcDbLayerTableRecord
  2
4
 70
     0
 62
     2
  6
CENTER
370
    25
390
318A
  0
LAYER
  5
9C4D
102
{ACAD_XDICTIONARY
360
1B2FD
102
}
330
2
100
AcDbSymbolTableRecord
100
AcDbLayerTableRecord
  2
CUT
 70
     0
 62
     1
  6
BYBLOCK
370
    25
390
318A
  0
LAYER
  5
9C4E
102
{ACAD_XDICTIONARY
360
1B2FF
102
}
330
2
100
AcDbSymbolTableRecord
100
AcDbLayerTableRecord
  2
NOCUT
 70
     0
 62
     7
  6
BYBLOCK
370
    25
390
318A
  0
LAYER
  5
9C4F
102
{ACAD_XDICTIONARY
360
1B301
102
}
330
2
100
AcDbSymbolTableRecord
100
AcDbLayerTableRecord
  2
SK2
 70
     0
 62
     7
  6
BYBLOCK
370
    25
390
318A
  0
LAYER
  5
9C50
102
{ACAD_XDICTIONARY
360
1B303
102
}
330
2
100
AcDbSymbolTableRecord
100
AcDbLayerTableRecord
  2
SK1
 70
     0
 62
     4
  6
BYBLOCK
370
    50
390
318A
  0
LAYER
  5
9C51
102
{ACAD_XDICTIONARY
360
1B305
102
}
330
2
100
AcDbSymbolTableRecord
100
AcDbLayerTableRecord
  2
SK4
 70
     0
 62
     2
  6
CENTER
370
    25
390
318A
  0
LAYER
  5
13335
102
{ACAD_XDICTIONARY
360
1B307
102
}
330
2
100
AcDbSymbolTableRecord
100
AcDbLayerTableRecord
  2
INFTOTAL
 70
     0
 62
     9
  6
BYBLOCK
370
    18
390
318A
1001
AcAecLayerStandard
1000

1000

  0
LAYER
  5
1686E
102
{ACAD_XDICTIONARY
360
1B309
102
}
330
2
100
AcDbSymbolTableRecord
100
AcDbLayerTableRecord
  2
SK6
 70
     0
 62
     5
  6
BYBLOCK
370
    -3
390
318A
  0
LAYER
  5
20A83
102
{ACAD_XDICTIONARY
360
20A84
102
}
330
2
100
AcDbSymbolTableRecord
100
AcDbLayerTableRecord
  2
3
 70
     0
 62
     1
  6
HIDDEN
370
    -3
390
318A
1001
AcAecLayerStandard
1000

1000

1001
AcCmTransparency
1071
        0
  0
ENDTAB
  0
TABLE
  2
STYLE
  5
3
330
0
100
AcDbSymbolTable
 70
     1
  0
STYLE
  5
11
330
3
100
AcDbSymbolTableRecord
100
AcDbTextStyleTableRecord
  2
STANDARD
 70
     0
 40
3.5
 41
0.8
 50
0.0
 71
     0
 42
3.5
  3
monos.ttf
  4

1001
ACAD
1000
Monospac821 BT
1071
       49
  0
ENDTAB
  0
TABLE
  2
VIEW
  5
6
330
0
100
AcDbSymbolTable
 70
     0
  0
ENDTAB
  0
TABLE
  2
UCS
  5
7
330
0
100
AcDbSymbolTable
 70
     0
  0
ENDTAB
  0
TABLE
  2
APPID
  5
9
330
0
100
AcDbSymbolTable
 70
    13
  0
APPID
  5
23B
330
9
100
AcDbSymbolTableRecord
100
AcDbRegAppTableRecord
  2
ACAD
 70
     0
  0
APPID
  5
3395
330
9
100
AcDbSymbolTableRecord
100
AcDbRegAppTableRecord
  2
ACAD_EXEMPT_FROM_CAD_STANDARDS
 70
     0
  0
APPID
  5
4229
330
9
100
AcDbSymbolTableRecord
100
AcDbRegAppTableRecord
  2
AcAecLayerStandard
 70
     0
  0
APPID
  5
9A1B
330
9
100
AcDbSymbolTableRecord
100
AcDbRegAppTableRecord
  2
ACAD_PSEXT
 70
     0
  0
APPID
  5
1B313
330
9
100
AcDbSymbolTableRecord
100
AcDbRegAppTableRecord
  2
ACAD_NAV_VCDISPLAY
 70
     0
  0
APPID
  5
1B355
330
9
100
AcDbSymbolTableRecord
100
AcDbRegAppTableRecord
  2
ACAD_MLEADERVER
 70
     0
  0
APPID
  5
1EC7F
330
9
100
AcDbSymbolTableRecord
100
AcDbRegAppTableRecord
  2
ACAUTHENVIRON
 70
     0
  0
APPID
  5
1EC82
330
9
100
AcDbSymbolTableRecord
100
AcDbRegAppTableRecord
  2
AcDbDynamicBlockTrueName
 70
     0
  0
APPID
  5
1EC83
330
9
100
AcDbSymbolTableRecord
100
AcDbRegAppTableRecord
  2
AcDbDynamicBlockGUID
 70
     0
  0
APPID
  5
20A85
330
9
100
AcDbSymbolTableRecord
100
AcDbRegAppTableRecord
  2
AcCmTransparency
 70
     0
  0
APPID
  5
20AE2
330
9
100
AcDbSymbolTableRecord
100
AcDbRegAppTableRecord
  2
ACAD_DSTYLE_DIMRADIAL_EXTENSION
 70
     0
  0
APPID
  5
20CB0
330
9
100
AcDbSymbolTableRecord
100
AcDbRegAppTableRecord
  2
AcadAnnotative
 70
     0
  0
APPID
  5
21667
330
9
100
AcDbSymbolTableRecord
100
AcDbRegAppTableRecord
  2
AcadAnnoMonitorAlertIconDisabled
 70
     0
  0
ENDTAB
  0
TABLE
  2
DIMSTYLE
  5
A
330
0
100
AcDbSymbolTable
 70
     2
100
AcDbDimStyleTable
 71
     1
340
243
  0
DIMSTYLE
105
243
102
{ACAD_REACTORS
330
220CD
330
2225C
330
2227B
330
222AC
102
}
330
A
100
AcDbSymbolTableRecord
100
AcDbDimStyleTableRecord
  2
STANDARD
 70
     0
 41
4.57
 47
0.01
 48
0.01
 73
     0
 74
     0
 77
     1
 78
     8
140
3.5
271
     3
272
     3
284
     8
289
     0
340
11
  0
ENDTAB
  0
TABLE
  2
BLOCK_RECORD
  5
1
330
0
100
AcDbSymbolTable
 70
     8
  0
BLOCK_RECORD
  5
1F
102
{ACAD_XDICTIONARY
360
339C
102
}
330
1
100
AcDbSymbolTableRecord
100
AcDbBlockTableRecord
  2
*MODEL_SPACE
340
31A6
  0
BLOCK_RECORD
  5
1B
330
1
100
AcDbSymbolTableRecord
100
AcDbBlockTableRecord
  2
*PAPER_SPACE
340
31A7
  0
BLOCK_RECORD
  5
1B3D7
102
{ACAD_XDICTIONARY
360
1DE81
102
}
330
1
100
AcDbSymbolTableRecord
100
AcDbBlockTableRecord
  2
cero_point
340
0
310
28000000200000002000000001002000000000000010000001000000010000000000000000000000302821FF302821FF302821FF302821FF302821FF302821FF302821FF302821FF302821FF302821FF302821FF302821FF302821FF302821FF302821FF302821FF302821FF302821FF302821FF302821FF302821FF302821
310
FF302821FF302821FF302821FF302821FF302821FF302821FF302821FF302821FF302821FF302821FF302821FF302821FF302821FF302821FF302821FF302821FF302821FF302821FF302821FF302821FF302821FF302821FF302821FF302821FF302821FFFFFF00FFFFFF00FFFFFF00FF302821FF302821FF302821FF3028
310
21FF302821FF302821FF302821FF302821FF302821FF302821FF302821FF302821FF302821FF302821FF302821FF302821FF302821FF302821FF302821FF302821FF302821FF302821FF302821FF302821FFFFFF00FFFFFF00FFFFFF00FFFFFF00FFFFFF00FFFFFF00FFFFFF00FF302821FFFFFF00FFFFFF00FFFFFF00FF30
310
2821FF302821FF302821FF302821FF302821FF302821FF302821FF302821FF302821FF302821FF302821FF302821FF302821FF302821FF302821FF302821FF302821FF302821FF302821FFFFFF00FFFFFF00FFFFFF00FFFFFF00FFFFFF00FFFFFF00FFFFFF00FFFFFF00FFFFFF00FF302821FF302821FF302821FF302821FF
310
FFFF00FFFFFF00FF302821FF302821FF302821FF302821FF302821FF302821FF302821FF302821FF302821FF302821FF302821FF302821FF302821FF302821FF302821FF302821FFFFFF00FFFFFF00FFFFFF00FFFFFF00FFFFFF00FFFFFF00FFFFFF00FFFFFF00FFFFFF00FFFFFF00FF302821FF302821FF302821FF302821
310
FF302821FF302821FFFFFF00FFFFFF00FF302821FF302821FF302821FF302821FF302821FF302821FF302821FF302821FF302821FF302821FF302821FF302821FF302821FFFFFF00FFFFFF00FFFFFF00FFFFFF00FFFFFF00FFFFFF00FFFFFF00FFFFFF00FFFFFF00FFFFFF00FFFFFF00FF302821FF302821FF302821FF3028
310
21FF302821FF302821FF302821FF302821FFFFFF00FF302821FF302821FF302821FF302821FF302821FF302821FF302821FF302821FF302821FF302821FF302821FFFFFF00FFFFFF00FFFFFF00FFFFFF00FFFFFF00FFFFFF00FFFFFF00FFFFFF00FFFFFF00FFFFFF00FFFFFF00FFFFFF00FF302821FF302821FF302821FF30
310
2821FF302821FF302821FF302821FF302821FF302821FFFFFF00FF302821FF302821FF302821FF302821FF302821FF302821FF302821FF302821FF302821FFFFFF00FFFFFF00FFFFFF00FFFFFF00FFFFFF00FFFFFF00FFFFFF00FFFFFF00FFFFFF00FFFFFF00FFFFFF00FFFFFF00FFFFFF00FF302821FF302821FF302821FF
310
302821FF302821FF302821FF302821FF302821FF302821FF302821FFFFFF00FF302821FF302821FF302821FF302821FF302821FF302821FF302821FFFFFF00FFFFFF00FFFFFF00FFFFFF00FFFFFF00FFFFFF00FFFFFF00FFFFFF00FFFFFF00FFFFFF00FFFFFF00FFFFFF00FFFFFF00FFFFFF00FF302821FF302821FF302821
310
FF302821FF302821FF302821FF302821FF302821FF302821FF302821FFFFFF00FF302821FF302821FF302821FF302821FF302821FF302821FF302821FFFFFF00FFFFFF00FFFFFF00FFFFFF00FFFFFF00FFFFFF00FFFFFF00FFFFFF00FFFFFF00FFFFFF00FFFFFF00FFFFFF00FFFFFF00FFFFFF00FF302821FF302821FF3028
310
21FF302821FF302821FF302821FF302821FF302821FF302821FF302821FF302821FFFFFF00FF302821FF302821FF302821FF302821FF302821FFFFFF00FFFFFF00FFFFFF00FFFFFF00FFFFFF00FFFFFF00FFFFFF00FFFFFF00FFFFFF00FFFFFF00FFFFFF00FFFFFF00FFFFFF00FFFFFF00FFFFFF00FF302821FF302821FF30
310
2821FF302821FF302821FF302821FF302821FF302821FF302821FF302821FF302821FF302821FFFFFF00FF302821FF302821FF302821FF302821FFFFFF00FFFFFF00FFFFFF00FFFFFF00FFFFFF00FFFFFF00FFFFFF00FFFFFF00FFFFFF00FFFFFF00FFFFFF00FFFFFF00FFFFFF00FFFFFF00FFFFFF00FF302821FF302821FF
310
302821FF302821FF302821FF302821FF302821FF302821FF302821FF302821FF302821FF302821FFFFFF00FF302821FF302821FF302821FF302821FFFFFF00FFFFFF00FFFFFF00FFFFFF00FFFFFF00FFFFFF00FFFFFF00FFFFFF00FFFFFF00FFFFFF00FFFFFF00FFFFFF00FFFFFF00FFFFFF00FFFFFF00FF302821FF302821
310
FF302821FF302821FF302821FF302821FF302821FF302821FF302821FF302821FF302821FF302821FFFFFF00FF302821FF302821FF302821FF302821FFFFFF00FFFFFF00FFFFFF00FFFFFF00FFFFFF00FFFFFF00FFFFFF00FFFFFF00FFFFFF00FFFFFF00FFFFFF00FFFFFF00FFFFFF00FFFFFF00FFFFFF00FF302821FF3028
310
21FF302821FF302821FF302821FF302821FF302821FF302821FF302821FF302821FF302821FF302821FFFFFF00FF302821FF302821FF302821FFFFFF00FFFFFF00FFFFFF00FFFFFF00FFFFFF00FFFFFF00FFFFFF00FFFFFF00FFFFFF00FFFFFF00FFFFFF00FFFFFF00FFFFFF00FFFFFF00FFFFFF00FFFFFF00FF302821FF30
310
2821FF302821FF302821FF302821FF302821FF302821FF302821FF302821FF302821FF302821FF302821FF302821FFFFFF00FF302821FF302821FFFFFF00FFFFFF00FFFFFF00FFFFFF00FFFFFF00FFFFFF00FFFFFF00FFFFFF00FFFFFF00FFFFFF00FFFFFF00FFFFFF00FFFFFF00FFFFFF00FFFFFF00FFFFFF00FFFFFF00FF
310
FFFF00FFFFFF00FFFFFF00FFFFFF00FFFFFF00FFFFFF00FFFFFF00FFFFFF00FFFFFF00FFFFFF00FFFFFF00FFFFFF00FFFFFF00FF302821FF302821FFFFFF00FF302821FF302821FF302821FF302821FF302821FF302821FF302821FF302821FF302821FF302821FF302821FF302821FF302821FF302821FFFFFF00FFFFFF00
310
FFFFFF00FFFFFF00FFFFFF00FFFFFF00FFFFFF00FFFFFF00FFFFFF00FFFFFF00FFFFFF00FFFFFF00FFFFFF00FFFFFF00FFFFFF00FF302821FF302821FFFFFF00FF302821FF302821FF302821FF302821FF302821FF302821FF302821FF302821FF302821FF302821FF302821FF302821FF302821FF302821FFFFFF00FFFFFF
310
00FFFFFF00FFFFFF00FFFFFF00FFFFFF00FFFFFF00FFFFFF00FFFFFF00FFFFFF00FFFFFF00FFFFFF00FFFFFF00FFFFFF00FF302821FF302821FF302821FF302821FFFFFF00FF302821FF302821FF302821FF302821FF302821FF302821FF302821FF302821FF302821FF302821FF302821FF302821FF302821FFFFFF00FFFF
310
FF00FFFFFF00FFFFFF00FFFFFF00FFFFFF00FFFFFF00FFFFFF00FFFFFF00FFFFFF00FFFFFF00FFFFFF00FFFFFF00FFFFFF00FF302821FF302821FF302821FF302821FFFFFF00FF302821FF302821FF302821FF302821FF302821FF302821FF302821FF302821FF302821FF302821FF302821FF302821FF302821FFFFFF00FF
310
FFFF00FFFFFF00FFFFFF00FFFFFF00FFFFFF00FFFFFF00FFFFFF00FFFFFF00FFFFFF00FFFFFF00FFFFFF00FFFFFF00FFFFFF00FF302821FF302821FF302821FF302821FFFFFF00FF302821FF302821FF302821FF302821FF302821FF302821FF302821FF302821FF302821FF302821FF302821FF302821FF302821FFFFFF00
310
FFFFFF00FFFFFF00FFFFFF00FFFFFF00FFFFFF00FFFFFF00FFFFFF00FFFFFF00FFFFFF00FFFFFF00FFFFFF00FFFFFF00FFFFFF00FF302821FF302821FF302821FF302821FF302821FFFFFF00FF302821FF302821FF302821FF302821FF302821FF302821FF302821FF302821FF302821FF302821FF302821FF302821FFFFFF
310
00FFFFFF00FFFFFF00FFFFFF00FFFFFF00FFFFFF00FFFFFF00FFFFFF00FFFFFF00FFFFFF00FFFFFF00FFFFFF00FFFFFF00FFFFFF00FF302821FF302821FF302821FF302821FF302821FFFFFF00FF302821FF302821FF302821FF302821FF302821FF302821FF302821FF302821FF302821FF302821FF302821FF302821FFFF
310
FF00FFFFFF00FFFFFF00FFFFFF00FFFFFF00FFFFFF00FFFFFF00FFFFFF00FFFFFF00FFFFFF00FFFFFF00FFFFFF00FFFFFF00FF302821FF302821FF302821FF302821FF302821FF302821FF302821FFFFFF00FF302821FF302821FF302821FF302821FF302821FF302821FF302821FF302821FF302821FF302821FF302821FF
310
FFFF00FFFFFF00FFFFFF00FFFFFF00FFFFFF00FFFFFF00FFFFFF00FFFFFF00FFFFFF00FFFFFF00FFFFFF00FFFFFF00FFFFFF00FF302821FF302821FF302821FF302821FF302821FF302821FF302821FFFFFF00FF302821FF302821FF302821FF302821FF302821FF302821FF302821FF302821FF302821FF302821FF302821
310
FFFFFF00FFFFFF00FFFFFF00FFFFFF00FFFFFF00FFFFFF00FFFFFF00FFFFFF00FFFFFF00FFFFFF00FFFFFF00FFFFFF00FF302821FF302821FF302821FF302821FF302821FF302821FF302821FF302821FF302821FFFFFF00FF302821FF302821FF302821FF302821FF302821FF302821FF302821FF302821FF302821FF3028
310
21FFFFFF00FFFFFF00FFFFFF00FFFFFF00FFFFFF00FFFFFF00FFFFFF00FFFFFF00FFFFFF00FFFFFF00FFFFFF00FF302821FF302821FF302821FF302821FF302821FF302821FF302821FF302821FF302821FF302821FF302821FFFFFF00FF302821FF302821FF302821FF302821FF302821FF302821FF302821FF302821FF30
310
2821FFFFFF00FFFFFF00FFFFFF00FFFFFF00FFFFFF00FFFFFF00FFFFFF00FFFFFF00FFFFFF00FFFFFF00FF302821FF302821FF302821FF302821FF302821FF302821FF302821FF302821FF302821FF302821FF302821FF302821FF302821FFFFFF00FF302821FF302821FF302821FF302821FF302821FF302821FF302821FF
310
302821FFFFFF00FFFFFF00FFFFFF00FFFFFF00FFFFFF00FFFFFF00FFFFFF00FFFFFF00FFFFFF00FF302821FF302821FF302821FF302821FF302821FF302821FF302821FF302821FF302821FF302821FF302821FF302821FF302821FF302821FF302821FFFFFF00FFFFFF00FF302821FF302821FF302821FF302821FF302821
310
FF302821FFFFFF00FFFFFF00FFFFFF00FFFFFF00FFFFFF00FFFFFF00FFFFFF00FFFFFF00FF302821FF302821FF302821FF302821FF302821FF302821FF302821FF302821FF302821FF302821FF302821FF302821FF302821FF302821FF302821FF302821FF302821FF302821FFFFFF00FFFFFF00FFFFFF00FFFFFF00FFFFFF
310
00FF302821FFFFFF00FFFFFF00FFFFFF00FFFFFF00FFFFFF00FFFFFF00FF302821FF302821FF302821FF302821FF302821FF302821FF302821FF302821FF302821FF302821FF302821FF302821FF302821FF302821FF302821FF302821FF302821FF302821FF302821FF302821FF302821FF302821FF302821FF302821FF30
310
2821FFFFFF00FFFFFF00FFFFFF00FF302821FF302821FF302821FF302821FF302821FF302821FF302821FF302821FF302821FF302821FF302821FF302821FF302821FF302821FF302821FF302821FF302821FF302821FF302821FF302821FF302821FF302821FF302821FF302821FF302821FF302821FF302821FF302821FF
310
302821FF302821FF302821FF302821FF302821FF302821FF302821FF302821FF302821FF302821FF302821FF302821FF302821FF302821FF302821FF302821FF302821FF302821FF
102
{BLKREFS
331
20A18
102
}
  0
BLOCK_RECORD
  5
2222D
330
1
100
AcDbSymbolTableRecord
100
AcDbBlockTableRecord
  2
*D1
340
0
  0
BLOCK_RECORD
  5
2225D
330
1
100
AcDbSymbolTableRecord
100
AcDbBlockTableRecord
  2
*D2
340
0
  0
BLOCK_RECORD
  5
2227C
330
1
100
AcDbSymbolTableRecord
100
AcDbBlockTableRecord
  2
*D3
340
0
  0
BLOCK_RECORD
  5
222AD
330
1
100
AcDbSymbolTableRecord
100
AcDbBlockTableRecord
  2
*D4
340
0
  0
ENDTAB
  0
ENDSEC
  0
SECTION
  2
BLOCKS
  0
BLOCK
  5
20
330
1F
100
AcDbEntity
  8
0
100
AcDbBlockBegin
  2
*MODEL_SPACE
 70
     0
 10
0.0
 20
0.0
 30
0.0
  3
*MODEL_SPACE
  1

  0
ENDBLK
  5
21
330
1F
100
AcDbEntity
  8
0
100
AcDbBlockEnd
  0
BLOCK
  5
1C
330
1B
100
AcDbEntity
 67
     1
  8
0
100
AcDbBlockBegin
  2
*PAPER_SPACE
 70
     0
 10
0.0
 20
0.0
 30
0.0
  3
*PAPER_SPACE
  1

  0
ENDBLK
  5
1D
330
1B
100
AcDbEntity
 67
     1
  8
0
100
AcDbBlockEnd
  0
BLOCK
  5
1B3D8
330
1B3D7
100
AcDbEntity
  8
0
100
AcDbBlockBegin
  2
cero_point
 70
     0
 10
0.0
 20
0.0
 30
0.0
  3
cero_point
  1

  0
HATCH
  5
1B3DA
330
1B3D7
100
AcDbEntity
  8
1
  6
ByBlock
370
    50
100
AcDbHatch
 10
0.0
 20
0.0
 30
0.0
210
0.0
220
0.0
230
1.0
  2
SOLID
 70
     1
 71
     0
 91
        2
 92
        7
 72
     1
 73
     1
 93
        3
 10
-0.0000000000001137
 20
0.0
 42
0.0
 10
-2.950972054112752
 20
0.0
 42
0.4142135623730968
 10
-0.0000000000001137
 20
-2.950972054112583
 42
0.0
 97
        0
 92
        7
 72
     1
 73
     1
 93
        3
 10
-0.0000000000001137
 20
2.950972054112638
 42
0.0
 10
-0.0000000000001137
 20
0.0
 42
0.0
 10
2.950972054112526
 20
0.0
 42
0.4142135623730966
 97
        0
 75
     0
 76
     1
 47
0.1190009775223266
 98
        2
 10
-0.7445530588121301
 20
-0.9212244733764125
 10
1.279464601852737
 20
1.696796923046345
  0
LWPOLYLINE
  5
1B3DB
330
1B3D7
100
AcDbEntity
  8
1
  6
ByBlock
370
    50
100
AcDbPolyline
 90
        3
 70
     1
 43
0.0
 10
-0.0000000000001137
 20
0.0
 10
2.950972054112526
 20
0.0
 42
0.4142135623730966
 10
-0.0000000000001137
 20
2.950972054112638
  0
LINE
  5
1B3DC
330
1B3D7
100
AcDbEntity
  8
1
  6
ByBlock
370
    50
100
AcDbLine
 10
-0.0000000000001137
 20
-2.950972054112583
 30
0.0
 11
-0.0000000000001137
 21
2.950972054112638
 31
0.0
  0
LWPOLYLINE
  5
1B3DD
330
1B3D7
100
AcDbEntity
  8
1
  6
ByBlock
370
    50
100
AcDbPolyline
 90
        3
 70
     1
 43
0.0
 10
-0.0000000000001137
 20
-2.950972054112583
 10
-0.0000000000001137
 20
0.0
 10
-2.950972054112752
 20
0.0
 42
0.4142135623730966
  0
LINE
  5
1B3DE
330
1B3D7
100
AcDbEntity
  8
1
  6
ByBlock
370
    50
100
AcDbLine
 10
2.950972054112638
 20
0.0
 30
0.0
 11
-2.950972054112638
 21
0.0
 31
0.0
  0
CIRCLE
  5
1B3DF
330
1B3D7
100
AcDbEntity
  8
1
  6
ByBlock
370
    50
100
AcDbCircle
 10
-0.0000000000001137
 20
0.0
 30
0.0
 40
2.950972054112601
  0
ENDBLK
  5
1B3D9
330
1B3D7
100
AcDbEntity
  8
0
100
AcDbBlockEnd
  0
BLOCK
  5
2222E
330
2222D
100
AcDbEntity
  8
0
100
AcDbBlockBegin
  2
*D1
 70
     1
 10
0.0
 20
0.0
 30
0.0
  3
*D1
  1

  0
LINE
  5
22321
330
2222D
100
AcDbEntity
  8
2
 62
     0
370
    -2
100
AcDbLine
 10
43.0
 20
-19.23816982063329
 30
0.0
 11
43.0
 21
32.08013892870002
 31
0.0
  0
LINE
  5
22322
330
2222D
100
AcDbEntity
  8
2
 62
     0
370
    -2
100
AcDbLine
 10
0.0
 20
13.43487768236667
 30
0.0
 11
0.0000000000000011
 21
32.08013892870002
 31
0.0
  0
LINE
  5
22323
330
2222D
100
AcDbEntity
  8
2
 62
     0
370
    -2
100
AcDbLine
 10
38.43
 20
31.90013892870002
 30
0.0
 11
4.570000000000001
 21
31.90013892870002
 31
0.0
  0
SOLID
  5
22324
330
2222D
100
AcDbEntity
  8
2
 62
     0
100
AcDbTrace
 10
38.43
 20
32.6618055953667
 30
0.0
 11
38.43
 21
31.13847226203335
 31
0.0
 12
43.0
 22
31.90013892870002
 32
0.0
 13
43.0
 23
31.90013892870002
 33
0.0
  0
SOLID
  5
22325
330
2222D
100
AcDbEntity
  8
2
 62
     0
100
AcDbTrace
 10
4.570000000000001
 20
32.6618055953667
 30
0.0
 11
4.570000000000001
 21
31.13847226203335
 31
0.0
 12
0.0000000000000011
 22
31.90013892870002
 32
0.0
 13
0.0000000000000011
 23
31.90013892870002
 33
0.0
  0
MTEXT
  5
22326
330
2222D
100
AcDbEntity
  8
2
 62
     0
100
AcDbMText
 10
21.5
 20
33.80162873896003
 30
0.0
 40
3.5
 41
0.0
 71
     5
 72
     1
  1
\A1;43
 73
     1
 44
1.0
1001
ACAD
1000
MTEXTBEGIN
1070
    73
1070
     1
1070
    44
1040
1.0
1070
    74
1070
     0
1000
MTEXTEND
  0
POINT
  5
22327
330
2222D
100
AcDbEntity
  8
Defpoints
 62
     0
100
AcDbPoint
 10
43.0
 20
-19.30066982063329
 30
0.0
  0
POINT
  5
22328
330
2222D
100
AcDbEntity
  8
Defpoints
 62
     0
100
AcDbPoint
 10
0.0
 20
13.37237768236667
 30
0.0
  0
POINT
  5
22329
330
2222D
100
AcDbEntity
  8
Defpoints
 62
     0
100
AcDbPoint
 10
0.0000000000000011
 20
31.90013892870002
 30
0.0
  0
ENDBLK
  5
2222F
330
2222D
100
AcDbEntity
  8
0
100
AcDbBlockEnd
  0
BLOCK
  5
2225E
330
2225D
100
AcDbEntity
  8
0
100
AcDbBlockBegin
  2
*D2
 70
     1
 10
0.0
 20
0.0
 30
0.0
  3
*D2
  1

  0
LINE
  5
2232A
330
2225D
100
AcDbEntity
  8
SK2
 62
     0
370
    -2
100
AcDbLine
 10
-24.0
 20
6.503654273200027
 30
0.0
 11
-24.0
 21
31.43790143319546
 31
0.0
  0
LINE
  5
2232B
330
2225D
100
AcDbEntity
  8
SK2
 62
     0
370
    -2
100
AcDbLine
 10
0.0
 20
13.9375
 30
0.0
 11
0.0000000000000011
 21
31.43790143319546
 31
0.0
  0
LINE
  5
2232C
330
2225D
100
AcDbEntity
  8
SK2
 62
     0
370
    -2
100
AcDbLine
 10
-19.43
 20
31.25790143319547
 30
0.0
 11
-4.569999999999998
 21
31.25790143319547
 31
0.0
  0
SOLID
  5
2232D
330
2225D
100
AcDbEntity
  8
SK2
 62
     0
100
AcDbTrace
 10
-19.43
 20
32.01956809986213
 30
0.0
 11
-19.43
 21
30.49623476652879
 31
0.0
 12
-24.0
 22
31.25790143319547
 32
0.0
 13
-24.0
 23
31.25790143319547
 33
0.0
  0
SOLID
  5
2232E
330
2225D
100
AcDbEntity
  8
SK2
 62
     0
100
AcDbTrace
 10
-4.569999999999998
 20
32.01956809986213
 30
0.0
 11
-4.569999999999998
 21
30.49623476652879
 31
0.0
 12
0.0000000000000011
 22
31.25790143319547
 32
0.0
 13
0.0000000000000011
 23
31.25790143319547
 33
0.0
  0
MTEXT
  5
2232F
330
2225D
100
AcDbEntity
  8
SK2
 62
     0
100
AcDbMText
 10
-12.0
 20
33.10896959904226
 30
0.0
 40
3.5
 41
0.0
 71
     5
 72
     1
  1
\A1;24
 73
     1
 44
1.0
1001
ACAD
1000
MTEXTBEGIN
1070
    73
1070
     1
1070
    44
1040
1.0
1070
    74
1070
     0
1000
MTEXTEND
  0
POINT
  5
22330
330
2225D
100
AcDbEntity
  8
Defpoints
 62
     0
100
AcDbPoint
 10
-24.0
 20
6.441154273200027
 30
0.0
  0
POINT
  5
22331
330
2225D
100
AcDbEntity
  8
Defpoints
 62
     0
100
AcDbPoint
 10
0.0
 20
13.875
 30
0.0
  0
POINT
  5
22332
330
2225D
100
AcDbEntity
  8
Defpoints
 62
     0
100
AcDbPoint
 10
0.0000000000000011
 20
31.25790143319547
 30
0.0
  0
ENDBLK
  5
2225F
330
2225D
100
AcDbEntity
  8
0
100
AcDbBlockEnd
  0
BLOCK
  5
2227D
330
2227C
100
AcDbEntity
  8
0
100
AcDbBlockBegin
  2
*D3
 70
     1
 10
0.0
 20
0.0
 30
0.0
  3
*D3
  1

  0
LINE
  5
22333
330
2227C
100
AcDbEntity
  8
SK2
 62
     0
370
    -2
100
AcDbLine
 10
-23.16250000000002
 20
8.0
 30
0.0
 11
-35.30129073184247
 21
8.000000000000001
 31
0.0
  0
LINE
  5
22334
330
2227C
100
AcDbEntity
  8
SK2
 62
     0
370
    -2
100
AcDbLine
 10
-23.16250000000003
 20
-8.0
 30
0.0
 11
-35.30129073184247
 21
-7.999999999999997
 31
0.0
  0
LINE
  5
22335
330
2227C
100
AcDbEntity
  8
SK2
 62
     0
370
    -2
100
AcDbLine
 10
-35.12129073184246
 20
3.430000000000002
 30
0.0
 11
-35.12129073184246
 21
-3.429999999999997
 31
0.0
  0
SOLID
  5
22336
330
2227C
100
AcDbEntity
  8
SK2
 62
     0
100
AcDbTrace
 10
-35.88295739850913
 20
3.430000000000002
 30
0.0
 11
-34.3596240651758
 21
3.430000000000001
 31
0.0
 12
-35.12129073184246
 22
8.000000000000001
 32
0.0
 13
-35.12129073184246
 23
8.000000000000001
 33
0.0
  0
SOLID
  5
22337
330
2227C
100
AcDbEntity
  8
SK2
 62
     0
100
AcDbTrace
 10
-35.88295739850913
 20
-3.429999999999997
 30
0.0
 11
-34.3596240651758
 21
-3.429999999999997
 31
0.0
 12
-35.12129073184246
 22
-7.999999999999997
 32
0.0
 13
-35.12129073184246
 23
-7.999999999999997
 33
0.0
  0
MTEXT
  5
22338
330
2227C
100
AcDbEntity
  8
SK2
 62
     0
100
AcDbMText
 10
-37.07443198272089
 20
-0.0000000000000025
 30
0.0
 40
3.5
 41
0.0
 71
     5
 72
     1
  1
\A1;%%C16
 11
0.0000000000000001
 21
1.0
 31
0.0
 73
     1
 44
1.0
1001
ACAD
1000
MTEXTBEGIN
1070
    73
1070
     1
1070
    44
1040
1.0
1070
    74
1070
     0
1000
MTEXTEND
  0
POINT
  5
22339
330
2227C
100
AcDbEntity
  8
Defpoints
 62
     0
100
AcDbPoint
 10
-23.10000000000002
 20
8.0
 30
0.0
  0
POINT
  5
2233A
330
2227C
100
AcDbEntity
  8
Defpoints
 62
     0
100
AcDbPoint
 10
-23.10000000000004
 20
-8.0
 30
0.0
  0
POINT
  5
2233B
330
2227C
100
AcDbEntity
  8
Defpoints
 62
     0
100
AcDbPoint
 10
-35.12129073184246
 20
-7.999999999999997
 30
0.0
  0
ENDBLK
  5
2227E
330
2227C
100
AcDbEntity
  8
0
100
AcDbBlockEnd
  0
BLOCK
  5
222AE
330
222AD
100
AcDbEntity
  8
0
100
AcDbBlockBegin
  2
*D4
 70
     1
 10
0.0
 20
0.0
 30
0.0
  3
*D4
  1

  0
LINE
  5
2233C
330
222AD
100
AcDbEntity
  8
2
 62
     0
370
    -2
100
AcDbLine
 10
0.4375
 20
14.375
 30
0.0
 11
-46.84311365667638
 21
14.37500000000001
 31
0.0
  0
LINE
  5
2233D
330
222AD
100
AcDbEntity
  8
2
 62
     0
370
    -2
100
AcDbLine
 10
0.4375
 20
-14.375
 30
0.0
 11
-46.84311365667638
 21
-14.37499999999998
 31
0.0
  0
LINE
  5
2233E
330
222AD
100
AcDbEntity
  8
2
 62
     0
370
    -2
100
AcDbLine
 10
-46.66311365667637
 20
9.805000000000012
 30
0.0
 11
-46.66311365667637
 21
-9.804999999999983
 31
0.0
  0
SOLID
  5
2233F
330
222AD
100
AcDbEntity
  8
2
 62
     0
100
AcDbTrace
 10
-47.42478032334306
 20
9.805000000000012
 30
0.0
 11
-45.90144699000972
 21
9.805000000000012
 31
0.0
 12
-46.66311365667637
 22
14.37500000000001
 32
0.0
 13
-46.66311365667637
 23
14.37500000000001
 33
0.0
  0
SOLID
  5
22340
330
222AD
100
AcDbEntity
  8
2
 62
     0
100
AcDbTrace
 10
-47.42478032334306
 20
-9.804999999999983
 30
0.0
 11
-45.90144699000972
 21
-9.804999999999983
 31
0.0
 12
-46.66311365667637
 22
-14.37499999999998
 32
0.0
 13
-46.66311365667637
 23
-14.37499999999998
 33
0.0
  0
MTEXT
  5
22341
330
222AD
100
AcDbEntity
  8
2
 62
     0
100
AcDbMText
 10
-48.61625490755482
 20
0.0000000000000066
 30
0.0
 40
3.5
 41
0.0
 71
     5
 72
     1
  1
\A1;%%C29
 11
0.0000000000000001
 21
1.0
 31
0.0
 73
     1
 44
1.0
1001
ACAD
1000
MTEXTBEGIN
1070
    73
1070
     1
1070
    44
1040
1.0
1070
    74
1070
     0
1000
MTEXTEND
  0
POINT
  5
22342
330
222AD
100
AcDbEntity
  8
Defpoints
 62
     0
100
AcDbPoint
 10
0.5
 20
14.375
 30
0.0
  0
POINT
  5
22343
330
222AD
100
AcDbEntity
  8
Defpoints
 62
     0
100
AcDbPoint
 10
0.5
 20
-14.375
 30
0.0
  0
POINT
  5
22344
330
222AD
100
AcDbEntity
  8
Defpoints
 62
     0
100
AcDbPoint
 10
-46.66311365667637
 20
-14.37499999999998
 30
0.0
  0
ENDBLK
  5
222AF
330
222AD
100
AcDbEntity
  8
0
100
AcDbBlockEnd
  0
ENDSEC
  0
SECTION
  2
ENTITIES
  0
INSERT
  5
20A18
330
1F
100
AcDbEntity
  8
1
100
AcDbBlockReference
  2
cero_point
 10
0.0000000000002274
 20
0.0
 30
0.0
 41
0.5
 42
0.5
 43
0.5
  0
LINE
  5
20B14
330
1F
100
AcDbEntity
  8
INFTOTAL
370
    18
100
AcDbLine
 10
84.57689110336536
 20
-44.26796765928428
 30
0.0
 11
84.57689110336536
 21
-18.94578758972619
 31
0.0
  0
LINE
  5
20B15
330
1F
100
AcDbEntity
  8
INFTOTAL
370
    18
100
AcDbLine
 10
-66.62195112499898
 20
51.95044011113509
 30
0.0
 11
-38.30623709799306
 21
51.95044011113509
 31
0.0
  0
LINE
  5
20B16
330
1F
100
AcDbEntity
  8
INFTOTAL
370
    18
100
AcDbLine
 10
58.42929543405397
 20
-44.26796765928428
 30
0.0
 11
84.57689110336536
 21
-44.26796765928428
 31
0.0
  0
LINE
  5
20B17
330
1F
100
AcDbEntity
  8
INFTOTAL
370
    18
100
AcDbLine
 10
-66.62195112499898
 20
26.03137447090646
 30
0.0
 11
-66.62195112499898
 21
51.95044011113504
 31
0.0
  0
MTEXT
  5
211A0
330
1F
100
AcDbEntity
  8
SK6
100
AcDbMText
 10
39.53466631892638
 20
-34.97222809991952
 30
0.0
 40
3.5
 41
41.87058589293636
 71
     2
 72
     1
  1
12F1D042043X8R00
 73
     1
 44
1.0
1001
ACAD
1000
MTEXTBEGIN
1070
    73
1070
     1
1070
    44
1040
1.0
1070
    74
1070
     0
1000
MTEXTEND
  0
DIMENSION
  5
220CD
330
1F
100
AcDbEntity
  8
2
100
AcDbDimension
  2
*D1
 10
0.0000000000000011
 20
31.90013892870002
 30
0.0
 11
21.5
 21
31.90013892870002
 31
0.0
 70
   160
 71
     5
 42
43.0
  3
STANDARD
100
AcDbAlignedDimension
 13
43.0
 23
-19.30066982063329
 33
0.0
 14
0.0
 24
13.37237768236667
 34
0.0
 50
180.0
100
AcDbRotatedDimension
  0
LWPOLYLINE
  5
220CE
330
1F
100
AcDbEntity
  8
1
100
AcDbPolyline
 90
       15
 70
     0
 43
0.0
 10
42.5822254167
 20
-20.02748820626664
 10
42.57233210719993
 20
-20.0463049321333
 10
42.56068478679997
 20
-20.06415360503331
 10
42.54725045313329
 20
-20.08095222366666
 10
42.53206210859996
 20
-20.09678278933336
 10
42.51560590113331
 20
-20.11117883666668
 10
42.49786392756663
 20
-20.124106891
 10
42.47885409103331
 20
-20.13560042696667
 10
42.45911624886661
 20
-20.14529340349998
 10
42.43864090236662
 20
-20.15316254836665
 10
42.41743755023332
 20
-20.15923113376664
 10
42.39607454573331
 20
-20.16320293493334
 10
42.37474133996665
 20
-20.16497921026667
 10
42.3532484818333
 20
-20.16465870133334
 10
42.33159597133329
 20
-20.16224140816667
  0
LINE
  5
220CF
330
1F
100
AcDbEntity
  8
1
100
AcDbLine
 10
42.68064647783329
 20
-19.96123597916664
 30
0.0
 11
42.9666790280333
 21
-19.33603700513333
 31
0.0
  0
LINE
  5
220D0
330
1F
100
AcDbEntity
  8
1
100
AcDbLine
 10
42.47824746863329
 20
-19.55173743929998
 30
0.0
 11
42.48012613653327
 21
-19.5476311191
 31
0.0
  0
LWPOLYLINE
  5
220D1
330
1F
100
AcDbEntity
  8
1
100
AcDbPolyline
 90
        3
 70
     0
 43
0.0
 10
42.59136439709993
 20
-20.0035864203
 10
42.58997757479995
 20
-20.00841589686666
 10
42.5822254167
 20
-20.02748820626664
  0
LWPOLYLINE
  5
220D2
330
1F
100
AcDbEntity
  8
1
100
AcDbPolyline
 90
       19
 70
     0
 43
0.0
 10
42.59999999999997
 20
18.2572878904333
 10
42.59879380916664
 20
18.28070590050004
 10
42.59543689139997
 20
18.30252153486668
 10
42.58992924673328
 20
18.32273479353336
 10
42.58213838396664
 20
18.3415622071667
 10
42.5721967943
 20
18.35878724510002
 10
42.56050195133332
 20
18.37376031543334
 10
42.54702106473331
 20
18.38635617136668
 10
42.53178692483333
 20
18.39670005966667
 10
42.51529537639997
 20
18.40451812899999
 10
42.49752992433331
 20
18.40975707839999
 10
42.47850706369995
 20
18.41247020883338
 10
42.45877212466665
 20
18.41254357153332
 10
42.43831812576661
 20
18.40994289196669
 10
42.41715204843329
 20
18.40470244466667
 10
42.39584016689996
 20
18.39681110446668
 10
42.37457123926661
 20
18.38626516296665
 10
42.35315650739994
 20
18.37306832853335
 10
42.33159597133329
 20
18.35722060123334
  0
LINE
  5
220D3
330
1F
100
AcDbEntity
  8
1
100
AcDbLine
 10
42.7129058813
 20
12.56167787103334
 30
0.0
 11
42.99861346676664
 21
10.50057124456668
 31
0.0
  0
LWPOLYLINE
  5
220D4
330
1F
100
AcDbEntity
  8
1
100
AcDbPolyline
 90
       19
 70
     0
 43
0.0
 10
42.59999999999997
 20
13.97286856959999
 10
42.59879684073331
 20
13.98105504010004
 10
42.59544738749997
 20
13.99045689939999
 10
42.58995164036661
 20
14.00107414756667
 10
42.58217870536663
 20
14.01307766240001
 10
42.57225947639994
 20
14.02629656610003
 10
42.56058663523332
 20
14.04021822499999
 10
42.54712729183331
 20
14.05483081563335
 10
42.53191433619996
 20
14.07014616146665
 10
42.51543911996662
 20
14.08568709936668
 10
42.49768448256662
 20
14.10145103546665
 10
42.47866758459998
 20
14.11744056363335
 10
42.45893125943331
 20
14.13318630226672
 10
42.43846737873332
 20
14.14868413393333
 10
42.4172840709
 20
14.16393817606666
 10
42.39594855436665
 20
14.17849139946668
 10
42.3746499020333
 20
14.19219146099999
 10
42.35319904103328
 20
14.20519070379998
 10
42.33159597133329
 20
14.21748912786665
  0
LINE
  5
220D5
330
1F
100
AcDbEntity
  8
1
100
AcDbLine
 10
42.71555935413329
 20
13.02091519813336
 30
0.0
 11
42.99838663446665
 21
11.12464704090001
 31
0.0
  0
LINE
  5
220D6
330
1F
100
AcDbEntity
  8
1
100
AcDbLine
 10
42.71394640929996
 20
13.02067462836669
 30
0.0
 11
42.99997895949997
 21
11.10291614263337
 31
0.0
  0
LWPOLYLINE
  5
220D7
330
1F
100
AcDbEntity
  8
1
100
AcDbPolyline
 90
        3
 70
     0
 43
0.0
 10
38.98012018176667
 20
19.08611205373336
 10
38.96625556413329
 20
19.12295458786667
 10
38.94959114433335
 20
19.15815528040002
  0
LWPOLYLINE
  5
220D8
330
1F
100
AcDbEntity
  8
1
100
AcDbPolyline
 90
        7
 70
     0
 43
0.0
 10
40.26300647659996
 20
14.48591176790001
 10
40.23724192336664
 20
14.54761180936668
 10
40.20594511593333
 20
14.61155964713333
 10
40.17071571073329
 20
14.67362966956665
 10
40.13407710776664
 20
14.73013735260002
 10
40.09157988526664
 20
14.7879450353667
 10
40.04479729003332
 20
14.84410750006668
  0
LWPOLYLINE
  5
220D9
330
1F
100
AcDbEntity
  8
1
100
AcDbPolyline
 90
        8
 70
     0
 43
0.0
 10
38.94959114433335
 20
19.15815528040002
 10
38.93012692233333
 20
19.19171413133335
 10
38.90772914189995
 20
19.22380628036671
 10
38.88253155929999
 20
19.25425658783331
 10
38.85493544316665
 20
19.28253963459997
 10
38.82507454979998
 20
19.30848028103332
 10
38.79281512289998
 20
19.33225366680005
 10
38.75815716253328
 20
19.35385979190005
  0
LWPOLYLINE
  5
220DA
330
1F
100
AcDbEntity
  8
1
100
AcDbPolyline
 90
        3
 70
     0
 43
0.0
 10
41.07566992256663
 20
-15.95731326116663
 10
41.08798701180001
 20
-15.92987340626666
 10
41.12344278893329
 20
-15.8435497914333
  0
LINE
  5
220DB
330
1F
100
AcDbEntity
  8
1
100
AcDbLine
 10
41.03451185523328
 20
-16.04048775256666
 30
0.0
 11
41.04501450906662
 21
-16.01497531656662
 31
0.0
  0
LWPOLYLINE
  5
220DC
330
1F
100
AcDbEntity
  8
1
100
AcDbPolyline
 90
       10
 70
     0
 43
0.0
 10
38.98012018176667
 20
-18.36093542193333
 10
38.96625556413329
 20
-18.39798126516666
 10
38.94959114433335
 20
-18.43337620659997
 10
38.93012692233333
 20
-18.46712024620001
 10
38.90772914189995
 20
-18.49938949016666
 10
38.88253155929999
 20
-18.53000783233335
 10
38.85493544316665
 20
-18.55844695420001
 10
38.82507454979998
 20
-18.58453074956662
 10
38.79281512289998
 20
-18.60843532460001
 10
38.75815716253328
 20
-18.63016067933336
  0
LWPOLYLINE
  5
220DD
330
1F
100
AcDbEntity
  8
1
100
AcDbPolyline
 90
       10
 70
     0
 43
0.0
 10
38.75815716253328
 20
-18.63016067933336
 10
38.72654952726664
 20
-18.71738548173334
 10
38.70056254166661
 20
-18.80223669806662
 10
38.68019620569999
 20
-18.88464661216665
 10
38.66435197336665
 20
-18.96460644619998
 10
38.65412839066664
 20
-19.04198385416663
 10
38.65282109573332
 20
-19.11654612916663
 10
38.66152863456665
 20
-19.18819315129996
 10
38.6791524611333
 20
-19.25693422350002
 10
38.70569257546664
 20
-19.32272179616666
  0
LWPOLYLINE
  5
220DE
330
1F
100
AcDbEntity
  8
1
100
AcDbPolyline
 90
       67
 70
     0
 43
0.0
 10
41.12344278893329
 20
-15.8435497914333
 10
41.1544976610333
 20
-15.75568937613332
 10
41.1810591917
 20
-15.66692514893333
 10
41.20312738089995
 20
-15.57725710983334
 10
41.22073181776665
 20
-15.4864783498333
 10
41.23384291316664
 20
-15.39479577796663
 10
41.24237189993329
 20
-15.30283012109999
 10
41.24628768513331
 20
-15.2105794583
 10
41.24562136166662
 20
-15.11804571049998
 10
41.24037744076662
 20
-15.02585536736666
 10
41.23052486023328
 20
-14.93401075919996
 10
41.21609468229997
 20
-14.84250955573333
 10
41.19718460489997
 20
-14.7519712559
 10
41.17376422873332
 20
-14.66240239373331
 10
41.14586395313329
 20
-14.57379643519999
 10
41.11367267383331
 20
-14.4867532774
 10
41.07716127339995
 20
-14.40128352493332
 10
41.03635886929999
 20
-14.31737657319996
 10
40.99154170973327
 20
-14.23560050503328
 10
40.94268255183329
 20
-14.15596977999996
 10
40.88980863849997
 20
-14.07846993856663
 10
40.83327794679997
 20
-14.00362568499997
 10
40.77306566296664
 20
-13.93145503933334
 10
40.70919660079993
 20
-13.86193998149997
 10
40.64210317886664
 20
-13.79555115569997
 10
40.57176351756663
 20
-13.73230977560001
 10
40.49819949649998
 20
-13.67219462749995
 10
40.42190917286665
 20
-13.6156127145
 10
40.34287404679997
 20
-13.56258801210003
 10
40.26111261813333
 20
-13.51309654476665
 10
40.17717844379996
 20
-13.46747338916668
 10
40.0910567802
 20
-13.42574479446665
 10
40.00276237086665
 20
-13.38788451150003
 10
39.91289300359996
 20
-13.35414886913332
 10
39.82143799113328
 20
-13.32456585603336
 10
39.72840802069999
 20
-13.29910748356667
 10
39.63443294163329
 20
-13.27794611486661
 10
39.53950634066666
 20
-13.26111090819995
 10
39.44363463103332
 20
-13.24857270526667
 10
39.34746690176666
 20
-13.24041639469999
 10
39.25100114413329
 20
-13.23667171066665
 10
39.15423936686665
 20
-13.23730891896667
 10
39.0578366850333
 20
-13.24232370546667
 10
38.96179553539997
 20
-13.25174577509995
 10
38.86611348119993
 20
-13.2655454229
 10
38.77143832743332
 20
-13.2836292198333
 10
38.67777690663331
 20
-13.30602623693335
 10
38.58512238623331
 20
-13.33270740319995
 10
38.49410207363332
 20
-13.36349207666666
 10
38.40472705806668
 20
-13.39840810256669
 10
38.31698625029998
 20
-13.43742763566666
 10
38.2314736899333
 20
-13.48028649849999
 10
38.14820449723335
 20
-13.52701074359998
 10
38.06716355193328
 20
-13.57757431836666
 10
37.98889953293333
 20
-13.63163488769999
 10
37.91343128369999
 20
-13.68921618109999
 10
37.84073996079996
 20
-13.75029446899998
 10
37.7713177129333
 20
-13.81445622749999
 10
37.70518672306662
 20
-13.88172238013328
 10
37.64232480826661
 20
-13.95207200333334
 10
37.58315756826664
 20
-14.02502880266666
 10
37.52771007406665
 20
-14.10061046963329
 10
37.47595725470001
 20
-14.17879931269999
 10
37.4282494969666
 20
-14.25906596279998
 10
37.3847035965
 20
-14.34123396356665
 10
37.34520275770001
 20
-14.42547977136667
 10
37.30974698056662
 20
-14.51180338619997
  0
LINE
  5
220DF
330
1F
100
AcDbEntity
  8
1
100
AcDbLine
 10
41.07602171919995
 20
-15.92702478206667
 30
0.0
 11
41.04501450906662
 21
-16.01497531656662
 31
0.0
  0
LWPOLYLINE
  5
220E0
330
1F
100
AcDbEntity
  8
1
100
AcDbPolyline
 90
       55
 70
     0
 43
0.0
 10
40.83618170166665
 20
-15.27764334296665
 10
40.82821773319994
 20
-15.36955456393332
 10
40.81497132886664
 20
-15.46090667193334
 10
40.79648271749999
 20
-15.55142223353334
 10
40.77280804846663
 20
-15.64082635599999
 10
40.74401922089998
 20
-15.72884752196666
 10
40.71020366553329
 20
-15.81521841400001
 10
40.67146407913333
 20
-15.89967672656667
 10
40.62791811253328
 20
-15.98196596253331
 10
40.57969801336661
 20
-16.06183621219997
 10
40.52695022456663
 20
-16.13904491223332
 10
40.46983493936664
 20
-16.21335758236665
 10
40.40852561503334
 20
-16.28454853746666
 10
40.34320844596662
 20
-16.35240157293333
 10
40.27408179826664
 20
-16.41671062130001
 10
40.20135560726664
 20
-16.47728037813329
 10
40.12525074006663
 20
-16.53392689509997
 10
40.04599832463327
 20
-16.58647813853332
 10
39.96383904789997
 20
-16.63477451206665
 10
39.87902242496665
 20
-16.67866934116665
 10
39.79180604106665
 20
-16.71802931873333
 10
39.70245476949997
 20
-16.75273490976667
 10
39.61123996716663
 20
-16.78268071453327
 10
39.51843865039997
 20
-16.80777578863331
 10
39.42433265376667
 20
-16.82794391909999
 10
39.32920777409999
 20
-16.84312385606665
 10
39.23335290249998
 20
-16.85326949846666
 10
39.13705914706662
 20
-16.85835003440002
 10
39.04061894876668
 20
-16.85835003440002
 10
38.94432519333327
 20
-16.85326949846666
 10
38.84847032173333
 20
-16.84312385606665
 10
38.75334544203326
 20
-16.82794391909999
 10
38.65923944539998
 20
-16.80777578863331
 10
38.56643812866662
 20
-16.78268071453327
 10
38.47522332633332
 20
-16.75273490976667
 10
38.38587205476665
 20
-16.71802931873333
 10
38.29865567086665
 20
-16.67866934116665
 10
38.21383904789998
 20
-16.63477451206665
 10
38.13167977119997
 20
-16.58647813853332
 10
38.0524273557333
 20
-16.53392689509997
 10
37.9763224885333
 20
-16.47728037813329
 10
37.90359629756665
 20
-16.41671062130001
 10
37.83446964986661
 20
-16.35240157293333
 10
37.76915248079996
 20
-16.28454853746666
 10
37.70784315646665
 20
-16.21335758236665
 10
37.65072787126667
 20
-16.13904491223332
 10
37.59798008243332
 20
-16.06183621219997
 10
37.54975998329996
 20
-15.98196596253331
 10
37.50621401669997
 20
-15.89967672656667
 10
37.46747443029994
 20
-15.81521841400001
 10
37.43365887493331
 20
-15.72884752196666
 10
37.40487004736667
 20
-15.64082635599999
 10
37.38119537829994
 20
-15.55142223353334
 10
37.36270676696666
 20
-15.46090667193334
 10
37.34946036259998
 20
-15.36955456393332
  0
LWPOLYLINE
  5
220E1
330
1F
100
AcDbEntity
  8
1
100
AcDbPolyline
 90
        7
 70
     0
 43
0.0
 10
40.94224902246661
 20
-9.155639730466646
 10
40.94614961776665
 20
-9.101506455966671
 10
40.95073745579997
 20
-9.046399016500004
 10
40.9560125365333
 20
-8.990317412033332
 10
40.96197485996663
 20
-8.933261642633283
 10
40.96862442609995
 20
-8.875231708233286
 10
40.97596123496663
 20
-8.816227608899962
  0
LWPOLYLINE
  5
220E2
330
1F
100
AcDbEntity
  8
1
100
AcDbPolyline
 90
       52
 70
     0
 43
0.0
 10
40.38883904789996
 20
-15.15019879733336
 10
40.38629585343328
 20
-15.22720871236663
 10
40.37891752996666
 20
-15.30335427873331
 10
40.3667040775
 20
-15.37863549646664
 10
40.34957269343329
 20
-15.45333067030003
 10
40.3276061803666
 20
-15.52716149553333
 10
40.30105294613327
 20
-15.59929305779997
 10
40.26986092566665
 20
-15.66970606833331
 10
40.23408218403329
 20
-15.7384198159333
 10
40.19412132436662
 20
-15.8046572527
 10
40.14993087433333
 20
-15.8683902693333
 10
40.1015583062666
 20
-15.92964697510001
 10
40.04955064029997
 20
-15.98773464986664
 10
39.99386661346665
 20
-16.04261732110001
 10
39.93454748876661
 20
-16.09433096136666
 10
39.87226407519995
 20
-16.14229076806663
 10
39.80698272433329
 20
-16.18645413039996
 10
39.73873708463327
 20
-16.22686365916667
 10
39.6682989104333
 20
-16.26306238410001
 10
39.59564331363333
 20
-16.29500250716666
 10
39.52079518233329
 20
-16.32273182643331
 10
39.44460093499998
 20
-16.34593676539998
 10
39.36704529149995
 20
-16.36456596666664
 10
39.28814353196663
 20
-16.37867078766669
 10
39.20878791519999
 20
-16.38809172433331
 10
39.12897328939994
 20
-16.39277560866662
 10
39.04870480639999
 20
-16.39277560866662
 10
38.96889018059994
 20
-16.38809172433331
 10
38.88953456386662
 20
-16.37867078766669
 10
38.8106328043333
 20
-16.36456596666664
 10
38.73307716080001
 20
-16.34593676539998
 10
38.65688291346663
 20
-16.32273182643331
 10
38.5820347821666
 20
-16.29500250716666
 10
38.50937918540001
 20
-16.26306238410001
 10
38.43894101116666
 20
-16.22686365916667
 10
38.37069537146664
 20
-16.18645413039996
 10
38.3054140206333
 20
-16.14229076806663
 10
38.24313060706663
 20
-16.09433096136666
 10
38.18381148233335
 20
-16.04261732110001
 10
38.12812745553333
 20
-15.98773464986664
 10
38.07611978956663
 20
-15.92964697510001
 10
38.02774722149997
 20
-15.8683902693333
 10
37.98355677146663
 20
-15.8046572527
 10
37.9435959118
 20
-15.7384198159333
 10
37.90781717016665
 20
-15.66970606833331
 10
37.87662514969998
 20
-15.59929305779997
 10
37.85007191546664
 20
-15.52716149553333
 10
37.82810540239996
 20
-15.45333067030003
 10
37.8109740183333
 20
-15.37863549646664
 10
37.79876056586664
 20
-15.30335427873331
 10
37.7913822424
 20
-15.22720871236663
 10
37.78883904789996
 20
-15.15019879733336
  0
LINE
  5
220E3
330
1F
100
AcDbEntity
  8
1
100
AcDbLine
 10
40.83883904789995
 20
-15.18545214030001
 30
0.0
 11
40.83618170166665
 21
-15.27764334296665
 31
0.0
  0
LINE
  5
220E4
330
1F
100
AcDbEntity
  8
1
100
AcDbLine
 10
41.54258619936661
 20
-7.800184246399965
 30
0.0
 11
41.54224096576661
 21
-7.812301151899987
 31
0.0
  0
LINE
  5
220E5
330
1F
100
AcDbEntity
  8
1
100
AcDbLine
 10
41.54258619936661
 20
5.520427473000039
 30
0.0
 11
41.54224096576661
 21
5.506233182066693
 31
0.0
  0
LWPOLYLINE
  5
220E6
330
1F
100
AcDbEntity
  8
1
100
AcDbPolyline
 90
        7
 70
     0
 43
0.0
 10
40.94224902246661
 20
1.877065725600004
 10
40.94614980346665
 20
2.051541229900009
 10
40.95073775289995
 20
2.227464101933378
 10
40.95601287076664
 20
2.404834341666684
 10
40.9619751570666
 20
2.583651949099986
 10
40.96862461180001
 20
2.763916924266708
 10
40.97596123496663
 20
2.945629267133312
  0
LINE
  5
220E7
330
1F
100
AcDbEntity
  8
1
100
AcDbLine
 10
42.99997895949997
 20
11.10291614263337
 30
0.0
 11
42.99861346676664
 21
10.50057124456668
 31
0.0
  0
LINE
  5
220E8
330
1F
100
AcDbEntity
  8
1
100
AcDbLine
 10
42.71394640929996
 20
13.02067462836669
 30
0.0
 11
42.7129058813
 21
12.56167787103334
 31
0.0
  0
LINE
  5
220EA
330
1F
100
AcDbEntity
  8
1
100
AcDbLine
 10
42.99997895949997
 20
20.023836598
 30
0.0
 11
42.99861346676664
 21
19.07194271313335
 31
0.0
  0
LINE
  5
220EB
330
1F
100
AcDbEntity
  8
1
100
AcDbLine
 10
42.71394640929996
 20
19.15813975943336
 30
0.0
 11
42.7129058813
 21
18.43278090293336
 31
0.0
  0
LINE
  5
220ED
330
1F
100
AcDbEntity
  8
1
100
AcDbLine
 10
42.59999999999997
 20
-8.864944610933321
 30
0.0
 11
42.59999999999997
 21
-10.31596803829995
 31
0.0
  0
LINE
  5
220EE
330
1F
100
AcDbEntity
  8
1
100
AcDbLine
 10
42.59999999999997
 20
-3.201732179600013
 30
0.0
 11
42.59999999999997
 21
-0.9029342743999675
 31
0.0
  0
LINE
  5
220EF
330
1F
100
AcDbEntity
  8
1
100
AcDbLine
 10
42.59999999999997
 20
12.59453396539999
 30
0.0
 11
42.59999999999997
 21
13.97286856959999
 31
0.0
  0
LINE
  5
220F0
330
1F
100
AcDbEntity
  8
1
100
AcDbLine
 10
42.59999999999997
 20
17.70108926349996
 30
0.0
 11
42.59999999999997
 21
18.96071753180001
 31
0.0
  0
LINE
  5
220F1
330
1F
100
AcDbEntity
  8
1
100
AcDbLine
 10
42.33159597133329
 20
19.13963400293335
 30
0.0
 11
42.33159597133329
 21
18.35722060123334
 31
0.0
  0
LINE
  5
220F2
330
1F
100
AcDbEntity
  8
1
100
AcDbLine
 10
42.33159597133329
 20
-0.9029342743999675
 30
0.0
 11
42.33159597133329
 21
-3.224817079233332
 31
0.0
  0
LINE
  5
220F3
330
1F
100
AcDbEntity
  8
1
100
AcDbLine
 10
42.33159597133329
 20
-19.91287502523334
 30
0.0
 11
42.33159597133329
 21
-20.16224140816667
 31
0.0
  0
LINE
  5
220F4
330
1F
100
AcDbEntity
  8
1
100
AcDbLine
 10
41.07384247546668
 20
-19.89336495206669
 30
0.0
 11
41.07384247546668
 21
-19.47366624170001
 31
0.0
  0
LINE
  5
220F5
330
1F
100
AcDbEntity
  8
1
100
AcDbLine
 10
41.07384247546668
 20
-4.548127474133308
 30
0.0
 11
41.07384247546668
 21
-0.9029342743999675
 31
0.0
  0
LINE
  5
220F6
330
1F
100
AcDbEntity
  8
1
100
AcDbLine
 10
41.07384247546668
 20
17.2757563925
 30
0.0
 11
41.07384247546668
 21
18.70381947656665
 31
0.0
  0
LINE
  5
220F7
330
1F
100
AcDbEntity
  8
1
100
AcDbLine
 10
40.97596123496663
 20
-9.511815803933302
 30
0.0
 11
40.97596123496663
 21
-8.816227608899962
 31
0.0
  0
LINE
  5
220F8
330
1F
100
AcDbEntity
  8
1
100
AcDbLine
 10
40.97596123496663
 20
1.577065725600049
 30
0.0
 11
40.97596123496663
 21
2.945629267133312
 31
0.0
  0
LINE
  5
220F9
330
1F
100
AcDbEntity
  8
1
100
AcDbLine
 10
40.90283240379995
 20
18.67511224020001
 30
0.0
 11
40.90283240379995
 21
17.15670816686668
 31
0.0
  0
LINE
  5
220FA
330
1F
100
AcDbEntity
  8
1
100
AcDbLine
 10
40.90283240379995
 20
-0.9029342743999675
 30
0.0
 11
40.90283240379995
 21
-4.719866688433285
 31
0.0
  0
LINE
  5
220FB
330
1F
100
AcDbEntity
  8
1
100
AcDbLine
 10
40.90283240379995
 20
-19.87959655966665
 30
0.0
 11
40.90283240379995
 21
-19.41394935296665
 31
0.0
  0
LINE
  5
220FC
330
1F
100
AcDbEntity
  8
1
100
AcDbLine
 10
40.83883904789995
 20
-15.18545214030001
 30
0.0
 11
40.83883904789995
 21
-15.32562182016664
 31
0.0
  0
LINE
  5
220FD
330
1F
100
AcDbEntity
  8
1
100
AcDbLine
 10
42.99997895949997
 20
-19.1832158446
 30
0.0
 11
42.99861346676664
 21
-18.2260690992
 31
0.0
  0
LINE
  5
220FE
330
1F
100
AcDbEntity
  8
1
100
AcDbLine
 10
42.99997895949997
 20
-13.21264878756665
 30
0.0
 11
42.99861346676664
 21
-12.63143454530001
 31
0.0
  0
LWPOLYLINE
  5
220FF
330
1F
100
AcDbEntity
  8
1
100
AcDbPolyline
 90
        3
 70
     0
 43
0.0
 10
41.02510497286664
 20
-9.858845886266637
 10
41.02650591639997
 20
-9.95433926813331
 10
41.0277067564333
 20
-10.00928716596667
  0
LWPOLYLINE
  5
22100
330
1F
100
AcDbEntity
  8
1
100
AcDbPolyline
 90
        3
 70
     0
 43
0.0
 10
41.04051612969999
 20
2.711277813000037
 10
41.00611229596665
 20
3.223919428533348
 10
40.99695100986662
 20
3.380017164033346
  0
LINE
  5
22101
330
1F
100
AcDbEntity
  8
1
100
AcDbLine
 10
40.03671679703329
 20
14.07813811646667
 30
0.0
 11
40.02423314856661
 21
14.23596498786668
 31
0.0
  0
LWPOLYLINE
  5
22102
330
1F
100
AcDbEntity
  8
1
100
AcDbPolyline
 90
        4
 70
     0
 43
0.0
 10
41.13278780473331
 20
1.577065725600049
 10
41.12219303519998
 20
1.690866340166678
 10
41.07917273623331
 20
2.199733842633349
 10
41.04051612969999
 20
2.711277813000037
  0
LWPOLYLINE
  5
22103
330
1F
100
AcDbEntity
  8
1
100
AcDbPolyline
 90
        9
 70
     0
 43
0.0
 10
40.95206340176662
 20
1.577065725600049
 10
40.94992898649997
 20
1.598165337299974
 10
40.94700679569995
 20
1.634819971500006
 10
40.94470745016667
 20
1.672949372466689
 10
40.94310845309997
 20
1.712233286966693
 10
40.94205135639997
 20
1.752562316800036
 10
40.94151502723332
 20
1.79370924443333
 10
40.94158033376664
 20
1.83530933960003
 10
40.94224902246661
 20
1.877065725600004
  0
LINE
  5
22104
330
1F
100
AcDbEntity
  8
1
100
AcDbLine
 10
42.7129058813
 20
-10.69009495939997
 30
0.0
 11
42.99861346676664
 21
-12.63143454530001
 31
0.0
  0
LWPOLYLINE
  5
22105
330
1F
100
AcDbEntity
  8
1
100
AcDbPolyline
 90
       19
 70
     0
 43
0.0
 10
42.59999999999997
 20
-3.039115438866645
 10
42.59879837549998
 20
-3.033242563033353
 10
42.59545270783331
 20
-3.029553008966671
 10
42.58996299693331
 20
-3.028046776699966
 10
42.58219915809997
 20
-3.028765106200011
 10
42.57229127609996
 20
-3.031666757466608
 10
42.56062960499996
 20
-3.036628010599997
 10
42.54718120526661
 20
-3.043710877900024
 10
42.5319790164666
 20
-3.052853347033305
 10
42.51551211159994
 20
-3.063745660999984
 10
42.49776300113331
 20
-3.076417105099948
 10
42.47874917460001
 20
-3.090838394066622
 10
42.45901217343328
 20
-3.106611914933296
 10
42.43854327479994
 20
-3.123754671000028
 10
42.41735120149995
 20
-3.142249659000015
 10
42.39600366353328
 20
-3.161648256099964
 10
42.37468989749992
 20
-3.181800921366629
 10
42.35322066676667
 20
-3.202857195733314
 10
42.33159597133329
 20
-3.224817079233332
  0
LWPOLYLINE
  5
22106
330
1F
100
AcDbEntity
  8
1
100
AcDbPolyline
 90
       18
 70
     0
 43
0.0
 10
38.15344494723332
 20
13.920318076
 10
38.20122814230001
 20
13.76178534963333
 10
38.27065872496667
 20
13.62056468510002
 10
38.36173669519997
 20
13.49665608240002
 10
38.47846261616668
 20
13.38740135223332
 10
38.61683592473332
 20
13.29545868389999
 10
38.76485493136664
 20
13.22880264543335
 10
38.92338115499996
 20
13.18969174750003
 10
39.09155307669994
 20
13.17586747943335
 10
39.25478444989996
 20
13.18852887719998
 10
39.4126340026333
 20
13.23004154503337
 10
39.56554300686662
 20
13.29803987870002
 10
39.7002490320333
 20
13.38662610136668
 10
39.81512625363332
 20
13.49763904913334
 10
39.91180049616661
 20
13.62923988593331
 10
39.98188680263331
 20
13.77001432669999
 10
40.02259018736663
 20
13.91615760976668
 10
40.03671679703329
 20
14.07813811646667
  0
LWPOLYLINE
  5
22107
330
1F
100
AcDbEntity
  8
1
100
AcDbPolyline
 90
       18
 70
     0
 43
0.0
 10
37.69249720703328
 20
13.56903626600001
 10
37.75841791146661
 20
13.42074183030002
 10
37.87184964936666
 20
13.24416918653332
 10
38.0157386432333
 20
13.08287167729998
 10
38.18640982329998
 20
12.93992732926665
 10
38.3728379803
 20
12.82457022256665
 10
38.57606340176665
 20
12.73862168766664
 10
38.7950458002
 20
12.68026039406669
 10
39.01563910383334
 20
12.65325643043331
 10
39.2379496658
 20
12.65968003133332
 10
39.46187113296662
 20
12.69746096213333
 10
39.67293837403332
 20
12.76415860773335
 10
39.87030274326662
 20
12.8616820714667
 10
40.05481288636667
 20
12.98812224996669
 10
40.21454960919992
 20
13.13531121813332
 10
40.34787735179997
 20
13.30461882666668
 10
40.45643167416665
 20
13.49467522483337
 10
40.53320006173328
 20
13.69320293520002
  0
LWPOLYLINE
  5
22108
330
1F
100
AcDbEntity
  8
1
100
AcDbPolyline
 90
       17
 70
     0
 43
0.0
 10
37.91467161923332
 20
13.67037129596667
 10
38.02031240459996
 20
13.46123579750002
 10
38.16665303786664
 20
13.27559804680004
 10
38.34811944969999
 20
13.12052892810004
 10
38.56175286429993
 20
13.0001785843333
 10
38.79194360099996
 20
12.92334072616666
 10
39.03344299303331
 20
12.8904888719
 10
39.27705240356664
 20
12.90287433843332
 10
39.51759404719997
 20
12.96144194766668
 10
39.73749212356665
 20
13.06191230500002
 10
39.93268320583331
 20
13.20109051783333
 10
40.09573252629997
 20
13.37367533129998
 10
40.22227636643332
 20
13.5768527823667
 10
40.30306847169993
 20
13.79577718246668
 10
40.33761095546663
 20
14.02545675296664
 10
40.32458810526661
 20
14.25714307026669
 10
40.26300643909997
 20
14.48591186550004
  0
LWPOLYLINE
  5
22109
330
1F
100
AcDbEntity
  8
1
100
AcDbPolyline
 90
       13
 70
     0
 43
0.0
 10
40.16735330463331
 20
-15.37715253803333
 10
40.18499836809996
 20
-15.36300616806665
 10
40.20130503109998
 20
-15.34781536989999
 10
40.21627329363332
 20
-15.33158014356661
 10
40.2299739322666
 20
-15.31419497549996
 10
40.2423361704666
 20
-15.29576537923333
 10
40.2531476785
 20
-15.27660789543336
 10
40.26238166816664
 20
-15.25670995013331
 10
40.27006492769999
 20
-15.23608411726661
 10
40.27606549193331
 20
-15.21508465933334
 10
40.28035429306664
 20
-15.19370512206666
 10
40.28296039893331
 20
-15.17195195969998
 10
40.28383904789996
 20
-15.15019879733336
  0
LWPOLYLINE
  5
2210A
330
1F
100
AcDbEntity
  8
1
100
AcDbPolyline
 90
        3
 70
     0
 43
0.0
 10
39.97233056839997
 20
-16.8461063227333
 10
40.08382121479995
 20
-16.73971035623333
 10
40.13954753766665
 20
-16.66377180116666
  0
LWPOLYLINE
  5
2210B
330
1F
100
AcDbEntity
  8
1
100
AcDbPolyline
 90
        6
 70
     0
 43
0.0
 10
37.94065909733331
 20
-15.30369220699998
 10
37.94763894193329
 20
-15.29327759656666
 10
37.96133613233332
 20
-15.27588824679998
 10
37.97631610786664
 20
-15.25963611750001
 10
37.99264566080001
 20
-15.24441848409998
 10
38.01032479119999
 20
-15.23023534660001
  0
LWPOLYLINE
  5
2210C
330
1F
100
AcDbEntity
  8
1
100
AcDbPolyline
 90
        3
 70
     0
 43
0.0
 10
37.38817526046665
 20
-14.73800337950001
 10
37.42372820989999
 20
-14.65164022173332
 10
37.4595381246333
 20
-14.57595659086666
  0
LWPOLYLINE
  5
2210D
330
1F
100
AcDbEntity
  8
1
100
AcDbPolyline
 90
       22
 70
     0
 43
0.0
 10
42.59999999999997
 20
-3.201732179600013
 10
42.46100979739998
 20
-3.589476103166646
 10
42.32954619479993
 20
-3.960952126366692
 10
42.20560919219997
 20
-4.316160249199981
 10
42.08943984769996
 20
-4.654514412399977
 10
41.98079710323328
 20
-4.976600675266637
 10
41.87895778456662
 20
-5.284177215533303
 10
41.78411478233329
 20
-5.576589339400014
 10
41.6960752059
 20
-5.854491740699983
 10
41.61353720943327
 20
-6.121606678833358
 10
41.53645431206665
 20
-6.377792689466673
 10
41.46487299469998
 20
-6.623191236866659
 10
41.39763085383332
 20
-6.8619489734333
 10
41.33447951313331
 20
-7.094484104133299
 10
41.27566734893331
 20
-7.320378423966643
 10
41.22077708716664
 20
-7.542523970399996
 10
41.16955851369993
 20
-7.761374736466676
 10
41.12226184263329
 20
-7.976476729166619
 10
41.07922044239995
 20
-8.18936000689996
 10
41.0405454357666
 20
-8.400534589166683
 10
41.00612569996667
 20
-8.609490456499997
 10
40.97596123496663
 20
-8.816227608899962
  0
LWPOLYLINE
  5
2210E
330
1F
100
AcDbEntity
  8
1
100
AcDbPolyline
 90
       17
 70
     0
 43
0.0
 10
37.30974698056662
 20
-14.51180338619997
 10
37.27869210846666
 20
-14.59966380150001
 10
37.25213057783333
 20
-14.6884280287
 10
37.2300623886
 20
-14.77809606779999
 10
37.21245795176662
 20
-14.86887482780003
 10
37.19934685633332
 20
-14.96055739966664
 10
37.19081786959999
 20
-15.05252305653334
 10
37.18690208436664
 20
-15.14477371933333
 10
37.18756840786665
 20
-15.23730746713329
 10
37.19281232873335
 20
-15.32949781026666
 10
37.20266490926667
 20
-15.42134241843331
 10
37.21709508723332
 20
-15.51284362189995
 10
37.2360051646333
 20
-15.60338192173333
 10
37.25942554076664
 20
-15.69295078389996
 10
37.28732581636666
 20
-15.78155674243333
 10
37.31951709566664
 20
-15.86859990023333
 10
37.35751397543334
 20
-15.95731571733336
  0
LWPOLYLINE
  5
2210F
330
1F
100
AcDbEntity
  8
1
100
AcDbPolyline
 90
       14
 70
     0
 43
0.0
 10
37.38817526046665
 20
-14.73800337950001
 10
37.35716805029996
 20
-14.82595391400002
 10
37.33078366823328
 20
-14.91527316633335
 10
37.30908770999997
 20
-15.00573907476666
 10
37.29213411513331
 20
-15.09712672679994
 10
37.27996503296664
 20
-15.18920891833329
 10
37.2726107177333
 20
-15.28175671849999
 10
37.27008945346665
 20
-15.37454003893333
 10
37.27240750836666
 20
-15.46732820563329
 10
37.27955911943332
 20
-15.55989053263329
 10
37.29152650663332
 20
-15.65199689536666
 10
37.30827991713329
 20
-15.74341830296663
 10
37.32977769929994
 20
-15.83392746736666
 10
37.35596640629996
 20
-15.92329936850001
  0
LWPOLYLINE
  5
22110
330
1F
100
AcDbEntity
  8
1
100
AcDbPolyline
 90
       25
 70
     0
 43
0.0
 10
39.83362449106664
 20
-15.92993040726662
 10
39.82963613203333
 20
-15.9516169552333
 10
39.82403274316664
 20
-15.97271727516664
 10
39.8168143245
 20
-15.99323136706664
 10
39.80792071166661
 20
-16.0132706037333
 10
39.79741206899996
 20
-16.03272361236667
 10
39.78546888949995
 20
-16.05125627453333
 10
39.77206639209999
 20
-16.06885269163331
 10
39.7572293578333
 20
-16.08552876229999
 10
39.74121262270001
 20
-16.10099806386665
 10
39.72399580783332
 20
-16.11523974986664
 10
39.70559929209997
 20
-16.12827466679999
 10
39.68633904789999
 20
-16.13987893116666
 10
39.6662001547333
 20
-16.15002782913331
 10
39.64519753313334
 20
-16.1587460746
 10
39.62369191713333
 20
-16.16588392583333
 10
39.60167461776666
 20
-16.1714140822333
 10
39.57915432396664
 20
-16.17536384443332
 10
39.55651783689996
 20
-16.17766537263333
 10
39.53376314936662
 20
-16.17829019426665
 10
39.51089226853333
 20
-16.17726678190001
 10
39.48829801706665
 20
-16.1746127133
 10
39.46611133583332
 20
-16.17033384773333
 10
39.44420128396667
 20
-16.16442432596665
 10
39.42256786146663
 20
-16.15688414796665
  0
LWPOLYLINE
  5
22111
330
1F
100
AcDbEntity
  8
1
100
AcDbPolyline
 90
       16
 70
     0
 43
0.0
 10
39.83362449106664
 20
-15.92993040726662
 10
39.84097337966665
 20
-15.8866628500333
 10
39.85058570486661
 20
-15.84404172616666
 10
39.86246146669998
 20
-15.80206703566665
 10
39.8766446954333
 20
-15.76062957466666
 10
39.8930913608333
 20
-15.71983854706667
 10
39.91166937206664
 20
-15.68002156439996
 10
39.9323958929333
 20
-15.64118647069995
 10
39.95525375966668
 20
-15.60332542196664
 10
39.98005939019999
 20
-15.56674249776665
 10
40.00682846989997
 20
-15.53144799083333
 10
40.03554531339999
 20
-15.49743160840001
 10
40.06597928243332
 20
-15.46496655179999
 10
40.09805349759996
 20
-15.43414388806661
 10
40.13184483833334
 20
-15.40487255016666
 10
40.16735330463331
 20
-15.37715253803333
  0
LINE
  5
22112
330
1F
100
AcDbEntity
  8
1
100
AcDbLine
 10
42.71394640929996
 20
-0.9029342743999675
 30
0.0
 11
42.99997895949997
 21
1.577065725600049
 31
0.0
  0
LINE
  5
22113
330
1F
100
AcDbEntity
  8
1
100
AcDbLine
 10
42.47824746863329
 20
1.560777032766679
 30
0.0
 11
42.48012613653327
 21
1.577065725600049
 31
0.0
  0
LWPOLYLINE
  5
22114
330
1F
100
AcDbEntity
  8
1
100
AcDbPolyline
 90
       18
 70
     0
 43
0.0
 10
37.58883904793335
 20
-8.531927004900012
 10
37.59023307003332
 20
-8.511072510299982
 10
37.59434697766665
 20
-8.488559347200007
 10
37.60108345126662
 20
-8.464381980233325
 10
37.61034683656664
 20
-8.438521963033338
 10
37.62202410753332
 20
-8.411244820666636
 10
37.63599741246661
 20
-8.382581284966647
 10
37.65216140306666
 20
-8.352500624133313
 10
37.6704158453
 20
-8.321176167600013
 10
37.6906384208
 20
-8.288651427700017
 10
37.71273120853334
 20
-8.254882892099999
 10
37.73665032099997
 20
-8.219913353299942
 10
37.7623057679333
 20
-8.183762999000009
 10
37.7896013418
 20
-8.146411641533291
 10
37.81851238823333
 20
-8.107841510199987
 10
37.84898206179998
 20
-8.068046681433315
 10
37.88090732616661
 20
-8.027033078833312
 10
37.91420662756662
 20
-7.984800702366669
  0
LWPOLYLINE
  5
22115
330
1F
100
AcDbEntity
  8
1
100
AcDbPolyline
 90
       13
 70
     0
 43
0.0
 10
37.89383904789997
 20
-15.15019879733336
 10
37.89471769689999
 20
-15.12844563496662
 10
37.8973238027333
 20
-15.1066924726
 10
37.90161260389993
 20
-15.08531293533332
 10
37.90761316813331
 20
-15.06431347739999
 10
37.91529642763328
 20
-15.04368764453329
 10
37.9245304173333
 20
-15.02378969923336
 10
37.93534192536663
 20
-15.00463221543333
 10
37.94770416353333
 20
-14.98620261916665
 10
37.96140480219998
 20
-14.96881745109999
 10
37.97637306473332
 20
-14.95258222476661
 10
37.99267972773328
 20
-14.93739142660001
 10
38.01032479119999
 20
-14.92324505663328
  0
LWPOLYLINE
  5
22116
330
1F
100
AcDbEntity
  8
1
100
AcDbPolyline
 90
       52
 70
     0
 43
0.0
 10
37.78883904789996
 20
-15.15019879733336
 10
37.7913822424
 20
-15.07318888229997
 10
37.79876056586664
 20
-14.9970433159333
 10
37.8109740183333
 20
-14.92176209819996
 10
37.82810540239996
 20
-14.84706692436668
 10
37.85007191546664
 20
-14.77323609913333
 10
37.87662514969998
 20
-14.70110453686664
 10
37.90781717016665
 20
-14.63069152633329
 10
37.9435959118
 20
-14.56197777873331
 10
37.98355677146663
 20
-14.49574034196666
 10
38.02774722149997
 20
-14.4320073253333
 10
38.07611978956663
 20
-14.37075061956665
 10
38.12812745553333
 20
-14.31266294479996
 10
38.18381148233335
 20
-14.25778027356665
 10
38.24313060706663
 20
-14.2060666333
 10
38.3054140206333
 20
-14.15810682659997
 10
38.37069537146664
 20
-14.11394346426664
 10
38.43894101116666
 20
-14.07353393549999
 10
38.50937918540001
 20
-14.03733521056665
 10
38.5820347821666
 20
-14.0053950875
 10
38.65688291346663
 20
-13.97766576823335
 10
38.73307716080001
 20
-13.95446082926662
 10
38.8106328043333
 20
-13.93583162799996
 10
38.88953456386662
 20
-13.92172680699997
 10
38.96889018059994
 20
-13.91230587033328
 10
39.04870480639999
 20
-13.90762198599998
 10
39.12897328939994
 20
-13.90762198599998
 10
39.20878791519999
 20
-13.91230587033328
 10
39.28814353196663
 20
-13.92172680699997
 10
39.36704529149995
 20
-13.93583162799996
 10
39.44460093499998
 20
-13.95446082926662
 10
39.52079518233329
 20
-13.97766576823335
 10
39.59564331363333
 20
-14.0053950875
 10
39.6682989104333
 20
-14.03733521056665
 10
39.73873708463327
 20
-14.07353393549999
 10
39.80698272433329
 20
-14.11394346426664
 10
39.87226407519995
 20
-14.15810682659997
 10
39.93454748876661
 20
-14.2060666333
 10
39.99386661346665
 20
-14.25778027356665
 10
40.04955064029997
 20
-14.31266294479996
 10
40.1015583062666
 20
-14.37075061956665
 10
40.14993087433333
 20
-14.4320073253333
 10
40.19412132436662
 20
-14.49574034196666
 10
40.23408218403329
 20
-14.56197777873331
 10
40.26986092566665
 20
-14.63069152633329
 10
40.30105294613327
 20
-14.70110453686664
 10
40.3276061803666
 20
-14.77323609913333
 10
40.34957269343329
 20
-14.84706692436668
 10
40.3667040775
 20
-14.92176209819996
 10
40.37891752996666
 20
-14.9970433159333
 10
40.38629585343328
 20
-15.07318888229997
 10
40.38883904789996
 20
-15.15019879733336
  0
LINE
  5
22117
330
1F
100
AcDbEntity
  8
1
100
AcDbLine
 10
40.16735330463331
 20
-14.92324505663328
 30
0.0
 11
40.16735330463331
 21
-15.23023534660001
 31
0.0
  0
LINE
  5
22118
330
1F
100
AcDbEntity
  8
1
100
AcDbLine
 10
39.83362449106664
 20
-14.37046718739998
 30
0.0
 11
39.83362449106664
 21
-14.67745747736666
 31
0.0
  0
LINE
  5
22119
330
1F
100
AcDbEntity
  8
1
100
AcDbLine
 10
39.42256786146663
 20
-14.14351344670001
 30
0.0
 11
39.42256786146663
 21
-14.45050373666663
 31
0.0
  0
LINE
  5
2211A
330
1F
100
AcDbEntity
  8
1
100
AcDbLine
 10
39.00259689096664
 20
-18.88579187456662
 30
0.0
 11
39.00259689096664
 21
-18.56908656953328
 31
0.0
  0
LINE
  5
2211B
330
1F
100
AcDbEntity
  8
1
100
AcDbLine
 10
39.00259689096664
 20
-0.9029342743999675
 30
0.0
 11
39.00259689096664
 21
0.1802940268667044
 31
0.0
  0
LINE
  5
2211C
330
1F
100
AcDbEntity
  8
1
100
AcDbLine
 10
38.7551102343666
 20
-14.14351344670001
 30
0.0
 11
38.7551102343666
 21
-14.45050373666663
 31
0.0
  0
LINE
  5
2211D
330
1F
100
AcDbEntity
  8
1
100
AcDbLine
 10
38.34405360473329
 20
-14.37046718739998
 30
0.0
 11
38.34405360473329
 21
-14.67745747736666
 31
0.0
  0
LINE
  5
2211E
330
1F
100
AcDbEntity
  8
1
100
AcDbLine
 10
38.01032479119999
 20
-14.92324505663328
 30
0.0
 11
38.01032479119999
 21
-15.23023534660001
 31
0.0
  0
LWPOLYLINE
  5
2211F
330
1F
100
AcDbEntity
  8
1
100
AcDbPolyline
 90
       13
 70
     0
 43
0.0
 10
40.28383904789996
 20
-15.15019879733336
 10
40.28296039893331
 20
-15.12844563496662
 10
40.28035429306664
 20
-15.1066924726
 10
40.27606549193331
 20
-15.08531293533332
 10
40.27006492769999
 20
-15.06431347739999
 10
40.26238166816664
 20
-15.04368764453329
 10
40.2531476785
 20
-15.02378969923336
 10
40.2423361704666
 20
-15.00463221543333
 10
40.2299739322666
 20
-14.98620261916665
 10
40.21627329363332
 20
-14.96881745109999
 10
40.20130503109998
 20
-14.95258222476661
 10
40.18499836809996
 20
-14.93739142660001
 10
40.16735330463331
 20
-14.92324505663328
  0
LWPOLYLINE
  5
22120
330
1F
100
AcDbEntity
  8
1
100
AcDbPolyline
 90
       43
 70
     0
 43
0.0
 10
38.31383904789993
 20
14.04723983250005
 10
38.31610629379998
 20
13.99165494116664
 10
38.32258324980001
 20
13.93698386189999
 10
38.33326991596664
 20
13.88322659469998
 10
38.34827274326665
 20
13.83009380966666
 10
38.36748528069995
 20
13.77787483669999
 10
38.39058817529997
 20
13.72743766550002
 10
38.41764645326664
 20
13.67881207843334
 10
38.44859508843331
 20
13.63196829313335
 10
38.48291964899999
 20
13.58768495233334
 10
38.5206765626333
 20
13.54600485320003
 10
38.56180940173329
 20
13.50688519856669
 10
38.60563445146664
 20
13.47097623979999
 10
38.65219671146667
 20
13.43833164279999
 10
38.70145118213328
 20
13.40889774166669
 10
38.75257915009996
 20
13.38316379006665
 10
38.80561193029996
 20
13.36119163163334
 10
38.86051820776663
 20
13.34291942269999
 10
38.91638532409996
 20
13.32865088606667
 10
38.97322933946663
 20
13.31845294193334
 10
39.03103419366664
 20
13.31225867006668
 10
39.08883904789997
 20
13.31017103236667
 10
39.14664390213329
 20
13.31225867006668
 10
39.20444875636667
 20
13.31845294193334
 10
39.26129277173334
 20
13.32865088606667
 10
39.31715988806661
 20
13.34291942269999
 10
39.37206616553329
 20
13.36119163163334
 10
39.42509894573334
 20
13.38316379006665
 10
39.47622691366666
 20
13.40889774166669
 10
39.52548138436663
 20
13.43833164279999
 10
39.57204364436666
 20
13.47097623979999
 10
39.61586869409996
 20
13.50688519856669
 10
39.65700153316664
 20
13.54600485320003
 10
39.6947584468333
 20
13.58768495233334
 10
39.72908300739994
 20
13.63196829313335
 10
39.76003164253331
 20
13.67881207843334
 10
39.78708992053327
 20
13.72743766550002
 10
39.81019281513329
 20
13.77787483669999
 10
39.82940535256665
 20
13.83009380966666
 10
39.84440817986661
 20
13.88322659469998
 10
39.855094846
 20
13.93698386189999
 10
39.86157180203328
 20
13.99165494116664
 10
39.8638390479
 20
14.04723983250005
  0
LINE
  5
22121
330
1F
100
AcDbEntity
  8
1
100
AcDbLine
 10
41.00610664013332
 20
-8.768046726933333
 30
0.0
 11
40.9992847840333
 21
-8.656375805766629
 31
0.0
  0
LINE
  5
22122
330
1F
100
AcDbEntity
  8
1
100
AcDbLine
 10
41.04050376219993
 20
-9.256146176933327
 30
0.0
 11
41.00610664013332
 21
-8.768046726933333
 31
0.0
  0
LINE
  5
22123
330
1F
100
AcDbEntity
  8
1
100
AcDbLine
 10
38.15344494723332
 20
13.920318076
 30
0.0
 11
38.14096129879999
 21
14.0781449474
 31
0.0
  0
LINE
  5
22124
330
1F
100
AcDbEntity
  8
1
100
AcDbLine
 10
41.07915260109996
 20
-9.738877447133289
 30
0.0
 11
41.04050376219993
 21
-9.256146176933327
 31
0.0
  0
LINE
  5
22125
330
1F
100
AcDbEntity
  8
1
100
AcDbLine
 10
41.10217628393331
 20
-9.993485904199983
 30
0.0
 11
41.07915260109996
 21
-9.738877447133289
 31
0.0
  0
LWPOLYLINE
  5
22126
330
1F
100
AcDbEntity
  8
1
100
AcDbPolyline
 90
       13
 70
     0
 43
0.0
 10
40.97596123496663
 20
-9.560726024533323
 10
40.96928914963331
 20
-9.511099245833293
 10
40.96321719336663
 20
-9.463695633166652
 10
40.95786846016665
 20
-9.418757748233305
 10
40.9534560396333
 20
-9.376482060299963
 10
40.94992898649997
 20
-9.33706651573334
 10
40.94700679569995
 20
-9.300737581266671
 10
40.94470745016667
 20
-9.267681514599985
 10
40.94310845309997
 20
-9.238006385066682
 10
40.94205135639997
 20
-9.21184273383335
 10
40.94151502723332
 20
-9.189326030533322
 10
40.94158033376664
 20
-9.170562098433322
 10
40.94224902246661
 20
-9.155639730466646
  0
LINE
  5
22127
330
1F
100
AcDbEntity
  8
1
100
AcDbLine
 10
40.98299733816662
 20
-9.609453164933311
 30
0.0
 11
40.97596123496663
 21
-9.560726024533323
 31
0.0
  0
LWPOLYLINE
  5
22128
330
1F
100
AcDbEntity
  8
1
100
AcDbPolyline
 90
        5
 70
     0
 43
0.0
 10
37.61190099423334
 20
12.69852177990003
 10
37.60169149266666
 20
12.76569200476672
 10
37.59448579699995
 20
12.83331730510002
 10
37.59022364269998
 20
12.90126748173333
 10
37.58883904793335
 20
12.9687005897
  0
LWPOLYLINE
  5
22129
330
1F
100
AcDbEntity
  8
1
100
AcDbPolyline
 90
        7
 70
     0
 43
0.0
 10
37.84970746859996
 20
13.92171389913334
 10
37.85620250466661
 20
13.88068068646669
 10
37.86419931846661
 20
13.83988804940003
 10
37.87471868453332
 20
13.79535331966667
 10
37.88583534936663
 20
13.75522723956669
 10
37.89975596016666
 20
13.71154482126667
 10
37.91467161716662
 20
13.67037130130001
  0
LWPOLYLINE
  5
2212A
330
1F
100
AcDbEntity
  8
1
100
AcDbPolyline
 90
        3
 70
     0
 43
0.0
 10
40.9990580653
 20
-9.708889101199986
 10
40.99075918566665
 20
-9.658930903866687
 10
40.98299733816662
 20
-9.609453164933311
  0
LWPOLYLINE
  5
2212B
330
1F
100
AcDbEntity
  8
1
100
AcDbPolyline
 90
        6
 70
     0
 43
0.0
 10
42.59999999999997
 20
-8.864944610933321
 10
42.4608822518333
 20
-8.03898830413334
 10
42.32931625426664
 20
-7.244936139000003
 10
42.20530200736663
 20
-6.482788115499999
 10
42.08908324049996
 20
-5.753749162600001
 10
41.97219050393329
 20
-5.002594447266686
  0
LINE
  5
2212C
330
1F
100
AcDbEntity
  8
1
100
AcDbLine
 10
41.02510440053332
 20
-9.858846344566645
 30
0.0
 11
40.9990580653
 21
-9.708889101199986
 31
0.0
  0
LINE
  5
2212D
330
1F
100
AcDbEntity
  8
1
100
AcDbLine
 10
42.99861346676664
 20
-18.2260690992
 30
0.0
 11
41.55084786376664
 21
-10.32578101366664
 31
0.0
  0
LINE
  5
2212E
330
1F
100
AcDbEntity
  8
1
100
AcDbLine
 10
41.55084786376664
 20
-10.32578101366664
 30
0.0
 11
41.54224096576661
 21
-10.28989426419997
 31
0.0
  0
LINE
  5
2212F
330
1F
100
AcDbEntity
  8
1
100
AcDbLine
 10
41.55084786376664
 20
-7.834092888633334
 30
0.0
 11
41.54258619936661
 21
-7.800184246399965
 31
0.0
  0
LINE
  5
22130
330
1F
100
AcDbEntity
  8
1
100
AcDbLine
 10
42.7129058813
 20
-10.69009495939997
 30
0.0
 11
41.47504823066663
 21
-6.588307998866639
 31
0.0
  0
LWPOLYLINE
  5
22131
330
1F
100
AcDbEntity
  8
1
100
AcDbPolyline
 90
       10
 70
     0
 43
0.0
 10
37.91420662756662
 20
12.0692026731333
 10
37.86656701673332
 20
12.12302625473336
 10
37.82179818453329
 20
12.18135340430001
 10
37.78016327013329
 20
12.24408872453335
 10
37.74181911406664
 20
12.31134423553334
 10
37.70715972409994
 20
12.38276849993332
 10
37.67669188526668
 20
12.45749277456667
 10
37.65062417563331
 20
12.53506043923335
 10
37.62898906693329
 20
12.61548073860001
 10
37.61190099423334
 20
12.69852177990003
  0
LWPOLYLINE
  5
22132
330
1F
100
AcDbEntity
  8
1
100
AcDbPolyline
 90
        7
 70
     0
 43
0.0
 10
39.63502940489997
 20
-16.98559208336667
 10
39.68547128146667
 20
-16.96079101520001
 10
39.73841662606663
 20
-16.93166511686667
 10
39.78981095783331
 20
-16.90010063493332
 10
39.83953156126665
 20
-16.86617293673332
 10
39.88745971713331
 20
-16.82996303226662
 10
39.93572446226665
 20
-16.78958596359996
  0
LWPOLYLINE
  5
22133
330
1F
100
AcDbEntity
  8
1
100
AcDbPolyline
 90
       10
 70
     0
 43
0.0
 10
38.70569257546664
 20
-19.32272179616666
 10
38.76457827966664
 20
-19.29280083756669
 10
38.81747944646668
 20
-19.25716784396667
 10
38.86439607590001
 20
-19.21582281529999
 10
38.90598770869997
 20
-19.16783894039997
 10
38.94159480413327
 20
-19.11414303043329
 10
38.96923873996661
 20
-19.05751551923333
 10
38.98825997539996
 20
-18.99888321809999
 10
38.99931805119996
 20
-18.93731931569998
 10
39.00243281566663
 20
-18.88579030113334
  0
LWPOLYLINE
  5
22134
330
1F
100
AcDbEntity
  8
1
100
AcDbPolyline
 90
       14
 70
     0
 43
0.0
 10
33.15459173919999
 20
-15.71035164689999
 10
33.21300487619999
 20
-15.6378424188
 10
33.27823592253333
 20
-15.56990872599999
 10
33.34881421806665
 20
-15.50808216083328
 10
33.42486123153333
 20
-15.45250145353333
 10
33.50625549419998
 20
-15.40302787389999
 10
33.59116193976661
 20
-15.36077682356665
 10
33.67966035136664
 20
-15.32591237039997
 10
33.77167094586662
 20
-15.29827044659998
 10
33.86511930753329
 20
-15.27847425036668
 10
33.96003809679996
 20
-15.26670200623334
 10
34.05639465319996
 20
-15.26277548966664
 10
34.15201657949996
 20
-15.26678322559996
 10
34.15866029446664
 20
-15.26762787873332
  0
LINE
  5
22135
330
1F
100
AcDbEntity
  8
1
100
AcDbLine
 10
33.10315138789997
 20
-15.78754034866665
 30
0.0
 11
33.15459173919999
 21
-15.71035164689999
 31
0.0
  0
LINE
  5
22136
330
1F
100
AcDbEntity
  8
1
100
AcDbLine
 10
42.99861346676664
 20
10.50057124456668
 30
0.0
 11
41.55084786376664
 21
5.528817180333362
 31
0.0
  0
LINE
  5
22137
330
1F
100
AcDbEntity
  8
1
100
AcDbLine
 10
42.7129058813
 20
12.56167787103334
 30
0.0
 11
41.33098228479997
 21
7.816031032166677
 31
0.0
  0
LWPOLYLINE
  5
22138
330
1F
100
AcDbEntity
  8
1
100
AcDbPolyline
 90
       13
 70
     0
 43
0.0
 10
38.34405360473329
 20
-14.67745747736666
 10
38.34805822783329
 20
-14.65572432753333
 10
38.35367447526664
 20
-14.63459162873334
 10
38.36090234696668
 20
-14.614059381
 10
38.36980147379995
 20
-14.59402090563333
 10
38.38031222496665
 20
-14.57458288129999
 10
38.392255708
 20
-14.55606534406667
 10
38.40565774129994
 20
-14.53847947176666
 10
38.42049250646665
 20
-14.52181408653331
 10
38.43650365603333
 20
-14.50635569096664
 10
38.45360574083328
 20
-14.49219978593328
 10
38.4718842100333
 20
-14.47925087049998
 10
38.49133906363329
 20
-14.46750894476668
  0
LINE
  5
22139
330
1F
100
AcDbEntity
  8
1
100
AcDbLine
 10
42.99861346676664
 20
19.07194271313335
 30
0.0
 11
42.09353813669998
 21
14.16015700269997
 31
0.0
  0
LINE
  5
2213A
330
1F
100
AcDbEntity
  8
1
100
AcDbLine
 10
42.7129058813
 20
18.43278090293336
 30
0.0
 11
42.59999999999997
 21
17.82004793383334
 31
0.0
  0
LWPOLYLINE
  5
2213B
330
1F
100
AcDbEntity
  8
1
100
AcDbPolyline
 90
       25
 70
     0
 43
0.0
 10
38.34405360473329
 20
-14.37046718739998
 10
38.34804196379997
 20
-14.34878063943336
 10
38.35364535263329
 20
-14.32768031949996
 10
38.3608637713333
 20
-14.30716622759996
 10
38.36975738416663
 20
-14.2871269909333
 10
38.38026602679997
 20
-14.26767398229998
 10
38.39220920633329
 20
-14.24914132013333
 10
38.40561170373332
 20
-14.23154490303329
 10
38.42044873796665
 20
-14.21486883236662
 10
38.4364654731
 20
-14.19939953079995
 10
38.45368228796667
 20
-14.18515784479996
 10
38.47207880373332
 20
-14.17212292786667
 10
38.49133904789994
 20
-14.1605186635
 10
38.51147794106663
 20
-14.15036976553335
 10
38.53248056269996
 20
-14.14165152006666
 10
38.55398617866661
 20
-14.13451366883333
 10
38.57600347806664
 20
-14.12898351243336
 10
38.59852377183329
 20
-14.12503375023334
 10
38.62116025889998
 20
-14.12273222203333
 10
38.64391494646663
 20
-14.12210740039995
 10
38.66678582729998
 20
-14.12313081276664
 10
38.68938007876664
 20
-14.12578488136665
 10
38.71156675999998
 20
-14.13006374693333
 10
38.73347681186665
 20
-14.13597326870001
 10
38.7551102343666
 20
-14.14351344670001
  0
LWPOLYLINE
  5
2213C
330
1F
100
AcDbEntity
  8
1
100
AcDbPolyline
 90
       13
 70
     0
 43
0.0
 10
38.34405360473329
 20
-14.67745747736666
 10
38.33445338486661
 20
-14.73160976093334
 10
38.32136425663327
 20
-14.78462253036662
 10
38.3047862200333
 20
-14.83649578563336
 10
38.28462058729997
 20
-14.88743730286666
 10
38.26096604623332
 20
-14.93723930596667
 10
38.23411866013329
 20
-14.9852784665
 10
38.2040382995333
 20
-15.03153262806665
 10
38.17076509393331
 20
-15.0760239471
 10
38.13471549509996
 20
-15.11819556436666
 10
38.0960283203666
 20
-15.15786186016669
 10
38.05456475236667
 20
-15.19520845426666
 10
38.01032479119999
 20
-15.23023534660001
  0
LWPOLYLINE
  5
2213D
330
1F
100
AcDbEntity
  8
1
100
AcDbPolyline
 90
       16
 70
     0
 43
0.0
 10
38.34405360473329
 20
-14.37046718739998
 10
38.33670471616665
 20
-14.4137347446333
 10
38.32709239096664
 20
-14.4563558685
 10
38.31521662909995
 20
-14.49833055900001
 10
38.30103340036663
 20
-14.53976801999999
 10
38.28458673499996
 20
-14.58055904759999
 10
38.26600872376662
 20
-14.62037603026664
 10
38.24528220289995
 20
-14.65921112396666
 10
38.22242433613332
 20
-14.69707217270002
 10
38.19761870560001
 20
-14.73365509689995
 10
38.17084962589996
 20
-14.76894960383333
 10
38.14213278243329
 20
-14.80296598626665
 10
38.11169881339998
 20
-14.83543104286662
 10
38.07962459819999
 20
-14.86625370659999
 10
38.04583325746666
 20
-14.8955250445
 10
38.01032479119999
 20
-14.92324505663328
  0
LWPOLYLINE
  5
2213E
330
1F
100
AcDbEntity
  8
1
100
AcDbPolyline
 90
       22
 70
     0
 43
0.0
 10
42.59999999999997
 20
17.70108926349996
 10
42.46149329879995
 20
16.75888582083336
 10
42.33044185759996
 20
15.85131350853334
 10
42.20684567636664
 20
14.97837232660003
 10
42.09095045739997
 20
14.14147087763337
 10
41.98251049839996
 20
13.33920055903331
 10
41.88078869266667
 20
12.56733556300003
 10
41.78595728116664
 20
11.82743550236671
 10
41.69784402289997
 20
11.11794076426668
 10
41.61519508803332
 20
10.42994670253335
 10
41.53796579263331
 20
9.76404800646668
 10
41.46620082063328
 20
9.119649986700039
 10
41.39878039386667
 20
8.486063929133365
 10
41.33546988426667
 20
7.862652834400021
 10
41.27650391989994
 20
7.250053701866704
 10
41.22146660679994
 20
6.639488815433309
 10
41.17010640183332
 20
6.030092787033367
 10
41.12267484813332
 20
5.422731004766659
 10
41.0795106810666
 20
4.811221916800036
 10
41.04072681239995
 20
4.193505005933332
 10
41.00621033036661
 20
3.571640789366711
 10
40.97596123496663
 20
2.945629267133312
  0
LWPOLYLINE
  5
2213F
330
1F
100
AcDbEntity
  8
1
100
AcDbPolyline
 90
       10
 70
     0
 43
0.0
 10
38.75815716253328
 20
1.377065725600004
 10
38.72610969253333
 20
1.125598322200004
 10
38.69987163233328
 20
0.8734494031000393
 10
38.67944298189997
 20
0.6206583939666645
 10
38.66383026383329
 20
0.3671033659333602
 10
38.65402695556668
 20
0.1129865578666909
 10
38.65301348936663
 20
-0.1411653794999665
 10
38.66178334266664
 20
-0.3951493443667004
 10
38.67934303803327
 20
-0.6490860385000019
 10
38.70569257546664
 20
-0.9029342743999675
  0
LWPOLYLINE
  5
22140
330
1F
100
AcDbEntity
  8
1
100
AcDbPolyline
 90
        4
 70
     0
 43
0.0
 10
38.14096129879999
 20
14.0781449474
 10
38.15508790846661
 20
14.24012545406668
 10
38.1957912932
 20
14.38626873716669
 10
38.20215966009994
 20
14.39906015586666
  0
LWPOLYLINE
  5
22141
330
1F
100
AcDbEntity
  8
1
100
AcDbPolyline
 90
       43
 70
     0
 43
0.0
 10
38.31383904789993
 20
14.04723983250005
 10
38.31610629379998
 20
14.10282472383335
 10
38.32258324980001
 20
14.1574958031
 10
38.33326991596664
 20
14.21125307030002
 10
38.34827274326665
 20
14.26438585533333
 10
38.36748528069995
 20
14.3166048283
 10
38.39058817529997
 20
14.36704199946666
 10
38.41764645326664
 20
14.41566758656665
 10
38.44859508843331
 20
14.46251137186664
 10
38.48291964899999
 20
14.50679471263334
 10
38.5206765626333
 20
14.54847481180002
 10
38.56180940173329
 20
14.58759446639999
 10
38.60563445146664
 20
14.62350342516663
 10
38.65219671146667
 20
14.65614802216669
 10
38.70145118213328
 20
14.68558192329999
 10
38.75257915009996
 20
14.71131587490004
 10
38.80561193029996
 20
14.7332880333667
 10
38.86051820776663
 20
14.75156024226668
 10
38.91638532409996
 20
14.76582877893338
 10
38.97322933946663
 20
14.77602672306671
 10
39.03103419366664
 20
14.78222099490006
 10
39.08883904789997
 20
14.78430863263338
 10
39.14664390213329
 20
14.78222099490006
 10
39.20444875636667
 20
14.77602672306671
 10
39.26129277173334
 20
14.76582877893338
 10
39.31715988806661
 20
14.75156024226668
 10
39.37206616553329
 20
14.7332880333667
 10
39.42509894573334
 20
14.71131587490004
 10
39.47622691366666
 20
14.68558192329999
 10
39.52548138436663
 20
14.65614802216669
 10
39.57204364436666
 20
14.62350342516663
 10
39.61586869409996
 20
14.58759446639999
 10
39.65700153316664
 20
14.54847481180002
 10
39.6947584468333
 20
14.50679471263334
 10
39.72908300739994
 20
14.46251137186664
 10
39.76003164253331
 20
14.41566758656665
 10
39.78708992053327
 20
14.36704199946666
 10
39.81019281513329
 20
14.3166048283
 10
39.82940535256665
 20
14.26438585533333
 10
39.84440817986661
 20
14.21125307030002
 10
39.855094846
 20
14.1574958031
 10
39.86157180203328
 20
14.10282472383335
 10
39.8638390479
 20
14.04723983250005
  0
LWPOLYLINE
  5
22142
330
1F
100
AcDbEntity
  8
1
100
AcDbPolyline
 90
       58
 70
     0
 43
0.0
 10
37.33883904789998
 20
-15.18545214030001
 10
37.34149639416666
 20
-15.09326093766663
 10
37.34946036259998
 20
-15.00134971666665
 10
37.36270676696666
 20
-14.90999760869999
 10
37.38119537829994
 20
-14.81948204706668
 10
37.40487004736667
 20
-14.73007792459998
 10
37.43365887493331
 20
-14.64205675866663
 10
37.46747443029994
 20
-14.55568586663332
 10
37.50621401669997
 20
-14.47122755406667
 10
37.54975998329996
 20
-14.38893831809997
 10
37.59798008243332
 20
-14.3090680684333
 10
37.65072787126667
 20
-14.23185936840002
 10
37.70784315646665
 20
-14.15754669826663
 10
37.76915248079996
 20
-14.08635574316668
 10
37.83446964986661
 20
-14.01850270770001
 10
37.90359629756665
 20
-13.95419365933333
 10
37.9763224885333
 20
-13.89362390246663
 10
38.0524273557333
 20
-13.83697738553332
 10
38.13167977119997
 20
-13.78442614210001
 10
38.21383904789998
 20
-13.73612976856668
 10
38.29865567086665
 20
-13.69223493946663
 10
38.38587205476665
 20
-13.65287496190001
 10
38.47522332633332
 20
-13.61816937086667
 10
38.56643812866662
 20
-13.5882235661
 10
38.65923944539998
 20
-13.56312849199997
 10
38.75334544203326
 20
-13.54296036150003
 10
38.84847032173333
 20
-13.52778042456668
 10
38.94432519333327
 20
-13.51763478213331
 10
39.04061894876668
 20
-13.51255424623332
 10
39.13705914706662
 20
-13.51255424623332
 10
39.23335290249998
 20
-13.51763478213331
 10
39.32920777409999
 20
-13.52778042456668
 10
39.42433265376667
 20
-13.54296036150003
 10
39.51843865039997
 20
-13.56312849199997
 10
39.61123996716663
 20
-13.5882235661
 10
39.70245476949997
 20
-13.61816937086667
 10
39.79180604106665
 20
-13.65287496190001
 10
39.87902242496665
 20
-13.69223493946663
 10
39.96383904789997
 20
-13.73612976856668
 10
40.04599832463327
 20
-13.78442614210001
 10
40.12525074006663
 20
-13.83697738553332
 10
40.20135560726664
 20
-13.89362390246663
 10
40.27408179826664
 20
-13.95419365933333
 10
40.34320844596662
 20
-14.01850270770001
 10
40.40852561503334
 20
-14.08635574316668
 10
40.46983493936664
 20
-14.15754669826663
 10
40.52695022456663
 20
-14.23185936840002
 10
40.57969801336661
 20
-14.3090680684333
 10
40.62791811253328
 20
-14.38893831809997
 10
40.67146407913333
 20
-14.47122755406667
 10
40.71020366553329
 20
-14.55568586663332
 10
40.74401922089998
 20
-14.64205675866663
 10
40.77280804846663
 20
-14.73007792459998
 10
40.79648271749999
 20
-14.81948204706668
 10
40.81497132886664
 20
-14.90999760869999
 10
40.82821773319994
 20
-15.00134971666665
 10
40.83618170166665
 20
-15.09326093766663
 10
40.83883904789995
 20
-15.18545214030001
  0
LWPOLYLINE
  5
22143
330
1F
100
AcDbEntity
  8
1
100
AcDbPolyline
 90
       18
 70
     0
 43
0.0
 10
37.58883904793335
 20
12.9687005897
 10
37.59026575749999
 20
13.03781017390003
 10
37.5944154230333
 20
13.10585299990004
 10
37.60118688529997
 20
13.17348709043335
 10
37.61048073693331
 20
13.24065005886666
 10
37.62218256283329
 20
13.30711837136664
 10
37.63617222946664
 20
13.37276992210002
 10
37.65234234246662
 20
13.43757346603331
 10
37.67059451729995
 20
13.50145272623331
 10
37.6908057262666
 20
13.5642994443333
 10
37.71287763986663
 20
13.62610961733333
 10
37.73677145066665
 20
13.68696518210004
 10
37.76239829583329
 20
13.74681775726668
 10
37.78966256889999
 20
13.80562435756667
 10
37.81854628463327
 20
13.86346864226669
 10
37.84899645409996
 20
13.92034908690005
 10
37.88090989
 20
13.97618700696665
 10
37.91420662756662
 20
14.03094905703335
  0
LINE
  5
22144
330
1F
100
AcDbEntity
  8
1
100
AcDbLine
 10
37.91420662756662
 20
-11.58028388586666
 30
0.0
 11
37.91420662756662
 21
-8.555212120833289
 31
0.0
  0
LINE
  5
22145
330
1F
100
AcDbEntity
  8
1
100
AcDbLine
 10
37.91420662756662
 20
-7.984800702366669
 30
0.0
 11
37.91420662756662
 21
-7.626780701733308
 31
0.0
  0
LINE
  5
22146
330
1F
100
AcDbEntity
  8
1
100
AcDbLine
 10
37.91420662756662
 20
1.877065725600004
 30
0.0
 11
37.91420662756662
 21
12.0692026731333
 31
0.0
  0
LINE
  5
22147
330
1F
100
AcDbEntity
  8
1
100
AcDbLine
 10
37.91420662756662
 20
14.03094905703335
 30
0.0
 11
37.91420662756662
 21
15.39924697723336
 31
0.0
  0
LINE
  5
22148
330
1F
100
AcDbEntity
  8
1
100
AcDbLine
 10
37.33883904789998
 20
-15.18545214030001
 30
0.0
 11
37.33883904789998
 21
-15.32562182016664
 31
0.0
  0
LINE
  5
22149
330
1F
100
AcDbEntity
  8
1
100
AcDbLine
 10
36.81262607439999
 20
-12.24985360073333
 30
0.0
 11
36.81262607439999
 21
-8.473076320533321
 31
0.0
  0
LINE
  5
2214A
330
1F
100
AcDbEntity
  8
1
100
AcDbLine
 10
36.81262607439999
 20
1.877065725600004
 30
0.0
 11
36.81262607439999
 21
14.7947907283667
 31
0.0
  0
LWPOLYLINE
  5
2214B
330
1F
100
AcDbEntity
  8
1
100
AcDbPolyline
 90
       52
 70
     0
 43
0.0
 10
37.33883904789998
 20
-15.32562182016664
 10
37.34215822263332
 20
-15.42864604796665
 10
37.352103156
 20
-15.53127946960001
 10
37.36863612346667
 20
-15.63313276129997
 10
37.39169440983328
 20
-15.73381955870002
 10
37.42119054716665
 20
-15.83295792223327
 10
37.45701264646664
 20
-15.93017178616662
 10
37.49902482223332
 20
-16.02509238499999
 10
37.54706770789994
 20
-16.11735965239995
 10
37.60095906039999
 20
-16.20662358699997
 10
37.66049445130001
 20
-16.29254558013332
 10
37.72544804249998
 20
-16.37479970026663
 10
37.79557344276663
 20
-16.4530739293333
 10
37.87060464246668
 20
-16.52707134633329
 10
37.95025702256663
 20
-16.59651125379997
 10
38.03422843423335
 20
-16.66113024229997
 10
38.1222003452333
 20
-16.7206831899
 10
38.21383904789998
 20
-16.77494419189997
 10
38.30879692529999
 20
-16.82370741773332
 10
38.40671376963332
 20
-16.86678789173334
 10
38.50721814883332
 20
-16.9040221949333
 10
38.60992881530001
 20
-16.93526908486666
 10
38.71445615229993
 20
-16.96041003139999
 10
38.82040365186663
 20
-16.97934966626667
 10
38.92736941883335
 20
-16.99201614496667
 10
39.03494769543329
 20
-16.99836141923333
 10
39.14273040039996
 20
-16.99836141923333
 10
39.25030867696666
 20
-16.99201614496667
 10
39.35727444393331
 20
-16.97934966626667
 10
39.46322194353331
 20
-16.96041003139999
 10
39.56774928053329
 20
-16.93526908486666
 10
39.67045994699999
 20
-16.9040221949333
 10
39.77096432616668
 20
-16.86678789173334
 10
39.86888117053331
 20
-16.82370741773332
 10
39.96383904789997
 20
-16.77494419189997
 10
40.05547775059993
 20
-16.7206831899
 10
40.14344966156665
 20
-16.66113024229997
 10
40.22742107326665
 20
-16.59651125379997
 10
40.30707345333332
 20
-16.52707134633329
 10
40.38210465303332
 20
-16.4530739293333
 10
40.45223005333332
 20
-16.37479970026663
 10
40.51718364453329
 20
-16.29254558013332
 10
40.57671903543331
 20
-16.20662358699997
 10
40.63061038789999
 20
-16.11735965239995
 10
40.67865327359992
 20
-16.02509238499999
 10
40.72066544936659
 20
-15.93017178616662
 10
40.75648754866665
 20
-15.83295792223327
 10
40.78598368596664
 20
-15.73381955870002
 10
40.80904197236661
 20
-15.63313276129997
 10
40.82557493983329
 20
-15.53127946960001
 10
40.83551987319999
 20
-15.42864604796665
 10
40.83883904789995
 20
-15.32562182016664
  0
LWPOLYLINE
  5
2214C
330
1F
100
AcDbEntity
  8
1
100
AcDbPolyline
 90
        3
 70
     0
 43
0.0
 10
37.34946036259998
 20
-15.36955456393332
 10
37.34149639416666
 20
-15.27764334296665
 10
37.33883904789998
 20
-15.18545214030001
  0
LWPOLYLINE
  5
2214D
330
1F
100
AcDbEntity
  8
1
100
AcDbPolyline
 90
        6
 70
     0
 43
0.0
 10
36.85496004699996
 20
1.577065725600049
 10
36.84087253786663
 20
1.627065725600004
 10
36.82867489309996
 20
1.685724009433329
 10
36.81981008489998
 20
1.747656203066639
 10
36.81442979256667
 20
1.811802629499992
 10
36.81262607439999
 20
1.877065725600004
  0
LINE
  5
2214E
330
1F
100
AcDbEntity
  8
1
100
AcDbLine
 10
42.99861346676664
 20
-12.63143454530001
 30
0.0
 11
41.55084786376664
 21
-7.834092888633334
 31
0.0
  0
LINE
  5
2214F
330
1F
100
AcDbEntity
  8
1
100
AcDbLine
 10
41.55084786376664
 20
-7.834092888633334
 30
0.0
 11
41.54224096576661
 21
-7.812301151899987
 31
0.0
  0
LWPOLYLINE
  5
22150
330
1F
100
AcDbEntity
  8
1
100
AcDbPolyline
 90
        6
 70
     0
 43
0.0
 10
37.97008028759996
 20
1.597065725600032
 10
37.95721128929996
 20
1.627066218566709
 10
37.93864061666666
 20
1.685724431700009
 10
37.92514412833327
 20
1.74765651966669
 10
37.91695274849998
 20
1.81180280343335
 10
37.91420662759998
 20
1.877065725600004
  0
LWPOLYLINE
  5
22151
330
1F
100
AcDbEntity
  8
1
100
AcDbPolyline
 90
        9
 70
     0
 43
0.0
 10
28.15988995089998
 20
19.34791446493335
 10
28.16409364769999
 20
19.341917233
 10
28.17543922616664
 20
19.33267876163336
 10
28.19234323476667
 20
19.32441366016667
 10
28.21461626119998
 20
19.31717787143339
 10
28.24167954596664
 20
19.31119682726671
 10
28.27361991509997
 20
19.30647656086671
 10
28.31036656616664
 20
19.30294306780001
 10
28.35110319363332
 20
19.30072108586671
  0
LWPOLYLINE
  5
22152
330
1F
100
AcDbEntity
  8
1
100
AcDbPolyline
 90
        7
 70
     0
 43
0.0
 10
39.6346886052333
 20
-16.9855077858333
 10
39.64169991069997
 20
-16.98246981490001
 10
39.71383904789997
 20
-16.94559549513332
 10
39.78330183919997
 20
-16.90428816046665
 10
39.84979083416664
 20
-16.85872469520001
 10
39.91302131679999
 20
-16.8091002091333
 10
39.93411199393329
 20
-16.79020977159996
  0
LWPOLYLINE
  5
22153
330
1F
100
AcDbEntity
  8
1
100
AcDbPolyline
 90
       13
 70
     0
 43
0.0
 10
38.49134265136661
 20
-14.46750696386664
 10
38.51170333956662
 20
-14.45726614256665
 10
38.53256884729996
 20
-14.44860303596664
 10
38.55393917456661
 20
-14.44151764406666
 10
38.57594352546664
 20
-14.43598695179997
 10
38.59845269589994
 20
-14.43203397423332
 10
38.62107907369999
 20
-14.42972775656665
 10
38.64381987089996
 20
-14.42909526789998
 10
38.6666778755
 20
-14.43010953909999
 10
38.68927383896664
 20
-14.43275870779996
 10
38.71148134519997
 20
-14.43703881989995
 10
38.73342681033329
 20
-14.44295382953328
 10
38.7551102343666
 20
-14.45050373666663
  0
LWPOLYLINE
  5
22154
330
1F
100
AcDbEntity
  8
1
100
AcDbPolyline
 90
       10
 70
     0
 43
0.0
 10
37.91420662756662
 20
-11.58028388586666
 10
37.80143859473333
 20
-11.66794642939999
 10
37.68601203663332
 20
-11.75246776943334
 10
37.56802175463326
 20
-11.83377298030001
 10
37.44753792843329
 20
-11.91180665196668
 10
37.32468593223332
 20
-11.98648067216663
 10
37.19965129246663
 20
-12.05768187016667
 10
37.0725703111666
 20
-12.12533850186668
 10
36.94352493429994
 20
-12.1894127136
 10
36.81262607439999
 20
-12.24985360073333
  0
LINE
  5
22155
330
1F
100
AcDbEntity
  8
1
100
AcDbLine
 10
40.44827824253331
 20
-10.32072830996662
 30
0.0
 11
41.02510497286664
 21
-9.858845886266637
 31
0.0
  0
LINE
  5
22156
330
1F
100
AcDbEntity
  8
1
100
AcDbLine
 10
40.08619651639997
 20
-10.52127225293333
 30
0.0
 11
33.65561298629997
 21
-15.67043291136667
 31
0.0
  0
LINE
  5
22157
330
1F
100
AcDbEntity
  8
1
100
AcDbLine
 10
40.94224902246661
 20
-9.155639730466646
 30
0.0
 11
37.91420662756662
 21
-11.58028388586666
 31
0.0
  0
LINE
  5
22158
330
1F
100
AcDbEntity
  8
1
100
AcDbLine
 10
33.65561298629997
 20
-15.67043291136667
 30
0.0
 11
33.62741755196663
 21
-15.69550438313331
 31
0.0
  0
LWPOLYLINE
  5
22159
330
1F
100
AcDbEntity
  8
1
100
AcDbPolyline
 90
        7
 70
     0
 43
0.0
 10
41.07384247546668
 20
-4.548127474133308
 10
41.04544012629998
 20
-4.578063815900009
 10
41.01699804536667
 20
-4.60747490189999
 10
40.9885162326666
 20
-4.636360732133312
 10
40.9599946881666
 20
-4.664721306633282
 10
40.93143341186663
 20
-4.692556625400014
 10
40.90283240379995
 20
-4.719866688433285
  0
LINE
  5
2215A
330
1F
100
AcDbEntity
  8
1
100
AcDbLine
 10
41.55084786376664
 20
5.528817180333362
 30
0.0
 11
41.54224096576661
 21
5.506233182066693
 31
0.0
  0
LWPOLYLINE
  5
2215B
330
1F
100
AcDbEntity
  8
1
100
AcDbPolyline
 90
        4
 70
     0
 43
0.0
 10
33.01283256139999
 20
-15.98077270636668
 10
33.02173044409995
 20
-15.95380095049995
 10
33.05852894589998
 20
-15.86930458569998
 10
33.10315138789997
 20
-15.78754034866665
  0
LINE
  5
2215C
330
1F
100
AcDbEntity
  8
1
100
AcDbLine
 10
42.59999999999997
 20
12.59453396539999
 30
0.0
 11
41.39912003449995
 21
8.489255715033323
 31
0.0
  0
LINE
  5
2215D
330
1F
100
AcDbEntity
  8
1
100
AcDbLine
 10
40.53320006173328
 20
13.69320293520002
 30
0.0
 11
40.57584500976662
 21
13.89610946536669
 31
0.0
  0
LWPOLYLINE
  5
2215E
330
1F
100
AcDbEntity
  8
1
100
AcDbPolyline
 90
       22
 70
     0
 43
0.0
 10
32.95510614903333
 20
-15.64801161633329
 10
32.95528426749996
 20
-15.63052675289998
 10
32.96207308613328
 20
-15.53003385616665
 10
32.97855160116666
 20
-15.43148999073332
 10
33.00498147979999
 20
-15.3349477895
 10
33.04110105483329
 20
-15.24035461956669
 10
33.0859436303
 20
-15.15024215056667
 10
33.13974476813331
 20
-15.06473138246667
 10
33.20226890643335
 20
-14.98370131533329
 10
33.27184266359996
 20
-14.90932061913332
 10
33.34865641239998
 20
-14.84176885800002
 10
33.43251978009994
 20
-14.78086646783333
 10
33.52118826689997
 20
-14.72824342606668
 10
33.61479163359997
 20
-14.68412331389999
 10
33.71320011939996
 20
-14.64828255013333
 10
33.81377994239995
 20
-14.62168036866666
 10
33.91658973886662
 20
-14.60456625453332
 10
34.02157087253329
 20
-14.59669072270003
 10
34.1259136526333
 20
-14.59826455209998
 10
34.22868151556668
 20
-14.60935800233335
 10
34.33081102489996
 20
-14.62990081383333
 10
34.43230218069994
 20
-14.65989298653335
  0
LINE
  5
2215F
330
1F
100
AcDbEntity
  8
1
100
AcDbLine
 10
34.43230218069994
 20
-14.65989298653335
 30
0.0
 11
34.43230218069994
 21
-15.04851463210002
 31
0.0
  0
LINE
  5
22160
330
1F
100
AcDbEntity
  8
1
100
AcDbLine
 10
32.84872090906663
 20
-14.01265625543334
 30
0.0
 11
32.84872090906663
 21
-10.79284154733329
 31
0.0
  0
LINE
  5
22161
330
1F
100
AcDbEntity
  8
1
100
AcDbLine
 10
32.84872090906663
 20
1.877065725600004
 30
0.0
 11
32.84872090906663
 21
12.88980962686668
 31
0.0
  0
LINE
  5
22162
330
1F
100
AcDbEntity
  8
1
100
AcDbLine
 10
34.56497467110001
 20
1.577065725600049
 30
0.0
 11
34.56715419189999
 21
1.377065725600004
 31
0.0
  0
LINE
  5
22163
330
1F
100
AcDbEntity
  8
1
100
AcDbLine
 10
34.56497467110001
 20
-16.78568841433332
 30
0.0
 11
34.57331246979999
 21
-16.91665450483333
 31
0.0
  0
LINE
  5
22164
330
1F
100
AcDbEntity
  8
1
100
AcDbLine
 10
33.71633222466665
 20
1.377065725600004
 30
0.0
 11
33.69750401896664
 21
1.577065725600049
 31
0.0
  0
LINE
  5
22165
330
1F
100
AcDbEntity
  8
1
100
AcDbLine
 10
33.51709054503329
 20
1.377065725600004
 30
0.0
 11
33.49826233933334
 21
1.577065725600049
 31
0.0
  0
LWPOLYLINE
  5
22166
330
1F
100
AcDbEntity
  8
1
100
AcDbPolyline
 90
        5
 70
     0
 43
0.0
 10
30.32167979606664
 20
19.35385979190005
 10
30.1689987328333
 20
19.41771836766668
 10
29.92752366323328
 20
19.51993817933334
 10
29.6992959018333
 20
19.6158057463
 10
29.48431544863331
 20
19.70350016816667
  0
LWPOLYLINE
  5
22167
330
1F
100
AcDbEntity
  8
1
100
AcDbPolyline
 90
       10
 70
     0
 43
0.0
 10
29.48431544863331
 20
19.70350016816667
 10
29.36975325003334
 20
19.74840017226665
 10
29.26013370803332
 20
19.78821201510004
 10
29.15532735046662
 20
19.82277119193338
 10
29.05495661429995
 20
19.85218942289998
 10
28.95914729383333
 20
19.87605626363336
 10
28.86847523759997
 20
19.89340139853334
 10
28.78299214056665
 20
19.90377958976671
 10
28.70227976539997
 20
19.90730780513337
 10
28.62616384866664
 20
19.90384031970001
  0
LWPOLYLINE
  5
22168
330
1F
100
AcDbEntity
  8
1
100
AcDbPolyline
 90
       13
 70
     0
 43
0.0
 10
39.42256786146663
 20
-14.45050373666663
 10
39.44425161746665
 20
-14.44295372766669
 10
39.46619741976667
 20
-14.43703866586668
 10
39.48840526839996
 20
-14.43275855123329
 10
39.51100158643328
 20
-14.43010942976662
 10
39.53385995076668
 20
-14.42909525549999
 10
39.55660109199994
 20
-14.42972789053334
 10
39.57922779673335
 20
-14.43203430619997
 10
39.60173727836661
 20
-14.43598753116663
 10
39.62374190773329
 20
-14.44151851386664
 10
39.64511247513332
 20
-14.44860423699998
 10
39.66597819026663
 20
-14.4572677178333
 10
39.68633905316665
 20
-14.46750895633329
  0
LWPOLYLINE
  5
22169
330
1F
100
AcDbEntity
  8
1
100
AcDbPolyline
 90
       25
 70
     0
 43
0.0
 10
38.7551102343666
 20
-16.15688414796665
 10
38.73347681186665
 20
-16.16442432596665
 10
38.71156675999998
 20
-16.17033384773333
 10
38.68938007876664
 20
-16.1746127133
 10
38.66678582729998
 20
-16.17726678190001
 10
38.64391494646663
 20
-16.17829019426665
 10
38.62116025889998
 20
-16.17766537263333
 10
38.59852377183329
 20
-16.17536384443332
 10
38.57600347806664
 20
-16.1714140822333
 10
38.55398617866661
 20
-16.16588392583333
 10
38.53248056269996
 20
-16.1587460746
 10
38.51147794106663
 20
-16.15002782913331
 10
38.49133904789994
 20
-16.13987893116666
 10
38.47207880373332
 20
-16.12827466679999
 10
38.45368228796667
 20
-16.11523974986664
 10
38.4364654731
 20
-16.10099806386665
 10
38.42044873796665
 20
-16.08552876229999
 10
38.40561170373332
 20
-16.06885269163331
 10
38.39220920633329
 20
-16.05125627453333
 10
38.38026602679997
 20
-16.03272361236667
 10
38.36975738416663
 20
-16.0132706037333
 10
38.3608637713333
 20
-15.99323136706664
 10
38.35364535263329
 20
-15.97271727516664
 10
38.34804196379997
 20
-15.9516169552333
 10
38.34405360473329
 20
-15.92993040726662
  0
LWPOLYLINE
  5
2216A
330
1F
100
AcDbEntity
  8
1
100
AcDbPolyline
 90
       25
 70
     0
 43
0.0
 10
39.42256786146663
 20
-14.14351344670001
 10
39.44420128396667
 20
-14.13597326870001
 10
39.46611133583332
 20
-14.13006374693333
 10
39.48829801706665
 20
-14.12578488136665
 10
39.51089226853333
 20
-14.12313081276664
 10
39.53376314936662
 20
-14.12210740039995
 10
39.55651783689996
 20
-14.12273222203333
 10
39.57915432396664
 20
-14.12503375023334
 10
39.60167461776666
 20
-14.12898351243336
 10
39.62369191713333
 20
-14.13451366883333
 10
39.64519753313334
 20
-14.14165152006666
 10
39.6662001547333
 20
-14.15036976553335
 10
39.68633904789999
 20
-14.1605186635
 10
39.70559929209997
 20
-14.17212292786667
 10
39.72399580783332
 20
-14.18515784479996
 10
39.74121262270001
 20
-14.19939953079995
 10
39.7572293578333
 20
-14.21486883236662
 10
39.77206639209999
 20
-14.23154490303329
 10
39.78546888949995
 20
-14.24914132013333
 10
39.79741206899996
 20
-14.26767398229998
 10
39.80792071166661
 20
-14.2871269909333
 10
39.8168143245
 20
-14.30716622759996
 10
39.82403274316664
 20
-14.32768031949996
 10
39.82963613203333
 20
-14.34878063943336
 10
39.83362449106664
 20
-14.37046718739998
  0
LWPOLYLINE
  5
2216B
330
1F
100
AcDbEntity
  8
1
100
AcDbPolyline
 90
       13
 70
     0
 43
0.0
 10
39.42256786146663
 20
-14.45050373666663
 10
39.36872768039997
 20
-14.46962912790002
 10
39.31417498416664
 20
-14.48529530323333
 10
39.25890977283329
 20
-14.49750226269998
 10
39.20269454126663
 20
-14.50627216266667
 10
39.14576679459998
 20
-14.51158284673335
 10
39.08883904789997
 20
-14.51336784569997
 10
39.03191130123332
 20
-14.51158284673335
 10
38.97498355453332
 20
-14.50627216266667
 10
38.91876832299999
 20
-14.49750226269998
 10
38.86350311163329
 20
-14.48529530323333
 10
38.80895041543329
 20
-14.46962912790002
 10
38.7551102343666
 20
-14.45050373666663
  0
LWPOLYLINE
  5
2216C
330
1F
100
AcDbEntity
  8
1
100
AcDbPolyline
 90
       16
 70
     0
 43
0.0
 10
38.7551102343666
 20
-16.15688414796665
 10
38.79796758923328
 20
-16.14133660286666
 10
38.84137125516661
 20
-16.12798681689997
 10
38.8853212322
 20
-16.11683479013334
 10
38.92993842996663
 20
-16.10786238576668
 10
38.97510193883329
 20
-16.10108774056664
 10
39.02044902976661
 20
-16.09656526483331
 10
39.06598118116665
 20
-16.09431309536666
 10
39.11169691466664
 20
-16.09431309536666
 10
39.15722906606664
 20
-16.09656526483331
 10
39.20257615699995
 20
-16.10108774056664
 10
39.24773966586668
 20
-16.10786238576668
 10
39.2923568636333
 20
-16.11683479013334
 10
39.33630684066662
 20
-16.12798681689997
 10
39.37971050659996
 20
-16.14133660286666
 10
39.42256786146663
 20
-16.15688414796665
  0
LWPOLYLINE
  5
2216D
330
1F
100
AcDbEntity
  8
1
100
AcDbPolyline
 90
       16
 70
     0
 43
0.0
 10
39.42256786146663
 20
-14.14351344670001
 10
39.37971050659996
 20
-14.1590609918
 10
39.33630684066662
 20
-14.17241077776668
 10
39.2923568636333
 20
-14.18356280453332
 10
39.24773966586668
 20
-14.19253520889998
 10
39.20257615699995
 20
-14.19930985409996
 10
39.15722906606664
 20
-14.20383232983335
 10
39.11169691466664
 20
-14.2060844993
 10
39.06598118116665
 20
-14.2060844993
 10
39.02044902976661
 20
-14.20383232983335
 10
38.97510193883329
 20
-14.19930985409996
 10
38.92993842996663
 20
-14.19253520889998
 10
38.8853212322
 20
-14.18356280453332
 10
38.84137125516661
 20
-14.17241077776668
 10
38.79796758923328
 20
-14.1590609918
 10
38.7551102343666
 20
-14.14351344670001
  0
LINE
  5
2216E
330
1F
100
AcDbEntity
  8
1
100
AcDbLine
 10
37.02346054786665
 20
-12.82960405243328
 30
0.0
 11
33.05955538249998
 21
-14.5924067071
 31
0.0
  0
LWPOLYLINE
  5
2216F
330
1F
100
AcDbEntity
  8
1
100
AcDbPolyline
 90
       19
 70
     0
 43
0.0
 10
33.05955538249998
 20
-14.5924067071
 10
32.80512279946663
 20
-14.70764544326664
 10
32.54420159913332
 20
-14.83811726379997
 10
32.27679178146662
 20
-14.98382216866662
 10
32.00037477043327
 20
-15.14504836200001
 10
31.71746914209996
 20
-15.32150763966666
 10
31.4356306245333
 20
-15.5123353893
 10
31.15526461053332
 20
-15.71815751313329
 10
30.87596570733331
 20
-15.93834810889996
 10
30.60407346439996
 20
-16.17016485756664
 10
30.34009803496668
 20
-16.41425794936668
 10
30.08352926579994
 20
-16.66997719403332
 10
29.83917624693333
 20
-16.93262970163334
 10
29.60773345689995
 20
-17.2026898881333
 10
29.38850641713327
 20
-17.47968333756665
 10
29.18422078189997
 20
-17.75749391223331
 10
28.99578510259994
 20
-18.03408289956667
 10
28.82229082783329
 20
-18.31148901209997
 10
28.66373795756664
 20
-18.58971224983332
  0
LINE
  5
22170
330
1F
100
AcDbEntity
  8
1
100
AcDbLine
 10
40.95230167576665
 20
-10.04156800066664
 30
0.0
 11
40.08619651639997
 21
-10.52127225293333
 31
0.0
  0
LWPOLYLINE
  5
22171
330
1F
100
AcDbEntity
  8
1
100
AcDbPolyline
 90
        5
 70
     0
 43
0.0
 10
37.5120782753333
 20
-12.5824457553
 10
37.43499411683331
 20
-12.62600586886662
 10
37.29990340443328
 20
-12.69751588279996
 10
37.16272554813333
 20
-12.76538194400001
 10
37.02346054786665
 20
-12.82960405243328
  0
LINE
  5
22172
330
1F
100
AcDbEntity
  8
1
100
AcDbLine
 10
35.72244884373333
 20
-12.75104374116665
 30
0.0
 11
35.78919658730001
 21
-12.7049866429
 31
0.0
  0
LWPOLYLINE
  5
22173
330
1F
100
AcDbEntity
  8
1
100
AcDbPolyline
 90
       10
 70
     0
 43
0.0
 10
37.91420662756662
 20
-7.626780701733308
 10
37.79513584429998
 20
-7.742296503733313
 10
37.675059465
 20
-7.8523666722333
 10
37.55397748963333
 20
-7.957026545233302
 10
37.4316581421333
 20
-8.05631658850001
 10
37.30833319859994
 20
-8.150264506600024
 10
37.18469798723333
 20
-8.238885257466677
 10
37.06098428413327
 20
-8.322204546933335
 10
36.93696031316664
 20
-8.400258585533322
 10
36.81262607439999
 20
-8.473076320533321
  0
LWPOLYLINE
  5
22174
330
1F
100
AcDbEntity
  8
1
100
AcDbPolyline
 90
       28
 70
     0
 43
0.0
 10
29.48431544863331
 20
-14.34691434376668
 10
29.3903860969333
 20
-14.51799976350003
 10
29.30122964009996
 20
-14.68760299626666
 10
29.21670108039996
 20
-14.8555756203333
 10
29.13669074066661
 20
-15.02183710606664
 10
29.06102349963328
 20
-15.18619567603332
 10
28.98946463929997
 20
-15.34835196596668
 10
28.92190053759998
 20
-15.50813775033327
 10
28.85818717639995
 20
-15.6655022617
 10
28.79806061226663
 20
-15.8203409244
 10
28.74144362023333
 20
-15.97243111809996
 10
28.68818875136663
 20
-16.12182324740001
 10
28.63794950030001
 20
-16.26884219789997
 10
28.59068972770001
 20
-16.41314534066669
 10
28.54626226936665
 20
-16.55494635959996
 10
28.50418612126663
 20
-16.69542760016668
 10
28.46431590846663
 20
-16.83464154433329
 10
28.42666662733331
 20
-16.97244925079997
 10
28.39102349866664
 20
-17.10976307853332
 10
28.35724930579999
 20
-17.24666125826667
 10
28.32537506756665
 20
-17.3829997766
 10
28.29544386786665
 20
-17.5193622631333
 10
28.2673036101333
 20
-17.6558945027333
 10
28.2410067766333
 20
-17.79239365966668
 10
28.21689152953331
 20
-17.92891551770003
 10
28.19502987853332
 20
-18.06545728823335
 10
28.17524122709995
 20
-18.20196442193332
 10
28.15747895266662
 20
-18.33841296410003
  0
LINE
  5
22175
330
1F
100
AcDbEntity
  8
1
100
AcDbLine
 10
42.71394640929996
 20
19.15813975943336
 30
0.0
 11
42.99997895949997
 21
20.023836598
 31
0.0
  0
LINE
  5
22176
330
1F
100
AcDbEntity
  8
1
100
AcDbLine
 10
42.47824746863329
 20
20.38056603126666
 30
0.0
 11
42.48012613653327
 21
20.38625194656669
 31
0.0
  0
LWPOLYLINE
  5
22177
330
1F
100
AcDbEntity
  8
1
100
AcDbPolyline
 90
        3
 70
     0
 43
0.0
 10
37.35596640629996
 20
-15.92329936850001
 10
37.38678092883333
 20
-16.01131181376667
 10
37.40022269470001
 20
-16.0441654754
  0
LINE
  5
22178
330
1F
100
AcDbEntity
  8
1
100
AcDbLine
 10
36.81262607439999
 20
-12.24985360073333
 30
0.0
 11
35.78919658730001
 21
-12.7049866429
 31
0.0
  0
LINE
  5
22179
330
1F
100
AcDbEntity
  8
1
100
AcDbLine
 10
34.51768109953332
 20
-13.27044691093329
 30
0.0
 11
32.84872090906663
 21
-14.01265625543334
 31
0.0
  0
LWPOLYLINE
  5
2217A
330
1F
100
AcDbEntity
  8
1
100
AcDbPolyline
 90
       22
 70
     0
 43
0.0
 10
32.84872090906663
 20
-14.01265625543334
 10
32.61603641663328
 20
-14.11964935229997
 10
32.37619912463332
 20
-14.23748167883332
 10
32.12980712909996
 20
-14.36685518586665
 10
31.87643366566665
 20
-14.50910745076669
 10
31.61793162783329
 20
-14.66437774046665
 10
31.35823096369995
 20
-14.83128837153333
 10
31.09799011259998
 20
-15.0102419034
 10
30.83790117419994
 20
-15.20162713549996
 10
30.58159410356666
 20
-15.40345206659998
 10
30.32962233233333
 20
-15.61575239323332
 10
30.08249649073332
 20
-15.8385885642333
 10
29.84331896699996
 20
-16.06942973439999
 10
29.61237216919995
 20
-16.30802543676663
 10
29.38994012783331
 20
-16.55410514116664
 10
29.17857159846665
 20
-16.80459670760001
 10
28.97822771040001
 20
-17.05900004486665
 10
28.78884651423334
 20
-17.31682970376664
 10
28.61232523636664
 20
-17.57461753333331
 10
28.44888725423334
 20
-17.83071062586668
 10
28.29741766086664
 20
-18.08549403119997
 10
28.15747895266662
 20
-18.33841296410003
  0
LWPOLYLINE
  5
2217B
330
1F
100
AcDbEntity
  8
1
100
AcDbPolyline
 90
       13
 70
     0
 43
0.0
 10
32.84872090906663
 20
-10.79284154733329
 10
32.51878477043329
 20
-11.00122123053336
 10
32.19626231379999
 20
-11.22796461680002
 10
31.88115353916663
 20
-11.4724734395333
 10
31.57247665619997
 20
-11.73382432656666
 10
31.2712134552333
 20
-12.01152340106665
 10
30.98030930719995
 20
-12.30546907389998
 10
30.69978303286666
 20
-12.61509122696668
 10
30.42961581146665
 20
-12.93892779846663
 10
30.17269655149994
 20
-13.27538169646664
 10
29.92998822246665
 20
-13.62305803749996
 10
29.70052785483331
 20
-13.98073249363335
 10
29.48431544863331
 20
-14.34691434376668
  0
LINE
  5
2217C
330
1F
100
AcDbEntity
  8
1
100
AcDbLine
 10
42.7129058813
 20
18.43278090293336
 30
0.0
 11
42.99861346676664
 21
19.07194271313335
 31
0.0
  0
LINE
  5
2217D
330
1F
100
AcDbEntity
  8
1
100
AcDbLine
 10
29.48431544863331
 20
-19.94999999999999
 30
0.0
 11
29.48431544863331
 21
-18.63016067933336
 31
0.0
  0
LWPOLYLINE
  5
2217E
330
1F
100
AcDbEntity
  8
1
100
AcDbPolyline
 90
       16
 70
     0
 43
0.0
 10
28.15747895266662
 20
1.877065725600004
 10
28.15810756903329
 20
1.82485538290001
 10
28.16409364769999
 20
1.77419413486666
 10
28.17543922616664
 20
1.725075626466662
 10
28.19234323476667
 20
1.676994862866649
 10
28.21461626119998
 20
1.630442154100023
 10
28.24167954596664
 20
1.586906319700004
 10
28.27361991509997
 20
1.546482664700022
 10
28.31036656616664
 20
1.509066740100023
 10
28.35110319363332
 20
1.475853833200005
 10
28.39609165669998
 20
1.446879913966653
 10
28.44508631583329
 20
1.422106823066656
 10
28.49650419239998
 20
1.402626251800028
 10
28.54981828883331
 20
1.388805997366715
 10
28.60556188459998
 20
1.38028507813334
 10
28.66373795756664
 20
1.377065725600004
  0
LWPOLYLINE
  5
2217F
330
1F
100
AcDbEntity
  8
1
100
AcDbPolyline
 90
       16
 70
     0
 43
0.0
 10
28.15747895266662
 20
-18.33841296410003
 10
28.15810756903329
 20
-18.35845799436663
 10
28.16409364769999
 20
-18.37864647430001
 10
28.17543922616664
 20
-18.39898009759997
 10
28.19234323476667
 20
-18.41966660449998
 10
28.21461626119998
 20
-18.44046654359999
 10
28.24167954596664
 20
-18.46070869263332
 10
28.27361991509997
 20
-18.48034164026666
 10
28.31036656616664
 20
-18.49935396619997
 10
28.35110319363332
 20
-18.51715022603332
 10
28.39609165669998
 20
-18.53371255129997
 10
28.44508631583329
 20
-18.54897175473331
 10
28.49650419239998
 20
-18.56228985536666
 10
28.54981828883331
 20
-18.57344559363332
 10
28.60556188459998
 20
-18.58260049843329
 10
28.66373795756664
 20
-18.58971224983332
  0
LWPOLYLINE
  5
22180
330
1F
100
AcDbEntity
  8
1
100
AcDbPolyline
 90
        3
 70
     0
 43
0.0
 10
28.15747895266662
 20
19.36360527566666
 10
28.15810756903329
 20
19.35222536190002
 10
28.15988995089998
 20
19.34791446493335
  0
LWPOLYLINE
  5
22181
330
1F
100
AcDbEntity
  8
1
100
AcDbPolyline
 90
       13
 70
     0
 43
0.0
 10
37.02346054786665
 20
-12.82960405243328
 10
36.99594112686663
 20
-12.77176187596666
 10
36.96889257076664
 20
-12.7124081147
 10
36.94277768789993
 20
-12.65255832796663
 10
36.91804331113332
 20
-12.59323656219999
 10
36.89511265253327
 20
-12.53545782926664
 10
36.87437806196664
 20
-12.48021073929999
 10
36.85619431409997
 20
-12.4284405853333
 10
36.84087253786663
 20
-12.38103316903334
 10
36.82867489309996
 20
-12.33879964446669
 10
36.81981008489998
 20
-12.30246263893332
 10
36.81442979256667
 20
-12.27264388866661
 10
36.81262607439999
 20
-12.24985360073333
  0
LWPOLYLINE
  5
22182
330
1F
100
AcDbEntity
  8
1
100
AcDbPolyline
 90
        9
 70
     0
 43
0.0
 10
32.95413832623331
 20
1.444052776533339
 10
32.93120766086668
 20
1.480388739200009
 10
32.91047305006663
 20
1.523511970900016
 10
32.89228927163333
 20
1.572684631033324
 10
32.8769674596
 20
1.627065367499993
 10
32.86476978116662
 20
1.685723703199982
 10
32.85590494539997
 20
1.747655973733344
 10
32.85052463419999
 20
1.811802503666683
 10
32.84872090906663
 20
1.877065725600004
  0
LINE
  5
22183
330
1F
100
AcDbEntity
  8
1
100
AcDbLine
 10
39.22584897286663
 20
-19.94999999999999
 30
0.0
 11
29.48431544863331
 21
-19.94999999999999
 31
0.0
  0
LINE
  5
22184
330
1F
100
AcDbEntity
  8
1
100
AcDbLine
 10
38.70569257546664
 20
-19.32272179616666
 30
0.0
 11
40.64158585589995
 21
-19.32272179616666
 31
0.0
  0
LINE
  5
22185
330
1F
100
AcDbEntity
  8
1
100
AcDbLine
 10
38.75815716253328
 20
-18.63016067933336
 30
0.0
 11
29.48431544863331
 21
-18.63016067933336
 31
0.0
  0
LWPOLYLINE
  5
22186
330
1F
100
AcDbEntity
  8
1
100
AcDbPolyline
 90
       18
 70
     0
 43
0.0
 10
34.55663110489997
 20
-13.26280843456663
 10
34.64381898023328
 20
-13.24631546820001
 10
34.69174121079999
 20
-13.23696898946667
 10
34.7424320542666
 20
-13.22652080389997
 10
34.79594683206665
 20
-13.21453804676662
 10
34.85219781416663
 20
-13.20095618453331
 10
34.9110753476333
 20
-13.1854575315333
 10
34.97256827460001
 20
-13.16717751396663
 10
35.03698408283333
 20
-13.14591484486664
 10
35.10384330543331
 20
-13.12156222143335
 10
35.17192317989998
 20
-13.09334591046661
 10
35.24144353856661
 20
-13.06097016439997
 10
35.31217525103329
 20
-13.0247145797
 10
35.38229037470001
 20
-12.98478877799999
 10
35.45182370706664
 20
-12.94129884463331
 10
35.52118919836664
 20
-12.89494513186667
 10
35.58926954933332
 20
-12.84709982843333
 10
35.72244884373333
 20
-12.75104374116665
  0
LINE
  5
22187
330
1F
100
AcDbEntity
  8
1
100
AcDbLine
 10
34.51768109953332
 20
-13.27044691093329
 30
0.0
 11
34.55663110489997
 21
-13.26280843456663
 31
0.0
  0
LWPOLYLINE
  5
22188
330
1F
100
AcDbEntity
  8
1
100
AcDbPolyline
 90
        4
 70
     0
 43
0.0
 10
37.91420662756662
 20
-8.555212120833289
 10
37.86644895513332
 20
-8.577044794933327
 10
37.82160886606664
 20
-8.594472693866691
 10
37.77994329723333
 20
-8.607495817633321
  0
LINE
  5
22189
330
1F
100
AcDbEntity
  8
1
100
AcDbLine
 10
41.55084786376664
 20
5.528817180333362
 30
0.0
 11
41.54258619936661
 21
5.520427473000039
 31
0.0
  0
LWPOLYLINE
  5
2218A
330
1F
100
AcDbEntity
  8
1
100
AcDbPolyline
 90
        7
 70
     0
 43
0.0
 10
42.59999999999997
 20
13.8009937416333
 10
42.46115193676667
 20
13.61967968723331
 10
42.32980255249997
 20
13.44316499659999
 10
42.20595184726664
 20
13.27144966976669
 10
42.08983792873328
 20
13.10475587856666
 10
41.98122268919997
 20
12.94286145116666
 10
41.91720823156663
 20
12.84368700056666
  0
LINE
  5
2218B
330
1F
100
AcDbEntity
  8
1
100
AcDbLine
 10
33.86869278429998
 20
-16.70282710716662
 30
0.0
 11
33.69750401896664
 21
-16.30824592116664
 31
0.0
  0
LINE
  5
2218C
330
1F
100
AcDbEntity
  8
1
100
AcDbLine
 10
33.7453724290333
 20
-16.62397014703333
 30
0.0
 11
33.52869587999999
 21
-16.12454198926662
 31
0.0
  0
LWPOLYLINE
  5
2218D
330
1F
100
AcDbEntity
  8
1
100
AcDbPolyline
 90
       50
 70
     0
 43
0.0
 10
37.35751397543334
 20
-15.95731571733336
 10
37.39683090023335
 20
-16.03797660443331
 10
37.44164805976665
 20
-16.11975267259999
 10
37.49050721766662
 20
-16.19938339763331
 10
37.5433811310333
 20
-16.27688323906665
 10
37.59991182269994
 20
-16.3517274926333
 10
37.66012410653333
 20
-16.42389813829999
 10
37.72399316869996
 20
-16.49341319613335
 10
37.79108659066662
 20
-16.55980202193331
 10
37.86142625193328
 20
-16.62304340203332
 10
37.93499027299997
 20
-16.68315855013332
 10
38.0112805966333
 20
-16.73974046313333
 10
38.0903157227333
 20
-16.79276516553329
 10
38.17207715136664
 20
-16.84225663286668
 10
38.2560113257
 20
-16.88787978846665
 10
38.34213298933332
 20
-16.92960838316668
 10
38.4304273986333
 20
-16.9674686661333
 10
38.52029676593327
 20
-17.00120430850001
 10
38.61175177836662
 20
-17.03078732159997
 10
38.70478174879997
 20
-17.05624569406666
 10
38.79875682789998
 20
-17.07740706276666
 10
38.89368342886668
 20
-17.09424226943332
 10
38.98955513846664
 20
-17.10678047236666
 10
39.08572286776666
 20
-17.11493678293334
 10
39.18218862536662
 20
-17.11868146696668
 10
39.27895040266662
 20
-17.11804425866666
 10
39.37535308446661
 20
-17.11302947216666
 10
39.4713942341333
 20
-17.10360740253333
 10
39.56707628829997
 20
-17.08980775473333
 10
39.66175144206665
 20
-17.07172395780003
 10
39.75541286289996
 20
-17.04932694069998
 10
39.84806738329996
 20
-17.02264577443333
 10
39.93908769589996
 20
-16.99186110096661
 10
40.02846271143329
 20
-16.95694507506664
 10
40.11620351919997
 20
-16.91792554196666
 10
40.20171607956661
 20
-16.87506667913328
 10
40.28498527226662
 20
-16.82834243403329
 10
40.36602621759993
 20
-16.77777885926662
 10
40.44429023656664
 20
-16.72371828993334
 10
40.51975848579997
 20
-16.66613699653328
 10
40.59244980873329
 20
-16.60505870863335
 10
40.66187205659996
 20
-16.54089695013329
 10
40.72800304643329
 20
-16.47363079749999
 10
40.7908649612333
 20
-16.40328117429999
 10
40.85003220123332
 20
-16.33032437496661
 10
40.90547969543331
 20
-16.25474270799998
 10
40.95723251483332
 20
-16.17655386493334
 10
41.00494027256661
 20
-16.09628721483329
 10
41.04848617299995
 20
-16.01411921406668
 10
41.07566992256663
 20
-15.95731326116663
  0
LWPOLYLINE
  5
2218E
330
1F
100
AcDbEntity
  8
1
100
AcDbPolyline
 90
        5
 70
     0
 43
0.0
 10
37.61190099423334
 20
-8.594869067100033
 10
37.60172134153334
 20
-8.582159566266682
 10
37.59452213673331
 20
-8.567446551133343
 10
37.59024825639996
 20
-8.550730021666652
 10
37.58883904793335
 20
-8.531927004900012
  0
LWPOLYLINE
  5
2218F
330
1F
100
AcDbEntity
  8
1
100
AcDbPolyline
 90
       16
 70
     0
 43
0.0
 10
34.51768109953332
 20
1.877065725600004
 10
34.55771565589998
 20
1.846502032333319
 10
34.60071289123329
 20
1.81806414289997
 10
34.64652364259996
 20
1.79181442603334
 10
34.69483484626664
 20
1.767761895799992
 10
34.7456932888
 20
1.745926389533337
 10
34.79950253489994
 20
1.726342691433386
 10
34.85643570909997
 20
1.708650406700029
 10
34.9161262505333
 20
1.693129760866668
 10
34.97814129076664
 20
1.680720765933358
 10
35.04261295976665
 20
1.671200636666696
 10
35.10923361826667
 20
1.664632848300015
 10
35.17688174206667
 20
1.662341619699986
 10
35.24572966483333
 20
1.66443174916668
 10
35.31560262996663
 20
1.670795789833334
 10
35.32899210366668
 20
1.672593737633349
  0
LWPOLYLINE
  5
22190
330
1F
100
AcDbEntity
  8
1
100
AcDbPolyline
 90
        7
 70
     0
 43
0.0
 10
28.66373795756664
 20
-18.58971224983332
 10
28.80015586886663
 20
-18.60206564329996
 10
28.93671178173332
 20
-18.61217424133332
 10
29.07340569613331
 20
-18.62003804396664
 10
29.21023761206664
 20
-18.62565705116663
 10
29.34720752956662
 20
-18.62903126296663
 10
29.48431544863331
 20
-18.63016067933336
  0
LWPOLYLINE
  5
22191
330
1F
100
AcDbEntity
  8
1
100
AcDbPolyline
 90
       10
 70
     0
 43
0.0
 10
34.78853207486662
 20
-16.93194049483333
 10
34.7302251863
 20
-16.93078983089998
 10
34.67218230143328
 20
-16.92749860729998
 10
34.61440342033331
 20
-16.92206682406663
 10
34.55680251853329
 20
-16.91447988670001
 10
34.49946562046664
 20
-16.90475238966667
 10
34.4426507994333
 20
-16.89292811646669
 10
34.38644407986664
 20
-16.87902166153333
 10
34.3307594373
 20
-16.86301843036665
 10
34.27559687176664
 20
-16.84491842303333
  0
LINE
  5
22192
330
1F
100
AcDbEntity
  8
1
100
AcDbLine
 10
34.88822159706661
 20
-16.93204032793335
 30
0.0
 11
34.78853207486662
 21
-16.93194049483333
 31
0.0
  0
LWPOLYLINE
  5
22193
330
1F
100
AcDbEntity
  8
1
100
AcDbPolyline
 90
       10
 70
     0
 43
0.0
 10
38.75815716253328
 20
19.35385979190005
 10
38.72611458759997
 20
19.29118552196667
 10
38.69987894453334
 20
19.22530526333332
 10
38.67945023329998
 20
19.15621185240002
 10
38.66383330429993
 20
19.08385994653338
 10
38.65402330716666
 20
19.00827909200001
 10
38.65300569083331
 20
18.92958989580001
 10
38.66177560489996
 20
18.84784565533334
 10
38.67933789979998
 20
18.76301619436668
 10
38.70569257546664
 20
18.67511224020001
  0
LWPOLYLINE
  5
22194
330
1F
100
AcDbEntity
  8
1
100
AcDbPolyline
 90
       13
 70
     0
 43
0.0
 10
33.05955538249998
 20
-14.5924067071
 10
33.03203603763331
 20
-14.53456469419996
 10
33.00498753806664
 20
-14.47521106693329
 10
32.97887269033334
 20
-14.41536137610001
 10
32.95413832629999
 20
-14.35603966063331
 10
32.9312076609333
 20
-14.29826093403335
 10
32.91047305013331
 20
-14.24301381636667
 10
32.89228927169995
 20
-14.19124360419999
 10
32.87696745963331
 20
-14.14383610783329
 10
32.86476978119998
 20
-14.10160249876668
 10
32.85590494543328
 20
-14.06526541400001
 10
32.85052463419999
 20
-14.03544659453331
 10
32.84872090906663
 20
-14.01265625539997
  0
LWPOLYLINE
  5
22195
330
1F
100
AcDbEntity
  8
1
100
AcDbPolyline
 90
       12
 70
     0
 43
0.0
 10
38.18985543553333
 20
-12.03972930163331
 10
38.15209002709997
 20
-11.99317305406669
 10
38.11236028449997
 20
-11.94165450059995
 10
38.07471144403331
 20
-11.89020037753334
 10
38.0397950127333
 20
-11.83969752339999
 10
38.00822284183329
 20
-11.79102926913333
 10
37.98053840419993
 20
-11.74503398943329
 10
37.95721128929996
 20
-11.70249256809995
 10
37.93864061666666
 20
-11.66413288186663
 10
37.92514412833327
 20
-11.63061126576667
 10
37.91695274849998
 20
-11.60250127989997
 10
37.91420662759998
 20
-11.58028388579998
  0
LINE
  5
22196
330
1F
100
AcDbEntity
  8
1
100
AcDbLine
 10
42.47824746863329
 20
1.560777032766679
 30
0.0
 11
42.44332380419996
 21
1.577065725600049
 31
0.0
  0
LWPOLYLINE
  5
22197
330
1F
100
AcDbEntity
  8
1
100
AcDbPolyline
 90
        7
 70
     0
 43
0.0
 10
41.07384247546668
 20
-19.89336495206669
 10
41.04543384543331
 20
-19.88714349426664
 10
41.01698799599995
 20
-19.88249272673334
 10
40.98850492709994
 20
-19.87941264953332
 10
40.95998463876663
 20
-19.87790326259994
 10
40.93142713099996
 20
-19.877964566
 10
40.90283240379995
 20
-19.87959655966665
  0
LWPOLYLINE
  5
22198
330
1F
100
AcDbEntity
  8
1
100
AcDbPolyline
 90
       39
 70
     0
 43
0.0
 10
39.19462520079998
 20
-13.51559147746661
 10
39.2671603545333
 20
-13.51566411710001
 10
39.36409009456668
 20
-13.52038761706666
 10
39.46065313823329
 20
-13.52972567839998
 10
39.55660941466664
 20
-13.54365508519999
 10
39.65172036139995
 20
-13.56214120673331
 10
39.74574951763327
 20
-13.58513808363329
 10
39.83846311206662
 20
-13.61258854203333
 10
39.92963064409997
 20
-13.64442433573333
 10
40.01902545689995
 20
-13.68056631600001
 10
40.10642530086665
 20
-13.72092462813333
 10
40.1916128862
 20
-13.76539893500001
 10
40.27437642316664
 20
-13.81387866646662
 10
40.35451014856664
 20
-13.86624329429998
 10
40.43181483733332
 20
-13.92236263179995
 10
40.50609829779999
 20
-13.98209715743331
 10
40.5771758496333
 20
-14.04529836173333
 10
40.6448707828
 20
-14.1118091166
 10
40.70901479703332
 20
-14.18146406576665
 10
40.76944842023329
 20
-14.25409003606666
 10
40.82602140486665
 20
-14.32950646793335
 10
40.87859310156665
 20
-14.40752586416664
 10
40.92703280886667
 20
-14.48795425633329
 10
40.97122009796663
 20
-14.57059168673334
 10
41.01104511233329
 20
-14.65523270566666
 10
41.04640884066663
 20
-14.74166688226666
 10
41.07722336323331
 20
-14.82967932756668
 10
41.10341207023327
 20
-14.91905122869997
 10
41.12490985239998
 20
-15.0095603931
 10
41.14166326286664
 20
-15.10098180066666
 10
41.15363065006664
 20
-15.19308816343334
 10
41.16078226113329
 20
-15.28565049043334
 10
41.16310031606666
 20
-15.3784386571333
 10
41.1605790517666
 20
-15.47122197756664
 10
41.15322473656664
 20
-15.56376977773334
 10
41.14105565439996
 20
-15.65585196926668
 10
41.12410205953329
 20
-15.74723962129997
 10
41.10240610126663
 20
-15.83770552973328
 10
41.07602171919995
 20
-15.92702478206667
  0
LINE
  5
22199
330
1F
100
AcDbEntity
  8
1
100
AcDbLine
 10
0.5
 20
-14.375
 30
0.0
 11
5.0
 21
-14.375
 31
0.0
  0
LINE
  5
2219A
330
1F
100
AcDbEntity
  8
1
100
AcDbLine
 10
16.0
 20
-14.375
 30
0.0
 11
16.5
 21
-14.375
 31
0.0
  0
LWPOLYLINE
  5
2219B
330
1F
100
AcDbEntity
  8
1
100
AcDbPolyline
 90
        7
 70
     0
 43
0.0
 10
37.77994329723333
 20
-8.607495817633321
 10
37.74160381493334
 20
-8.61604991493334
 10
37.70697481433331
 20
-8.620199237066685
 10
37.67655099179996
 20
-8.620136537966629
 10
37.6505328811333
 20
-8.615926068933331
 10
37.62894720676661
 20
-8.607503578633327
 10
37.61190099423334
 20
-8.594869067100033
  0
LWPOLYLINE
  5
2219C
330
1F
100
AcDbEntity
  8
1
100
AcDbPolyline
 90
       25
 70
     0
 43
0.0
 10
29.48431544863331
 20
9.062130546433362
 10
29.37672128036661
 20
8.805394016299997
 10
29.27538966969996
 20
8.544605538433359
 10
29.18010192199995
 20
8.279765112833331
 10
29.09070843449996
 20
8.010426278333341
 10
29.00693049639995
 20
7.737035496100019
 10
28.92837323896663
 20
7.460932149833353
 10
28.85485972113333
 20
7.182284978600022
 10
28.78619300963329
 20
6.900925243333348
 10
28.72197933090001
 20
6.617686110266673
 10
28.66210511236665
 20
6.333034764433363
 10
28.60636765569996
 20
6.0465040208
 10
28.55427734556668
 20
5.757525490766681
 10
28.5057127796
 20
5.466680507033344
 10
28.46054923779997
 20
5.173387736900052
 10
28.41833256386668
 20
4.87533479383336
 10
28.37886734893334
 20
4.5726112724667
 10
28.34216575763333
 20
4.265127578166698
 10
28.30810825626662
 20
3.950302540333381
 10
28.27650878809999
 20
3.628200066299996
 10
28.24739935476663
 20
3.298756248800031
 10
28.22098617019998
 20
2.959198195199973
 10
28.19728612343329
 20
2.608601608066691
 10
28.17613758516666
 20
2.247890784866683
 10
28.15747895266662
 20
1.877065725600004
  0
LINE
  5
2219D
330
1F
100
AcDbEntity
  8
1
100
AcDbLine
 10
16.0
 20
-11.0
 30
0.0
 11
5.0
 21
-11.0
 31
0.0
  0
LINE
  5
2219E
330
1F
100
AcDbEntity
  8
1
100
AcDbLine
 10
42.44332380419996
 20
-13.42736753909997
 30
0.0
 11
42.48012613653327
 21
-13.4339349682333
 31
0.0
  0
LINE
  5
2219F
330
1F
100
AcDbEntity
  8
SK1
100
AcDbLine
 10
-5.5
 20
-8.5
 30
0.0
 11
-1.200000000000044
 21
-8.5
 31
0.0
  0
LINE
  5
221A0
330
1F
100
AcDbEntity
  8
SK1
100
AcDbLine
 10
-0.3877635896666902
 20
-8.299999999999952
 30
0.0
 11
-0.2000000000000455
 21
-8.299999999999952
 31
0.0
  0
LINE
  5
221A1
330
1F
100
AcDbEntity
  8
SK1
100
AcDbLine
 10
-23.10000000000002
 20
-8.0
 30
0.0
 11
-10.70000000000004
 21
-8.0
 31
0.0
  0
LWPOLYLINE
  5
221A2
330
1F
100
AcDbEntity
  8
1
100
AcDbPolyline
 90
        7
 70
     0
 43
0.0
 10
41.07384247546668
 20
17.2757563925
 10
41.04545462433327
 20
17.25116170559999
 10
41.01702124223334
 20
17.22846834506668
 10
40.98854232913335
 20
17.20767631093338
 10
40.96001788499996
 20
17.18878560320002
 10
40.93144790989993
 20
17.17179622183335
 10
40.90283240379995
 20
17.15670816686668
  0
LINE
  5
221A3
330
1F
100
AcDbEntity
  8
1
100
AcDbLine
 10
16.5
 20
14.375
 30
0.0
 11
16.5
 21
-14.375
 31
0.0
  0
LINE
  5
221A4
330
1F
100
AcDbEntity
  8
1
100
AcDbLine
 10
16.0
 20
14.375
 30
0.0
 11
16.0
 21
11.0
 31
0.0
  0
LINE
  5
221A5
330
1F
100
AcDbEntity
  8
1
100
AcDbLine
 10
16.0
 20
-11.0
 30
0.0
 11
16.0
 21
-14.375
 31
0.0
  0
LWPOLYLINE
  5
221A6
330
1F
100
AcDbEntity
  8
1
100
AcDbPolyline
 90
        6
 70
     0
 43
0.0
 10
40.16735330463331
 20
-15.23023534660001
 10
40.18503243736666
 20
-15.24441848616663
 10
40.20136199230001
 20
-15.25963612189997
 10
40.2163419694333
 20
-15.27588825376665
 10
40.23003916106666
 20
-15.29327760643332
 10
40.2370189984
 20
-15.30369220713328
  0
LWPOLYLINE
  5
221A7
330
1F
100
AcDbEntity
  8
1
100
AcDbPolyline
 90
       13
 70
     0
 43
0.0
 10
38.01032479119999
 20
-15.37715253803333
 10
37.99267972773328
 20
-15.36300616806665
 10
37.97637306473332
 20
-15.34781536989999
 10
37.96140480219998
 20
-15.33158014356661
 10
37.94770416353333
 20
-15.31419497549996
 10
37.93534192536663
 20
-15.29576537923333
 10
37.9245304173333
 20
-15.27660789543336
 10
37.91529642763328
 20
-15.25670995013331
 10
37.90761316813331
 20
-15.23608411726661
 10
37.90161260389993
 20
-15.21508465933334
 10
37.8973238027333
 20
-15.19370512206666
 10
37.89471769689999
 20
-15.17195195969998
 10
37.89383904789997
 20
-15.15019879733336
  0
LWPOLYLINE
  5
221A8
330
1F
100
AcDbEntity
  8
1
100
AcDbPolyline
 90
       13
 70
     0
 43
0.0
 10
40.16735330463331
 20
-15.23023534660001
 10
40.12311334343332
 20
-15.19520845426666
 10
40.08164977546664
 20
-15.15786186016669
 10
40.04296260069998
 20
-15.11819556436666
 10
40.00691300189997
 20
-15.0760239471
 10
39.97363979626664
 20
-15.03153262806665
 10
39.94355943566666
 20
-14.9852784665
 10
39.91671204959994
 20
-14.93723930596667
 10
39.89305750853328
 20
-14.88743730286666
 10
39.87289187579995
 20
-14.83649578563336
 10
39.85631383919997
 20
-14.78462253036662
 10
39.84322471096664
 20
-14.73160976093334
 10
39.83362449106664
 20
-14.67745747736666
  0
LWPOLYLINE
  5
221A9
330
1F
100
AcDbEntity
  8
1
100
AcDbPolyline
 90
       16
 70
     0
 43
0.0
 10
40.16735330463331
 20
-14.92324505663328
 10
40.13184483833334
 20
-14.8955250445
 10
40.09805349759996
 20
-14.86625370659999
 10
40.06597928243332
 20
-14.83543104286662
 10
40.03554531339999
 20
-14.80296598626665
 10
40.00682846989997
 20
-14.76894960383333
 10
39.98005939019999
 20
-14.73365509689995
 10
39.95525375966668
 20
-14.69707217270002
 10
39.9323958929333
 20
-14.65921112396666
 10
39.91166937206664
 20
-14.62037603026664
 10
39.8930913608333
 20
-14.58055904759999
 10
39.8766446954333
 20
-14.53976801999999
 10
39.86246146669998
 20
-14.49833055900001
 10
39.85058570486661
 20
-14.4563558685
 10
39.84097337966665
 20
-14.4137347446333
 10
39.83362449106664
 20
-14.37046718739998
  0
LWPOLYLINE
  5
221AA
330
1F
100
AcDbEntity
  8
1
100
AcDbPolyline
 90
       16
 70
     0
 43
0.0
 10
38.01032479119999
 20
-15.37715253803333
 10
38.04583325746666
 20
-15.40487255016666
 10
38.07962459819999
 20
-15.43414388806661
 10
38.11169881339998
 20
-15.46496655179999
 10
38.14213278243329
 20
-15.49743160840001
 10
38.17084962589996
 20
-15.53144799083333
 10
38.19761870560001
 20
-15.56674249776665
 10
38.22242433613332
 20
-15.60332542196664
 10
38.24528220289995
 20
-15.64118647069995
 10
38.26600872376662
 20
-15.68002156439996
 10
38.28458673499996
 20
-15.71983854706667
 10
38.30103340036663
 20
-15.76062957466666
 10
38.31521662909995
 20
-15.80206703566665
 10
38.32709239096664
 20
-15.84404172616666
 10
38.33670471616665
 20
-15.8866628500333
 10
38.34405360473329
 20
-15.92993040726662
  0
LINE
  5
221AB
330
1F
100
AcDbEntity
  8
1
100
AcDbLine
 10
42.10612533693329
 20
-13.35586543919999
 30
0.0
 11
42.44332380419996
 21
-13.42736753909997
 31
0.0
  0
LINE
  5
221AC
330
1F
100
AcDbEntity
  8
SK1
100
AcDbLine
 10
-8.948286437600017
 20
-6.662499999999965
 30
0.0
 11
-7.0
 21
-6.662499999999965
 31
0.0
  0
LINE
  5
221AD
330
1F
100
AcDbEntity
  8
1
100
AcDbLine
 10
37.71419803176661
 20
1.577065725600049
 30
0.0
 11
37.78883904789996
 21
1.597065725600032
 31
0.0
  0
LINE
  5
221AE
330
1F
100
AcDbEntity
  8
SK1
100
AcDbLine
 10
-1.200000000000044
 20
-8.5
 30
0.0
 11
-0.5171731122333654
 21
-8.317037086866662
 31
0.0
  0
LWPOLYLINE
  5
221AF
330
1F
100
AcDbEntity
  8
1
100
AcDbPolyline
 90
       13
 70
     0
 43
0.0
 10
39.68634266056665
 20
-14.46751094806666
 10
39.70579704643331
 20
-14.47925293806668
 10
39.72407507063332
 20
-14.4922018689
 10
39.74117673309996
 20
-14.5063577405333
 10
39.75718747823328
 20
-14.52181605020001
 10
39.77202186169995
 20
-14.53848130066666
 10
39.78542355036665
 20
-14.55606700023333
 10
39.7973667271666
 20
-14.57458432463329
 10
39.80787720923331
 20
-14.59402209809997
 10
39.81677611479995
 20
-14.61406030199998
 10
39.82400381669999
 20
-14.63459226340001
 10
39.82961994209995
 20
-14.65572465516664
 10
39.83362449106664
 20
-14.67745747736666
  0
LWPOLYLINE
  5
221B0
330
1F
100
AcDbEntity
  8
1
100
AcDbPolyline
 90
        8
 70
     0
 43
0.0
 10
35.32899210366668
 20
1.672593737633349
 10
35.38492881766661
 20
1.682510483533349
 10
35.45381707826664
 20
1.700094789533351
 10
35.52260272463332
 20
1.723421714633331
 10
35.5901947822
 20
1.75266903263332
 10
35.65655019223334
 20
1.78799871353334
 10
35.72267812673329
 20
1.829498572600016
 10
35.78919658730001
 20
1.877065725600004
  0
LWPOLYLINE
  5
221B1
330
1F
100
AcDbEntity
  8
1
100
AcDbPolyline
 90
       10
 70
     0
 43
0.0
 10
37.91420662756662
 20
15.39924697723336
 10
37.79513584429998
 20
15.31936397280003
 10
37.675059465
 20
15.2424866566667
 10
37.55397748963333
 20
15.16869483000005
 10
37.4316581421333
 20
15.09805975233337
 10
37.30833319859994
 20
15.03065684153336
 10
37.18469798723333
 20
14.96656600159997
 10
37.06098428413327
 20
14.90585472436669
 10
36.93696031316664
 20
14.84857790930005
 10
36.81262607439999
 20
14.7947907283667
  0
LINE
  5
221B2
330
1F
100
AcDbEntity
  8
1
100
AcDbLine
 10
38.70569257546664
 20
-0.9029342743999675
 30
0.0
 11
42.71394640929996
 21
-0.9029342743999675
 31
0.0
  0
LINE
  5
221B3
330
1F
100
AcDbEntity
  8
4
100
AcDbLine
 10
44.42407951036665
 20
0.0
 30
0.0
 11
0.0
 21
0.0
 31
0.0
  0
LINE
  5
221B4
330
1F
100
AcDbEntity
  8
SK4
100
AcDbLine
 10
0.0
 20
0.0
 30
0.0
 11
-25.33996910453334
 21
0.0
 31
0.0
  0
LWPOLYLINE
  5
221B5
330
1F
100
AcDbEntity
  8
1
100
AcDbPolyline
 90
       16
 70
     0
 43
0.0
 10
32.84872090906663
 20
12.88980962686668
 10
32.54287931709996
 20
12.71180960970002
 10
32.24744163096665
 20
12.5207335177667
 10
31.96240785059996
 20
12.31626847256666
 10
31.68697487573331
 20
12.09688055046666
 10
31.42194580659998
 20
11.8634269406333
 10
31.16972994433331
 20
11.61929157796669
 10
30.93105611499999
 20
11.3643368290667
 10
30.70519549249997
 20
11.09828208610003
 10
30.49237089926663
 20
10.82453915870002
 10
30.29285328179998
 20
10.54290836376668
 10
30.10637169363332
 20
10.25343140573335
 10
29.93233611793329
 20
9.960133482900005
 10
29.77054988239996
 20
9.664451821700025
 10
29.62120965930001
 20
9.365096477800022
 10
29.48431544863331
 20
9.062130546433362
  0
LINE
  5
221B6
330
1F
100
AcDbEntity
  8
1
100
AcDbLine
 10
28.66373795756664
 20
1.377065725600004
 30
0.0
 11
29.48431544863331
 21
1.377065725600004
 31
0.0
  0
LINE
  5
221B7
330
1F
100
AcDbEntity
  8
1
100
AcDbLine
 10
38.98012018176667
 20
1.377065725600004
 30
0.0
 11
29.48431544863331
 21
1.377065725600004
 31
0.0
  0
LINE
  5
221B8
330
1F
100
AcDbEntity
  8
1
100
AcDbLine
 10
42.99997895949997
 20
1.577065725600049
 30
0.0
 11
33.49826322239994
 21
1.577065725600049
 31
0.0
  0
LINE
  5
221B9
330
1F
100
AcDbEntity
  8
1
100
AcDbLine
 10
40.38883904789996
 20
1.597065725600032
 30
0.0
 11
37.78883904789996
 21
1.597065725600032
 31
0.0
  0
LINE
  5
221BA
330
1F
100
AcDbEntity
  8
1
100
AcDbLine
 10
40.94224902246661
 20
1.877065725600004
 30
0.0
 11
35.78919658730001
 21
1.877065725600004
 31
0.0
  0
LINE
  5
221BB
330
1F
100
AcDbEntity
  8
1
100
AcDbLine
 10
34.51768109953332
 20
1.877065725600004
 30
0.0
 11
28.15747895266662
 21
1.877065725600004
 31
0.0
  0
LINE
  5
221BC
330
1F
100
AcDbEntity
  8
1
100
AcDbLine
 10
5.0
 20
14.375
 30
0.0
 11
5.0
 21
11.0
 31
0.0
  0
LINE
  5
221BD
330
1F
100
AcDbEntity
  8
1
100
AcDbLine
 10
5.0
 20
-11.0
 30
0.0
 11
5.0
 21
-14.375
 31
0.0
  0
LINE
  5
221BE
330
1F
100
AcDbEntity
  8
1
100
AcDbLine
 10
33.69750401896664
 20
-16.30824592116664
 30
0.0
 11
34.56497467110001
 21
-16.78568841433332
 31
0.0
  0
LINE
  5
221BF
330
1F
100
AcDbEntity
  8
1
100
AcDbLine
 10
42.47824746863329
 20
-19.55173743929998
 30
0.0
 11
42.44332380419996
 21
-19.53681584143328
 31
0.0
  0
LINE
  5
221C0
330
1F
100
AcDbEntity
  8
SK1
100
AcDbLine
 10
-1.200000000000044
 20
8.5
 30
0.0
 11
-0.5171731122333654
 21
8.317037086866662
 31
0.0
  0
LWPOLYLINE
  5
221C1
330
1F
100
AcDbEntity
  8
1
100
AcDbPolyline
 90
        5
 70
     0
 43
0.0
 10
33.05955538249998
 20
1.377065725600004
 10
33.03203603759994
 20
1.381343271166656
 10
33.00498753799997
 20
1.394102728166672
 10
32.97887269029997
 20
1.415125794499999
 10
32.95413832623331
 20
1.444052776533339
  0
LINE
  5
221C2
330
1F
100
AcDbEntity
  8
1
100
AcDbLine
 10
42.59999999999997
 20
13.14539638813335
 30
0.0
 11
42.64531087719996
 21
13.15535375853335
 31
0.0
  0
LINE
  5
221C3
330
1F
100
AcDbEntity
  8
1
100
AcDbLine
 10
21.06617625196668
 20
-15.82175218686666
 30
0.0
 11
24.89570395783335
 21
-18.50321635429998
 31
0.0
  0
LWPOLYLINE
  5
221C4
330
1F
100
AcDbEntity
  8
1
100
AcDbPolyline
 90
       14
 70
     0
 43
0.0
 10
33.67769338196661
 20
-16.63612992409997
 10
33.57987370526667
 20
-16.59652255396668
 10
33.48793318206663
 20
-16.5492959152333
 10
33.40187181239997
 20
-16.49445000790001
 10
33.32102075269995
 20
-16.4313539625
 10
33.2460488465
 20
-16.36063864846664
 10
33.17896262456662
 20
-16.28419667413333
 10
33.11997503729998
 20
-16.20187339279999
 10
33.06887313433333
 20
-16.11382345116664
 10
33.0270245951333
 20
-16.02240339746663
 10
32.99467930386664
 20
-15.92752222289999
 10
32.97158737636664
 20
-15.82927093623334
 10
32.95836683966661
 20
-15.73027911223334
 10
32.95510614903333
 20
-15.64801161633329
  0
LWPOLYLINE
  5
221C5
330
1F
100
AcDbEntity
  8
1
100
AcDbPolyline
 90
       33
 70
     0
 43
0.0
 10
38.71856262713335
 20
-16.96114412266666
 10
38.72178271563331
 20
-16.96230095290002
 10
38.78583947699997
 20
-16.98218233540001
 10
38.85068797603333
 20
-16.99924938679999
 10
38.91632947966662
 20
-17.01351613363334
 10
38.98261484549994
 20
-17.02495336859999
 10
39.04933936953329
 20
-17.03353273526665
 10
39.11642954286662
 20
-17.03925039799998
 10
39.1837055520666
 20
-17.04209368496663
 10
39.25099093249997
 20
-17.0420615178333
 10
39.31821937426661
 20
-17.03915676689996
 10
39.38521376299997
 20
-17.03338647113332
 10
39.45179699043331
 20
-17.02476899939995
 10
39.51790184093329
 20
-17.0133128434
 10
39.58332561399993
 20
-16.99905133589999
 10
39.64792277483332
 20
-16.98201815966666
 10
39.7117040989
 20
-16.96220153873332
 10
39.77453461299996
 20
-16.93962207483332
 10
39.8361966901
 20
-16.91434019420001
 10
39.89656845836663
 20
-16.8863909703
 10
39.95542975929993
 20
-16.85586531313333
 10
40.01266849253329
 20
-16.82281409983328
 10
40.06830886566659
 20
-16.78719795259997
 10
40.12218307829994
 20
-16.74908344543331
 10
40.17411624566665
 20
-16.7085561591
 10
40.22408955106664
 20
-16.66557839866664
 10
40.27195514336664
 20
-16.6202043152
 10
40.31750817196665
 20
-16.57255551869997
 10
40.36062500309998
 20
-16.52268617193328
 10
40.40108092326664
 20
-16.47078430236661
 10
40.43878811799992
 20
-16.41688901449998
 10
40.47378131106666
 20
-16.36081087013332
 10
40.49812822559998
 20
-16.31667645096667
  0
LINE
  5
221C6
330
1F
100
AcDbEntity
  8
1
100
AcDbLine
 10
34.43230218069994
 20
-14.65989298653335
 30
0.0
 11
34.77025434486666
 21
-14.77790622153333
 31
0.0
  0
LINE
  5
221C7
330
1F
100
AcDbEntity
  8
1
100
AcDbLine
 10
34.56497467110001
 20
-16.78568841433332
 30
0.0
 11
42.44332380419996
 21
-19.53681584143328
 31
0.0
  0
LINE
  5
221C8
330
1F
100
AcDbEntity
  8
1
100
AcDbLine
 10
38.98012018176667
 20
-18.36093542193333
 30
0.0
 11
34.88822159706661
 21
-16.93204032793335
 31
0.0
  0
LINE
  5
221C9
330
1F
100
AcDbEntity
  8
1
100
AcDbLine
 10
34.27559687176664
 20
-16.84491842303333
 30
0.0
 11
33.67769338196661
 21
-16.63612992409997
 31
0.0
  0
LINE
  5
221CA
330
1F
100
AcDbEntity
  8
SK1
100
AcDbLine
 10
-8.948286437600017
 20
6.662500000000022
 30
0.0
 11
-7.0
 21
6.662500000000022
 31
0.0
  0
LINE
  5
221CB
330
1F
100
AcDbEntity
  8
SK1
100
AcDbLine
 10
-23.10000000000002
 20
8.0
 30
0.0
 11
-10.70000000000004
 21
8.0
 31
0.0
  0
LINE
  5
221CC
330
1F
100
AcDbEntity
  8
SK1
100
AcDbLine
 10
-0.3877635896666902
 20
8.300000000000011
 30
0.0
 11
-0.2000000000000455
 21
8.300000000000011
 31
0.0
  0
LINE
  5
221CD
330
1F
100
AcDbEntity
  8
SK1
100
AcDbLine
 10
-5.5
 20
8.5
 30
0.0
 11
-1.200000000000044
 21
8.5
 31
0.0
  0
LINE
  5
221CE
330
1F
100
AcDbEntity
  8
1
100
AcDbLine
 10
42.33159597133329
 20
19.13963400293335
 30
0.0
 11
41.07384247546668
 21
18.70381947656665
 31
0.0
  0
LINE
  5
221CF
330
1F
100
AcDbEntity
  8
1
100
AcDbLine
 10
40.64158585589995
 20
18.67511224020001
 30
0.0
 11
42.64531087719996
 21
19.37097503180001
 31
0.0
  0
LINE
  5
221D0
330
1F
100
AcDbEntity
  8
1
100
AcDbLine
 10
38.94764982243329
 20
19.16150237193335
 30
0.0
 11
42.44332380419996
 21
20.37549602356671
 31
0.0
  0
LINE
  5
221D2
330
1F
100
AcDbEntity
  8
1
100
AcDbLine
 10
21.06617625196668
 20
15.82175218690003
 30
0.0
 11
24.89570395783335
 21
18.50321635433335
 31
0.0
  0
LINE
  5
221D3
330
1F
100
AcDbEntity
  8
1
100
AcDbLine
 10
0.5
 20
14.375
 30
0.0
 11
0.5
 21
-14.375
 31
0.0
  0
LINE
  5
221D4
330
1F
100
AcDbEntity
  8
1
100
AcDbLine
 10
0.0
 20
13.875
 30
0.0
 11
0.0
 21
-13.875
 31
0.0
  0
LINE
  5
221D5
330
1F
100
AcDbEntity
  8
SK1
100
AcDbLine
 10
-1.200000000000044
 20
8.5
 30
0.0
 11
-1.200000000000044
 21
-8.5
 31
0.0
  0
LINE
  5
221D6
330
1F
100
AcDbEntity
  8
SK1
100
AcDbLine
 10
-10.70000000000004
 20
8.0
 30
0.0
 11
-9.655393218799986
 21
6.955393218833362
 31
0.0
  0
LINE
  5
221D7
330
1F
100
AcDbEntity
  8
1
100
AcDbLine
 10
39.00259689096664
 20
-18.75038520406667
 30
0.0
 11
42.64531087719996
 21
-20.02242458533328
 31
0.0
  0
LINE
  5
221D8
330
1F
100
AcDbEntity
  8
1
100
AcDbLine
 10
42.44332380419996
 20
-19.53681584143328
 30
0.0
 11
42.48012613653327
 21
-19.5476311191
 31
0.0
  0
LINE
  5
221D9
330
1F
100
AcDbEntity
  8
1
100
AcDbLine
 10
40.46348006406661
 20
1.577065725600049
 30
0.0
 11
40.38883904789996
 21
1.597065725600032
 31
0.0
  0
LINE
  5
221DA
330
1F
100
AcDbEntity
  8
1
100
AcDbLine
 10
16.0
 20
11.0
 30
0.0
 11
5.0
 21
11.0
 31
0.0
  0
LWPOLYLINE
  5
221DB
330
1F
100
AcDbEntity
  8
1
100
AcDbPolyline
 90
       13
 70
     0
 43
0.0
 10
42.33159597133329
 20
19.13963400293335
 10
42.36345196856666
 20
19.14769095460002
 10
42.39476823599999
 20
19.15099860589998
 10
42.42554477359999
 20
19.14955695686666
 10
42.4565688784333
 20
19.14310391036667
 10
42.48705325343332
 20
19.13190156350004
 10
42.51463600749996
 20
19.11673620756664
 10
42.53906594389997
 20
19.09725423353336
 10
42.56059425929993
 20
19.07380925043333
 10
42.57761265273329
 20
19.04824837683333
 10
42.58958502383332
 20
19.02118731896667
 10
42.59704747289997
 20
18.99201037063335
 10
42.59999999999997
 20
18.96071753180001
  0
LINE
  5
221DD
330
1F
100
AcDbEntity
  8
1
100
AcDbLine
 10
42.44332380419996
 20
20.37549602356671
 30
0.0
 11
42.48012613653327
 21
20.38625194656669
 31
0.0
  0
LINE
  5
221DF
330
1F
100
AcDbEntity
  8
SK1
100
AcDbLine
 10
-10.70000000000004
 20
-8.0
 30
0.0
 11
-9.655393218799986
 21
-6.955393218799997
 31
0.0
  0
LINE
  5
221E0
330
1F
100
AcDbEntity
  8
SK1
100
AcDbLine
 10
-5.5
 20
8.5
 30
0.0
 11
-5.5
 21
-8.5
 31
0.0
  0
LINE
  5
221E1
330
1F
100
AcDbEntity
  8
SK1
100
AcDbLine
 10
-6.0
 20
8.211324865399999
 30
0.0
 11
-6.0
 21
-8.211324865399999
 31
0.0
  0
LINE
  5
221E2
330
1F
100
AcDbEntity
  8
SK1
100
AcDbLine
 10
-6.0
 20
-8.211324865399999
 30
0.0
 11
-5.5
 21
-8.5
 31
0.0
  0
LINE
  5
221E3
330
1F
100
AcDbEntity
  8
1
100
AcDbLine
 10
0.5
 20
14.375
 30
0.0
 11
5.0
 21
14.375
 31
0.0
  0
LINE
  5
221E4
330
1F
100
AcDbEntity
  8
1
100
AcDbLine
 10
16.0
 20
14.375
 30
0.0
 11
16.5
 21
14.375
 31
0.0
  0
LINE
  5
221E5
330
1F
100
AcDbEntity
  8
1
100
AcDbLine
 10
42.47824746863329
 20
20.38056603126666
 30
0.0
 11
42.44332380419996
 21
20.37549602356671
 31
0.0
  0
LWPOLYLINE
  5
221E6
330
1F
100
AcDbEntity
  8
1
100
AcDbPolyline
 90
       10
 70
     0
 43
0.0
 10
28.62616384866664
 20
19.90384031970001
 10
28.54756024166665
 20
19.89042965210001
 10
28.47617001203332
 20
19.86607580923333
 10
28.41163767809997
 20
19.8305446956
 10
28.35338985443332
 20
19.78394555233331
 10
28.30136577119998
 20
19.72577852613335
 10
28.25597276179997
 20
19.65490903406669
 10
28.21714442623329
 20
19.5708506298667
 10
28.18438729049996
 20
19.47378750693338
 10
28.15747895266662
 20
19.36360527566666
  0
LINE
  5
221E7
330
1F
100
AcDbEntity
  8
SK1
100
AcDbLine
 10
-6.0
 20
8.211324865399999
 30
0.0
 11
-5.5
 21
8.5
 31
0.0
  0
LINE
  5
221E8
330
1F
100
AcDbEntity
  8
1
100
AcDbLine
 10
0.0
 20
-13.875
 30
0.0
 11
0.5
 21
-14.375
 31
0.0
  0
LWPOLYLINE
  5
221E9
330
1F
100
AcDbEntity
  8
1
100
AcDbPolyline
 90
        9
 70
     0
 43
0.0
 10
39.19851049006661
 20
14.97117714043332
 10
39.25429694079998
 20
14.9665913163667
 10
39.41282316446666
 20
14.92748041843333
 10
39.56084217106661
 20
14.86082437996669
 10
39.69921547963327
 20
14.76888171163334
 10
39.81594140063329
 20
14.65962698143335
 10
39.90701937086664
 20
14.53571837876666
 10
39.97644995349997
 20
14.39449771423335
 10
40.02423314856661
 20
14.23596498786668
  0
LINE
  5
221EA
330
1F
100
AcDbEntity
  8
1
100
AcDbLine
 10
38.70569257546664
 20
18.67511224020001
 30
0.0
 11
40.90283240379995
 21
18.67511224020001
 31
0.0
  0
LWPOLYLINE
  5
221EB
330
1F
100
AcDbEntity
  8
1
100
AcDbPolyline
 90
        7
 70
     0
 43
0.0
 10
40.90283240379995
 20
18.67511224020001
 10
40.93202935513328
 20
18.67593388820001
 10
40.96094819736663
 20
18.67834069273334
 10
40.98958893053327
 20
18.68233265386663
 10
41.01795155459996
 20
18.68790977153333
 10
41.04603606956664
 20
18.69507204576666
 10
41.07384247546668
 20
18.70381947656665
  0
LWPOLYLINE
  5
221EC
330
1F
100
AcDbEntity
  8
1
100
AcDbPolyline
 90
        7
 70
     0
 43
0.0
 10
28.60556188459998
 20
19.30849153983331
 10
28.80015586769997
 20
19.32591894250004
 10
28.93671177983333
 20
19.33597206410002
 10
29.07340569399997
 20
19.34379270986665
 10
29.21023761016665
 20
19.34938087973336
 10
29.34720752839997
 20
19.35273657373335
 10
29.48431544863331
 20
19.35385979190005
  0
LINE
  5
221ED
330
1F
100
AcDbEntity
  8
1
100
AcDbLine
 10
0.0
 20
13.875
 30
0.0
 11
0.5
 21
14.375
 31
0.0
  0
LINE
  5
221EE
330
1F
100
AcDbEntity
  8
SK1
100
AcDbLine
 10
-9.700000000000043
 20
-7.0
 30
0.0
 11
-9.700000000000043
 21
7.0
 31
0.0
  0
LINE
  5
221EF
330
1F
100
AcDbEntity
  8
SK1
100
AcDbLine
 10
-10.70000000000004
 20
8.0
 30
0.0
 11
-10.70000000000004
 21
-8.0
 31
0.0
  0
LWPOLYLINE
  5
221F0
330
1F
100
AcDbEntity
  8
1
100
AcDbPolyline
 90
        6
 70
     0
 43
0.0
 10
28.35110319363332
 20
19.30072108586671
 10
28.39609165669998
 20
19.29981441886667
 10
28.44508631583329
 20
19.30013137183333
 10
28.49650419239998
 20
19.30169224430006
 10
28.54981828883331
 20
19.30449758986668
 10
28.60556188459998
 20
19.30849153983331
  0
LINE
  5
221F1
330
1F
100
AcDbEntity
  8
1
100
AcDbLine
 10
38.75815716253328
 20
19.35385979190005
 30
0.0
 11
29.48431544863331
 21
19.35385979190005
 31
0.0
  0
LINE
  5
221F3
330
1F
100
AcDbEntity
  8
SK1
100
AcDbLine
 10
-23.10000000000002
 20
8.0
 30
0.0
 11
-23.10000000000002
 21
-8.0
 31
0.0
  0
LINE
  5
221F4
330
1F
100
AcDbEntity
  8
SK1
100
AcDbLine
 10
-24.0
 20
6.441154273200027
 30
0.0
 11
-24.0
 21
-6.44115427316666
 31
0.0
  0
LINE
  5
221F5
330
1F
100
AcDbEntity
  8
SK1
100
AcDbLine
 10
-24.0
 20
-6.44115427316666
 30
0.0
 11
-23.10000000000002
 21
-8.0
 31
0.0
  0
LINE
  5
221F6
330
1F
100
AcDbEntity
  8
SK1
100
AcDbLine
 10
-24.0
 20
6.441154273200027
 30
0.0
 11
-23.10000000000002
 21
8.0
 31
0.0
  0
LWPOLYLINE
  5
221F7
330
1F
100
AcDbEntity
  8
CUT
100
AcDbPolyline
 90
      183
 70
     0
 43
0.0
 10
42.99997899999993
 20
20.60233700000003
 10
41.55084799999996
 20
11.38945599999999
 10
41.54224099999999
 20
11.35229200000003
 10
41.53907302747994
 20
11.33964747161997
 10
41.53550699999994
 20
11.32710900000001
 10
41.53158078679996
 20
11.31480449224
 10
41.52726299999994
 20
11.30263200000001
 10
41.52257900483993
 20
11.29066729969997
 10
41.51750899999989
 20
11.278861
 10
41.5120443062799
 20
11.26720247280002
 10
41.50620299999991
 20
11.25572799999997
 10
41.49995243441992
 20
11.24437443514
 10
41.49334099999999
 20
11.23322700000005
 10
41.4863892354599
 20
11.22231178616005
 10
41.47908999999993
 20
11.21162600000002
 10
41.47149163519997
 20
11.20124542278006
 10
41.4635589999999
 20
11.19111800000001
 10
41.45525186271993
 20
11.18119648308004
 10
41.4466299999999
 20
11.17154700000003
 10
41.43770519679992
 20
11.16217373268
 10
41.4284859999999
 20
11.15309000000002
 10
41.41904359241993
 20
11.14436735302001
 10
41.40932299999996
 20
11.13595600000002
 10
41.39928989019995
 20
11.1278332425
 10
41.38900000000001
 20
11.12003800000002
 10
41.37844844247989
 20
11.11255826624006
 10
41.36766499999999
 20
11.10541699999999
 10
41.35672811547999
 20
11.09866557101998
 10
41.34557899999992
 20
11.09227099999998
 10
41.33421150139997
 20
11.08623651478001
 10
41.32265499999994
 20
11.08057200000001
 10
41.31088166291999
 20
11.07525831672001
 10
41.298946
 20
11.07032000000004
 10
41.28691518227991
 20
11.06578258399997
 10
41.27474499999993
 20
11.06163400000002
 10
41.26247570885992
 20
11.05789314584001
 10
41.250092
 20
11.05455
 10
41.23754231783992
 20
11.05158832875997
 10
41.22490499999992
 20
11.04902600000002
 10
41.21222665101993
 20
11.04686935836002
 10
41.19948599999998
 20
11.045119
 10
41.18675965947999
 20
11.04378847966001
 10
41.17399699999999
 20
11.04286899999999
 10
41.16113744631991
 20
11.04235730740004
 10
41.1482679999999
 20
11.04225500000001
 10
41.13541135204002
 20
11.04255791364005
 10
41.12257099999999
 20
11.04327
 10
41.10984015381996
 20
11.04438803372
 10
41.09715199999993
 20
11.04591600000003
 10
41.08445522469992
 20
11.04786315095998
 10
41.07182699999998
 20
11.05021499999998
 10
41.05926453995993
 20
11.05296758740002
 10
41.04679599999996
 20
11.05611799999997
 10
41.03451498916
 20
11.05964302330005
 10
41.02235399999995
 20
11.06356200000004
 10
41.01035272865999
 20
11.06786359351997
 10
40.99849599999993
 20
11.07254899999998
 10
40.98673695946
 20
11.07763587711997
 10
40.97514499999999
 20
11.08309300000002
 10
40.96362834889997
 20
11.08896522834004
 10
40.9523019999999
 20
11.09519599999998
 10
40.08619699999997
 20
11.59194500000001
 10
33.65561299999991
 20
16.94216
 10
33.62741799999992
 20
16.96826399999998
 10
33.61794503279998
 20
16.97735126129998
 10
33.60876099999996
 20
16.98673100000002
 10
33.59996429805994
 20
16.99630079563997
 10
33.59147599999995
 20
17.006145
 10
33.58335506923993
 20
17.01619750556005
 10
33.57556299999999
 20
17.02650700000004
 10
33.56810023797994
 20
17.03707934945998
 10
33.56098399999996
 20
17.047888
 10
33.55418009301991
 20
17.05898512756005
 10
33.54773399999999
 20
17.07029399999999
 10
33.54166354991992
 20
17.08177455930001
 10
33.53596499999993
 20
17.09344399999998
 10
33.53068481127991
 20
17.10521408598004
 10
33.52579099999991
 20
17.11715000000004
 10
33.52126613524001
 20
17.12930070590005
 10
33.51713499999994
 20
17.141591
 10
33.51339895403999
 20
17.15399892532002
 10
33.51006199999995
 20
17.16651999999999
 10
33.50715301499997
 20
17.17904797356004
 10
33.50465399999996
 20
17.191664
 10
33.50256437654002
 20
17.20439935850004
 10
33.50088899999992
 20
17.217196
 10
33.49962117268001
 20
17.23005554808003
 10
33.49876499999993
 20
17.24294900000001
 10
33.49832645611993
 20
17.25577534290005
 10
33.49830599999997
 20
17.26860899999997
 10
33.49870976757995
 20
17.28144641104001
 10
33.49953199999993
 20
17.294264
 10
33.50076952669997
 20
17.30708908986003
 10
33.50241699999993
 20
17.31986800000004
 10
33.50446246445995
 20
17.33252515447998
 10
33.50691799999993
 20
17.34510899999998
 10
33.50977930247996
 20
17.3575719662
 10
33.51304599999993
 20
17.36993500000005
 10
33.51672921774002
 20
17.38224829529997
 10
33.52080599999999
 20
17.39443700000004
 10
33.52525815605999
 20
17.40645627783999
 10
33.53009699999996
 20
17.41832499999998
 10
33.53529628469994
 20
17.42997095129999
 10
33.54087299999993
 20
17.44144100000005
 10
33.54685519677992
 20
17.45279026436003
 10
33.55319999999995
 20
17.46394099999998
 10
33.55989407825996
 20
17.47487822621997
 10
33.56693699999995
 20
17.48559399999999
 10
33.57428104057999
 20
17.49601257078001
 10
33.58196099999998
 20
17.50618600000001
 10
33.59001459879994
 20
17.51615850181997
 10
33.59838600000002
 20
17.525866
 10
33.60707670995998
 20
17.53531784664005
 10
33.61606599999993
 20
17.544486
 10
33.62529219009991
 20
17.55330616408002
 10
33.63479999999993
 20
17.561822
 10
33.64456595299998
 20
17.57001129214001
 10
33.65459199999998
 20
17.57788000000005
 10
33.66492460415998
 20
17.58546467918
 10
33.67549399999997
 20
17.59271599999999
 10
33.68639216703993
 20
17.59969611938004
 10
33.69750399999998
 20
17.60633000000001
 10
34.56497500000001
 20
18.10363600000005
 10
42.44332399999996
 20
20.97102800000005
 10
42.48012599999992
 20
20.98230599999999
 10
42.49276775187991
 20
20.9859355762
 10
42.50551699999994
 20
20.989169
 10
42.51823987573994
 20
20.99197353564
 10
42.53104499999993
 20
20.99437399999999
 10
42.54384999275997
 20
20.99635334478
 10
42.55671199999993
 20
20.99792000000002
 10
42.56963979257999
 20
20.99907132572003
 10
42.58259799999996
 20
20.99980500000004
 10
42.59565266003995
 20
21.00012419102001
 10
42.60871099999996
 20
21.00002800000004
 10
42.62173199040001
 20
20.99952128202005
 10
42.63472999999999
 20
20.99859900000001
 10
42.64760699359999
 20
20.99726526344
 10
42.660434
 20
20.99551500000001
 10
42.67326453433996
 20
20.99333825278006
 10
42.68601899999999
 20
20.99075200000005
 10
42.69867877557999
 20
20.98776617908004
 10
42.71123699999997
 20
20.98437899999999
 10
42.7235867114
 20
20.98061808428003
 10
42.73580799999989
 20
20.97645899999998
 10
42.74792878407993
 20
20.97188724394005
 10
42.75989599999991
 20
20.96692700000005
 10
42.77171339721997
 20
20.96158290699998
 10
42.7833549999999
 20
20.95586600000002
 10
42.79472789919998
 20
20.94982350544001
 10
42.80589899999995
 20
20.94341600000001
 10
42.81686074451999
 20
20.93664012084003
 10
42.82759699999997
 20
20.92951200000005
 10
42.83813083847997
 20
20.92202272726002
 10
42.8484209999999
 20
20.91420200000005
 10
42.85840523949992
 20
20.90609981822002
 10
42.86812199999996
 20
20.89767900000004
 10
42.87752876586
 20
20.88896939920005
 10
42.88664699999992
 20
20.87995799999999
 10
42.89551218427994
 20
20.87061290912004
 10
42.90407399999992
 20
20.86098900000002
 10
42.91229946115993
 20
20.85112870164005
 10
42.92020199999989
 20
20.84100799999999
 10
42.92772819771993
 20
20.83068898454002
 10
42.93491399999992
 20
20.82013000000001
 10
42.94179168407993
 20
20.80928333074002
 10
42.94831699999996
 20
20.79822100000001
 10
42.95448002308
 20
20.78696686332
 10
42.9602769999999
 20
20.77552000000003
 10
42.96566396549997
 20
20.76396378912
 10
42.97067099999992
 20
20.75223800000003
 10
42.97531585983995
 20
20.74029256122003
 10
42.97957199999996
 20
20.72820300000001
 10
42.98344466209993
 20
20.71596803088005
 10
42.98692199999993
 20
20.70361500000001
 10
42.98997835260002
 20
20.69123395868002
 10
42.99262999999996
 20
20.67876000000001
 10
42.99486786337991
 20
20.66622907864001
 10
42.99669699999992
 20
20.65363200000001
 10
42.99812553473998
 20
20.64091418528005
 10
42.999146
 20
20.62815699999999
 10
42.9997662963999
 20
20.61525336604001
 10
42.99997899999993
 20
20.60233700000003
  0
LINE
  5
221F9
330
1F
100
AcDbEntity
  8
3
100
AcDbLine
 10
19.0
 20
3.0
 30
0.0
 11
19.27251357683332
 21
2.251275101200008
 31
0.0
  0
LINE
  5
221FA
330
1F
100
AcDbEntity
  8
3
100
AcDbLine
 10
19.69146767239999
 20
1.100208183866697
 30
0.0
 11
20.09191070279996
 21
0.0
 31
0.0
  0
LINE
  5
221FB
330
1F
100
AcDbEntity
  8
3
100
AcDbLine
 10
19.0
 20
-3.0
 30
0.0
 11
19.0863219667666
 21
-2.762832345533354
 31
0.0
  0
LINE
  5
221FC
330
1F
100
AcDbEntity
  8
3
100
AcDbLine
 10
19.75538741153332
 20
-0.9245901439333009
 30
0.0
 11
20.09191070279996
 21
0.0
 31
0.0
  0
LINE
  5
221FD
330
1F
100
AcDbEntity
  8
3
100
AcDbLine
 10
36.21938311886663
 20
-13.65932528676666
 30
0.0
 11
19.75832718369997
 21
-0.8562817816666663
 31
0.0
  0
LINE
  5
221FE
330
1F
100
AcDbEntity
  8
3
100
AcDbLine
 10
34.18067984719994
 20
-14.60739035346665
 30
0.0
 11
19.0486334246666
 21
-2.838020913733316
 31
0.0
  0
LINE
  5
221FF
330
1F
100
AcDbEntity
  8
3
100
AcDbLine
 10
-22.5
 20
-3.0
 30
0.0
 11
19.0
 21
-3.0
 31
0.0
  0
LINE
  5
22200
330
1F
100
AcDbEntity
  8
3
100
AcDbLine
 10
-22.5
 20
3.0
 30
0.0
 11
19.0
 21
3.0
 31
0.0
  0
ARC
  5
22201
330
1F
100
AcDbEntity
  8
1
100
AcDbCircle
 10
29.48431544863331
 20
-11.94999999999999
 30
0.0
 40
8.0
100
AcDbArc
 50
235.0000000000008
 51
270.0
  0
ARC
  5
22202
330
1F
100
AcDbEntity
  8
1
100
AcDbCircle
 10
29.48431544863331
 20
11.95000000000004
 30
0.0
 40
8.0
100
AcDbArc
 50
96.15790629410074
 51
124.9999999999992
  0
ARC
  5
22203
330
1F
100
AcDbEntity
  8
1
100
AcDbCircle
 10
16.47756476113329
 20
22.37496854120002
 30
0.0
 40
8.0
100
AcDbArc
 50
270.1606807730994
 51
304.9999999999991
  0
ARC
  5
22204
330
1F
100
AcDbEntity
  8
1
100
AcDbCircle
 10
16.47756476113329
 20
-22.37496854120002
 30
0.0
 40
8.0
100
AcDbArc
 50
55.00000000000084
 51
89.83931922699822
  0
ARC
  5
22205
330
1F
100
AcDbEntity
  8
SK1
100
AcDbCircle
 10
-8.948286437600017
 20
7.662500000000022
 30
0.0
 40
1.0
100
AcDbArc
 50
225.0
 51
270.0
  0
ARC
  5
22206
330
1F
100
AcDbEntity
  8
SK1
100
AcDbCircle
 10
-8.948286437600017
 20
-7.662499999999965
 30
0.0
 40
1.0
100
AcDbArc
 50
90.0
 51
135.0
  0
ARC
  5
22207
330
1F
100
AcDbEntity
  8
SK1
100
AcDbCircle
 10
-7.0
 20
7.662500000000022
 30
0.0
 40
1.0
100
AcDbArc
 50
270.0
 51
0.0
  0
ARC
  5
22208
330
1F
100
AcDbEntity
  8
SK1
100
AcDbCircle
 10
-7.0
 20
-7.662499999999965
 30
0.0
 40
1.0
100
AcDbArc
 50
0.0
 51
90.0
  0
ARC
  5
22209
330
1F
100
AcDbEntity
  8
SK1
100
AcDbCircle
 10
-0.3877635896666902
 20
8.800000000000011
 30
0.0
 40
0.5
100
AcDbArc
 50
254.9999999999988
 51
270.0
  0
ARC
  5
2220A
330
1F
100
AcDbEntity
  8
SK1
100
AcDbCircle
 10
-0.3877635896666902
 20
-8.799999999999952
 30
0.0
 40
0.5
100
AcDbArc
 50
90.0
 51
105.0000000000011
  0
ARC
  5
2220B
330
1F
100
AcDbEntity
  8
SK1
100
AcDbCircle
 10
-0.2000000000000455
 20
8.800000000000011
 30
0.0
 40
0.5
100
AcDbArc
 50
270.0
 51
293.5955953223989
  0
ARC
  5
2220C
330
1F
100
AcDbEntity
  8
SK1
100
AcDbCircle
 10
-0.2000000000000455
 20
-8.799999999999952
 30
0.0
 40
0.5
100
AcDbArc
 50
66.40440467760106
 51
90.0
  0
ELLIPSE
  5
2220D
330
1F
100
AcDbEntity
  8
1
100
AcDbEllipse
 10
42.22023033893332
 20
-1.692496920933308
 30
0.0
 11
0.2417701498666666
 21
3.257618735566667
 31
0.0
210
0.0
220
0.0
230
-1.0
 40
0.1155738096
 41
0.0437825656
 42
1.317415959099998
  0
ELLIPSE
  5
2220E
330
1F
100
AcDbEntity
  8
1
100
AcDbEllipse
 10
42.59732765419993
 20
-13.21184329406662
 30
0.0
 11
-0.4026505055000002
 21
0.0016813712666667
 31
0.0
210
0.0
220
0.0
230
-1.0
 40
0.5773766806000002
 41
3.137825171999998
 42
5.0053274717
  0
ELLIPSE
  5
2220F
330
1F
100
AcDbEntity
  8
1
100
AcDbEllipse
 10
41.15242606399998
 20
-7.864405934166653
 30
0.0
 11
-0.400089483
 21
0.0009046623
 31
0.0
210
0.0
220
0.0
230
-1.0
 40
0.5847992650000001
 41
1.6881579208
 42
2.913148153699998
  0
ELLIPSE
  5
22210
330
1F
100
AcDbEntity
  8
1
100
AcDbEllipse
 10
41.22172338919995
 20
-5.432229085366656
 30
0.0
 11
-0.3302173781
 21
2.394401660266665
 31
0.0
210
0.0
220
0.0
230
-0.9999999999999998
 40
0.0155573193
 41
-2.990666626799998
 42
-2.219992761999999
  0
ELLIPSE
  5
22211
330
1F
100
AcDbEntity
  8
1
100
AcDbEllipse
 10
42.59732765419993
 20
11.10208136459999
 30
0.0
 11
-0.4026502200333334
 21
-0.0018094888333333
 31
0.0
210
0.0
220
0.0
230
-1.0
 40
0.5983670156000003
 41
3.0553083162
 42
3.145638177599998
  0
ELLIPSE
  5
22212
330
1F
100
AcDbEntity
  8
1
100
AcDbEllipse
 10
41.15242606399998
 20
5.56023228853337
 30
0.0
 11
-0.4000893963666667
 21
-0.0009750707
 31
0.0
210
0.0
220
0.0
230
-1.0
 40
0.6060600195000001
 41
-2.912993424499998
 42
-1.476455662299998
  0
ELLIPSE
  5
22213
330
1F
100
AcDbEntity
  8
1
100
AcDbEllipse
 10
41.22172338919995
 20
8.409394213266637
 30
0.0
 11
-0.3184335861999999
 21
2.890282161166666
 31
0.0
210
0.0
220
0.0
230
-0.9999999999999998
 40
0.0328799887
 41
-3.168358055799998
 42
-2.006908216799998
  0
ELLIPSE
  5
22214
330
1F
100
AcDbEntity
  8
1
100
AcDbEllipse
 10
42.311295104
 20
13.01983985033337
 30
0.0
 11
-0.4026502200333334
 21
-0.0018094888333333
 31
0.0
210
0.0
220
0.0
230
-1.0
 40
0.5983670156000003
 41
8.834954578599997
 42
9.4288234847
  0
ELLIPSE
  5
22215
330
1F
100
AcDbEntity
  8
1
100
AcDbEllipse
 10
42.59732765419993
 20
20.02251738686664
 30
0.0
 11
-0.4023190645999998
 21
-0.0173072093333334
 31
0.0
210
0.0
220
0.0
230
-1.0
 40
0.9454344199999999
 41
1.316095731599999
 42
3.183598031199998
  0
ELLIPSE
  5
22216
330
1F
100
AcDbEntity
  8
1
100
AcDbEllipse
 10
42.311295104
 20
19.1568205483
 30
0.0
 11
-0.4023190645999998
 21
-0.0173072093333334
 31
0.0
210
0.0
220
0.0
230
-1.0
 40
0.9454344199999999
 41
2.589729124999998
 42
3.183598031199998
  0
ELLIPSE
  5
22217
330
1F
100
AcDbEntity
  8
1
100
AcDbEllipse
 10
42.22023033893332
 20
18.88120688420002
 30
0.0
 11
0.2861170008666665
 21
1.498860238533331
 31
0.0
210
0.0
220
0.0
230
-0.9999999999999998
 40
0.2295103013
 41
6.2040226371
 42
7.477656030599999
  0
ELLIPSE
  5
22218
330
1F
100
AcDbEntity
  8
1
100
AcDbEllipse
 10
42.311295104
 20
-19.80708832763332
 30
0.0
 11
-0.4022383492333331
 21
0.0191868337
 31
0.0
210
0.0
220
0.0
230
-0.9999999999999996
 40
0.9506302087999998
 41
-2.7773502754
 42
-2.594394420199999
  0
ELLIPSE
  5
22219
330
1F
100
AcDbEntity
  8
1
100
AcDbEllipse
 10
41.15242606399998
 20
-10.37570070033331
 30
0.0
 11
-0.3998787279999999
 21
0.0134949366666667
 31
0.0
210
0.0
220
0.0
230
-1.0
 40
0.9629741931999998
 41
1.014481563399999
 42
2.881983863
  0
ELLIPSE
  5
2221A
330
1F
100
AcDbEntity
  8
1
100
AcDbEllipse
 10
42.59732765419993
 20
-19.18188935363332
 30
0.0
 11
-0.4022383492333331
 21
0.0191868337
 31
0.0
210
0.0
220
0.0
230
-0.9999999999999996
 40
0.9506302087999998
 41
3.094921980799998
 42
4.9624242804
  0
ELLIPSE
  5
2221B
330
1F
100
AcDbEntity
  8
1
100
AcDbEllipse
 10
33.90003093606663
 20
-15.97543971250002
 30
0.0
 11
-0.4006158806666667
 21
-0.0318626374666667
 31
0.0
210
0.0
220
0.0
230
-1.0
 40
0.9544885252
 41
-0.9667010342999999
 42
0.9008012653999999
  0
ELLIPSE
  5
2221C
330
1F
100
AcDbEntity
  8
1
100
AcDbEllipse
 10
42.22023033893332
 20
-20.00613419720003
 30
0.0
 11
0.3232841937333333
 21
0.4160469489999999
 31
0.0
210
0.0
220
0.0
230
-1.0
 40
0.743512889
 41
-0.1928161091
 42
1.080817284399999
  0
ELLIPSE
  5
2221D
330
1F
100
AcDbEntity
  8
1
100
AcDbEllipse
 10
68.64366653873331
 20
-12.40843948233333
 30
0.0
 11
-35.60807910166667
 21
29.31747367280001
 31
0.0
210
0.0
220
0.0
230
-1.0
 40
0.1407427302999999
 41
0.6226654847999999
 42
0.6312041639000002
  0
ELLIPSE
  5
2221E
330
1F
100
AcDbEntity
  8
1
100
AcDbEllipse
 10
68.64366653873331
 20
7.576434585866707
 30
0.0
 11
-34.20772730386668
 21
-23.21032010623333
 31
0.0
210
0.0
220
0.0
230
-1.0
 40
0.4616102279999999
 41
-0.4430390174000002
 42
-0.3898179198
  0
ELLIPSE
  5
2221F
330
1F
100
AcDbEntity
  8
1
100
AcDbEllipse
 10
53.06174193903331
 20
0.0
 30
0.0
 11
-22.34180880856667
 21
-16.50626963583334
 31
0.0
210
0.0
220
0.0
230
-0.9999999999999998
 40
0.5015131821
 41
-0.6804028047
 42
-0.5963662403
  0
ELLIPSE
  5
22220
330
1F
100
AcDbEntity
  8
1
100
AcDbEllipse
 10
38.50259689096663
 20
-18.16071004686665
 30
0.0
 11
-0.3558801681
 21
0.7403623352666667
 31
0.0
210
0.0
220
0.0
230
-0.9999999999999998
 40
0.4743774524
 41
-4.221367305799998
 42
-3.920387847799998
  0
ELLIPSE
  5
22221
330
1F
100
AcDbEntity
  8
1
100
AcDbEllipse
 10
38.50259689096663
 20
19.00694235396668
 30
0.0
 11
-0.1368207681
 21
1.712403333566665
 31
0.0
210
0.0
220
0.0
230
-0.9999999999999998
 40
0.2808426402999999
 41
1.546993916299999
 42
1.7881557268
  0
ELLIPSE
  5
22222
330
1F
100
AcDbEntity
  8
1
100
AcDbEllipse
 10
38.50259689096663
 20
1.577065725600049
 30
0.0
 11
-0.1738078286666667
 21
4.072124049366665
 31
0.0
210
0.0
220
0.0
230
-1.0
 40
0.1151287511
 41
-4.6583414632
 42
-4.357362005199998
  0
ELLIPSE
  5
22223
330
1F
100
AcDbEntity
  8
1
100
AcDbEllipse
 10
68.64366653873331
 20
0.0
 30
0.0
 11
-35.84635266596666
 21
0.0
 31
0.0
210
0.0
220
0.0
230
-1.0
 40
0.7540722058000001
 41
0.6933473308
 42
0.7465684284
  0
ELLIPSE
  5
22224
330
1F
100
AcDbEntity
  8
1
100
AcDbEllipse
 10
68.64366653873331
 20
12.47691329349999
 30
0.0
 11
-35.63328188606665
 21
-29.3930370245
 31
0.0
210
0.0
220
0.0
230
-1.0
 40
0.1327726575
 41
0.8024335309999999
 42
0.8556546285999997
  0
ELLIPSE
  5
22225
330
1F
100
AcDbEntity
  8
1
100
AcDbEllipse
 10
39.08883904789997
 20
13.36964716176669
 30
0.0
 11
1.031040304599998
 21
1.4260473899
 31
0.0
210
0.0
220
0.0
230
-1.0
 40
0.7639823616000001
 41
4.625720829599998
 42
9.5665458902
  0
ELLIPSE
  5
22226
330
1F
100
AcDbEntity
  8
1
100
AcDbEllipse
 10
39.08883904789997
 20
-7.241527453833326
 30
0.0
 11
-1.482053619466665
 21
-1.368376311733332
 31
0.0
210
0.0
220
0.0
230
-0.9999999999999998
 40
0.1690599019999999
 41
0.8260231879
 42
5.7668482486
  0
ELLIPSE
  5
22227
330
1F
100
AcDbEntity
  8
1
100
AcDbEllipse
 10
65.59216788776666
 20
0.0
 30
0.0
 11
-42.84416221199999
 21
-19.35127244563332
 31
0.0
210
0.0
220
0.0
230
-1.0
 40
0.1132208142
 41
0.7535646745
 42
0.8865361673999998
  0
ELLIPSE
  5
22228
330
1F
100
AcDbEntity
  8
1
100
AcDbEllipse
 10
53.06174193903331
 20
0.0
 30
0.0
 11
-23.65040937843334
 21
-19.64464380973332
 31
0.0
210
0.0
220
0.0
230
-0.9999999999999998
 40
0.1470222016
 41
1.003330672399999
 42
1.156759760799999
  0
ELLIPSE
  5
22229
330
1F
100
AcDbEntity
  8
1
100
AcDbEllipse
 10
35.2000314830333
 20
-12.73681020056665
 30
0.0
 11
-1.012518392999999
 21
-0.5014414218666668
 31
0.0
210
0.0
220
0.0
230
-1.0
 40
0.2349855644
 41
-0.7215466895999999
 42
4.211991049299998
  0
ELLIPSE
  5
2222A
330
1F
100
AcDbEntity
  8
1
100
AcDbEllipse
 10
65.59216788776666
 20
0.0
 30
0.0
 11
-42.90014651796665
 21
0.0
 31
0.0
210
0.0
220
0.0
230
-1.0
 40
0.4650333768000002
 41
0.7024711338
 42
0.8354426266
  0
ELLIPSE
  5
2222B
330
1F
100
AcDbEntity
  8
1
100
AcDbEllipse
 10
53.06174193903331
 20
0.0
 30
0.0
 11
-23.8261108026
 21
0.0
 31
0.0
210
0.0
220
0.0
230
-0.9999999999999998
 40
0.8373166802
 41
0.8818119186
 42
1.035241006899999
  0
ELLIPSE
  5
2222C
330
1F
100
AcDbEntity
  8
1
100
AcDbEllipse
 10
35.2000314830333
 20
2.664372399833325
 30
0.0
 11
-0.8025803600666662
 21
-0.6670452500666668
 31
0.0
210
0.0
220
0.0
230
-1.0
 40
0.9421317767999999
 41
6.110092482799998
 42
11.0436302217
  0
DIMENSION
  5
2225C
330
1F
100
AcDbEntity
  8
SK2
100
AcDbDimension
  2
*D2
 10
0.0000000000000011
 20
31.25790143319547
 30
0.0
 11
-12.0
 21
33.10896959904226
 31
0.0
 70
    32
 71
     5
 42
24.0
  3
STANDARD
100
AcDbAlignedDimension
 13
-24.0
 23
6.441154273200027
 33
0.0
 14
0.0
 24
13.875
 34
0.0
100
AcDbRotatedDimension
  0
DIMENSION
  5
2227B
330
1F
100
AcDbEntity
  8
SK2
100
AcDbDimension
  2
*D3
 10
-35.12129073184246
 20
-7.999999999999997
 30
0.0
 11
-37.07443198272089
 21
-0.0000000000000025
 31
0.0
 70
    32
  1
%%C<>
 71
     5
 42
16.0
  3
STANDARD
100
AcDbAlignedDimension
 13
-23.10000000000002
 23
8.0
 33
0.0
 14
-23.10000000000002
 24
-8.0
 34
0.0
 50
90.0
100
AcDbRotatedDimension
  0
DIMENSION
  5
222AC
330
1F
100
AcDbEntity
  8
2
100
AcDbDimension
  2
*D4
 10
-46.66311365667637
 20
-14.37499999999998
 30
0.0
 11
-48.61625490755482
 21
0.0000000000000066
 31
0.0
 70
    32
  1
%%C29
 71
     5
 42
28.75
  3
STANDARD
100
AcDbAlignedDimension
 13
0.5
 23
14.375
 33
0.0
 14
0.5
 24
-14.375
 34
0.0
 50
90.0
100
AcDbRotatedDimension
  0
LWPOLYLINE
  5
22443
330
1F
100
AcDbEntity
  8
NOCUT
100
AcDbPolyline
 90
       15
 70
     1
 43
0.0
 10
21.06617625190001
 20
15.8217521869
 10
24.89570395779998
 20
18.50321635430001
 10
21.06617625184632
 20
15.82175218684456
 42
-0.1531970874123111
 10
16.4999999970132
 20
14.375
 10
16.00000000000006
 20
14.375
 10
0.5
 20
14.375
 10
0.0
 20
13.875
 10
0.0
 20
0.0
 10
42.59999999999997
 20
0.0
 10
42.60000000000006
 20
20.25
 42
0.5205670505625024
 10
42.33159597132857
 20
20.43793852415487
 10
41.07384247539999
 20
19.9801536896
 10
40.9028324038
 20
19.94999999999999
 10
29.48431544860007
 20
19.94999999999999
 42
0.1539147210598334
 10
24.89570395779158
 20
18.50321635431184
  0
VIEWPORT
  5
9C00
102
{ACAD_XDICTIONARY
360
2247F
102
}
330
1B
100
AcDbEntity
 67
     1
  8
0
100
AcDbViewport
 10
108.2280559557949
 20
71.69854161746989
 30
0.0
 40
251.8950231529317
 41
201.8884082081047
 68
     1
 69
     1
 12
108.2280559557949
 22
71.69854161746989
 13
0.0
 23
0.0
 14
10.0
 24
10.0
 15
10.0
 25
10.0
 16
0.0
 26
0.0
 36
1.0
 17
0.0
 27
0.0
 37
0.0
 42
50.0
 43
0.0
 44
0.0
 45
201.8884082081047
 50
0.0
 51
0.0
 72
   100
 90
   557088
  1

281
     0
 71
     1
 74
     0
110
0.0
120
0.0
130
0.0
111
1.0
121
0.0
131
0.0
112
0.0
122
1.0
132
0.0
 79
     0
146
0.0
  0
VIEWPORT
  5
9C02
102
{ACAD_XDICTIONARY
360
22481
102
}
330
1B
100
AcDbEntity
 67
     1
  8
1
100
AcDbViewport
 10
143.457083940506
 20
98.18158769607544
 30
0.0
 40
229.5313343048095
 41
157.0905403137207
 68
     2
 69
     2
 12
-44.37697124786255
 22
-35.12342998133886
 13
0.0
 23
0.0
 14
10.0
 24
10.0
 15
10.0
 25
10.0
 16
0.0
 26
0.0
 36
1.0
 17
0.0
 27
0.0
 37
0.0
 42
50.0
 43
0.0
 44
0.0
 45
300.3886240724386
 50
0.0
 51
0.0
 72
   100
 90
   557088
  1

281
     0
 71
     1
 74
     0
110
0.0
120
0.0
130
0.0
111
1.0
121
0.0
131
0.0
112
0.0
122
1.0
132
0.0
 79
     0
146
0.0
  0
ENDSEC
  0
SECTION
  2
OBJECTS
  0
DICTIONARY
  5
3182
330
0
100
AcDbDictionary
281
     1
  3
ACAD_CIP_PREVIOUS_PRODUCT_INFO
350
1B2F4
  3
ACAD_COLOR
350
31A0
  3
ACAD_DETAILVIEWSTYLE
350
1B2F0
  3
ACAD_FIELDLIST
350
20CBF
  3
ACAD_GROUP
350
3183
  3
ACAD_LAYOUT
350
31A5
  3
ACAD_MATERIAL
350
318B
  3
ACAD_MLEADERSTYLE
350
1B221
  3
ACAD_MLINESTYLE
350
3184
  3
ACAD_PLOTSETTINGS
350
31A4
  3
ACAD_PLOTSTYLENAME
350
3189
  3
ACAD_SCALELIST
350
1B1FC
  3
ACAD_SECTIONVIEWSTYLE
350
1B2EE
  3
ACAD_TABLESTYLE
350
31A1
  3
ACAD_VISUALSTYLE
350
318F
  3
ACDB_RECOMPOSE_DATA
350
22458
  3
AcDbVariableDictionary
350
33A3
  3
DWGPROPS
350
22459
  0
DICTIONARY
  5
422A
330
2
100
AcDbDictionary
280
     1
281
     1
  3
ACAD_LAYERFILTERS
360
1B063
  3
ACAD_LAYERSTATES
360
9A1C
  3
ACLYDICTIONARY
360
1B062
  0
DICTIONARY
  5
1B2F5
330
10
100
AcDbDictionary
280
     1
281
     1
  3
ADSK_XREC_LAYER_RECONCILED
360
21B8E
  0
DICTIONARY
  5
1B2F7
330
3F8C
100
AcDbDictionary
280
     1
281
     1
  3
ADSK_XREC_LAYER_RECONCILED
360
21B8F
  0
DICTIONARY
  5
1B2F9
330
9C4A
100
AcDbDictionary
280
     1
281
     1
  3
ADSK_XREC_LAYER_RECONCILED
360
21B90
  0
DICTIONARY
  5
1B2FB
330
9C4B
100
AcDbDictionary
280
     1
281
     1
  3
ADSK_XREC_LAYER_RECONCILED
360
21B91
  0
DICTIONARY
  5
1B2FD
330
9C4D
100
AcDbDictionary
280
     1
281
     1
  3
ADSK_XREC_LAYER_RECONCILED
360
21B92
  0
DICTIONARY
  5
1B2FF
330
9C4E
100
AcDbDictionary
280
     1
281
     1
  3
ADSK_XREC_LAYER_RECONCILED
360
21B93
  0
DICTIONARY
  5
1B301
330
9C4F
100
AcDbDictionary
280
     1
281
     1
  3
ADSK_XREC_LAYER_RECONCILED
360
21B94
  0
DICTIONARY
  5
1B303
330
9C50
100
AcDbDictionary
280
     1
281
     1
  3
ADSK_XREC_LAYER_RECONCILED
360
21B95
  0
DICTIONARY
  5
1B305
330
9C51
100
AcDbDictionary
280
     1
281
     1
  3
ADSK_XREC_LAYER_RECONCILED
360
21B96
  0
DICTIONARY
  5
1B307
330
13335
100
AcDbDictionary
280
     1
281
     1
  3
ADSK_XREC_LAYER_RECONCILED
360
21B97
  0
DICTIONARY
  5
1B309
330
1686E
100
AcDbDictionary
280
     1
281
     1
  3
ADSK_XREC_LAYER_RECONCILED
360
21B98
  0
DICTIONARY
  5
20A84
330
20A83
100
AcDbDictionary
280
     1
281
     1
  3
ADSK_XREC_LAYER_RECONCILED
360
21B99
  0
DICTIONARY
  5
339C
330
1F
100
AcDbDictionary
280
     1
281
     1
  3
ACAD_SORTENTS
360
339D
  0
DICTIONARY
  5
1DE81
330
1B3D7
100
AcDbDictionary
280
     1
281
     1
  3
AcDbBlockTableRecordData
360
2249B
  0
DICTIONARY
  5
2247F
330
9C00
100
AcDbDictionary
280
     1
281
     1
  3
ACAD_XREC_ROUNDTRIP
360
22480
  0
DICTIONARY
  5
22481
330
9C02
100
AcDbDictionary
280
     1
281
     1
  3
ACAD_XREC_ROUNDTRIP
360
22482
  0
XRECORD
  5
1B2F4
102
{ACAD_REACTORS
330
3182
102
}
330
3182
100
AcDbXrecord
280
     1
300
ACDLT
300
2019
300
ACDLT_F_S
  0
DICTIONARY
  5
31A0
102
{ACAD_REACTORS
330
3182
102
}
330
3182
100
AcDbDictionary
281
     1
  0
DICTIONARY
  5
1B2F0
102
{ACAD_REACTORS
330
3182
102
}
330
3182
100
AcDbDictionary
281
     1
  3
Imperial24
350
20CB3
  3
Metric50
350
1B2F1
  0
FIELDLIST
  5
20CBF
102
{ACAD_REACTORS
330
3182
102
}
330
3182
100
AcDbIdSet
 90
        0
100
AcDbFieldList
  0
DICTIONARY
  5
3183
102
{ACAD_REACTORS
330
3182
102
}
330
3182
100
AcDbDictionary
281
     1
  0
DICTIONARY
  5
31A5
102
{ACAD_REACTORS
330
3182
102
}
330
3182
100
AcDbDictionary
281
     1
  3
Layout1
350
31A7
  3
Model
350
31A6
  0
DICTIONARY
  5
318B
102
{ACAD_REACTORS
330
3182
102
}
330
3182
100
AcDbDictionary
281
     1
  3
ByBlock
350
318D
  3
ByLayer
350
318C
  3
Global
350
318E
  0
DICTIONARY
  5
1B221
102
{ACAD_REACTORS
330
3182
102
}
330
3182
100
AcDbDictionary
281
     1
  3
Standard
350
1B2ED
  0
DICTIONARY
  5
3184
102
{ACAD_REACTORS
330
3182
102
}
330
3182
100
AcDbDictionary
281
     1
  3
STANDARD
350
3185
  0
DICTIONARY
  5
31A4
102
{ACAD_REACTORS
330
3182
102
}
330
3182
100
AcDbDictionary
281
     1
  0
ACDBDICTIONARYWDFLT
  5
3189
102
{ACAD_REACTORS
330
3182
102
}
330
3182
100
AcDbDictionary
281
     1
  3
Normal
350
318A
100
AcDbDictionaryWithDefault
340
318A
  0
DICTIONARY
  5
1B1FC
102
{ACAD_REACTORS
330
3182
102
}
330
3182
100
AcDbDictionary
281
     1
  3
A0
350
1B1FD
  3
A1
350
1B1FE
  3
A2
350
1B1FF
  3
A3
350
1B200
  3
A4
350
1B201
  3
A5
350
1B202
  3
A6
350
1B203
  3
A7
350
1B204
  3
A8
350
1B205
  3
A9
350
1B206
  3
B0
350
1B207
  3
B1
350
1B208
  3
B2
350
1B209
  3
B3
350
1B20A
  3
B4
350
1B20B
  3
B5
350
1B20C
  3
B6
350
1B20D
  3
B7
350
1B20E
  3
B8
350
1B20F
  3
B9
350
1B210
  3
C0
350
1B211
  3
C1
350
1B212
  3
C2
350
1B213
  3
C3
350
1B214
  3
C4
350
1B215
  3
C5
350
1B216
  3
C6
350
1B217
  3
C7
350
1B218
  3
C8
350
1B219
  3
C9
350
1B21A
  3
D0
350
1B21B
  3
D1
350
1B21C
  3
D2
350
1B21D
  0
DICTIONARY
  5
1B2EE
102
{ACAD_REACTORS
330
3182
102
}
330
3182
100
AcDbDictionary
281
     1
  3
Imperial24
350
20CB1
  3
Metric50
350
1B2EF
  0
DICTIONARY
  5
31A1
102
{ACAD_REACTORS
330
3182
102
}
330
3182
100
AcDbDictionary
281
     1
  3
Standard
350
31A2
  0
DICTIONARY
  5
318F
102
{ACAD_REACTORS
330
3182
102
}
330
3182
100
AcDbDictionary
281
     1
  3
2dWireframe
350
3195
  3
3D Hidden
350
3197
  3
3dWireframe
350
3196
  3
Basic
350
3194
  3
Brighten
350
319B
  3
ColorChange
350
319F
  3
Conceptual
350
3198
  3
Dim
350
319A
  3
EdgeColorOff
350
1B2EC
  3
Facepattern
350
319E
  3
Flat
350
3190
  3
FlatWithEdges
350
3191
  3
Gouraud
350
3192
  3
GouraudWithEdges
350
3193
  3
Hidden
350
1B2E4
  3
JitterOff
350
1B2EA
  3
Linepattern
350
319D
  3
OverhangOff
350
1B2EB
  3
Realistic
350
3199
  3
Shaded
350
1B2E9
  3
Shaded with edges
350
1B2E8
  3
Shades of Gray
350
1B2E5
  3
Sketchy
350
1B2E6
  3
Thicken
350
319C
  3
Wireframe
350
1B2E3
  3
X-Ray
350
1B2E7
  0
XRECORD
  5
22458
102
{ACAD_REACTORS
330
3182
102
}
330
3182
100
AcDbXrecord
280
     1
 90
        1
330
31A2
  0
DICTIONARY
  5
33A3
102
{ACAD_REACTORS
330
3182
102
}
330
3182
100
AcDbDictionary
281
     1
  3
CANNOSCALE
350
1B222
  3
CMLEADERSTYLE
350
1B30F
  3
CTABLESTYLE
350
33A4
  3
CVIEWDETAILSTYLE
350
1B310
  3
CVIEWSECTIONSTYLE
350
1B311
  3
DIMASSOC
350
9BE8
  3
INDEXCTL
350
9BE7
  3
LAYEREVAL
350
20993
  3
LAYERNOTIFY
350
20994
  3
LIGHTINGUNITS
350
20992
  3
LOFTANG1
350
22453
  3
LOFTANG2
350
22454
  3
LONGITUDE
350
22455
  3
MSLTSCALE
350
20991
  3
SORTENTS
350
9BE6
  3
XCLIPFRAME
350
22456
  0
XRECORD
  5
22459
102
{ACAD_REACTORS
330
3182
102
}
330
3182
100
AcDbXrecord
280
     1
  1
DWGPROPS COOKIE
  2

  3

  4

  6

  7

  8
ruebsamenm
  9

300
=
301
=
302
=
303
=
304
=
305
=
306
=
307
=
308
=
309
=
 40
0.0344992013888889
 41
2458446.363553241
 42
2458936.494791667
  1

 90
        0
  0
DICTIONARY
  5
1B063
102
{ACAD_REACTORS
330
422A
102
}
330
422A
100
AcDbDictionary
281
     1
  0
DICTIONARY
  5
9A1C
102
{ACAD_REACTORS
330
422A
102
}
330
422A
100
AcDbDictionary
281
     1
  0
DICTIONARY
  5
1B062
102
{ACAD_REACTORS
330
422A
102
}
330
422A
100
AcDbDictionary
281
     1
1001
ACAD
1000
<All
  0
XRECORD
  5
21B8E
102
{ACAD_REACTORS
330
1B2F5
102
}
330
1B2F5
100
AcDbXrecord
280
     1
290
     1
  0
XRECORD
  5
21B8F
102
{ACAD_REACTORS
330
1B2F7
102
}
330
1B2F7
100
AcDbXrecord
280
     1
290
     1
  0
XRECORD
  5
21B90
102
{ACAD_REACTORS
330
1B2F9
102
}
330
1B2F9
100
AcDbXrecord
280
     1
290
     1
  0
XRECORD
  5
21B91
102
{ACAD_REACTORS
330
1B2FB
102
}
330
1B2FB
100
AcDbXrecord
280
     1
290
     1
  0
XRECORD
  5
21B92
102
{ACAD_REACTORS
330
1B2FD
102
}
330
1B2FD
100
AcDbXrecord
280
     1
290
     1
  0
XRECORD
  5
21B93
102
{ACAD_REACTORS
330
1B2FF
102
}
330
1B2FF
100
AcDbXrecord
280
     1
290
     1
  0
XRECORD
  5
21B94
102
{ACAD_REACTORS
330
1B301
102
}
330
1B301
100
AcDbXrecord
280
     1
290
     1
  0
XRECORD
  5
21B95
102
{ACAD_REACTORS
330
1B303
102
}
330
1B303
100
AcDbXrecord
280
     1
290
     1
  0
XRECORD
  5
21B96
102
{ACAD_REACTORS
330
1B305
102
}
330
1B305
100
AcDbXrecord
280
     1
290
     1
  0
XRECORD
  5
21B97
102
{ACAD_REACTORS
330
1B307
102
}
330
1B307
100
AcDbXrecord
280
     1
290
     1
  0
XRECORD
  5
21B98
102
{ACAD_REACTORS
330
1B309
102
}
330
1B309
100
AcDbXrecord
280
     1
290
     1
  0
XRECORD
  5
21B99
102
{ACAD_REACTORS
330
20A84
102
}
330
20A84
100
AcDbXrecord
280
     1
290
     1
  0
SORTENTSTABLE
  5
339D
102
{ACAD_REACTORS
330
339C
102
}
330
339C
100
AcDbSortentsTable
330
1F
331
220CD
  5
220DD
331
220CE
  5
220DE
331
220CF
  5
220DF
331
220D0
  5
220E0
331
220D1
  5
220E1
331
220D2
  5
220E2
331
220D3
  5
220E3
331
220D4
  5
220E4
331
220D5
  5
220E5
331
220D6
  5
220E6
331
220D7
  5
220E7
331
220D8
  5
220E8
331
220D9
  5
220E9
331
220DA
  5
220EA
331
220DB
  5
220EB
331
220DC
  5
220EC
331
220DD
  5
220ED
331
220DE
  5
220EE
331
220DF
  5
220EF
331
220E0
  5
220F0
331
220E1
  5
220F1
331
220E2
  5
220F2
331
220E3
  5
220F3
331
220E4
  5
220F4
331
220E5
  5
220F5
331
220E6
  5
220F6
331
220E7
  5
220F7
331
220E8
  5
220F8
331
220EA
  5
220FA
331
220EB
  5
220FB
331
220ED
  5
220FD
331
220EE
  5
220FE
331
220EF
  5
220FF
331
220F0
  5
22100
331
220F1
  5
22101
331
220F2
  5
22102
331
220F3
  5
22103
331
220F4
  5
22104
331
220F5
  5
22105
331
220F6
  5
22106
331
220F7
  5
22107
331
220F8
  5
22108
331
220F9
  5
22109
331
220FA
  5
2210A
331
220FB
  5
2210B
331
220FC
  5
2210C
331
220FD
  5
2210D
331
220FE
  5
2210E
331
220FF
  5
2210F
331
22100
  5
22110
331
22101
  5
22111
331
22102
  5
22112
331
22103
  5
22113
331
22104
  5
22114
331
22105
  5
22115
331
22106
  5
22116
331
22107
  5
22117
331
22108
  5
22118
331
22109
  5
22119
331
2210A
  5
2211A
331
2210B
  5
2211B
331
2210C
  5
2211C
331
2210D
  5
2211D
331
2210E
  5
2211E
331
2210F
  5
2211F
331
22110
  5
22120
331
22111
  5
22121
331
22112
  5
22122
331
22113
  5
22123
331
22114
  5
22124
331
22115
  5
22125
331
22116
  5
22126
331
22117
  5
22127
331
22118
  5
22128
331
22119
  5
22129
331
2211A
  5
2212A
331
2211B
  5
2212B
331
2211C
  5
2212C
331
2211D
  5
2212D
331
2211E
  5
2212E
331
2211F
  5
2212F
331
22120
  5
22130
331
22121
  5
22131
331
22122
  5
22132
331
22123
  5
22133
331
22124
  5
22134
331
22125
  5
22135
331
22126
  5
22136
331
22127
  5
22137
331
22128
  5
22138
331
22129
  5
22139
331
2212A
  5
2213A
331
2212B
  5
2213B
331
2212C
  5
2213C
331
2212D
  5
2213D
331
2212E
  5
2213E
331
2212F
  5
2213F
331
22130
  5
22140
331
22131
  5
22141
331
22132
  5
22142
331
22133
  5
22143
331
22134
  5
22144
331
22135
  5
22145
331
22136
  5
22146
331
22137
  5
22147
331
22138
  5
22148
331
22139
  5
22149
331
2213A
  5
2214A
331
2213B
  5
2214B
331
2213C
  5
2214C
331
2213D
  5
2214D
331
2213E
  5
2214E
331
2213F
  5
2214F
331
22140
  5
22150
331
22141
  5
22151
331
22142
  5
22152
331
22143
  5
22153
331
22144
  5
22154
331
22145
  5
22155
331
22146
  5
22156
331
22147
  5
22157
331
22148
  5
22158
331
22149
  5
22159
331
2214A
  5
2215A
331
2214B
  5
2215B
331
2214C
  5
2215C
331
2214D
  5
2215D
331
2214E
  5
2215E
331
2214F
  5
2215F
331
22150
  5
22160
331
22151
  5
22161
331
22152
  5
22162
331
22153
  5
22163
331
22154
  5
22164
331
22155
  5
22165
331
22156
  5
22166
331
22157
  5
22167
331
22158
  5
22168
331
22159
  5
22169
331
2215A
  5
2216A
331
2215B
  5
2216B
331
2215C
  5
2216C
331
2215D
  5
2216D
331
2215E
  5
2216E
331
2215F
  5
2216F
331
22160
  5
22170
331
22161
  5
22171
331
22162
  5
22172
331
22163
  5
22173
331
22164
  5
22174
331
22165
  5
22175
331
22166
  5
22176
331
22167
  5
22177
331
22168
  5
22178
331
22169
  5
22179
331
2216A
  5
2217A
331
2216B
  5
2217B
331
2216C
  5
2217C
331
2216D
  5
2217D
331
2216E
  5
2217E
331
2216F
  5
2217F
331
22170
  5
22180
331
22171
  5
22181
331
22172
  5
22182
331
22173
  5
22183
331
22174
  5
22184
331
22175
  5
22185
331
22176
  5
22186
331
22177
  5
22187
331
22178
  5
22188
331
22179
  5
22189
331
2217A
  5
2218A
331
2217B
  5
2218B
331
2217C
  5
2218C
331
2217D
  5
2218D
331
2217E
  5
2218E
331
2217F
  5
2218F
331
22180
  5
22190
331
22181
  5
22191
331
22182
  5
22192
331
22183
  5
22193
331
22184
  5
22194
331
22185
  5
22195
331
22186
  5
22196
331
22187
  5
22197
331
22188
  5
22198
331
22189
  5
22199
331
2218A
  5
2219A
331
2218B
  5
2219B
331
2218C
  5
2219C
331
2218D
  5
2219D
331
2218E
  5
2219E
331
2218F
  5
2219F
331
22190
  5
221A0
331
22191
  5
221A1
331
22192
  5
221A2
331
22193
  5
221A3
331
22194
  5
221A4
331
22195
  5
221A5
331
22196
  5
221A6
331
22197
  5
221A7
331
22198
  5
221A8
331
22199
  5
221A9
331
2219A
  5
221AA
331
2219B
  5
221AB
331
2219C
  5
221AC
331
2219D
  5
221AD
331
2219E
  5
221AE
331
2219F
  5
221AF
331
221A0
  5
221B0
331
221A1
  5
221B1
331
221A2
  5
221B2
331
221A3
  5
221B3
331
221A4
  5
221B4
331
221A5
  5
221B5
331
221A6
  5
221B6
331
221A7
  5
221B7
331
221A8
  5
221B8
331
221A9
  5
221B9
331
221AA
  5
221BA
331
221AB
  5
221BB
331
221AC
  5
221BC
331
221AD
  5
221BD
331
221AE
  5
221BE
331
221AF
  5
221BF
331
221B0
  5
221C0
331
221B1
  5
221C1
331
221B2
  5
221C2
331
221B3
  5
221C3
331
221B4
  5
221C4
331
221B5
  5
221C5
331
221B6
  5
221C6
331
221B7
  5
221C7
331
221B8
  5
221C8
331
221B9
  5
221C9
331
221BA
  5
221CA
331
221BB
  5
221CB
331
221BC
  5
221CC
331
221BD
  5
221CD
331
221BE
  5
221CE
331
221BF
  5
221CF
331
221C0
  5
221D0
331
221C1
  5
221D1
331
221C2
  5
221D2
331
221C3
  5
221D3
331
221C4
  5
221D4
331
221C5
  5
221D5
331
221C6
  5
221D6
331
221C7
  5
221D7
331
221C8
  5
221D8
331
221C9
  5
221D9
331
221CA
  5
221DA
331
221CB
  5
221DB
331
221CC
  5
221DC
331
221CD
  5
221DD
331
221CE
  5
221DE
331
221CF
  5
221DF
331
221D0
  5
221E0
331
221D2
  5
221E2
331
221D3
  5
221E3
331
221D4
  5
221E4
331
221D5
  5
221E5
331
221D6
  5
221E6
331
221D7
  5
221E7
331
221D8
  5
221E8
331
221D9
  5
221E9
331
221DA
  5
221EA
331
221DB
  5
221EB
331
221DD
  5
221ED
331
221DF
  5
221EF
331
221E0
  5
221F0
331
221E1
  5
221F1
331
221E2
  5
221F2
331
221E3
  5
221F3
331
221E4
  5
221F4
331
221E5
  5
221F5
331
221E6
  5
221F6
331
221E7
  5
221F7
331
221E8
  5
221F8
331
221E9
  5
221F9
331
221EA
  5
221FA
331
221EB
  5
221FB
331
221EC
  5
221FC
331
221ED
  5
221FD
331
221EE
  5
221FE
331
221EF
  5
221FF
331
221F0
  5
22200
331
221F1
  5
22201
331
221F3
  5
22203
331
221F4
  5
22204
331
221F5
  5
22205
331
221F6
  5
22206
331
221F7
  5
22207
331
221F9
  5
22209
331
221FA
  5
2220A
331
221FB
  5
2220B
331
221FC
  5
2220C
331
221FD
  5
2220D
331
221FE
  5
2220E
331
221FF
  5
2220F
331
22200
  5
22210
331
22201
  5
22211
331
22202
  5
22212
331
22203
  5
22213
331
22204
  5
22214
331
22205
  5
22215
331
22206
  5
22216
331
22207
  5
22217
331
22208
  5
22218
331
22209
  5
22219
331
2220A
  5
2221A
331
2220B
  5
2221B
331
2220C
  5
2221C
331
2220D
  5
2221D
331
2220E
  5
2221E
331
2220F
  5
2221F
331
22210
  5
22220
331
22211
  5
22221
331
22212
  5
22222
331
22213
  5
22223
331
22214
  5
22224
331
22215
  5
22225
331
22216
  5
22226
331
22217
  5
22227
331
22218
  5
22228
331
22219
  5
22229
331
2221A
  5
2222A
331
2221B
  5
2222B
331
2221C
  5
2222C
331
2221D
  5
22242
331
2221E
  5
22243
331
2221F
  5
22244
331
22220
  5
22245
331
22221
  5
22246
331
22222
  5
22247
331
22223
  5
22248
331
22224
  5
22249
331
22225
  5
2224A
331
22226
  5
2224B
331
22227
  5
2224C
331
22228
  5
2224D
331
22229
  5
2224E
331
2222A
  5
2224F
331
2222B
  5
22250
331
2222C
  5
22251
331
22443
  5
2243C
  0
DICTIONARY
  5
2249B
102
{ACAD_REACTORS
330
1DE81
102
}
330
1DE81
100
AcDbDictionary
280
     1
281
     1
  3
Edit
360
2249C
  0
XRECORD
  5
22480
102
{ACAD_REACTORS
330
2247F
102
}
330
2247F
100
AcDbXrecord
280
     1
102
SHADEPLOT
 70
     0
  0
XRECORD
  5
22482
102
{ACAD_REACTORS
330
22481
102
}
330
22481
100
AcDbXrecord
280
     1
102
SHADEPLOT
 70
     0
  0
ACDBDETAILVIEWSTYLE
  5
20CB3
102
{ACAD_XDICTIONARY
360
2249F
102
}
102
{ACAD_REACTORS
330
1B2F0
102
}
330
1B2F0
100
AcDbModelDocViewStyle
 70
     0
  3
Imperial24
290
     0
100
AcDbDetailViewStyle
 70
     0
 71
     0
 90
        3
 71
     1
340
11
 40
0.24
340
0
 40
0.24
300

 40
0.36
280
     3
 71
     2
340
16
 90
       25
 71
     3
340
11
 40
0.24
 90
        1
 40
0.75
 90
        1
300
%<\AcVar ViewType \f "%tc1">% %<\AcVar ViewDetailId>%\PVARIA %<\AcVar ViewScale \f "%sn">%
 71
     4
340
16
 90
       25
340
16
 90
       25
280
     0
  0
ACDBDETAILVIEWSTYLE
  5
1B2F1
102
{ACAD_XDICTIONARY
360
22499
102
}
102
{ACAD_REACTORS
330
1B2F0
102
}
330
1B2F0
100
AcDbModelDocViewStyle
 70
     0
  3
Metric50
290
     0
100
AcDbDetailViewStyle
 70
     0
 71
     0
 90
        3
 71
     1
340
11
 40
5.0
340
0
 40
5.0
300

 40
0.0
280
     1
 71
     2
340
16
 90
       25
 71
     3
340
11
 40
5.0
 90
        0
 40
15.0
 90
        1
300
%<\AcVar ViewDetailId>% (%<\AcVar ViewScale \f "%sn">%)
 71
     4
340
16
 90
       25
340
16
 90
       25
280
     0
  0
LAYOUT
  5
31A7
102
{ACAD_XDICTIONARY
360
2247D
102
}
102
{ACAD_REACTORS
330
31A5
102
}
330
31A5
100
AcDbPlotSettings
  1

  2
\\ingdc01\ITB3
  4
A4
  6

 40
6.805083274841307
 41
5.027085781097412
 42
6.805068969726562
 43
5.027069091796875
 44
209.9733276367186
 45
296.9683227539062
 46
0.0
 47
0.0
 48
0.0
 49
0.0
140
0.0
141
0.0
142
1.0
143
1.0
 70
   688
 72
     1
 73
     1
 74
     5
  7

 75
    16
147
1.0
148
0.0
149
0.0
100
AcDbLayout
  1
Layout1
 70
     1
 71
     1
 10
-5.027069091796875
 20
-6.805083274841307
 11
291.9412536621094
 21
203.1682443618775
 12
0.0
 22
0.0
 32
0.0
 14
28.69141678810127
 24
19.6363175392151
 34
0.0
 15
258.2227510929107
 25
176.7268578529358
 35
0.0
146
0.0
 13
0.0
 23
0.0
 33
0.0
 16
1.0
 26
0.0
 36
0.0
 17
0.0
 27
1.0
 37
0.0
 76
     0
330
1B
331
9C00
1001
ACAD_PSEXT
1000
\\ingdc01\ITB3
1000
HP LaserJet 5000 Series PCL
1000
TB
1000

1070
     0
  0
LAYOUT
  5
31A6
102
{ACAD_XDICTIONARY
360
2247B
102
}
102
{ACAD_REACTORS
330
31A5
102
}
330
31A5
100
AcDbPlotSettings
  1

  2
\\ingdc01\ITB3
  4
A4
  6

 40
6.805083274841307
 41
5.027085781097412
 42
6.805068969726562
 43
5.027069091796875
 44
209.9733276367186
 45
296.9683227539062
 46
0.0
 47
0.0
 48
0.0
 49
0.0
140
0.0
141
0.0
142
1.0
143
1.500313223655698
 70
 11952
 72
     1
 73
     1
 74
     0
  7

 75
     0
147
0.6665274852163048
148
239.0155119930048
149
102.2558208723354
100
AcDbLayout
  1
Model
 70
     1
 71
     0
 10
0.0
 20
0.0
 11
12.0
 21
9.0
 12
0.0
 22
0.0
 32
0.0
 14
0.0
 24
0.0
 34
0.0
 15
0.0
 25
0.0
 35
0.0
146
0.0
 13
0.0
 23
0.0
 33
0.0
 16
1.0
 26
0.0
 36
0.0
 17
0.0
 27
1.0
 37
0.0
 76
     0
330
1F
331
1F4
1001
ACAD_PSEXT
1000
\\ingdc01\ITB3
1000
HP LaserJet 5000 Series PCL
1000
TB
1000

1070
     0
  0
MATERIAL
  5
318D
102
{ACAD_XDICTIONARY
360
1B22B
102
}
102
{ACAD_REACTORS
330
318B
102
}
330
318B
100
AcDbMaterial
  1
ByBlock
  0
MATERIAL
  5
318C
102
{ACAD_XDICTIONARY
360
1B22D
102
}
102
{ACAD_REACTORS
330
318B
102
}
330
318B
100
AcDbMaterial
  1
ByLayer
  0
MATERIAL
  5
318E
102
{ACAD_XDICTIONARY
360
1B22F
102
}
102
{ACAD_REACTORS
330
318B
102
}
330
318B
100
AcDbMaterial
  1
Global
  0
MLEADERSTYLE
  5
1B2ED
102
{ACAD_REACTORS
330
1B221
102
}
330
1B221
100
AcDbMLeaderStyle
170
     2
171
     1
172
     0
 90
        2
 40
0.0
 41
0.0
173
     1
 91
-1056964608
340
14
 92
       -2
290
     1
 42
2.0
291
     1
 43
0.36
  3
Standard
 44
4.0
300

342
11
174
     1
178
     6
175
     1
176
     0
 93
-1056964608
 45
4.0
292
     0
297
     0
 46
4.0
 94
-1056964608
 47
1.0
 49
1.0
140
1.0
293
     1
141
0.0
294
     1
177
     0
142
1.0
295
     0
296
     0
143
0.125
1001
ACAD_MLEADERVER
1070
     2
  0
MLINESTYLE
  5
3185
102
{ACAD_REACTORS
330
3184
102
}
330
3184
100
AcDbMlineStyle
  2
STANDARD
 70
     0
  3

 62
   256
 51
90.0
 52
90.0
 71
     2
 49
0.5
 62
   256
  6
BYLAYER
 49
-0.5
 62
   256
  6
BYLAYER
  0
ACDBPLACEHOLDER
  5
318A
102
{ACAD_REACTORS
330
3189
102
}
330
3189
  0
SCALE
  5
1B1FD
102
{ACAD_REACTORS
330
1B1FC
102
}
330
1B1FC
100
AcDbScale
 70
     0
300
1:1
140
1.0
141
1.0
290
     1
1001
ACAD
1000
AcRTDxfName
1000
SCALE
  0
SCALE
  5
1B1FE
102
{ACAD_REACTORS
330
1B1FC
102
}
330
1B1FC
100
AcDbScale
 70
     0
300
1:2
140
1.0
141
2.0
290
     0
1001
ACAD
1000
AcRTDxfName
1000
SCALE
  0
SCALE
  5
1B1FF
102
{ACAD_REACTORS
330
1B1FC
102
}
330
1B1FC
100
AcDbScale
 70
     0
300
1:4
140
1.0
141
4.0
290
     0
1001
ACAD
1000
AcRTDxfName
1000
SCALE
  0
SCALE
  5
1B200
102
{ACAD_REACTORS
330
1B1FC
102
}
330
1B1FC
100
AcDbScale
 70
     0
300
1:5
140
1.0
141
5.0
290
     0
1001
ACAD
1000
AcRTDxfName
1000
SCALE
  0
SCALE
  5
1B201
102
{ACAD_REACTORS
330
1B1FC
102
}
330
1B1FC
100
AcDbScale
 70
     0
300
1:8
140
1.0
141
8.0
290
     0
1001
ACAD
1000
AcRTDxfName
1000
SCALE
  0
SCALE
  5
1B202
102
{ACAD_REACTORS
330
1B1FC
102
}
330
1B1FC
100
AcDbScale
 70
     0
300
1:10
140
1.0
141
10.0
290
     0
1001
ACAD
1000
AcRTDxfName
1000
SCALE
  0
SCALE
  5
1B203
102
{ACAD_REACTORS
330
1B1FC
102
}
330
1B1FC
100
AcDbScale
 70
     0
300
1:16
140
1.0
141
16.0
290
     0
1001
ACAD
1000
AcRTDxfName
1000
SCALE
  0
SCALE
  5
1B204
102
{ACAD_REACTORS
330
1B1FC
102
}
330
1B1FC
100
AcDbScale
 70
     0
300
1:20
140
1.0
141
20.0
290
     0
1001
ACAD
1000
AcRTDxfName
1000
SCALE
  0
SCALE
  5
1B205
102
{ACAD_REACTORS
330
1B1FC
102
}
330
1B1FC
100
AcDbScale
 70
     0
300
1:30
140
1.0
141
30.0
290
     0
1001
ACAD
1000
AcRTDxfName
1000
SCALE
  0
SCALE
  5
1B206
102
{ACAD_REACTORS
330
1B1FC
102
}
330
1B1FC
100
AcDbScale
 70
     0
300
1:40
140
1.0
141
40.0
290
     0
1001
ACAD
1000
AcRTDxfName
1000
SCALE
  0
SCALE
  5
1B207
102
{ACAD_REACTORS
330
1B1FC
102
}
330
1B1FC
100
AcDbScale
 70
     0
300
1:50
140
1.0
141
50.0
290
     0
1001
ACAD
1000
AcRTDxfName
1000
SCALE
  0
SCALE
  5
1B208
102
{ACAD_REACTORS
330
1B1FC
102
}
330
1B1FC
100
AcDbScale
 70
     0
300
1:100
140
1.0
141
100.0
290
     0
1001
ACAD
1000
AcRTDxfName
1000
SCALE
  0
SCALE
  5
1B209
102
{ACAD_REACTORS
330
1B1FC
102
}
330
1B1FC
100
AcDbScale
 70
     0
300
2:1
140
2.0
141
1.0
290
     0
1001
ACAD
1000
AcRTDxfName
1000
SCALE
  0
SCALE
  5
1B20A
102
{ACAD_REACTORS
330
1B1FC
102
}
330
1B1FC
100
AcDbScale
 70
     0
300
4:1
140
4.0
141
1.0
290
     0
1001
ACAD
1000
AcRTDxfName
1000
SCALE
  0
SCALE
  5
1B20B
102
{ACAD_REACTORS
330
1B1FC
102
}
330
1B1FC
100
AcDbScale
 70
     0
300
8:1
140
8.0
141
1.0
290
     0
1001
ACAD
1000
AcRTDxfName
1000
SCALE
  0
SCALE
  5
1B20C
102
{ACAD_REACTORS
330
1B1FC
102
}
330
1B1FC
100
AcDbScale
 70
     0
300
10:1
140
10.0
141
1.0
290
     0
1001
ACAD
1000
AcRTDxfName
1000
SCALE
  0
SCALE
  5
1B20D
102
{ACAD_REACTORS
330
1B1FC
102
}
330
1B1FC
100
AcDbScale
 70
     0
300
100:1
140
100.0
141
1.0
290
     0
1001
ACAD
1000
AcRTDxfName
1000
SCALE
  0
SCALE
  5
1B20E
102
{ACAD_REACTORS
330
1B1FC
102
}
330
1B1FC
100
AcDbScale
 70
     0
300
1/128" = 1'-0"
140
0.0078125
141
12.0
290
     0
1001
ACAD
1000
AcRTDxfName
1000
SCALE
  0
SCALE
  5
1B20F
102
{ACAD_REACTORS
330
1B1FC
102
}
330
1B1FC
100
AcDbScale
 70
     0
300
1/64" = 1'-0"
140
0.015625
141
12.0
290
     0
1001
ACAD
1000
AcRTDxfName
1000
SCALE
  0
SCALE
  5
1B210
102
{ACAD_REACTORS
330
1B1FC
102
}
330
1B1FC
100
AcDbScale
 70
     0
300
1/32" = 1'-0"
140
0.03125
141
12.0
290
     0
1001
ACAD
1000
AcRTDxfName
1000
SCALE
  0
SCALE
  5
1B211
102
{ACAD_REACTORS
330
1B1FC
102
}
330
1B1FC
100
AcDbScale
 70
     0
300
1/16" = 1'-0"
140
0.0625
141
12.0
290
     0
1001
ACAD
1000
AcRTDxfName
1000
SCALE
  0
SCALE
  5
1B212
102
{ACAD_REACTORS
330
1B1FC
102
}
330
1B1FC
100
AcDbScale
 70
     0
300
3/32" = 1'-0"
140
0.09375
141
12.0
290
     0
1001
ACAD
1000
AcRTDxfName
1000
SCALE
  0
SCALE
  5
1B213
102
{ACAD_REACTORS
330
1B1FC
102
}
330
1B1FC
100
AcDbScale
 70
     0
300
1/8" = 1'-0"
140
0.125
141
12.0
290
     0
1001
ACAD
1000
AcRTDxfName
1000
SCALE
  0
SCALE
  5
1B214
102
{ACAD_REACTORS
330
1B1FC
102
}
330
1B1FC
100
AcDbScale
 70
     0
300
3/16" = 1'-0"
140
0.1875
141
12.0
290
     0
1001
ACAD
1000
AcRTDxfName
1000
SCALE
  0
SCALE
  5
1B215
102
{ACAD_REACTORS
330
1B1FC
102
}
330
1B1FC
100
AcDbScale
 70
     0
300
1/4" = 1'-0"
140
0.25
141
12.0
290
     0
1001
ACAD
1000
AcRTDxfName
1000
SCALE
  0
SCALE
  5
1B216
102
{ACAD_REACTORS
330
1B1FC
102
}
330
1B1FC
100
AcDbScale
 70
     0
300
3/8" = 1'-0"
140
0.375
141
12.0
290
     0
1001
ACAD
1000
AcRTDxfName
1000
SCALE
  0
SCALE
  5
1B217
102
{ACAD_REACTORS
330
1B1FC
102
}
330
1B1FC
100
AcDbScale
 70
     0
300
1/2" = 1'-0"
140
0.5
141
12.0
290
     0
1001
ACAD
1000
AcRTDxfName
1000
SCALE
  0
SCALE
  5
1B218
102
{ACAD_REACTORS
330
1B1FC
102
}
330
1B1FC
100
AcDbScale
 70
     0
300
3/4" = 1'-0"
140
0.75
141
12.0
290
     0
1001
ACAD
1000
AcRTDxfName
1000
SCALE
  0
SCALE
  5
1B219
102
{ACAD_REACTORS
330
1B1FC
102
}
330
1B1FC
100
AcDbScale
 70
     0
300
1" = 1'-0"
140
1.0
141
12.0
290
     0
1001
ACAD
1000
AcRTDxfName
1000
SCALE
  0
SCALE
  5
1B21A
102
{ACAD_REACTORS
330
1B1FC
102
}
330
1B1FC
100
AcDbScale
 70
     0
300
1-1/2" = 1'-0"
140
1.5
141
12.0
290
     0
1001
ACAD
1000
AcRTDxfName
1000
SCALE
  0
SCALE
  5
1B21B
102
{ACAD_REACTORS
330
1B1FC
102
}
330
1B1FC
100
AcDbScale
 70
     0
300
3" = 1'-0"
140
3.0
141
12.0
290
     0
1001
ACAD
1000
AcRTDxfName
1000
SCALE
  0
SCALE
  5
1B21C
102
{ACAD_REACTORS
330
1B1FC
102
}
330
1B1FC
100
AcDbScale
 70
     0
300
6" = 1'-0"
140
6.0
141
12.0
290
     0
1001
ACAD
1000
AcRTDxfName
1000
SCALE
  0
SCALE
  5
1B21D
102
{ACAD_REACTORS
330
1B1FC
102
}
330
1B1FC
100
AcDbScale
 70
     0
300
1'-0" = 1'-0"
140
12.0
141
12.0
290
     0
1001
ACAD
1000
AcRTDxfName
1000
SCALE
  0
ACDBSECTIONVIEWSTYLE
  5
20CB1
102
{ACAD_XDICTIONARY
360
2249D
102
}
102
{ACAD_REACTORS
330
1B2EE
102
}
330
1B2EE
100
AcDbModelDocViewStyle
 70
     0
  3
Imperial24
290
     0
100
AcDbSectionViewStyle
 70
     0
 71
     0
 90
       78
 71
     1
340
11
 40
0.24
340
0
340
0
 40
0.24
300
I, O, Q, S, X, Z
 40
0.48
 90
        3
 40
0.18
 90
        1
 71
     2
340
16
 90
       25
340
16
 90
       50
 40
0.24
 40
0.0
 40
0.24
 71
     3
340
11
 40
0.24
 90
        1
 40
0.75
 90
        1
300
%<\AcVar ViewType \f "%tc1">% %<\AcVar ViewSectionStartId>%-%<\AcVar ViewSectionEndId>%\PVARIA %<\AcVar ViewScale \f "%sn">%
 71
     4
300
ANSI31
 40
1.0
 90
        0
290
     0
290
     0
 90
        6
 40
0.0
 40
1.570796326794896
 40
0.2617993877991494
 40
1.308996938995747
 40
-0.2617993877991494
 40
1.832595714594044
  0
ACDBSECTIONVIEWSTYLE
  5
1B2EF
102
{ACAD_XDICTIONARY
360
22497
102
}
102
{ACAD_REACTORS
330
1B2EE
102
}
330
1B2EE
100
AcDbModelDocViewStyle
 70
     0
  3
Metric50
290
     0
100
AcDbSectionViewStyle
 70
     0
 71
     0
 90
      102
 71
     1
340
11
 40
5.0
340
0
340
0
 40
5.0
300
I, O, Q, S, X, Z
 40
10.0
 90
        0
 40
2.5
 90
        0
 71
     2
340
16
 90
       25
340
16
 90
       50
 40
5.0
 40
2.5
 40
5.0
 71
     3
340
11
 40
5.0
 90
        0
 40
15.0
 90
        1
300
%<\AcVar ViewSectionStartId>%-%<\AcVar ViewSectionEndId>% (%<\AcVar ViewScale \f "%sn">%)
 71
     4
300
ANSI31
 40
1.0
 90
        0
290
     0
290
     0
 90
        6
 40
0.0
 40
1.570796326794896
 40
0.2617993877991494
 40
1.308996938995747
 40
-0.2617993877991494
 40
1.832595714594044
  0
TABLESTYLE
  5
31A2
102
{ACAD_XDICTIONARY
360
1B314
102
}
102
{ACAD_REACTORS
330
31A1
102
}
330
31A1
100
AcDbTableStyle
  3
Standard
 70
     0
 71
     0
 40
1.5
 41
1.5
280
     0
281
     0
  7
STANDARD
140
4.5
170
     2
 62
     0
 63
     7
283
     0
274
    -2
284
     1
 64
     0
275
    -2
285
     1
 65
     0
276
    -2
286
     1
 66
     0
277
    -2
287
     1
 67
     0
278
    -2
288
     1
 68
     0
279
    -2
289
     1
 69
     0
  7
STANDARD
140
6.0
170
     5
 62
     0
 63
     7
283
     0
274
    -2
284
     1
 64
     0
275
    -2
285
     1
 65
     0
276
    -2
286
     1
 66
     0
277
    -2
287
     1
 67
     0
278
    -2
288
     1
 68
     0
279
    -2
289
     1
 69
     0
  7
STANDARD
140
4.5
170
     5
 62
     0
 63
     7
283
     0
274
    -2
284
     1
 64
     0
275
    -2
285
     1
 65
     0
276
    -2
286
     1
 66
     0
277
    -2
287
     1
 67
     0
278
    -2
288
     1
 68
     0
279
    -2
289
     1
 69
     0
  0
VISUALSTYLE
  5
3195
102
{ACAD_XDICTIONARY
360
22464
102
}
102
{ACAD_REACTORS
330
318F
102
}
330
318F
100
AcDbVisualStyle
  2

 70
     4
 71
     0
 72
     2
 73
     0
 90
        0
 40
-0.6
 41
-30.0
 62
     5
 63
     7
 74
     1
 91
        4
 64
     7
 65
   257
 75
     1
175
     1
 42
1.0
 92
        0
 66
   257
 43
1.0
 76
     1
 77
     6
 78
     2
 67
     7
 79
     5
170
     0
171
     0
290
     0
174
     0
 93
        1
 44
0.0
173
     0
291
     0
 45
0.0
1001
ACAD
1000
AcDbSavedByObjectVersion
1070
     0
  0
VISUALSTYLE
  5
3197
102
{ACAD_XDICTIONARY
360
22468
102
}
102
{ACAD_REACTORS
330
318F
102
}
330
318F
100
AcDbVisualStyle
  2

 70
     6
 71
     1
 72
     2
 73
     2
 90
        0
 40
-0.6
 41
-30.0
 62
     5
 63
     7
 74
     2
 91
        2
 64
     7
 65
   257
 75
     2
175
     1
 42
40.0
 92
        0
 66
   257
 43
1.0
 76
     1
 77
     6
 78
     2
 67
     7
 79
     3
170
     0
171
     0
290
     0
174
     0
 93
        1
 44
0.0
173
     0
291
     0
 45
0.0
1001
ACAD
1000
AcDbSavedByObjectVersion
1070
     0
  0
VISUALSTYLE
  5
3196
102
{ACAD_XDICTIONARY
360
22466
102
}
102
{ACAD_REACTORS
330
318F
102
}
330
318F
100
AcDbVisualStyle
  2

 70
     5
 71
     0
 72
     2
 73
     0
 90
        0
 40
-0.6
 41
-30.0
 62
     5
 63
     7
 74
     1
 91
        4
 64
     7
 65
   257
 75
     1
175
     1
 42
1.0
 92
        0
 66
   257
 43
1.0
 76
     1
 77
     6
 78
     2
 67
     7
 79
     5
170
     0
171
     0
290
     0
174
     0
 93
        1
 44
0.0
173
     0
291
     0
 45
0.0
1001
ACAD
1000
AcDbSavedByObjectVersion
1070
     0
  0
VISUALSTYLE
  5
3194
102
{ACAD_XDICTIONARY
360
22462
102
}
102
{ACAD_REACTORS
330
318F
102
}
330
318F
100
AcDbVisualStyle
  2

 70
     7
 71
     1
 72
     0
 73
     1
 90
        0
 40
-0.6
 41
-30.0
 62
     5
 63
     7
 74
     0
 91
        4
 64
     7
 65
   257
 75
     1
175
     1
 42
1.0
 92
        8
 66
     7
 43
1.0
 76
     1
 77
     6
 78
     2
 67
     7
 79
     5
170
     0
171
     0
290
     0
174
     0
 93
        1
 44
0.0
173
     0
291
     1
 45
0.0
1001
ACAD
1000
AcDbSavedByObjectVersion
1070
     0
  0
VISUALSTYLE
  5
319B
102
{ACAD_XDICTIONARY
360
22470
102
}
102
{ACAD_REACTORS
330
318F
102
}
330
318F
100
AcDbVisualStyle
  2

 70
    12
 71
     2
 72
     2
 73
     0
 90
        0
 40
-0.6
 41
-30.0
 62
     5
 63
     7
 74
     1
 91
        4
 64
     7
 65
   257
 75
     1
175
     1
 42
1.0
 92
        8
 66
     7
 43
1.0
 76
     1
 77
     6
 78
     2
 67
     7
 79
     5
170
     0
171
     0
290
     0
174
     0
 93
        1
 44
50.0
173
     0
291
     1
 45
0.0
1001
ACAD
1000
AcDbSavedByObjectVersion
1070
     0
  0
VISUALSTYLE
  5
319F
102
{ACAD_XDICTIONARY
360
22478
102
}
102
{ACAD_REACTORS
330
318F
102
}
330
318F
100
AcDbVisualStyle
  2

 70
    16
 71
     2
 72
     2
 73
     3
 90
        0
 40
-0.6
 41
-30.0
 62
     5
 63
     8
 74
     1
 91
        4
 64
     7
 65
   257
 75
     1
175
     1
 42
1.0
 92
        8
 66
     8
 43
1.0
 76
     1
 77
     6
 78
     2
 67
     7
 79
     5
170
     0
171
     0
290
     0
174
     0
 93
        1
 44
0.0
173
     0
291
     1
 45
0.0
1001
ACAD
1000
AcDbSavedByObjectVersion
1070
     0
  0
VISUALSTYLE
  5
3198
102
{ACAD_XDICTIONARY
360
2246A
102
}
102
{ACAD_REACTORS
330
318F
102
}
330
318F
100
AcDbVisualStyle
  2

 70
     9
 71
     3
 72
     2
 73
     0
 90
        0
 40
-0.6
 41
-30.0
 62
     5
 63
     7
 74
     2
 91
        2
 64
     7
 65
   257
 75
     1
175
     1
 42
40.0
 92
        8
 66
     7
 43
1.0
 76
     1
 77
     6
 78
     2
 67
     7
 79
     3
170
     0
171
     0
290
     0
174
     0
 93
        1
 44
0.0
173
     0
291
     0
 45
0.0
1001
ACAD
1000
AcDbSavedByObjectVersion
1070
     0
  0
VISUALSTYLE
  5
319A
102
{ACAD_XDICTIONARY
360
2246E
102
}
102
{ACAD_REACTORS
330
318F
102
}
330
318F
100
AcDbVisualStyle
  2

 70
    11
 71
     2
 72
     2
 73
     0
 90
        0
 40
-0.6
 41
-30.0
 62
     5
 63
     7
 74
     1
 91
        4
 64
     7
 65
   257
 75
     1
175
     1
 42
1.0
 92
        8
 66
     7
 43
1.0
 76
     1
 77
     6
 78
     2
 67
     7
 79
     5
170
     0
171
     0
290
     0
174
     0
 93
        1
 44
-50.0
173
     0
291
     1
 45
0.0
1001
ACAD
1000
AcDbSavedByObjectVersion
1070
     0
  0
VISUALSTYLE
  5
1B2EC
102
{ACAD_XDICTIONARY
360
22495
102
}
102
{ACAD_REACTORS
330
318F
102
}
330
318F
100
AcDbVisualStyle
  2

 70
    22
 71
     2
 72
     2
 73
     0
 90
        0
 40
-0.6
 41
-30.0
 62
     5
 63
     7
 74
     1
 91
        4
 64
     7
 65
   257
 75
     1
175
     1
 42
1.0
 92
        8
 66
     7
 43
1.0
 76
     1
 77
     6
 78
     2
 67
     7
 79
     5
170
     0
171
     0
290
     0
174
     0
 93
        1
 44
0.0
173
     0
291
     1
 45
0.0
1001
ACAD
1000
AcDbSavedByObjectVersion
1070
     0
  0
VISUALSTYLE
  5
319E
102
{ACAD_XDICTIONARY
360
22476
102
}
102
{ACAD_REACTORS
330
318F
102
}
330
318F
100
AcDbVisualStyle
  2

 70
    15
 71
     2
 72
     2
 73
     0
 90
        0
 40
-0.6
 41
-30.0
 62
     5
 63
     7
 74
     1
 91
        4
 64
     7
 65
   257
 75
     1
175
     1
 42
1.0
 92
        8
 66
     7
 43
1.0
 76
     1
 77
     6
 78
     2
 67
     7
 79
     5
170
     0
171
     0
290
     0
174
     0
 93
        1
 44
0.0
173
     0
291
     1
 45
0.0
1001
ACAD
1000
AcDbSavedByObjectVersion
1070
     0
  0
VISUALSTYLE
  5
3190
102
{ACAD_XDICTIONARY
360
2245A
102
}
102
{ACAD_REACTORS
330
318F
102
}
330
318F
100
AcDbVisualStyle
  2

 70
     0
 71
     2
 72
     1
 73
     1
 90
        2
 40
-0.6
 41
30.0
 62
     5
 63
     7
 74
     0
 91
        4
 64
     7
 65
   257
 75
     1
175
     1
 42
1.0
 92
        8
 66
     7
 43
1.0
 76
     1
 77
     6
 78
     2
 67
     7
 79
     5
170
     0
171
     0
290
     0
174
     0
 93
       13
 44
0.0
173
     0
291
     1
 45
0.0
1001
ACAD
1000
AcDbSavedByObjectVersion
1070
     0
  0
VISUALSTYLE
  5
3191
102
{ACAD_XDICTIONARY
360
2245C
102
}
102
{ACAD_REACTORS
330
318F
102
}
330
318F
100
AcDbVisualStyle
  2

 70
     1
 71
     2
 72
     1
 73
     1
 90
        2
 40
-0.6
 41
30.0
 62
     5
 63
     7
 74
     1
 91
        4
 64
     7
 65
   257
 75
     1
175
     1
 42
1.0
 92
        0
 66
   257
 43
1.0
 76
     1
 77
     6
 78
     2
 67
     7
 79
     5
170
     0
171
     0
290
     0
174
     0
 93
       13
 44
0.0
173
     0
291
     1
 45
0.0
1001
ACAD
1000
AcDbSavedByObjectVersion
1070
     0
  0
VISUALSTYLE
  5
3192
102
{ACAD_XDICTIONARY
360
2245E
102
}
102
{ACAD_REACTORS
330
318F
102
}
330
318F
100
AcDbVisualStyle
  2

 70
     2
 71
     2
 72
     2
 73
     1
 90
        2
 40
-0.6
 41
30.0
 62
     5
 63
     7
 74
     0
 91
        4
 64
     7
 65
   257
 75
     1
175
     1
 42
1.0
 92
        0
 66
     7
 43
1.0
 76
     1
 77
     6
 78
     2
 67
     7
 79
     5
170
     0
171
     0
290
     0
174
     0
 93
       13
 44
0.0
173
     0
291
     1
 45
0.0
1001
ACAD
1000
AcDbSavedByObjectVersion
1070
     0
  0
VISUALSTYLE
  5
3193
102
{ACAD_XDICTIONARY
360
22460
102
}
102
{ACAD_REACTORS
330
318F
102
}
330
318F
100
AcDbVisualStyle
  2

 70
     3
 71
     2
 72
     2
 73
     1
 90
        2
 40
-0.6
 41
30.0
 62
     5
 63
     7
 74
     1
 91
        4
 64
     7
 65
   257
 75
     1
175
     1
 42
1.0
 92
        0
 66
   257
 43
1.0
 76
     1
 77
     6
 78
     2
 67
     7
 79
     5
170
     0
171
     0
290
     0
174
     0
 93
       13
 44
0.0
173
     0
291
     1
 45
0.0
1001
ACAD
1000
AcDbSavedByObjectVersion
1070
     0
  0
VISUALSTYLE
  5
1B2E4
102
{ACAD_XDICTIONARY
360
22485
102
}
102
{ACAD_REACTORS
330
318F
102
}
330
318F
100
AcDbVisualStyle
  2

 70
     6
 71
     1
 72
     2
 73
     2
 90
        0
 40
-0.6
 41
-30.0
 62
     5
 63
     7
 74
     2
 91
        2
 64
     7
 65
   257
 75
     2
175
     1
 42
40.0
 92
        0
 66
   257
 43
1.0
 76
     1
 77
     6
 78
     2
 67
     7
 79
     3
170
     0
171
     0
290
     0
174
     0
 93
        1
 44
0.0
173
     0
291
     0
 45
0.0
1001
ACAD
1000
AcDbSavedByObjectVersion
1070
     0
  0
VISUALSTYLE
  5
1B2EA
102
{ACAD_XDICTIONARY
360
22491
102
}
102
{ACAD_REACTORS
330
318F
102
}
330
318F
100
AcDbVisualStyle
  2

 70
    20
 71
     2
 72
     2
 73
     0
 90
        0
 40
-0.6
 41
-30.0
 62
     5
 63
     7
 74
     1
 91
        4
 64
     7
 65
   257
 75
     1
175
     1
 42
1.0
 92
       10
 66
     7
 43
1.0
 76
     1
 77
     6
 78
     2
 67
     7
 79
     5
170
     0
171
     0
290
     0
174
     0
 93
        1
 44
0.0
173
     0
291
     1
 45
0.0
1001
ACAD
1000
AcDbSavedByObjectVersion
1070
     0
  0
VISUALSTYLE
  5
319D
102
{ACAD_XDICTIONARY
360
22474
102
}
102
{ACAD_REACTORS
330
318F
102
}
330
318F
100
AcDbVisualStyle
  2

 70
    14
 71
     2
 72
     2
 73
     0
 90
        0
 40
-0.6
 41
-30.0
 62
     5
 63
     7
 74
     1
 91
        4
 64
     7
 65
   257
 75
     7
175
     7
 42
1.0
 92
        8
 66
     7
 43
1.0
 76
     1
 77
     6
 78
     2
 67
     7
 79
     5
170
     0
171
     0
290
     0
174
     0
 93
        1
 44
0.0
173
     0
291
     1
 45
0.0
1001
ACAD
1000
AcDbSavedByObjectVersion
1070
     0
  0
VISUALSTYLE
  5
1B2EB
102
{ACAD_XDICTIONARY
360
22493
102
}
102
{ACAD_REACTORS
330
318F
102
}
330
318F
100
AcDbVisualStyle
  2

 70
    21
 71
     2
 72
     2
 73
     0
 90
        0
 40
-0.6
 41
-30.0
 62
     5
 63
     7
 74
     1
 91
        4
 64
     7
 65
   257
 75
     1
175
     1
 42
1.0
 92
        9
 66
     7
 43
1.0
 76
     1
 77
     6
 78
     2
 67
     7
 79
     5
170
     0
171
     0
290
     0
174
     0
 93
        1
 44
0.0
173
     0
291
     1
 45
0.0
1001
ACAD
1000
AcDbSavedByObjectVersion
1070
     0
  0
VISUALSTYLE
  5
3199
102
{ACAD_XDICTIONARY
360
2246C
102
}
102
{ACAD_REACTORS
330
318F
102
}
330
318F
100
AcDbVisualStyle
  2

 70
     8
 71
     2
 72
     2
 73
     0
 90
        0
 40
-0.6
 41
-30.0
 62
     5
 63
     7
 74
     1
 91
        0
 64
     7
 65
   257
 75
     1
175
     1
 42
1.0
 92
        8
 66
     8
 43
1.0
 76
     1
 77
     6
 78
     2
 67
     7
 79
     5
170
     0
171
     0
290
     0
174
     0
 93
       13
 44
0.0
173
     0
291
     0
 45
0.0
1001
ACAD
1000
AcDbSavedByObjectVersion
1070
     0
  0
VISUALSTYLE
  5
1B2E9
102
{ACAD_XDICTIONARY
360
2248F
102
}
102
{ACAD_REACTORS
330
318F
102
}
330
318F
100
AcDbVisualStyle
  2

 70
    27
 71
     2
 72
     2
 73
     1
 90
        2
 40
-0.6
 41
30.0
 62
     5
 63
     7
 74
     0
 91
        4
 64
     7
 65
   257
 75
     1
175
     1
 42
1.0
 92
        8
 66
   257
 43
1.0
 76
     1
 77
     6
 78
     2
 67
     8
 79
     3
170
     0
171
     0
290
     0
174
     0
 93
        5
 44
0.0
173
     0
291
     0
 45
0.0
1001
ACAD
1000
AcDbSavedByObjectVersion
1070
     0
  0
VISUALSTYLE
  5
1B2E8
102
{ACAD_XDICTIONARY
360
2248D
102
}
102
{ACAD_REACTORS
330
318F
102
}
330
318F
100
AcDbVisualStyle
  2

 70
    26
 71
     2
 72
     2
 73
     1
 90
        2
 40
-0.6
 41
30.0
 62
     5
 63
     7
 74
     1
 91
       10
 64
     7
 65
   257
 75
     2
175
     1
 42
1.0
 92
        8
 66
   257
 43
1.0
 76
     1
 77
     6
 78
     2
 67
     7
 79
     3
170
     0
171
     0
290
     0
174
     0
 93
        5
 44
0.0
173
     0
291
     0
 45
0.0
1001
ACAD
1000
AcDbSavedByObjectVersion
1070
     0
  0
VISUALSTYLE
  5
1B2E5
102
{ACAD_XDICTIONARY
360
22487
102
}
102
{ACAD_REACTORS
330
318F
102
}
330
318F
100
AcDbVisualStyle
  2

 70
    23
 71
     2
 72
     2
 73
     3
 90
        0
 40
-0.6
 41
-30.0
 62
     5
 63
     7
 74
     2
 91
        2
 64
     7
 65
     7
 75
     1
175
     1
 42
40.0
 92
        8
 66
     7
 43
1.0
 76
     1
 77
     6
 78
     2
 67
     7
 79
     3
170
     0
171
     0
290
     0
174
     0
 93
        1
 44
0.0
173
     0
291
     0
 45
0.0
1001
ACAD
1000
AcDbSavedByObjectVersion
1070
     0
  0
VISUALSTYLE
  5
1B2E6
102
{ACAD_XDICTIONARY
360
22489
102
}
102
{ACAD_REACTORS
330
318F
102
}
330
318F
100
AcDbVisualStyle
  2

 70
    24
 71
     1
 72
     2
 73
     2
 90
        0
 40
-0.6
 41
-30.0
 62
     5
 63
     7
 74
     2
 91
        2
 64
     7
 65
     7
 75
     1
175
     1
 42
40.0
 92
       11
 66
     7
 43
1.0
 76
     1
 77
     6
 78
     2
 67
     7
 79
     6
170
     0
171
     0
290
     0
174
     0
 93
        1
 44
0.0
173
     0
291
     0
 45
0.0
1001
ACAD
1000
AcDbSavedByObjectVersion
1070
     0
  0
VISUALSTYLE
  5
319C
102
{ACAD_XDICTIONARY
360
22472
102
}
102
{ACAD_REACTORS
330
318F
102
}
330
318F
100
AcDbVisualStyle
  2

 70
    13
 71
     2
 72
     2
 73
     0
 90
        0
 40
-0.6
 41
-30.0
 62
     5
 63
     7
 74
     1
 91
        4
 64
     7
 65
   257
 75
     1
175
     1
 42
1.0
 92
       12
 66
     7
 43
1.0
 76
     1
 77
     6
 78
     2
 67
     7
 79
     5
170
     0
171
     0
290
     0
174
     0
 93
        1
 44
0.0
173
     0
291
     1
 45
0.0
1001
ACAD
1000
AcDbSavedByObjectVersion
1070
     0
  0
VISUALSTYLE
  5
1B2E3
102
{ACAD_XDICTIONARY
360
22483
102
}
102
{ACAD_REACTORS
330
318F
102
}
330
318F
100
AcDbVisualStyle
  2

 70
     5
 71
     0
 72
     2
 73
     0
 90
        0
 40
-0.6
 41
-30.0
 62
     5
 63
     7
 74
     1
 91
        4
 64
     7
 65
   257
 75
     1
175
     1
 42
1.0
 92
        0
 66
   257
 43
1.0
 76
     1
 77
     6
 78
     2
 67
     7
 79
     3
170
     0
171
     0
290
     0
174
     0
 93
        1
 44
0.0
173
     0
291
     0
 45
0.0
1001
ACAD
1000
AcDbSavedByObjectVersion
1070
     0
  0
VISUALSTYLE
  5
1B2E7
102
{ACAD_XDICTIONARY
360
2248B
102
}
102
{ACAD_REACTORS
330
318F
102
}
330
318F
100
AcDbVisualStyle
  2

 70
    25
 71
     2
 72
     2
 73
     1
 90
        1
 40
0.5
 41
-30.0
 62
     5
 63
     7
 74
     1
 91
        0
 64
     7
 65
   257
 75
     1
175
     1
 42
1.0
 92
        8
 66
     7
 43
1.0
 76
     1
 77
     6
 78
     2
 67
     7
 79
     3
170
     0
171
     0
290
     0
174
     0
 93
       13
 44
0.0
173
     0
291
     0
 45
0.0
1001
ACAD
1000
AcDbSavedByObjectVersion
1070
     0
  0
DICTIONARYVAR
  5
1B222
102
{ACAD_REACTORS
330
33A3
102
}
330
33A3
100
DictionaryVariables
280
     0
  1
1:1
  0
DICTIONARYVAR
  5
1B30F
102
{ACAD_REACTORS
330
33A3
102
}
330
33A3
100
DictionaryVariables
280
     0
  1
STANDARD
  0
DICTIONARYVAR
  5
33A4
102
{ACAD_REACTORS
330
33A3
102
}
330
33A3
100
DictionaryVariables
280
     0
  1
STANDARD
  0
DICTIONARYVAR
  5
1B310
102
{ACAD_REACTORS
330
33A3
102
}
330
33A3
100
DictionaryVariables
280
     0
  1
Metric50
  0
DICTIONARYVAR
  5
1B311
102
{ACAD_REACTORS
330
33A3
102
}
330
33A3
100
DictionaryVariables
280
     0
  1
Metric50
  0
DICTIONARYVAR
  5
9BE8
102
{ACAD_REACTORS
330
33A3
102
}
330
33A3
100
DictionaryVariables
280
     0
  1
1
  0
DICTIONARYVAR
  5
9BE7
102
{ACAD_REACTORS
330
33A3
102
}
330
33A3
100
DictionaryVariables
280
     0
  1
0
  0
DICTIONARYVAR
  5
20993
102
{ACAD_REACTORS
330
33A3
102
}
330
33A3
100
DictionaryVariables
280
     0
  1
1
  0
DICTIONARYVAR
  5
20994
102
{ACAD_REACTORS
330
33A3
102
}
330
33A3
100
DictionaryVariables
280
     0
  1
15
  0
DICTIONARYVAR
  5
20992
102
{ACAD_REACTORS
330
33A3
102
}
330
33A3
100
DictionaryVariables
280
     0
  1
0
  0
DICTIONARYVAR
  5
22453
102
{ACAD_REACTORS
330
33A3
102
}
330
33A3
100
DictionaryVariables
280
     0
  1
1.570796
  0
DICTIONARYVAR
  5
22454
102
{ACAD_REACTORS
330
33A3
102
}
330
33A3
100
DictionaryVariables
280
     0
  1
1.570796
  0
DICTIONARYVAR
  5
22455
102
{ACAD_REACTORS
330
33A3
102
}
330
33A3
100
DictionaryVariables
280
     0
  1
-122.394000
  0
DICTIONARYVAR
  5
20991
102
{ACAD_REACTORS
330
33A3
102
}
330
33A3
100
DictionaryVariables
280
     0
  1
0
  0
DICTIONARYVAR
  5
9BE6
102
{ACAD_REACTORS
330
33A3
102
}
330
33A3
100
DictionaryVariables
280
     0
  1
127
  0
DICTIONARYVAR
  5
22456
102
{ACAD_REACTORS
330
33A3
102
}
330
33A3
100
DictionaryVariables
280
     0
  1
2
  0
XRECORD
  5
2249C
102
{ACAD_REACTORS
330
2249B
102
}
330
2249B
100
AcDbXrecord
280
     1
1070
     0
1070
     1
1070
     1
  0
DICTIONARY
  5
2249F
330
20CB3
100
AcDbDictionary
280
     1
281
     1
  3
ACAD_XREC_ROUNDTRIP
360
224A0
  0
DICTIONARY
  5
22499
330
1B2F1
100
AcDbDictionary
280
     1
281
     1
  3
ACAD_XREC_ROUNDTRIP
360
2249A
  0
DICTIONARY
  5
2247D
330
31A7
100
AcDbDictionary
280
     1
281
     1
  3
ACAD_XREC_ROUNDTRIP
360
2247E
  0
DICTIONARY
  5
2247B
330
31A6
100
AcDbDictionary
280
     1
281
     1
  3
ACAD_XREC_ROUNDTRIP
360
2247C
  0
DICTIONARY
  5
1B22B
330
318D
100
AcDbDictionary
280
     1
281
     1
  3
ACAD_XREC_ROUNDTRIP
360
1B22C
  0
DICTIONARY
  5
1B22D
330
318C
100
AcDbDictionary
280
     1
281
     1
  3
ACAD_XREC_ROUNDTRIP
360
1B22E
  0
DICTIONARY
  5
1B22F
330
318E
100
AcDbDictionary
280
     1
281
     1
  3
ACAD_XREC_ROUNDTRIP
360
1B230
  0
DICTIONARY
  5
2249D
330
20CB1
100
AcDbDictionary
280
     1
281
     1
  3
ACAD_XREC_ROUNDTRIP
360
2249E
  0
DICTIONARY
  5
22497
330
1B2EF
100
AcDbDictionary
280
     1
281
     1
  3
ACAD_XREC_ROUNDTRIP
360
22498
  0
DICTIONARY
  5
1B314
330
31A2
100
AcDbDictionary
280
     1
281
     1
  3
ACAD_ROUNDTRIP_2008_TABLESTYLE_CELLSTYLEMAP
360
22457
  3
ACAD_XREC_ROUNDTRIP
360
2247A
  0
DICTIONARY
  5
22464
330
3195
100
AcDbDictionary
280
     1
281
     1
  3
ACAD_XREC_ROUNDTRIP
360
22465
  0
DICTIONARY
  5
22468
330
3197
100
AcDbDictionary
280
     1
281
     1
  3
ACAD_XREC_ROUNDTRIP
360
22469
  0
DICTIONARY
  5
22466
330
3196
100
AcDbDictionary
280
     1
281
     1
  3
ACAD_XREC_ROUNDTRIP
360
22467
  0
DICTIONARY
  5
22462
330
3194
100
AcDbDictionary
280
     1
281
     1
  3
ACAD_XREC_ROUNDTRIP
360
22463
  0
DICTIONARY
  5
22470
330
319B
100
AcDbDictionary
280
     1
281
     1
  3
ACAD_XREC_ROUNDTRIP
360
22471
  0
DICTIONARY
  5
22478
330
319F
100
AcDbDictionary
280
     1
281
     1
  3
ACAD_XREC_ROUNDTRIP
360
22479
  0
DICTIONARY
  5
2246A
330
3198
100
AcDbDictionary
280
     1
281
     1
  3
ACAD_XREC_ROUNDTRIP
360
2246B
  0
DICTIONARY
  5
2246E
330
319A
100
AcDbDictionary
280
     1
281
     1
  3
ACAD_XREC_ROUNDTRIP
360
2246F
  0
DICTIONARY
  5
22495
330
1B2EC
100
AcDbDictionary
280
     1
281
     1
  3
ACAD_XREC_ROUNDTRIP
360
22496
  0
DICTIONARY
  5
22476
330
319E
100
AcDbDictionary
280
     1
281
     1
  3
ACAD_XREC_ROUNDTRIP
360
22477
  0
DICTIONARY
  5
2245A
330
3190
100
AcDbDictionary
280
     1
281
     1
  3
ACAD_XREC_ROUNDTRIP
360
2245B
  0
DICTIONARY
  5
2245C
330
3191
100
AcDbDictionary
280
     1
281
     1
  3
ACAD_XREC_ROUNDTRIP
360
2245D
  0
DICTIONARY
  5
2245E
330
3192
100
AcDbDictionary
280
     1
281
     1
  3
ACAD_XREC_ROUNDTRIP
360
2245F
  0
DICTIONARY
  5
22460
330
3193
100
AcDbDictionary
280
     1
281
     1
  3
ACAD_XREC_ROUNDTRIP
360
22461
  0
DICTIONARY
  5
22485
330
1B2E4
100
AcDbDictionary
280
     1
281
     1
  3
ACAD_XREC_ROUNDTRIP
360
22486
  0
DICTIONARY
  5
22491
330
1B2EA
100
AcDbDictionary
280
     1
281
     1
  3
ACAD_XREC_ROUNDTRIP
360
22492
  0
DICTIONARY
  5
22474
330
319D
100
AcDbDictionary
280
     1
281
     1
  3
ACAD_XREC_ROUNDTRIP
360
22475
  0
DICTIONARY
  5
22493
330
1B2EB
100
AcDbDictionary
280
     1
281
     1
  3
ACAD_XREC_ROUNDTRIP
360
22494
  0
DICTIONARY
  5
2246C
330
3199
100
AcDbDictionary
280
     1
281
     1
  3
ACAD_XREC_ROUNDTRIP
360
2246D
  0
DICTIONARY
  5
2248F
330
1B2E9
100
AcDbDictionary
280
     1
281
     1
  3
ACAD_XREC_ROUNDTRIP
360
22490
  0
DICTIONARY
  5
2248D
330
1B2E8
100
AcDbDictionary
280
     1
281
     1
  3
ACAD_XREC_ROUNDTRIP
360
2248E
  0
DICTIONARY
  5
22487
330
1B2E5
100
AcDbDictionary
280
     1
281
     1
  3
ACAD_XREC_ROUNDTRIP
360
22488
  0
DICTIONARY
  5
22489
330
1B2E6
100
AcDbDictionary
280
     1
281
     1
  3
ACAD_XREC_ROUNDTRIP
360
2248A
  0
DICTIONARY
  5
22472
330
319C
100
AcDbDictionary
280
     1
281
     1
  3
ACAD_XREC_ROUNDTRIP
360
22473
  0
DICTIONARY
  5
22483
330
1B2E3
100
AcDbDictionary
280
     1
281
     1
  3
ACAD_XREC_ROUNDTRIP
360
22484
  0
DICTIONARY
  5
2248B
330
1B2E7
100
AcDbDictionary
280
     1
281
     1
  3
ACAD_XREC_ROUNDTRIP
360
2248C
  0
XRECORD
  5
224A0
102
{ACAD_REACTORS
330
2249F
102
}
330
2249F
100
AcDbXrecord
280
     1
102
DISPLAYNAME
  1
Imperial24
102
FLAGS
 90
        0
  0
XRECORD
  5
2249A
102
{ACAD_REACTORS
330
22499
102
}
330
22499
100
AcDbXrecord
280
     1
102
DISPLAYNAME
  1
Metric50
102
FLAGS
 90
        0
  0
XRECORD
  5
2247E
102
{ACAD_REACTORS
330
2247D
102
}
330
2247D
100
AcDbXrecord
280
     1
102
SHADEPLOT
 70
     0
102
SHADEPLOTRESLEVEL
 70
     2
102
SHADEPLOTCUSTOMDPI
 70
   300
  0
XRECORD
  5
2247C
102
{ACAD_REACTORS
330
2247B
102
}
330
2247B
100
AcDbXrecord
280
     1
102
SHADEPLOT
 70
     0
102
SHADEPLOTRESLEVEL
 70
     2
102
SHADEPLOTCUSTOMDPI
 70
   300
  0
XRECORD
  5
1B22C
102
{ACAD_REACTORS
330
1B22B
102
}
330
1B22B
100
AcDbXrecord
280
     1
102
MATERIAL
148
0.0
149
0.0
149
0.0
 93
        0
 94
      127
282
     0
 72
     1
 77
     1
171
     1
175
     1
179
     1
273
     0
  0
XRECORD
  5
1B22E
102
{ACAD_REACTORS
330
1B22D
102
}
330
1B22D
100
AcDbXrecord
280
     1
102
MATERIAL
148
0.0
149
0.0
149
0.0
 93
        0
 94
      127
282
     0
 72
     1
 77
     1
171
     1
175
     1
179
     1
273
     0
  0
XRECORD
  5
1B230
102
{ACAD_REACTORS
330
1B22F
102
}
330
1B22F
100
AcDbXrecord
280
     1
102
MATERIAL
148
0.0
149
0.0
149
0.0
 93
        0
 94
      127
282
     0
 72
     1
 77
     1
171
     1
175
     1
179
     1
273
     0
  0
XRECORD
  5
2249E
102
{ACAD_REACTORS
330
2249D
102
}
330
2249D
100
AcDbXrecord
280
     1
102
DISPLAYNAME
  1
Imperial24
102
FLAGS
 90
        0
  0
XRECORD
  5
22498
102
{ACAD_REACTORS
330
22497
102
}
330
22497
100
AcDbXrecord
280
     1
102
DISPLAYNAME
  1
Metric50
102
FLAGS
 90
        0
  0
CELLSTYLEMAP
  5
22457
102
{ACAD_REACTORS
330
1B314
102
}
330
1B314
100
AcDbCellStyleMap
 90
        3
300
CELLSTYLE
  1
TABLEFORMAT_BEGIN
 90
        5
170
     1
 91
        0
 92
    32768
 62
   257
 93
        1
300
CONTENTFORMAT
  1
CONTENTFORMAT_BEGIN
 90
        0
 91
        0
 92
        4
 93
        0
300

 40
0.0
140
1.0
 94
        5
 62
     0
340
11
144
6.0
309
CONTENTFORMAT_END
171
     1
301
MARGIN
  1
CELLMARGIN_BEGIN
 40
1.5
 40
1.5
 40
1.5
 40
1.5
 40
0.18
 40
0.18
309
CELLMARGIN_END
 94
        6
 95
        1
302
GRIDFORMAT
  1
GRIDFORMAT_BEGIN
 90
        0
 91
        1
 62
     0
 92
       -2
340
0
 93
        0
 40
0.045
309
GRIDFORMAT_END
 95
        2
302
GRIDFORMAT
  1
GRIDFORMAT_BEGIN
 90
        0
 91
        1
 62
     0
 92
       -2
340
0
 93
        0
 40
0.045
309
GRIDFORMAT_END
 95
        4
302
GRIDFORMAT
  1
GRIDFORMAT_BEGIN
 90
        0
 91
        1
 62
     0
 92
       -2
340
0
 93
        0
 40
0.045
309
GRIDFORMAT_END
 95
        8
302
GRIDFORMAT
  1
GRIDFORMAT_BEGIN
 90
        0
 91
        1
 62
     0
 92
       -2
340
0
 93
        0
 40
0.045
309
GRIDFORMAT_END
 95
       16
302
GRIDFORMAT
  1
GRIDFORMAT_BEGIN
 90
        0
 91
        1
 62
     0
 92
       -2
340
0
 93
        0
 40
0.045
309
GRIDFORMAT_END
 95
       32
302
GRIDFORMAT
  1
GRIDFORMAT_BEGIN
 90
        0
 91
        1
 62
     0
 92
       -2
340
0
 93
        0
 40
0.045
309
GRIDFORMAT_END
309
TABLEFORMAT_END
  1
CELLSTYLE_BEGIN
 90
        1
 91
        1
300
_TITLE
309
CELLSTYLE_END
300
CELLSTYLE
  1
TABLEFORMAT_BEGIN
 90
        5
170
     1
 91
        0
 92
        0
 62
   257
 93
        1
300
CONTENTFORMAT
  1
CONTENTFORMAT_BEGIN
 90
        0
 91
        0
 92
        4
 93
        0
300

 40
0.0
140
1.0
 94
        5
 62
     0
340
11
144
4.5
309
CONTENTFORMAT_END
171
     1
301
MARGIN
  1
CELLMARGIN_BEGIN
 40
1.5
 40
1.5
 40
1.5
 40
1.5
 40
0.18
 40
0.18
309
CELLMARGIN_END
 94
        6
 95
        1
302
GRIDFORMAT
  1
GRIDFORMAT_BEGIN
 90
        0
 91
        1
 62
     0
 92
       -2
340
0
 93
        0
 40
0.045
309
GRIDFORMAT_END
 95
        2
302
GRIDFORMAT
  1
GRIDFORMAT_BEGIN
 90
        0
 91
        1
 62
     0
 92
       -2
340
0
 93
        0
 40
0.045
309
GRIDFORMAT_END
 95
        4
302
GRIDFORMAT
  1
GRIDFORMAT_BEGIN
 90
        0
 91
        1
 62
     0
 92
       -2
340
0
 93
        0
 40
0.045
309
GRIDFORMAT_END
 95
        8
302
GRIDFORMAT
  1
GRIDFORMAT_BEGIN
 90
        0
 91
        1
 62
     0
 92
       -2
340
0
 93
        0
 40
0.045
309
GRIDFORMAT_END
 95
       16
302
GRIDFORMAT
  1
GRIDFORMAT_BEGIN
 90
        0
 91
        1
 62
     0
 92
       -2
340
0
 93
        0
 40
0.045
309
GRIDFORMAT_END
 95
       32
302
GRIDFORMAT
  1
GRIDFORMAT_BEGIN
 90
        0
 91
        1
 62
     0
 92
       -2
340
0
 93
        0
 40
0.045
309
GRIDFORMAT_END
309
TABLEFORMAT_END
  1
CELLSTYLE_BEGIN
 90
        2
 91
        1
300
_HEADER
309
CELLSTYLE_END
300
CELLSTYLE
  1
TABLEFORMAT_BEGIN
 90
        5
170
     1
 91
        0
 92
        0
 62
   257
 93
        1
300
CONTENTFORMAT
  1
CONTENTFORMAT_BEGIN
 90
        0
 91
        0
 92
        4
 93
        0
300

 40
0.0
140
1.0
 94
        2
 62
     0
340
11
144
4.5
309
CONTENTFORMAT_END
171
     1
301
MARGIN
  1
CELLMARGIN_BEGIN
 40
1.5
 40
1.5
 40
1.5
 40
1.5
 40
0.18
 40
0.18
309
CELLMARGIN_END
 94
        6
 95
        1
302
GRIDFORMAT
  1
GRIDFORMAT_BEGIN
 90
        0
 91
        1
 62
     0
 92
       -2
340
0
 93
        0
 40
0.045
309
GRIDFORMAT_END
 95
        2
302
GRIDFORMAT
  1
GRIDFORMAT_BEGIN
 90
        0
 91
        1
 62
     0
 92
       -2
340
0
 93
        0
 40
0.045
309
GRIDFORMAT_END
 95
        4
302
GRIDFORMAT
  1
GRIDFORMAT_BEGIN
 90
        0
 91
        1
 62
     0
 92
       -2
340
0
 93
        0
 40
0.045
309
GRIDFORMAT_END
 95
        8
302
GRIDFORMAT
  1
GRIDFORMAT_BEGIN
 90
        0
 91
        1
 62
     0
 92
       -2
340
0
 93
        0
 40
0.045
309
GRIDFORMAT_END
 95
       16
302
GRIDFORMAT
  1
GRIDFORMAT_BEGIN
 90
        0
 91
        1
 62
     0
 92
       -2
340
0
 93
        0
 40
0.045
309
GRIDFORMAT_END
 95
       32
302
GRIDFORMAT
  1
GRIDFORMAT_BEGIN
 90
        0
 91
        1
 62
     0
 92
       -2
340
0
 93
        0
 40
0.045
309
GRIDFORMAT_END
309
TABLEFORMAT_END
  1
CELLSTYLE_BEGIN
 90
        3
 91
        2
300
_DATA
309
CELLSTYLE_END
  0
XRECORD
  5
2247A
102
{ACAD_REACTORS
330
1B314
102
}
330
1B314
100
AcDbXrecord
280
     1
102
ACAD_ROUNDTRIP_PRE2007_TABLESTYLE
 90
        4
 91
        0
  1

 92
        4
 93
        0
  2

 94
        4
 95
        0
  3

  0
XRECORD
  5
22465
102
{ACAD_REACTORS
330
22464
102
}
330
22464
100
AcDbXrecord
280
     1
102
RTVSPost2010Prop28
280
     1
102
RTVSPost2010PropOp28
 70
     1
102
RTVSPost2010Prop29
280
     1
102
RTVSPost2010PropOp29
 70
     1
102
RTVSPost2010Prop30
280
     0
102
RTVSPost2010PropOp30
 70
     1
102
RTVSPost2010Prop31
280
     0
102
RTVSPost2010PropOp31
 70
     1
102
RTVSPost2010Prop32
280
     0
102
RTVSPost2010PropOp32
 70
     1
102
RTVSPost2010Prop33
280
     0
102
RTVSPost2010PropOp33
 70
     1
102
RTVSPost2010Prop34
280
     0
102
RTVSPost2010PropOp34
 70
     1
102
RTVSPost2010Prop35
280
     0
102
RTVSPost2010PropOp35
 70
     1
102
RTVSPost2010Prop36
280
     0
102
RTVSPost2010PropOp36
 70
     1
102
RTVSPost2010Prop37
 90
       50
102
RTVSPost2010PropOp37
 70
     1
102
RTVSPost2010Prop38
140
0.0
102
RTVSPost2010PropOp38
 70
     1
102
RTVSPost2010Prop39
140
1.0
102
RTVSPost2010PropOp39
 70
     1
102
RTVSPost2010Prop40
 90
        0
102
RTVSPost2010PropOp40
 70
     1
102
RTVSPost2010Prop41ColorIndex
 90
       18
102
RTVSPost2010Prop41ColorRGB
 90
        0
102
RTVSPost2010PropOp41
 70
     1
102
RTVSPost2010Prop42
 90
       50
102
RTVSPost2010PropOp42
 70
     1
102
RTVSPost2010Prop43
 90
        3
102
RTVSPost2010PropOp43
 70
     1
102
RTVSPost2010Prop44ColorIndex
 90
        5
102
RTVSPost2010Prop44ColorRGB
 90
      255
102
RTVSPost2010PropOp44
 70
     1
102
RTVSPost2010Prop45
280
     0
102
RTVSPost2010PropOp45
 70
     1
102
RTVSPost2010Prop46
 90
       50
102
RTVSPost2010PropOp46
 70
     1
102
RTVSPost2010Prop47
 90
       50
102
RTVSPost2010PropOp47
 70
     1
102
RTVSPost2010Prop48
 90
       50
102
RTVSPost2010PropOp48
 70
     1
102
RTVSPost2010Prop49
280
     0
102
RTVSPost2010PropOp49
 70
     1
102
RTVSPost2010Prop50
 90
       50
102
RTVSPost2010PropOp50
 70
     1
102
RTVSPost2010Prop51ColorIndex
 90
      256
102
RTVSPost2010Prop51ColorRGB
 90
-16777216
102
RTVSPost2010PropOp51
 70
     0
102
RTVSPost2010Prop52
140
1.0
102
RTVSPost2010PropOp52
 70
     0
102
RTVSPost2010Prop53
 90
        2
102
RTVSPost2010PropOp53
 70
     1
102
RTVSPost2010Prop54
  1
strokes_ogs.tif
102
RTVSPost2010PropOp54
 70
     1
102
RTVSPost2010Prop55
280
     0
102
RTVSPost2010PropOp55
 70
     1
102
RTVSPost2010Prop56
140
1.0
102
RTVSPost2010PropOp56
 70
     1
102
RTVSPost2010Prop57
140
1.0
102
RTVSPost2010PropOp57
 70
     1
102
RTVSPropertyOp0
 70
     1
102
RTVSPropertyOp1
 70
     1
102
RTVSPropertyOp2
 70
     1
102
RTVSPropertyOp3
 70
     1
102
RTVSPropertyOp4
 70
     1
102
RTVSPropertyOp5
 70
     1
102
RTVSPropertyOp6
 70
     1
102
RTVSPropertyOp7
 70
     1
102
RTVSPropertyOp8
 70
     1
102
RTVSPropertyOp9
 70
     1
102
RTVSPropertyOp10
 70
     1
102
RTVSPropertyOp11
 70
     1
102
RTVSPropertyOp12
 70
     1
102
RTVSPropertyOp13
 70
     1
102
RTVSPropertyOp14
 70
     1
102
RTVSPropertyOp15
 70
     1
102
RTVSPropertyOp16
 70
     1
102
RTVSPropertyOp17
 70
     1
102
RTVSPropertyOp18
 70
     1
102
RTVSPropertyOp19
 70
     1
102
RTVSPropertyOp20
 70
     1
102
RTVSPropertyOp21
 70
     1
102
RTVSPropertyOp22
 70
     1
102
RTVSPropertyOp23
 70
     1
102
RTVSPropertyOp24
 70
     1
102
RTVSPropertyOp25
 70
     1
102
RTVSPropertyOp26
 70
     1
102
RTVSPropertyOp27
 70
     1
102
RTVSPropertyOp28
 70
     1
102
RTVSPropertyOp29
 70
     1
102
RTVSPropertyOp30
 70
     1
102
RTVSPropertyOp31
 70
     1
102
RTVSPropertyOp32
 70
     1
102
RTVSPropertyOp33
 70
     1
102
RTVSPropertyOp34
 70
     1
102
RTVSPropertyOp35
 70
     1
102
RTVSPropertyOp36
 70
     1
102
RTVSPropertyOp37
 70
     1
102
RTVSPropertyOp38
 70
     1
102
RTVSPropertyOp39
 70
     1
102
RTVSPropertyOp40
 70
     1
102
RTVSPropertyOp41
 70
     1
102
RTVSPropertyOp42
 70
     1
102
RTVSPropertyOp43
 70
     1
102
RTVSPropertyOp44
 70
     1
102
RTVSPropertyOp45
 70
     1
102
RTVSPropertyOp46
 70
     1
102
RTVSPropertyOp47
 70
     1
102
RTVSPropertyOp48
 70
     1
102
RTVSPropertyOp49
 70
     1
102
RTVSPropertyOp50
 70
     1
102
RTVSPropertyOp51
 70
     0
102
RTVSPropertyOp52
 70
     0
102
RTVSPropertyOp53
 70
     1
102
RTVSPropertyOp54
 70
     1
102
RTVSPropertyOp55
 70
     1
102
RTVSPropertyOp56
 70
     1
102
RTVSPropertyOp57
 70
     1
102
RTVSPropertyOp58
 70
     1
102
RTVSPropertyOp59
 70
     1
102
RTVSPropertyOp60
 70
     1
102
RTVSPropertyOp61
 70
     1
102
RTVSPropertyOp62
 70
     1
  0
XRECORD
  5
22469
102
{ACAD_REACTORS
330
22468
102
}
330
22468
100
AcDbXrecord
280
     1
102
RTVSPost2010Prop28
280
     0
102
RTVSPost2010PropOp28
 70
     1
102
RTVSPost2010Prop29
280
     1
102
RTVSPost2010PropOp29
 70
     1
102
RTVSPost2010Prop30
280
     1
102
RTVSPost2010PropOp30
 70
     1
102
RTVSPost2010Prop31
280
     0
102
RTVSPost2010PropOp31
 70
     1
102
RTVSPost2010Prop32
280
     0
102
RTVSPost2010PropOp32
 70
     1
102
RTVSPost2010Prop33
280
     0
102
RTVSPost2010PropOp33
 70
     1
102
RTVSPost2010Prop34
280
     0
102
RTVSPost2010PropOp34
 70
     1
102
RTVSPost2010Prop35
280
     0
102
RTVSPost2010PropOp35
 70
     1
102
RTVSPost2010Prop36
280
     0
102
RTVSPost2010PropOp36
 70
     1
102
RTVSPost2010Prop37
 90
       50
102
RTVSPost2010PropOp37
 70
     1
102
RTVSPost2010Prop38
140
0.0
102
RTVSPost2010PropOp38
 70
     1
102
RTVSPost2010Prop39
140
1.0
102
RTVSPost2010PropOp39
 70
     1
102
RTVSPost2010Prop40
 90
        0
102
RTVSPost2010PropOp40
 70
     1
102
RTVSPost2010Prop41ColorIndex
 90
       18
102
RTVSPost2010Prop41ColorRGB
 90
        0
102
RTVSPost2010PropOp41
 70
     1
102
RTVSPost2010Prop42
 90
       50
102
RTVSPost2010PropOp42
 70
     1
102
RTVSPost2010Prop43
 90
        3
102
RTVSPost2010PropOp43
 70
     1
102
RTVSPost2010Prop44ColorIndex
 90
        5
102
RTVSPost2010Prop44ColorRGB
 90
      255
102
RTVSPost2010PropOp44
 70
     1
102
RTVSPost2010Prop45
280
     0
102
RTVSPost2010PropOp45
 70
     1
102
RTVSPost2010Prop46
 90
       50
102
RTVSPost2010PropOp46
 70
     1
102
RTVSPost2010Prop47
 90
       50
102
RTVSPost2010PropOp47
 70
     1
102
RTVSPost2010Prop48
 90
       50
102
RTVSPost2010PropOp48
 70
     1
102
RTVSPost2010Prop49
280
     0
102
RTVSPost2010PropOp49
 70
     1
102
RTVSPost2010Prop50
 90
       50
102
RTVSPost2010PropOp50
 70
     1
102
RTVSPost2010Prop51ColorIndex
 90
      256
102
RTVSPost2010Prop51ColorRGB
 90
-16777216
102
RTVSPost2010PropOp51
 70
     0
102
RTVSPost2010Prop52
140
1.0
102
RTVSPost2010PropOp52
 70
     0
102
RTVSPost2010Prop53
 90
        2
102
RTVSPost2010PropOp53
 70
     1
102
RTVSPost2010Prop54
  1
strokes_ogs.tif
102
RTVSPost2010PropOp54
 70
     1
102
RTVSPost2010Prop55
280
     0
102
RTVSPost2010PropOp55
 70
     1
102
RTVSPost2010Prop56
140
1.0
102
RTVSPost2010PropOp56
 70
     1
102
RTVSPost2010Prop57
140
1.0
102
RTVSPost2010PropOp57
 70
     1
102
RTVSPropertyOp0
 70
     1
102
RTVSPropertyOp1
 70
     1
102
RTVSPropertyOp2
 70
     1
102
RTVSPropertyOp3
 70
     1
102
RTVSPropertyOp4
 70
     1
102
RTVSPropertyOp5
 70
     1
102
RTVSPropertyOp6
 70
     1
102
RTVSPropertyOp7
 70
     1
102
RTVSPropertyOp8
 70
     1
102
RTVSPropertyOp9
 70
     1
102
RTVSPropertyOp10
 70
     1
102
RTVSPropertyOp11
 70
     1
102
RTVSPropertyOp12
 70
     1
102
RTVSPropertyOp13
 70
     1
102
RTVSPropertyOp14
 70
     1
102
RTVSPropertyOp15
 70
     1
102
RTVSPropertyOp16
 70
     1
102
RTVSPropertyOp17
 70
     1
102
RTVSPropertyOp18
 70
     1
102
RTVSPropertyOp19
 70
     1
102
RTVSPropertyOp20
 70
     1
102
RTVSPropertyOp21
 70
     1
102
RTVSPropertyOp22
 70
     1
102
RTVSPropertyOp23
 70
     1
102
RTVSPropertyOp24
 70
     1
102
RTVSPropertyOp25
 70
     1
102
RTVSPropertyOp26
 70
     1
102
RTVSPropertyOp27
 70
     1
102
RTVSPropertyOp28
 70
     1
102
RTVSPropertyOp29
 70
     1
102
RTVSPropertyOp30
 70
     1
102
RTVSPropertyOp31
 70
     1
102
RTVSPropertyOp32
 70
     1
102
RTVSPropertyOp33
 70
     1
102
RTVSPropertyOp34
 70
     1
102
RTVSPropertyOp35
 70
     1
102
RTVSPropertyOp36
 70
     1
102
RTVSPropertyOp37
 70
     1
102
RTVSPropertyOp38
 70
     1
102
RTVSPropertyOp39
 70
     1
102
RTVSPropertyOp40
 70
     1
102
RTVSPropertyOp41
 70
     1
102
RTVSPropertyOp42
 70
     1
102
RTVSPropertyOp43
 70
     1
102
RTVSPropertyOp44
 70
     1
102
RTVSPropertyOp45
 70
     1
102
RTVSPropertyOp46
 70
     1
102
RTVSPropertyOp47
 70
     1
102
RTVSPropertyOp48
 70
     1
102
RTVSPropertyOp49
 70
     1
102
RTVSPropertyOp50
 70
     1
102
RTVSPropertyOp51
 70
     0
102
RTVSPropertyOp52
 70
     0
102
RTVSPropertyOp53
 70
     1
102
RTVSPropertyOp54
 70
     1
102
RTVSPropertyOp55
 70
     1
102
RTVSPropertyOp56
 70
     1
102
RTVSPropertyOp57
 70
     1
102
RTVSPropertyOp58
 70
     1
102
RTVSPropertyOp59
 70
     1
102
RTVSPropertyOp60
 70
     1
102
RTVSPropertyOp61
 70
     1
102
RTVSPropertyOp62
 70
     1
  0
XRECORD
  5
22467
102
{ACAD_REACTORS
330
22466
102
}
330
22466
100
AcDbXrecord
280
     1
102
RTVSPost2010Prop28
280
     0
102
RTVSPost2010PropOp28
 70
     1
102
RTVSPost2010Prop29
280
     1
102
RTVSPost2010PropOp29
 70
     1
102
RTVSPost2010Prop30
280
     1
102
RTVSPost2010PropOp30
 70
     1
102
RTVSPost2010Prop31
280
     0
102
RTVSPost2010PropOp31
 70
     1
102
RTVSPost2010Prop32
280
     0
102
RTVSPost2010PropOp32
 70
     1
102
RTVSPost2010Prop33
280
     0
102
RTVSPost2010PropOp33
 70
     1
102
RTVSPost2010Prop34
280
     0
102
RTVSPost2010PropOp34
 70
     1
102
RTVSPost2010Prop35
280
     0
102
RTVSPost2010PropOp35
 70
     1
102
RTVSPost2010Prop36
280
     0
102
RTVSPost2010PropOp36
 70
     1
102
RTVSPost2010Prop37
 90
       50
102
RTVSPost2010PropOp37
 70
     1
102
RTVSPost2010Prop38
140
0.0
102
RTVSPost2010PropOp38
 70
     1
102
RTVSPost2010Prop39
140
1.0
102
RTVSPost2010PropOp39
 70
     1
102
RTVSPost2010Prop40
 90
        0
102
RTVSPost2010PropOp40
 70
     1
102
RTVSPost2010Prop41ColorIndex
 90
       18
102
RTVSPost2010Prop41ColorRGB
 90
        0
102
RTVSPost2010PropOp41
 70
     1
102
RTVSPost2010Prop42
 90
       50
102
RTVSPost2010PropOp42
 70
     1
102
RTVSPost2010Prop43
 90
        3
102
RTVSPost2010PropOp43
 70
     1
102
RTVSPost2010Prop44ColorIndex
 90
        5
102
RTVSPost2010Prop44ColorRGB
 90
      255
102
RTVSPost2010PropOp44
 70
     1
102
RTVSPost2010Prop45
280
     0
102
RTVSPost2010PropOp45
 70
     1
102
RTVSPost2010Prop46
 90
       50
102
RTVSPost2010PropOp46
 70
     1
102
RTVSPost2010Prop47
 90
       50
102
RTVSPost2010PropOp47
 70
     1
102
RTVSPost2010Prop48
 90
       50
102
RTVSPost2010PropOp48
 70
     1
102
RTVSPost2010Prop49
280
     0
102
RTVSPost2010PropOp49
 70
     1
102
RTVSPost2010Prop50
 90
       50
102
RTVSPost2010PropOp50
 70
     1
102
RTVSPost2010Prop51ColorIndex
 90
      256
102
RTVSPost2010Prop51ColorRGB
 90
-16777216
102
RTVSPost2010PropOp51
 70
     0
102
RTVSPost2010Prop52
140
1.0
102
RTVSPost2010PropOp52
 70
     0
102
RTVSPost2010Prop53
 90
        2
102
RTVSPost2010PropOp53
 70
     1
102
RTVSPost2010Prop54
  1
strokes_ogs.tif
102
RTVSPost2010PropOp54
 70
     1
102
RTVSPost2010Prop55
280
     0
102
RTVSPost2010PropOp55
 70
     1
102
RTVSPost2010Prop56
140
1.0
102
RTVSPost2010PropOp56
 70
     1
102
RTVSPost2010Prop57
140
1.0
102
RTVSPost2010PropOp57
 70
     1
102
RTVSPropertyOp0
 70
     1
102
RTVSPropertyOp1
 70
     1
102
RTVSPropertyOp2
 70
     1
102
RTVSPropertyOp3
 70
     1
102
RTVSPropertyOp4
 70
     1
102
RTVSPropertyOp5
 70
     1
102
RTVSPropertyOp6
 70
     1
102
RTVSPropertyOp7
 70
     1
102
RTVSPropertyOp8
 70
     1
102
RTVSPropertyOp9
 70
     1
102
RTVSPropertyOp10
 70
     1
102
RTVSPropertyOp11
 70
     1
102
RTVSPropertyOp12
 70
     1
102
RTVSPropertyOp13
 70
     1
102
RTVSPropertyOp14
 70
     1
102
RTVSPropertyOp15
 70
     1
102
RTVSPropertyOp16
 70
     1
102
RTVSPropertyOp17
 70
     1
102
RTVSPropertyOp18
 70
     1
102
RTVSPropertyOp19
 70
     1
102
RTVSPropertyOp20
 70
     1
102
RTVSPropertyOp21
 70
     1
102
RTVSPropertyOp22
 70
     1
102
RTVSPropertyOp23
 70
     1
102
RTVSPropertyOp24
 70
     1
102
RTVSPropertyOp25
 70
     1
102
RTVSPropertyOp26
 70
     1
102
RTVSPropertyOp27
 70
     1
102
RTVSPropertyOp28
 70
     1
102
RTVSPropertyOp29
 70
     1
102
RTVSPropertyOp30
 70
     1
102
RTVSPropertyOp31
 70
     1
102
RTVSPropertyOp32
 70
     1
102
RTVSPropertyOp33
 70
     1
102
RTVSPropertyOp34
 70
     1
102
RTVSPropertyOp35
 70
     1
102
RTVSPropertyOp36
 70
     1
102
RTVSPropertyOp37
 70
     1
102
RTVSPropertyOp38
 70
     1
102
RTVSPropertyOp39
 70
     1
102
RTVSPropertyOp40
 70
     1
102
RTVSPropertyOp41
 70
     1
102
RTVSPropertyOp42
 70
     1
102
RTVSPropertyOp43
 70
     1
102
RTVSPropertyOp44
 70
     1
102
RTVSPropertyOp45
 70
     1
102
RTVSPropertyOp46
 70
     1
102
RTVSPropertyOp47
 70
     1
102
RTVSPropertyOp48
 70
     1
102
RTVSPropertyOp49
 70
     1
102
RTVSPropertyOp50
 70
     1
102
RTVSPropertyOp51
 70
     0
102
RTVSPropertyOp52
 70
     0
102
RTVSPropertyOp53
 70
     1
102
RTVSPropertyOp54
 70
     1
102
RTVSPropertyOp55
 70
     1
102
RTVSPropertyOp56
 70
     1
102
RTVSPropertyOp57
 70
     1
102
RTVSPropertyOp58
 70
     1
102
RTVSPropertyOp59
 70
     1
102
RTVSPropertyOp60
 70
     1
102
RTVSPropertyOp61
 70
     1
102
RTVSPropertyOp62
 70
     1
  0
XRECORD
  5
22463
102
{ACAD_REACTORS
330
22462
102
}
330
22462
100
AcDbXrecord
280
     1
102
RTVSPost2010Prop28
280
     0
102
RTVSPost2010PropOp28
 70
     1
102
RTVSPost2010Prop29
280
     1
102
RTVSPost2010PropOp29
 70
     1
102
RTVSPost2010Prop30
280
     1
102
RTVSPost2010PropOp30
 70
     1
102
RTVSPost2010Prop31
280
     0
102
RTVSPost2010PropOp31
 70
     1
102
RTVSPost2010Prop32
280
     0
102
RTVSPost2010PropOp32
 70
     1
102
RTVSPost2010Prop33
280
     0
102
RTVSPost2010PropOp33
 70
     1
102
RTVSPost2010Prop34
280
     0
102
RTVSPost2010PropOp34
 70
     1
102
RTVSPost2010Prop35
280
     0
102
RTVSPost2010PropOp35
 70
     1
102
RTVSPost2010Prop36
280
     0
102
RTVSPost2010PropOp36
 70
     1
102
RTVSPost2010Prop37
 90
       50
102
RTVSPost2010PropOp37
 70
     1
102
RTVSPost2010Prop38
140
0.0
102
RTVSPost2010PropOp38
 70
     1
102
RTVSPost2010Prop39
140
1.0
102
RTVSPost2010PropOp39
 70
     1
102
RTVSPost2010Prop40
 90
        0
102
RTVSPost2010PropOp40
 70
     1
102
RTVSPost2010Prop41ColorIndex
 90
       18
102
RTVSPost2010Prop41ColorRGB
 90
        0
102
RTVSPost2010PropOp41
 70
     1
102
RTVSPost2010Prop42
 90
       50
102
RTVSPost2010PropOp42
 70
     1
102
RTVSPost2010Prop43
 90
        3
102
RTVSPost2010PropOp43
 70
     1
102
RTVSPost2010Prop44ColorIndex
 90
        5
102
RTVSPost2010Prop44ColorRGB
 90
      255
102
RTVSPost2010PropOp44
 70
     1
102
RTVSPost2010Prop45
280
     0
102
RTVSPost2010PropOp45
 70
     1
102
RTVSPost2010Prop46
 90
       50
102
RTVSPost2010PropOp46
 70
     1
102
RTVSPost2010Prop47
 90
       50
102
RTVSPost2010PropOp47
 70
     1
102
RTVSPost2010Prop48
 90
       50
102
RTVSPost2010PropOp48
 70
     1
102
RTVSPost2010Prop49
280
     0
102
RTVSPost2010PropOp49
 70
     1
102
RTVSPost2010Prop50
 90
       50
102
RTVSPost2010PropOp50
 70
     1
102
RTVSPost2010Prop51ColorIndex
 90
      256
102
RTVSPost2010Prop51ColorRGB
 90
-16777216
102
RTVSPost2010PropOp51
 70
     0
102
RTVSPost2010Prop52
140
1.0
102
RTVSPost2010PropOp52
 70
     0
102
RTVSPost2010Prop53
 90
        2
102
RTVSPost2010PropOp53
 70
     1
102
RTVSPost2010Prop54
  1
strokes_ogs.tif
102
RTVSPost2010PropOp54
 70
     1
102
RTVSPost2010Prop55
280
     0
102
RTVSPost2010PropOp55
 70
     1
102
RTVSPost2010Prop56
140
1.0
102
RTVSPost2010PropOp56
 70
     1
102
RTVSPost2010Prop57
140
1.0
102
RTVSPost2010PropOp57
 70
     1
102
RTVSPropertyOp0
 70
     1
102
RTVSPropertyOp1
 70
     1
102
RTVSPropertyOp2
 70
     1
102
RTVSPropertyOp3
 70
     1
102
RTVSPropertyOp4
 70
     1
102
RTVSPropertyOp5
 70
     1
102
RTVSPropertyOp6
 70
     1
102
RTVSPropertyOp7
 70
     1
102
RTVSPropertyOp8
 70
     1
102
RTVSPropertyOp9
 70
     1
102
RTVSPropertyOp10
 70
     1
102
RTVSPropertyOp11
 70
     1
102
RTVSPropertyOp12
 70
     1
102
RTVSPropertyOp13
 70
     1
102
RTVSPropertyOp14
 70
     1
102
RTVSPropertyOp15
 70
     1
102
RTVSPropertyOp16
 70
     1
102
RTVSPropertyOp17
 70
     1
102
RTVSPropertyOp18
 70
     1
102
RTVSPropertyOp19
 70
     1
102
RTVSPropertyOp20
 70
     1
102
RTVSPropertyOp21
 70
     1
102
RTVSPropertyOp22
 70
     1
102
RTVSPropertyOp23
 70
     1
102
RTVSPropertyOp24
 70
     1
102
RTVSPropertyOp25
 70
     1
102
RTVSPropertyOp26
 70
     1
102
RTVSPropertyOp27
 70
     1
102
RTVSPropertyOp28
 70
     1
102
RTVSPropertyOp29
 70
     1
102
RTVSPropertyOp30
 70
     1
102
RTVSPropertyOp31
 70
     1
102
RTVSPropertyOp32
 70
     1
102
RTVSPropertyOp33
 70
     1
102
RTVSPropertyOp34
 70
     1
102
RTVSPropertyOp35
 70
     1
102
RTVSPropertyOp36
 70
     1
102
RTVSPropertyOp37
 70
     1
102
RTVSPropertyOp38
 70
     1
102
RTVSPropertyOp39
 70
     1
102
RTVSPropertyOp40
 70
     1
102
RTVSPropertyOp41
 70
     1
102
RTVSPropertyOp42
 70
     1
102
RTVSPropertyOp43
 70
     1
102
RTVSPropertyOp44
 70
     1
102
RTVSPropertyOp45
 70
     1
102
RTVSPropertyOp46
 70
     1
102
RTVSPropertyOp47
 70
     1
102
RTVSPropertyOp48
 70
     1
102
RTVSPropertyOp49
 70
     1
102
RTVSPropertyOp50
 70
     1
102
RTVSPropertyOp51
 70
     0
102
RTVSPropertyOp52
 70
     0
102
RTVSPropertyOp53
 70
     1
102
RTVSPropertyOp54
 70
     1
102
RTVSPropertyOp55
 70
     1
102
RTVSPropertyOp56
 70
     1
102
RTVSPropertyOp57
 70
     1
102
RTVSPropertyOp58
 70
     1
102
RTVSPropertyOp59
 70
     1
102
RTVSPropertyOp60
 70
     1
102
RTVSPropertyOp61
 70
     1
102
RTVSPropertyOp62
 70
     1
  0
XRECORD
  5
22471
102
{ACAD_REACTORS
330
22470
102
}
330
22470
100
AcDbXrecord
280
     1
102
RTVSPost2010Prop28
280
     0
102
RTVSPost2010PropOp28
 70
     1
102
RTVSPost2010Prop29
280
     1
102
RTVSPost2010PropOp29
 70
     1
102
RTVSPost2010Prop30
280
     1
102
RTVSPost2010PropOp30
 70
     1
102
RTVSPost2010Prop31
280
     0
102
RTVSPost2010PropOp31
 70
     1
102
RTVSPost2010Prop32
280
     0
102
RTVSPost2010PropOp32
 70
     1
102
RTVSPost2010Prop33
280
     0
102
RTVSPost2010PropOp33
 70
     1
102
RTVSPost2010Prop34
280
     0
102
RTVSPost2010PropOp34
 70
     1
102
RTVSPost2010Prop35
280
     0
102
RTVSPost2010PropOp35
 70
     1
102
RTVSPost2010Prop36
280
     0
102
RTVSPost2010PropOp36
 70
     1
102
RTVSPost2010Prop37
 90
       50
102
RTVSPost2010PropOp37
 70
     1
102
RTVSPost2010Prop38
140
0.0
102
RTVSPost2010PropOp38
 70
     1
102
RTVSPost2010Prop39
140
1.0
102
RTVSPost2010PropOp39
 70
     1
102
RTVSPost2010Prop40
 90
        0
102
RTVSPost2010PropOp40
 70
     1
102
RTVSPost2010Prop41ColorIndex
 90
       18
102
RTVSPost2010Prop41ColorRGB
 90
        0
102
RTVSPost2010PropOp41
 70
     1
102
RTVSPost2010Prop42
 90
       50
102
RTVSPost2010PropOp42
 70
     1
102
RTVSPost2010Prop43
 90
        3
102
RTVSPost2010PropOp43
 70
     1
102
RTVSPost2010Prop44ColorIndex
 90
        5
102
RTVSPost2010Prop44ColorRGB
 90
      255
102
RTVSPost2010PropOp44
 70
     1
102
RTVSPost2010Prop45
280
     0
102
RTVSPost2010PropOp45
 70
     1
102
RTVSPost2010Prop46
 90
       50
102
RTVSPost2010PropOp46
 70
     1
102
RTVSPost2010Prop47
 90
       50
102
RTVSPost2010PropOp47
 70
     1
102
RTVSPost2010Prop48
 90
       50
102
RTVSPost2010PropOp48
 70
     1
102
RTVSPost2010Prop49
280
     0
102
RTVSPost2010PropOp49
 70
     1
102
RTVSPost2010Prop50
 90
       50
102
RTVSPost2010PropOp50
 70
     1
102
RTVSPost2010Prop51ColorIndex
 90
      256
102
RTVSPost2010Prop51ColorRGB
 90
-16777216
102
RTVSPost2010PropOp51
 70
     0
102
RTVSPost2010Prop52
140
1.0
102
RTVSPost2010PropOp52
 70
     0
102
RTVSPost2010Prop53
 90
        2
102
RTVSPost2010PropOp53
 70
     1
102
RTVSPost2010Prop54
  1
strokes_ogs.tif
102
RTVSPost2010PropOp54
 70
     1
102
RTVSPost2010Prop55
280
     0
102
RTVSPost2010PropOp55
 70
     1
102
RTVSPost2010Prop56
140
1.0
102
RTVSPost2010PropOp56
 70
     1
102
RTVSPost2010Prop57
140
1.0
102
RTVSPost2010PropOp57
 70
     1
102
RTVSPropertyOp0
 70
     1
102
RTVSPropertyOp1
 70
     1
102
RTVSPropertyOp2
 70
     1
102
RTVSPropertyOp3
 70
     1
102
RTVSPropertyOp4
 70
     1
102
RTVSPropertyOp5
 70
     1
102
RTVSPropertyOp6
 70
     1
102
RTVSPropertyOp7
 70
     1
102
RTVSPropertyOp8
 70
     1
102
RTVSPropertyOp9
 70
     1
102
RTVSPropertyOp10
 70
     1
102
RTVSPropertyOp11
 70
     1
102
RTVSPropertyOp12
 70
     1
102
RTVSPropertyOp13
 70
     1
102
RTVSPropertyOp14
 70
     1
102
RTVSPropertyOp15
 70
     1
102
RTVSPropertyOp16
 70
     1
102
RTVSPropertyOp17
 70
     1
102
RTVSPropertyOp18
 70
     1
102
RTVSPropertyOp19
 70
     1
102
RTVSPropertyOp20
 70
     1
102
RTVSPropertyOp21
 70
     1
102
RTVSPropertyOp22
 70
     1
102
RTVSPropertyOp23
 70
     1
102
RTVSPropertyOp24
 70
     1
102
RTVSPropertyOp25
 70
     1
102
RTVSPropertyOp26
 70
     1
102
RTVSPropertyOp27
 70
     1
102
RTVSPropertyOp28
 70
     1
102
RTVSPropertyOp29
 70
     1
102
RTVSPropertyOp30
 70
     1
102
RTVSPropertyOp31
 70
     1
102
RTVSPropertyOp32
 70
     1
102
RTVSPropertyOp33
 70
     1
102
RTVSPropertyOp34
 70
     1
102
RTVSPropertyOp35
 70
     1
102
RTVSPropertyOp36
 70
     1
102
RTVSPropertyOp37
 70
     1
102
RTVSPropertyOp38
 70
     1
102
RTVSPropertyOp39
 70
     1
102
RTVSPropertyOp40
 70
     1
102
RTVSPropertyOp41
 70
     1
102
RTVSPropertyOp42
 70
     1
102
RTVSPropertyOp43
 70
     1
102
RTVSPropertyOp44
 70
     1
102
RTVSPropertyOp45
 70
     1
102
RTVSPropertyOp46
 70
     1
102
RTVSPropertyOp47
 70
     1
102
RTVSPropertyOp48
 70
     1
102
RTVSPropertyOp49
 70
     1
102
RTVSPropertyOp50
 70
     1
102
RTVSPropertyOp51
 70
     0
102
RTVSPropertyOp52
 70
     0
102
RTVSPropertyOp53
 70
     1
102
RTVSPropertyOp54
 70
     1
102
RTVSPropertyOp55
 70
     1
102
RTVSPropertyOp56
 70
     1
102
RTVSPropertyOp57
 70
     1
102
RTVSPropertyOp58
 70
     1
102
RTVSPropertyOp59
 70
     1
102
RTVSPropertyOp60
 70
     1
102
RTVSPropertyOp61
 70
     1
102
RTVSPropertyOp62
 70
     1
  0
XRECORD
  5
22479
102
{ACAD_REACTORS
330
22478
102
}
330
22478
100
AcDbXrecord
280
     1
102
RTVSPost2010Prop28
280
     0
102
RTVSPost2010PropOp28
 70
     1
102
RTVSPost2010Prop29
280
     1
102
RTVSPost2010PropOp29
 70
     1
102
RTVSPost2010Prop30
280
     1
102
RTVSPost2010PropOp30
 70
     1
102
RTVSPost2010Prop31
280
     0
102
RTVSPost2010PropOp31
 70
     1
102
RTVSPost2010Prop32
280
     0
102
RTVSPost2010PropOp32
 70
     1
102
RTVSPost2010Prop33
280
     0
102
RTVSPost2010PropOp33
 70
     1
102
RTVSPost2010Prop34
280
     0
102
RTVSPost2010PropOp34
 70
     1
102
RTVSPost2010Prop35
280
     0
102
RTVSPost2010PropOp35
 70
     1
102
RTVSPost2010Prop36
280
     0
102
RTVSPost2010PropOp36
 70
     1
102
RTVSPost2010Prop37
 90
       50
102
RTVSPost2010PropOp37
 70
     1
102
RTVSPost2010Prop38
140
0.0
102
RTVSPost2010PropOp38
 70
     1
102
RTVSPost2010Prop39
140
1.0
102
RTVSPost2010PropOp39
 70
     1
102
RTVSPost2010Prop40
 90
        0
102
RTVSPost2010PropOp40
 70
     1
102
RTVSPost2010Prop41ColorIndex
 90
       18
102
RTVSPost2010Prop41ColorRGB
 90
        0
102
RTVSPost2010PropOp41
 70
     1
102
RTVSPost2010Prop42
 90
       50
102
RTVSPost2010PropOp42
 70
     1
102
RTVSPost2010Prop43
 90
        3
102
RTVSPost2010PropOp43
 70
     1
102
RTVSPost2010Prop44ColorIndex
 90
        5
102
RTVSPost2010Prop44ColorRGB
 90
      255
102
RTVSPost2010PropOp44
 70
     1
102
RTVSPost2010Prop45
280
     0
102
RTVSPost2010PropOp45
 70
     1
102
RTVSPost2010Prop46
 90
       50
102
RTVSPost2010PropOp46
 70
     1
102
RTVSPost2010Prop47
 90
       50
102
RTVSPost2010PropOp47
 70
     1
102
RTVSPost2010Prop48
 90
       50
102
RTVSPost2010PropOp48
 70
     1
102
RTVSPost2010Prop49
280
     0
102
RTVSPost2010PropOp49
 70
     1
102
RTVSPost2010Prop50
 90
       50
102
RTVSPost2010PropOp50
 70
     1
102
RTVSPost2010Prop51ColorIndex
 90
      256
102
RTVSPost2010Prop51ColorRGB
 90
-16777216
102
RTVSPost2010PropOp51
 70
     0
102
RTVSPost2010Prop52
140
1.0
102
RTVSPost2010PropOp52
 70
     0
102
RTVSPost2010Prop53
 90
        2
102
RTVSPost2010PropOp53
 70
     1
102
RTVSPost2010Prop54
  1
strokes_ogs.tif
102
RTVSPost2010PropOp54
 70
     1
102
RTVSPost2010Prop55
280
     0
102
RTVSPost2010PropOp55
 70
     1
102
RTVSPost2010Prop56
140
1.0
102
RTVSPost2010PropOp56
 70
     1
102
RTVSPost2010Prop57
140
1.0
102
RTVSPost2010PropOp57
 70
     1
102
RTVSPropertyOp0
 70
     1
102
RTVSPropertyOp1
 70
     1
102
RTVSPropertyOp2
 70
     1
102
RTVSPropertyOp3
 70
     1
102
RTVSPropertyOp4
 70
     1
102
RTVSPropertyOp5
 70
     1
102
RTVSPropertyOp6
 70
     1
102
RTVSPropertyOp7
 70
     1
102
RTVSPropertyOp8
 70
     1
102
RTVSPropertyOp9
 70
     1
102
RTVSPropertyOp10
 70
     1
102
RTVSPropertyOp11
 70
     1
102
RTVSPropertyOp12
 70
     1
102
RTVSPropertyOp13
 70
     1
102
RTVSPropertyOp14
 70
     1
102
RTVSPropertyOp15
 70
     1
102
RTVSPropertyOp16
 70
     1
102
RTVSPropertyOp17
 70
     1
102
RTVSPropertyOp18
 70
     1
102
RTVSPropertyOp19
 70
     1
102
RTVSPropertyOp20
 70
     1
102
RTVSPropertyOp21
 70
     1
102
RTVSPropertyOp22
 70
     1
102
RTVSPropertyOp23
 70
     1
102
RTVSPropertyOp24
 70
     1
102
RTVSPropertyOp25
 70
     1
102
RTVSPropertyOp26
 70
     1
102
RTVSPropertyOp27
 70
     1
102
RTVSPropertyOp28
 70
     1
102
RTVSPropertyOp29
 70
     1
102
RTVSPropertyOp30
 70
     1
102
RTVSPropertyOp31
 70
     1
102
RTVSPropertyOp32
 70
     1
102
RTVSPropertyOp33
 70
     1
102
RTVSPropertyOp34
 70
     1
102
RTVSPropertyOp35
 70
     1
102
RTVSPropertyOp36
 70
     1
102
RTVSPropertyOp37
 70
     1
102
RTVSPropertyOp38
 70
     1
102
RTVSPropertyOp39
 70
     1
102
RTVSPropertyOp40
 70
     1
102
RTVSPropertyOp41
 70
     1
102
RTVSPropertyOp42
 70
     1
102
RTVSPropertyOp43
 70
     1
102
RTVSPropertyOp44
 70
     1
102
RTVSPropertyOp45
 70
     1
102
RTVSPropertyOp46
 70
     1
102
RTVSPropertyOp47
 70
     1
102
RTVSPropertyOp48
 70
     1
102
RTVSPropertyOp49
 70
     1
102
RTVSPropertyOp50
 70
     1
102
RTVSPropertyOp51
 70
     0
102
RTVSPropertyOp52
 70
     0
102
RTVSPropertyOp53
 70
     1
102
RTVSPropertyOp54
 70
     1
102
RTVSPropertyOp55
 70
     1
102
RTVSPropertyOp56
 70
     1
102
RTVSPropertyOp57
 70
     1
102
RTVSPropertyOp58
 70
     1
102
RTVSPropertyOp59
 70
     1
102
RTVSPropertyOp60
 70
     1
102
RTVSPropertyOp61
 70
     1
102
RTVSPropertyOp62
 70
     1
  0
XRECORD
  5
2246B
102
{ACAD_REACTORS
330
2246A
102
}
330
2246A
100
AcDbXrecord
280
     1
102
RTVSPost2010Prop28
280
     0
102
RTVSPost2010PropOp28
 70
     1
102
RTVSPost2010Prop29
280
     1
102
RTVSPost2010PropOp29
 70
     1
102
RTVSPost2010Prop30
280
     1
102
RTVSPost2010PropOp30
 70
     1
102
RTVSPost2010Prop31
280
     0
102
RTVSPost2010PropOp31
 70
     1
102
RTVSPost2010Prop32
280
     0
102
RTVSPost2010PropOp32
 70
     1
102
RTVSPost2010Prop33
280
     0
102
RTVSPost2010PropOp33
 70
     1
102
RTVSPost2010Prop34
280
     0
102
RTVSPost2010PropOp34
 70
     1
102
RTVSPost2010Prop35
280
     0
102
RTVSPost2010PropOp35
 70
     1
102
RTVSPost2010Prop36
280
     0
102
RTVSPost2010PropOp36
 70
     1
102
RTVSPost2010Prop37
 90
       50
102
RTVSPost2010PropOp37
 70
     1
102
RTVSPost2010Prop38
140
0.0
102
RTVSPost2010PropOp38
 70
     1
102
RTVSPost2010Prop39
140
1.0
102
RTVSPost2010PropOp39
 70
     1
102
RTVSPost2010Prop40
 90
        0
102
RTVSPost2010PropOp40
 70
     1
102
RTVSPost2010Prop41ColorIndex
 90
       18
102
RTVSPost2010Prop41ColorRGB
 90
        0
102
RTVSPost2010PropOp41
 70
     1
102
RTVSPost2010Prop42
 90
       50
102
RTVSPost2010PropOp42
 70
     1
102
RTVSPost2010Prop43
 90
        3
102
RTVSPost2010PropOp43
 70
     1
102
RTVSPost2010Prop44ColorIndex
 90
        5
102
RTVSPost2010Prop44ColorRGB
 90
      255
102
RTVSPost2010PropOp44
 70
     1
102
RTVSPost2010Prop45
280
     0
102
RTVSPost2010PropOp45
 70
     1
102
RTVSPost2010Prop46
 90
       50
102
RTVSPost2010PropOp46
 70
     1
102
RTVSPost2010Prop47
 90
       50
102
RTVSPost2010PropOp47
 70
     1
102
RTVSPost2010Prop48
 90
       50
102
RTVSPost2010PropOp48
 70
     1
102
RTVSPost2010Prop49
280
     0
102
RTVSPost2010PropOp49
 70
     1
102
RTVSPost2010Prop50
 90
       50
102
RTVSPost2010PropOp50
 70
     1
102
RTVSPost2010Prop51ColorIndex
 90
      256
102
RTVSPost2010Prop51ColorRGB
 90
-16777216
102
RTVSPost2010PropOp51
 70
     0
102
RTVSPost2010Prop52
140
1.0
102
RTVSPost2010PropOp52
 70
     0
102
RTVSPost2010Prop53
 90
        2
102
RTVSPost2010PropOp53
 70
     1
102
RTVSPost2010Prop54
  1
strokes_ogs.tif
102
RTVSPost2010PropOp54
 70
     1
102
RTVSPost2010Prop55
280
     0
102
RTVSPost2010PropOp55
 70
     1
102
RTVSPost2010Prop56
140
1.0
102
RTVSPost2010PropOp56
 70
     1
102
RTVSPost2010Prop57
140
1.0
102
RTVSPost2010PropOp57
 70
     1
102
RTVSPropertyOp0
 70
     1
102
RTVSPropertyOp1
 70
     1
102
RTVSPropertyOp2
 70
     1
102
RTVSPropertyOp3
 70
     1
102
RTVSPropertyOp4
 70
     1
102
RTVSPropertyOp5
 70
     1
102
RTVSPropertyOp6
 70
     1
102
RTVSPropertyOp7
 70
     1
102
RTVSPropertyOp8
 70
     1
102
RTVSPropertyOp9
 70
     1
102
RTVSPropertyOp10
 70
     1
102
RTVSPropertyOp11
 70
     1
102
RTVSPropertyOp12
 70
     1
102
RTVSPropertyOp13
 70
     1
102
RTVSPropertyOp14
 70
     1
102
RTVSPropertyOp15
 70
     1
102
RTVSPropertyOp16
 70
     1
102
RTVSPropertyOp17
 70
     1
102
RTVSPropertyOp18
 70
     1
102
RTVSPropertyOp19
 70
     1
102
RTVSPropertyOp20
 70
     1
102
RTVSPropertyOp21
 70
     1
102
RTVSPropertyOp22
 70
     1
102
RTVSPropertyOp23
 70
     1
102
RTVSPropertyOp24
 70
     1
102
RTVSPropertyOp25
 70
     1
102
RTVSPropertyOp26
 70
     1
102
RTVSPropertyOp27
 70
     1
102
RTVSPropertyOp28
 70
     1
102
RTVSPropertyOp29
 70
     1
102
RTVSPropertyOp30
 70
     1
102
RTVSPropertyOp31
 70
     1
102
RTVSPropertyOp32
 70
     1
102
RTVSPropertyOp33
 70
     1
102
RTVSPropertyOp34
 70
     1
102
RTVSPropertyOp35
 70
     1
102
RTVSPropertyOp36
 70
     1
102
RTVSPropertyOp37
 70
     1
102
RTVSPropertyOp38
 70
     1
102
RTVSPropertyOp39
 70
     1
102
RTVSPropertyOp40
 70
     1
102
RTVSPropertyOp41
 70
     1
102
RTVSPropertyOp42
 70
     1
102
RTVSPropertyOp43
 70
     1
102
RTVSPropertyOp44
 70
     1
102
RTVSPropertyOp45
 70
     1
102
RTVSPropertyOp46
 70
     1
102
RTVSPropertyOp47
 70
     1
102
RTVSPropertyOp48
 70
     1
102
RTVSPropertyOp49
 70
     1
102
RTVSPropertyOp50
 70
     1
102
RTVSPropertyOp51
 70
     0
102
RTVSPropertyOp52
 70
     0
102
RTVSPropertyOp53
 70
     1
102
RTVSPropertyOp54
 70
     1
102
RTVSPropertyOp55
 70
     1
102
RTVSPropertyOp56
 70
     1
102
RTVSPropertyOp57
 70
     1
102
RTVSPropertyOp58
 70
     1
102
RTVSPropertyOp59
 70
     1
102
RTVSPropertyOp60
 70
     1
102
RTVSPropertyOp61
 70
     1
102
RTVSPropertyOp62
 70
     1
  0
XRECORD
  5
2246F
102
{ACAD_REACTORS
330
2246E
102
}
330
2246E
100
AcDbXrecord
280
     1
102
RTVSPost2010Prop28
280
     0
102
RTVSPost2010PropOp28
 70
     1
102
RTVSPost2010Prop29
280
     1
102
RTVSPost2010PropOp29
 70
     1
102
RTVSPost2010Prop30
280
     1
102
RTVSPost2010PropOp30
 70
     1
102
RTVSPost2010Prop31
280
     0
102
RTVSPost2010PropOp31
 70
     1
102
RTVSPost2010Prop32
280
     0
102
RTVSPost2010PropOp32
 70
     1
102
RTVSPost2010Prop33
280
     0
102
RTVSPost2010PropOp33
 70
     1
102
RTVSPost2010Prop34
280
     0
102
RTVSPost2010PropOp34
 70
     1
102
RTVSPost2010Prop35
280
     0
102
RTVSPost2010PropOp35
 70
     1
102
RTVSPost2010Prop36
280
     0
102
RTVSPost2010PropOp36
 70
     1
102
RTVSPost2010Prop37
 90
       50
102
RTVSPost2010PropOp37
 70
     1
102
RTVSPost2010Prop38
140
0.0
102
RTVSPost2010PropOp38
 70
     1
102
RTVSPost2010Prop39
140
1.0
102
RTVSPost2010PropOp39
 70
     1
102
RTVSPost2010Prop40
 90
        0
102
RTVSPost2010PropOp40
 70
     1
102
RTVSPost2010Prop41ColorIndex
 90
       18
102
RTVSPost2010Prop41ColorRGB
 90
        0
102
RTVSPost2010PropOp41
 70
     1
102
RTVSPost2010Prop42
 90
       50
102
RTVSPost2010PropOp42
 70
     1
102
RTVSPost2010Prop43
 90
        3
102
RTVSPost2010PropOp43
 70
     1
102
RTVSPost2010Prop44ColorIndex
 90
        5
102
RTVSPost2010Prop44ColorRGB
 90
      255
102
RTVSPost2010PropOp44
 70
     1
102
RTVSPost2010Prop45
280
     0
102
RTVSPost2010PropOp45
 70
     1
102
RTVSPost2010Prop46
 90
       50
102
RTVSPost2010PropOp46
 70
     1
102
RTVSPost2010Prop47
 90
       50
102
RTVSPost2010PropOp47
 70
     1
102
RTVSPost2010Prop48
 90
       50
102
RTVSPost2010PropOp48
 70
     1
102
RTVSPost2010Prop49
280
     0
102
RTVSPost2010PropOp49
 70
     1
102
RTVSPost2010Prop50
 90
       50
102
RTVSPost2010PropOp50
 70
     1
102
RTVSPost2010Prop51ColorIndex
 90
      256
102
RTVSPost2010Prop51ColorRGB
 90
-16777216
102
RTVSPost2010PropOp51
 70
     0
102
RTVSPost2010Prop52
140
1.0
102
RTVSPost2010PropOp52
 70
     0
102
RTVSPost2010Prop53
 90
        2
102
RTVSPost2010PropOp53
 70
     1
102
RTVSPost2010Prop54
  1
strokes_ogs.tif
102
RTVSPost2010PropOp54
 70
     1
102
RTVSPost2010Prop55
280
     0
102
RTVSPost2010PropOp55
 70
     1
102
RTVSPost2010Prop56
140
1.0
102
RTVSPost2010PropOp56
 70
     1
102
RTVSPost2010Prop57
140
1.0
102
RTVSPost2010PropOp57
 70
     1
102
RTVSPropertyOp0
 70
     1
102
RTVSPropertyOp1
 70
     1
102
RTVSPropertyOp2
 70
     1
102
RTVSPropertyOp3
 70
     1
102
RTVSPropertyOp4
 70
     1
102
RTVSPropertyOp5
 70
     1
102
RTVSPropertyOp6
 70
     1
102
RTVSPropertyOp7
 70
     1
102
RTVSPropertyOp8
 70
     1
102
RTVSPropertyOp9
 70
     1
102
RTVSPropertyOp10
 70
     1
102
RTVSPropertyOp11
 70
     1
102
RTVSPropertyOp12
 70
     1
102
RTVSPropertyOp13
 70
     1
102
RTVSPropertyOp14
 70
     1
102
RTVSPropertyOp15
 70
     1
102
RTVSPropertyOp16
 70
     1
102
RTVSPropertyOp17
 70
     1
102
RTVSPropertyOp18
 70
     1
102
RTVSPropertyOp19
 70
     1
102
RTVSPropertyOp20
 70
     1
102
RTVSPropertyOp21
 70
     1
102
RTVSPropertyOp22
 70
     1
102
RTVSPropertyOp23
 70
     1
102
RTVSPropertyOp24
 70
     1
102
RTVSPropertyOp25
 70
     1
102
RTVSPropertyOp26
 70
     1
102
RTVSPropertyOp27
 70
     1
102
RTVSPropertyOp28
 70
     1
102
RTVSPropertyOp29
 70
     1
102
RTVSPropertyOp30
 70
     1
102
RTVSPropertyOp31
 70
     1
102
RTVSPropertyOp32
 70
     1
102
RTVSPropertyOp33
 70
     1
102
RTVSPropertyOp34
 70
     1
102
RTVSPropertyOp35
 70
     1
102
RTVSPropertyOp36
 70
     1
102
RTVSPropertyOp37
 70
     1
102
RTVSPropertyOp38
 70
     1
102
RTVSPropertyOp39
 70
     1
102
RTVSPropertyOp40
 70
     1
102
RTVSPropertyOp41
 70
     1
102
RTVSPropertyOp42
 70
     1
102
RTVSPropertyOp43
 70
     1
102
RTVSPropertyOp44
 70
     1
102
RTVSPropertyOp45
 70
     1
102
RTVSPropertyOp46
 70
     1
102
RTVSPropertyOp47
 70
     1
102
RTVSPropertyOp48
 70
     1
102
RTVSPropertyOp49
 70
     1
102
RTVSPropertyOp50
 70
     1
102
RTVSPropertyOp51
 70
     0
102
RTVSPropertyOp52
 70
     0
102
RTVSPropertyOp53
 70
     1
102
RTVSPropertyOp54
 70
     1
102
RTVSPropertyOp55
 70
     1
102
RTVSPropertyOp56
 70
     1
102
RTVSPropertyOp57
 70
     1
102
RTVSPropertyOp58
 70
     1
102
RTVSPropertyOp59
 70
     1
102
RTVSPropertyOp60
 70
     1
102
RTVSPropertyOp61
 70
     1
102
RTVSPropertyOp62
 70
     1
  0
XRECORD
  5
22496
102
{ACAD_REACTORS
330
22495
102
}
330
22495
100
AcDbXrecord
280
     1
102
RTVSPost2010Prop28
280
     0
102
RTVSPost2010PropOp28
 70
     1
102
RTVSPost2010Prop29
280
     1
102
RTVSPost2010PropOp29
 70
     1
102
RTVSPost2010Prop30
280
     1
102
RTVSPost2010PropOp30
 70
     1
102
RTVSPost2010Prop31
280
     0
102
RTVSPost2010PropOp31
 70
     1
102
RTVSPost2010Prop32
280
     0
102
RTVSPost2010PropOp32
 70
     1
102
RTVSPost2010Prop33
280
     0
102
RTVSPost2010PropOp33
 70
     1
102
RTVSPost2010Prop34
280
     0
102
RTVSPost2010PropOp34
 70
     1
102
RTVSPost2010Prop35
280
     0
102
RTVSPost2010PropOp35
 70
     1
102
RTVSPost2010Prop36
280
     0
102
RTVSPost2010PropOp36
 70
     1
102
RTVSPost2010Prop37
 90
       50
102
RTVSPost2010PropOp37
 70
     0
102
RTVSPost2010Prop38
140
0.0
102
RTVSPost2010PropOp38
 70
     0
102
RTVSPost2010Prop39
140
1.0
102
RTVSPost2010PropOp39
 70
     0
102
RTVSPost2010Prop40
 90
        0
102
RTVSPost2010PropOp40
 70
     0
102
RTVSPost2010Prop41ColorIndex
 90
       18
102
RTVSPost2010Prop41ColorRGB
 90
        0
102
RTVSPost2010PropOp41
 70
     0
102
RTVSPost2010Prop42
 90
       50
102
RTVSPost2010PropOp42
 70
     0
102
RTVSPost2010Prop43
 90
        3
102
RTVSPost2010PropOp43
 70
     0
102
RTVSPost2010Prop44ColorIndex
 90
        5
102
RTVSPost2010Prop44ColorRGB
 90
      255
102
RTVSPost2010PropOp44
 70
     0
102
RTVSPost2010Prop45
280
     0
102
RTVSPost2010PropOp45
 70
     1
102
RTVSPost2010Prop46
 90
       50
102
RTVSPost2010PropOp46
 70
     0
102
RTVSPost2010Prop47
 90
       50
102
RTVSPost2010PropOp47
 70
     0
102
RTVSPost2010Prop48
 90
       50
102
RTVSPost2010PropOp48
 70
     0
102
RTVSPost2010Prop49
280
     0
102
RTVSPost2010PropOp49
 70
     1
102
RTVSPost2010Prop50
 90
       50
102
RTVSPost2010PropOp50
 70
     0
102
RTVSPost2010Prop51ColorIndex
 90
      256
102
RTVSPost2010Prop51ColorRGB
 90
-16777216
102
RTVSPost2010PropOp51
 70
     0
102
RTVSPost2010Prop52
140
1.0
102
RTVSPost2010PropOp52
 70
     0
102
RTVSPost2010Prop53
 90
        2
102
RTVSPost2010PropOp53
 70
     0
102
RTVSPost2010Prop54
  1
strokes_ogs.tif
102
RTVSPost2010PropOp54
 70
     0
102
RTVSPost2010Prop55
280
     0
102
RTVSPost2010PropOp55
 70
     1
102
RTVSPost2010Prop56
140
1.0
102
RTVSPost2010PropOp56
 70
     0
102
RTVSPost2010Prop57
140
1.0
102
RTVSPost2010PropOp57
 70
     0
102
RTVSPropertyOp0
 70
     0
102
RTVSPropertyOp1
 70
     0
102
RTVSPropertyOp2
 70
     0
102
RTVSPropertyOp3
 70
     0
102
RTVSPropertyOp4
 70
     0
102
RTVSPropertyOp5
 70
     0
102
RTVSPropertyOp6
 70
     0
102
RTVSPropertyOp7
 70
     0
102
RTVSPropertyOp8
 70
     0
102
RTVSPropertyOp9
 70
     0
102
RTVSPropertyOp10
 70
     0
102
RTVSPropertyOp11
 70
     0
102
RTVSPropertyOp12
 70
     0
102
RTVSPropertyOp13
 70
     0
102
RTVSPropertyOp14
 70
     2
102
RTVSPropertyOp15
 70
     0
102
RTVSPropertyOp16
 70
     0
102
RTVSPropertyOp17
 70
     0
102
RTVSPropertyOp18
 70
     0
102
RTVSPropertyOp19
 70
     0
102
RTVSPropertyOp20
 70
     0
102
RTVSPropertyOp21
 70
     0
102
RTVSPropertyOp22
 70
     0
102
RTVSPropertyOp23
 70
     0
102
RTVSPropertyOp24
 70
     0
102
RTVSPropertyOp25
 70
     0
102
RTVSPropertyOp26
 70
     0
102
RTVSPropertyOp27
 70
     0
102
RTVSPropertyOp28
 70
     1
102
RTVSPropertyOp29
 70
     1
102
RTVSPropertyOp30
 70
     1
102
RTVSPropertyOp31
 70
     1
102
RTVSPropertyOp32
 70
     1
102
RTVSPropertyOp33
 70
     1
102
RTVSPropertyOp34
 70
     1
102
RTVSPropertyOp35
 70
     1
102
RTVSPropertyOp36
 70
     1
102
RTVSPropertyOp37
 70
     0
102
RTVSPropertyOp38
 70
     0
102
RTVSPropertyOp39
 70
     0
102
RTVSPropertyOp40
 70
     0
102
RTVSPropertyOp41
 70
     0
102
RTVSPropertyOp42
 70
     0
102
RTVSPropertyOp43
 70
     0
102
RTVSPropertyOp44
 70
     0
102
RTVSPropertyOp45
 70
     1
102
RTVSPropertyOp46
 70
     0
102
RTVSPropertyOp47
 70
     0
102
RTVSPropertyOp48
 70
     0
102
RTVSPropertyOp49
 70
     1
102
RTVSPropertyOp50
 70
     0
102
RTVSPropertyOp51
 70
     0
102
RTVSPropertyOp52
 70
     0
102
RTVSPropertyOp53
 70
     0
102
RTVSPropertyOp54
 70
     0
102
RTVSPropertyOp55
 70
     1
102
RTVSPropertyOp56
 70
     0
102
RTVSPropertyOp57
 70
     0
102
RTVSPropertyOp58
 70
     1
102
RTVSPropertyOp59
 70
     1
102
RTVSPropertyOp60
 70
     1
102
RTVSPropertyOp61
 70
     1
102
RTVSPropertyOp62
 70
     1
  0
XRECORD
  5
22477
102
{ACAD_REACTORS
330
22476
102
}
330
22476
100
AcDbXrecord
280
     1
102
RTVSPost2010Prop28
280
     0
102
RTVSPost2010PropOp28
 70
     1
102
RTVSPost2010Prop29
280
     1
102
RTVSPost2010PropOp29
 70
     1
102
RTVSPost2010Prop30
280
     1
102
RTVSPost2010PropOp30
 70
     1
102
RTVSPost2010Prop31
280
     0
102
RTVSPost2010PropOp31
 70
     1
102
RTVSPost2010Prop32
280
     0
102
RTVSPost2010PropOp32
 70
     1
102
RTVSPost2010Prop33
280
     0
102
RTVSPost2010PropOp33
 70
     1
102
RTVSPost2010Prop34
280
     0
102
RTVSPost2010PropOp34
 70
     1
102
RTVSPost2010Prop35
280
     0
102
RTVSPost2010PropOp35
 70
     1
102
RTVSPost2010Prop36
280
     0
102
RTVSPost2010PropOp36
 70
     1
102
RTVSPost2010Prop37
 90
       50
102
RTVSPost2010PropOp37
 70
     1
102
RTVSPost2010Prop38
140
0.0
102
RTVSPost2010PropOp38
 70
     1
102
RTVSPost2010Prop39
140
1.0
102
RTVSPost2010PropOp39
 70
     1
102
RTVSPost2010Prop40
 90
        0
102
RTVSPost2010PropOp40
 70
     1
102
RTVSPost2010Prop41ColorIndex
 90
       18
102
RTVSPost2010Prop41ColorRGB
 90
        0
102
RTVSPost2010PropOp41
 70
     1
102
RTVSPost2010Prop42
 90
       50
102
RTVSPost2010PropOp42
 70
     1
102
RTVSPost2010Prop43
 90
        3
102
RTVSPost2010PropOp43
 70
     1
102
RTVSPost2010Prop44ColorIndex
 90
        5
102
RTVSPost2010Prop44ColorRGB
 90
      255
102
RTVSPost2010PropOp44
 70
     1
102
RTVSPost2010Prop45
280
     0
102
RTVSPost2010PropOp45
 70
     1
102
RTVSPost2010Prop46
 90
       50
102
RTVSPost2010PropOp46
 70
     1
102
RTVSPost2010Prop47
 90
       50
102
RTVSPost2010PropOp47
 70
     1
102
RTVSPost2010Prop48
 90
       50
102
RTVSPost2010PropOp48
 70
     1
102
RTVSPost2010Prop49
280
     0
102
RTVSPost2010PropOp49
 70
     1
102
RTVSPost2010Prop50
 90
       50
102
RTVSPost2010PropOp50
 70
     1
102
RTVSPost2010Prop51ColorIndex
 90
      256
102
RTVSPost2010Prop51ColorRGB
 90
-16777216
102
RTVSPost2010PropOp51
 70
     0
102
RTVSPost2010Prop52
140
1.0
102
RTVSPost2010PropOp52
 70
     0
102
RTVSPost2010Prop53
 90
        2
102
RTVSPost2010PropOp53
 70
     1
102
RTVSPost2010Prop54
  1
strokes_ogs.tif
102
RTVSPost2010PropOp54
 70
     1
102
RTVSPost2010Prop55
280
     0
102
RTVSPost2010PropOp55
 70
     1
102
RTVSPost2010Prop56
140
1.0
102
RTVSPost2010PropOp56
 70
     1
102
RTVSPost2010Prop57
140
1.0
102
RTVSPost2010PropOp57
 70
     1
102
RTVSPropertyOp0
 70
     1
102
RTVSPropertyOp1
 70
     1
102
RTVSPropertyOp2
 70
     1
102
RTVSPropertyOp3
 70
     1
102
RTVSPropertyOp4
 70
     1
102
RTVSPropertyOp5
 70
     1
102
RTVSPropertyOp6
 70
     1
102
RTVSPropertyOp7
 70
     1
102
RTVSPropertyOp8
 70
     1
102
RTVSPropertyOp9
 70
     1
102
RTVSPropertyOp10
 70
     1
102
RTVSPropertyOp11
 70
     1
102
RTVSPropertyOp12
 70
     1
102
RTVSPropertyOp13
 70
     1
102
RTVSPropertyOp14
 70
     1
102
RTVSPropertyOp15
 70
     1
102
RTVSPropertyOp16
 70
     1
102
RTVSPropertyOp17
 70
     1
102
RTVSPropertyOp18
 70
     1
102
RTVSPropertyOp19
 70
     1
102
RTVSPropertyOp20
 70
     1
102
RTVSPropertyOp21
 70
     1
102
RTVSPropertyOp22
 70
     1
102
RTVSPropertyOp23
 70
     1
102
RTVSPropertyOp24
 70
     1
102
RTVSPropertyOp25
 70
     1
102
RTVSPropertyOp26
 70
     1
102
RTVSPropertyOp27
 70
     1
102
RTVSPropertyOp28
 70
     1
102
RTVSPropertyOp29
 70
     1
102
RTVSPropertyOp30
 70
     1
102
RTVSPropertyOp31
 70
     1
102
RTVSPropertyOp32
 70
     1
102
RTVSPropertyOp33
 70
     1
102
RTVSPropertyOp34
 70
     1
102
RTVSPropertyOp35
 70
     1
102
RTVSPropertyOp36
 70
     1
102
RTVSPropertyOp37
 70
     1
102
RTVSPropertyOp38
 70
     1
102
RTVSPropertyOp39
 70
     1
102
RTVSPropertyOp40
 70
     1
102
RTVSPropertyOp41
 70
     1
102
RTVSPropertyOp42
 70
     1
102
RTVSPropertyOp43
 70
     1
102
RTVSPropertyOp44
 70
     1
102
RTVSPropertyOp45
 70
     1
102
RTVSPropertyOp46
 70
     1
102
RTVSPropertyOp47
 70
     1
102
RTVSPropertyOp48
 70
     1
102
RTVSPropertyOp49
 70
     1
102
RTVSPropertyOp50
 70
     1
102
RTVSPropertyOp51
 70
     0
102
RTVSPropertyOp52
 70
     0
102
RTVSPropertyOp53
 70
     1
102
RTVSPropertyOp54
 70
     1
102
RTVSPropertyOp55
 70
     1
102
RTVSPropertyOp56
 70
     1
102
RTVSPropertyOp57
 70
     1
102
RTVSPropertyOp58
 70
     1
102
RTVSPropertyOp59
 70
     1
102
RTVSPropertyOp60
 70
     1
102
RTVSPropertyOp61
 70
     1
102
RTVSPropertyOp62
 70
     1
  0
XRECORD
  5
2245B
102
{ACAD_REACTORS
330
2245A
102
}
330
2245A
100
AcDbXrecord
280
     1
102
RTVSPost2010Prop28
280
     0
102
RTVSPost2010PropOp28
 70
     1
102
RTVSPost2010Prop29
280
     1
102
RTVSPost2010PropOp29
 70
     1
102
RTVSPost2010Prop30
280
     1
102
RTVSPost2010PropOp30
 70
     1
102
RTVSPost2010Prop31
280
     0
102
RTVSPost2010PropOp31
 70
     1
102
RTVSPost2010Prop32
280
     0
102
RTVSPost2010PropOp32
 70
     1
102
RTVSPost2010Prop33
280
     0
102
RTVSPost2010PropOp33
 70
     1
102
RTVSPost2010Prop34
280
     0
102
RTVSPost2010PropOp34
 70
     1
102
RTVSPost2010Prop35
280
     0
102
RTVSPost2010PropOp35
 70
     1
102
RTVSPost2010Prop36
280
     0
102
RTVSPost2010PropOp36
 70
     1
102
RTVSPost2010Prop37
 90
       50
102
RTVSPost2010PropOp37
 70
     1
102
RTVSPost2010Prop38
140
0.0
102
RTVSPost2010PropOp38
 70
     1
102
RTVSPost2010Prop39
140
1.0
102
RTVSPost2010PropOp39
 70
     1
102
RTVSPost2010Prop40
 90
        0
102
RTVSPost2010PropOp40
 70
     1
102
RTVSPost2010Prop41ColorIndex
 90
       18
102
RTVSPost2010Prop41ColorRGB
 90
        0
102
RTVSPost2010PropOp41
 70
     1
102
RTVSPost2010Prop42
 90
       50
102
RTVSPost2010PropOp42
 70
     1
102
RTVSPost2010Prop43
 90
        3
102
RTVSPost2010PropOp43
 70
     1
102
RTVSPost2010Prop44ColorIndex
 90
        5
102
RTVSPost2010Prop44ColorRGB
 90
      255
102
RTVSPost2010PropOp44
 70
     1
102
RTVSPost2010Prop45
280
     0
102
RTVSPost2010PropOp45
 70
     1
102
RTVSPost2010Prop46
 90
       50
102
RTVSPost2010PropOp46
 70
     1
102
RTVSPost2010Prop47
 90
       50
102
RTVSPost2010PropOp47
 70
     1
102
RTVSPost2010Prop48
 90
       50
102
RTVSPost2010PropOp48
 70
     1
102
RTVSPost2010Prop49
280
     0
102
RTVSPost2010PropOp49
 70
     1
102
RTVSPost2010Prop50
 90
       50
102
RTVSPost2010PropOp50
 70
     1
102
RTVSPost2010Prop51ColorIndex
 90
      256
102
RTVSPost2010Prop51ColorRGB
 90
-16777216
102
RTVSPost2010PropOp51
 70
     0
102
RTVSPost2010Prop52
140
1.0
102
RTVSPost2010PropOp52
 70
     0
102
RTVSPost2010Prop53
 90
        2
102
RTVSPost2010PropOp53
 70
     1
102
RTVSPost2010Prop54
  1
strokes_ogs.tif
102
RTVSPost2010PropOp54
 70
     1
102
RTVSPost2010Prop55
280
     0
102
RTVSPost2010PropOp55
 70
     1
102
RTVSPost2010Prop56
140
1.0
102
RTVSPost2010PropOp56
 70
     1
102
RTVSPost2010Prop57
140
1.0
102
RTVSPost2010PropOp57
 70
     1
102
RTVSPropertyOp0
 70
     1
102
RTVSPropertyOp1
 70
     1
102
RTVSPropertyOp2
 70
     1
102
RTVSPropertyOp3
 70
     1
102
RTVSPropertyOp4
 70
     1
102
RTVSPropertyOp5
 70
     1
102
RTVSPropertyOp6
 70
     1
102
RTVSPropertyOp7
 70
     1
102
RTVSPropertyOp8
 70
     1
102
RTVSPropertyOp9
 70
     1
102
RTVSPropertyOp10
 70
     1
102
RTVSPropertyOp11
 70
     1
102
RTVSPropertyOp12
 70
     1
102
RTVSPropertyOp13
 70
     1
102
RTVSPropertyOp14
 70
     1
102
RTVSPropertyOp15
 70
     1
102
RTVSPropertyOp16
 70
     1
102
RTVSPropertyOp17
 70
     1
102
RTVSPropertyOp18
 70
     1
102
RTVSPropertyOp19
 70
     1
102
RTVSPropertyOp20
 70
     1
102
RTVSPropertyOp21
 70
     1
102
RTVSPropertyOp22
 70
     1
102
RTVSPropertyOp23
 70
     1
102
RTVSPropertyOp24
 70
     1
102
RTVSPropertyOp25
 70
     1
102
RTVSPropertyOp26
 70
     1
102
RTVSPropertyOp27
 70
     1
102
RTVSPropertyOp28
 70
     1
102
RTVSPropertyOp29
 70
     1
102
RTVSPropertyOp30
 70
     1
102
RTVSPropertyOp31
 70
     1
102
RTVSPropertyOp32
 70
     1
102
RTVSPropertyOp33
 70
     1
102
RTVSPropertyOp34
 70
     1
102
RTVSPropertyOp35
 70
     1
102
RTVSPropertyOp36
 70
     1
102
RTVSPropertyOp37
 70
     1
102
RTVSPropertyOp38
 70
     1
102
RTVSPropertyOp39
 70
     1
102
RTVSPropertyOp40
 70
     1
102
RTVSPropertyOp41
 70
     1
102
RTVSPropertyOp42
 70
     1
102
RTVSPropertyOp43
 70
     1
102
RTVSPropertyOp44
 70
     1
102
RTVSPropertyOp45
 70
     1
102
RTVSPropertyOp46
 70
     1
102
RTVSPropertyOp47
 70
     1
102
RTVSPropertyOp48
 70
     1
102
RTVSPropertyOp49
 70
     1
102
RTVSPropertyOp50
 70
     1
102
RTVSPropertyOp51
 70
     0
102
RTVSPropertyOp52
 70
     0
102
RTVSPropertyOp53
 70
     1
102
RTVSPropertyOp54
 70
     1
102
RTVSPropertyOp55
 70
     1
102
RTVSPropertyOp56
 70
     1
102
RTVSPropertyOp57
 70
     1
102
RTVSPropertyOp58
 70
     1
102
RTVSPropertyOp59
 70
     1
102
RTVSPropertyOp60
 70
     1
102
RTVSPropertyOp61
 70
     1
102
RTVSPropertyOp62
 70
     1
  0
XRECORD
  5
2245D
102
{ACAD_REACTORS
330
2245C
102
}
330
2245C
100
AcDbXrecord
280
     1
102
RTVSPost2010Prop28
280
     0
102
RTVSPost2010PropOp28
 70
     1
102
RTVSPost2010Prop29
280
     1
102
RTVSPost2010PropOp29
 70
     1
102
RTVSPost2010Prop30
280
     1
102
RTVSPost2010PropOp30
 70
     1
102
RTVSPost2010Prop31
280
     0
102
RTVSPost2010PropOp31
 70
     1
102
RTVSPost2010Prop32
280
     0
102
RTVSPost2010PropOp32
 70
     1
102
RTVSPost2010Prop33
280
     0
102
RTVSPost2010PropOp33
 70
     1
102
RTVSPost2010Prop34
280
     0
102
RTVSPost2010PropOp34
 70
     1
102
RTVSPost2010Prop35
280
     0
102
RTVSPost2010PropOp35
 70
     1
102
RTVSPost2010Prop36
280
     0
102
RTVSPost2010PropOp36
 70
     1
102
RTVSPost2010Prop37
 90
       50
102
RTVSPost2010PropOp37
 70
     1
102
RTVSPost2010Prop38
140
0.0
102
RTVSPost2010PropOp38
 70
     1
102
RTVSPost2010Prop39
140
1.0
102
RTVSPost2010PropOp39
 70
     1
102
RTVSPost2010Prop40
 90
        0
102
RTVSPost2010PropOp40
 70
     1
102
RTVSPost2010Prop41ColorIndex
 90
       18
102
RTVSPost2010Prop41ColorRGB
 90
        0
102
RTVSPost2010PropOp41
 70
     1
102
RTVSPost2010Prop42
 90
       50
102
RTVSPost2010PropOp42
 70
     1
102
RTVSPost2010Prop43
 90
        3
102
RTVSPost2010PropOp43
 70
     1
102
RTVSPost2010Prop44ColorIndex
 90
        5
102
RTVSPost2010Prop44ColorRGB
 90
      255
102
RTVSPost2010PropOp44
 70
     1
102
RTVSPost2010Prop45
280
     0
102
RTVSPost2010PropOp45
 70
     1
102
RTVSPost2010Prop46
 90
       50
102
RTVSPost2010PropOp46
 70
     1
102
RTVSPost2010Prop47
 90
       50
102
RTVSPost2010PropOp47
 70
     1
102
RTVSPost2010Prop48
 90
       50
102
RTVSPost2010PropOp48
 70
     1
102
RTVSPost2010Prop49
280
     0
102
RTVSPost2010PropOp49
 70
     1
102
RTVSPost2010Prop50
 90
       50
102
RTVSPost2010PropOp50
 70
     1
102
RTVSPost2010Prop51ColorIndex
 90
      256
102
RTVSPost2010Prop51ColorRGB
 90
-16777216
102
RTVSPost2010PropOp51
 70
     0
102
RTVSPost2010Prop52
140
1.0
102
RTVSPost2010PropOp52
 70
     0
102
RTVSPost2010Prop53
 90
        2
102
RTVSPost2010PropOp53
 70
     1
102
RTVSPost2010Prop54
  1
strokes_ogs.tif
102
RTVSPost2010PropOp54
 70
     1
102
RTVSPost2010Prop55
280
     0
102
RTVSPost2010PropOp55
 70
     1
102
RTVSPost2010Prop56
140
1.0
102
RTVSPost2010PropOp56
 70
     1
102
RTVSPost2010Prop57
140
1.0
102
RTVSPost2010PropOp57
 70
     1
102
RTVSPropertyOp0
 70
     1
102
RTVSPropertyOp1
 70
     1
102
RTVSPropertyOp2
 70
     1
102
RTVSPropertyOp3
 70
     1
102
RTVSPropertyOp4
 70
     1
102
RTVSPropertyOp5
 70
     1
102
RTVSPropertyOp6
 70
     1
102
RTVSPropertyOp7
 70
     1
102
RTVSPropertyOp8
 70
     1
102
RTVSPropertyOp9
 70
     1
102
RTVSPropertyOp10
 70
     1
102
RTVSPropertyOp11
 70
     1
102
RTVSPropertyOp12
 70
     1
102
RTVSPropertyOp13
 70
     1
102
RTVSPropertyOp14
 70
     1
102
RTVSPropertyOp15
 70
     1
102
RTVSPropertyOp16
 70
     1
102
RTVSPropertyOp17
 70
     1
102
RTVSPropertyOp18
 70
     1
102
RTVSPropertyOp19
 70
     1
102
RTVSPropertyOp20
 70
     1
102
RTVSPropertyOp21
 70
     1
102
RTVSPropertyOp22
 70
     1
102
RTVSPropertyOp23
 70
     1
102
RTVSPropertyOp24
 70
     1
102
RTVSPropertyOp25
 70
     1
102
RTVSPropertyOp26
 70
     1
102
RTVSPropertyOp27
 70
     1
102
RTVSPropertyOp28
 70
     1
102
RTVSPropertyOp29
 70
     1
102
RTVSPropertyOp30
 70
     1
102
RTVSPropertyOp31
 70
     1
102
RTVSPropertyOp32
 70
     1
102
RTVSPropertyOp33
 70
     1
102
RTVSPropertyOp34
 70
     1
102
RTVSPropertyOp35
 70
     1
102
RTVSPropertyOp36
 70
     1
102
RTVSPropertyOp37
 70
     1
102
RTVSPropertyOp38
 70
     1
102
RTVSPropertyOp39
 70
     1
102
RTVSPropertyOp40
 70
     1
102
RTVSPropertyOp41
 70
     1
102
RTVSPropertyOp42
 70
     1
102
RTVSPropertyOp43
 70
     1
102
RTVSPropertyOp44
 70
     1
102
RTVSPropertyOp45
 70
     1
102
RTVSPropertyOp46
 70
     1
102
RTVSPropertyOp47
 70
     1
102
RTVSPropertyOp48
 70
     1
102
RTVSPropertyOp49
 70
     1
102
RTVSPropertyOp50
 70
     1
102
RTVSPropertyOp51
 70
     0
102
RTVSPropertyOp52
 70
     0
102
RTVSPropertyOp53
 70
     1
102
RTVSPropertyOp54
 70
     1
102
RTVSPropertyOp55
 70
     1
102
RTVSPropertyOp56
 70
     1
102
RTVSPropertyOp57
 70
     1
102
RTVSPropertyOp58
 70
     1
102
RTVSPropertyOp59
 70
     1
102
RTVSPropertyOp60
 70
     1
102
RTVSPropertyOp61
 70
     1
102
RTVSPropertyOp62
 70
     1
  0
XRECORD
  5
2245F
102
{ACAD_REACTORS
330
2245E
102
}
330
2245E
100
AcDbXrecord
280
     1
102
RTVSPost2010Prop28
280
     0
102
RTVSPost2010PropOp28
 70
     1
102
RTVSPost2010Prop29
280
     1
102
RTVSPost2010PropOp29
 70
     1
102
RTVSPost2010Prop30
280
     1
102
RTVSPost2010PropOp30
 70
     1
102
RTVSPost2010Prop31
280
     0
102
RTVSPost2010PropOp31
 70
     1
102
RTVSPost2010Prop32
280
     0
102
RTVSPost2010PropOp32
 70
     1
102
RTVSPost2010Prop33
280
     0
102
RTVSPost2010PropOp33
 70
     1
102
RTVSPost2010Prop34
280
     0
102
RTVSPost2010PropOp34
 70
     1
102
RTVSPost2010Prop35
280
     0
102
RTVSPost2010PropOp35
 70
     1
102
RTVSPost2010Prop36
280
     0
102
RTVSPost2010PropOp36
 70
     1
102
RTVSPost2010Prop37
 90
       50
102
RTVSPost2010PropOp37
 70
     1
102
RTVSPost2010Prop38
140
0.0
102
RTVSPost2010PropOp38
 70
     1
102
RTVSPost2010Prop39
140
1.0
102
RTVSPost2010PropOp39
 70
     1
102
RTVSPost2010Prop40
 90
        0
102
RTVSPost2010PropOp40
 70
     1
102
RTVSPost2010Prop41ColorIndex
 90
       18
102
RTVSPost2010Prop41ColorRGB
 90
        0
102
RTVSPost2010PropOp41
 70
     1
102
RTVSPost2010Prop42
 90
       50
102
RTVSPost2010PropOp42
 70
     1
102
RTVSPost2010Prop43
 90
        3
102
RTVSPost2010PropOp43
 70
     1
102
RTVSPost2010Prop44ColorIndex
 90
        5
102
RTVSPost2010Prop44ColorRGB
 90
      255
102
RTVSPost2010PropOp44
 70
     1
102
RTVSPost2010Prop45
280
     0
102
RTVSPost2010PropOp45
 70
     1
102
RTVSPost2010Prop46
 90
       50
102
RTVSPost2010PropOp46
 70
     1
102
RTVSPost2010Prop47
 90
       50
102
RTVSPost2010PropOp47
 70
     1
102
RTVSPost2010Prop48
 90
       50
102
RTVSPost2010PropOp48
 70
     1
102
RTVSPost2010Prop49
280
     0
102
RTVSPost2010PropOp49
 70
     1
102
RTVSPost2010Prop50
 90
       50
102
RTVSPost2010PropOp50
 70
     1
102
RTVSPost2010Prop51ColorIndex
 90
      256
102
RTVSPost2010Prop51ColorRGB
 90
-16777216
102
RTVSPost2010PropOp51
 70
     0
102
RTVSPost2010Prop52
140
1.0
102
RTVSPost2010PropOp52
 70
     0
102
RTVSPost2010Prop53
 90
        2
102
RTVSPost2010PropOp53
 70
     1
102
RTVSPost2010Prop54
  1
strokes_ogs.tif
102
RTVSPost2010PropOp54
 70
     1
102
RTVSPost2010Prop55
280
     0
102
RTVSPost2010PropOp55
 70
     1
102
RTVSPost2010Prop56
140
1.0
102
RTVSPost2010PropOp56
 70
     1
102
RTVSPost2010Prop57
140
1.0
102
RTVSPost2010PropOp57
 70
     1
102
RTVSPropertyOp0
 70
     1
102
RTVSPropertyOp1
 70
     1
102
RTVSPropertyOp2
 70
     1
102
RTVSPropertyOp3
 70
     1
102
RTVSPropertyOp4
 70
     1
102
RTVSPropertyOp5
 70
     1
102
RTVSPropertyOp6
 70
     1
102
RTVSPropertyOp7
 70
     1
102
RTVSPropertyOp8
 70
     1
102
RTVSPropertyOp9
 70
     1
102
RTVSPropertyOp10
 70
     1
102
RTVSPropertyOp11
 70
     1
102
RTVSPropertyOp12
 70
     1
102
RTVSPropertyOp13
 70
     1
102
RTVSPropertyOp14
 70
     1
102
RTVSPropertyOp15
 70
     1
102
RTVSPropertyOp16
 70
     1
102
RTVSPropertyOp17
 70
     1
102
RTVSPropertyOp18
 70
     1
102
RTVSPropertyOp19
 70
     1
102
RTVSPropertyOp20
 70
     1
102
RTVSPropertyOp21
 70
     1
102
RTVSPropertyOp22
 70
     1
102
RTVSPropertyOp23
 70
     1
102
RTVSPropertyOp24
 70
     1
102
RTVSPropertyOp25
 70
     1
102
RTVSPropertyOp26
 70
     1
102
RTVSPropertyOp27
 70
     1
102
RTVSPropertyOp28
 70
     1
102
RTVSPropertyOp29
 70
     1
102
RTVSPropertyOp30
 70
     1
102
RTVSPropertyOp31
 70
     1
102
RTVSPropertyOp32
 70
     1
102
RTVSPropertyOp33
 70
     1
102
RTVSPropertyOp34
 70
     1
102
RTVSPropertyOp35
 70
     1
102
RTVSPropertyOp36
 70
     1
102
RTVSPropertyOp37
 70
     1
102
RTVSPropertyOp38
 70
     1
102
RTVSPropertyOp39
 70
     1
102
RTVSPropertyOp40
 70
     1
102
RTVSPropertyOp41
 70
     1
102
RTVSPropertyOp42
 70
     1
102
RTVSPropertyOp43
 70
     1
102
RTVSPropertyOp44
 70
     1
102
RTVSPropertyOp45
 70
     1
102
RTVSPropertyOp46
 70
     1
102
RTVSPropertyOp47
 70
     1
102
RTVSPropertyOp48
 70
     1
102
RTVSPropertyOp49
 70
     1
102
RTVSPropertyOp50
 70
     1
102
RTVSPropertyOp51
 70
     0
102
RTVSPropertyOp52
 70
     0
102
RTVSPropertyOp53
 70
     1
102
RTVSPropertyOp54
 70
     1
102
RTVSPropertyOp55
 70
     1
102
RTVSPropertyOp56
 70
     1
102
RTVSPropertyOp57
 70
     1
102
RTVSPropertyOp58
 70
     1
102
RTVSPropertyOp59
 70
     1
102
RTVSPropertyOp60
 70
     1
102
RTVSPropertyOp61
 70
     1
102
RTVSPropertyOp62
 70
     1
  0
XRECORD
  5
22461
102
{ACAD_REACTORS
330
22460
102
}
330
22460
100
AcDbXrecord
280
     1
102
RTVSPost2010Prop28
280
     0
102
RTVSPost2010PropOp28
 70
     1
102
RTVSPost2010Prop29
280
     1
102
RTVSPost2010PropOp29
 70
     1
102
RTVSPost2010Prop30
280
     1
102
RTVSPost2010PropOp30
 70
     1
102
RTVSPost2010Prop31
280
     0
102
RTVSPost2010PropOp31
 70
     1
102
RTVSPost2010Prop32
280
     0
102
RTVSPost2010PropOp32
 70
     1
102
RTVSPost2010Prop33
280
     0
102
RTVSPost2010PropOp33
 70
     1
102
RTVSPost2010Prop34
280
     0
102
RTVSPost2010PropOp34
 70
     1
102
RTVSPost2010Prop35
280
     0
102
RTVSPost2010PropOp35
 70
     1
102
RTVSPost2010Prop36
280
     0
102
RTVSPost2010PropOp36
 70
     1
102
RTVSPost2010Prop37
 90
       50
102
RTVSPost2010PropOp37
 70
     1
102
RTVSPost2010Prop38
140
0.0
102
RTVSPost2010PropOp38
 70
     1
102
RTVSPost2010Prop39
140
1.0
102
RTVSPost2010PropOp39
 70
     1
102
RTVSPost2010Prop40
 90
        0
102
RTVSPost2010PropOp40
 70
     1
102
RTVSPost2010Prop41ColorIndex
 90
       18
102
RTVSPost2010Prop41ColorRGB
 90
        0
102
RTVSPost2010PropOp41
 70
     1
102
RTVSPost2010Prop42
 90
       50
102
RTVSPost2010PropOp42
 70
     1
102
RTVSPost2010Prop43
 90
        3
102
RTVSPost2010PropOp43
 70
     1
102
RTVSPost2010Prop44ColorIndex
 90
        5
102
RTVSPost2010Prop44ColorRGB
 90
      255
102
RTVSPost2010PropOp44
 70
     1
102
RTVSPost2010Prop45
280
     0
102
RTVSPost2010PropOp45
 70
     1
102
RTVSPost2010Prop46
 90
       50
102
RTVSPost2010PropOp46
 70
     1
102
RTVSPost2010Prop47
 90
       50
102
RTVSPost2010PropOp47
 70
     1
102
RTVSPost2010Prop48
 90
       50
102
RTVSPost2010PropOp48
 70
     1
102
RTVSPost2010Prop49
280
     0
102
RTVSPost2010PropOp49
 70
     1
102
RTVSPost2010Prop50
 90
       50
102
RTVSPost2010PropOp50
 70
     1
102
RTVSPost2010Prop51ColorIndex
 90
      256
102
RTVSPost2010Prop51ColorRGB
 90
-16777216
102
RTVSPost2010PropOp51
 70
     0
102
RTVSPost2010Prop52
140
1.0
102
RTVSPost2010PropOp52
 70
     0
102
RTVSPost2010Prop53
 90
        2
102
RTVSPost2010PropOp53
 70
     1
102
RTVSPost2010Prop54
  1
strokes_ogs.tif
102
RTVSPost2010PropOp54
 70
     1
102
RTVSPost2010Prop55
280
     0
102
RTVSPost2010PropOp55
 70
     1
102
RTVSPost2010Prop56
140
1.0
102
RTVSPost2010PropOp56
 70
     1
102
RTVSPost2010Prop57
140
1.0
102
RTVSPost2010PropOp57
 70
     1
102
RTVSPropertyOp0
 70
     1
102
RTVSPropertyOp1
 70
     1
102
RTVSPropertyOp2
 70
     1
102
RTVSPropertyOp3
 70
     1
102
RTVSPropertyOp4
 70
     1
102
RTVSPropertyOp5
 70
     1
102
RTVSPropertyOp6
 70
     1
102
RTVSPropertyOp7
 70
     1
102
RTVSPropertyOp8
 70
     1
102
RTVSPropertyOp9
 70
     1
102
RTVSPropertyOp10
 70
     1
102
RTVSPropertyOp11
 70
     1
102
RTVSPropertyOp12
 70
     1
102
RTVSPropertyOp13
 70
     1
102
RTVSPropertyOp14
 70
     1
102
RTVSPropertyOp15
 70
     1
102
RTVSPropertyOp16
 70
     1
102
RTVSPropertyOp17
 70
     1
102
RTVSPropertyOp18
 70
     1
102
RTVSPropertyOp19
 70
     1
102
RTVSPropertyOp20
 70
     1
102
RTVSPropertyOp21
 70
     1
102
RTVSPropertyOp22
 70
     1
102
RTVSPropertyOp23
 70
     1
102
RTVSPropertyOp24
 70
     1
102
RTVSPropertyOp25
 70
     1
102
RTVSPropertyOp26
 70
     1
102
RTVSPropertyOp27
 70
     1
102
RTVSPropertyOp28
 70
     1
102
RTVSPropertyOp29
 70
     1
102
RTVSPropertyOp30
 70
     1
102
RTVSPropertyOp31
 70
     1
102
RTVSPropertyOp32
 70
     1
102
RTVSPropertyOp33
 70
     1
102
RTVSPropertyOp34
 70
     1
102
RTVSPropertyOp35
 70
     1
102
RTVSPropertyOp36
 70
     1
102
RTVSPropertyOp37
 70
     1
102
RTVSPropertyOp38
 70
     1
102
RTVSPropertyOp39
 70
     1
102
RTVSPropertyOp40
 70
     1
102
RTVSPropertyOp41
 70
     1
102
RTVSPropertyOp42
 70
     1
102
RTVSPropertyOp43
 70
     1
102
RTVSPropertyOp44
 70
     1
102
RTVSPropertyOp45
 70
     1
102
RTVSPropertyOp46
 70
     1
102
RTVSPropertyOp47
 70
     1
102
RTVSPropertyOp48
 70
     1
102
RTVSPropertyOp49
 70
     1
102
RTVSPropertyOp50
 70
     1
102
RTVSPropertyOp51
 70
     0
102
RTVSPropertyOp52
 70
     0
102
RTVSPropertyOp53
 70
     1
102
RTVSPropertyOp54
 70
     1
102
RTVSPropertyOp55
 70
     1
102
RTVSPropertyOp56
 70
     1
102
RTVSPropertyOp57
 70
     1
102
RTVSPropertyOp58
 70
     1
102
RTVSPropertyOp59
 70
     1
102
RTVSPropertyOp60
 70
     1
102
RTVSPropertyOp61
 70
     1
102
RTVSPropertyOp62
 70
     1
  0
XRECORD
  5
22486
102
{ACAD_REACTORS
330
22485
102
}
330
22485
100
AcDbXrecord
280
     1
102
RTVSPost2010Prop28
280
     0
102
RTVSPost2010PropOp28
 70
     1
102
RTVSPost2010Prop29
280
     1
102
RTVSPost2010PropOp29
 70
     1
102
RTVSPost2010Prop30
280
     1
102
RTVSPost2010PropOp30
 70
     1
102
RTVSPost2010Prop31
280
     0
102
RTVSPost2010PropOp31
 70
     1
102
RTVSPost2010Prop32
280
     0
102
RTVSPost2010PropOp32
 70
     1
102
RTVSPost2010Prop33
280
     0
102
RTVSPost2010PropOp33
 70
     1
102
RTVSPost2010Prop34
280
     0
102
RTVSPost2010PropOp34
 70
     1
102
RTVSPost2010Prop35
280
     0
102
RTVSPost2010PropOp35
 70
     1
102
RTVSPost2010Prop36
280
     0
102
RTVSPost2010PropOp36
 70
     1
102
RTVSPost2010Prop37
 90
       50
102
RTVSPost2010PropOp37
 70
     1
102
RTVSPost2010Prop38
140
0.0
102
RTVSPost2010PropOp38
 70
     1
102
RTVSPost2010Prop39
140
1.0
102
RTVSPost2010PropOp39
 70
     1
102
RTVSPost2010Prop40
 90
        0
102
RTVSPost2010PropOp40
 70
     1
102
RTVSPost2010Prop41ColorIndex
 90
       18
102
RTVSPost2010Prop41ColorRGB
 90
        0
102
RTVSPost2010PropOp41
 70
     1
102
RTVSPost2010Prop42
 90
       50
102
RTVSPost2010PropOp42
 70
     1
102
RTVSPost2010Prop43
 90
        3
102
RTVSPost2010PropOp43
 70
     1
102
RTVSPost2010Prop44ColorIndex
 90
        5
102
RTVSPost2010Prop44ColorRGB
 90
      255
102
RTVSPost2010PropOp44
 70
     1
102
RTVSPost2010Prop45
280
     0
102
RTVSPost2010PropOp45
 70
     1
102
RTVSPost2010Prop46
 90
       50
102
RTVSPost2010PropOp46
 70
     1
102
RTVSPost2010Prop47
 90
       50
102
RTVSPost2010PropOp47
 70
     1
102
RTVSPost2010Prop48
 90
       50
102
RTVSPost2010PropOp48
 70
     1
102
RTVSPost2010Prop49
280
     0
102
RTVSPost2010PropOp49
 70
     1
102
RTVSPost2010Prop50
 90
       50
102
RTVSPost2010PropOp50
 70
     1
102
RTVSPost2010Prop51ColorIndex
 90
      256
102
RTVSPost2010Prop51ColorRGB
 90
-16777216
102
RTVSPost2010PropOp51
 70
     0
102
RTVSPost2010Prop52
140
1.0
102
RTVSPost2010PropOp52
 70
     0
102
RTVSPost2010Prop53
 90
        2
102
RTVSPost2010PropOp53
 70
     1
102
RTVSPost2010Prop54
  1
strokes_ogs.tif
102
RTVSPost2010PropOp54
 70
     1
102
RTVSPost2010Prop55
280
     0
102
RTVSPost2010PropOp55
 70
     1
102
RTVSPost2010Prop56
140
1.0
102
RTVSPost2010PropOp56
 70
     1
102
RTVSPost2010Prop57
140
1.0
102
RTVSPost2010PropOp57
 70
     1
102
RTVSPropertyOp0
 70
     1
102
RTVSPropertyOp1
 70
     1
102
RTVSPropertyOp2
 70
     1
102
RTVSPropertyOp3
 70
     1
102
RTVSPropertyOp4
 70
     1
102
RTVSPropertyOp5
 70
     1
102
RTVSPropertyOp6
 70
     1
102
RTVSPropertyOp7
 70
     1
102
RTVSPropertyOp8
 70
     1
102
RTVSPropertyOp9
 70
     1
102
RTVSPropertyOp10
 70
     1
102
RTVSPropertyOp11
 70
     1
102
RTVSPropertyOp12
 70
     1
102
RTVSPropertyOp13
 70
     1
102
RTVSPropertyOp14
 70
     1
102
RTVSPropertyOp15
 70
     1
102
RTVSPropertyOp16
 70
     1
102
RTVSPropertyOp17
 70
     1
102
RTVSPropertyOp18
 70
     1
102
RTVSPropertyOp19
 70
     1
102
RTVSPropertyOp20
 70
     1
102
RTVSPropertyOp21
 70
     1
102
RTVSPropertyOp22
 70
     1
102
RTVSPropertyOp23
 70
     1
102
RTVSPropertyOp24
 70
     1
102
RTVSPropertyOp25
 70
     1
102
RTVSPropertyOp26
 70
     1
102
RTVSPropertyOp27
 70
     1
102
RTVSPropertyOp28
 70
     1
102
RTVSPropertyOp29
 70
     1
102
RTVSPropertyOp30
 70
     1
102
RTVSPropertyOp31
 70
     1
102
RTVSPropertyOp32
 70
     1
102
RTVSPropertyOp33
 70
     1
102
RTVSPropertyOp34
 70
     1
102
RTVSPropertyOp35
 70
     1
102
RTVSPropertyOp36
 70
     1
102
RTVSPropertyOp37
 70
     1
102
RTVSPropertyOp38
 70
     1
102
RTVSPropertyOp39
 70
     1
102
RTVSPropertyOp40
 70
     1
102
RTVSPropertyOp41
 70
     1
102
RTVSPropertyOp42
 70
     1
102
RTVSPropertyOp43
 70
     1
102
RTVSPropertyOp44
 70
     1
102
RTVSPropertyOp45
 70
     1
102
RTVSPropertyOp46
 70
     1
102
RTVSPropertyOp47
 70
     1
102
RTVSPropertyOp48
 70
     1
102
RTVSPropertyOp49
 70
     1
102
RTVSPropertyOp50
 70
     1
102
RTVSPropertyOp51
 70
     0
102
RTVSPropertyOp52
 70
     0
102
RTVSPropertyOp53
 70
     1
102
RTVSPropertyOp54
 70
     1
102
RTVSPropertyOp55
 70
     1
102
RTVSPropertyOp56
 70
     1
102
RTVSPropertyOp57
 70
     1
102
RTVSPropertyOp58
 70
     1
102
RTVSPropertyOp59
 70
     1
102
RTVSPropertyOp60
 70
     1
102
RTVSPropertyOp61
 70
     1
102
RTVSPropertyOp62
 70
     1
  0
XRECORD
  5
22492
102
{ACAD_REACTORS
330
22491
102
}
330
22491
100
AcDbXrecord
280
     1
102
RTVSPost2010Prop28
280
     0
102
RTVSPost2010PropOp28
 70
     1
102
RTVSPost2010Prop29
280
     1
102
RTVSPost2010PropOp29
 70
     1
102
RTVSPost2010Prop30
280
     1
102
RTVSPost2010PropOp30
 70
     1
102
RTVSPost2010Prop31
280
     0
102
RTVSPost2010PropOp31
 70
     1
102
RTVSPost2010Prop32
280
     0
102
RTVSPost2010PropOp32
 70
     1
102
RTVSPost2010Prop33
280
     0
102
RTVSPost2010PropOp33
 70
     1
102
RTVSPost2010Prop34
280
     0
102
RTVSPost2010PropOp34
 70
     1
102
RTVSPost2010Prop35
280
     0
102
RTVSPost2010PropOp35
 70
     1
102
RTVSPost2010Prop36
280
     0
102
RTVSPost2010PropOp36
 70
     1
102
RTVSPost2010Prop37
 90
       50
102
RTVSPost2010PropOp37
 70
     0
102
RTVSPost2010Prop38
140
0.0
102
RTVSPost2010PropOp38
 70
     0
102
RTVSPost2010Prop39
140
1.0
102
RTVSPost2010PropOp39
 70
     0
102
RTVSPost2010Prop40
 90
        0
102
RTVSPost2010PropOp40
 70
     0
102
RTVSPost2010Prop41ColorIndex
 90
       18
102
RTVSPost2010Prop41ColorRGB
 90
        0
102
RTVSPost2010PropOp41
 70
     0
102
RTVSPost2010Prop42
 90
       50
102
RTVSPost2010PropOp42
 70
     0
102
RTVSPost2010Prop43
 90
        3
102
RTVSPost2010PropOp43
 70
     0
102
RTVSPost2010Prop44ColorIndex
 90
        5
102
RTVSPost2010Prop44ColorRGB
 90
      255
102
RTVSPost2010PropOp44
 70
     0
102
RTVSPost2010Prop45
280
     0
102
RTVSPost2010PropOp45
 70
     1
102
RTVSPost2010Prop46
 90
       50
102
RTVSPost2010PropOp46
 70
     0
102
RTVSPost2010Prop47
 90
       50
102
RTVSPost2010PropOp47
 70
     0
102
RTVSPost2010Prop48
 90
       50
102
RTVSPost2010PropOp48
 70
     0
102
RTVSPost2010Prop49
280
     0
102
RTVSPost2010PropOp49
 70
     1
102
RTVSPost2010Prop50
 90
       50
102
RTVSPost2010PropOp50
 70
     0
102
RTVSPost2010Prop51ColorIndex
 90
      256
102
RTVSPost2010Prop51ColorRGB
 90
-16777216
102
RTVSPost2010PropOp51
 70
     0
102
RTVSPost2010Prop52
140
1.0
102
RTVSPost2010PropOp52
 70
     0
102
RTVSPost2010Prop53
 90
        2
102
RTVSPost2010PropOp53
 70
     0
102
RTVSPost2010Prop54
  1
strokes_ogs.tif
102
RTVSPost2010PropOp54
 70
     0
102
RTVSPost2010Prop55
280
     0
102
RTVSPost2010PropOp55
 70
     1
102
RTVSPost2010Prop56
140
1.0
102
RTVSPost2010PropOp56
 70
     0
102
RTVSPost2010Prop57
140
1.0
102
RTVSPost2010PropOp57
 70
     0
102
RTVSPropertyOp0
 70
     0
102
RTVSPropertyOp1
 70
     0
102
RTVSPropertyOp2
 70
     0
102
RTVSPropertyOp3
 70
     0
102
RTVSPropertyOp4
 70
     0
102
RTVSPropertyOp5
 70
     0
102
RTVSPropertyOp6
 70
     0
102
RTVSPropertyOp7
 70
     0
102
RTVSPropertyOp8
 70
     0
102
RTVSPropertyOp9
 70
     0
102
RTVSPropertyOp10
 70
     0
102
RTVSPropertyOp11
 70
     0
102
RTVSPropertyOp12
 70
     0
102
RTVSPropertyOp13
 70
     0
102
RTVSPropertyOp14
 70
     2
102
RTVSPropertyOp15
 70
     0
102
RTVSPropertyOp16
 70
     0
102
RTVSPropertyOp17
 70
     0
102
RTVSPropertyOp18
 70
     0
102
RTVSPropertyOp19
 70
     0
102
RTVSPropertyOp20
 70
     0
102
RTVSPropertyOp21
 70
     0
102
RTVSPropertyOp22
 70
     0
102
RTVSPropertyOp23
 70
     0
102
RTVSPropertyOp24
 70
     0
102
RTVSPropertyOp25
 70
     0
102
RTVSPropertyOp26
 70
     0
102
RTVSPropertyOp27
 70
     0
102
RTVSPropertyOp28
 70
     1
102
RTVSPropertyOp29
 70
     1
102
RTVSPropertyOp30
 70
     1
102
RTVSPropertyOp31
 70
     1
102
RTVSPropertyOp32
 70
     1
102
RTVSPropertyOp33
 70
     1
102
RTVSPropertyOp34
 70
     1
102
RTVSPropertyOp35
 70
     1
102
RTVSPropertyOp36
 70
     1
102
RTVSPropertyOp37
 70
     0
102
RTVSPropertyOp38
 70
     0
102
RTVSPropertyOp39
 70
     0
102
RTVSPropertyOp40
 70
     0
102
RTVSPropertyOp41
 70
     0
102
RTVSPropertyOp42
 70
     0
102
RTVSPropertyOp43
 70
     0
102
RTVSPropertyOp44
 70
     0
102
RTVSPropertyOp45
 70
     1
102
RTVSPropertyOp46
 70
     0
102
RTVSPropertyOp47
 70
     0
102
RTVSPropertyOp48
 70
     0
102
RTVSPropertyOp49
 70
     1
102
RTVSPropertyOp50
 70
     0
102
RTVSPropertyOp51
 70
     0
102
RTVSPropertyOp52
 70
     0
102
RTVSPropertyOp53
 70
     0
102
RTVSPropertyOp54
 70
     0
102
RTVSPropertyOp55
 70
     1
102
RTVSPropertyOp56
 70
     0
102
RTVSPropertyOp57
 70
     0
102
RTVSPropertyOp58
 70
     1
102
RTVSPropertyOp59
 70
     1
102
RTVSPropertyOp60
 70
     1
102
RTVSPropertyOp61
 70
     1
102
RTVSPropertyOp62
 70
     1
  0
XRECORD
  5
22475
102
{ACAD_REACTORS
330
22474
102
}
330
22474
100
AcDbXrecord
280
     1
102
RTVSPost2010Prop28
280
     0
102
RTVSPost2010PropOp28
 70
     1
102
RTVSPost2010Prop29
280
     1
102
RTVSPost2010PropOp29
 70
     1
102
RTVSPost2010Prop30
280
     1
102
RTVSPost2010PropOp30
 70
     1
102
RTVSPost2010Prop31
280
     0
102
RTVSPost2010PropOp31
 70
     1
102
RTVSPost2010Prop32
280
     0
102
RTVSPost2010PropOp32
 70
     1
102
RTVSPost2010Prop33
280
     0
102
RTVSPost2010PropOp33
 70
     1
102
RTVSPost2010Prop34
280
     0
102
RTVSPost2010PropOp34
 70
     1
102
RTVSPost2010Prop35
280
     0
102
RTVSPost2010PropOp35
 70
     1
102
RTVSPost2010Prop36
280
     0
102
RTVSPost2010PropOp36
 70
     1
102
RTVSPost2010Prop37
 90
       50
102
RTVSPost2010PropOp37
 70
     1
102
RTVSPost2010Prop38
140
0.0
102
RTVSPost2010PropOp38
 70
     1
102
RTVSPost2010Prop39
140
1.0
102
RTVSPost2010PropOp39
 70
     1
102
RTVSPost2010Prop40
 90
        0
102
RTVSPost2010PropOp40
 70
     1
102
RTVSPost2010Prop41ColorIndex
 90
       18
102
RTVSPost2010Prop41ColorRGB
 90
        0
102
RTVSPost2010PropOp41
 70
     1
102
RTVSPost2010Prop42
 90
       50
102
RTVSPost2010PropOp42
 70
     1
102
RTVSPost2010Prop43
 90
        3
102
RTVSPost2010PropOp43
 70
     1
102
RTVSPost2010Prop44ColorIndex
 90
        5
102
RTVSPost2010Prop44ColorRGB
 90
      255
102
RTVSPost2010PropOp44
 70
     1
102
RTVSPost2010Prop45
280
     0
102
RTVSPost2010PropOp45
 70
     1
102
RTVSPost2010Prop46
 90
       50
102
RTVSPost2010PropOp46
 70
     1
102
RTVSPost2010Prop47
 90
       50
102
RTVSPost2010PropOp47
 70
     1
102
RTVSPost2010Prop48
 90
       50
102
RTVSPost2010PropOp48
 70
     1
102
RTVSPost2010Prop49
280
     0
102
RTVSPost2010PropOp49
 70
     1
102
RTVSPost2010Prop50
 90
       50
102
RTVSPost2010PropOp50
 70
     1
102
RTVSPost2010Prop51ColorIndex
 90
      256
102
RTVSPost2010Prop51ColorRGB
 90
-16777216
102
RTVSPost2010PropOp51
 70
     0
102
RTVSPost2010Prop52
140
1.0
102
RTVSPost2010PropOp52
 70
     0
102
RTVSPost2010Prop53
 90
        2
102
RTVSPost2010PropOp53
 70
     1
102
RTVSPost2010Prop54
  1
strokes_ogs.tif
102
RTVSPost2010PropOp54
 70
     1
102
RTVSPost2010Prop55
280
     0
102
RTVSPost2010PropOp55
 70
     1
102
RTVSPost2010Prop56
140
1.0
102
RTVSPost2010PropOp56
 70
     1
102
RTVSPost2010Prop57
140
1.0
102
RTVSPost2010PropOp57
 70
     1
102
RTVSPropertyOp0
 70
     1
102
RTVSPropertyOp1
 70
     1
102
RTVSPropertyOp2
 70
     1
102
RTVSPropertyOp3
 70
     1
102
RTVSPropertyOp4
 70
     1
102
RTVSPropertyOp5
 70
     1
102
RTVSPropertyOp6
 70
     1
102
RTVSPropertyOp7
 70
     1
102
RTVSPropertyOp8
 70
     1
102
RTVSPropertyOp9
 70
     1
102
RTVSPropertyOp10
 70
     1
102
RTVSPropertyOp11
 70
     1
102
RTVSPropertyOp12
 70
     1
102
RTVSPropertyOp13
 70
     1
102
RTVSPropertyOp14
 70
     1
102
RTVSPropertyOp15
 70
     1
102
RTVSPropertyOp16
 70
     1
102
RTVSPropertyOp17
 70
     1
102
RTVSPropertyOp18
 70
     1
102
RTVSPropertyOp19
 70
     1
102
RTVSPropertyOp20
 70
     1
102
RTVSPropertyOp21
 70
     1
102
RTVSPropertyOp22
 70
     1
102
RTVSPropertyOp23
 70
     1
102
RTVSPropertyOp24
 70
     1
102
RTVSPropertyOp25
 70
     1
102
RTVSPropertyOp26
 70
     1
102
RTVSPropertyOp27
 70
     1
102
RTVSPropertyOp28
 70
     1
102
RTVSPropertyOp29
 70
     1
102
RTVSPropertyOp30
 70
     1
102
RTVSPropertyOp31
 70
     1
102
RTVSPropertyOp32
 70
     1
102
RTVSPropertyOp33
 70
     1
102
RTVSPropertyOp34
 70
     1
102
RTVSPropertyOp35
 70
     1
102
RTVSPropertyOp36
 70
     1
102
RTVSPropertyOp37
 70
     1
102
RTVSPropertyOp38
 70
     1
102
RTVSPropertyOp39
 70
     1
102
RTVSPropertyOp40
 70
     1
102
RTVSPropertyOp41
 70
     1
102
RTVSPropertyOp42
 70
     1
102
RTVSPropertyOp43
 70
     1
102
RTVSPropertyOp44
 70
     1
102
RTVSPropertyOp45
 70
     1
102
RTVSPropertyOp46
 70
     1
102
RTVSPropertyOp47
 70
     1
102
RTVSPropertyOp48
 70
     1
102
RTVSPropertyOp49
 70
     1
102
RTVSPropertyOp50
 70
     1
102
RTVSPropertyOp51
 70
     0
102
RTVSPropertyOp52
 70
     0
102
RTVSPropertyOp53
 70
     1
102
RTVSPropertyOp54
 70
     1
102
RTVSPropertyOp55
 70
     1
102
RTVSPropertyOp56
 70
     1
102
RTVSPropertyOp57
 70
     1
102
RTVSPropertyOp58
 70
     1
102
RTVSPropertyOp59
 70
     1
102
RTVSPropertyOp60
 70
     1
102
RTVSPropertyOp61
 70
     1
102
RTVSPropertyOp62
 70
     1
  0
XRECORD
  5
22494
102
{ACAD_REACTORS
330
22493
102
}
330
22493
100
AcDbXrecord
280
     1
102
RTVSPost2010Prop28
280
     0
102
RTVSPost2010PropOp28
 70
     1
102
RTVSPost2010Prop29
280
     1
102
RTVSPost2010PropOp29
 70
     1
102
RTVSPost2010Prop30
280
     1
102
RTVSPost2010PropOp30
 70
     1
102
RTVSPost2010Prop31
280
     0
102
RTVSPost2010PropOp31
 70
     1
102
RTVSPost2010Prop32
280
     0
102
RTVSPost2010PropOp32
 70
     1
102
RTVSPost2010Prop33
280
     0
102
RTVSPost2010PropOp33
 70
     1
102
RTVSPost2010Prop34
280
     0
102
RTVSPost2010PropOp34
 70
     1
102
RTVSPost2010Prop35
280
     0
102
RTVSPost2010PropOp35
 70
     1
102
RTVSPost2010Prop36
280
     0
102
RTVSPost2010PropOp36
 70
     1
102
RTVSPost2010Prop37
 90
       50
102
RTVSPost2010PropOp37
 70
     0
102
RTVSPost2010Prop38
140
0.0
102
RTVSPost2010PropOp38
 70
     0
102
RTVSPost2010Prop39
140
1.0
102
RTVSPost2010PropOp39
 70
     0
102
RTVSPost2010Prop40
 90
        0
102
RTVSPost2010PropOp40
 70
     0
102
RTVSPost2010Prop41ColorIndex
 90
       18
102
RTVSPost2010Prop41ColorRGB
 90
        0
102
RTVSPost2010PropOp41
 70
     0
102
RTVSPost2010Prop42
 90
       50
102
RTVSPost2010PropOp42
 70
     0
102
RTVSPost2010Prop43
 90
        3
102
RTVSPost2010PropOp43
 70
     0
102
RTVSPost2010Prop44ColorIndex
 90
        5
102
RTVSPost2010Prop44ColorRGB
 90
      255
102
RTVSPost2010PropOp44
 70
     0
102
RTVSPost2010Prop45
280
     0
102
RTVSPost2010PropOp45
 70
     1
102
RTVSPost2010Prop46
 90
       50
102
RTVSPost2010PropOp46
 70
     0
102
RTVSPost2010Prop47
 90
       50
102
RTVSPost2010PropOp47
 70
     0
102
RTVSPost2010Prop48
 90
       50
102
RTVSPost2010PropOp48
 70
     0
102
RTVSPost2010Prop49
280
     0
102
RTVSPost2010PropOp49
 70
     1
102
RTVSPost2010Prop50
 90
       50
102
RTVSPost2010PropOp50
 70
     0
102
RTVSPost2010Prop51ColorIndex
 90
      256
102
RTVSPost2010Prop51ColorRGB
 90
-16777216
102
RTVSPost2010PropOp51
 70
     0
102
RTVSPost2010Prop52
140
1.0
102
RTVSPost2010PropOp52
 70
     0
102
RTVSPost2010Prop53
 90
        2
102
RTVSPost2010PropOp53
 70
     0
102
RTVSPost2010Prop54
  1
strokes_ogs.tif
102
RTVSPost2010PropOp54
 70
     0
102
RTVSPost2010Prop55
280
     0
102
RTVSPost2010PropOp55
 70
     1
102
RTVSPost2010Prop56
140
1.0
102
RTVSPost2010PropOp56
 70
     0
102
RTVSPost2010Prop57
140
1.0
102
RTVSPost2010PropOp57
 70
     0
102
RTVSPropertyOp0
 70
     0
102
RTVSPropertyOp1
 70
     0
102
RTVSPropertyOp2
 70
     0
102
RTVSPropertyOp3
 70
     0
102
RTVSPropertyOp4
 70
     0
102
RTVSPropertyOp5
 70
     0
102
RTVSPropertyOp6
 70
     0
102
RTVSPropertyOp7
 70
     0
102
RTVSPropertyOp8
 70
     0
102
RTVSPropertyOp9
 70
     0
102
RTVSPropertyOp10
 70
     0
102
RTVSPropertyOp11
 70
     0
102
RTVSPropertyOp12
 70
     0
102
RTVSPropertyOp13
 70
     0
102
RTVSPropertyOp14
 70
     2
102
RTVSPropertyOp15
 70
     0
102
RTVSPropertyOp16
 70
     0
102
RTVSPropertyOp17
 70
     0
102
RTVSPropertyOp18
 70
     0
102
RTVSPropertyOp19
 70
     0
102
RTVSPropertyOp20
 70
     0
102
RTVSPropertyOp21
 70
     0
102
RTVSPropertyOp22
 70
     0
102
RTVSPropertyOp23
 70
     0
102
RTVSPropertyOp24
 70
     0
102
RTVSPropertyOp25
 70
     0
102
RTVSPropertyOp26
 70
     0
102
RTVSPropertyOp27
 70
     0
102
RTVSPropertyOp28
 70
     1
102
RTVSPropertyOp29
 70
     1
102
RTVSPropertyOp30
 70
     1
102
RTVSPropertyOp31
 70
     1
102
RTVSPropertyOp32
 70
     1
102
RTVSPropertyOp33
 70
     1
102
RTVSPropertyOp34
 70
     1
102
RTVSPropertyOp35
 70
     1
102
RTVSPropertyOp36
 70
     1
102
RTVSPropertyOp37
 70
     0
102
RTVSPropertyOp38
 70
     0
102
RTVSPropertyOp39
 70
     0
102
RTVSPropertyOp40
 70
     0
102
RTVSPropertyOp41
 70
     0
102
RTVSPropertyOp42
 70
     0
102
RTVSPropertyOp43
 70
     0
102
RTVSPropertyOp44
 70
     0
102
RTVSPropertyOp45
 70
     1
102
RTVSPropertyOp46
 70
     0
102
RTVSPropertyOp47
 70
     0
102
RTVSPropertyOp48
 70
     0
102
RTVSPropertyOp49
 70
     1
102
RTVSPropertyOp50
 70
     0
102
RTVSPropertyOp51
 70
     0
102
RTVSPropertyOp52
 70
     0
102
RTVSPropertyOp53
 70
     0
102
RTVSPropertyOp54
 70
     0
102
RTVSPropertyOp55
 70
     1
102
RTVSPropertyOp56
 70
     0
102
RTVSPropertyOp57
 70
     0
102
RTVSPropertyOp58
 70
     1
102
RTVSPropertyOp59
 70
     1
102
RTVSPropertyOp60
 70
     1
102
RTVSPropertyOp61
 70
     1
102
RTVSPropertyOp62
 70
     1
  0
XRECORD
  5
2246D
102
{ACAD_REACTORS
330
2246C
102
}
330
2246C
100
AcDbXrecord
280
     1
102
RTVSPost2010Prop28
280
     0
102
RTVSPost2010PropOp28
 70
     1
102
RTVSPost2010Prop29
280
     1
102
RTVSPost2010PropOp29
 70
     1
102
RTVSPost2010Prop30
280
     1
102
RTVSPost2010PropOp30
 70
     1
102
RTVSPost2010Prop31
280
     0
102
RTVSPost2010PropOp31
 70
     1
102
RTVSPost2010Prop32
280
     0
102
RTVSPost2010PropOp32
 70
     1
102
RTVSPost2010Prop33
280
     0
102
RTVSPost2010PropOp33
 70
     1
102
RTVSPost2010Prop34
280
     0
102
RTVSPost2010PropOp34
 70
     1
102
RTVSPost2010Prop35
280
     0
102
RTVSPost2010PropOp35
 70
     1
102
RTVSPost2010Prop36
280
     0
102
RTVSPost2010PropOp36
 70
     1
102
RTVSPost2010Prop37
 90
       50
102
RTVSPost2010PropOp37
 70
     1
102
RTVSPost2010Prop38
140
0.0
102
RTVSPost2010PropOp38
 70
     1
102
RTVSPost2010Prop39
140
1.0
102
RTVSPost2010PropOp39
 70
     1
102
RTVSPost2010Prop40
 90
        0
102
RTVSPost2010PropOp40
 70
     1
102
RTVSPost2010Prop41ColorIndex
 90
       18
102
RTVSPost2010Prop41ColorRGB
 90
        0
102
RTVSPost2010PropOp41
 70
     1
102
RTVSPost2010Prop42
 90
       50
102
RTVSPost2010PropOp42
 70
     1
102
RTVSPost2010Prop43
 90
        3
102
RTVSPost2010PropOp43
 70
     1
102
RTVSPost2010Prop44ColorIndex
 90
        5
102
RTVSPost2010Prop44ColorRGB
 90
      255
102
RTVSPost2010PropOp44
 70
     1
102
RTVSPost2010Prop45
280
     0
102
RTVSPost2010PropOp45
 70
     1
102
RTVSPost2010Prop46
 90
       50
102
RTVSPost2010PropOp46
 70
     1
102
RTVSPost2010Prop47
 90
       50
102
RTVSPost2010PropOp47
 70
     1
102
RTVSPost2010Prop48
 90
       50
102
RTVSPost2010PropOp48
 70
     1
102
RTVSPost2010Prop49
280
     0
102
RTVSPost2010PropOp49
 70
     1
102
RTVSPost2010Prop50
 90
       50
102
RTVSPost2010PropOp50
 70
     1
102
RTVSPost2010Prop51ColorIndex
 90
      256
102
RTVSPost2010Prop51ColorRGB
 90
-16777216
102
RTVSPost2010PropOp51
 70
     0
102
RTVSPost2010Prop52
140
1.0
102
RTVSPost2010PropOp52
 70
     0
102
RTVSPost2010Prop53
 90
        2
102
RTVSPost2010PropOp53
 70
     1
102
RTVSPost2010Prop54
  1
strokes_ogs.tif
102
RTVSPost2010PropOp54
 70
     1
102
RTVSPost2010Prop55
280
     0
102
RTVSPost2010PropOp55
 70
     1
102
RTVSPost2010Prop56
140
1.0
102
RTVSPost2010PropOp56
 70
     1
102
RTVSPost2010Prop57
140
1.0
102
RTVSPost2010PropOp57
 70
     1
102
RTVSPropertyOp0
 70
     1
102
RTVSPropertyOp1
 70
     1
102
RTVSPropertyOp2
 70
     1
102
RTVSPropertyOp3
 70
     1
102
RTVSPropertyOp4
 70
     1
102
RTVSPropertyOp5
 70
     1
102
RTVSPropertyOp6
 70
     1
102
RTVSPropertyOp7
 70
     1
102
RTVSPropertyOp8
 70
     1
102
RTVSPropertyOp9
 70
     1
102
RTVSPropertyOp10
 70
     1
102
RTVSPropertyOp11
 70
     1
102
RTVSPropertyOp12
 70
     1
102
RTVSPropertyOp13
 70
     1
102
RTVSPropertyOp14
 70
     1
102
RTVSPropertyOp15
 70
     1
102
RTVSPropertyOp16
 70
     1
102
RTVSPropertyOp17
 70
     1
102
RTVSPropertyOp18
 70
     1
102
RTVSPropertyOp19
 70
     1
102
RTVSPropertyOp20
 70
     1
102
RTVSPropertyOp21
 70
     1
102
RTVSPropertyOp22
 70
     1
102
RTVSPropertyOp23
 70
     1
102
RTVSPropertyOp24
 70
     1
102
RTVSPropertyOp25
 70
     1
102
RTVSPropertyOp26
 70
     1
102
RTVSPropertyOp27
 70
     1
102
RTVSPropertyOp28
 70
     1
102
RTVSPropertyOp29
 70
     1
102
RTVSPropertyOp30
 70
     1
102
RTVSPropertyOp31
 70
     1
102
RTVSPropertyOp32
 70
     1
102
RTVSPropertyOp33
 70
     1
102
RTVSPropertyOp34
 70
     1
102
RTVSPropertyOp35
 70
     1
102
RTVSPropertyOp36
 70
     1
102
RTVSPropertyOp37
 70
     1
102
RTVSPropertyOp38
 70
     1
102
RTVSPropertyOp39
 70
     1
102
RTVSPropertyOp40
 70
     1
102
RTVSPropertyOp41
 70
     1
102
RTVSPropertyOp42
 70
     1
102
RTVSPropertyOp43
 70
     1
102
RTVSPropertyOp44
 70
     1
102
RTVSPropertyOp45
 70
     1
102
RTVSPropertyOp46
 70
     1
102
RTVSPropertyOp47
 70
     1
102
RTVSPropertyOp48
 70
     1
102
RTVSPropertyOp49
 70
     1
102
RTVSPropertyOp50
 70
     1
102
RTVSPropertyOp51
 70
     0
102
RTVSPropertyOp52
 70
     0
102
RTVSPropertyOp53
 70
     1
102
RTVSPropertyOp54
 70
     1
102
RTVSPropertyOp55
 70
     1
102
RTVSPropertyOp56
 70
     1
102
RTVSPropertyOp57
 70
     1
102
RTVSPropertyOp58
 70
     1
102
RTVSPropertyOp59
 70
     1
102
RTVSPropertyOp60
 70
     1
102
RTVSPropertyOp61
 70
     1
102
RTVSPropertyOp62
 70
     1
  0
XRECORD
  5
22490
102
{ACAD_REACTORS
330
2248F
102
}
330
2248F
100
AcDbXrecord
280
     1
102
RTVSPost2010Prop28
280
     0
102
RTVSPost2010PropOp28
 70
     1
102
RTVSPost2010Prop29
280
     1
102
RTVSPost2010PropOp29
 70
     1
102
RTVSPost2010Prop30
280
     1
102
RTVSPost2010PropOp30
 70
     1
102
RTVSPost2010Prop31
280
     0
102
RTVSPost2010PropOp31
 70
     1
102
RTVSPost2010Prop32
280
     0
102
RTVSPost2010PropOp32
 70
     1
102
RTVSPost2010Prop33
280
     0
102
RTVSPost2010PropOp33
 70
     1
102
RTVSPost2010Prop34
280
     0
102
RTVSPost2010PropOp34
 70
     1
102
RTVSPost2010Prop35
280
     0
102
RTVSPost2010PropOp35
 70
     1
102
RTVSPost2010Prop36
280
     0
102
RTVSPost2010PropOp36
 70
     1
102
RTVSPost2010Prop37
 90
       50
102
RTVSPost2010PropOp37
 70
     1
102
RTVSPost2010Prop38
140
0.0
102
RTVSPost2010PropOp38
 70
     1
102
RTVSPost2010Prop39
140
1.0
102
RTVSPost2010PropOp39
 70
     1
102
RTVSPost2010Prop40
 90
        0
102
RTVSPost2010PropOp40
 70
     1
102
RTVSPost2010Prop41ColorIndex
 90
       18
102
RTVSPost2010Prop41ColorRGB
 90
        0
102
RTVSPost2010PropOp41
 70
     1
102
RTVSPost2010Prop42
 90
       50
102
RTVSPost2010PropOp42
 70
     1
102
RTVSPost2010Prop43
 90
        3
102
RTVSPost2010PropOp43
 70
     1
102
RTVSPost2010Prop44ColorIndex
 90
        5
102
RTVSPost2010Prop44ColorRGB
 90
      255
102
RTVSPost2010PropOp44
 70
     1
102
RTVSPost2010Prop45
280
     0
102
RTVSPost2010PropOp45
 70
     1
102
RTVSPost2010Prop46
 90
       50
102
RTVSPost2010PropOp46
 70
     1
102
RTVSPost2010Prop47
 90
       50
102
RTVSPost2010PropOp47
 70
     1
102
RTVSPost2010Prop48
 90
       50
102
RTVSPost2010PropOp48
 70
     1
102
RTVSPost2010Prop49
280
     0
102
RTVSPost2010PropOp49
 70
     1
102
RTVSPost2010Prop50
 90
       50
102
RTVSPost2010PropOp50
 70
     1
102
RTVSPost2010Prop51ColorIndex
 90
      256
102
RTVSPost2010Prop51ColorRGB
 90
-16777216
102
RTVSPost2010PropOp51
 70
     0
102
RTVSPost2010Prop52
140
1.0
102
RTVSPost2010PropOp52
 70
     0
102
RTVSPost2010Prop53
 90
        2
102
RTVSPost2010PropOp53
 70
     1
102
RTVSPost2010Prop54
  1
strokes_ogs.tif
102
RTVSPost2010PropOp54
 70
     1
102
RTVSPost2010Prop55
280
     0
102
RTVSPost2010PropOp55
 70
     1
102
RTVSPost2010Prop56
140
1.0
102
RTVSPost2010PropOp56
 70
     1
102
RTVSPost2010Prop57
140
1.0
102
RTVSPost2010PropOp57
 70
     1
102
RTVSPropertyOp0
 70
     1
102
RTVSPropertyOp1
 70
     1
102
RTVSPropertyOp2
 70
     1
102
RTVSPropertyOp3
 70
     1
102
RTVSPropertyOp4
 70
     1
102
RTVSPropertyOp5
 70
     1
102
RTVSPropertyOp6
 70
     1
102
RTVSPropertyOp7
 70
     1
102
RTVSPropertyOp8
 70
     1
102
RTVSPropertyOp9
 70
     1
102
RTVSPropertyOp10
 70
     1
102
RTVSPropertyOp11
 70
     1
102
RTVSPropertyOp12
 70
     1
102
RTVSPropertyOp13
 70
     1
102
RTVSPropertyOp14
 70
     1
102
RTVSPropertyOp15
 70
     1
102
RTVSPropertyOp16
 70
     1
102
RTVSPropertyOp17
 70
     1
102
RTVSPropertyOp18
 70
     1
102
RTVSPropertyOp19
 70
     1
102
RTVSPropertyOp20
 70
     1
102
RTVSPropertyOp21
 70
     1
102
RTVSPropertyOp22
 70
     1
102
RTVSPropertyOp23
 70
     1
102
RTVSPropertyOp24
 70
     1
102
RTVSPropertyOp25
 70
     1
102
RTVSPropertyOp26
 70
     1
102
RTVSPropertyOp27
 70
     1
102
RTVSPropertyOp28
 70
     1
102
RTVSPropertyOp29
 70
     1
102
RTVSPropertyOp30
 70
     1
102
RTVSPropertyOp31
 70
     1
102
RTVSPropertyOp32
 70
     1
102
RTVSPropertyOp33
 70
     1
102
RTVSPropertyOp34
 70
     1
102
RTVSPropertyOp35
 70
     1
102
RTVSPropertyOp36
 70
     1
102
RTVSPropertyOp37
 70
     1
102
RTVSPropertyOp38
 70
     1
102
RTVSPropertyOp39
 70
     1
102
RTVSPropertyOp40
 70
     1
102
RTVSPropertyOp41
 70
     1
102
RTVSPropertyOp42
 70
     1
102
RTVSPropertyOp43
 70
     1
102
RTVSPropertyOp44
 70
     1
102
RTVSPropertyOp45
 70
     1
102
RTVSPropertyOp46
 70
     1
102
RTVSPropertyOp47
 70
     1
102
RTVSPropertyOp48
 70
     1
102
RTVSPropertyOp49
 70
     1
102
RTVSPropertyOp50
 70
     1
102
RTVSPropertyOp51
 70
     0
102
RTVSPropertyOp52
 70
     0
102
RTVSPropertyOp53
 70
     1
102
RTVSPropertyOp54
 70
     1
102
RTVSPropertyOp55
 70
     1
102
RTVSPropertyOp56
 70
     1
102
RTVSPropertyOp57
 70
     1
102
RTVSPropertyOp58
 70
     1
102
RTVSPropertyOp59
 70
     1
102
RTVSPropertyOp60
 70
     1
102
RTVSPropertyOp61
 70
     1
102
RTVSPropertyOp62
 70
     1
  0
XRECORD
  5
2248E
102
{ACAD_REACTORS
330
2248D
102
}
330
2248D
100
AcDbXrecord
280
     1
102
RTVSPost2010Prop28
280
     0
102
RTVSPost2010PropOp28
 70
     1
102
RTVSPost2010Prop29
280
     1
102
RTVSPost2010PropOp29
 70
     1
102
RTVSPost2010Prop30
280
     1
102
RTVSPost2010PropOp30
 70
     1
102
RTVSPost2010Prop31
280
     0
102
RTVSPost2010PropOp31
 70
     1
102
RTVSPost2010Prop32
280
     0
102
RTVSPost2010PropOp32
 70
     1
102
RTVSPost2010Prop33
280
     0
102
RTVSPost2010PropOp33
 70
     1
102
RTVSPost2010Prop34
280
     0
102
RTVSPost2010PropOp34
 70
     1
102
RTVSPost2010Prop35
280
     0
102
RTVSPost2010PropOp35
 70
     1
102
RTVSPost2010Prop36
280
     0
102
RTVSPost2010PropOp36
 70
     1
102
RTVSPost2010Prop37
 90
       50
102
RTVSPost2010PropOp37
 70
     1
102
RTVSPost2010Prop38
140
0.0
102
RTVSPost2010PropOp38
 70
     1
102
RTVSPost2010Prop39
140
1.0
102
RTVSPost2010PropOp39
 70
     1
102
RTVSPost2010Prop40
 90
        0
102
RTVSPost2010PropOp40
 70
     1
102
RTVSPost2010Prop41ColorIndex
 90
       18
102
RTVSPost2010Prop41ColorRGB
 90
        0
102
RTVSPost2010PropOp41
 70
     1
102
RTVSPost2010Prop42
 90
       50
102
RTVSPost2010PropOp42
 70
     1
102
RTVSPost2010Prop43
 90
        3
102
RTVSPost2010PropOp43
 70
     1
102
RTVSPost2010Prop44ColorIndex
 90
        5
102
RTVSPost2010Prop44ColorRGB
 90
      255
102
RTVSPost2010PropOp44
 70
     1
102
RTVSPost2010Prop45
280
     0
102
RTVSPost2010PropOp45
 70
     1
102
RTVSPost2010Prop46
 90
       50
102
RTVSPost2010PropOp46
 70
     1
102
RTVSPost2010Prop47
 90
       50
102
RTVSPost2010PropOp47
 70
     1
102
RTVSPost2010Prop48
 90
       50
102
RTVSPost2010PropOp48
 70
     1
102
RTVSPost2010Prop49
280
     0
102
RTVSPost2010PropOp49
 70
     1
102
RTVSPost2010Prop50
 90
       50
102
RTVSPost2010PropOp50
 70
     1
102
RTVSPost2010Prop51ColorIndex
 90
      256
102
RTVSPost2010Prop51ColorRGB
 90
-16777216
102
RTVSPost2010PropOp51
 70
     0
102
RTVSPost2010Prop52
140
1.0
102
RTVSPost2010PropOp52
 70
     0
102
RTVSPost2010Prop53
 90
        2
102
RTVSPost2010PropOp53
 70
     1
102
RTVSPost2010Prop54
  1
strokes_ogs.tif
102
RTVSPost2010PropOp54
 70
     1
102
RTVSPost2010Prop55
280
     0
102
RTVSPost2010PropOp55
 70
     1
102
RTVSPost2010Prop56
140
1.0
102
RTVSPost2010PropOp56
 70
     1
102
RTVSPost2010Prop57
140
1.0
102
RTVSPost2010PropOp57
 70
     1
102
RTVSPropertyOp0
 70
     1
102
RTVSPropertyOp1
 70
     1
102
RTVSPropertyOp2
 70
     1
102
RTVSPropertyOp3
 70
     1
102
RTVSPropertyOp4
 70
     1
102
RTVSPropertyOp5
 70
     1
102
RTVSPropertyOp6
 70
     1
102
RTVSPropertyOp7
 70
     1
102
RTVSPropertyOp8
 70
     1
102
RTVSPropertyOp9
 70
     1
102
RTVSPropertyOp10
 70
     1
102
RTVSPropertyOp11
 70
     1
102
RTVSPropertyOp12
 70
     1
102
RTVSPropertyOp13
 70
     1
102
RTVSPropertyOp14
 70
     1
102
RTVSPropertyOp15
 70
     1
102
RTVSPropertyOp16
 70
     1
102
RTVSPropertyOp17
 70
     1
102
RTVSPropertyOp18
 70
     1
102
RTVSPropertyOp19
 70
     1
102
RTVSPropertyOp20
 70
     1
102
RTVSPropertyOp21
 70
     1
102
RTVSPropertyOp22
 70
     1
102
RTVSPropertyOp23
 70
     1
102
RTVSPropertyOp24
 70
     1
102
RTVSPropertyOp25
 70
     1
102
RTVSPropertyOp26
 70
     1
102
RTVSPropertyOp27
 70
     1
102
RTVSPropertyOp28
 70
     1
102
RTVSPropertyOp29
 70
     1
102
RTVSPropertyOp30
 70
     1
102
RTVSPropertyOp31
 70
     1
102
RTVSPropertyOp32
 70
     1
102
RTVSPropertyOp33
 70
     1
102
RTVSPropertyOp34
 70
     1
102
RTVSPropertyOp35
 70
     1
102
RTVSPropertyOp36
 70
     1
102
RTVSPropertyOp37
 70
     1
102
RTVSPropertyOp38
 70
     1
102
RTVSPropertyOp39
 70
     1
102
RTVSPropertyOp40
 70
     1
102
RTVSPropertyOp41
 70
     1
102
RTVSPropertyOp42
 70
     1
102
RTVSPropertyOp43
 70
     1
102
RTVSPropertyOp44
 70
     1
102
RTVSPropertyOp45
 70
     1
102
RTVSPropertyOp46
 70
     1
102
RTVSPropertyOp47
 70
     1
102
RTVSPropertyOp48
 70
     1
102
RTVSPropertyOp49
 70
     1
102
RTVSPropertyOp50
 70
     1
102
RTVSPropertyOp51
 70
     0
102
RTVSPropertyOp52
 70
     0
102
RTVSPropertyOp53
 70
     1
102
RTVSPropertyOp54
 70
     1
102
RTVSPropertyOp55
 70
     1
102
RTVSPropertyOp56
 70
     1
102
RTVSPropertyOp57
 70
     1
102
RTVSPropertyOp58
 70
     1
102
RTVSPropertyOp59
 70
     1
102
RTVSPropertyOp60
 70
     1
102
RTVSPropertyOp61
 70
     1
102
RTVSPropertyOp62
 70
     1
  0
XRECORD
  5
22488
102
{ACAD_REACTORS
330
22487
102
}
330
22487
100
AcDbXrecord
280
     1
102
RTVSPost2010Prop28
280
     0
102
RTVSPost2010PropOp28
 70
     1
102
RTVSPost2010Prop29
280
     1
102
RTVSPost2010PropOp29
 70
     1
102
RTVSPost2010Prop30
280
     1
102
RTVSPost2010PropOp30
 70
     1
102
RTVSPost2010Prop31
280
     0
102
RTVSPost2010PropOp31
 70
     1
102
RTVSPost2010Prop32
280
     0
102
RTVSPost2010PropOp32
 70
     1
102
RTVSPost2010Prop33
280
     0
102
RTVSPost2010PropOp33
 70
     1
102
RTVSPost2010Prop34
280
     0
102
RTVSPost2010PropOp34
 70
     1
102
RTVSPost2010Prop35
280
     0
102
RTVSPost2010PropOp35
 70
     1
102
RTVSPost2010Prop36
280
     0
102
RTVSPost2010PropOp36
 70
     1
102
RTVSPost2010Prop37
 90
       50
102
RTVSPost2010PropOp37
 70
     1
102
RTVSPost2010Prop38
140
0.0
102
RTVSPost2010PropOp38
 70
     1
102
RTVSPost2010Prop39
140
1.0
102
RTVSPost2010PropOp39
 70
     1
102
RTVSPost2010Prop40
 90
        0
102
RTVSPost2010PropOp40
 70
     1
102
RTVSPost2010Prop41ColorIndex
 90
       18
102
RTVSPost2010Prop41ColorRGB
 90
        0
102
RTVSPost2010PropOp41
 70
     1
102
RTVSPost2010Prop42
 90
       50
102
RTVSPost2010PropOp42
 70
     1
102
RTVSPost2010Prop43
 90
        3
102
RTVSPost2010PropOp43
 70
     1
102
RTVSPost2010Prop44ColorIndex
 90
        5
102
RTVSPost2010Prop44ColorRGB
 90
      255
102
RTVSPost2010PropOp44
 70
     1
102
RTVSPost2010Prop45
280
     0
102
RTVSPost2010PropOp45
 70
     1
102
RTVSPost2010Prop46
 90
       50
102
RTVSPost2010PropOp46
 70
     1
102
RTVSPost2010Prop47
 90
       50
102
RTVSPost2010PropOp47
 70
     1
102
RTVSPost2010Prop48
 90
       50
102
RTVSPost2010PropOp48
 70
     1
102
RTVSPost2010Prop49
280
     0
102
RTVSPost2010PropOp49
 70
     1
102
RTVSPost2010Prop50
 90
       50
102
RTVSPost2010PropOp50
 70
     1
102
RTVSPost2010Prop51ColorIndex
 90
      256
102
RTVSPost2010Prop51ColorRGB
 90
-16777216
102
RTVSPost2010PropOp51
 70
     0
102
RTVSPost2010Prop52
140
1.0
102
RTVSPost2010PropOp52
 70
     0
102
RTVSPost2010Prop53
 90
        2
102
RTVSPost2010PropOp53
 70
     1
102
RTVSPost2010Prop54
  1
strokes_ogs.tif
102
RTVSPost2010PropOp54
 70
     1
102
RTVSPost2010Prop55
280
     0
102
RTVSPost2010PropOp55
 70
     1
102
RTVSPost2010Prop56
140
1.0
102
RTVSPost2010PropOp56
 70
     1
102
RTVSPost2010Prop57
140
1.0
102
RTVSPost2010PropOp57
 70
     1
102
RTVSPropertyOp0
 70
     1
102
RTVSPropertyOp1
 70
     1
102
RTVSPropertyOp2
 70
     1
102
RTVSPropertyOp3
 70
     1
102
RTVSPropertyOp4
 70
     1
102
RTVSPropertyOp5
 70
     1
102
RTVSPropertyOp6
 70
     1
102
RTVSPropertyOp7
 70
     1
102
RTVSPropertyOp8
 70
     1
102
RTVSPropertyOp9
 70
     1
102
RTVSPropertyOp10
 70
     1
102
RTVSPropertyOp11
 70
     1
102
RTVSPropertyOp12
 70
     1
102
RTVSPropertyOp13
 70
     1
102
RTVSPropertyOp14
 70
     1
102
RTVSPropertyOp15
 70
     1
102
RTVSPropertyOp16
 70
     1
102
RTVSPropertyOp17
 70
     1
102
RTVSPropertyOp18
 70
     1
102
RTVSPropertyOp19
 70
     1
102
RTVSPropertyOp20
 70
     1
102
RTVSPropertyOp21
 70
     1
102
RTVSPropertyOp22
 70
     1
102
RTVSPropertyOp23
 70
     1
102
RTVSPropertyOp24
 70
     1
102
RTVSPropertyOp25
 70
     1
102
RTVSPropertyOp26
 70
     1
102
RTVSPropertyOp27
 70
     1
102
RTVSPropertyOp28
 70
     1
102
RTVSPropertyOp29
 70
     1
102
RTVSPropertyOp30
 70
     1
102
RTVSPropertyOp31
 70
     1
102
RTVSPropertyOp32
 70
     1
102
RTVSPropertyOp33
 70
     1
102
RTVSPropertyOp34
 70
     1
102
RTVSPropertyOp35
 70
     1
102
RTVSPropertyOp36
 70
     1
102
RTVSPropertyOp37
 70
     1
102
RTVSPropertyOp38
 70
     1
102
RTVSPropertyOp39
 70
     1
102
RTVSPropertyOp40
 70
     1
102
RTVSPropertyOp41
 70
     1
102
RTVSPropertyOp42
 70
     1
102
RTVSPropertyOp43
 70
     1
102
RTVSPropertyOp44
 70
     1
102
RTVSPropertyOp45
 70
     1
102
RTVSPropertyOp46
 70
     1
102
RTVSPropertyOp47
 70
     1
102
RTVSPropertyOp48
 70
     1
102
RTVSPropertyOp49
 70
     1
102
RTVSPropertyOp50
 70
     1
102
RTVSPropertyOp51
 70
     0
102
RTVSPropertyOp52
 70
     0
102
RTVSPropertyOp53
 70
     1
102
RTVSPropertyOp54
 70
     1
102
RTVSPropertyOp55
 70
     1
102
RTVSPropertyOp56
 70
     1
102
RTVSPropertyOp57
 70
     1
102
RTVSPropertyOp58
 70
     1
102
RTVSPropertyOp59
 70
     1
102
RTVSPropertyOp60
 70
     1
102
RTVSPropertyOp61
 70
     1
102
RTVSPropertyOp62
 70
     1
  0
XRECORD
  5
2248A
102
{ACAD_REACTORS
330
22489
102
}
330
22489
100
AcDbXrecord
280
     1
102
RTVSPost2010Prop28
280
     0
102
RTVSPost2010PropOp28
 70
     1
102
RTVSPost2010Prop29
280
     1
102
RTVSPost2010PropOp29
 70
     1
102
RTVSPost2010Prop30
280
     1
102
RTVSPost2010PropOp30
 70
     1
102
RTVSPost2010Prop31
280
     0
102
RTVSPost2010PropOp31
 70
     1
102
RTVSPost2010Prop32
280
     0
102
RTVSPost2010PropOp32
 70
     1
102
RTVSPost2010Prop33
280
     0
102
RTVSPost2010PropOp33
 70
     1
102
RTVSPost2010Prop34
280
     0
102
RTVSPost2010PropOp34
 70
     1
102
RTVSPost2010Prop35
280
     0
102
RTVSPost2010PropOp35
 70
     1
102
RTVSPost2010Prop36
280
     0
102
RTVSPost2010PropOp36
 70
     1
102
RTVSPost2010Prop37
 90
       50
102
RTVSPost2010PropOp37
 70
     1
102
RTVSPost2010Prop38
140
0.0
102
RTVSPost2010PropOp38
 70
     1
102
RTVSPost2010Prop39
140
1.0
102
RTVSPost2010PropOp39
 70
     1
102
RTVSPost2010Prop40
 90
        0
102
RTVSPost2010PropOp40
 70
     1
102
RTVSPost2010Prop41ColorIndex
 90
       18
102
RTVSPost2010Prop41ColorRGB
 90
        0
102
RTVSPost2010PropOp41
 70
     1
102
RTVSPost2010Prop42
 90
       50
102
RTVSPost2010PropOp42
 70
     1
102
RTVSPost2010Prop43
 90
        3
102
RTVSPost2010PropOp43
 70
     1
102
RTVSPost2010Prop44ColorIndex
 90
        5
102
RTVSPost2010Prop44ColorRGB
 90
      255
102
RTVSPost2010PropOp44
 70
     1
102
RTVSPost2010Prop45
280
     0
102
RTVSPost2010PropOp45
 70
     1
102
RTVSPost2010Prop46
 90
       50
102
RTVSPost2010PropOp46
 70
     1
102
RTVSPost2010Prop47
 90
       50
102
RTVSPost2010PropOp47
 70
     1
102
RTVSPost2010Prop48
 90
       50
102
RTVSPost2010PropOp48
 70
     1
102
RTVSPost2010Prop49
280
     0
102
RTVSPost2010PropOp49
 70
     1
102
RTVSPost2010Prop50
 90
       50
102
RTVSPost2010PropOp50
 70
     1
102
RTVSPost2010Prop51ColorIndex
 90
      256
102
RTVSPost2010Prop51ColorRGB
 90
-16777216
102
RTVSPost2010PropOp51
 70
     0
102
RTVSPost2010Prop52
140
1.0
102
RTVSPost2010PropOp52
 70
     0
102
RTVSPost2010Prop53
 90
        2
102
RTVSPost2010PropOp53
 70
     1
102
RTVSPost2010Prop54
  1
strokes_ogs.tif
102
RTVSPost2010PropOp54
 70
     1
102
RTVSPost2010Prop55
280
     0
102
RTVSPost2010PropOp55
 70
     1
102
RTVSPost2010Prop56
140
1.0
102
RTVSPost2010PropOp56
 70
     1
102
RTVSPost2010Prop57
140
1.0
102
RTVSPost2010PropOp57
 70
     1
102
RTVSPropertyOp0
 70
     1
102
RTVSPropertyOp1
 70
     1
102
RTVSPropertyOp2
 70
     1
102
RTVSPropertyOp3
 70
     1
102
RTVSPropertyOp4
 70
     1
102
RTVSPropertyOp5
 70
     1
102
RTVSPropertyOp6
 70
     1
102
RTVSPropertyOp7
 70
     1
102
RTVSPropertyOp8
 70
     1
102
RTVSPropertyOp9
 70
     1
102
RTVSPropertyOp10
 70
     1
102
RTVSPropertyOp11
 70
     1
102
RTVSPropertyOp12
 70
     1
102
RTVSPropertyOp13
 70
     1
102
RTVSPropertyOp14
 70
     1
102
RTVSPropertyOp15
 70
     1
102
RTVSPropertyOp16
 70
     1
102
RTVSPropertyOp17
 70
     1
102
RTVSPropertyOp18
 70
     1
102
RTVSPropertyOp19
 70
     1
102
RTVSPropertyOp20
 70
     1
102
RTVSPropertyOp21
 70
     1
102
RTVSPropertyOp22
 70
     1
102
RTVSPropertyOp23
 70
     1
102
RTVSPropertyOp24
 70
     1
102
RTVSPropertyOp25
 70
     1
102
RTVSPropertyOp26
 70
     1
102
RTVSPropertyOp27
 70
     1
102
RTVSPropertyOp28
 70
     1
102
RTVSPropertyOp29
 70
     1
102
RTVSPropertyOp30
 70
     1
102
RTVSPropertyOp31
 70
     1
102
RTVSPropertyOp32
 70
     1
102
RTVSPropertyOp33
 70
     1
102
RTVSPropertyOp34
 70
     1
102
RTVSPropertyOp35
 70
     1
102
RTVSPropertyOp36
 70
     1
102
RTVSPropertyOp37
 70
     1
102
RTVSPropertyOp38
 70
     1
102
RTVSPropertyOp39
 70
     1
102
RTVSPropertyOp40
 70
     1
102
RTVSPropertyOp41
 70
     1
102
RTVSPropertyOp42
 70
     1
102
RTVSPropertyOp43
 70
     1
102
RTVSPropertyOp44
 70
     1
102
RTVSPropertyOp45
 70
     1
102
RTVSPropertyOp46
 70
     1
102
RTVSPropertyOp47
 70
     1
102
RTVSPropertyOp48
 70
     1
102
RTVSPropertyOp49
 70
     1
102
RTVSPropertyOp50
 70
     1
102
RTVSPropertyOp51
 70
     0
102
RTVSPropertyOp52
 70
     0
102
RTVSPropertyOp53
 70
     1
102
RTVSPropertyOp54
 70
     1
102
RTVSPropertyOp55
 70
     1
102
RTVSPropertyOp56
 70
     1
102
RTVSPropertyOp57
 70
     1
102
RTVSPropertyOp58
 70
     1
102
RTVSPropertyOp59
 70
     1
102
RTVSPropertyOp60
 70
     1
102
RTVSPropertyOp61
 70
     1
102
RTVSPropertyOp62
 70
     1
  0
XRECORD
  5
22473
102
{ACAD_REACTORS
330
22472
102
}
330
22472
100
AcDbXrecord
280
     1
102
RTVSPost2010Prop28
280
     0
102
RTVSPost2010PropOp28
 70
     1
102
RTVSPost2010Prop29
280
     1
102
RTVSPost2010PropOp29
 70
     1
102
RTVSPost2010Prop30
280
     1
102
RTVSPost2010PropOp30
 70
     1
102
RTVSPost2010Prop31
280
     0
102
RTVSPost2010PropOp31
 70
     1
102
RTVSPost2010Prop32
280
     0
102
RTVSPost2010PropOp32
 70
     1
102
RTVSPost2010Prop33
280
     0
102
RTVSPost2010PropOp33
 70
     1
102
RTVSPost2010Prop34
280
     0
102
RTVSPost2010PropOp34
 70
     1
102
RTVSPost2010Prop35
280
     0
102
RTVSPost2010PropOp35
 70
     1
102
RTVSPost2010Prop36
280
     0
102
RTVSPost2010PropOp36
 70
     1
102
RTVSPost2010Prop37
 90
       50
102
RTVSPost2010PropOp37
 70
     1
102
RTVSPost2010Prop38
140
0.0
102
RTVSPost2010PropOp38
 70
     1
102
RTVSPost2010Prop39
140
1.0
102
RTVSPost2010PropOp39
 70
     1
102
RTVSPost2010Prop40
 90
        0
102
RTVSPost2010PropOp40
 70
     1
102
RTVSPost2010Prop41ColorIndex
 90
       18
102
RTVSPost2010Prop41ColorRGB
 90
        0
102
RTVSPost2010PropOp41
 70
     1
102
RTVSPost2010Prop42
 90
       50
102
RTVSPost2010PropOp42
 70
     1
102
RTVSPost2010Prop43
 90
        3
102
RTVSPost2010PropOp43
 70
     1
102
RTVSPost2010Prop44ColorIndex
 90
        5
102
RTVSPost2010Prop44ColorRGB
 90
      255
102
RTVSPost2010PropOp44
 70
     1
102
RTVSPost2010Prop45
280
     0
102
RTVSPost2010PropOp45
 70
     1
102
RTVSPost2010Prop46
 90
       50
102
RTVSPost2010PropOp46
 70
     1
102
RTVSPost2010Prop47
 90
       50
102
RTVSPost2010PropOp47
 70
     1
102
RTVSPost2010Prop48
 90
       50
102
RTVSPost2010PropOp48
 70
     1
102
RTVSPost2010Prop49
280
     0
102
RTVSPost2010PropOp49
 70
     1
102
RTVSPost2010Prop50
 90
       50
102
RTVSPost2010PropOp50
 70
     1
102
RTVSPost2010Prop51ColorIndex
 90
      256
102
RTVSPost2010Prop51ColorRGB
 90
-16777216
102
RTVSPost2010PropOp51
 70
     0
102
RTVSPost2010Prop52
140
1.0
102
RTVSPost2010PropOp52
 70
     0
102
RTVSPost2010Prop53
 90
        2
102
RTVSPost2010PropOp53
 70
     1
102
RTVSPost2010Prop54
  1
strokes_ogs.tif
102
RTVSPost2010PropOp54
 70
     1
102
RTVSPost2010Prop55
280
     0
102
RTVSPost2010PropOp55
 70
     1
102
RTVSPost2010Prop56
140
1.0
102
RTVSPost2010PropOp56
 70
     1
102
RTVSPost2010Prop57
140
1.0
102
RTVSPost2010PropOp57
 70
     1
102
RTVSPropertyOp0
 70
     1
102
RTVSPropertyOp1
 70
     1
102
RTVSPropertyOp2
 70
     1
102
RTVSPropertyOp3
 70
     1
102
RTVSPropertyOp4
 70
     1
102
RTVSPropertyOp5
 70
     1
102
RTVSPropertyOp6
 70
     1
102
RTVSPropertyOp7
 70
     1
102
RTVSPropertyOp8
 70
     1
102
RTVSPropertyOp9
 70
     1
102
RTVSPropertyOp10
 70
     1
102
RTVSPropertyOp11
 70
     1
102
RTVSPropertyOp12
 70
     1
102
RTVSPropertyOp13
 70
     1
102
RTVSPropertyOp14
 70
     1
102
RTVSPropertyOp15
 70
     1
102
RTVSPropertyOp16
 70
     1
102
RTVSPropertyOp17
 70
     1
102
RTVSPropertyOp18
 70
     1
102
RTVSPropertyOp19
 70
     1
102
RTVSPropertyOp20
 70
     1
102
RTVSPropertyOp21
 70
     1
102
RTVSPropertyOp22
 70
     1
102
RTVSPropertyOp23
 70
     1
102
RTVSPropertyOp24
 70
     1
102
RTVSPropertyOp25
 70
     1
102
RTVSPropertyOp26
 70
     1
102
RTVSPropertyOp27
 70
     1
102
RTVSPropertyOp28
 70
     1
102
RTVSPropertyOp29
 70
     1
102
RTVSPropertyOp30
 70
     1
102
RTVSPropertyOp31
 70
     1
102
RTVSPropertyOp32
 70
     1
102
RTVSPropertyOp33
 70
     1
102
RTVSPropertyOp34
 70
     1
102
RTVSPropertyOp35
 70
     1
102
RTVSPropertyOp36
 70
     1
102
RTVSPropertyOp37
 70
     1
102
RTVSPropertyOp38
 70
     1
102
RTVSPropertyOp39
 70
     1
102
RTVSPropertyOp40
 70
     1
102
RTVSPropertyOp41
 70
     1
102
RTVSPropertyOp42
 70
     1
102
RTVSPropertyOp43
 70
     1
102
RTVSPropertyOp44
 70
     1
102
RTVSPropertyOp45
 70
     1
102
RTVSPropertyOp46
 70
     1
102
RTVSPropertyOp47
 70
     1
102
RTVSPropertyOp48
 70
     1
102
RTVSPropertyOp49
 70
     1
102
RTVSPropertyOp50
 70
     1
102
RTVSPropertyOp51
 70
     0
102
RTVSPropertyOp52
 70
     0
102
RTVSPropertyOp53
 70
     1
102
RTVSPropertyOp54
 70
     1
102
RTVSPropertyOp55
 70
     1
102
RTVSPropertyOp56
 70
     1
102
RTVSPropertyOp57
 70
     1
102
RTVSPropertyOp58
 70
     1
102
RTVSPropertyOp59
 70
     1
102
RTVSPropertyOp60
 70
     1
102
RTVSPropertyOp61
 70
     1
102
RTVSPropertyOp62
 70
     1
  0
XRECORD
  5
22484
102
{ACAD_REACTORS
330
22483
102
}
330
22483
100
AcDbXrecord
280
     1
102
RTVSPost2010Prop28
280
     0
102
RTVSPost2010PropOp28
 70
     1
102
RTVSPost2010Prop29
280
     1
102
RTVSPost2010PropOp29
 70
     1
102
RTVSPost2010Prop30
280
     1
102
RTVSPost2010PropOp30
 70
     1
102
RTVSPost2010Prop31
280
     0
102
RTVSPost2010PropOp31
 70
     1
102
RTVSPost2010Prop32
280
     0
102
RTVSPost2010PropOp32
 70
     1
102
RTVSPost2010Prop33
280
     0
102
RTVSPost2010PropOp33
 70
     1
102
RTVSPost2010Prop34
280
     0
102
RTVSPost2010PropOp34
 70
     1
102
RTVSPost2010Prop35
280
     0
102
RTVSPost2010PropOp35
 70
     1
102
RTVSPost2010Prop36
280
     0
102
RTVSPost2010PropOp36
 70
     1
102
RTVSPost2010Prop37
 90
       50
102
RTVSPost2010PropOp37
 70
     1
102
RTVSPost2010Prop38
140
0.0
102
RTVSPost2010PropOp38
 70
     1
102
RTVSPost2010Prop39
140
1.0
102
RTVSPost2010PropOp39
 70
     1
102
RTVSPost2010Prop40
 90
        0
102
RTVSPost2010PropOp40
 70
     1
102
RTVSPost2010Prop41ColorIndex
 90
       18
102
RTVSPost2010Prop41ColorRGB
 90
        0
102
RTVSPost2010PropOp41
 70
     1
102
RTVSPost2010Prop42
 90
       50
102
RTVSPost2010PropOp42
 70
     1
102
RTVSPost2010Prop43
 90
        3
102
RTVSPost2010PropOp43
 70
     1
102
RTVSPost2010Prop44ColorIndex
 90
        5
102
RTVSPost2010Prop44ColorRGB
 90
      255
102
RTVSPost2010PropOp44
 70
     1
102
RTVSPost2010Prop45
280
     0
102
RTVSPost2010PropOp45
 70
     1
102
RTVSPost2010Prop46
 90
       50
102
RTVSPost2010PropOp46
 70
     1
102
RTVSPost2010Prop47
 90
       50
102
RTVSPost2010PropOp47
 70
     1
102
RTVSPost2010Prop48
 90
       50
102
RTVSPost2010PropOp48
 70
     1
102
RTVSPost2010Prop49
280
     0
102
RTVSPost2010PropOp49
 70
     1
102
RTVSPost2010Prop50
 90
       50
102
RTVSPost2010PropOp50
 70
     1
102
RTVSPost2010Prop51ColorIndex
 90
      256
102
RTVSPost2010Prop51ColorRGB
 90
-16777216
102
RTVSPost2010PropOp51
 70
     0
102
RTVSPost2010Prop52
140
1.0
102
RTVSPost2010PropOp52
 70
     0
102
RTVSPost2010Prop53
 90
        2
102
RTVSPost2010PropOp53
 70
     1
102
RTVSPost2010Prop54
  1
strokes_ogs.tif
102
RTVSPost2010PropOp54
 70
     1
102
RTVSPost2010Prop55
280
     0
102
RTVSPost2010PropOp55
 70
     1
102
RTVSPost2010Prop56
140
1.0
102
RTVSPost2010PropOp56
 70
     1
102
RTVSPost2010Prop57
140
1.0
102
RTVSPost2010PropOp57
 70
     1
102
RTVSPropertyOp0
 70
     1
102
RTVSPropertyOp1
 70
     1
102
RTVSPropertyOp2
 70
     1
102
RTVSPropertyOp3
 70
     1
102
RTVSPropertyOp4
 70
     1
102
RTVSPropertyOp5
 70
     1
102
RTVSPropertyOp6
 70
     1
102
RTVSPropertyOp7
 70
     1
102
RTVSPropertyOp8
 70
     1
102
RTVSPropertyOp9
 70
     1
102
RTVSPropertyOp10
 70
     1
102
RTVSPropertyOp11
 70
     1
102
RTVSPropertyOp12
 70
     1
102
RTVSPropertyOp13
 70
     1
102
RTVSPropertyOp14
 70
     1
102
RTVSPropertyOp15
 70
     1
102
RTVSPropertyOp16
 70
     1
102
RTVSPropertyOp17
 70
     1
102
RTVSPropertyOp18
 70
     1
102
RTVSPropertyOp19
 70
     1
102
RTVSPropertyOp20
 70
     1
102
RTVSPropertyOp21
 70
     1
102
RTVSPropertyOp22
 70
     1
102
RTVSPropertyOp23
 70
     1
102
RTVSPropertyOp24
 70
     1
102
RTVSPropertyOp25
 70
     1
102
RTVSPropertyOp26
 70
     1
102
RTVSPropertyOp27
 70
     1
102
RTVSPropertyOp28
 70
     1
102
RTVSPropertyOp29
 70
     1
102
RTVSPropertyOp30
 70
     1
102
RTVSPropertyOp31
 70
     1
102
RTVSPropertyOp32
 70
     1
102
RTVSPropertyOp33
 70
     1
102
RTVSPropertyOp34
 70
     1
102
RTVSPropertyOp35
 70
     1
102
RTVSPropertyOp36
 70
     1
102
RTVSPropertyOp37
 70
     1
102
RTVSPropertyOp38
 70
     1
102
RTVSPropertyOp39
 70
     1
102
RTVSPropertyOp40
 70
     1
102
RTVSPropertyOp41
 70
     1
102
RTVSPropertyOp42
 70
     1
102
RTVSPropertyOp43
 70
     1
102
RTVSPropertyOp44
 70
     1
102
RTVSPropertyOp45
 70
     1
102
RTVSPropertyOp46
 70
     1
102
RTVSPropertyOp47
 70
     1
102
RTVSPropertyOp48
 70
     1
102
RTVSPropertyOp49
 70
     1
102
RTVSPropertyOp50
 70
     1
102
RTVSPropertyOp51
 70
     0
102
RTVSPropertyOp52
 70
     0
102
RTVSPropertyOp53
 70
     1
102
RTVSPropertyOp54
 70
     1
102
RTVSPropertyOp55
 70
     1
102
RTVSPropertyOp56
 70
     1
102
RTVSPropertyOp57
 70
     1
102
RTVSPropertyOp58
 70
     1
102
RTVSPropertyOp59
 70
     1
102
RTVSPropertyOp60
 70
     1
102
RTVSPropertyOp61
 70
     1
102
RTVSPropertyOp62
 70
     1
  0
XRECORD
  5
2248C
102
{ACAD_REACTORS
330
2248B
102
}
330
2248B
100
AcDbXrecord
280
     1
102
RTVSPost2010Prop28
280
     0
102
RTVSPost2010PropOp28
 70
     1
102
RTVSPost2010Prop29
280
     1
102
RTVSPost2010PropOp29
 70
     1
102
RTVSPost2010Prop30
280
     1
102
RTVSPost2010PropOp30
 70
     1
102
RTVSPost2010Prop31
280
     0
102
RTVSPost2010PropOp31
 70
     1
102
RTVSPost2010Prop32
280
     0
102
RTVSPost2010PropOp32
 70
     1
102
RTVSPost2010Prop33
280
     0
102
RTVSPost2010PropOp33
 70
     1
102
RTVSPost2010Prop34
280
     0
102
RTVSPost2010PropOp34
 70
     1
102
RTVSPost2010Prop35
280
     0
102
RTVSPost2010PropOp35
 70
     1
102
RTVSPost2010Prop36
280
     0
102
RTVSPost2010PropOp36
 70
     1
102
RTVSPost2010Prop37
 90
       50
102
RTVSPost2010PropOp37
 70
     1
102
RTVSPost2010Prop38
140
0.0
102
RTVSPost2010PropOp38
 70
     1
102
RTVSPost2010Prop39
140
1.0
102
RTVSPost2010PropOp39
 70
     1
102
RTVSPost2010Prop40
 90
        0
102
RTVSPost2010PropOp40
 70
     1
102
RTVSPost2010Prop41ColorIndex
 90
       18
102
RTVSPost2010Prop41ColorRGB
 90
        0
102
RTVSPost2010PropOp41
 70
     1
102
RTVSPost2010Prop42
 90
       50
102
RTVSPost2010PropOp42
 70
     1
102
RTVSPost2010Prop43
 90
        3
102
RTVSPost2010PropOp43
 70
     1
102
RTVSPost2010Prop44ColorIndex
 90
        5
102
RTVSPost2010Prop44ColorRGB
 90
      255
102
RTVSPost2010PropOp44
 70
     1
102
RTVSPost2010Prop45
280
     0
102
RTVSPost2010PropOp45
 70
     1
102
RTVSPost2010Prop46
 90
       50
102
RTVSPost2010PropOp46
 70
     1
102
RTVSPost2010Prop47
 90
       50
102
RTVSPost2010PropOp47
 70
     1
102
RTVSPost2010Prop48
 90
       50
102
RTVSPost2010PropOp48
 70
     1
102
RTVSPost2010Prop49
280
     0
102
RTVSPost2010PropOp49
 70
     1
102
RTVSPost2010Prop50
 90
       50
102
RTVSPost2010PropOp50
 70
     1
102
RTVSPost2010Prop51ColorIndex
 90
      256
102
RTVSPost2010Prop51ColorRGB
 90
-16777216
102
RTVSPost2010PropOp51
 70
     0
102
RTVSPost2010Prop52
140
1.0
102
RTVSPost2010PropOp52
 70
     0
102
RTVSPost2010Prop53
 90
        2
102
RTVSPost2010PropOp53
 70
     1
102
RTVSPost2010Prop54
  1
strokes_ogs.tif
102
RTVSPost2010PropOp54
 70
     1
102
RTVSPost2010Prop55
280
     0
102
RTVSPost2010PropOp55
 70
     1
102
RTVSPost2010Prop56
140
1.0
102
RTVSPost2010PropOp56
 70
     1
102
RTVSPost2010Prop57
140
1.0
102
RTVSPost2010PropOp57
 70
     1
102
RTVSPropertyOp0
 70
     1
102
RTVSPropertyOp1
 70
     1
102
RTVSPropertyOp2
 70
     1
102
RTVSPropertyOp3
 70
     1
102
RTVSPropertyOp4
 70
     1
102
RTVSPropertyOp5
 70
     1
102
RTVSPropertyOp6
 70
     1
102
RTVSPropertyOp7
 70
     1
102
RTVSPropertyOp8
 70
     1
102
RTVSPropertyOp9
 70
     1
102
RTVSPropertyOp10
 70
     1
102
RTVSPropertyOp11
 70
     1
102
RTVSPropertyOp12
 70
     1
102
RTVSPropertyOp13
 70
     1
102
RTVSPropertyOp14
 70
     1
102
RTVSPropertyOp15
 70
     1
102
RTVSPropertyOp16
 70
     1
102
RTVSPropertyOp17
 70
     1
102
RTVSPropertyOp18
 70
     1
102
RTVSPropertyOp19
 70
     1
102
RTVSPropertyOp20
 70
     1
102
RTVSPropertyOp21
 70
     1
102
RTVSPropertyOp22
 70
     1
102
RTVSPropertyOp23
 70
     1
102
RTVSPropertyOp24
 70
     1
102
RTVSPropertyOp25
 70
     1
102
RTVSPropertyOp26
 70
     1
102
RTVSPropertyOp27
 70
     1
102
RTVSPropertyOp28
 70
     1
102
RTVSPropertyOp29
 70
     1
102
RTVSPropertyOp30
 70
     1
102
RTVSPropertyOp31
 70
     1
102
RTVSPropertyOp32
 70
     1
102
RTVSPropertyOp33
 70
     1
102
RTVSPropertyOp34
 70
     1
102
RTVSPropertyOp35
 70
     1
102
RTVSPropertyOp36
 70
     1
102
RTVSPropertyOp37
 70
     1
102
RTVSPropertyOp38
 70
     1
102
RTVSPropertyOp39
 70
     1
102
RTVSPropertyOp40
 70
     1
102
RTVSPropertyOp41
 70
     1
102
RTVSPropertyOp42
 70
     1
102
RTVSPropertyOp43
 70
     1
102
RTVSPropertyOp44
 70
     1
102
RTVSPropertyOp45
 70
     1
102
RTVSPropertyOp46
 70
     1
102
RTVSPropertyOp47
 70
     1
102
RTVSPropertyOp48
 70
     1
102
RTVSPropertyOp49
 70
     1
102
RTVSPropertyOp50
 70
     1
102
RTVSPropertyOp51
 70
     0
102
RTVSPropertyOp52
 70
     0
102
RTVSPropertyOp53
 70
     1
102
RTVSPropertyOp54
 70
     1
102
RTVSPropertyOp55
 70
     1
102
RTVSPropertyOp56
 70
     1
102
RTVSPropertyOp57
 70
     1
102
RTVSPropertyOp58
 70
     1
102
RTVSPropertyOp59
 70
     1
102
RTVSPropertyOp60
 70
     1
102
RTVSPropertyOp61
 70
     1
102
RTVSPropertyOp62
 70
     1
  0
ENDSEC
  0
EOF
