  0
SECTION
  2
HEADER
  9
$ACADVER
  1
AC1015
  9
$ACADMAINTVER
 70
    20
  9
$DWGCODEPAGE
  3
ANSI_1252
  9
$INSBASE
 10
0.0
 20
0.0
 30
0.0
  9
$EXTMIN
 10
-61.50102146130643
 20
-40.7503547712132
 30
-0.0000000349181948
  9
$EXTMAX
 10
90.4444277301202
 20
46.39540026188194
 30
0.0000000814935747
  9
$LIMMIN
 10
0.0
 20
0.0
  9
$LIMMAX
 10
420.0
 20
297.0
  9
$ORTHOMODE
 70
     0
  9
$REGENMODE
 70
     1
  9
$FILLMODE
 70
     1
  9
$QTEXTMODE
 70
     0
  9
$MIRRTEXT
 70
     0
  9
$LTSCALE
 40
23.1
  9
$ATTMODE
 70
     1
  9
$TEXTSIZE
 40
3.5
  9
$TRACEWID
 40
0.05
  9
$TEXTSTYLE
  7
STANDARD
  9
$CLAYER
  8
0
  9
$CELTYPE
  6
BYLAYER
  9
$CECOLOR
 62
   256
  9
$CELTSCALE
 40
1.0
  9
$DISPSILH
 70
     0
  9
$DIMSCALE
 40
1.0
  9
$DIMASZ
 40
4.57
  9
$DIMEXO
 40
0.0625
  9
$DIMDLI
 40
0.38
  9
$DIMRND
 40
0.0
  9
$DIMDLE
 40
0.0
  9
$DIMEXE
 40
0.18
  9
$DIMTP
 40
0.01
  9
$DIMTM
 40
0.01
  9
$DIMTXT
 40
3.5
  9
$DIMCEN
 40
0.09
  9
$DIMTSZ
 40
0.0
  9
$DIMTOL
 70
     0
  9
$DIMLIM
 70
     0
  9
$DIMTIH
 70
     0
  9
$DIMTOH
 70
     0
  9
$DIMSE1
 70
     0
  9
$DIMSE2
 70
     0
  9
$DIMTAD
 70
     1
  9
$DIMZIN
 70
     8
  9
$DIMBLK
  1

  9
$DIMASO
 70
     1
  9
$DIMSHO
 70
     1
  9
$DIMPOST
  1

  9
$DIMAPOST
  1

  9
$DIMALT
 70
     0
  9
$DIMALTD
 70
     2
  9
$DIMALTF
 40
25.4
  9
$DIMLFAC
 40
1.0
  9
$DIMTOFL
 70
     0
  9
$DIMTVP
 40
0.0
  9
$DIMTIX
 70
     0
  9
$DIMSOXD
 70
     0
  9
$DIMSAH
 70
     0
  9
$DIMBLK1
  1

  9
$DIMBLK2
  1

  9
$DIMSTYLE
  2
STANDARD
  9
$DIMCLRD
 70
     0
  9
$DIMCLRE
 70
     0
  9
$DIMCLRT
 70
     0
  9
$DIMTFAC
 40
1.0
  9
$DIMGAP
 40
0.09
  9
$DIMJUST
 70
     0
  9
$DIMSD1
 70
     0
  9
$DIMSD2
 70
     0
  9
$DIMTOLJ
 70
     1
  9
$DIMTZIN
 70
     8
  9
$DIMALTZ
 70
     0
  9
$DIMALTTZ
 70
     0
  9
$DIMUPT
 70
     0
  9
$DIMDEC
 70
     3
  9
$DIMTDEC
 70
     3
  9
$DIMALTU
 70
     2
  9
$DIMALTTD
 70
     2
  9
$DIMTXSTY
  7
STANDARD
  9
$DIMAUNIT
 70
     0
  9
$DIMADEC
 70
     0
  9
$DIMALTRND
 40
0.0
  9
$DIMAZIN
 70
     0
  9
$DIMDSEP
 70
    46
  9
$DIMATFIT
 70
     0
  9
$DIMFRAC
 70
     0
  9
$DIMLDRBLK
  1

  9
$DIMLUNIT
 70
     2
  9
$DIMLWD
 70
    -2
  9
$DIMLWE
 70
    -2
  9
$DIMTMOVE
 70
     0
  9
$LUNITS
 70
     2
  9
$LUPREC
 70
     4
  9
$SKETCHINC
 40
0.1
  9
$FILLETRAD
 40
0.0
  9
$AUNITS
 70
     0
  9
$AUPREC
 70
     0
  9
$MENU
  1
.
  9
$ELEVATION
 40
0.0
  9
$PELEVATION
 40
0.0
  9
$THICKNESS
 40
0.0
  9
$LIMCHECK
 70
     0
  9
$CHAMFERA
 40
0.0
  9
$CHAMFERB
 40
0.0
  9
$CHAMFERC
 40
0.0
  9
$CHAMFERD
 40
0.0
  9
$SKPOLY
 70
     0
  9
$TDCREATE
 40
2458446.363553241
  9
$TDUCREATE
 40
2458446.321893773
  9
$TDUPDATE
 40
2458936.546041667
  9
$TDUUPDATE
 40
2458936.504375000
  9
$TDINDWG
 40
0.0811713542
  9
$TDUSRTIMER
 40
0.0811703009
  9
$USRTIMER
 70
     1
  9
$ANGBASE
 50
0.0
  9
$ANGDIR
 70
     0
  9
$PDMODE
 70
     3
  9
$PDSIZE
 40
0.3125
  9
$PLINEWID
 40
0.0
  9
$SPLFRAME
 70
     0
  9
$SPLINETYPE
 70
     6
  9
$SPLINESEGS
 70
     8
  9
$HANDSEED
  5
224A9
  9
$SURFTAB1
 70
     6
  9
$SURFTAB2
 70
     6
  9
$SURFTYPE
 70
     6
  9
$SURFU
 70
     6
  9
$SURFV
 70
     6
  9
$UCSBASE
  2

  9
$UCSNAME
  2

  9
$UCSORG
 10
0.0
 20
0.0
 30
0.0
  9
$UCSXDIR
 10
1.0
 20
0.0
 30
0.0
  9
$UCSYDIR
 10
0.0
 20
1.0
 30
0.0
  9
$UCSORTHOREF
  2

  9
$UCSORTHOVIEW
 70
     0
  9
$UCSORGTOP
 10
0.0
 20
0.0
 30
0.0
  9
$UCSORGBOTTOM
 10
0.0
 20
0.0
 30
0.0
  9
$UCSORGLEFT
 10
0.0
 20
0.0
 30
0.0
  9
$UCSORGRIGHT
 10
0.0
 20
0.0
 30
0.0
  9
$UCSORGFRONT
 10
0.0
 20
0.0
 30
0.0
  9
$UCSORGBACK
 10
0.0
 20
0.0
 30
0.0
  9
$PUCSBASE
  2

  9
$PUCSNAME
  2

  9
$PUCSORG
 10
0.0
 20
0.0
 30
0.0
  9
$PUCSXDIR
 10
1.0
 20
0.0
 30
0.0
  9
$PUCSYDIR
 10
0.0
 20
1.0
 30
0.0
  9
$PUCSORTHOREF
  2

  9
$PUCSORTHOVIEW
 70
     0
  9
$PUCSORGTOP
 10
0.0
 20
0.0
 30
0.0
  9
$PUCSORGBOTTOM
 10
0.0
 20
0.0
 30
0.0
  9
$PUCSORGLEFT
 10
0.0
 20
0.0
 30
0.0
  9
$PUCSORGRIGHT
 10
0.0
 20
0.0
 30
0.0
  9
$PUCSORGFRONT
 10
0.0
 20
0.0
 30
0.0
  9
$PUCSORGBACK
 10
0.0
 20
0.0
 30
0.0
  9
$USERI1
 70
     0
  9
$USERI2
 70
     0
  9
$USERI3
 70
     0
  9
$USERI4
 70
     0
  9
$USERI5
 70
     0
  9
$USERR1
 40
0.0
  9
$USERR2
 40
0.0
  9
$USERR3
 40
0.0
  9
$USERR4
 40
0.0
  9
$USERR5
 40
0.0
  9
$WORLDVIEW
 70
     1
  9
$SHADEDGE
 70
     3
  9
$SHADEDIF
 70
    70
  9
$TILEMODE
 70
     1
  9
$MAXACTVP
 70
    64
  9
$PINSBASE
 10
0.0
 20
0.0
 30
0.0
  9
$PLIMCHECK
 70
     0
  9
$PEXTMIN
 10
28.69141678810127
 20
19.6363175392151
 30
0.0
  9
$PEXTMAX
 10
258.2227510929107
 20
176.7268578529358
 30
0.0
  9
$PLIMMIN
 10
-5.027069091796875
 20
-6.805083274841307
  9
$PLIMMAX
 10
291.9412536621094
 20
203.1682443618775
  9
$UNITMODE
 70
     0
  9
$VISRETAIN
 70
     1
  9
$PLINEGEN
 70
     0
  9
$PSLTSCALE
 70
     1
  9
$TREEDEPTH
 70
  3020
  9
$CMLSTYLE
  2
STANDARD
  9
$CMLJUST
 70
     0
  9
$CMLSCALE
 40
1.0
  9
$PROXYGRAPHICS
 70
     1
  9
$MEASUREMENT
 70
     1
  9
$CELWEIGHT
370
    -1
  9
$ENDCAPS
280
     0
  9
$JOINSTYLE
280
     0
  9
$LWDISPLAY
290
     0
  9
$INSUNITS
 70
     0
  9
$HYPERLINKBASE
  1

  9
$STYLESHEET
  1
A1-A2.CTB
  9
$XEDIT
290
     1
  9
$CEPSNTYPE
380
     0
  9
$PSTYLEMODE
290
     1
  9
$FINGERPRINTGUID
  2
{6D3BC7B5-ACA7-406D-8A0D-A7DBBE093430}
  9
$VERSIONGUID
  2
{D5A75D39-0AFC-5543-B1D1-C602DC61DFC7}
  9
$EXTNAMES
290
     1
  9
$PSVPSCALE
 40
0.0
  9
$OLESTARTUP
290
     0
  0
ENDSEC
  0
SECTION
  2
CLASSES
  0
CLASS
  1
ACDBDICTIONARYWDFLT
  2
AcDbDictionaryWithDefault
  3
ObjectDBX Classes
 90
        0
280
     0
281
     0
  0
CLASS
  1
MATERIAL
  2
AcDbMaterial
  3
ObjectDBX Classes
 90
     1153
280
     0
281
     0
  0
CLASS
  1
VISUALSTYLE
  2
AcDbVisualStyle
  3
ObjectDBX Classes
 90
     4095
280
     0
281
     0
  0
CLASS
  1
TABLESTYLE
  2
AcDbTableStyle
  3
ObjectDBX Classes
 90
     4095
280
     0
281
     0
  0
CLASS
  1
SORTENTSTABLE
  2
AcDbSortentsTable
  3
ObjectDBX Classes
 90
        0
280
     0
281
     0
  0
CLASS
  1
DICTIONARYVAR
  2
AcDbDictionaryVar
  3
ObjectDBX Classes
 90
        0
280
     0
281
     0
  0
CLASS
  1
EXACXREFPANELOBJECT
  2
ExAcXREFPanelObject
  3
EXAC_ESW
 90
    33793
280
     1
281
     0
  0
CLASS
  1
NPOCOLLECTION
  2
AcDbImpNonPersistentObjectsCollection
  3
ObjectDBX Classes
 90
    33921
280
     1
281
     0
  0
CLASS
  1
SCALE
  2
AcDbScale
  3
ObjectDBX Classes
 90
     1153
280
     0
281
     0
  0
CLASS
  1
MLEADERSTYLE
  2
AcDbMLeaderStyle
  3
ACDB_MLEADERSTYLE_CLASS
 90
     4095
280
     0
281
     0
  0
CLASS
  1
ACDBSECTIONVIEWSTYLE
  2
AcDbSectionViewStyle
  3
ObjectDBX Classes
 90
     1025
280
     0
281
     0
  0
CLASS
  1
ACDBDETAILVIEWSTYLE
  2
AcDbDetailViewStyle
  3
ObjectDBX Classes
 90
     1025
280
     0
281
     0
  0
CLASS
  1
CELLSTYLEMAP
  2
AcDbCellStyleMap
  3
ObjectDBX Classes
 90
     1152
280
     0
281
     0
  0
CLASS
  1
ACAD_EVALUATION_GRAPH
  2
AcDbEvalGraph
  3
ObjectDBX Classes
 90
    33921
280
     0
281
     0
  0
CLASS
  1
ACAECUSTOBJ
  2
AcAeEditorObj
  3
AcAeEditorObj
 90
    33792
280
     0
281
     0
  0
CLASS
  1
ACDB_DYNAMICBLOCKPURGEPREVENTER_VERSION
  2
AcDbDynamicBlockPurgePreventer
  3
ObjectDBX Classes
 90
    33921
280
     0
281
     0
  0
CLASS
  1
FIELD
  2
AcDbField
  3
ObjectDBX Classes
 90
    33920
280
     0
281
     0
  0
CLASS
  1
FIELDLIST
  2
AcDbFieldList
  3
ObjectDBX Classes
 90
     1152
280
     0
281
     0
  0
CLASS
  1
ACDB_ALDIMOBJECTCONTEXTDATA_CLASS
  2
AcDbAlignedDimensionObjectContextData
  3
ObjectDBX Classes
 90
    33921
280
     0
281
     0
  0
CLASS
  1
ACDBPLACEHOLDER
  2
AcDbPlaceHolder
  3
ObjectDBX Classes
 90
        0
280
     0
281
     0
  0
CLASS
  1
LAYOUT
  2
AcDbLayout
  3
ObjectDBX Classes
 90
        0
280
     0
281
     0
  0
ENDSEC
  0
SECTION
  2
TABLES
  0
TABLE
  2
VPORT
  5
8
330
0
100
AcDbSymbolTable
 70
     1
  0
VPORT
  5
1F4
330
8
100
AcDbSymbolTableRecord
100
AcDbViewportTableRecord
  2
*ACTIVE
 70
     0
 10
0.0
 20
0.0
 11
1.0
 21
1.0
 12
14.47170313440688
 22
2.822522745334367
 13
0.0
 23
0.0
 14
1.0
 24
1.0
 15
0.0
 25
0.0
 16
0.0
 26
0.0
 36
1.0
 17
0.0
 27
0.0
 37
0.0
 40
87.76527461863848
 41
1.91459074733096
 42
50.0
 43
0.0
 44
0.0
 50
0.0
 51
0.0
 71
     0
 72
  2000
 73
     1
 74
     1
 75
     0
 76
     0
 77
     0
 78
     0
281
     0
 65
     1
110
0.0
120
0.0
130
0.0
111
1.0
121
0.0
131
0.0
112
0.0
122
1.0
132
0.0
 79
     0
146
0.0
1001
ACAD_NAV_VCDISPLAY
1070
     3
  0
ENDTAB
  0
TABLE
  2
LTYPE
  5
5
330
0
100
AcDbSymbolTable
 70
     4
  0
LTYPE
  5
14
330
5
100
AcDbSymbolTableRecord
100
AcDbLinetypeTableRecord
  2
BYBLOCK
 70
     0
  3

 72
    65
 73
     0
 40
0.0
  0
LTYPE
  5
15
330
5
100
AcDbSymbolTableRecord
100
AcDbLinetypeTableRecord
  2
BYLAYER
 70
     0
  3

 72
    65
 73
     0
 40
0.0
  0
LTYPE
  5
16
330
5
100
AcDbSymbolTableRecord
100
AcDbLinetypeTableRecord
  2
CONTINUOUS
 70
     0
  3
Solid line
 72
    65
 73
     0
 40
0.0
  0
LTYPE
  5
9C48
330
5
100
AcDbSymbolTableRecord
100
AcDbLinetypeTableRecord
  2
CENTER
 70
     0
  3
____ _ ____ _ ____ _ ____ _ ____ _ ____ _ ____
 72
    65
 73
     4
 40
0.6
 49
0.375
 74
     0
 49
-0.075
 74
     0
 49
0.075
 74
     0
 49
-0.075
 74
     0
  0
LTYPE
  5
20A82
330
5
100
AcDbSymbolTableRecord
100
AcDbLinetypeTableRecord
  2
HIDDEN
 70
     0
  3
- - - - - - - - - - - - - - - - - - - -
 72
    65
 73
     2
 40
0.2
 49
0.1
 74
     0
 49
-0.1
 74
     0
  0
ENDTAB
  0
TABLE
  2
LAYER
  5
2
102
{ACAD_XDICTIONARY
360
422A
102
}
330
0
100
AcDbSymbolTable
 70
    15
  0
LAYER
  5
10
102
{ACAD_XDICTIONARY
360
1B2F5
102
}
330
2
100
AcDbSymbolTableRecord
100
AcDbLayerTableRecord
  2
0
 70
     0
 62
     7
  6
CONTINUOUS
370
    -3
390
318A
  0
LAYER
  5
3F8C
102
{ACAD_XDICTIONARY
360
1B2F7
102
}
330
2
100
AcDbSymbolTableRecord
100
AcDbLayerTableRecord
  2
1
 70
     0
 62
     4
  6
BYBLOCK
370
    50
390
318A
  0
LAYER
  5
3FA7
330
2
100
AcDbSymbolTableRecord
100
AcDbLayerTableRecord
  2
Defpoints
 70
     0
 62
     7
  6
CONTINUOUS
290
     0
370
    -3
390
318A
  0
LAYER
  5
9C4A
102
{ACAD_XDICTIONARY
360
1B2F9
102
}
330
2
100
AcDbSymbolTableRecord
100
AcDbLayerTableRecord
  2
2
 70
     0
 62
     7
  6
BYBLOCK
370
    25
390
318A
  0
LAYER
  5
9C4B
102
{ACAD_XDICTIONARY
360
1B2FB
102
}
330
2
100
AcDbSymbolTableRecord
100
AcDbLayerTableRecord
  2
4
 70
     0
 62
     2
  6
CENTER
370
    25
390
318A
  0
LAYER
  5
9C4D
102
{ACAD_XDICTIONARY
360
1B2FD
102
}
330
2
100
AcDbSymbolTableRecord
100
AcDbLayerTableRecord
  2
CUT
 70
     0
 62
     1
  6
BYBLOCK
370
    25
390
318A
  0
LAYER
  5
9C4E
102
{ACAD_XDICTIONARY
360
1B2FF
102
}
330
2
100
AcDbSymbolTableRecord
100
AcDbLayerTableRecord
  2
NOCUT
 70
     0
 62
     7
  6
BYBLOCK
370
    25
390
318A
  0
LAYER
  5
9C4F
102
{ACAD_XDICTIONARY
360
1B301
102
}
330
2
100
AcDbSymbolTableRecord
100
AcDbLayerTableRecord
  2
SK2
 70
     0
 62
     7
  6
BYBLOCK
370
    25
390
318A
  0
LAYER
  5
9C50
102
{ACAD_XDICTIONARY
360
1B303
102
}
330
2
100
AcDbSymbolTableRecord
100
AcDbLayerTableRecord
  2
SK1
 70
     0
 62
     4
  6
BYBLOCK
370
    50
390
318A
  0
LAYER
  5
9C51
102
{ACAD_XDICTIONARY
360
1B305
102
}
330
2
100
AcDbSymbolTableRecord
100
AcDbLayerTableRecord
  2
SK4
 70
     0
 62
     2
  6
CENTER
370
    25
390
318A
  0
LAYER
  5
13335
102
{ACAD_XDICTIONARY
360
1B307
102
}
330
2
100
AcDbSymbolTableRecord
100
AcDbLayerTableRecord
  2
INFTOTAL
 70
     0
 62
     9
  6
BYBLOCK
370
    18
390
318A
1001
AcAecLayerStandard
1000

1000

  0
LAYER
  5
1686E
102
{ACAD_XDICTIONARY
360
1B309
102
}
330
2
100
AcDbSymbolTableRecord
100
AcDbLayerTableRecord
  2
SK6
 70
     0
 62
     5
  6
BYBLOCK
370
    -3
390
318A
  0
LAYER
  5
20A83
102
{ACAD_XDICTIONARY
360
20A84
102
}
330
2
100
AcDbSymbolTableRecord
100
AcDbLayerTableRecord
  2
3
 70
     0
 62
     1
  6
HIDDEN
370
    -3
390
318A
1001
AcAecLayerStandard
1000

1000

1001
AcCmTransparency
1071
        0
  0
ENDTAB
  0
TABLE
  2
STYLE
  5
3
330
0
100
AcDbSymbolTable
 70
     1
  0
STYLE
  5
11
330
3
100
AcDbSymbolTableRecord
100
AcDbTextStyleTableRecord
  2
STANDARD
 70
     0
 40
3.5
 41
0.8
 50
0.0
 71
     0
 42
3.5
  3
monos.ttf
  4

1001
ACAD
1000
Monospac821 BT
1071
       49
  0
ENDTAB
  0
TABLE
  2
VIEW
  5
6
330
0
100
AcDbSymbolTable
 70
     0
  0
ENDTAB
  0
TABLE
  2
UCS
  5
7
330
0
100
AcDbSymbolTable
 70
     0
  0
ENDTAB
  0
TABLE
  2
APPID
  5
9
330
0
100
AcDbSymbolTable
 70
    13
  0
APPID
  5
23B
330
9
100
AcDbSymbolTableRecord
100
AcDbRegAppTableRecord
  2
ACAD
 70
     0
  0
APPID
  5
3395
330
9
100
AcDbSymbolTableRecord
100
AcDbRegAppTableRecord
  2
ACAD_EXEMPT_FROM_CAD_STANDARDS
 70
     0
  0
APPID
  5
4229
330
9
100
AcDbSymbolTableRecord
100
AcDbRegAppTableRecord
  2
AcAecLayerStandard
 70
     0
  0
APPID
  5
9A1B
330
9
100
AcDbSymbolTableRecord
100
AcDbRegAppTableRecord
  2
ACAD_PSEXT
 70
     0
  0
APPID
  5
1B313
330
9
100
AcDbSymbolTableRecord
100
AcDbRegAppTableRecord
  2
ACAD_NAV_VCDISPLAY
 70
     0
  0
APPID
  5
1B355
330
9
100
AcDbSymbolTableRecord
100
AcDbRegAppTableRecord
  2
ACAD_MLEADERVER
 70
     0
  0
APPID
  5
1EC7F
330
9
100
AcDbSymbolTableRecord
100
AcDbRegAppTableRecord
  2
ACAUTHENVIRON
 70
     0
  0
APPID
  5
1EC82
330
9
100
AcDbSymbolTableRecord
100
AcDbRegAppTableRecord
  2
AcDbDynamicBlockTrueName
 70
     0
  0
APPID
  5
1EC83
330
9
100
AcDbSymbolTableRecord
100
AcDbRegAppTableRecord
  2
AcDbDynamicBlockGUID
 70
     0
  0
APPID
  5
20A85
330
9
100
AcDbSymbolTableRecord
100
AcDbRegAppTableRecord
  2
AcCmTransparency
 70
     0
  0
APPID
  5
20AE2
330
9
100
AcDbSymbolTableRecord
100
AcDbRegAppTableRecord
  2
ACAD_DSTYLE_DIMRADIAL_EXTENSION
 70
     0
  0
APPID
  5
20CB0
330
9
100
AcDbSymbolTableRecord
100
AcDbRegAppTableRecord
  2
AcadAnnotative
 70
     0
  0
APPID
  5
21667
330
9
100
AcDbSymbolTableRecord
100
AcDbRegAppTableRecord
  2
AcadAnnoMonitorAlertIconDisabled
 70
     0
  0
ENDTAB
  0
TABLE
  2
DIMSTYLE
  5
A
330
0
100
AcDbSymbolTable
 70
     2
100
AcDbDimStyleTable
 71
     1
340
243
  0
DIMSTYLE
105
243
102
{ACAD_REACTORS
330
220BE
330
22248
330
22267
330
22298
330
222D3
102
}
330
A
100
AcDbSymbolTableRecord
100
AcDbDimStyleTableRecord
  2
STANDARD
 70
     0
 41
4.57
 47
0.01
 48
0.01
 73
     0
 74
     0
 77
     1
 78
     8
140
3.5
271
     3
272
     3
284
     8
289
     0
340
11
  0
ENDTAB
  0
TABLE
  2
BLOCK_RECORD
  5
1
330
0
100
AcDbSymbolTable
 70
     9
  0
BLOCK_RECORD
  5
1F
102
{ACAD_XDICTIONARY
360
339C
102
}
330
1
100
AcDbSymbolTableRecord
100
AcDbBlockTableRecord
  2
*MODEL_SPACE
340
31A6
  0
BLOCK_RECORD
  5
1B
330
1
100
AcDbSymbolTableRecord
100
AcDbBlockTableRecord
  2
*PAPER_SPACE
340
31A7
  0
BLOCK_RECORD
  5
1B3D7
102
{ACAD_XDICTIONARY
360
1DE81
102
}
330
1
100
AcDbSymbolTableRecord
100
AcDbBlockTableRecord
  2
cero_point
340
0
310
28000000200000002000000001002000000000000010000001000000010000000000000000000000302821FF302821FF302821FF302821FF302821FF302821FF302821FF302821FF302821FF302821FF302821FF302821FF302821FF302821FF302821FF302821FF302821FF302821FF302821FF302821FF302821FF302821
310
FF302821FF302821FF302821FF302821FF302821FF302821FF302821FF302821FF302821FF302821FF302821FF302821FF302821FF302821FF302821FF302821FF302821FF302821FF302821FF302821FF302821FF302821FF302821FF302821FF302821FFFFFF00FFFFFF00FFFFFF00FF302821FF302821FF302821FF3028
310
21FF302821FF302821FF302821FF302821FF302821FF302821FF302821FF302821FF302821FF302821FF302821FF302821FF302821FF302821FF302821FF302821FF302821FF302821FF302821FF302821FFFFFF00FFFFFF00FFFFFF00FFFFFF00FFFFFF00FFFFFF00FFFFFF00FF302821FFFFFF00FFFFFF00FFFFFF00FF30
310
2821FF302821FF302821FF302821FF302821FF302821FF302821FF302821FF302821FF302821FF302821FF302821FF302821FF302821FF302821FF302821FF302821FF302821FF302821FFFFFF00FFFFFF00FFFFFF00FFFFFF00FFFFFF00FFFFFF00FFFFFF00FFFFFF00FFFFFF00FF302821FF302821FF302821FF302821FF
310
FFFF00FFFFFF00FF302821FF302821FF302821FF302821FF302821FF302821FF302821FF302821FF302821FF302821FF302821FF302821FF302821FF302821FF302821FF302821FFFFFF00FFFFFF00FFFFFF00FFFFFF00FFFFFF00FFFFFF00FFFFFF00FFFFFF00FFFFFF00FFFFFF00FF302821FF302821FF302821FF302821
310
FF302821FF302821FFFFFF00FFFFFF00FF302821FF302821FF302821FF302821FF302821FF302821FF302821FF302821FF302821FF302821FF302821FF302821FF302821FFFFFF00FFFFFF00FFFFFF00FFFFFF00FFFFFF00FFFFFF00FFFFFF00FFFFFF00FFFFFF00FFFFFF00FFFFFF00FF302821FF302821FF302821FF3028
310
21FF302821FF302821FF302821FF302821FFFFFF00FF302821FF302821FF302821FF302821FF302821FF302821FF302821FF302821FF302821FF302821FF302821FFFFFF00FFFFFF00FFFFFF00FFFFFF00FFFFFF00FFFFFF00FFFFFF00FFFFFF00FFFFFF00FFFFFF00FFFFFF00FFFFFF00FF302821FF302821FF302821FF30
310
2821FF302821FF302821FF302821FF302821FF302821FFFFFF00FF302821FF302821FF302821FF302821FF302821FF302821FF302821FF302821FF302821FFFFFF00FFFFFF00FFFFFF00FFFFFF00FFFFFF00FFFFFF00FFFFFF00FFFFFF00FFFFFF00FFFFFF00FFFFFF00FFFFFF00FFFFFF00FF302821FF302821FF302821FF
310
302821FF302821FF302821FF302821FF302821FF302821FF302821FFFFFF00FF302821FF302821FF302821FF302821FF302821FF302821FF302821FFFFFF00FFFFFF00FFFFFF00FFFFFF00FFFFFF00FFFFFF00FFFFFF00FFFFFF00FFFFFF00FFFFFF00FFFFFF00FFFFFF00FFFFFF00FFFFFF00FF302821FF302821FF302821
310
FF302821FF302821FF302821FF302821FF302821FF302821FF302821FFFFFF00FF302821FF302821FF302821FF302821FF302821FF302821FF302821FFFFFF00FFFFFF00FFFFFF00FFFFFF00FFFFFF00FFFFFF00FFFFFF00FFFFFF00FFFFFF00FFFFFF00FFFFFF00FFFFFF00FFFFFF00FFFFFF00FF302821FF302821FF3028
310
21FF302821FF302821FF302821FF302821FF302821FF302821FF302821FF302821FFFFFF00FF302821FF302821FF302821FF302821FF302821FFFFFF00FFFFFF00FFFFFF00FFFFFF00FFFFFF00FFFFFF00FFFFFF00FFFFFF00FFFFFF00FFFFFF00FFFFFF00FFFFFF00FFFFFF00FFFFFF00FFFFFF00FF302821FF302821FF30
310
2821FF302821FF302821FF302821FF302821FF302821FF302821FF302821FF302821FF302821FFFFFF00FF302821FF302821FF302821FF302821FFFFFF00FFFFFF00FFFFFF00FFFFFF00FFFFFF00FFFFFF00FFFFFF00FFFFFF00FFFFFF00FFFFFF00FFFFFF00FFFFFF00FFFFFF00FFFFFF00FFFFFF00FF302821FF302821FF
310
302821FF302821FF302821FF302821FF302821FF302821FF302821FF302821FF302821FF302821FFFFFF00FF302821FF302821FF302821FF302821FFFFFF00FFFFFF00FFFFFF00FFFFFF00FFFFFF00FFFFFF00FFFFFF00FFFFFF00FFFFFF00FFFFFF00FFFFFF00FFFFFF00FFFFFF00FFFFFF00FFFFFF00FF302821FF302821
310
FF302821FF302821FF302821FF302821FF302821FF302821FF302821FF302821FF302821FF302821FFFFFF00FF302821FF302821FF302821FF302821FFFFFF00FFFFFF00FFFFFF00FFFFFF00FFFFFF00FFFFFF00FFFFFF00FFFFFF00FFFFFF00FFFFFF00FFFFFF00FFFFFF00FFFFFF00FFFFFF00FFFFFF00FF302821FF3028
310
21FF302821FF302821FF302821FF302821FF302821FF302821FF302821FF302821FF302821FF302821FFFFFF00FF302821FF302821FF302821FFFFFF00FFFFFF00FFFFFF00FFFFFF00FFFFFF00FFFFFF00FFFFFF00FFFFFF00FFFFFF00FFFFFF00FFFFFF00FFFFFF00FFFFFF00FFFFFF00FFFFFF00FFFFFF00FF302821FF30
310
2821FF302821FF302821FF302821FF302821FF302821FF302821FF302821FF302821FF302821FF302821FF302821FFFFFF00FF302821FF302821FFFFFF00FFFFFF00FFFFFF00FFFFFF00FFFFFF00FFFFFF00FFFFFF00FFFFFF00FFFFFF00FFFFFF00FFFFFF00FFFFFF00FFFFFF00FFFFFF00FFFFFF00FFFFFF00FFFFFF00FF
310
FFFF00FFFFFF00FFFFFF00FFFFFF00FFFFFF00FFFFFF00FFFFFF00FFFFFF00FFFFFF00FFFFFF00FFFFFF00FFFFFF00FFFFFF00FF302821FF302821FFFFFF00FF302821FF302821FF302821FF302821FF302821FF302821FF302821FF302821FF302821FF302821FF302821FF302821FF302821FF302821FFFFFF00FFFFFF00
310
FFFFFF00FFFFFF00FFFFFF00FFFFFF00FFFFFF00FFFFFF00FFFFFF00FFFFFF00FFFFFF00FFFFFF00FFFFFF00FFFFFF00FFFFFF00FF302821FF302821FFFFFF00FF302821FF302821FF302821FF302821FF302821FF302821FF302821FF302821FF302821FF302821FF302821FF302821FF302821FF302821FFFFFF00FFFFFF
310
00FFFFFF00FFFFFF00FFFFFF00FFFFFF00FFFFFF00FFFFFF00FFFFFF00FFFFFF00FFFFFF00FFFFFF00FFFFFF00FFFFFF00FF302821FF302821FF302821FF302821FFFFFF00FF302821FF302821FF302821FF302821FF302821FF302821FF302821FF302821FF302821FF302821FF302821FF302821FF302821FFFFFF00FFFF
310
FF00FFFFFF00FFFFFF00FFFFFF00FFFFFF00FFFFFF00FFFFFF00FFFFFF00FFFFFF00FFFFFF00FFFFFF00FFFFFF00FFFFFF00FF302821FF302821FF302821FF302821FFFFFF00FF302821FF302821FF302821FF302821FF302821FF302821FF302821FF302821FF302821FF302821FF302821FF302821FF302821FFFFFF00FF
310
FFFF00FFFFFF00FFFFFF00FFFFFF00FFFFFF00FFFFFF00FFFFFF00FFFFFF00FFFFFF00FFFFFF00FFFFFF00FFFFFF00FFFFFF00FF302821FF302821FF302821FF302821FFFFFF00FF302821FF302821FF302821FF302821FF302821FF302821FF302821FF302821FF302821FF302821FF302821FF302821FF302821FFFFFF00
310
FFFFFF00FFFFFF00FFFFFF00FFFFFF00FFFFFF00FFFFFF00FFFFFF00FFFFFF00FFFFFF00FFFFFF00FFFFFF00FFFFFF00FFFFFF00FF302821FF302821FF302821FF302821FF302821FFFFFF00FF302821FF302821FF302821FF302821FF302821FF302821FF302821FF302821FF302821FF302821FF302821FF302821FFFFFF
310
00FFFFFF00FFFFFF00FFFFFF00FFFFFF00FFFFFF00FFFFFF00FFFFFF00FFFFFF00FFFFFF00FFFFFF00FFFFFF00FFFFFF00FFFFFF00FF302821FF302821FF302821FF302821FF302821FFFFFF00FF302821FF302821FF302821FF302821FF302821FF302821FF302821FF302821FF302821FF302821FF302821FF302821FFFF
310
FF00FFFFFF00FFFFFF00FFFFFF00FFFFFF00FFFFFF00FFFFFF00FFFFFF00FFFFFF00FFFFFF00FFFFFF00FFFFFF00FFFFFF00FF302821FF302821FF302821FF302821FF302821FF302821FF302821FFFFFF00FF302821FF302821FF302821FF302821FF302821FF302821FF302821FF302821FF302821FF302821FF302821FF
310
FFFF00FFFFFF00FFFFFF00FFFFFF00FFFFFF00FFFFFF00FFFFFF00FFFFFF00FFFFFF00FFFFFF00FFFFFF00FFFFFF00FFFFFF00FF302821FF302821FF302821FF302821FF302821FF302821FF302821FFFFFF00FF302821FF302821FF302821FF302821FF302821FF302821FF302821FF302821FF302821FF302821FF302821
310
FFFFFF00FFFFFF00FFFFFF00FFFFFF00FFFFFF00FFFFFF00FFFFFF00FFFFFF00FFFFFF00FFFFFF00FFFFFF00FFFFFF00FF302821FF302821FF302821FF302821FF302821FF302821FF302821FF302821FF302821FFFFFF00FF302821FF302821FF302821FF302821FF302821FF302821FF302821FF302821FF302821FF3028
310
21FFFFFF00FFFFFF00FFFFFF00FFFFFF00FFFFFF00FFFFFF00FFFFFF00FFFFFF00FFFFFF00FFFFFF00FFFFFF00FF302821FF302821FF302821FF302821FF302821FF302821FF302821FF302821FF302821FF302821FF302821FFFFFF00FF302821FF302821FF302821FF302821FF302821FF302821FF302821FF302821FF30
310
2821FFFFFF00FFFFFF00FFFFFF00FFFFFF00FFFFFF00FFFFFF00FFFFFF00FFFFFF00FFFFFF00FFFFFF00FF302821FF302821FF302821FF302821FF302821FF302821FF302821FF302821FF302821FF302821FF302821FF302821FF302821FFFFFF00FF302821FF302821FF302821FF302821FF302821FF302821FF302821FF
310
302821FFFFFF00FFFFFF00FFFFFF00FFFFFF00FFFFFF00FFFFFF00FFFFFF00FFFFFF00FFFFFF00FF302821FF302821FF302821FF302821FF302821FF302821FF302821FF302821FF302821FF302821FF302821FF302821FF302821FF302821FF302821FFFFFF00FFFFFF00FF302821FF302821FF302821FF302821FF302821
310
FF302821FFFFFF00FFFFFF00FFFFFF00FFFFFF00FFFFFF00FFFFFF00FFFFFF00FFFFFF00FF302821FF302821FF302821FF302821FF302821FF302821FF302821FF302821FF302821FF302821FF302821FF302821FF302821FF302821FF302821FF302821FF302821FF302821FFFFFF00FFFFFF00FFFFFF00FFFFFF00FFFFFF
310
00FF302821FFFFFF00FFFFFF00FFFFFF00FFFFFF00FFFFFF00FFFFFF00FF302821FF302821FF302821FF302821FF302821FF302821FF302821FF302821FF302821FF302821FF302821FF302821FF302821FF302821FF302821FF302821FF302821FF302821FF302821FF302821FF302821FF302821FF302821FF302821FF30
310
2821FFFFFF00FFFFFF00FFFFFF00FF302821FF302821FF302821FF302821FF302821FF302821FF302821FF302821FF302821FF302821FF302821FF302821FF302821FF302821FF302821FF302821FF302821FF302821FF302821FF302821FF302821FF302821FF302821FF302821FF302821FF302821FF302821FF302821FF
310
302821FF302821FF302821FF302821FF302821FF302821FF302821FF302821FF302821FF302821FF302821FF302821FF302821FF302821FF302821FF302821FF302821FF302821FF
102
{BLKREFS
331
20A18
102
}
  0
BLOCK_RECORD
  5
22219
330
1
100
AcDbSymbolTableRecord
100
AcDbBlockTableRecord
  2
*D1
340
0
  0
BLOCK_RECORD
  5
22249
330
1
100
AcDbSymbolTableRecord
100
AcDbBlockTableRecord
  2
*D2
340
0
  0
BLOCK_RECORD
  5
22268
330
1
100
AcDbSymbolTableRecord
100
AcDbBlockTableRecord
  2
*D3
340
0
  0
BLOCK_RECORD
  5
22299
330
1
100
AcDbSymbolTableRecord
100
AcDbBlockTableRecord
  2
*D4
340
0
  0
BLOCK_RECORD
  5
222D4
330
1
100
AcDbSymbolTableRecord
100
AcDbBlockTableRecord
  2
*D5
340
0
  0
ENDTAB
  0
ENDSEC
  0
SECTION
  2
BLOCKS
  0
BLOCK
  5
20
330
1F
100
AcDbEntity
  8
0
100
AcDbBlockBegin
  2
*MODEL_SPACE
 70
     0
 10
0.0
 20
0.0
 30
0.0
  3
*MODEL_SPACE
  1

  0
ENDBLK
  5
21
330
1F
100
AcDbEntity
  8
0
100
AcDbBlockEnd
  0
BLOCK
  5
1C
330
1B
100
AcDbEntity
 67
     1
  8
0
100
AcDbBlockBegin
  2
*PAPER_SPACE
 70
     0
 10
0.0
 20
0.0
 30
0.0
  3
*PAPER_SPACE
  1

  0
ENDBLK
  5
1D
330
1B
100
AcDbEntity
 67
     1
  8
0
100
AcDbBlockEnd
  0
BLOCK
  5
1B3D8
330
1B3D7
100
AcDbEntity
  8
0
100
AcDbBlockBegin
  2
cero_point
 70
     0
 10
0.0
 20
0.0
 30
0.0
  3
cero_point
  1

  0
HATCH
  5
1B3DA
330
1B3D7
100
AcDbEntity
  8
1
  6
ByBlock
370
    50
100
AcDbHatch
 10
0.0
 20
0.0
 30
0.0
210
0.0
220
0.0
230
1.0
  2
SOLID
 70
     1
 71
     0
 91
        2
 92
        7
 72
     1
 73
     1
 93
        3
 10
-0.0000000000001137
 20
0.0
 42
0.0
 10
-2.950972054112752
 20
0.0
 42
0.4142135623730968
 10
-0.0000000000001137
 20
-2.950972054112583
 42
0.0
 97
        0
 92
        7
 72
     1
 73
     1
 93
        3
 10
-0.0000000000001137
 20
2.950972054112638
 42
0.0
 10
-0.0000000000001137
 20
0.0
 42
0.0
 10
2.950972054112526
 20
0.0
 42
0.4142135623730966
 97
        0
 75
     0
 76
     1
 47
0.1190009775223266
 98
        2
 10
-0.7445530588121301
 20
-0.9212244733764125
 10
1.279464601852737
 20
1.696796923046345
  0
LWPOLYLINE
  5
1B3DB
330
1B3D7
100
AcDbEntity
  8
1
  6
ByBlock
370
    50
100
AcDbPolyline
 90
        3
 70
     1
 43
0.0
 10
-0.0000000000001137
 20
0.0
 10
2.950972054112526
 20
0.0
 42
0.4142135623730966
 10
-0.0000000000001137
 20
2.950972054112638
  0
LINE
  5
1B3DC
330
1B3D7
100
AcDbEntity
  8
1
  6
ByBlock
370
    50
100
AcDbLine
 10
-0.0000000000001137
 20
-2.950972054112583
 30
0.0
 11
-0.0000000000001137
 21
2.950972054112638
 31
0.0
  0
LWPOLYLINE
  5
1B3DD
330
1B3D7
100
AcDbEntity
  8
1
  6
ByBlock
370
    50
100
AcDbPolyline
 90
        3
 70
     1
 43
0.0
 10
-0.0000000000001137
 20
-2.950972054112583
 10
-0.0000000000001137
 20
0.0
 10
-2.950972054112752
 20
0.0
 42
0.4142135623730966
  0
LINE
  5
1B3DE
330
1B3D7
100
AcDbEntity
  8
1
  6
ByBlock
370
    50
100
AcDbLine
 10
2.950972054112638
 20
0.0
 30
0.0
 11
-2.950972054112638
 21
0.0
 31
0.0
  0
CIRCLE
  5
1B3DF
330
1B3D7
100
AcDbEntity
  8
1
  6
ByBlock
370
    50
100
AcDbCircle
 10
-0.0000000000001137
 20
0.0
 30
0.0
 40
2.950972054112601
  0
ENDBLK
  5
1B3D9
330
1B3D7
100
AcDbEntity
  8
0
100
AcDbBlockEnd
  0
BLOCK
  5
2221A
330
22219
100
AcDbEntity
  8
0
100
AcDbBlockBegin
  2
*D1
 70
     1
 10
0.0
 20
0.0
 30
0.0
  3
*D1
  1

  0
LINE
  5
22316
330
22219
100
AcDbEntity
  8
2
 62
     0
370
    -2
100
AcDbLine
 10
43.00000000000003
 20
18.06249999999998
 30
0.0
 11
43.00000000000003
 21
31.08013992559999
 31
0.0
  0
LINE
  5
22317
330
22219
100
AcDbEntity
  8
2
 62
     0
370
    -2
100
AcDbLine
 10
0.0000000000000284
 20
12.98539699549995
 30
0.0
 11
0.0000000000000295
 21
31.08013992559999
 31
0.0
  0
LINE
  5
22318
330
22219
100
AcDbEntity
  8
2
 62
     0
370
    -2
100
AcDbLine
 10
38.43000000000003
 20
30.90013992559999
 30
0.0
 11
4.570000000000028
 21
30.90013992559999
 31
0.0
  0
SOLID
  5
22319
330
22219
100
AcDbEntity
  8
2
 62
     0
100
AcDbTrace
 10
38.43000000000003
 20
31.66180659226665
 30
0.0
 11
38.43000000000003
 21
30.13847325893332
 31
0.0
 12
43.00000000000003
 22
30.90013992559999
 32
0.0
 13
43.00000000000003
 23
30.90013992559999
 33
0.0
  0
SOLID
  5
2231A
330
22219
100
AcDbEntity
  8
2
 62
     0
100
AcDbTrace
 10
4.570000000000028
 20
31.66180659226665
 30
0.0
 11
4.570000000000028
 21
30.13847325893332
 31
0.0
 12
0.0000000000000295
 22
30.90013992559999
 32
0.0
 13
0.0000000000000295
 23
30.90013992559999
 33
0.0
  0
MTEXT
  5
2231B
330
22219
100
AcDbEntity
  8
2
 62
     0
100
AcDbMText
 10
22.06250000000003
 20
32.80162973586
 30
0.0
 40
3.5
 41
0.0
 71
     5
 72
     1
  1
\A1;43
 73
     1
 44
1.0
1001
ACAD
1000
MTEXTBEGIN
1070
    73
1070
     1
1070
    44
1040
1.0
1070
    74
1070
     0
1000
MTEXTEND
  0
POINT
  5
2231C
330
22219
100
AcDbEntity
  8
Defpoints
 62
     0
100
AcDbPoint
 10
43.00000000000003
 20
17.99999999999998
 30
0.0
  0
POINT
  5
2231D
330
22219
100
AcDbEntity
  8
Defpoints
 62
     0
100
AcDbPoint
 10
0.0000000000000284
 20
12.92289699549995
 30
0.0
  0
POINT
  5
2231E
330
22219
100
AcDbEntity
  8
Defpoints
 62
     0
100
AcDbPoint
 10
0.0000000000000295
 20
30.90013992559999
 30
0.0
  0
ENDBLK
  5
2221B
330
22219
100
AcDbEntity
  8
0
100
AcDbBlockEnd
  0
BLOCK
  5
2224A
330
22249
100
AcDbEntity
  8
0
100
AcDbBlockBegin
  2
*D2
 70
     1
 10
0.0
 20
0.0
 30
0.0
  3
*D2
  1

  0
LINE
  5
2231F
330
22249
100
AcDbEntity
  8
SK2
 62
     0
370
    -2
100
AcDbLine
 10
-23.99999999999997
 20
6.503654273199956
 30
0.0
 11
-23.99999999999997
 21
30.73270966617716
 31
0.0
  0
LINE
  5
22320
330
22249
100
AcDbEntity
  8
SK2
 62
     0
370
    -2
100
AcDbLine
 10
0.0000000000000853
 20
13.93750000000004
 30
0.0
 11
0.0000000000000863
 21
30.73270966617716
 31
0.0
  0
LINE
  5
22321
330
22249
100
AcDbEntity
  8
SK2
 62
     0
370
    -2
100
AcDbLine
 10
-19.42999999999997
 20
30.55270966617718
 30
0.0
 11
-4.569999999999914
 21
30.55270966617718
 31
0.0
  0
SOLID
  5
22322
330
22249
100
AcDbEntity
  8
SK2
 62
     0
100
AcDbTrace
 10
-19.42999999999997
 20
31.31437633284383
 30
0.0
 11
-19.42999999999997
 21
29.7910429995105
 31
0.0
 12
-23.99999999999997
 22
30.55270966617718
 32
0.0
 13
-23.99999999999997
 23
30.55270966617718
 33
0.0
  0
SOLID
  5
22323
330
22249
100
AcDbEntity
  8
SK2
 62
     0
100
AcDbTrace
 10
-4.569999999999914
 20
31.31437633284383
 30
0.0
 11
-4.569999999999914
 21
29.7910429995105
 31
0.0
 12
0.0000000000000863
 22
30.55270966617718
 32
0.0
 13
0.0000000000000863
 23
30.55270966617718
 33
0.0
  0
MTEXT
  5
22324
330
22249
100
AcDbEntity
  8
SK2
 62
     0
100
AcDbMText
 10
-11.99999999999994
 20
32.40377783202397
 30
0.0
 40
3.5
 41
0.0
 71
     5
 72
     1
  1
\A1;24
 73
     1
 44
1.0
1001
ACAD
1000
MTEXTBEGIN
1070
    73
1070
     1
1070
    44
1040
1.0
1070
    74
1070
     0
1000
MTEXTEND
  0
POINT
  5
22325
330
22249
100
AcDbEntity
  8
Defpoints
 62
     0
100
AcDbPoint
 10
-23.99999999999997
 20
6.441154273199956
 30
0.0
  0
POINT
  5
22326
330
22249
100
AcDbEntity
  8
Defpoints
 62
     0
100
AcDbPoint
 10
0.0000000000000853
 20
13.87500000000003
 30
0.0
  0
POINT
  5
22327
330
22249
100
AcDbEntity
  8
Defpoints
 62
     0
100
AcDbPoint
 10
0.0000000000000863
 20
30.55270966617718
 30
0.0
  0
ENDBLK
  5
2224B
330
22249
100
AcDbEntity
  8
0
100
AcDbBlockEnd
  0
BLOCK
  5
22269
330
22268
100
AcDbEntity
  8
0
100
AcDbBlockBegin
  2
*D3
 70
     1
 10
0.0
 20
0.0
 30
0.0
  3
*D3
  1

  0
LINE
  5
22328
330
22268
100
AcDbEntity
  8
SK2
 62
     0
370
    -2
100
AcDbLine
 10
-23.1625
 20
7.999999999999985
 30
0.0
 11
-34.33789926731029
 21
7.999999999999988
 31
0.0
  0
LINE
  5
22329
330
22268
100
AcDbEntity
  8
SK2
 62
     0
370
    -2
100
AcDbLine
 10
-23.1625
 20
-8.000000000000012
 30
0.0
 11
-34.33789926731029
 21
-8.000000000000012
 31
0.0
  0
LINE
  5
2232A
330
22268
100
AcDbEntity
  8
SK2
 62
     0
370
    -2
100
AcDbLine
 10
-34.15789926731028
 20
3.429999999999988
 30
0.0
 11
-34.15789926731028
 21
-3.430000000000011
 31
0.0
  0
SOLID
  5
2232B
330
22268
100
AcDbEntity
  8
SK2
 62
     0
100
AcDbTrace
 10
-34.91956593397695
 20
3.429999999999988
 30
0.0
 11
-33.39623260064362
 21
3.429999999999988
 31
0.0
 12
-34.15789926731028
 22
7.999999999999988
 32
0.0
 13
-34.15789926731028
 23
7.999999999999988
 33
0.0
  0
SOLID
  5
2232C
330
22268
100
AcDbEntity
  8
SK2
 62
     0
100
AcDbTrace
 10
-34.91956593397695
 20
-3.430000000000011
 30
0.0
 11
-33.39623260064362
 21
-3.430000000000011
 31
0.0
 12
-34.15789926731028
 22
-8.000000000000012
 32
0.0
 13
-34.15789926731028
 23
-8.000000000000012
 33
0.0
  0
MTEXT
  5
2232D
330
22268
100
AcDbEntity
  8
SK2
 62
     0
100
AcDbMText
 10
-36.11104051818871
 20
-0.0000000000000168
 30
0.0
 40
3.5
 41
0.0
 71
     5
 72
     1
  1
\A1;%%C16
 11
0.0000000000000001
 21
1.0
 31
0.0
 73
     1
 44
1.0
1001
ACAD
1000
MTEXTBEGIN
1070
    73
1070
     1
1070
    44
1040
1.0
1070
    74
1070
     0
1000
MTEXTEND
  0
POINT
  5
2232E
330
22268
100
AcDbEntity
  8
Defpoints
 62
     0
100
AcDbPoint
 10
-23.1
 20
7.999999999999985
 30
0.0
  0
POINT
  5
2232F
330
22268
100
AcDbEntity
  8
Defpoints
 62
     0
100
AcDbPoint
 10
-23.1
 20
-8.000000000000012
 30
0.0
  0
POINT
  5
22330
330
22268
100
AcDbEntity
  8
Defpoints
 62
     0
100
AcDbPoint
 10
-34.15789926731028
 20
-8.000000000000012
 30
0.0
  0
ENDBLK
  5
2226A
330
22268
100
AcDbEntity
  8
0
100
AcDbBlockEnd
  0
BLOCK
  5
2229A
330
22299
100
AcDbEntity
  8
0
100
AcDbBlockBegin
  2
*D4
 70
     1
 10
0.0
 20
0.0
 30
0.0
  3
*D4
  1

  0
LINE
  5
22331
330
22299
100
AcDbEntity
  8
2
 62
     0
370
    -2
100
AcDbLine
 10
0.4375000000000285
 20
14.37499999999993
 30
0.0
 11
-46.10280571820854
 21
14.37499999999994
 31
0.0
  0
LINE
  5
22332
330
22299
100
AcDbEntity
  8
2
 62
     0
370
    -2
100
AcDbLine
 10
0.4375000000000285
 20
-14.37500000000001
 30
0.0
 11
-46.10280571820854
 21
-14.375
 31
0.0
  0
LINE
  5
22333
330
22299
100
AcDbEntity
  8
2
 62
     0
370
    -2
100
AcDbLine
 10
-45.92280571820853
 20
9.804999999999942
 30
0.0
 11
-45.92280571820853
 21
-9.804999999999999
 31
0.0
  0
SOLID
  5
22334
330
22299
100
AcDbEntity
  8
2
 62
     0
100
AcDbTrace
 10
-46.68447238487519
 20
9.804999999999942
 30
0.0
 11
-45.16113905154186
 21
9.804999999999942
 31
0.0
 12
-45.92280571820853
 22
14.37499999999994
 32
0.0
 13
-45.92280571820853
 23
14.37499999999994
 33
0.0
  0
SOLID
  5
22335
330
22299
100
AcDbEntity
  8
2
 62
     0
100
AcDbTrace
 10
-46.68447238487519
 20
-9.804999999999999
 30
0.0
 11
-45.16113905154186
 21
-9.804999999999999
 31
0.0
 12
-45.92280571820853
 22
-14.375
 32
0.0
 13
-45.92280571820853
 23
-14.375
 33
0.0
  0
MTEXT
  5
22336
330
22299
100
AcDbEntity
  8
2
 62
     0
100
AcDbMText
 10
-47.87594696908696
 20
-0.000000000000036
 30
0.0
 40
3.5
 41
0.0
 71
     5
 72
     1
  1
\A1;%%C29
 11
0.0000000000000001
 21
1.0
 31
0.0
 73
     1
 44
1.0
1001
ACAD
1000
MTEXTBEGIN
1070
    73
1070
     1
1070
    44
1040
1.0
1070
    74
1070
     0
1000
MTEXTEND
  0
POINT
  5
22337
330
22299
100
AcDbEntity
  8
Defpoints
 62
     0
100
AcDbPoint
 10
0.5000000000000285
 20
14.37499999999993
 30
0.0
  0
POINT
  5
22338
330
22299
100
AcDbEntity
  8
Defpoints
 62
     0
100
AcDbPoint
 10
0.5000000000000285
 20
-14.37500000000001
 30
0.0
  0
POINT
  5
22339
330
22299
100
AcDbEntity
  8
Defpoints
 62
     0
100
AcDbPoint
 10
-45.92280571820853
 20
-14.375
 30
0.0
  0
ENDBLK
  5
2229B
330
22299
100
AcDbEntity
  8
0
100
AcDbBlockEnd
  0
BLOCK
  5
222D5
330
222D4
100
AcDbEntity
  8
0
100
AcDbBlockBegin
  2
*D5
 70
     1
 10
0.0
 20
0.0
 30
0.0
  3
*D5
  1

  0
LINE
  5
2233A
330
222D4
100
AcDbEntity
  8
2
 62
     0
370
    -2
100
AcDbLine
 10
42.60634999572002
 20
-19.99635433358004
 30
0.0
 11
56.79159467344852
 21
-19.99635433358005
 31
0.0
  0
LINE
  5
2233B
330
222D4
100
AcDbEntity
  8
2
 62
     0
370
    -2
100
AcDbLine
 10
43.06250000000003
 20
19.99999999999998
 30
0.0
 11
56.79159467344853
 21
19.99999999999998
 31
0.0
  0
LINE
  5
2233C
330
222D4
100
AcDbEntity
  8
2
 62
     0
370
    -2
100
AcDbLine
 10
56.61159467344853
 20
-15.42635433358004
 30
0.0
 11
56.61159467344853
 21
15.42999999999998
 31
0.0
  0
SOLID
  5
2233D
330
222D4
100
AcDbEntity
  8
2
 62
     0
100
AcDbTrace
 10
55.84992800678185
 20
-15.42635433358004
 30
0.0
 11
57.37326134011518
 21
-15.42635433358004
 31
0.0
 12
56.61159467344852
 22
-19.99635433358005
 32
0.0
 13
56.61159467344852
 23
-19.99635433358005
 33
0.0
  0
SOLID
  5
2233E
330
222D4
100
AcDbEntity
  8
2
 62
     0
100
AcDbTrace
 10
55.84992800678185
 20
15.42999999999998
 30
0.0
 11
57.37326134011518
 21
15.42999999999998
 31
0.0
 12
56.61159467344853
 22
19.99999999999998
 32
0.0
 13
56.61159467344853
 23
19.99999999999998
 33
0.0
  0
MTEXT
  5
2233F
330
222D4
100
AcDbEntity
  8
2
 62
     0
100
AcDbMText
 10
54.65845342257011
 20
0.0018228332099784
 30
0.0
 40
3.5
 41
0.0
 71
     5
 72
     1
  1
\A1;%%C40
 11
0.0000000000000001
 21
1.0
 31
0.0
 73
     1
 44
1.0
1001
ACAD
1000
MTEXTBEGIN
1070
    73
1070
     1
1070
    44
1040
1.0
1070
    74
1070
     0
1000
MTEXTEND
  0
POINT
  5
22340
330
222D4
100
AcDbEntity
  8
Defpoints
 62
     0
100
AcDbPoint
 10
42.54384999572002
 20
-19.99635433358004
 30
0.0
  0
POINT
  5
22341
330
222D4
100
AcDbEntity
  8
Defpoints
 62
     0
100
AcDbPoint
 10
43.00000000000003
 20
19.99999999999998
 30
0.0
  0
POINT
  5
22342
330
222D4
100
AcDbEntity
  8
Defpoints
 62
     0
100
AcDbPoint
 10
56.61159467344853
 20
19.99999999999998
 30
0.0
  0
ENDBLK
  5
222D6
330
222D4
100
AcDbEntity
  8
0
100
AcDbBlockEnd
  0
ENDSEC
  0
SECTION
  2
ENTITIES
  0
INSERT
  5
20A18
330
1F
100
AcDbEntity
  8
1
100
AcDbBlockReference
  2
cero_point
 10
0.0000000000000853
 20
-0.0000000000000142
 30
0.0
 41
0.5
 42
0.5
 43
0.5
  0
LINE
  5
20B14
330
1F
100
AcDbEntity
  8
INFTOTAL
370
    18
100
AcDbLine
 10
90.41257028782458
 20
-40.73159812910513
 30
0.0
 11
90.41257028782458
 21
-15.40941805954703
 31
0.0
  0
LINE
  5
20B15
330
1F
100
AcDbEntity
  8
INFTOTAL
370
    18
100
AcDbLine
 10
-61.48080116983052
 20
46.37955754032946
 30
0.0
 11
-33.1650871428246
 21
46.37955754032946
 31
0.0
  0
LINE
  5
20B16
330
1F
100
AcDbEntity
  8
INFTOTAL
370
    18
100
AcDbLine
 10
64.26497461851321
 20
-40.73159812910513
 30
0.0
 11
90.41257028782458
 21
-40.73159812910513
 31
0.0
  0
LINE
  5
20B17
330
1F
100
AcDbEntity
  8
INFTOTAL
370
    18
100
AcDbLine
 10
-61.48080116983052
 20
20.46049190010082
 30
0.0
 11
-61.48080116983052
 21
46.37955754032939
 31
0.0
  0
MTEXT
  5
211A0
330
1F
100
AcDbEntity
  8
SK6
100
AcDbMText
 10
53.21249648715095
 20
-31.81678301065935
 30
0.0
 40
3.5
 41
41.87058589293636
 71
     2
 72
     1
  1
12F1D040043X8R00
 73
     1
 44
1.0
1001
ACAD
1000
MTEXTBEGIN
1070
    73
1070
     1
1070
    44
1040
1.0
1070
    74
1070
     0
1000
MTEXTEND
  0
DIMENSION
  5
220BE
330
1F
100
AcDbEntity
  8
2
100
AcDbDimension
  2
*D1
 10
0.0000000000000295
 20
30.90013992559999
 30
0.0
 11
22.06250000000003
 21
30.90013992559999
 31
0.0
 70
   160
 71
     5
 42
43.0
  3
STANDARD
100
AcDbAlignedDimension
 13
43.00000000000003
 23
17.99999999999998
 33
0.0
 14
0.0000000000000284
 24
12.92289699549995
 34
0.0
 50
180.0
100
AcDbRotatedDimension
  0
LINE
  5
220BF
330
1F
100
AcDbEntity
  8
1
100
AcDbLine
 10
42.68064647783332
 20
-19.02922810986673
 30
0.0
 11
42.96667902803332
 21
-18.40402913586673
 31
0.0
  0
LINE
  5
220C0
330
1F
100
AcDbEntity
  8
1
100
AcDbLine
 10
42.47824746863332
 20
-18.61972957000002
 30
0.0
 11
42.48012613653336
 21
-18.61562324983335
 31
0.0
  0
LINE
  5
220C1
330
1F
100
AcDbEntity
  8
1
100
AcDbLine
 10
42.99997895949998
 20
10.56194167126664
 30
0.0
 11
42.99861346676665
 21
9.959596773199946
 31
0.0
  0
LINE
  5
220C3
330
1F
100
AcDbEntity
  8
1
100
AcDbLine
 10
42.99997895949998
 20
19.05249452819997
 30
0.0
 11
42.99861346676665
 21
18.10060064333332
 31
0.0
  0
LINE
  5
220C5
330
1F
100
AcDbEntity
  8
1
100
AcDbLine
 10
42.99997895949998
 20
-18.2512079753334
 30
0.0
 11
42.99861346676665
 21
-17.29406122990004
 31
0.0
  0
LINE
  5
220C6
330
1F
100
AcDbEntity
  8
1
100
AcDbLine
 10
42.99997895949998
 20
-12.5732097855667
 30
0.0
 11
42.99861346676665
 21
-11.99199554330006
 31
0.0
  0
LWPOLYLINE
  5
220C7
330
1F
100
AcDbEntity
  8
1
100
AcDbPolyline
 90
       19
 70
     0
 43
0.0
 10
42.59999999999998
 20
17.6154891965666
 10
42.59881650749999
 20
17.63843279276663
 10
42.59550407100002
 20
17.65988601666662
 10
42.59006269056667
 20
17.67984886823329
 10
42.58236944923331
 20
17.69853628919996
 10
42.57254726393333
 20
17.71573333786664
 10
42.56096488549999
 20
17.73079518899996
 10
42.54758435603335
 20
17.74360988699992
 10
42.53244363339999
 20
17.75428938746664
 10
42.51602534219998
 20
17.76252473196664
 10
42.49831284220002
 20
17.76826321439993
 10
42.47932277363335
 20
17.77155754086662
 10
42.45958768170001
 20
17.77225687126666
 10
42.43909992439998
 20
17.77033212666661
 10
42.41786714376664
 20
17.76581238596661
 10
42.396444811
 20
17.7586340460666
 10
42.37501808319999
 20
17.74877590586662
 10
42.35340180333334
 20
17.73625916646664
 10
42.33159597133331
 20
17.72108382779997
  0
LINE
  5
220C8
330
1F
100
AcDbEntity
  8
1
100
AcDbLine
 10
42.71290588129996
 20
12.02070339966666
 30
0.0
 11
42.99861346676665
 21
9.959596773199946
 31
0.0
  0
LINE
  5
220C9
330
1F
100
AcDbEntity
  8
1
100
AcDbLine
 10
42.71555935413331
 20
12.47994072676663
 30
0.0
 11
42.9983866344667
 21
10.58367256953328
 31
0.0
  0
LINE
  5
220CA
330
1F
100
AcDbEntity
  8
1
100
AcDbLine
 10
42.7139464093
 20
12.47970015699995
 30
0.0
 11
42.99997895949998
 21
10.56194167126664
 31
0.0
  0
LWPOLYLINE
  5
220CB
330
1F
100
AcDbEntity
  8
1
100
AcDbPolyline
 90
       16
 70
     0
 43
0.0
 10
42.59999999999998
 20
12.82610057933333
 10
42.59858127520002
 20
12.83541721966661
 10
42.59413160076664
 20
12.84653908846665
 10
42.58665097673335
 20
12.85946618569993
 10
42.57591209630001
 20
12.87451763859995
 10
42.56214226623334
 20
12.89137431993332
 10
42.54602340710002
 20
12.90907884796659
 10
42.5274765759
 20
12.92760084543327
 10
42.50658071559999
 20
12.94697068959998
 10
42.48425457566664
 20
12.96632213039997
 10
42.4604526797
 20
12.98565682659999
 10
42.43522050413335
 20
13.00497311946661
 10
42.40961322763334
 20
13.02339978259998
 10
42.38398257643335
 20
13.04064640719996
 10
42.35797682436665
 20
13.05700340206662
 10
42.33159597133331
 20
13.07247076719999
  0
LWPOLYLINE
  5
220CC
330
1F
100
AcDbEntity
  8
1
100
AcDbPolyline
 90
        3
 70
     0
 43
0.0
 10
38.9801201817667
 20
18.11476998393327
 10
38.96625676903332
 20
18.15160973309996
 10
38.94959393333332
 20
18.18680794123331
  0
LWPOLYLINE
  5
220CD
330
1F
100
AcDbEntity
  8
1
100
AcDbPolyline
 90
        7
 70
     0
 43
0.0
 10
40.2630064766
 20
13.51456969806661
 10
40.17506054556664
 20
13.69508988893328
 10
40.05669180336663
 20
13.85913328513332
 10
39.91121551296667
 20
14.00210537139996
 10
39.74270616350001
 20
14.12000179613334
 10
39.55588335233333
 20
14.20952052503331
 10
39.3533317388
 20
14.26870237696663
  0
LWPOLYLINE
  5
220CE
330
1F
100
AcDbEntity
  8
1
100
AcDbPolyline
 90
        8
 70
     0
 43
0.0
 10
38.94959393333332
 20
18.18680794123331
 10
38.93013167466668
 20
18.22036460826665
 10
38.90773629073331
 20
18.25245482893329
 10
38.88254148386668
 20
18.28290350853329
 10
38.85494836069998
 20
18.31118536303329
 10
38.82509062353333
 20
18.33712529776663
 10
38.79283457006668
 20
18.36089840743328
 10
38.75818020036664
 20
18.38250469196667
  0
LWPOLYLINE
  5
220CF
330
1F
100
AcDbEntity
  8
1
100
AcDbPolyline
 90
        9
 70
     0
 43
0.0
 10
42.48144438096668
 20
-19.03319437103336
 10
42.4796656156
 20
-19.03431441980002
 10
42.45992867353331
 20
-19.04451571200003
 10
42.43942016700001
 20
-19.05295122190002
 10
42.41815054273334
 20
-19.05963937210005
 10
42.39667753736667
 20
-19.06424635193339
 10
42.37518706310001
 20
-19.06666089130006
 10
42.35349320776665
 20
-19.06699426033334
 10
42.33159597133331
 20
-19.06524645906673
  0
LWPOLYLINE
  5
220D0
330
1F
100
AcDbEntity
  8
1
100
AcDbPolyline
 90
        3
 70
     0
 43
0.0
 10
41.07566992256667
 20
-15.02530539186672
 10
41.08798701179997
 20
-14.9978655369667
 10
41.1234427889333
 20
-14.91154192213334
  0
LINE
  5
220D1
330
1F
100
AcDbEntity
  8
1
100
AcDbLine
 10
41.03451185523332
 20
-15.10847988330001
 30
0.0
 11
41.04501450906663
 21
-15.08296744726671
 31
0.0
  0
LWPOLYLINE
  5
220D2
330
1F
100
AcDbEntity
  8
1
100
AcDbPolyline
 90
       10
 70
     0
 43
0.0
 10
38.9801201817667
 20
-17.42892755266668
 10
38.96625676903332
 20
-17.46597059560004
 10
38.94959393333332
 20
-17.50136303886667
 10
38.93013167466668
 20
-17.53510488253336
 10
38.90773629073331
 20
-17.56737218750005
 10
38.88254148386668
 20
-17.59798889283338
 10
38.85494836069998
 20
-17.6264268158334
 10
38.82509062353333
 20
-17.65250989556672
 10
38.79283457006668
 20
-17.67641419296673
 10
38.75818020036664
 20
-17.69813970803336
  0
LWPOLYLINE
  5
220D3
330
1F
100
AcDbEntity
  8
1
100
AcDbPolyline
 90
       10
 70
     0
 43
0.0
 10
38.75818020036664
 20
-17.69813970803336
 10
38.72634688646665
 20
-17.78669759720004
 10
38.70094326413332
 20
-17.87225727223337
 10
38.68196933333334
 20
-17.95478644770003
 10
38.66873395586666
 20
-18.03430151250008
 10
38.6619282699667
 20
-18.11071862040002
 10
38.66362569036667
 20
-18.18387381100002
 10
38.67451735533335
 20
-18.25371237496667
 10
38.69391212663331
 20
-18.32026874740008
 10
38.72181000426664
 20
-18.38353166966671
  0
LWPOLYLINE
  5
220D4
330
1F
100
AcDbEntity
  8
1
100
AcDbPolyline
 90
       67
 70
     0
 43
0.0
 10
41.1234427889333
 20
-14.91154192213334
 10
41.15449766103333
 20
-14.82368150683335
 10
41.18105919169996
 20
-14.73491727963336
 10
41.20312738089999
 20
-14.64524924053337
 10
41.22073181776666
 20
-14.55447048056671
 10
41.23384291316668
 20
-14.46278790870003
 10
41.24237189993332
 20
-14.37082225183339
 10
41.24628768513335
 20
-14.27857158900003
 10
41.24562136166665
 20
-14.18603784120002
 10
41.24037744076665
 20
-14.09384749810006
 10
41.23052486023332
 20
-14.00200288993336
 10
41.21609468229999
 20
-13.91050168643336
 10
41.19718460489999
 20
-13.8199633866334
 10
41.17376422873334
 20
-13.73039452446666
 10
41.14586395313333
 20
-13.64178856593334
 10
41.11367267383335
 20
-13.55474540810003
 10
41.07716127339998
 20
-13.46927565566672
 10
41.03635886930002
 20
-13.38536870390006
 10
40.99154170973335
 20
-13.30359263573338
 10
40.9426825518333
 20
-13.22396191073336
 10
40.88980863849999
 20
-13.14646206930003
 10
40.83327794679999
 20
-13.07161781573337
 10
40.77306566296667
 20
-12.99944717003338
 10
40.70919660079996
 20
-12.92993211223337
 10
40.64210317886668
 20
-12.86354328643337
 10
40.57176351756665
 20
-12.80030190630005
 10
40.49819949649999
 20
-12.74018675823335
 10
40.42190917286669
 20
-12.6836048452334
 10
40.34287404679999
 20
-12.63058014280001
 10
40.26111261813334
 20
-12.58108867550005
 10
40.17717844379999
 20
-12.53546551986672
 10
40.09105678019998
 20
-12.49373692520005
 10
40.00276237086668
 20
-12.45587664220001
 10
39.91289300359998
 20
-12.42214099986667
 10
39.82143799113332
 20
-12.3925579867667
 10
39.72840802070003
 20
-12.36709961426671
 10
39.63443294163332
 20
-12.34593824560001
 10
39.53950634066669
 20
-12.32910303890004
 10
39.44363463103336
 20
-12.31656483600001
 10
39.3474669017667
 20
-12.30840852540002
 10
39.25100114413331
 20
-12.30466384140006
 10
39.15423936686668
 20
-12.30530104970002
 10
39.05783668503332
 20
-12.31031583620007
 10
38.9617955354
 20
-12.31973790580004
 10
38.86611348120002
 20
-12.33353755360004
 10
38.77143832743334
 20
-12.3516213505667
 10
38.67777690663334
 20
-12.37401836766669
 10
38.58512238623335
 20
-12.40069953393335
 10
38.49410207363334
 20
-12.43148420740006
 10
38.4047270580667
 20
-12.46640023330003
 10
38.3169862503
 20
-12.50541976640001
 10
38.23147368993332
 20
-12.54827862923334
 10
38.14820449723331
 20
-12.59500287430002
 10
38.0671635519333
 20
-12.6455664491
 10
37.98889953293335
 20
-12.69962701840002
 10
37.91343128370002
 20
-12.75720831180003
 10
37.8407399608
 20
-12.81828659970001
 10
37.77131771293332
 20
-12.88244835823339
 10
37.70518672306665
 20
-12.94971451083337
 10
37.64232480826664
 20
-13.02006413406674
 10
37.58315756826667
 20
-13.0930209333667
 10
37.52771007406668
 20
-13.16860260033339
 10
37.47595725469998
 20
-13.24679144340003
 10
37.42824949696669
 20
-13.32705809350001
 10
37.38470359649998
 20
-13.40922609430005
 10
37.34520275769997
 20
-13.49347190210007
 10
37.30974698056665
 20
-13.57979551693337
  0
LINE
  5
220D5
330
1F
100
AcDbEntity
  8
1
100
AcDbLine
 10
41.07602171919999
 20
-14.9950169127667
 30
0.0
 11
41.04501450906663
 21
-15.08296744726671
 31
0.0
  0
LWPOLYLINE
  5
220D6
330
1F
100
AcDbEntity
  8
1
100
AcDbPolyline
 90
       55
 70
     0
 43
0.0
 10
40.83618170166666
 20
-14.34563547366669
 10
40.82821773319998
 20
-14.43754669466672
 10
40.81497132886667
 20
-14.52889880263338
 10
40.79648271750002
 20
-14.61941436426669
 10
40.77280804846664
 20
-14.70881848673333
 10
40.7440192209
 20
-14.79683965266669
 10
40.71020366553333
 20
-14.88321054470005
 10
40.67146407913336
 20
-14.9676688572667
 10
40.62791811253329
 20
-15.0499580932334
 10
40.57969801336664
 20
-15.12982834290001
 10
40.52695022456665
 20
-15.20703704293335
 10
40.46983493936667
 20
-15.28134971310005
 10
40.40852561503331
 20
-15.35254066816669
 10
40.34320844596666
 20
-15.42039370363336
 10
40.27408179826667
 20
-15.48470275203341
 10
40.20135560726665
 20
-15.54527250886669
 10
40.12525074006665
 20
-15.60191902580006
 10
40.0459983246333
 20
-15.65447026923336
 10
39.9638390479
 20
-15.70276664276675
 10
39.87902242496668
 20
-15.74666147190005
 10
39.79180604106668
 20
-15.78602144943342
 10
39.70245476950001
 20
-15.82072704046671
 10
39.61123996716665
 20
-15.85067284526668
 10
39.51843865039999
 20
-15.8757679193334
 10
39.42433265376671
 20
-15.89593604983339
 10
39.3292077741
 20
-15.91111598676669
 10
39.2333529025
 20
-15.92126162920006
 10
39.13705914706665
 20
-15.92634216513336
 10
39.04061894876665
 20
-15.92634216513336
 10
38.94432519333335
 20
-15.92126162920006
 10
38.84847032173335
 20
-15.91111598676669
 10
38.75334544203335
 20
-15.89593604983339
 10
38.6592394454
 20
-15.8757679193334
 10
38.56643812866665
 20
-15.85067284526668
 10
38.47522332633335
 20
-15.82072704046671
 10
38.38587205476668
 20
-15.78602144943342
 10
38.29865567086668
 20
-15.74666147190005
 10
38.2138390479
 20
-15.70276664276675
 10
38.1316797712
 20
-15.65447026923336
 10
38.05242735573333
 20
-15.60191902580006
 10
37.97632248853333
 20
-15.54527250886669
 10
37.90359629756668
 20
-15.48470275203341
 10
37.83446964986668
 20
-15.42039370363336
 10
37.7691524808
 20
-15.35254066816669
 10
37.70784315646668
 20
-15.28134971310005
 10
37.65072787126664
 20
-15.20703704293335
 10
37.59798008243335
 20
-15.12982834290001
 10
37.54975998329999
 20
-15.0499580932334
 10
37.5062140167
 20
-14.9676688572667
 10
37.46747443029998
 20
-14.88321054470005
 10
37.43365887493335
 20
-14.79683965266669
 10
37.40487004736664
 20
-14.70881848673333
 10
37.38119537830002
 20
-14.61941436426669
 10
37.36270676696668
 20
-14.52889880263338
 10
37.34946036260001
 20
-14.43754669466672
  0
LWPOLYLINE
  5
220D7
330
1F
100
AcDbEntity
  8
1
100
AcDbPolyline
 90
        7
 70
     0
 43
0.0
 10
40.9430244016
 20
-8.223010991900038
 10
40.94689183886665
 20
-8.172725594200088
 10
40.9514080901
 20
-8.121548552966729
 10
40.95657315533336
 20
-8.069479868200017
 10
40.96238703456665
 20
-8.016519539900071
 10
40.96884972776662
 20
-7.96266756810003
 10
40.97596123496665
 20
-7.907923952766751
  0
LWPOLYLINE
  5
220D8
330
1F
100
AcDbEntity
  8
1
100
AcDbPolyline
 90
       52
 70
     0
 43
0.0
 10
40.3888390479
 20
-14.2181909280667
 10
40.38629585343332
 20
-14.29520084306672
 10
40.37891752996667
 20
-14.37134640946671
 10
40.36670407749997
 20
-14.44662762720004
 10
40.34957269343331
 20
-14.52132280103338
 10
40.32760618036664
 20
-14.59515362623337
 10
40.30105294613335
 20
-14.66728518850006
 10
40.26986092566668
 20
-14.73769819906671
 10
40.23408218403331
 20
-14.80641194666669
 10
40.19412132436665
 20
-14.87264938343334
 10
40.14993087433331
 20
-14.93638240003339
 10
40.10155830626664
 20
-14.99763910580005
 10
40.04955064029998
 20
-15.05572678056673
 10
39.99386661346668
 20
-15.11060945183335
 10
39.93454748876664
 20
-15.16232309210001
 10
39.87226407519998
 20
-15.21028289876666
 10
39.80698272433333
 20
-15.25444626113336
 10
39.73873708463336
 20
-15.29485578990001
 10
39.66829891043332
 20
-15.33105451480004
 10
39.59564331363336
 20
-15.3629946379
 10
39.52079518233333
 20
-15.39072395713334
 10
39.44460093500001
 20
-15.41392889613338
 10
39.36704529149998
 20
-15.43255809736673
 10
39.28814353196666
 20
-15.44666291840004
 10
39.20878791520003
 20
-15.45608385506672
 10
39.12897328940002
 20
-15.46076773940002
 10
39.04870480640003
 20
-15.46076773940002
 10
38.96889018059997
 20
-15.45608385506672
 10
38.88953456386665
 20
-15.44666291840004
 10
38.81063280433333
 20
-15.43255809736673
 10
38.73307716079997
 20
-15.41392889613338
 10
38.65688291346666
 20
-15.39072395713334
 10
38.58203478216669
 20
-15.3629946379
 10
38.50937918539998
 20
-15.33105451480004
 10
38.43894101116669
 20
-15.29485578990001
 10
38.37069537146667
 20
-15.25444626113336
 10
38.30541402063332
 20
-15.21028289876666
 10
38.24313060706666
 20
-15.16232309210001
 10
38.18381148233331
 20
-15.11060945183335
 10
38.12812745553336
 20
-15.05572678056673
 10
38.07611978956666
 20
-14.99763910580005
 10
38.0277472215
 20
-14.93638240003339
 10
37.98355677146665
 20
-14.87264938343334
 10
37.94359591180003
 20
-14.80641194666669
 10
37.90781717016668
 20
-14.73769819906671
 10
37.8766251497
 20
-14.66728518850006
 10
37.85007191546666
 20
-14.59515362623337
 10
37.82810540239998
 20
-14.52132280103338
 10
37.81097401833334
 20
-14.44662762720004
 10
37.79876056586668
 20
-14.37134640946671
 10
37.79138224239998
 20
-14.29520084306672
 10
37.78883904789998
 20
-14.2181909280667
  0
LINE
  5
220D9
330
1F
100
AcDbEntity
  8
1
100
AcDbLine
 10
40.83883904789998
 20
-14.25344427103336
 30
0.0
 11
40.83618170166666
 21
-14.34563547366669
 31
0.0
  0
LINE
  5
220DA
330
1F
100
AcDbEntity
  8
1
100
AcDbLine
 10
41.54258619936664
 20
-7.160745244400017
 30
0.0
 11
41.54224096576664
 21
-7.172862149933351
 31
0.0
  0
LINE
  5
220DB
330
1F
100
AcDbEntity
  8
1
100
AcDbLine
 10
41.54258619936664
 20
4.979453001633245
 30
0.0
 11
41.54224096576664
 21
4.965258710699956
 31
0.0
  0
LWPOLYLINE
  5
220DC
330
1F
100
AcDbEntity
  8
1
100
AcDbPolyline
 90
        7
 70
     0
 43
0.0
 10
40.9430244016
 20
1.802957235399944
 10
40.94689194056663
 20
1.964359756199981
 10
40.95140825283332
 20
2.127033797699921
 10
40.95657333839997
 20
2.290979359933301
 10
40.96238719726668
 20
2.45619644286664
 10
40.96884982946668
 20
2.622685046533304
 10
40.97596123496665
 20
2.790445170899984
  0
LINE
  5
220DD
330
1F
100
AcDbEntity
  8
1
100
AcDbLine
 10
42.7139464093
 20
12.47970015699995
 30
0.0
 11
42.71290588129996
 21
12.02070339966666
 31
0.0
  0
LINE
  5
220DE
330
1F
100
AcDbEntity
  8
1
100
AcDbLine
 10
42.7139464093
 20
18.18679768963328
 30
0.0
 11
42.71290588129996
 21
17.46143883313333
 31
0.0
  0
LINE
  5
220DF
330
1F
100
AcDbEntity
  8
1
100
AcDbLine
 10
42.59999999999998
 20
-8.959235986700051
 30
0.0
 11
42.59999999999998
 21
-9.676529036333377
 31
0.0
  0
LINE
  5
220E0
330
1F
100
AcDbEntity
  8
1
100
AcDbLine
 10
42.59999999999998
 20
-2.433250094600011
 30
0.0
 11
42.59999999999998
 21
-0.9770427646000284
 31
0.0
  0
LINE
  5
220E1
330
1F
100
AcDbEntity
  8
1
100
AcDbLine
 10
42.59999999999998
 20
12.04900231196665
 30
0.0
 11
42.59999999999998
 21
12.82610057933333
 31
0.0
  0
LINE
  5
220E2
330
1F
100
AcDbEntity
  8
1
100
AcDbLine
 10
42.59999999999998
 20
17.06767294139995
 30
0.0
 11
42.59999999999998
 21
17.98231834196666
 31
0.0
  0
LINE
  5
220E3
330
1F
100
AcDbEntity
  8
1
100
AcDbLine
 10
42.33159597133331
 20
18.16128693906664
 30
0.0
 11
42.33159597133331
 21
17.72108382779997
 31
0.0
  0
LINE
  5
220E4
330
1F
100
AcDbEntity
  8
1
100
AcDbLine
 10
42.33159597133331
 20
-0.9770427646000284
 30
0.0
 11
42.33159597133331
 21
-2.457130377200043
 31
0.0
  0
LINE
  5
220E5
330
1F
100
AcDbEntity
  8
1
100
AcDbLine
 10
42.33159597133331
 20
-18.98086715593338
 30
0.0
 11
42.33159597133331
 21
-19.06524645906673
 31
0.0
  0
LINE
  5
220E6
330
1F
100
AcDbEntity
  8
1
100
AcDbLine
 10
41.07384247546664
 20
-18.83643366356672
 30
0.0
 11
41.07384247546664
 21
-18.54165837240005
 31
0.0
  0
LINE
  5
220E7
330
1F
100
AcDbEntity
  8
1
100
AcDbLine
 10
41.07384247546664
 20
-3.766052788500032
 30
0.0
 11
41.07384247546664
 21
-0.9770427646000284
 31
0.0
  0
LINE
  5
220E8
330
1F
100
AcDbEntity
  8
1
100
AcDbLine
 10
41.07384247546664
 20
16.68883089156661
 30
0.0
 11
41.07384247546664
 21
17.72534332563326
 31
0.0
  0
LINE
  5
220E9
330
1F
100
AcDbEntity
  8
1
100
AcDbLine
 10
40.97596123496665
 20
-8.626091533366732
 30
0.0
 11
40.97596123496665
 21
-7.907923952766751
 31
0.0
  0
LINE
  5
220EA
330
1F
100
AcDbEntity
  8
1
100
AcDbLine
 10
40.97596123496665
 20
1.502957235399988
 30
0.0
 11
40.97596123496665
 21
2.701229114399936
 31
0.0
  0
LINE
  5
220EB
330
1F
100
AcDbEntity
  8
1
100
AcDbLine
 10
40.90283240379998
 20
17.69662732966661
 30
0.0
 11
40.90283240379998
 21
16.57600228576665
 31
0.0
  0
LINE
  5
220EC
330
1F
100
AcDbEntity
  8
1
100
AcDbLine
 10
40.90283240379998
 20
-0.9770427646000284
 30
0.0
 11
40.90283240379998
 21
-3.935973561933351
 31
0.0
  0
LINE
  5
220ED
330
1F
100
AcDbEntity
  8
1
100
AcDbLine
 10
40.90283240379998
 20
-18.48194148370005
 30
0.0
 11
40.90283240379998
 21
-18.82772876016669
 31
0.0
  0
LINE
  5
220EE
330
1F
100
AcDbEntity
  8
1
100
AcDbLine
 10
40.83883904789998
 20
-14.25344427103336
 30
0.0
 11
40.83883904789998
 21
-14.39361395090005
 31
0.0
  0
LWPOLYLINE
  5
220EF
330
1F
100
AcDbEntity
  8
1
100
AcDbPolyline
 90
        3
 70
     0
 43
0.0
 10
41.02534708523332
 20
-8.926644150366726
 10
41.02660051896664
 20
-9.022255274500038
 10
41.02775599066669
 20
-9.077264293800011
  0
LINE
  5
220F0
330
1F
100
AcDbEntity
  8
1
100
AcDbLine
 10
41.00606360423332
 20
2.771364971899955
 30
0.0
 11
40.98903539013335
 21
3.048585729499946
 31
0.0
  0
LINE
  5
220F1
330
1F
100
AcDbEntity
  8
1
100
AcDbLine
 10
41.00606141023334
 20
-8.038573904000045
 30
0.0
 11
40.99124148833332
 21
-7.807444182066674
 31
0.0
  0
LINE
  5
220F2
330
1F
100
AcDbEntity
  8
1
100
AcDbLine
 10
41.04033967076666
 20
-8.502821281466722
 30
0.0
 11
41.00606141023334
 21
-8.038573904000045
 31
0.0
  0
LWPOLYLINE
  5
220F3
330
1F
100
AcDbEntity
  8
1
100
AcDbPolyline
 90
        3
 70
     0
 43
0.0
 10
41.07880368083331
 20
1.794212941099985
 10
41.04034441953333
 20
2.282291260333281
 10
41.00606360423332
 20
2.771364971899955
  0
LINE
  5
220F4
330
1F
100
AcDbEntity
  8
1
100
AcDbLine
 10
40.03671679703333
 20
13.10679604666664
 30
0.0
 11
40.02423314856664
 21
13.26462291803328
 31
0.0
  0
LINE
  5
220F5
330
1F
100
AcDbEntity
  8
1
100
AcDbLine
 10
41.07879601656665
 20
-8.961877318600057
 30
0.0
 11
41.04033967076666
 21
-8.502821281466722
 31
0.0
  0
LINE
  5
220F6
330
1F
100
AcDbEntity
  8
1
100
AcDbLine
 10
41.10444783986664
 20
1.502957235399988
 30
0.0
 11
41.07880368083331
 21
1.794212941099985
 31
0.0
  0
LWPOLYLINE
  5
220F7
330
1F
100
AcDbEntity
  8
1
100
AcDbPolyline
 90
        9
 70
     0
 43
0.0
 10
40.95249654673333
 20
1.502957235399988
 10
40.95029533533331
 20
1.525058691233297
 10
40.94743442403332
 20
1.561618016766586
 10
40.94519479093334
 20
1.599626875366638
 10
40.94365190059997
 20
1.638771600199945
 10
40.94265155059999
 20
1.67894857626662
 10
40.94217383079999
 20
1.719934974133294
 10
40.94229754699997
 20
1.761368948866659
 10
40.9430244016
 20
1.802957235399944
  0
LINE
  5
220F8
330
1F
100
AcDbEntity
  8
1
100
AcDbLine
 10
42.71290588129996
 20
-10.05065595743339
 30
0.0
 11
42.99861346676665
 21
-11.99199554330006
 31
0.0
  0
LWPOLYLINE
  5
220F9
330
1F
100
AcDbEntity
  8
1
100
AcDbPolyline
 90
        7
 70
     0
 43
0.0
 10
42.59999999999998
 20
-8.959235986700051
 10
42.46105923296666
 20
-8.149639440200031
 10
42.32952506426666
 20
-7.371283378433375
 10
42.20539749393336
 20
-6.624167801366709
 10
42.08888265319997
 20
-5.909345109333357
 10
41.97977441079999
 20
-5.225762902033365
 10
41.86859090713332
 20
-4.512058244633365
  0
LWPOLYLINE
  5
220FA
330
1F
100
AcDbEntity
  8
1
100
AcDbPolyline
 90
       19
 70
     0
 43
0.0
 10
42.59999999999998
 20
-2.273084122200045
 10
42.59882093103331
 20
-2.267331544666731
 10
42.59551947376664
 20
-2.263712337133384
 10
42.59009562823334
 20
-2.262226499566693
 10
42.5824287998
 20
-2.262908151100035
 10
42.57263958310002
 20
-2.265723172600033
 10
42.56108976210001
 20
-2.270569206766721
 10
42.54774124403335
 20
-2.277508542000035
 10
42.5326321217
 20
-2.286478889900037
 10
42.51623845740001
 20
-2.297191027600049
 10
42.49854284829999
 20
-2.309673982733343
 10
42.47956269723331
 20
-2.3238987276667
 10
42.45982627503335
 20
-2.339488956800053
 10
42.43932399106667
 20
-2.356460809500063
 10
42.41806543596665
 20
-2.374798146400066
 10
42.3966076522
 20
-2.394076243966721
 10
42.37513632056667
 20
-2.414153527700037
 10
42.35346576029999
 20
-2.435171572133369
 10
42.33159597133331
 20
-2.457130377200043
  0
LWPOLYLINE
  5
220FB
330
1F
100
AcDbEntity
  8
1
100
AcDbPolyline
 90
       18
 70
     0
 43
0.0
 10
38.15344494723335
 20
12.94897600619997
 10
38.20122814229998
 20
12.79044327979999
 10
38.2706587249667
 20
12.64922261529999
 10
38.36173669519999
 20
12.52531401259993
 10
38.4784626161667
 20
12.41605928243329
 10
38.61683592473335
 20
12.32411661409996
 10
38.76485493136667
 20
12.25746057563332
 10
38.92338115499999
 20
12.21834967769995
 10
39.09155307670003
 20
12.20452540963332
 10
39.25478444989997
 20
12.21718680736659
 10
39.41263400263333
 20
12.25869947519992
 10
39.56554300686665
 20
12.32669780886662
 10
39.70024903203333
 20
12.41528403153329
 10
39.81512625363335
 20
12.52629697933331
 10
39.91180049616665
 20
12.65789781613328
 10
39.98188680263334
 20
12.79867225689996
 10
40.02259018736666
 20
12.9448155399666
 10
40.03671679703333
 20
13.10679604666664
  0
LWPOLYLINE
  5
220FC
330
1F
100
AcDbEntity
  8
1
100
AcDbPolyline
 90
       17
 70
     0
 43
0.0
 10
37.91467161923336
 20
12.69902922616664
 10
38.02031240459999
 20
12.48989372769993
 10
38.16665303786667
 20
12.30425597699995
 10
38.34811944970002
 20
12.14918685826664
 10
38.56175286430003
 20
12.02883651449996
 10
38.79194360099999
 20
11.95199865633331
 10
39.03344299303333
 20
11.9191468020666
 10
39.27705240356667
 20
11.93153226859998
 10
39.51759404719999
 20
11.99009987783329
 10
39.73749212356668
 20
12.09057023516662
 10
39.93268320583334
 20
12.2297484480333
 10
40.0957325263
 20
12.40233326149995
 10
40.2222763664333
 20
12.6055107125333
 10
40.30306847170002
 20
12.82443511266665
 10
40.33761095546664
 20
13.0541146831333
 10
40.32458810526665
 20
13.2858010004666
 10
40.26300643909999
 20
13.51456979569995
  0
LWPOLYLINE
  5
220FD
330
1F
100
AcDbEntity
  8
1
100
AcDbPolyline
 90
       13
 70
     0
 43
0.0
 10
40.16735330463332
 20
-14.44514466876673
 10
40.1849983681
 20
-14.43099829876668
 10
40.20130503110002
 20
-14.41580750063339
 10
40.21627329363335
 20
-14.3995722742667
 10
40.22997393226669
 20
-14.38218710620005
 10
40.24233617046664
 20
-14.36375750996673
 10
40.25314767850002
 20
-14.3446000261667
 10
40.26238166816668
 20
-14.32470208086671
 10
40.27006492770001
 20
-14.30407624800001
 10
40.27606549193332
 20
-14.28307679003338
 10
40.28035429306664
 20
-14.26169725276669
 10
40.28296039893334
 20
-14.23994409040001
 10
40.28383904789999
 20
-14.2181909280667
  0
LWPOLYLINE
  5
220FE
330
1F
100
AcDbEntity
  8
1
100
AcDbPolyline
 90
        3
 70
     0
 43
0.0
 10
39.97233056840001
 20
-15.9140984534667
 10
40.08382121479999
 20
-15.80770248696673
 10
40.13954753766667
 20
-15.73176393186669
  0
LWPOLYLINE
  5
220FF
330
1F
100
AcDbEntity
  8
1
100
AcDbPolyline
 90
        6
 70
     0
 43
0.0
 10
37.94065909733335
 20
-14.37168433773338
 10
37.94763894193332
 20
-14.3612697272667
 10
37.96133613233334
 20
-14.34388037753338
 10
37.97631610786667
 20
-14.32762824823341
 10
37.99264566079997
 20
-14.31241061483338
 10
38.01032479120002
 20
-14.29822747730004
  0
LWPOLYLINE
  5
22100
330
1F
100
AcDbEntity
  8
1
100
AcDbPolyline
 90
        3
 70
     0
 43
0.0
 10
37.38817526046668
 20
-13.80599551023336
 10
37.42372820990002
 20
-13.71963235243335
 10
37.45953812463333
 20
-13.64394872160001
  0
LWPOLYLINE
  5
22101
330
1F
100
AcDbEntity
  8
1
100
AcDbPolyline
 90
       22
 70
     0
 43
0.0
 10
42.59999999999998
 20
-2.433250094600011
 10
42.46121579343335
 20
-2.814820455166696
 10
42.32980691663331
 20
-3.180470642233345
 10
42.20577336966667
 20
-3.530200655766705
 10
42.08931773409997
 20
-3.863505526633403
 10
41.98023742836666
 20
-4.180890223966698
 10
41.87792470766665
 20
-4.483869655366688
 10
41.78254353086665
 20
-4.771926038800032
 10
41.6939299391
 20
-5.045577156266702
 10
41.61098431093332
 20
-5.307891261266731
 10
41.53373781746668
 20
-5.558536421100042
 10
41.46215928759996
 20
-5.797844568433347
 10
41.39505558649998
 20
-6.029879754666707
 10
41.33221987903332
 20
-6.254899520166659
 10
41.27385900036667
 20
-6.472646324600034
 10
41.21940032103331
 20
-6.686411598166684
 10
41.1685599252
 20
-6.896701743666667
 10
41.12162172873334
 20
-7.103010358366717
 10
41.07886484966663
 20
-7.307109664400072
 10
41.04038232733333
 20
-7.509590402500079
 10
41.00608112243334
 20
-7.709861831966705
 10
40.97596123496665
 20
-7.907923952766751
  0
LWPOLYLINE
  5
22102
330
1F
100
AcDbEntity
  8
1
100
AcDbPolyline
 90
       17
 70
     0
 43
0.0
 10
37.30974698056665
 20
-13.57979551693337
 10
37.27869210846669
 20
-13.66765593223336
 10
37.25213057783336
 20
-13.75642015943334
 10
37.23006238859998
 20
-13.84608819853339
 10
37.21245795176665
 20
-13.9368669585
 10
37.19934685633333
 20
-14.02854953036673
 10
37.19081786960001
 20
-14.12051518726675
 10
37.18690208436667
 20
-14.21276585006673
 10
37.18756840786668
 20
-14.30529959786669
 10
37.19281232873331
 20
-14.39748994096671
 10
37.20266490926665
 20
-14.48933454913334
 10
37.21709508723333
 20
-14.58083575263335
 10
37.23600516463333
 20
-14.67137405243336
 10
37.25942554076667
 20
-14.76094291463336
 10
37.28732581636669
 20
-14.84954887313337
 10
37.31951709566667
 20
-14.93659203096673
 10
37.35751397543332
 20
-15.02530784803333
  0
LWPOLYLINE
  5
22103
330
1F
100
AcDbEntity
  8
1
100
AcDbPolyline
 90
       14
 70
     0
 43
0.0
 10
37.38817526046668
 20
-13.80599551023336
 10
37.35716805029998
 20
-13.89394604473337
 10
37.33078366823335
 20
-13.98326529706669
 10
37.30908771
 20
-14.07373120550007
 10
37.29213411513335
 20
-14.16511885753336
 10
37.27996503296666
 20
-14.25720104903338
 10
37.27261071773333
 20
-14.34974884923339
 10
37.27008945346668
 20
-14.44253216963337
 10
37.27240750836668
 20
-14.53532033633338
 10
37.27955911943335
 20
-14.62788266333338
 10
37.29152650663336
 20
-14.71998902610006
 10
37.30827991713332
 20
-14.81141043370003
 10
37.32977769929997
 20
-14.9019195980667
 10
37.35596640629998
 20
-14.99129149923335
  0
LWPOLYLINE
  5
22104
330
1F
100
AcDbEntity
  8
1
100
AcDbPolyline
 90
       13
 70
     0
 43
0.0
 10
38.34405360473332
 20
-13.74544960806669
 10
38.34805822783332
 20
-13.72371645823337
 10
38.35367447526667
 20
-13.70258375943338
 10
38.36090234696671
 20
-13.68205151170004
 10
38.36980147379998
 20
-13.66201303633342
 10
38.38031222496667
 20
-13.64257501200002
 10
38.39225570800003
 20
-13.6240574747667
 10
38.40565774130002
 20
-13.6064716024667
 10
38.42049250646667
 20
-13.58980621726671
 10
38.43650365603335
 20
-13.57434782170004
 10
38.45360574083335
 20
-13.56019191663337
 10
38.47188421003333
 20
-13.54724300123338
 10
38.49133906363332
 20
-13.53550107546671
  0
LWPOLYLINE
  5
22105
330
1F
100
AcDbEntity
  8
1
100
AcDbPolyline
 90
       25
 70
     0
 43
0.0
 10
39.83362449106667
 20
-14.99792253800002
 10
39.82963613203336
 20
-15.01960908596671
 10
39.82403274316667
 20
-15.04070940590004
 10
39.81681432450003
 20
-15.06122349780004
 10
39.80792071166664
 20
-15.08126273443339
 10
39.79741206899999
 20
-15.10071574306671
 10
39.78546888949998
 20
-15.11924840523336
 10
39.77206639210002
 20
-15.13684482236671
 10
39.75722935783333
 20
-15.15352089303339
 10
39.74121262269998
 20
-15.16899019456669
 10
39.72399580783335
 20
-15.18323188060004
 10
39.70559929210001
 20
-15.19626679750003
 10
39.68633904790002
 20
-15.20787106190006
 10
39.66620015473333
 20
-15.21801995986671
 10
39.64519753313331
 20
-15.2267382053334
 10
39.62369191713336
 20
-15.23387605656673
 10
39.60167461776669
 20
-15.2394062129667
 10
39.57915432396666
 20
-15.24335597516666
 10
39.55651783689999
 20
-15.24565750333336
 10
39.53376314936665
 20
-15.24628232500005
 10
39.51089226853336
 20
-15.24525891260005
 10
39.48829801706668
 20
-15.24260484403341
 10
39.46611133583335
 20
-15.23832597846673
 10
39.44420128396669
 20
-15.23241645670005
 10
39.42256786146666
 20
-15.22487627870005
  0
LWPOLYLINE
  5
22106
330
1F
100
AcDbEntity
  8
1
100
AcDbPolyline
 90
       25
 70
     0
 43
0.0
 10
38.34405360473332
 20
-13.43845931810007
 10
38.3480419638
 20
-13.41677277013339
 10
38.35364535263332
 20
-13.39567245020005
 10
38.36086377133333
 20
-13.37515835830005
 10
38.36975738416665
 20
-13.3551191216667
 10
38.3802660268
 20
-13.33566611303332
 10
38.39220920633332
 20
-13.31713345086673
 10
38.40561170373334
 20
-13.29953703373339
 10
38.42044873796666
 20
-13.28286096306671
 10
38.43646547310001
 20
-13.26739166153335
 10
38.45368228796664
 20
-13.25314997550005
 10
38.47207880373336
 20
-13.24011505860007
 10
38.49133904789997
 20
-13.22851079420003
 10
38.51147794106666
 20
-13.21836189623333
 10
38.53248056269999
 20
-13.2096436508
 10
38.55398617866669
 20
-13.20250579953337
 10
38.57600347806668
 20
-13.1969756431334
 10
38.59852377183333
 20
-13.19302588093338
 10
38.62116025890001
 20
-13.19072435276668
 10
38.64391494646664
 20
-13.19009953113335
 10
38.66678582730001
 20
-13.19112294349999
 10
38.68938007876668
 20
-13.1937770121
 10
38.71156676000001
 20
-13.19805587763336
 10
38.73347681186667
 20
-13.20396539940005
 10
38.75511023436664
 20
-13.21150557740004
  0
LWPOLYLINE
  5
22107
330
1F
100
AcDbEntity
  8
1
100
AcDbPolyline
 90
       13
 70
     0
 43
0.0
 10
38.34405360473332
 20
-13.74544960806669
 10
38.33445338486669
 20
-13.79960189166674
 10
38.32136425663336
 20
-13.85261466106671
 10
38.30478622003332
 20
-13.9044879163667
 10
38.2846205873
 20
-13.95542943360006
 10
38.26096604623334
 20
-14.00523143670001
 10
38.2341186601333
 20
-14.05327059723335
 10
38.20403829953333
 20
-14.09952475880006
 10
38.17076509393334
 20
-14.14401607780003
 10
38.13471549509998
 20
-14.18618769506669
 10
38.09602832036669
 20
-14.22585399090003
 10
38.05456475236665
 20
-14.2632005849667
 10
38.01032479120002
 20
-14.29822747730004
  0
LWPOLYLINE
  5
22108
330
1F
100
AcDbEntity
  8
1
100
AcDbPolyline
 90
       16
 70
     0
 43
0.0
 10
39.83362449106667
 20
-14.99792253800002
 10
39.84097337966668
 20
-14.95465498073339
 10
39.85058570486669
 20
-14.91203385686669
 10
39.8624614667
 20
-14.87005916636668
 10
39.87664469543333
 20
-14.82862170540001
 10
39.89309136083333
 20
-14.7878306777667
 10
39.91166937206666
 20
-14.74801369513336
 10
39.93239589293333
 20
-14.70917860143335
 10
39.95525375966665
 20
-14.67131755270004
 10
39.98005939020001
 20
-14.63473462846674
 10
40.0068284699
 20
-14.59944012153336
 10
40.03554531339998
 20
-14.56542373913341
 10
40.06597928243333
 20
-14.53295868253339
 10
40.09805349759997
 20
-14.50213601880001
 10
40.13184483833335
 20
-14.47286468086669
 10
40.16735330463332
 20
-14.44514466876673
  0
LWPOLYLINE
  5
22109
330
1F
100
AcDbEntity
  8
1
100
AcDbPolyline
 90
       16
 70
     0
 43
0.0
 10
38.34405360473332
 20
-13.43845931810007
 10
38.33670471616668
 20
-13.4817268753667
 10
38.32709239096668
 20
-13.52434799923334
 10
38.31521662909997
 20
-13.56632268973335
 10
38.30103340036666
 20
-13.6077601507334
 10
38.28458673499998
 20
-13.64855117833339
 10
38.26600872376665
 20
-13.68836816096673
 10
38.24528220289997
 20
-13.72720325466675
 10
38.22242433613335
 20
-13.76506430339999
 10
38.19761870559998
 20
-13.80164722763335
 10
38.17084962589999
 20
-13.83694173456668
 10
38.14213278243332
 20
-13.87095811696669
 10
38.11169881340001
 20
-13.90342317356671
 10
38.07962459820003
 20
-13.93424583730008
 10
38.04583325746668
 20
-13.9635171752334
 10
38.01032479120002
 20
-13.99123718736668
  0
LINE
  5
2210A
330
1F
100
AcDbEntity
  8
1
100
AcDbLine
 10
42.7139464093
 20
-0.9770427646000284
 30
0.0
 11
42.99997895949998
 21
1.502957235399988
 31
0.0
  0
LINE
  5
2210B
330
1F
100
AcDbEntity
  8
1
100
AcDbLine
 10
42.47824746863332
 20
1.486668542566619
 30
0.0
 11
42.48012613653336
 21
1.502957235399988
 31
0.0
  0
LWPOLYLINE
  5
2210C
330
1F
100
AcDbEntity
  8
1
100
AcDbPolyline
 90
       18
 70
     0
 43
0.0
 10
37.58883904793331
 20
-7.794000690299994
 10
37.5902329359333
 20
-7.773147249533407
 10
37.59434665756666
 20
-7.750634404033363
 10
37.60108290726666
 20
-7.726457359466691
 10
37.61034604210003
 20
-7.700597663966746
 10
37.62202306406667
 20
-7.673320777033397
 10
37.63599614966668
 20
-7.644657419233353
 10
37.65215996523333
 20
-7.614576870033388
 10
37.67041429129998
 20
-7.583252427166726
 10
37.69063683649998
 20
-7.550727580866706
 10
37.71272968696671
 20
-7.516958840900044
 10
37.73664892666668
 20
-7.481989034166716
 10
37.76230457069997
 20
-7.445838335299995
 10
37.78960041336669
 20
-7.408486569633409
 10
37.81851174480003
 20
-7.369916040100022
 10
37.84898169133331
 20
-7.330120847700031
 10
37.88090722793337
 20
-7.289106891433347
 10
37.91420679396666
 20
-7.246874171300035
  0
LWPOLYLINE
  5
2210D
330
1F
100
AcDbEntity
  8
1
100
AcDbPolyline
 90
       43
 70
     0
 43
0.0
 10
38.31383904790003
 20
13.0758977626666
 10
38.3161062938
 20
13.13148265399995
 10
38.32258324979998
 20
13.18615373326666
 10
38.33326991596667
 20
13.23991100046662
 10
38.34827274326668
 20
13.29304378549999
 10
38.36748528069998
 20
13.34526275846666
 10
38.39058817530001
 20
13.39569992966663
 10
38.41764645326666
 20
13.44432551673331
 10
38.44859508843335
 20
13.4911693020333
 10
38.48291964900003
 20
13.5354526428333
 10
38.52067656263333
 20
13.57713274196662
 10
38.56180940173331
 20
13.61625239659996
 10
38.60563445146667
 20
13.6521613553666
 10
38.65219671146665
 20
13.6848059523666
 10
38.70145118213335
 20
13.71423985349996
 10
38.75257915009999
 20
13.73997380509995
 10
38.8056119303
 20
13.76194596353331
 10
38.86051820776666
 20
13.7802181724666
 10
38.91638532409999
 20
13.79448670913329
 10
38.97322933946666
 20
13.80468465323331
 10
39.03103419366667
 20
13.81087892509997
 10
39.0888390479
 20
13.81296656279998
 10
39.14664390213332
 20
13.81087892509997
 10
39.20444875636665
 20
13.80468465323331
 10
39.26129277173331
 20
13.79448670913329
 10
39.31715988806664
 20
13.7802181724666
 10
39.37206616553331
 20
13.76194596353331
 10
39.42509894573331
 20
13.73997380509995
 10
39.4762269136667
 20
13.71423985349996
 10
39.52548138436666
 20
13.6848059523666
 10
39.57204364436669
 20
13.6521613553666
 10
39.6158686941
 20
13.61625239659996
 10
39.65700153316666
 20
13.57713274196662
 10
39.69475844683334
 20
13.5354526428333
 10
39.72908300740002
 20
13.4911693020333
 10
39.76003164253333
 20
13.44432551673331
 10
39.78708992053331
 20
13.39569992966663
 10
39.81019281513332
 20
13.34526275846666
 10
39.82940535256668
 20
13.29304378549999
 10
39.84440817986668
 20
13.23991100046662
 10
39.85509484600001
 20
13.18615373326666
 10
39.86157180203335
 20
13.13148265399995
 10
39.86383904790004
 20
13.0758977626666
  0
LWPOLYLINE
  5
2210E
330
1F
100
AcDbEntity
  8
1
100
AcDbPolyline
 90
       13
 70
     0
 43
0.0
 10
37.8938390479
 20
-14.2181909280667
 10
37.89471769690003
 20
-14.19643776570002
 10
37.89732380273333
 20
-14.1746846033334
 10
37.90161260390002
 20
-14.15330506606672
 10
37.90761316813334
 20
-14.13230560810002
 10
37.91529642763332
 20
-14.11167977523338
 10
37.92453041733333
 20
-14.09178182993334
 10
37.93534192536666
 20
-14.07262434613335
 10
37.94770416353336
 20
-14.05419474990005
 10
37.96140480220001
 20
-14.03680958183339
 10
37.97637306473335
 20
-14.02057435550001
 10
37.99267972773331
 20
-14.00538355733336
 10
38.01032479120002
 20
-13.99123718736668
  0
LWPOLYLINE
  5
2210F
330
1F
100
AcDbEntity
  8
1
100
AcDbPolyline
 90
       52
 70
     0
 43
0.0
 10
37.78883904789998
 20
-14.2181909280667
 10
37.79138224239998
 20
-14.14118101303337
 10
37.79876056586668
 20
-14.0650354466667
 10
37.81097401833334
 20
-13.98975422893336
 10
37.82810540239998
 20
-13.91505905506666
 10
37.85007191546666
 20
-13.84122822986673
 10
37.8766251497
 20
-13.76909666760004
 10
37.90781717016668
 20
-13.69868365703338
 10
37.94359591180003
 20
-13.6299699094334
 10
37.98355677146665
 20
-13.56373247270006
 10
38.0277472215
 20
-13.4999994560667
 10
38.07611978956666
 20
-13.43874275029999
 10
38.12812745553336
 20
-13.38065507553337
 10
38.18381148233331
 20
-13.32577240426668
 10
38.24313060706666
 20
-13.27405876400003
 10
38.30541402063332
 20
-13.22609895733338
 10
38.37069537146667
 20
-13.18193559496673
 10
38.43894101116669
 20
-13.14152606620003
 10
38.50937918539998
 20
-13.10532734130005
 10
38.58203478216669
 20
-13.07338721820004
 10
38.65688291346666
 20
-13.04565789896675
 10
38.73307716079997
 20
-13.02245296000002
 10
38.81063280433333
 20
-13.00382375873336
 10
38.88953456386665
 20
-12.98971893773337
 10
38.96889018059997
 20
-12.98029800103337
 10
39.04870480640003
 20
-12.97561411673338
 10
39.12897328940002
 20
-12.97561411673338
 10
39.20878791520003
 20
-12.98029800103337
 10
39.28814353196666
 20
-12.98971893773337
 10
39.36704529149998
 20
-13.00382375873336
 10
39.44460093500001
 20
-13.02245296000002
 10
39.52079518233333
 20
-13.04565789896675
 10
39.59564331363336
 20
-13.07338721820004
 10
39.66829891043332
 20
-13.10532734130005
 10
39.73873708463336
 20
-13.14152606620003
 10
39.80698272433333
 20
-13.18193559496673
 10
39.87226407519998
 20
-13.22609895733338
 10
39.93454748876664
 20
-13.27405876400003
 10
39.99386661346668
 20
-13.32577240426668
 10
40.04955064029998
 20
-13.38065507553337
 10
40.10155830626664
 20
-13.43874275029999
 10
40.14993087433331
 20
-13.4999994560667
 10
40.19412132436665
 20
-13.56373247270006
 10
40.23408218403331
 20
-13.6299699094334
 10
40.26986092566668
 20
-13.69868365703338
 10
40.30105294613335
 20
-13.76909666760004
 10
40.32760618036664
 20
-13.84122822986673
 10
40.34957269343331
 20
-13.91505905506666
 10
40.36670407749997
 20
-13.98975422893336
 10
40.37891752996667
 20
-14.0650354466667
 10
40.38629585343332
 20
-14.14118101303337
 10
40.3888390479
 20
-14.2181909280667
  0
LWPOLYLINE
  5
22110
330
1F
100
AcDbEntity
  8
1
100
AcDbPolyline
 90
       58
 70
     0
 43
0.0
 10
37.3388390479
 20
-14.25344427103336
 10
37.34149639416668
 20
-14.16125306840003
 10
37.34946036260001
 20
-14.06934184740005
 10
37.36270676696668
 20
-13.9779897394334
 10
37.38119537830002
 20
-13.88747417780003
 10
37.40487004736664
 20
-13.79807005533338
 10
37.43365887493335
 20
-13.71004888936672
 10
37.46747443029998
 20
-13.62367799733336
 10
37.5062140167
 20
-13.53921968476671
 10
37.54975998329999
 20
-13.45693044883337
 10
37.59798008243335
 20
-13.37706019916671
 10
37.65072787126664
 20
-13.2998514991
 10
37.70784315646668
 20
-13.22553882896672
 10
37.7691524808
 20
-13.15434787386671
 10
37.83446964986668
 20
-13.08649483843341
 10
37.90359629756668
 20
-13.02218579003342
 10
37.97632248853333
 20
-12.96161603320003
 10
38.05242735573333
 20
-12.90496951623335
 10
38.1316797712
 20
-12.85241827280005
 10
38.2138390479
 20
-12.80412189930003
 10
38.29865567086668
 20
-12.76022707016672
 10
38.38587205476668
 20
-12.72086709260004
 10
38.47522332633335
 20
-12.6861615015667
 10
38.56643812866665
 20
-12.65621569680003
 10
38.6592394454
 20
-12.63112062273338
 10
38.75334544203335
 20
-12.61095249223338
 10
38.84847032173335
 20
-12.59577255530003
 10
38.94432519333335
 20
-12.58562691286671
 10
39.04061894876665
 20
-12.58054637693341
 10
39.13705914706665
 20
-12.58054637693341
 10
39.2333529025
 20
-12.58562691286671
 10
39.3292077741
 20
-12.59577255530003
 10
39.42433265376671
 20
-12.61095249223338
 10
39.51843865039999
 20
-12.63112062273338
 10
39.61123996716665
 20
-12.65621569680003
 10
39.70245476950001
 20
-12.6861615015667
 10
39.79180604106668
 20
-12.72086709260004
 10
39.87902242496668
 20
-12.76022707016672
 10
39.9638390479
 20
-12.80412189930003
 10
40.0459983246333
 20
-12.85241827280005
 10
40.12525074006665
 20
-12.90496951623335
 10
40.20135560726665
 20
-12.96161603320003
 10
40.27408179826667
 20
-13.02218579003342
 10
40.34320844596666
 20
-13.08649483843341
 10
40.40852561503331
 20
-13.15434787386671
 10
40.46983493936667
 20
-13.22553882896672
 10
40.52695022456665
 20
-13.2998514991
 10
40.57969801336664
 20
-13.37706019916671
 10
40.62791811253329
 20
-13.45693044883337
 10
40.67146407913336
 20
-13.53921968476671
 10
40.71020366553333
 20
-13.62367799733336
 10
40.7440192209
 20
-13.71004888936672
 10
40.77280804846664
 20
-13.79807005533338
 10
40.79648271750002
 20
-13.88747417780003
 10
40.81497132886667
 20
-13.9779897394334
 10
40.82821773319998
 20
-14.06934184740005
 10
40.83618170166666
 20
-14.16125306840003
 10
40.83883904789998
 20
-14.25344427103336
  0
LINE
  5
22111
330
1F
100
AcDbEntity
  8
1
100
AcDbLine
 10
40.16735330463332
 20
-13.99123718736668
 30
0.0
 11
40.16735330463332
 21
-14.29822747730004
 31
0.0
  0
LINE
  5
22112
330
1F
100
AcDbEntity
  8
1
100
AcDbLine
 10
39.83362449106667
 20
-13.43845931810007
 30
0.0
 11
39.83362449106667
 21
-13.74544960806669
 31
0.0
  0
LINE
  5
22113
330
1F
100
AcDbEntity
  8
1
100
AcDbLine
 10
39.42256786146666
 20
-13.21150557740004
 30
0.0
 11
39.42256786146666
 21
-13.51849586736672
 31
0.0
  0
LINE
  5
22114
330
1F
100
AcDbEntity
  8
1
100
AcDbLine
 10
39.00259689096666
 20
-17.95378400530002
 30
0.0
 11
39.00259689096666
 21
-17.63707870023337
 31
0.0
  0
LINE
  5
22115
330
1F
100
AcDbEntity
  8
1
100
AcDbLine
 10
39.00259689096666
 20
-0.9770427646000284
 30
0.0
 11
39.00259689096666
 21
0.1061855366666435
 31
0.0
  0
LINE
  5
22116
330
1F
100
AcDbEntity
  8
1
100
AcDbLine
 10
38.75511023436664
 20
-13.21150557740004
 30
0.0
 11
38.75511023436664
 21
-13.51849586736672
 31
0.0
  0
LINE
  5
22117
330
1F
100
AcDbEntity
  8
1
100
AcDbLine
 10
38.34405360473332
 20
-13.43845931810007
 30
0.0
 11
38.34405360473332
 21
-13.74544960806669
 31
0.0
  0
LINE
  5
22118
330
1F
100
AcDbEntity
  8
1
100
AcDbLine
 10
38.01032479120002
 20
-13.99123718736668
 30
0.0
 11
38.01032479120002
 21
-14.29822747730004
 31
0.0
  0
LINE
  5
22119
330
1F
100
AcDbEntity
  8
1
100
AcDbLine
 10
37.91420662756664
 20
-10.6482760165667
 30
0.0
 11
37.91420662756664
 21
-7.817285801800053
 31
0.0
  0
LINE
  5
2211A
330
1F
100
AcDbEntity
  8
1
100
AcDbLine
 10
37.91420662756664
 20
1.802957235399944
 30
0.0
 11
37.91420662756664
 21
11.34465800259998
 31
0.0
  0
LINE
  5
2211B
330
1F
100
AcDbEntity
  8
1
100
AcDbLine
 10
37.91420662756664
 20
13.30640438649998
 30
0.0
 11
37.91420662756664
 21
14.91774494116661
 31
0.0
  0
LINE
  5
2211C
330
1F
100
AcDbEntity
  8
1
100
AcDbLine
 10
37.91420679759998
 20
-7.246874171533378
 30
0.0
 11
37.91420651863333
 21
-6.813883285000045
 31
0.0
  0
LWPOLYLINE
  5
2211D
330
1F
100
AcDbEntity
  8
1
100
AcDbPolyline
 90
       13
 70
     0
 43
0.0
 10
40.28383904789999
 20
-14.2181909280667
 10
40.28296039893334
 20
-14.19643776570002
 10
40.28035429306664
 20
-14.1746846033334
 10
40.27606549193332
 20
-14.15330506606672
 10
40.27006492770001
 20
-14.13230560810002
 10
40.26238166816668
 20
-14.11167977523338
 10
40.25314767850002
 20
-14.09178182993334
 10
40.24233617046664
 20
-14.07262434613335
 10
40.22997393226669
 20
-14.05419474990005
 10
40.21627329363335
 20
-14.03680958183339
 10
40.20130503110002
 20
-14.02057435550001
 10
40.1849983681
 20
-14.00538355733336
 10
40.16735330463332
 20
-13.99123718736668
  0
LWPOLYLINE
  5
2211E
330
1F
100
AcDbEntity
  8
1
100
AcDbPolyline
 90
       43
 70
     0
 43
0.0
 10
38.31383904790003
 20
13.0758977626666
 10
38.3161062938
 20
13.0203128713333
 10
38.32258324979998
 20
12.96564179206665
 10
38.33326991596667
 20
12.91188452489995
 10
38.34827274326668
 20
12.85875173983332
 10
38.36748528069998
 20
12.80653276686659
 10
38.39058817530001
 20
12.75609559569999
 10
38.41764645326666
 20
12.7074700086
 10
38.44859508843335
 20
12.66062622329996
 10
38.48291964900003
 20
12.61634288253332
 10
38.52067656263333
 20
12.57466278339994
 10
38.56180940173331
 20
12.53554312876666
 10
38.60563445146667
 20
12.49963416999996
 10
38.65219671146665
 20
12.46698957299996
 10
38.70145118213335
 20
12.4375556718666
 10
38.75257915009999
 20
12.41182172026661
 10
38.8056119303
 20
12.38984956183331
 10
38.86051820776666
 20
12.37157735289996
 10
38.91638532409999
 20
12.35730881623327
 10
38.97322933946666
 20
12.34711087209994
 10
39.03103419366667
 20
12.34091660026659
 10
39.0888390479
 20
12.33882896256664
 10
39.14664390213332
 20
12.34091660026659
 10
39.20444875636665
 20
12.34711087209994
 10
39.26129277173331
 20
12.35730881623327
 10
39.31715988806664
 20
12.37157735289996
 10
39.37206616553331
 20
12.38984956183331
 10
39.42509894573331
 20
12.41182172026661
 10
39.4762269136667
 20
12.4375556718666
 10
39.52548138436666
 20
12.46698957299996
 10
39.57204364436669
 20
12.49963416999996
 10
39.6158686941
 20
12.53554312876666
 10
39.65700153316666
 20
12.57466278339994
 10
39.69475844683334
 20
12.61634288253332
 10
39.72908300740002
 20
12.66062622329996
 10
39.76003164253333
 20
12.7074700086
 10
39.78708992053331
 20
12.75609559569999
 10
39.81019281513332
 20
12.80653276686659
 10
39.82940535256668
 20
12.85875173983332
 10
39.84440817986668
 20
12.91188452489995
 10
39.85509484600001
 20
12.96564179206665
 10
39.86157180203335
 20
13.0203128713333
 10
39.86383904790004
 20
13.0758977626666
  0
LINE
  5
2211F
330
1F
100
AcDbEntity
  8
1
100
AcDbLine
 10
38.15344494723335
 20
12.94897600619997
 30
0.0
 11
38.14096129880002
 21
13.10680287756666
 31
0.0
  0
LINE
  5
22120
330
1F
100
AcDbEntity
  8
1
100
AcDbLine
 10
41.08839195523333
 20
-9.063383630900046
 30
0.0
 11
41.07879601656665
 21
-8.961877318600057
 31
0.0
  0
LWPOLYLINE
  5
22121
330
1F
100
AcDbEntity
  8
1
100
AcDbPolyline
 90
       10
 70
     0
 43
0.0
 10
40.95810551083334
 20
-8.484890297300026
 10
40.95376086123335
 20
-8.44284158360007
 10
40.95029533533331
 20
-8.403634775966692
 10
40.94743442403332
 20
-8.367497563533348
 10
40.94519479093334
 20
-8.334616222466721
 10
40.94365190059997
 20
-8.305093172466698
 10
40.94265155059999
 20
-8.279051299900075
 10
40.94217383079999
 20
-8.256622583533397
 10
40.94229754699997
 20
-8.237913252000012
 10
40.9430244016
 20
-8.223010991900038
  0
LWPOLYLINE
  5
22122
330
1F
100
AcDbEntity
  8
1
100
AcDbPolyline
 90
        4
 70
     0
 43
0.0
 10
40.97596123496665
 20
-8.626091533366732
 10
40.96937075313334
 20
-8.576730716633406
 10
40.96337849646666
 20
-8.529584016300034
 10
40.95810551083334
 20
-8.484890297300026
  0
LINE
  5
22123
330
1F
100
AcDbEntity
  8
1
100
AcDbLine
 10
40.98299646929999
 20
-8.675138733966731
 30
0.0
 11
40.97596123496665
 21
-8.626091533366732
 31
0.0
  0
LWPOLYLINE
  5
22124
330
1F
100
AcDbEntity
  8
1
100
AcDbPolyline
 90
        5
 70
     0
 43
0.0
 10
37.61190099423337
 20
11.9739771093666
 10
37.60169156576669
 20
12.04114676833329
 10
37.59448589686665
 20
12.10877145133331
 10
37.59022371903333
 20
12.17672096209996
 10
37.58883904793331
 20
12.24415591916663
  0
LWPOLYLINE
  5
22125
330
1F
100
AcDbEntity
  8
1
100
AcDbPolyline
 90
        3
 70
     0
 43
0.0
 10
40.99911554693332
 20
-8.775337398399996
 10
40.99077834403331
 20
-8.724979324366714
 10
40.98299646929999
 20
-8.675138733966731
  0
LINE
  5
22126
330
1F
100
AcDbEntity
  8
1
100
AcDbLine
 10
41.02534652440001
 20
-8.926644599466682
 30
0.0
 11
40.99911554693332
 21
-8.775337398399996
 31
0.0
  0
LINE
  5
22127
330
1F
100
AcDbEntity
  8
1
100
AcDbLine
 10
42.99861346676665
 20
-17.29406122990004
 30
0.0
 11
41.55084786376668
 21
-9.393773144366733
 31
0.0
  0
LINE
  5
22128
330
1F
100
AcDbEntity
  8
1
100
AcDbLine
 10
41.55084786376668
 20
-9.393773144366733
 30
0.0
 11
41.54224096576664
 21
-9.357886394933371
 31
0.0
  0
LINE
  5
22129
330
1F
100
AcDbEntity
  8
1
100
AcDbLine
 10
41.55084786376668
 20
-7.194653886666699
 30
0.0
 11
41.54258619936664
 21
-7.160745244400017
 31
0.0
  0
LWPOLYLINE
  5
2212A
330
1F
100
AcDbEntity
  8
1
100
AcDbPolyline
 90
        3
 70
     0
 43
0.0
 10
37.65241353473331
 20
12.71327760696663
 10
37.67176835976667
 20
12.64432556549995
 10
37.7584179114667
 20
12.44939976049998
  0
LINE
  5
2212B
330
1F
100
AcDbEntity
  8
1
100
AcDbLine
 10
42.71290588129996
 20
-10.05065595743339
 30
0.0
 11
41.44616345789997
 21
-5.853155903933397
 31
0.0
  0
LINE
  5
2212C
330
1F
100
AcDbEntity
  8
1
100
AcDbLine
 10
42.99861346676665
 20
-11.99199554330006
 30
0.0
 11
41.55084786376668
 21
-7.194653886666699
 31
0.0
  0
LWPOLYLINE
  5
2212D
330
1F
100
AcDbEntity
  8
1
100
AcDbPolyline
 90
       19
 70
     0
 43
0.0
 10
37.7584179114667
 20
12.44939976049998
 10
37.87184964936668
 20
12.2728271167333
 10
38.01573864323334
 20
12.11152960746664
 10
38.18640982330001
 20
11.96858525943331
 10
38.37283798029998
 20
11.85322815273331
 10
38.57606340176668
 20
11.76727961783329
 10
38.79504580020004
 20
11.7089183242666
 10
39.01563910383332
 20
11.68191436063328
 10
39.23794966580003
 20
11.68833796149998
 10
39.46187113296665
 20
11.7261188923333
 10
39.67293837403335
 20
11.79281653793332
 10
39.87030274326665
 20
11.89034000163325
 10
40.05481288636665
 20
12.0167801801666
 10
40.21454960920002
 20
12.16396914829998
 10
40.34787735180001
 20
12.33327675683328
 10
40.45643167416668
 20
12.52333315499997
 10
40.53320006173331
 20
12.72186086539999
 10
40.57584500976665
 20
12.92476739553329
 10
40.58380235230001
 20
13.05351833066662
  0
LWPOLYLINE
  5
2212E
330
1F
100
AcDbEntity
  8
1
100
AcDbPolyline
 90
       10
 70
     0
 43
0.0
 10
37.91420662756664
 20
11.34465800259998
 10
37.86656701673335
 20
11.39848158419998
 10
37.82179818453332
 20
11.45680873376663
 10
37.78016327013333
 20
11.51954405399998
 10
37.74181911406666
 20
11.58679956499996
 10
37.70715972410002
 20
11.65822382939994
 10
37.67669188526665
 20
11.7329481040333
 10
37.65062417563335
 20
11.81051576869997
 10
37.62898906693332
 20
11.89093606806658
 10
37.61190099423337
 20
11.9739771093666
  0
LWPOLYLINE
  5
2212F
330
1F
100
AcDbEntity
  8
1
100
AcDbPolyline
 90
        7
 70
     0
 43
0.0
 10
39.6350294049
 20
-16.05358421410001
 10
39.68547128146665
 20
-16.02878314590005
 10
39.73841662606665
 20
-15.9996572475667
 10
39.78981095783335
 20
-15.96809276566672
 10
39.83953156126668
 20
-15.93416506746668
 10
39.88745971713335
 20
-15.89795516300002
 10
39.93572446226668
 20
-15.85757809433336
  0
LWPOLYLINE
  5
22130
330
1F
100
AcDbEntity
  8
1
100
AcDbPolyline
 90
       10
 70
     0
 43
0.0
 10
38.72181000426664
 20
-18.38353166966671
 10
38.77791708523333
 20
-18.35265889130006
 10
38.82822056586665
 20
-18.31656917996669
 10
38.87272044616665
 20
-18.27526253573337
 10
38.91198825036665
 20
-18.22788900060006
 10
38.94545245423335
 20
-18.17529853250006
 10
38.97139848510003
 20
-18.12004100529999
 10
38.9892548188333
 20
-18.06296637693334
 10
38.99959297956664
 20
-18.00322468940006
 10
39.00244792769999
 20
-17.95378271870005
  0
LINE
  5
22131
330
1F
100
AcDbEntity
  8
1
100
AcDbLine
 10
33.1031513879
 20
-14.85553247936669
 30
0.0
 11
33.15459173920002
 21
-14.77834377760003
 31
0.0
  0
LINE
  5
22132
330
1F
100
AcDbEntity
  8
1
100
AcDbLine
 10
41.55084786376668
 20
4.987842708966623
 30
0.0
 11
41.54224096576664
 21
4.965258710699956
 31
0.0
  0
LWPOLYLINE
  5
22133
330
1F
100
AcDbEntity
  8
1
100
AcDbPolyline
 90
        4
 70
     0
 43
0.0
 10
42.59999999999998
 20
12.04900231196665
 10
41.70246302653331
 20
8.979948340533312
 10
41.53401499700001
 20
8.403415546266657
 10
41.37229409699997
 20
7.849624763366633
  0
LINE
  5
22134
330
1F
100
AcDbEntity
  8
1
100
AcDbLine
 10
42.99861346676665
 20
9.959596773199946
 30
0.0
 11
41.55084786376668
 21
4.987842708966623
 31
0.0
  0
LINE
  5
22135
330
1F
100
AcDbEntity
  8
1
100
AcDbLine
 10
42.71290588129996
 20
12.02070339966666
 30
0.0
 11
41.30348848253331
 21
7.180640432266598
 31
0.0
  0
LINE
  5
22136
330
1F
100
AcDbEntity
  8
1
100
AcDbLine
 10
42.99861346676665
 20
18.10060064333332
 30
0.0
 11
41.87206586826667
 21
11.98689915053329
 31
0.0
  0
LINE
  5
22137
330
1F
100
AcDbEntity
  8
1
100
AcDbLine
 10
42.71290588129996
 20
17.46143883313333
 30
0.0
 11
42.42631778263333
 21
15.90614362066661
 31
0.0
  0
LWPOLYLINE
  5
22138
330
1F
100
AcDbEntity
  8
1
100
AcDbPolyline
 90
       22
 70
     0
 43
0.0
 10
42.59999999999998
 20
17.06767294139995
 10
42.46164728250002
 20
16.14560122189992
 10
42.33060162243329
 20
15.25739506159998
 10
42.20686301980001
 20
14.40305446043332
 10
42.09063406419996
 20
13.58377549626662
 10
41.9817121660333
 20
12.79836209123333
 10
41.87948955673332
 20
12.04322601203329
 10
41.78411630929999
 20
11.31958631123329
 10
41.6954423507
 20
10.62622393626667
 10
41.61240969326664
 20
9.955893495999973
 10
41.53505478399997
 20
9.309667499799942
 10
41.4633411759
 20
8.686473438333321
 10
41.39610154009996
 20
8.075848392333327
 10
41.33313672390002
 20
7.4775426795333
 10
41.27464588003332
 20
6.891805982199953
 10
41.22005913793329
 20
6.308924428199914
 10
41.16909112756665
 20
5.727945993366616
 10
41.12202721899999
 20
5.149822701866624
 10
41.07915365149998
 20
4.567696753833259
 10
41.04056583820002
 20
3.979282216033296
 10
41.00616836603332
 20
3.386865021699961
 10
40.97596123496665
 20
2.790445170899984
  0
LWPOLYLINE
  5
22139
330
1F
100
AcDbEntity
  8
1
100
AcDbPolyline
 90
       10
 70
     0
 43
0.0
 10
38.75818020036664
 20
1.302957235399944
 10
38.72634692046668
 20
1.051294860233255
 10
38.70094331683336
 20
0.7989926475332682
 10
38.68196938949998
 20
0.546094542299997
 10
38.66873399113334
 20
0.2924877403666386
 10
38.66192826903333
 20
0.0383744189999646
 10
38.6636256651
 20
-0.2157280847666954
 10
38.67451732663332
 20
-0.4696168565667024
 10
38.69391210636664
 20
-0.7234035969334088
 10
38.72181000426664
 20
-0.9770427646000284
  0
LWPOLYLINE
  5
2213A
330
1F
100
AcDbEntity
  8
1
100
AcDbPolyline
 90
       18
 70
     0
 43
0.0
 10
38.14096129880002
 20
13.10680287756666
 10
38.15508790846664
 20
13.2687833842666
 10
38.19579129320003
 20
13.41492666733329
 10
38.26587759966665
 20
13.55570110809997
 10
38.36255184220002
 20
13.68730194489994
 10
38.47742906379997
 20
13.79831489269996
 10
38.61213508896666
 20
13.88690111536662
 10
38.76504409319998
 20
13.95489944903328
 10
38.92289364590002
 20
13.99641211686661
 10
39.08612501910003
 20
14.00907351459999
 10
39.2542969408
 20
13.9952492465333
 10
39.41282316446669
 20
13.95613834859999
 10
39.56084217106664
 20
13.88948231013328
 10
39.69921547963335
 20
13.79753964179996
 10
39.81594140063331
 20
13.68828491163332
 10
39.90701937086667
 20
13.56437630893332
 10
39.97644995350001
 20
13.42315564443332
 10
40.02423314856664
 20
13.26462291803328
  0
LWPOLYLINE
  5
2213B
330
1F
100
AcDbEntity
  8
1
100
AcDbPolyline
 90
        7
 70
     0
 43
0.0
 10
37.84134526203335
 20
13.18204272493328
 10
37.83884462733333
 20
13.10324748643329
 10
37.84215007516664
 20
13.02032857286666
 10
37.85152926636668
 20
12.93783093679994
 10
37.86602401883332
 20
12.86021450573331
 10
37.88708882823332
 20
12.77969075299994
 10
37.91467161803335
 20
12.6990292292666
  0
LWPOLYLINE
  5
2213C
330
1F
100
AcDbEntity
  8
1
100
AcDbPolyline
 90
       18
 70
     0
 43
0.0
 10
37.58883904793331
 20
12.24415591916663
 10
37.59026561783335
 20
12.31326210353329
 10
37.59441509169997
 20
12.38130422383328
 10
37.60118632336665
 20
12.44893771353325
 10
37.61047991699999
 20
12.51610017533328
 10
37.62218148563332
 20
12.58256816749996
 10
37.63617092413332
 20
12.64821961299996
 10
37.65234085273333
 20
12.71302323059994
 10
37.67059290126665
 20
12.77690273503331
 10
37.69080406903331
 20
12.83974989389996
 10
37.71287603360001
 20
12.90156066369995
 10
37.73676995870002
 20
12.96241687636664
 10
37.76239698583335
 20
13.02227015073332
 10
37.78966151120002
 20
13.08107749223329
 10
37.8185454973333
 20
13.13892244983331
 10
37.84899592889999
 20
13.19580346566663
 10
37.88090962936664
 20
13.25164189239994
 10
37.91420662756664
 20
13.30640438649998
  0
LINE
  5
2213D
330
1F
100
AcDbEntity
  8
1
100
AcDbLine
 10
37.3388390479
 20
-14.25344427103336
 30
0.0
 11
37.3388390479
 21
-14.39361395090005
 31
0.0
  0
LINE
  5
2213E
330
1F
100
AcDbEntity
  8
1
100
AcDbLine
 10
36.81262607440002
 20
-11.31784573146673
 30
0.0
 11
36.81262607440002
 21
-7.651869515766705
 31
0.0
  0
LINE
  5
2213F
330
1F
100
AcDbEntity
  8
1
100
AcDbLine
 10
36.81262607440002
 20
1.802957235399944
 30
0.0
 11
36.81262607440002
 21
14.34170895609996
 31
0.0
  0
LWPOLYLINE
  5
22140
330
1F
100
AcDbEntity
  8
1
100
AcDbPolyline
 90
       52
 70
     0
 43
0.0
 10
37.3388390479
 20
-14.39361395090005
 10
37.34215822263335
 20
-14.49663817870005
 10
37.35210315600003
 20
-14.59927160030004
 10
37.36863612346664
 20
-14.70112489203337
 10
37.39169440983332
 20
-14.80181168940005
 10
37.42119054716667
 20
-14.90095005296668
 10
37.45701264646668
 20
-14.99816391686671
 10
37.49902482223335
 20
-15.09308451573339
 10
37.54706770789997
 20
-15.18535178313335
 10
37.60095906040002
 20
-15.27461571773337
 10
37.66049445130003
 20
-15.36053771086672
 10
37.72544804250002
 20
-15.44279183100004
 10
37.79557344276665
 20
-15.52106606003339
 10
37.87060464246664
 20
-15.59506347706669
 10
37.95025702256666
 20
-15.66450338450001
 10
38.03422843423332
 20
-15.72912237300007
 10
38.12220034523333
 20
-15.7886753206334
 10
38.2138390479
 20
-15.84293632263338
 10
38.30879692530002
 20
-15.89169954843341
 10
38.40671376963335
 20
-15.93478002243337
 10
38.50721814883335
 20
-15.97201432563339
 10
38.60992881529998
 20
-16.00326121560006
 10
38.71445615230001
 20
-16.02840216210002
 10
38.82040365186666
 20
-16.04734179700007
 10
38.92736941883331
 20
-16.06000827570007
 10
39.03494769543332
 20
-16.06635354996673
 10
39.14273040039999
 20
-16.06635354996673
 10
39.25030867696668
 20
-16.06000827570007
 10
39.35727444393334
 20
-16.04734179700007
 10
39.46322194353334
 20
-16.02840216210002
 10
39.56774928053332
 20
-16.00326121560006
 10
39.67045994700001
 20
-15.97201432563339
 10
39.77096432616665
 20
-15.93478002243337
 10
39.86888117053334
 20
-15.89169954843341
 10
39.9638390479
 20
-15.84293632263338
 10
40.05547775059997
 20
-15.7886753206334
 10
40.14344966156667
 20
-15.72912237300007
 10
40.22742107326664
 20
-15.66450338450001
 10
40.30707345333334
 20
-15.59506347706669
 10
40.38210465303333
 20
-15.52106606003339
 10
40.45223005333335
 20
-15.44279183100004
 10
40.51718364453332
 20
-15.36053771086672
 10
40.57671903543334
 20
-15.27461571773337
 10
40.63061038790002
 20
-15.18535178313335
 10
40.67865327360002
 20
-15.09308451573339
 10
40.72066544936663
 20
-14.99816391686671
 10
40.75648754866667
 20
-14.90095005296668
 10
40.78598368596667
 20
-14.80181168940005
 10
40.80904197236665
 20
-14.70112489203337
 10
40.82557493983332
 20
-14.59927160030004
 10
40.8355198732
 20
-14.49663817870005
 10
40.83883904789998
 20
-14.39361395090005
  0
LWPOLYLINE
  5
22141
330
1F
100
AcDbEntity
  8
1
100
AcDbPolyline
 90
        3
 70
     0
 43
0.0
 10
37.34946036260001
 20
-14.43754669466672
 10
37.34149639416668
 20
-14.34563547366669
 10
37.3388390479
 20
-14.25344427103336
  0
LWPOLYLINE
  5
22142
330
1F
100
AcDbEntity
  8
1
100
AcDbPolyline
 90
        6
 70
     0
 43
0.0
 10
36.85496004699999
 20
1.502957235399988
 10
36.84087253786665
 20
1.552957235399944
 10
36.82867489309999
 20
1.611615519233268
 10
36.81981008490001
 20
1.673547712866635
 10
36.81442979256671
 20
1.737694139299931
 10
36.81262607440002
 20
1.802957235399944
  0
LINE
  5
22143
330
1F
100
AcDbEntity
  8
1
100
AcDbLine
 10
41.55084786376668
 20
-7.194653886666699
 30
0.0
 11
41.54224096576664
 21
-7.172862149933351
 31
0.0
  0
LWPOLYLINE
  5
22144
330
1F
100
AcDbEntity
  8
1
100
AcDbPolyline
 90
        6
 70
     0
 43
0.0
 10
37.97008028759999
 20
1.52295723539997
 10
37.95721128929998
 20
1.552957728366649
 10
37.93864061666667
 20
1.611615941499948
 10
37.92514412833336
 20
1.673548029466629
 10
37.91695274849999
 20
1.73769431323329
 10
37.91420662760001
 20
1.802957235399944
  0
LWPOLYLINE
  5
22145
330
1F
100
AcDbEntity
  8
1
100
AcDbPolyline
 90
        7
 70
     0
 43
0.0
 10
39.63468860523332
 20
-16.05349991656671
 10
39.64169991070001
 20
-16.05046194560005
 10
39.7138390479
 20
-16.01358762586672
 10
39.78330183919999
 20
-15.97228029120005
 10
39.84979083416667
 20
-15.92671682593335
 10
39.91302131680001
 20
-15.87709233983334
 10
39.93411199393333
 20
-15.85820190233336
  0
LWPOLYLINE
  5
22146
330
1F
100
AcDbEntity
  8
1
100
AcDbPolyline
 90
       13
 70
     0
 43
0.0
 10
38.49134265136664
 20
-13.53549909460004
 10
38.51170333956665
 20
-13.52525827330005
 10
38.53256884729999
 20
-13.51659516670004
 10
38.55393917456665
 20
-13.50950977480006
 10
38.57594352546667
 20
-13.50397908253337
 10
38.59845269590002
 20
-13.50002610496672
 10
38.62107907369998
 20
-13.49771988726674
 10
38.64381987089999
 20
-13.49708739860001
 10
38.66667787550003
 20
-13.49810166980002
 10
38.68927383896667
 20
-13.50075083853336
 10
38.71148134519998
 20
-13.50503095063335
 10
38.73342681033333
 20
-13.51094596023337
 10
38.75511023436664
 20
-13.51849586736672
  0
LWPOLYLINE
  5
22147
330
1F
100
AcDbEntity
  8
1
100
AcDbPolyline
 90
       10
 70
     0
 43
0.0
 10
37.91420662756664
 20
-10.6482760165667
 10
37.80143859473336
 20
-10.73593856010002
 10
37.68601203663334
 20
-10.82045990016668
 10
37.56802175463335
 20
-10.90176511103335
 10
37.44753792843332
 20
-10.97979878270002
 10
37.32468593223334
 20
-11.05447280286672
 10
37.19965129246666
 20
-11.12567400086671
 10
37.07257031116669
 20
-11.19333063256671
 10
36.94352493429998
 20
-11.25740484433335
 10
36.81262607440002
 20
-11.31784573146673
  0
LINE
  5
22148
330
1F
100
AcDbEntity
  8
1
100
AcDbLine
 10
40.44827824253334
 20
-9.388720440666716
 30
0.0
 11
41.02534708523332
 21
-8.926644150366726
 31
0.0
  0
LINE
  5
22149
330
1F
100
AcDbEntity
  8
1
100
AcDbLine
 10
40.08619651640001
 20
-9.589264383633363
 30
0.0
 11
33.65561298629998
 21
-14.73842504210002
 31
0.0
  0
LINE
  5
2214A
330
1F
100
AcDbEntity
  8
1
100
AcDbLine
 10
40.9430244016
 20
-8.223010991900038
 30
0.0
 11
37.91420662756664
 21
-10.6482760165667
 31
0.0
  0
LINE
  5
2214B
330
1F
100
AcDbEntity
  8
1
100
AcDbLine
 10
33.65561298629998
 20
-14.73842504210002
 30
0.0
 11
33.62741755196667
 21
-14.76349651386671
 31
0.0
  0
LWPOLYLINE
  5
2214C
330
1F
100
AcDbEntity
  8
1
100
AcDbPolyline
 90
        7
 70
     0
 43
0.0
 10
41.07384247546664
 20
-3.766052788500032
 10
41.045391522
 20
-3.795711400666688
 10
41.01692027850001
 20
-3.824834619500066
 10
40.98842874493331
 20
-3.853422445066726
 10
40.95991692126668
 20
-3.881474877333359
 10
40.93138480756667
 20
-3.908991916266714
 10
40.90283240379998
 20
-3.935973561933351
  0
LWPOLYLINE
  5
2214D
330
1F
100
AcDbEntity
  8
1
100
AcDbPolyline
 90
       31
 70
     0
 43
0.0
 10
37.91420679759998
 20
-7.246874171533378
 10
37.99302075543332
 20
-7.149436204166717
 10
38.08075523393333
 20
-7.046276656800059
 10
38.17741023316668
 20
-6.937395529400035
 10
38.28426633483335
 20
-6.821280948933361
 10
38.40004295716667
 20
-6.699444788433382
 10
38.52089835500001
 20
-6.576422667200019
 10
38.64753471043335
 20
-6.451899173700056
 10
38.77924984133333
 20
-6.326189719433402
 10
38.91009545620003
 20
-6.204776158466713
 10
39.0392242312
 20
-6.088697095233342
 10
39.16748349013332
 20
-5.976913925266686
 10
39.29146691323334
 20
-5.871792689100017
 10
39.41030873866666
 20
-5.77409574640002
 10
39.52487472826668
 20
-5.683060737533381
 10
39.63435584750003
 20
-5.59876662400002
 10
39.73878601250002
 20
-5.521173952933351
 10
39.83813130716665
 20
-5.450322177233386
 10
39.93148094866669
 20
-5.386408617233384
 10
40.01869248753334
 20
-5.329561619566688
 10
40.09990837323331
 20
-5.279652837600012
 10
40.17464517106666
 20
-5.236494551533396
 10
40.24264072560001
 20
-5.200237852800015
 10
40.30415719229997
 20
-5.170731649966697
 10
40.35949760303336
 20
-5.147334948966728
 10
40.40863970376668
 20
-5.129969221433398
 10
40.45160574856665
 20
-5.118712995766728
 10
40.48876553133331
 20
-5.113160862900045
 10
40.52024231676668
 20
-5.113177686533403
 10
40.54591284016665
 20
-5.118898603000061
 10
40.56577710159999
 20
-5.130323612300016
  0
LWPOLYLINE
  5
2214E
330
1F
100
AcDbEntity
  8
1
100
AcDbPolyline
 90
       14
 70
     0
 43
0.0
 10
33.15459173920002
 20
-14.77834377760003
 10
33.21300487620002
 20
-14.70583454953341
 10
33.27823592253337
 20
-14.63790085673339
 10
33.34881421806668
 20
-14.57607429156668
 10
33.42486123153336
 20
-14.52049358426667
 10
33.50625549420002
 20
-14.47102000460002
 10
33.5911619397667
 20
-14.42876895430005
 10
33.67966035136666
 20
-14.39390450113338
 10
33.77167094586665
 20
-14.36626257730007
 10
33.86511930753332
 20
-14.34646638110008
 10
33.96003809679999
 20
-14.33469413693338
 10
34.05639465319999
 20
-14.33076762040004
 10
34.15201657949999
 20
-14.33477535633335
 10
34.15866029446667
 20
-14.33562000946666
  0
LINE
  5
2214F
330
1F
100
AcDbEntity
  8
1
100
AcDbLine
 10
42.7139464093
 20
18.18679768963328
 30
0.0
 11
42.99997895949998
 21
19.05249452819997
 31
0.0
  0
LWPOLYLINE
  5
22150
330
1F
100
AcDbEntity
  8
1
100
AcDbPolyline
 90
        4
 70
     0
 43
0.0
 10
33.01283256140002
 20
-15.04876483710002
 10
33.02173044409997
 20
-15.02179308123335
 10
33.05852894590001
 20
-14.93729671643338
 10
33.1031513879
 20
-14.85553247936669
  0
LWPOLYLINE
  5
22151
330
1F
100
AcDbEntity
  8
1
100
AcDbPolyline
 90
       22
 70
     0
 43
0.0
 10
32.95510614903335
 20
-14.71600374703338
 10
32.95528426749999
 20
-14.69851888360007
 10
32.96207308613336
 20
-14.59802598690005
 10
32.97855160116669
 20
-14.49948212143335
 10
33.00498147980004
 20
-14.40293992023341
 10
33.04110105483332
 20
-14.30834675026672
 10
33.08594363030002
 20
-14.2182342812667
 10
33.13974476813334
 20
-14.13272351316671
 10
33.20226890643332
 20
-14.05169344603338
 10
33.27184266359998
 20
-13.97731274983336
 10
33.3486564124
 20
-13.90976098873337
 10
33.43251978009997
 20
-13.84885859856673
 10
33.5211882669
 20
-13.79623555680008
 10
33.61479163359998
 20
-13.75211544460002
 10
33.7132001194
 20
-13.71627468083336
 10
33.81377994239997
 20
-13.68967249940006
 10
33.91658973886669
 20
-13.67255838523336
 10
34.02157087253332
 20
-13.66468285340001
 10
34.12591365263333
 20
-13.66625668280007
 10
34.22868151556665
 20
-13.67735013306669
 10
34.33081102489999
 20
-13.69789294453336
 10
34.43230218070002
 20
-13.72788511723338
  0
LINE
  5
22152
330
1F
100
AcDbEntity
  8
1
100
AcDbLine
 10
34.43230218070002
 20
-13.72788511723338
 30
0.0
 11
34.43230218070002
 21
-14.11650676283336
 31
0.0
  0
LINE
  5
22153
330
1F
100
AcDbEntity
  8
1
100
AcDbLine
 10
32.84872090906666
 20
-13.08064838613337
 30
0.0
 11
32.84872090906666
 21
-9.948781615566717
 31
0.0
  0
LINE
  5
22154
330
1F
100
AcDbEntity
  8
1
100
AcDbLine
 10
32.84872090906666
 20
1.802957235399944
 30
0.0
 11
32.84872090906666
 21
12.51489248766664
 31
0.0
  0
LINE
  5
22155
330
1F
100
AcDbEntity
  8
1
100
AcDbLine
 10
34.56497467109997
 20
1.502957235399988
 30
0.0
 11
34.56715419190002
 21
1.302957235399944
 31
0.0
  0
LINE
  5
22156
330
1F
100
AcDbEntity
  8
1
100
AcDbLine
 10
34.56497467109997
 20
-15.85368054506672
 30
0.0
 11
34.57331246980003
 21
-15.98464663556673
 31
0.0
  0
LINE
  5
22157
330
1F
100
AcDbEntity
  8
1
100
AcDbLine
 10
33.71633222466667
 20
1.302957235399944
 30
0.0
 11
33.69750401896667
 21
1.502957235399988
 31
0.0
  0
LINE
  5
22158
330
1F
100
AcDbEntity
  8
1
100
AcDbLine
 10
33.51709054503331
 20
1.302957235399944
 30
0.0
 11
33.49826233933331
 21
1.502957235399988
 31
0.0
  0
LINE
  5
22159
330
1F
100
AcDbEntity
  8
1
100
AcDbLine
 10
28.10876184913335
 20
18.48479183259995
 30
0.0
 11
28.10168139653334
 21
18.49790856036661
 31
0.0
  0
LWPOLYLINE
  5
2215A
330
1F
100
AcDbEntity
  8
1
100
AcDbPolyline
 90
        8
 70
     0
 43
0.0
 10
28.10404562706665
 20
18.48224600046659
 10
28.10856760143336
 20
18.47551998336665
 10
28.12064068156664
 20
18.46457614976661
 10
28.13869747203333
 20
18.45368399633331
 10
28.16250758096666
 20
18.44297961793329
 10
28.19137983279998
 20
18.43286753883329
 10
28.2253424267
 20
18.42341592856665
 10
28.26436716356667
 20
18.41459704773329
  0
LWPOLYLINE
  5
2215B
330
1F
100
AcDbEntity
  8
1
100
AcDbPolyline
 90
       13
 70
     0
 43
0.0
 10
30.16389374169998
 20
18.38250469196667
 10
29.74522737020001
 20
18.5657677305666
 10
29.59789811496668
 20
18.62983220146661
 10
29.45952422516669
 20
18.68862644023328
 10
29.32993254003335
 20
18.74198616339997
 10
29.20929622036668
 20
18.78970032479996
 10
29.09642383880001
 20
18.83148586116663
 10
28.99129919446668
 20
18.86718586659997
 10
28.89393848823332
 20
18.89668808266661
 10
28.80319889556668
 20
18.91983989683328
 10
28.71869947493335
 20
18.93651777069998
 10
28.64082116786668
 20
18.94661014539996
 10
28.56956397433331
 20
18.94999999999997
  0
LWPOLYLINE
  5
2215C
330
1F
100
AcDbEntity
  8
1
100
AcDbPolyline
 90
       13
 70
     0
 43
0.0
 10
39.42256786146666
 20
-13.51849586736672
 10
39.44425161746668
 20
-13.51094585836672
 10
39.46619741976665
 20
-13.50503079656671
 10
39.4884052684
 20
-13.50075068196669
 10
39.51100158643331
 20
-13.49810156050002
 10
39.53385995076664
 20
-13.49708738620008
 10
39.55660109200002
 20
-13.49772002126669
 10
39.57922779673332
 20
-13.50002643690006
 10
39.60173727836664
 20
-13.50397966190003
 10
39.62374190773332
 20
-13.50951064456673
 10
39.64511247513335
 20
-13.51659636773338
 10
39.66597819026666
 20
-13.52525984853334
 10
39.68633905316668
 20
-13.53550108706669
  0
LWPOLYLINE
  5
2215D
330
1F
100
AcDbEntity
  8
1
100
AcDbPolyline
 90
       25
 70
     0
 43
0.0
 10
38.75511023436664
 20
-15.22487627870005
 10
38.73347681186667
 20
-15.23241645670005
 10
38.71156676000001
 20
-15.23832597846673
 10
38.68938007876668
 20
-15.24260484403341
 10
38.66678582730001
 20
-15.24525891260005
 10
38.64391494646664
 20
-15.24628232500005
 10
38.62116025890001
 20
-15.24565750333336
 10
38.59852377183333
 20
-15.24335597516666
 10
38.57600347806668
 20
-15.2394062129667
 10
38.55398617866669
 20
-15.23387605656673
 10
38.53248056269999
 20
-15.2267382053334
 10
38.51147794106666
 20
-15.21801995986671
 10
38.49133904789997
 20
-15.20787106190006
 10
38.47207880373336
 20
-15.19626679750003
 10
38.45368228796664
 20
-15.18323188060004
 10
38.43646547310001
 20
-15.16899019456669
 10
38.42044873796666
 20
-15.15352089303339
 10
38.40561170373334
 20
-15.13684482236671
 10
38.39220920633332
 20
-15.11924840523336
 10
38.3802660268
 20
-15.10071574306671
 10
38.36975738416665
 20
-15.08126273443339
 10
38.36086377133333
 20
-15.06122349780004
 10
38.35364535263332
 20
-15.04070940590004
 10
38.3480419638
 20
-15.01960908596671
 10
38.34405360473332
 20
-14.99792253800002
  0
LWPOLYLINE
  5
2215E
330
1F
100
AcDbEntity
  8
1
100
AcDbPolyline
 90
       13
 70
     0
 43
0.0
 10
39.42256786146666
 20
-13.51849586736672
 10
39.36872768039999
 20
-13.53762125860005
 10
39.31417498416667
 20
-13.55328743396673
 10
39.25890977283334
 20
-13.56549439343338
 10
39.20269454126664
 20
-13.57426429340002
 10
39.14576679460001
 20
-13.57957497746669
 10
39.0888390479
 20
-13.58135997643337
 10
39.03191130123335
 20
-13.57957497746669
 10
38.97498355453335
 20
-13.57426429340002
 10
38.91876832300003
 20
-13.56549439343338
 10
38.86350311163332
 20
-13.55328743396673
 10
38.80895041543332
 20
-13.53762125860005
 10
38.75511023436664
 20
-13.51849586736672
  0
LWPOLYLINE
  5
2215F
330
1F
100
AcDbEntity
  8
1
100
AcDbPolyline
 90
       16
 70
     0
 43
0.0
 10
38.75511023436664
 20
-15.22487627870005
 10
38.79796758923331
 20
-15.20932873356669
 10
38.84137125516665
 20
-15.19597894763338
 10
38.88532123220004
 20
-15.18482692083337
 10
38.92993842996665
 20
-15.17585451646671
 10
38.97510193883332
 20
-15.16907987126673
 10
39.02044902976664
 20
-15.16455739553335
 10
39.06598118116668
 20
-15.16230522606669
 10
39.11169691466668
 20
-15.16230522606669
 10
39.15722906606666
 20
-15.16455739553335
 10
39.20257615699997
 20
-15.16907987126673
 10
39.24773966586665
 20
-15.17585451646671
 10
39.29235686363333
 20
-15.18482692083337
 10
39.33630684066665
 20
-15.19597894763338
 10
39.37971050659999
 20
-15.20932873356669
 10
39.42256786146666
 20
-15.22487627870005
  0
LWPOLYLINE
  5
22160
330
1F
100
AcDbEntity
  8
1
100
AcDbPolyline
 90
       16
 70
     0
 43
0.0
 10
39.42256786146666
 20
-13.21150557740004
 10
39.37971050659999
 20
-13.22705312253335
 10
39.33630684066665
 20
-13.24040290850003
 10
39.29235686363333
 20
-13.25155493526672
 10
39.24773966586665
 20
-13.26052733963338
 10
39.20257615699997
 20
-13.26730198483337
 10
39.15722906606666
 20
-13.27182446056669
 10
39.11169691466668
 20
-13.2740766300334
 10
39.06598118116668
 20
-13.2740766300334
 10
39.02044902976664
 20
-13.27182446056669
 10
38.97510193883332
 20
-13.26730198483337
 10
38.92993842996665
 20
-13.26052733963338
 10
38.88532123220004
 20
-13.25155493526672
 10
38.84137125516665
 20
-13.24040290850003
 10
38.79796758923331
 20
-13.22705312253335
 10
38.75511023436664
 20
-13.21150557740004
  0
LINE
  5
22161
330
1F
100
AcDbEntity
  8
1
100
AcDbLine
 10
40.95230167576668
 20
-9.109560131400042
 30
0.0
 11
40.08619651640001
 21
-9.589264383633363
 31
0.0
  0
LWPOLYLINE
  5
22162
330
1F
100
AcDbEntity
  8
1
100
AcDbPolyline
 90
        5
 70
     0
 43
0.0
 10
37.51207827533332
 20
-11.65043788600003
 10
37.43499411683334
 20
-11.69399799956672
 10
37.29990340443332
 20
-11.76550801353336
 10
37.16272554813335
 20
-11.83337407473335
 10
37.02346054786668
 20
-11.89759618313338
  0
LWPOLYLINE
  5
22163
330
1F
100
AcDbEntity
  8
1
100
AcDbPolyline
 90
       10
 70
     0
 43
0.0
 10
37.91420634196665
 20
-6.813883455933377
 10
37.79551123770004
 20
-6.927933936000058
 10
37.67572389593332
 20
-7.036683783100058
 10
37.55484431673333
 20
-7.140165672933348
 10
37.43265041776667
 20
-7.238422812100012
 10
37.3093642813333
 20
-7.331475340033377
 10
37.18565215409999
 20
-7.419320452366732
 10
37.06173611833336
 20
-7.501976774733363
 10
36.93739409176667
 20
-7.579484005500048
 10
36.81262607440002
 20
-7.651869515766705
  0
LINE
  5
22164
330
1F
100
AcDbEntity
  8
1
100
AcDbLine
 10
42.71290588129996
 20
17.46143883313333
 30
0.0
 11
42.99861346676665
 21
18.10060064333332
 31
0.0
  0
LINE
  5
22165
330
1F
100
AcDbEntity
  8
1
100
AcDbLine
 10
42.47824746863332
 20
19.40922396146662
 30
0.0
 11
42.48012613653336
 21
19.41490987673329
 31
0.0
  0
LWPOLYLINE
  5
22166
330
1F
100
AcDbEntity
  8
1
100
AcDbPolyline
 90
        3
 70
     0
 43
0.0
 10
37.35596640629998
 20
-14.99129149923335
 10
37.38678092883336
 20
-15.07930394450001
 10
37.40022269469998
 20
-15.11215760610004
  0
LWPOLYLINE
  5
22167
330
1F
100
AcDbEntity
  8
1
100
AcDbPolyline
 90
       25
 70
     0
 43
0.0
 10
39.42256786146666
 20
-13.21150557740004
 10
39.44420128396669
 20
-13.20396539940005
 10
39.46611133583335
 20
-13.19805587763336
 10
39.48829801706668
 20
-13.1937770121
 10
39.51089226853336
 20
-13.19112294349999
 10
39.53376314936665
 20
-13.19009953113335
 10
39.55651783689999
 20
-13.19072435276668
 10
39.57915432396666
 20
-13.19302588093338
 10
39.60167461776669
 20
-13.1969756431334
 10
39.62369191713336
 20
-13.20250579953337
 10
39.64519753313331
 20
-13.2096436508
 10
39.66620015473333
 20
-13.21836189623333
 10
39.68633904790002
 20
-13.22851079420003
 10
39.70559929210001
 20
-13.24011505860007
 10
39.72399580783335
 20
-13.25314997550005
 10
39.74121262269998
 20
-13.26739166153335
 10
39.75722935783333
 20
-13.28286096306671
 10
39.77206639210002
 20
-13.29953703373339
 10
39.78546888949998
 20
-13.31713345086673
 10
39.79741206899999
 20
-13.33566611303332
 10
39.80792071166664
 20
-13.3551191216667
 10
39.81681432450003
 20
-13.37515835830005
 10
39.82403274316667
 20
-13.39567245020005
 10
39.82963613203336
 20
-13.41677277013339
 10
39.83362449106667
 20
-13.43845931810007
  0
LINE
  5
22168
330
1F
100
AcDbEntity
  8
1
100
AcDbLine
 10
37.02346054786668
 20
-11.89759618313338
 30
0.0
 11
33.05955538250001
 21
-13.66039883783334
 31
0.0
  0
LINE
  5
22169
330
1F
100
AcDbEntity
  8
1
100
AcDbLine
 10
36.81262607440002
 20
-11.31784573146673
 30
0.0
 11
35.47332779629997
 21
-11.91344993023337
 31
0.0
  0
LINE
  5
2216A
330
1F
100
AcDbEntity
  8
1
100
AcDbLine
 10
34.2764272108333
 20
-12.44572793423335
 30
0.0
 11
32.84872090906666
 21
-13.08064838613337
 31
0.0
  0
LWPOLYLINE
  5
2216B
330
1F
100
AcDbEntity
  8
1
100
AcDbPolyline
 90
       19
 70
     0
 43
0.0
 10
33.05955538250001
 20
-13.66039883783334
 10
32.80290903353332
 20
-13.77664760260002
 10
32.53972942966667
 20
-13.9083811075334
 10
32.27001657090003
 20
-14.05559935263336
 10
31.99119270140002
 20
-14.2186058589
 10
31.70583557703336
 20
-14.3970971053334
 10
31.42167846526664
 20
-14.59016252900006
 10
31.13914338693334
 20
-14.79844886180002
 10
30.85780832123331
 20
-15.02130937186668
 10
30.58414047326667
 20
-15.25589330023338
 10
30.31867108803331
 20
-15.50287005356672
 10
30.06086892056667
 20
-15.76157022526674
 10
29.81560744103333
 20
-16.02713483663338
 10
29.58360677196666
 20
-16.30004860116669
 10
29.36414679086667
 20
-16.5798268054
 10
29.15994060026665
 20
-16.86015633013336
 10
28.97189256776668
 20
-17.13893280226672
 10
28.79909832583334
 20
-17.41826059493338
 10
28.64155787439998
 20
-17.69813970803336
  0
LWPOLYLINE
  5
2216C
330
1F
100
AcDbEntity
  8
1
100
AcDbPolyline
 90
       22
 70
     0
 43
0.0
 10
32.84872090906666
 20
-13.08064838613337
 10
32.61112701459999
 20
-13.18997562376672
 10
32.36612781203334
 20
-13.31059417816671
 10
32.11435978839998
 20
-13.44324797860004
 10
31.85535610090003
 20
-13.58936896293336
 10
31.59110673426667
 20
-13.74909217393339
 10
31.32583369469998
 20
-13.92090445343338
 10
31.06025366706669
 20
-14.10520334976674
 10
30.79507647950001
 20
-14.30239919450004
 10
30.5341258929333
 20
-14.51034996643335
 10
30.2779682229
 20
-14.72907960443338
 10
30.02714252213335
 20
-14.95862266840005
 10
29.78492105069998
 20
-15.19623061836673
 10
29.55158027159999
 20
-15.44160729130006
 10
29.32738944423332
 20
-15.69444364923335
 10
29.1149976216
 20
-15.95142289093338
 10
28.9143050159
 20
-16.21201472536673
 10
28.72522277940002
 20
-16.47566194510001
 10
28.54973531049998
 20
-16.73856085646675
 10
28.38802510446667
 20
-16.99890516433335
 10
28.23884663570002
 20
-17.2571276982667
 10
28.10168139653334
 20
-17.51263343483335
  0
LWPOLYLINE
  5
2216D
330
1F
100
AcDbEntity
  8
1
100
AcDbPolyline
 90
       34
 70
     0
 43
0.0
 10
32.84872090906666
 20
-9.948781615566717
 10
32.50673897543331
 20
-10.16450030780005
 10
32.17605723776669
 20
-10.39550161350003
 10
31.856675696
 20
-10.64125323203338
 10
31.546514691
 20
-10.90370692530003
 10
31.24765388196668
 20
-11.17960051730007
 10
30.96633224630003
 20
-11.46077694560007
 10
30.70418623679998
 20
-11.74705768286669
 10
30.45957940066668
 20
-12.03765170876671
 10
30.23384135703336
 20
-12.32411540820006
 10
30.02840736983333
 20
-12.60522639870005
 10
29.84184217513334
 20
-12.88196901483333
 10
29.67116960003333
 20
-13.14983641463335
 10
29.51717021006667
 20
-13.40681654826666
 10
29.37906343969999
 20
-13.65523645716668
 10
29.25153141943335
 20
-13.89723118360008
 10
29.13392752513331
 20
-14.13250430150005
 10
29.02689838093332
 20
-14.36139734570004
 10
28.92706598973333
 20
-14.5867101571667
 10
28.83391551989999
 20
-14.80825403140001
 10
28.74796180303335
 20
-15.0259009380667
 10
28.66737133683333
 20
-15.24216152583337
 10
28.59157734296664
 20
-15.45771077693338
 10
28.52114659980001
 20
-15.67106308350004
 10
28.45594594000002
 20
-15.88131757036673
 10
28.39591521176667
 20
-16.08870360566671
 10
28.3411145669667
 20
-16.29222351923336
 10
28.29159129399997
 20
-16.48939368863336
 10
28.24749780926666
 20
-16.68006954233336
 10
28.20868169640002
 20
-16.86409334660005
 10
28.17473299473332
 20
-17.03942822096668
 10
28.14551505080002
 20
-17.20556701810007
 10
28.12116451803334
 20
-17.36326681600003
 10
28.10168139653334
 20
-17.51263343483335
  0
LWPOLYLINE
  5
2216E
330
1F
100
AcDbEntity
  8
1
100
AcDbPolyline
 90
       16
 70
     0
 43
0.0
 10
28.10168139653334
 20
1.802957235399944
 10
28.10224783976665
 20
1.751576195433286
 10
28.10856760143336
 20
1.701512690333274
 10
28.12064068156664
 20
1.652768041599968
 10
28.13869747203333
 20
1.604778422399974
 10
28.16250758096666
 20
1.558109833433249
 10
28.19137983279998
 20
1.514459268966659
 10
28.2253424267
 20
1.474031492833303
 10
28.26436716356667
 20
1.436625479933283
 10
28.30767827023331
 20
1.403330774299988
 10
28.35555231336665
 20
1.374111924033271
 10
28.40771272633336
 20
1.34900758783327
 10
28.46255403623334
 20
1.329218910133291
 10
28.51954108536668
 20
1.315147090499962
 10
28.57920903143336
 20
1.306393027199972
 10
28.64155787439998
 20
1.302957235399944
  0
LWPOLYLINE
  5
2216F
330
1F
100
AcDbEntity
  8
1
100
AcDbPolyline
 90
       16
 70
     0
 43
0.0
 10
28.10168139653334
 20
-17.51263343483335
 10
28.10224783973334
 20
-17.53228452323334
 10
28.10856760143336
 20
-17.55130190230007
 10
28.12064068156664
 20
-17.56969528010008
 10
28.13869747203333
 20
-17.58768526946666
 10
28.16250758096666
 20
-17.6050673647667
 10
28.19137983279998
 20
-17.62122487550006
 10
28.22534242673331
 20
-17.63610285556673
 10
28.26436716356667
 20
-17.64979464956669
 10
28.30767827023331
 20
-17.66192166130004
 10
28.35555231336665
 20
-17.67251764306674
 10
28.40771272633336
 20
-17.6815868450334
 10
28.46255403623334
 20
-17.68871312256671
 10
28.51954108536668
 20
-17.6937685390334
 10
28.57920903143336
 20
-17.69690842933336
 10
28.64155787439998
 20
-17.69813970803336
  0
LWPOLYLINE
  5
22170
330
1F
100
AcDbEntity
  8
1
100
AcDbPolyline
 90
        3
 70
     0
 43
0.0
 10
28.10168139653334
 20
18.49790856036661
 10
28.10224783976665
 20
18.4866342693666
 10
28.10404562706665
 20
18.48224600046659
  0
LWPOLYLINE
  5
22171
330
1F
100
AcDbEntity
  8
1
100
AcDbPolyline
 90
       13
 70
     0
 43
0.0
 10
37.02346054786668
 20
-11.89759618313338
 10
36.99594112686666
 20
-11.83975400666669
 10
36.96889257076666
 20
-11.7804002454334
 10
36.94277768790003
 20
-11.72055045870003
 10
36.91804331113335
 20
-11.66122869293339
 10
36.89511265253336
 20
-11.60344996000005
 10
36.87437806196668
 20
-11.54820287003339
 10
36.85619431410001
 20
-11.4964327160667
 10
36.84087253786665
 20
-11.44902529976674
 10
36.82867489309999
 20
-11.40679177520003
 10
36.81981008490001
 20
-11.37045476963341
 10
36.81442979256671
 20
-11.3406360193667
 10
36.81262607440002
 20
-11.31784573146673
  0
LWPOLYLINE
  5
22172
330
1F
100
AcDbEntity
  8
1
100
AcDbPolyline
 90
       50
 70
     0
 43
0.0
 10
37.35751397543332
 20
-15.02530784803333
 10
37.39683090023331
 20
-15.10596873516671
 10
37.44164805976666
 20
-15.18774480333339
 10
37.49050721766665
 20
-15.26737552836671
 10
37.54338113103333
 20
-15.34487536976668
 10
37.59991182270002
 20
-15.41971962333339
 10
37.66012410653335
 20
-15.49189026903339
 10
37.72399316869999
 20
-15.56140532683334
 10
37.79108659066665
 20
-15.62779415266671
 10
37.86142625193335
 20
-15.69103553276672
 10
37.93499027300001
 20
-15.75115068086673
 10
38.01128059663333
 20
-15.80773259386673
 10
38.09031572273332
 20
-15.8607572962667
 10
38.17207715136667
 20
-15.91024876356671
 10
38.25601132570003
 20
-15.95587191920005
 10
38.34213298933335
 20
-15.99760051386671
 10
38.43042739863333
 20
-16.0354607968667
 10
38.52029676593335
 20
-16.06919643920004
 10
38.61175177836665
 20
-16.09877945233337
 10
38.7047817488
 20
-16.12423782480006
 10
38.79875682790001
 20
-16.1453991934667
 10
38.89368342886669
 20
-16.16223440016667
 10
38.98955513846667
 20
-16.1747726030667
 10
39.08572286776669
 20
-16.18292891366674
 10
39.18218862536665
 20
-16.18667359766671
 10
39.27895040266665
 20
-16.18603638936669
 10
39.37535308446664
 20
-16.18102160290006
 10
39.47139423413333
 20
-16.17159953326667
 10
39.5670762883
 20
-16.15779988546673
 10
39.66175144206668
 20
-16.13971608850001
 10
39.75541286289999
 20
-16.11731907140007
 10
39.84806738329999
 20
-16.09063790516667
 10
39.93908769589999
 20
-16.0598532316667
 10
40.02846271143332
 20
-16.02493720580004
 10
40.1162035192
 20
-15.9859176726667
 10
40.20171607956664
 20
-15.94305880986668
 10
40.28498527226665
 20
-15.89633456476669
 10
40.36602621760002
 20
-15.84577098996671
 10
40.44429023656667
 20
-15.79171042066669
 10
40.51975848579999
 20
-15.73412912726668
 10
40.59244980873333
 20
-15.67305083936669
 10
40.66187205659999
 20
-15.60888908086669
 10
40.7280030464333
 20
-15.54162292823339
 10
40.79086496123331
 20
-15.47127330500002
 10
40.85003220123335
 20
-15.39831650570001
 10
40.90547969543334
 20
-15.32273483873338
 10
40.95723251483335
 20
-15.24454599566668
 10
41.00494027256664
 20
-15.1642793455667
 10
41.04848617299999
 20
-15.08211134480008
 10
41.07566992256667
 20
-15.02530539186672
  0
LWPOLYLINE
  5
22173
330
1F
100
AcDbEntity
  8
1
100
AcDbPolyline
 90
        9
 70
     0
 43
0.0
 10
32.95413832623334
 20
1.369944286333278
 10
32.93120766086665
 20
1.406280249000004
 10
32.91047305006666
 20
1.449403480733265
 10
32.89228927163336
 20
1.498576140866631
 10
32.87696745960003
 20
1.5529568773333
 10
32.86476978116664
 20
1.611615213033289
 10
32.8559049454
 20
1.673547483566592
 10
32.85052463420001
 20
1.737694013466621
 10
32.84872090906666
 20
1.802957235399944
  0
LINE
  5
22174
330
1F
100
AcDbEntity
  8
1
100
AcDbLine
 10
28.05616744189999
 20
-18.95000000000006
 30
0.0
 11
38.72837025396669
 21
-18.95000000000006
 31
0.0
  0
LINE
  5
22175
330
1F
100
AcDbEntity
  8
1
100
AcDbLine
 10
38.72181000426664
 20
-18.38353166966671
 30
0.0
 11
40.62101816809998
 21
-18.38353166966671
 31
0.0
  0
LINE
  5
22176
330
1F
100
AcDbEntity
  8
1
100
AcDbLine
 10
38.75818020036664
 20
-17.69813970803336
 30
0.0
 11
28.64155787439998
 21
-17.69813970803336
 31
0.0
  0
LINE
  5
22177
330
1F
100
AcDbEntity
  8
1
100
AcDbLine
 10
34.2764272108333
 20
-12.44572793423335
 30
0.0
 11
34.37373971129999
 21
-12.42377618520005
 31
0.0
  0
LWPOLYLINE
  5
22178
330
1F
100
AcDbEntity
  8
1
100
AcDbPolyline
 90
       17
 70
     0
 43
0.0
 10
34.37373971129999
 20
-12.42377618520005
 10
34.427740059
 20
-12.41136180510001
 10
34.48537876943331
 20
-12.39747545903334
 10
34.54619770449998
 20
-12.38183819500001
 10
34.60910194300002
 20
-12.36419189766668
 10
34.67349956596664
 20
-12.3445303066667
 10
34.73972123236663
 20
-12.32236578880004
 10
34.80803286756664
 20
-12.29668526343336
 10
34.87891483236669
 20
-12.26724465726671
 10
34.95178107090001
 20
-12.23409757423339
 10
35.02534217053332
 20
-12.19675914196672
 10
35.09996380606665
 20
-12.15508233823335
 10
35.17558228406669
 20
-12.10976367486672
 10
35.25043377896665
 20
-12.06190246410001
 10
35.32427395926666
 20
-12.01253112716672
 10
35.39834701869998
 20
-11.96257956340004
 10
35.47332779629997
 20
-11.91344993023337
  0
LWPOLYLINE
  5
22179
330
1F
100
AcDbEntity
  8
1
100
AcDbPolyline
 90
        4
 70
     0
 43
0.0
 10
37.91420662756664
 20
-7.817285801800053
 10
37.86644895513334
 20
-7.839118475900035
 10
37.82160886606667
 20
-7.856546374833342
 10
37.77994329723336
 20
-7.869569498600085
  0
LINE
  5
2217A
330
1F
100
AcDbEntity
  8
1
100
AcDbLine
 10
41.55084786376668
 20
4.987842708966623
 30
0.0
 11
41.54258619936664
 21
4.979453001633245
 31
0.0
  0
LWPOLYLINE
  5
2217B
330
1F
100
AcDbEntity
  8
1
100
AcDbPolyline
 90
        8
 70
     0
 43
0.0
 10
42.59999999999998
 20
12.6568160466666
 10
42.4613443514
 20
12.48166435343329
 10
42.33003831636668
 20
12.31119592929995
 10
42.2060818949
 20
12.14541077429997
 10
42.08967472970002
 20
11.9845082247666
 10
41.98061717806663
 20
11.82828894433326
 10
41.87831031176668
 20
11.67615492396662
 10
41.81900213116668
 20
11.58428072383332
  0
LWPOLYLINE
  5
2217C
330
1F
100
AcDbEntity
  8
1
100
AcDbPolyline
 90
       10
 70
     0
 43
0.0
 10
38.75818020036664
 20
18.38250469196667
 10
38.72634690300001
 20
18.31963331006663
 10
38.70094328976668
 20
18.2533964465333
 10
38.68196936063331
 20
18.18378834926663
 10
38.668733973
 20
18.11075765736665
 10
38.66192826950001
 20
18.03434224623332
 10
38.66362567806667
 20
17.95468934523329
 10
38.67451734139999
 20
17.87186624873332
 10
38.69391211680002
 20
17.78584020473327
 10
38.72181000426664
 20
17.69662732966661
  0
LINE
  5
2217D
330
1F
100
AcDbEntity
  8
1
100
AcDbLine
 10
33.86869278430001
 20
-15.77081923786671
 30
0.0
 11
33.69750401896667
 21
-15.37623805190004
 31
0.0
  0
LINE
  5
2217E
330
1F
100
AcDbEntity
  8
1
100
AcDbLine
 10
33.74537242903333
 20
-15.69196227773337
 30
0.0
 11
33.52869588000003
 21
-15.19253412000002
 31
0.0
  0
LWPOLYLINE
  5
2217F
330
1F
100
AcDbEntity
  8
1
100
AcDbPolyline
 90
       13
 70
     0
 43
0.0
 10
33.05955538250001
 20
-13.66039883783334
 10
33.03203603760002
 20
-13.60255682490005
 10
33.00498753803336
 20
-13.54320319763339
 10
32.97887269033336
 20
-13.48335350680004
 10
32.95413832630001
 20
-13.4240317913334
 10
32.93120766093333
 20
-13.36625306473338
 10
32.91047305010002
 20
-13.3110059470667
 10
32.89228927166667
 20
-13.25923573490003
 10
32.87696745963334
 20
-13.21182823853338
 10
32.86476978120001
 20
-13.16959462946671
 10
32.8559049454
 20
-13.13325754470004
 10
32.85052463420001
 20
-13.10343872523334
 10
32.84872090906666
 20
-13.08064838613337
  0
LWPOLYLINE
  5
22180
330
1F
100
AcDbEntity
  8
1
100
AcDbPolyline
 90
        5
 70
     0
 43
0.0
 10
37.61190099423337
 20
-7.856942748033374
 10
37.60172141213335
 20
-7.844233355533346
 10
37.59452223353335
 20
-7.829520497100033
 10
37.59024833093335
 20
-7.812804172733378
 10
37.58883904793331
 20
-7.794000690299994
  0
LWPOLYLINE
  5
22181
330
1F
100
AcDbEntity
  8
1
100
AcDbPolyline
 90
       10
 70
     0
 43
0.0
 10
34.78853207486665
 20
-15.99993262553336
 10
34.73022518629998
 20
-15.99878196160001
 10
34.67218230143331
 20
-15.99549073803338
 10
34.61440342033333
 20
-15.99005895480003
 10
34.55680251853332
 20
-15.98247201743335
 10
34.49946562046668
 20
-15.97274452040001
 10
34.44265079943332
 20
-15.96092024716672
 10
34.38644407986667
 20
-15.94701379223336
 10
34.33075943730003
 20
-15.93101056110005
 10
34.27559687176668
 20
-15.91291055373337
  0
LINE
  5
22182
330
1F
100
AcDbEntity
  8
1
100
AcDbLine
 10
34.8882215970667
 20
-16.00003245866669
 30
0.0
 11
34.78853207486665
 21
-15.99993262553336
 31
0.0
  0
LWPOLYLINE
  5
22183
330
1F
100
AcDbEntity
  8
1
100
AcDbPolyline
 90
       12
 70
     0
 43
0.0
 10
38.18985543553336
 20
-11.10772143233335
 10
38.1520900271
 20
-11.06116518480009
 10
38.1123602845
 20
-11.00964663133335
 10
38.07471144403334
 20
-10.95819250823338
 10
38.03979501273332
 20
-10.90768965413339
 10
38.00822284183333
 20
-10.85902139986673
 10
37.98053840420003
 20
-10.81302612013338
 10
37.95721128929998
 20
-10.77048469883336
 10
37.93864061666667
 20
-10.73212501260004
 10
37.92514412833336
 20
-10.69860339646671
 10
37.91695274849999
 20
-10.67049341063337
 10
37.91420662760001
 20
-10.64827601653338
  0
LWPOLYLINE
  5
22184
330
1F
100
AcDbEntity
  8
1
100
AcDbPolyline
 90
       14
 70
     0
 43
0.0
 10
34.2764272108333
 20
1.802957235399944
 10
34.32135888603332
 20
1.772841596799976
 10
34.36966866106664
 20
1.745187029133248
 10
34.42118780230001
 20
1.720045072166598
 10
34.47561201660003
 20
1.697286304366613
 10
34.53295682759998
 20
1.6770450413333
 10
34.59353281963334
 20
1.659713092266641
 10
34.65753944240002
 20
1.644884222533264
 10
34.72455377463333
 20
1.632849255899984
 10
34.79391567733332
 20
1.624987063399984
 10
34.86582704096665
 20
1.621138640566627
 10
34.93995728676666
 20
1.621352578299918
 10
35.01487262523332
 20
1.62733330923332
 10
35.04466754069998
 20
1.631473616099966
  0
LINE
  5
22185
330
1F
100
AcDbEntity
  8
1
100
AcDbLine
 10
42.47824746863332
 20
1.486668542566619
 30
0.0
 11
42.44332380419999
 21
1.502957235399988
 31
0.0
  0
LWPOLYLINE
  5
22186
330
1F
100
AcDbEntity
  8
1
100
AcDbPolyline
 90
        7
 70
     0
 43
0.0
 10
41.07384247546664
 20
-18.83643366356672
 10
41.04538536786665
 20
-18.8311177465667
 10
41.01691043183333
 20
-18.82734786946669
 10
40.98841766743332
 20
-18.82512403230005
 10
40.95990707463331
 20
-18.82444623500005
 10
40.9313786534
 20
-18.82531447763337
 10
40.90283240379998
 20
-18.82772876016669
  0
LWPOLYLINE
  5
22187
330
1F
100
AcDbEntity
  8
1
100
AcDbPolyline
 90
       39
 70
     0
 43
0.0
 10
39.19462520080001
 20
-12.58358360820001
 10
39.26716035453333
 20
-12.58365624783336
 10
39.36409009456665
 20
-12.5883797478
 10
39.46065313823331
 20
-12.59771780913338
 10
39.55660941466668
 20
-12.61164721590002
 10
39.65172036139998
 20
-12.63013333746672
 10
39.74574951763336
 20
-12.6531302143667
 10
39.83846311206665
 20
-12.68058067273337
 10
39.9296306441
 20
-12.71241646646673
 10
40.01902545689997
 20
-12.74855844673335
 10
40.10642530086666
 20
-12.78891675883335
 10
40.19161288619996
 20
-12.83339106570004
 10
40.27437642316667
 20
-12.88187079720002
 10
40.35451014856668
 20
-12.93423542503338
 10
40.43181483733334
 20
-12.99035476253336
 10
40.50609829779998
 20
-13.05008928813335
 10
40.57717584963334
 20
-13.11329049246673
 10
40.64487078279998
 20
-13.17980124730003
 10
40.70901479703334
 20
-13.24945619646668
 10
40.76944842023332
 20
-13.32208216680006
 10
40.82602140486668
 20
-13.39749859863333
 10
40.87859310156668
 20
-13.47551799490004
 10
40.92703280886664
 20
-13.55594638703339
 10
40.97122009796666
 20
-13.63858381743337
 10
41.01104511233333
 20
-13.72322483640006
 10
41.04640884066664
 20
-13.80965901300006
 10
41.07722336323334
 20
-13.89767145826671
 10
41.1034120702333
 20
-13.98704335943337
 10
41.1249098524
 20
-14.07755252380004
 10
41.14166326286667
 20
-14.16897393140006
 10
41.15363065006667
 20
-14.26108029413338
 10
41.16078226113333
 20
-14.35364262113337
 10
41.16310031606665
 20
-14.4464307878667
 10
41.16057905176669
 20
-14.53921410826673
 10
41.15322473656667
 20
-14.63176190846674
 10
41.14105565439999
 20
-14.72384409996671
 10
41.12410205953333
 20
-14.81523175200006
 10
41.10240610126665
 20
-14.90569766043337
 10
41.07602171919999
 20
-14.9950169127667
  0
LINE
  5
22188
330
1F
100
AcDbEntity
  8
1
100
AcDbLine
 10
0.5000000000000285
 20
-14.37500000000001
 30
0.0
 11
5.000000000000028
 21
-14.37500000000001
 31
0.0
  0
LINE
  5
22189
330
1F
100
AcDbEntity
  8
1
100
AcDbLine
 10
16.00000000000003
 20
-14.37500000000001
 30
0.0
 11
16.50000000000003
 21
-14.37500000000001
 31
0.0
  0
LWPOLYLINE
  5
2218A
330
1F
100
AcDbEntity
  8
1
100
AcDbPolyline
 90
        7
 70
     0
 43
0.0
 10
37.77994329723336
 20
-7.869569498600085
 10
37.74160381493331
 20
-7.878123595900048
 10
37.70697481433334
 20
-7.882272918033335
 10
37.67655099179999
 20
-7.882210218933393
 10
37.65053288113333
 20
-7.87799974990004
 10
37.62894720676664
 20
-7.869577259600035
 10
37.61190099423337
 20
-7.856942748033374
  0
LINE
  5
2218B
330
1F
100
AcDbEntity
  8
1
100
AcDbLine
 10
16.00000000000003
 20
-11.00000000000001
 30
0.0
 11
5.000000000000028
 21
-11.00000000000001
 31
0.0
  0
LWPOLYLINE
  5
2218C
330
1F
100
AcDbEntity
  8
1
100
AcDbPolyline
 90
        6
 70
     0
 43
0.0
 10
40.16735330463332
 20
-14.29822747730004
 10
40.18503243736669
 20
-14.31241061686673
 10
40.20136199229996
 20
-14.32762825260001
 10
40.21634196943333
 20
-14.34388038450005
 10
40.23003916106667
 20
-14.36126973716672
 10
40.23701899839998
 20
-14.37168433786668
  0
LWPOLYLINE
  5
2218D
330
1F
100
AcDbEntity
  8
1
100
AcDbPolyline
 90
       13
 70
     0
 43
0.0
 10
40.16735330463332
 20
-14.29822747730004
 10
40.12311334343333
 20
-14.2632005849667
 10
40.08164977546667
 20
-14.22585399090003
 10
40.04296260070001
 20
-14.18618769506669
 10
40.00691300190001
 20
-14.14401607780003
 10
39.97363979626667
 20
-14.09952475880006
 10
39.94355943566669
 20
-14.05327059723335
 10
39.91671204960002
 20
-14.00523143670001
 10
39.89305750853331
 20
-13.95542943360006
 10
39.87289187579997
 20
-13.9044879163667
 10
39.8563138392
 20
-13.85261466106671
 10
39.84322471096668
 20
-13.79960189166674
 10
39.83362449106667
 20
-13.74544960806669
  0
LWPOLYLINE
  5
2218E
330
1F
100
AcDbEntity
  8
1
100
AcDbPolyline
 90
       16
 70
     0
 43
0.0
 10
40.16735330463332
 20
-13.99123718736668
 10
40.13184483833335
 20
-13.9635171752334
 10
40.09805349759997
 20
-13.93424583730008
 10
40.06597928243333
 20
-13.90342317356671
 10
40.03554531339998
 20
-13.87095811696669
 10
40.0068284699
 20
-13.83694173456668
 10
39.98005939020001
 20
-13.80164722763335
 10
39.95525375966665
 20
-13.76506430339999
 10
39.93239589293333
 20
-13.72720325466675
 10
39.91166937206666
 20
-13.68836816096673
 10
39.89309136083333
 20
-13.64855117833339
 10
39.87664469543333
 20
-13.6077601507334
 10
39.8624614667
 20
-13.56632268973335
 10
39.85058570486669
 20
-13.52434799923334
 10
39.84097337966668
 20
-13.4817268753667
 10
39.83362449106667
 20
-13.43845931810007
  0
LINE
  5
2218F
330
1F
100
AcDbEntity
  8
SK1
100
AcDbLine
 10
-5.499999999999971
 20
-8.500000000000012
 30
0.0
 11
-1.200000000000017
 21
-8.500000000000012
 31
0.0
  0
LINE
  5
22190
330
1F
100
AcDbEntity
  8
SK1
100
AcDbLine
 10
-0.3877635896666618
 20
-8.300000000000025
 30
0.0
 11
-0.200000000000017
 21
-8.300000000000025
 31
0.0
  0
LINE
  5
22191
330
1F
100
AcDbEntity
  8
SK1
100
AcDbLine
 10
-23.1
 20
-8.000000000000012
 30
0.0
 11
-10.70000000000002
 21
-8.000000000000012
 31
0.0
  0
LWPOLYLINE
  5
22192
330
1F
100
AcDbEntity
  8
1
100
AcDbPolyline
 90
        7
 70
     0
 43
0.0
 10
41.07384247546664
 20
16.68883089156661
 10
41.04540587166663
 20
16.66531861139997
 10
41.01694323793336
 20
16.64368933623329
 10
40.98845457429999
 20
16.62394306609995
 10
40.95993988073334
 20
16.60607980096664
 10
40.93139915723336
 20
16.5900995408666
 10
40.90283240379998
 20
16.57600228576665
  0
LINE
  5
22193
330
1F
100
AcDbEntity
  8
1
100
AcDbLine
 10
16.50000000000003
 20
14.37499999999998
 30
0.0
 11
16.50000000000003
 21
-14.37500000000001
 31
0.0
  0
LINE
  5
22194
330
1F
100
AcDbEntity
  8
1
100
AcDbLine
 10
16.00000000000003
 20
14.37499999999998
 30
0.0
 11
16.00000000000003
 21
10.99999999999998
 31
0.0
  0
LINE
  5
22195
330
1F
100
AcDbEntity
  8
1
100
AcDbLine
 10
16.00000000000003
 20
-11.00000000000001
 30
0.0
 11
16.00000000000003
 21
-14.37500000000001
 31
0.0
  0
LWPOLYLINE
  5
22196
330
1F
100
AcDbEntity
  8
1
100
AcDbPolyline
 90
       13
 70
     0
 43
0.0
 10
38.01032479120002
 20
-14.44514466876673
 10
37.99267972773331
 20
-14.43099829876668
 10
37.97637306473335
 20
-14.41580750063339
 10
37.96140480220001
 20
-14.3995722742667
 10
37.94770416353336
 20
-14.38218710620005
 10
37.93534192536666
 20
-14.36375750996673
 10
37.92453041733333
 20
-14.3446000261667
 10
37.91529642763332
 20
-14.32470208086671
 10
37.90761316813334
 20
-14.30407624800001
 10
37.90161260390002
 20
-14.28307679003338
 10
37.89732380273333
 20
-14.26169725276669
 10
37.89471769690003
 20
-14.23994409040001
 10
37.8938390479
 20
-14.2181909280667
  0
LWPOLYLINE
  5
22197
330
1F
100
AcDbEntity
  8
1
100
AcDbPolyline
 90
       16
 70
     0
 43
0.0
 10
38.01032479120002
 20
-14.44514466876673
 10
38.04583325746668
 20
-14.47286468086669
 10
38.07962459820003
 20
-14.50213601880001
 10
38.11169881340001
 20
-14.53295868253339
 10
38.14213278243332
 20
-14.56542373913341
 10
38.17084962589999
 20
-14.59944012153336
 10
38.19761870559998
 20
-14.63473462846674
 10
38.22242433613335
 20
-14.67131755270004
 10
38.24528220289997
 20
-14.70917860143335
 10
38.26600872376665
 20
-14.74801369513336
 10
38.28458673499998
 20
-14.7878306777667
 10
38.30103340036666
 20
-14.82862170540001
 10
38.31521662909997
 20
-14.87005916636668
 10
38.32709239096668
 20
-14.91203385686669
 10
38.33670471616668
 20
-14.95465498073339
 10
38.34405360473332
 20
-14.99792253800002
  0
LINE
  5
22198
330
1F
100
AcDbEntity
  8
1
100
AcDbLine
 10
42.16190761006665
 20
-12.72825493010005
 30
0.0
 11
42.44332380419999
 21
-12.78792853710003
 31
0.0
  0
LINE
  5
22199
330
1F
100
AcDbEntity
  8
1
100
AcDbLine
 10
42.44332380419999
 20
-12.78792853710003
 30
0.0
 11
42.48012613653336
 21
-12.79449596623335
 31
0.0
  0
LINE
  5
2219A
330
1F
100
AcDbEntity
  8
SK1
100
AcDbLine
 10
-8.948286437599987
 20
-6.662500000000036
 30
0.0
 11
-6.999999999999971
 21
-6.662500000000036
 31
0.0
  0
LINE
  5
2219B
330
1F
100
AcDbEntity
  8
1
100
AcDbLine
 10
37.71419803176665
 20
1.502957235399988
 30
0.0
 11
37.78883904789998
 21
1.52295723539997
 31
0.0
  0
LINE
  5
2219C
330
1F
100
AcDbEntity
  8
SK1
100
AcDbLine
 10
-1.200000000000017
 20
-8.500000000000012
 30
0.0
 11
-0.5171731122333371
 21
-8.317037086866674
 31
0.0
  0
LWPOLYLINE
  5
2219D
330
1F
100
AcDbEntity
  8
1
100
AcDbPolyline
 90
       13
 70
     0
 43
0.0
 10
39.68634266056668
 20
-13.53550307876669
 10
39.70579704643333
 20
-13.54724506880002
 10
39.72407507063335
 20
-13.56019399960003
 10
39.74117673309999
 20
-13.57434987123339
 10
39.75718747823331
 20
-13.58980818090005
 10
39.77202186169999
 20
-13.60647343136669
 10
39.78542355036669
 20
-13.62405913096673
 10
39.79736672716668
 20
-13.64257645533338
 10
39.80787720923335
 20
-13.66201422883337
 10
39.81677611479998
 20
-13.68205243273338
 10
39.82400381670003
 20
-13.70258439410004
 10
39.82961994209997
 20
-13.72371678590004
 10
39.83362449106667
 20
-13.74544960806669
  0
LWPOLYLINE
  5
2219E
330
1F
100
AcDbEntity
  8
1
100
AcDbPolyline
 90
        7
 70
     0
 43
0.0
 10
35.04466754069998
 20
1.631473616099966
 10
35.09086625503332
 20
1.639465163833263
 10
35.1679347395
 20
1.657601574099984
 10
35.24438193553331
 20
1.682765393833264
 10
35.32001092133331
 20
1.71545540943326
 10
35.39608372220003
 20
1.755534072033284
 10
35.47332779629997
 20
1.802957235399944
  0
LWPOLYLINE
  5
2219F
330
1F
100
AcDbEntity
  8
1
100
AcDbPolyline
 90
       10
 70
     0
 43
0.0
 10
37.91420662756664
 20
14.91774494116661
 10
37.79551147103334
 20
14.84196641889996
 10
37.67572408399999
 20
14.76895170483327
 10
37.5548444664
 20
14.69878169229996
 10
37.43265053849999
 20
14.63152530223327
 10
37.30936438006668
 20
14.56726243633328
 10
37.18565223049998
 20
14.50608454506663
 10
37.06173616959997
 20
14.44806391636665
 10
36.9373941175667
 20
14.39325325189996
 10
36.81262607440002
 20
14.34170895609996
  0
LINE
  5
221A0
330
1F
100
AcDbEntity
  8
1
100
AcDbLine
 10
38.72181000426664
 20
-0.9770427646000284
 30
0.0
 11
42.7139464093
 21
-0.9770427646000284
 31
0.0
  0
LINE
  5
221A1
330
1F
100
AcDbEntity
  8
4
100
AcDbLine
 10
44.47961282923333
 20
-0.0000000000000142
 30
0.0
 11
0.0000000000000284
 21
-0.0000000000000142
 31
0.0
  0
LINE
  5
221A2
330
1F
100
AcDbEntity
  8
SK4
100
AcDbLine
 10
0.0000000000000284
 20
-0.0000000000000142
 30
0.0
 11
-25.85654880516663
 21
-0.0000000000000142
 31
0.0
  0
LWPOLYLINE
  5
221A3
330
1F
100
AcDbEntity
  8
1
100
AcDbPolyline
 90
       34
 70
     0
 43
0.0
 10
32.84872090906666
 20
12.51489248766664
 10
32.49711818386666
 20
12.3169363266666
 10
32.15743937563335
 20
12.09990388113327
 10
31.82968448426667
 20
11.86321514829994
 10
31.51153529683333
 20
11.60346854309999
 10
31.20531002633331
 20
11.32276345769996
 10
30.91796331173336
 20
11.02910250316664
 10
30.65136080973335
 20
10.72184705676663
 10
30.40363686363335
 20
10.40109819269996
 10
30.17614914243333
 20
10.07674627563328
 10
29.97060910856666
 20
9.750669614833311
 10
29.78530529956666
 20
9.421355115933279
 10
29.61646099679999
 20
9.094193315366608
 10
29.46469546363332
 20
8.772155335033275
 10
29.32938943673335
 20
8.452956928733312
 10
29.20490840749997
 20
8.134186391099987
 10
29.09055261636664
 20
7.816437225766647
 10
28.9870218229
 20
7.499525905499965
 10
28.89078079740002
 20
7.179692311766629
 10
28.80131877713333
 20
6.857147474333302
 10
28.71914652486666
 20
6.531878855899988
 10
28.64226109879999
 20
6.199608326066638
 10
28.5701156845
 20
5.858878066133327
 10
28.50325709643332
 20
5.511177223499983
 10
28.44132283636665
 20
5.156572756366627
 10
28.38418557026668
 20
4.793906719833316
 10
28.33197263216667
 20
4.424439063199983
 10
28.28470352586666
 20
4.051935772633314
 10
28.24250575139999
 20
3.676507683233281
 10
28.20525180876669
 20
3.298315922433275
 10
28.17257870156666
 20
2.921305791799951
 10
28.1443654311
 20
2.546927778166646
 10
28.12073299606666
 20
2.174089703199953
 10
28.10168139653334
 20
1.802957235399944
  0
LINE
  5
221A4
330
1F
100
AcDbEntity
  8
1
100
AcDbLine
 10
33.69750401896667
 20
-15.37623805190004
 30
0.0
 11
34.56497467109997
 21
-15.85368054506672
 31
0.0
  0
LINE
  5
221A5
330
1F
100
AcDbEntity
  8
1
100
AcDbLine
 10
38.9801201817667
 20
1.302957235399944
 30
0.0
 11
28.64155787439998
 21
1.302957235399944
 31
0.0
  0
LINE
  5
221A6
330
1F
100
AcDbEntity
  8
1
100
AcDbLine
 10
42.99997895949998
 20
1.502957235399988
 30
0.0
 11
33.49826322239997
 21
1.502957235399988
 31
0.0
  0
LINE
  5
221A7
330
1F
100
AcDbEntity
  8
1
100
AcDbLine
 10
40.3888390479
 20
1.52295723539997
 30
0.0
 11
37.78883904789998
 21
1.52295723539997
 31
0.0
  0
LINE
  5
221A8
330
1F
100
AcDbEntity
  8
1
100
AcDbLine
 10
40.9430244016
 20
1.802957235399944
 30
0.0
 11
35.47332779629997
 21
1.802957235399944
 31
0.0
  0
LINE
  5
221A9
330
1F
100
AcDbEntity
  8
1
100
AcDbLine
 10
34.2764272108333
 20
1.802957235399944
 30
0.0
 11
28.10168139653334
 21
1.802957235399944
 31
0.0
  0
LINE
  5
221AA
330
1F
100
AcDbEntity
  8
1
100
AcDbLine
 10
5.000000000000028
 20
14.37499999999998
 30
0.0
 11
5.000000000000028
 21
10.99999999999998
 31
0.0
  0
LINE
  5
221AB
330
1F
100
AcDbEntity
  8
1
100
AcDbLine
 10
5.000000000000028
 20
-11.00000000000001
 30
0.0
 11
5.000000000000028
 21
-14.37500000000001
 31
0.0
  0
LINE
  5
221AC
330
1F
100
AcDbEntity
  8
1
100
AcDbLine
 10
42.47824746863332
 20
-18.61972957000002
 30
0.0
 11
42.44332380419999
 21
-18.60480797213337
 31
0.0
  0
LINE
  5
221AD
330
1F
100
AcDbEntity
  8
1
100
AcDbLine
 10
34.43230218070002
 20
-13.72788511723338
 30
0.0
 11
34.7702543448667
 21
-13.84589835226673
 31
0.0
  0
LINE
  5
221AE
330
1F
100
AcDbEntity
  8
SK1
100
AcDbLine
 10
-1.200000000000017
 20
8.499999999999985
 30
0.0
 11
-0.5171731122333371
 21
8.317037086866646
 31
0.0
  0
LWPOLYLINE
  5
221AF
330
1F
100
AcDbEntity
  8
1
100
AcDbPolyline
 90
        5
 70
     0
 43
0.0
 10
33.05955538250001
 20
1.302957235399944
 10
33.03203603760002
 20
1.307234780966594
 10
33.00498753799999
 20
1.31999423796661
 10
32.97887269026669
 20
1.341017304333306
 10
32.95413832623334
 20
1.369944286333278
  0
LINE
  5
221B0
330
1F
100
AcDbEntity
  8
1
100
AcDbLine
 10
42.59999999999998
 20
12.60442191676661
 30
0.0
 11
42.6453108772
 21
12.61437928716661
 31
0.0
  0
LINE
  5
221B1
330
1F
100
AcDbEntity
  8
1
100
AcDbLine
 10
21.06617625196671
 20
-15.82175218686667
 30
0.0
 11
23.46755595106666
 21
-17.50321635430005
 31
0.0
  0
LWPOLYLINE
  5
221B2
330
1F
100
AcDbEntity
  8
1
100
AcDbPolyline
 90
       14
 70
     0
 43
0.0
 10
33.67769338196669
 20
-15.70412205480006
 10
33.57987370526669
 20
-15.66451468470002
 10
33.48793318206666
 20
-15.6172880459667
 10
33.40187181240001
 20
-15.56244213860004
 10
33.32102075269998
 20
-15.49934609320003
 10
33.24604884649998
 20
-15.42863077920005
 10
33.17896262456665
 20
-15.35218880483337
 10
33.11997503730001
 20
-15.26986552353334
 10
33.06887313433336
 20
-15.18181558186667
 10
33.02702459513333
 20
-15.09039552816672
 10
32.99467930386666
 20
-14.99551435360003
 10
32.97158737636667
 20
-14.89726306696669
 10
32.95836683966664
 20
-14.79827124296669
 10
32.95510614903335
 20
-14.71600374703338
  0
LWPOLYLINE
  5
221B3
330
1F
100
AcDbEntity
  8
1
100
AcDbPolyline
 90
       33
 70
     0
 43
0.0
 10
38.71856262713331
 20
-16.0291362533667
 10
38.72178271563335
 20
-16.03029308360006
 10
38.785839477
 20
-16.05017446613335
 10
38.85068797603336
 20
-16.06724151753339
 10
38.91632947966665
 20
-16.08150826433338
 10
38.98261484550003
 20
-16.09294549933339
 10
39.04933936953333
 20
-16.10152486596668
 10
39.11642954286666
 20
-16.10724252873332
 10
39.18370555206664
 20
-16.11008581570003
 10
39.2509909325
 20
-16.11005364856669
 10
39.31821937426665
 20
-16.10714889760005
 10
39.38521376300001
 20
-16.10137860183336
 10
39.45179699043335
 20
-16.09276113013335
 10
39.51790184093332
 20
-16.08130497410003
 10
39.58332561400002
 20
-16.06704346663333
 10
39.64792277483335
 20
-16.0500102903667
 10
39.71170409890002
 20
-16.03019366946672
 10
39.774534613
 20
-16.00761420553336
 10
39.83619669010002
 20
-15.98233232493335
 10
39.89656845836666
 20
-15.9543831010334
 10
39.95542975930002
 20
-15.92385744383337
 10
40.01266849253332
 20
-15.89080623053338
 10
40.06830886566663
 20
-15.85519008330006
 10
40.12218307830003
 20
-15.81707557616671
 10
40.17411624566668
 20
-15.7765482898334
 10
40.22408955106667
 20
-15.73357052940004
 10
40.27195514336668
 20
-15.6881964459334
 10
40.31750817196669
 20
-15.64054764943337
 10
40.36062500310001
 20
-15.59067830266669
 10
40.40108092326668
 20
-15.5387764330667
 10
40.438788118
 20
-15.48488114523339
 10
40.47378131106667
 20
-15.42880300086672
 10
40.49812822560002
 20
-15.3846685816667
  0
LINE
  5
221B4
330
1F
100
AcDbEntity
  8
1
100
AcDbLine
 10
34.56497467109997
 20
-15.85368054506672
 30
0.0
 11
42.44332380419999
 21
-18.60480797213337
 31
0.0
  0
LINE
  5
221B5
330
1F
100
AcDbEntity
  8
1
100
AcDbLine
 10
38.9801201817667
 20
-17.42892755266668
 30
0.0
 11
34.8882215970667
 21
-16.00003245866669
 31
0.0
  0
LINE
  5
221B6
330
1F
100
AcDbEntity
  8
1
100
AcDbLine
 10
34.27559687176668
 20
-15.91291055373337
 30
0.0
 11
33.67769338196669
 21
-15.70412205480006
 31
0.0
  0
LINE
  5
221B7
330
1F
100
AcDbEntity
  8
1
100
AcDbLine
 10
39.00259689096666
 20
-17.81837733480007
 30
0.0
 11
42.6453108772
 21
-19.09041671603337
 31
0.0
  0
LINE
  5
221B8
330
1F
100
AcDbEntity
  8
SK1
100
AcDbLine
 10
-8.948286437599987
 20
6.66249999999995
 30
0.0
 11
-6.999999999999971
 21
6.66249999999995
 31
0.0
  0
LINE
  5
221B9
330
1F
100
AcDbEntity
  8
SK1
100
AcDbLine
 10
-23.1
 20
7.999999999999985
 30
0.0
 11
-10.70000000000002
 21
7.999999999999985
 31
0.0
  0
LINE
  5
221BA
330
1F
100
AcDbEntity
  8
SK1
100
AcDbLine
 10
-0.3877635896666618
 20
8.29999999999994
 30
0.0
 11
-0.200000000000017
 21
8.29999999999994
 31
0.0
  0
LINE
  5
221BB
330
1F
100
AcDbEntity
  8
SK1
100
AcDbLine
 10
-5.499999999999971
 20
8.499999999999985
 30
0.0
 11
-1.200000000000017
 21
8.499999999999985
 31
0.0
  0
LINE
  5
221BC
330
1F
100
AcDbEntity
  8
1
100
AcDbLine
 10
42.33159597133331
 20
18.16128693906664
 30
0.0
 11
41.07384247546664
 21
17.72534332563326
 31
0.0
  0
LINE
  5
221BD
330
1F
100
AcDbEntity
  8
1
100
AcDbLine
 10
40.62101816809998
 20
17.69662732966661
 30
0.0
 11
42.6453108772
 21
18.39963296196662
 31
0.0
  0
LINE
  5
221BE
330
1F
100
AcDbEntity
  8
1
100
AcDbLine
 10
38.94764965793335
 20
18.19016024496663
 30
0.0
 11
42.44332380419999
 21
19.40415395373331
 31
0.0
  0
LINE
  5
221C0
330
1F
100
AcDbEntity
  8
1
100
AcDbLine
 10
21.06617625196671
 20
15.82175218686664
 30
0.0
 11
23.46755595106666
 21
17.50321635429996
 31
0.0
  0
LINE
  5
221C1
330
1F
100
AcDbEntity
  8
1
100
AcDbLine
 10
0.5000000000000285
 20
14.37499999999998
 30
0.0
 11
0.5000000000000285
 21
-14.37500000000001
 31
0.0
  0
LINE
  5
221C2
330
1F
100
AcDbEntity
  8
1
100
AcDbLine
 10
0.0000000000000284
 20
13.87499999999998
 30
0.0
 11
0.0000000000000284
 21
-13.87500000000001
 31
0.0
  0
LINE
  5
221C3
330
1F
100
AcDbEntity
  8
SK1
100
AcDbLine
 10
-10.70000000000002
 20
7.999999999999985
 30
0.0
 11
-9.655393218799957
 21
6.955393218799925
 31
0.0
  0
LINE
  5
221C4
330
1F
100
AcDbEntity
  8
1
100
AcDbLine
 10
42.44332380419999
 20
-18.60480797213337
 30
0.0
 11
42.48012613653336
 21
-18.61562324983335
 31
0.0
  0
LINE
  5
221C5
330
1F
100
AcDbEntity
  8
1
100
AcDbLine
 10
40.46348006406666
 20
1.502957235399988
 30
0.0
 11
40.3888390479
 21
1.52295723539997
 31
0.0
  0
LINE
  5
221C6
330
1F
100
AcDbEntity
  8
1
100
AcDbLine
 10
16.00000000000003
 20
10.99999999999998
 30
0.0
 11
5.000000000000028
 21
10.99999999999998
 31
0.0
  0
LWPOLYLINE
  5
221C7
330
1F
100
AcDbEntity
  8
1
100
AcDbPolyline
 90
       13
 70
     0
 43
0.0
 10
42.33159597133331
 20
18.16128693906664
 10
42.36344844143334
 20
18.1693460555666
 10
42.39476194276668
 20
18.17265499819994
 10
42.42553647536666
 20
18.17121376699997
 10
42.45655932256666
 20
18.16476053149994
 10
42.48704320106664
 20
18.15355712213328
 10
42.51462626066667
 20
18.13838903029999
 10
42.53905765213332
 20
18.11890233786663
 10
42.56058822476669
 20
18.09545096289996
 10
42.57760867606664
 20
18.06988215126664
 10
42.589582572
 20
18.04281165153325
 10
42.59704634663332
 20
18.01362371509997
 10
42.59999999999998
 20
17.98231834196666
  0
LINE
  5
221C9
330
1F
100
AcDbEntity
  8
1
100
AcDbLine
 10
42.44332380419999
 20
19.40415395373331
 30
0.0
 11
42.48012613653336
 21
19.41490987673329
 31
0.0
  0
LINE
  5
221CB
330
1F
100
AcDbEntity
  8
SK1
100
AcDbLine
 10
-10.70000000000002
 20
-8.000000000000012
 30
0.0
 11
-9.655393218799957
 21
-6.955393218800067
 31
0.0
  0
LINE
  5
221CC
330
1F
100
AcDbEntity
  8
SK1
100
AcDbLine
 10
-1.200000000000017
 20
8.499999999999985
 30
0.0
 11
-1.200000000000017
 21
-8.500000000000012
 31
0.0
  0
LINE
  5
221CD
330
1F
100
AcDbEntity
  8
SK1
100
AcDbLine
 10
-5.499999999999971
 20
8.499999999999985
 30
0.0
 11
-5.499999999999971
 21
-8.500000000000012
 31
0.0
  0
LINE
  5
221CE
330
1F
100
AcDbEntity
  8
SK1
100
AcDbLine
 10
-5.999999999999971
 20
8.211324865399987
 30
0.0
 11
-5.999999999999971
 21
-8.211324865400015
 31
0.0
  0
LINE
  5
221CF
330
1F
100
AcDbEntity
  8
SK1
100
AcDbLine
 10
-5.999999999999971
 20
-8.211324865400015
 30
0.0
 11
-5.499999999999971
 21
-8.500000000000012
 31
0.0
  0
LINE
  5
221D0
330
1F
100
AcDbEntity
  8
1
100
AcDbLine
 10
0.5000000000000285
 20
14.37499999999998
 30
0.0
 11
5.000000000000028
 21
14.37499999999998
 31
0.0
  0
LINE
  5
221D1
330
1F
100
AcDbEntity
  8
1
100
AcDbLine
 10
16.00000000000003
 20
14.37499999999998
 30
0.0
 11
16.50000000000003
 21
14.37499999999998
 31
0.0
  0
LINE
  5
221D2
330
1F
100
AcDbEntity
  8
1
100
AcDbLine
 10
42.47824746863332
 20
19.40922396146662
 30
0.0
 11
42.44332380419999
 21
19.40415395373331
 31
0.0
  0
LINE
  5
221D3
330
1F
100
AcDbEntity
  8
SK1
100
AcDbLine
 10
-5.999999999999971
 20
8.211324865399987
 30
0.0
 11
-5.499999999999971
 21
8.499999999999985
 31
0.0
  0
LINE
  5
221D4
330
1F
100
AcDbEntity
  8
1
100
AcDbLine
 10
0.0000000000000284
 20
-13.87500000000001
 30
0.0
 11
0.5000000000000285
 21
-14.37500000000001
 31
0.0
  0
LINE
  5
221D5
330
1F
100
AcDbEntity
  8
1
100
AcDbLine
 10
38.72181000426664
 20
17.69662732966661
 30
0.0
 11
40.90283240379998
 21
17.69662732966661
 31
0.0
  0
LINE
  5
221D6
330
1F
100
AcDbEntity
  8
1
100
AcDbLine
 10
38.75818020036664
 20
18.38250469196667
 30
0.0
 11
28.64155787439998
 21
18.38250469196667
 31
0.0
  0
LWPOLYLINE
  5
221D7
330
1F
100
AcDbEntity
  8
1
100
AcDbPolyline
 90
        7
 70
     0
 43
0.0
 10
40.90283240379998
 20
17.69662732966661
 10
40.93202899663335
 20
17.69744916993328
 10
40.96094762376664
 20
17.69985667379994
 10
40.98958828519996
 20
17.70384984133328
 10
41.01795098096667
 20
17.70942867246661
 10
41.04603571106664
 20
17.71659316723331
 10
41.07384247546664
 20
17.72534332563326
  0
LWPOLYLINE
  5
221D8
330
1F
100
AcDbEntity
  8
1
100
AcDbPolyline
 90
       10
 70
     0
 43
0.0
 10
28.56956397433331
 20
18.94999999999997
 10
28.49047409476666
 20
18.9449644041333
 10
28.41827785626666
 20
18.92957884076666
 10
28.35297525886668
 20
18.90342533813326
 10
28.29472351516668
 20
18.86607537069993
 10
28.24336541253334
 20
18.81711915926665
 10
28.19842931313335
 20
18.75619604263327
 10
28.15975800436664
 20
18.68294420913331
 10
28.12750869883334
 20
18.59697211979993
 10
28.10168139653334
 20
18.49790856036661
  0
LINE
  5
221D9
330
1F
100
AcDbEntity
  8
1
100
AcDbLine
 10
0.0000000000000284
 20
13.87499999999998
 30
0.0
 11
0.5000000000000285
 21
14.37499999999998
 31
0.0
  0
LINE
  5
221DA
330
1F
100
AcDbEntity
  8
SK1
100
AcDbLine
 10
-9.700000000000015
 20
-7.000000000000013
 30
0.0
 11
-9.700000000000015
 21
6.999999999999985
 31
0.0
  0
LINE
  5
221DB
330
1F
100
AcDbEntity
  8
SK1
100
AcDbLine
 10
-10.70000000000002
 20
7.999999999999985
 30
0.0
 11
-10.70000000000002
 21
-8.000000000000012
 31
0.0
  0
LINE
  5
221DC
330
1F
100
AcDbEntity
  8
1
100
AcDbLine
 10
28.05616744189999
 20
18.94999999999997
 30
0.0
 11
28.56956397433331
 21
18.94999999999997
 31
0.0
  0
LWPOLYLINE
  5
221DE
330
1F
100
AcDbEntity
  8
1
100
AcDbPolyline
 90
        8
 70
     0
 43
0.0
 10
28.26436716356667
 20
18.41459704773329
 10
28.30767827023331
 20
18.40668786916659
 10
28.35555231336665
 20
18.39970069646664
 10
28.40771272633336
 20
18.39366294329998
 10
28.46255403623334
 20
18.38888117623331
 10
28.51954108536668
 20
18.38546879399995
 10
28.57920903143336
 20
18.38334090403326
 10
28.64155787439998
 20
18.38250469196667
  0
LINE
  5
221DF
330
1F
100
AcDbEntity
  8
SK1
100
AcDbLine
 10
-23.1
 20
7.999999999999985
 30
0.0
 11
-23.1
 21
-8.000000000000012
 31
0.0
  0
LINE
  5
221E0
330
1F
100
AcDbEntity
  8
SK1
100
AcDbLine
 10
-23.99999999999997
 20
6.441154273199956
 30
0.0
 11
-23.99999999999997
 21
-6.441154273200041
 31
0.0
  0
LINE
  5
221E1
330
1F
100
AcDbEntity
  8
SK1
100
AcDbLine
 10
-23.99999999999997
 20
-6.441154273200041
 30
0.0
 11
-23.1
 21
-8.000000000000012
 31
0.0
  0
LINE
  5
221E2
330
1F
100
AcDbEntity
  8
SK1
100
AcDbLine
 10
-23.99999999999997
 20
6.441154273199956
 30
0.0
 11
-23.1
 21
7.999999999999985
 31
0.0
  0
LWPOLYLINE
  5
221E3
330
1F
100
AcDbEntity
  8
CUT
100
AcDbPolyline
 90
      183
 70
     0
 43
0.0
 10
42.99997900000001
 20
19.60234000000001
 10
41.550848
 20
10.39175199999998
 10
41.54224100000003
 20
10.35462099999993
 10
41.53907296775999
 20
10.34198793991997
 10
41.53550700000002
 20
10.32946100000002
 10
41.53158076168003
 20
10.31716744137996
 10
41.52726299999996
 20
10.30500599999998
 10
41.52257899306002
 20
10.29305223021997
 10
41.51750899999997
 20
10.28125699999997
 10
41.51204422890001
 20
10.26960942517995
 10
41.50620299999999
 20
10.25814599999999
 10
41.49995236126001
 20
10.24680287907993
 10
41.493341
 20
10.23566600000002
 10
41.48638918761999
 20
10.22476120446002
 10
41.47909000000001
 20
10.21408599999994
 10
41.47149143946004
 20
10.20371545579995
 10
41.463559
 20
10.19359799999993
 10
41.45525179840004
 20
10.18368539927995
 10
41.44663
 20
10.17404499999996
 10
41.43770507538002
 20
10.16468121868
 10
41.42848599999999
 20
10.15560700000001
 10
41.41904334727999
 20
10.14689247299996
 10
41.409323
 20
10.13848899999998
 10
41.39928982413997
 20
10.13037367115997
 10
41.38899999999997
 20
10.12258599999994
 10
41.37844829844
 20
10.11511381263993
 10
41.36766500000002
 20
10.10797999999998
 10
41.35672795057999
 20
10.10123515830001
 10
41.345579
 20
10.09484699999994
 10
41.33421135160003
 20
10.08881863518
 10
41.32265500000002
 20
10.08316
 10
41.31088152281997
 20
10.07785143763998
 10
41.29894600000002
 20
10.07291799999994
 10
41.28691506565998
 20
10.06838523489999
 10
41.27474500000002
 20
10.06424100000002
 10
41.26247560408002
 20
10.06050377323997
 10
41.25009200000002
 20
10.05716399999998
 10
41.23754222434004
 20
10.05420560840001
 10
41.224905
 20
10.05164599999999
 10
41.21222658586001
 20
10.04949100681993
 10
41.19948599999999
 20
10.04774199999995
 10
41.18675963927997
 20
10.04641314763999
 10
41.173997
 20
10.04549499999994
 10
41.16113742274004
 20
10.04498359417998
 10
41.148268
 20
10.04488100000002
 10
41.13541138226
 20
10.04518359797997
 10
41.12257100000002
 20
10.04589499999996
 10
41.10984017344001
 20
10.04701163337994
 10
41.09715200000002
 20
10.04853799999999
 10
41.08445528812004
 20
10.05048379947997
 10
41.071827
 20
10.05283399999995
 10
41.05926465697999
 20
10.05558392926001
 10
41.04679599999999
 20
10.05873099999995
 10
41.03451512849996
 20
10.06225223943998
 10
41.02235399999996
 20
10.06616699999993
 10
41.01035282877997
 20
10.07046367125996
 10
40.99849600000001
 20
10.07514400000001
 10
40.98673704493998
 20
10.08022586715997
 10
40.97514500000002
 20
10.08567800000001
 10
40.96362859248002
 20
10.09154455546
 10
40.952302
 20
10.09776899999994
 10
40.08619699999999
 20
10.59406699999998
 10
33.65561299999999
 20
15.94235300000001
 10
33.62741800000002
 20
15.96845399999994
 10
33.61794480749998
 20
15.97753953123997
 10
33.60876099999999
 20
15.98691799999999
 10
33.59996428899999
 20
15.99648727381996
 10
33.59147599999996
 20
16.00633099999997
 10
33.58335517086002
 20
16.01638257397995
 10
33.57556300000002
 20
16.02669100000001
 10
33.56810023866004
 20
16.03726183547995
 10
33.56098399999999
 20
16.04806899999998
 10
33.55418004482002
 20
16.05916508734002
 10
33.54773400000002
 20
16.07047299999998
 10
33.54166359266
 20
16.08195257323994
 10
33.535965
 20
16.09362099999997
 10
33.53068485129998
 20
16.10538959287997
 10
33.525791
 20
16.11732399999998
 10
33.52126610377999
 20
16.12947318722
 10
33.51713500000002
 20
16.14176199999995
 10
33.51339895193999
 20
16.15416891784001
 10
33.51006199999999
 20
16.166689
 10
33.50715303107998
 20
16.17921547441993
 10
33.50465399999999
 20
16.19182999999997
 10
33.50256435860004
 20
16.20456435123996
 10
33.500889
 20
16.21735999999997
 10
33.49962119108003
 20
16.23021804912001
 10
33.49876500000002
 20
16.24310999999998
 10
33.49832644114
 20
16.25593534139999
 10
33.49830599999999
 20
16.26876800000001
 10
33.49870976956001
 20
16.28160391281999
 10
33.49953200000002
 20
16.29441999999999
 10
33.50076953754004
 20
16.30724359093999
 10
33.50241700000001
 20
16.32002099999998
 10
33.50446248163998
 20
16.33267715379996
 10
33.50691800000002
 20
16.34525999999998
 10
33.50977927087999
 20
16.35772197977995
 10
33.51304600000001
 20
16.370084
 10
33.51672922988
 20
16.38239579671999
 10
33.52080600000002
 20
16.394583
 10
33.52525818486001
 20
16.40660127479996
 10
33.53009699999998
 20
16.41846899999994
 10
33.53529627966
 20
16.43011396051996
 10
33.54087300000001
 20
16.44158300000002
 10
33.54685520656004
 20
16.45293126727993
 10
33.55319999999998
 20
16.46408099999995
 10
33.55989406832001
 20
16.47501724519996
 10
33.56693700000003
 20
16.48573199999997
 10
33.57428109584001
 20
16.49614953745997
 10
33.58196100000001
 20
16.50632199999994
 10
33.59001460256005
 20
16.51629401117996
 10
33.59838600000003
 20
16.52600099999993
 10
33.60707665838001
 20
16.53545190765997
 10
33.61606600000002
 20
16.544619
 10
33.62529224926002
 20
16.55343811703999
 10
33.63480000000001
 20
16.561953
 10
33.64456599953999
 20
16.57014174619995
 10
33.65459200000001
 20
16.57800999999993
 10
33.66492457735998
 20
16.58559422912002
 10
33.675494
 20
16.592845
 10
33.6863920964
 20
16.59982425216002
 10
33.69750400000001
 20
16.60645699999996
 10
34.56497500000003
 20
17.10372599999998
 10
42.44332399999999
 20
19.97102899999997
 10
42.48012600000001
 20
19.98230599999998
 10
42.49276769951999
 20
19.98593626965997
 10
42.50551700000002
 20
19.98916999999998
 10
42.51823986456
 20
19.99197457718002
 10
42.53104499999998
 20
19.99437499999998
 10
42.54384999572002
 20
19.99635433358001
 10
42.55671199999997
 20
19.997921
 10
42.56963979195997
 20
19.9990723293
 10
42.58259799999999
 20
19.99980600000002
 10
42.59565265966003
 20
20.00012518790002
 10
42.608711
 20
20.00002899999997
 10
42.62173199266
 20
19.99952229079996
 10
42.63473000000002
 20
19.99859999999999
 10
42.64760698509999
 20
19.99726623165996
 10
42.66043400000003
 20
19.99551599999994
 10
42.67326456634001
 20
19.99333937191998
 10
42.68601900000001
 20
19.99075299999997
 10
42.6986787456
 20
19.98776658797997
 10
42.71123700000001
 20
19.98437899999997
 10
42.72358669062001
 20
19.98061849422002
 10
42.73580799999999
 20
19.97645999999996
 10
42.74792880548003
 20
19.97188833547999
 10
42.75989599999999
 20
19.96692799999998
 10
42.7717134424
 20
19.96158397165998
 10
42.78335499999999
 20
19.955867
 10
42.79472785882004
 20
19.94982394759994
 10
42.80589899999998
 20
19.94341599999994
 10
42.81686069882002
 20
19.93664053676001
 10
42.82759699999998
 20
19.92951299999997
 10
42.83813089190002
 20
19.92202381693998
 10
42.848421
 20
19.91420299999997
 10
42.85840524151999
 20
19.90610080871998
 10
42.86812199999999
 20
19.89768000000002
 10
42.87752870506003
 20
19.88897034839998
 10
42.88664699999999
 20
19.87995899999997
 10
42.89551223795998
 20
19.87061444953996
 10
42.90407400000001
 20
19.860991
 10
42.91229947235999
 20
19.85113022133997
 10
42.92020199999997
 20
19.84100899999997
 10
42.92772812682002
 20
19.83069042651998
 10
42.93491400000002
 20
19.82013199999999
 10
42.94179175007999
 20
19.80928537941996
 10
42.94831699999999
 20
19.79822299999999
 10
42.95448000590002
 20
19.78696885039999
 10
42.96027699999998
 20
19.77552200000001
 10
42.96566396845999
 20
19.76396579219998
 10
42.97067100000001
 20
19.75224000000001
 10
42.97531586512
 20
19.74029456167999
 10
42.97957199999999
 20
19.72820499999999
 10
42.98344463800001
 20
19.71597002587997
 10
42.98692200000002
 20
19.70361699999999
 10
42.98997835726001
 20
19.69123645851998
 10
42.99262999999998
 20
19.67876299999999
 10
42.99486789354003
 20
19.66623158553999
 10
42.99669700000001
 20
19.653634
 10
42.99812548748
 20
19.64091667825998
 10
42.99914600000001
 20
19.62815999999996
 10
42.99976636042
 20
19.61525637451994
 10
42.99997900000001
 20
19.60234000000001
  0
LINE
  5
221E5
330
1F
100
AcDbEntity
  8
3
100
AcDbLine
 10
19.00000000000003
 20
2.999999999999984
 30
0.0
 11
19.27240806443333
 21
2.25156499409995
 31
0.0
  0
LINE
  5
221E6
330
1F
100
AcDbEntity
  8
3
100
AcDbLine
 10
19.68915406363331
 20
1.106564771666612
 30
0.0
 11
20.09191070279999
 21
-0.0000000000000142
 31
0.0
  0
LINE
  5
221E7
330
1F
100
AcDbEntity
  8
3
100
AcDbLine
 10
19.00000000000003
 20
-3.000000000000013
 30
0.0
 11
19.09041585803336
 21
-2.751584471700041
 31
0.0
  0
LINE
  5
221E8
330
1F
100
AcDbEntity
  8
3
100
AcDbLine
 10
19.75399553316666
 20
-0.9284142983333508
 30
0.0
 11
20.09191070279999
 21
-0.0000000000000142
 31
0.0
  0
LINE
  5
221E9
330
1F
100
AcDbEntity
  8
3
100
AcDbLine
 10
35.9624819629
 20
-12.78154271373337
 30
0.0
 11
19.75667877726667
 21
-0.8600323243000643
 31
0.0
  0
LINE
  5
221EA
330
1F
100
AcDbEntity
  8
3
100
AcDbLine
 10
33.89457468883333
 20
-13.74318861630003
 30
0.0
 11
19.05328494366668
 21
-2.825458229033371
 31
0.0
  0
LINE
  5
221EB
330
1F
100
AcDbEntity
  8
3
100
AcDbLine
 10
-22.49999999999997
 20
-3.000000000000013
 30
0.0
 11
19.00000000000003
 21
-3.000000000000013
 31
0.0
  0
LINE
  5
221EC
330
1F
100
AcDbEntity
  8
3
100
AcDbLine
 10
-22.49999999999997
 20
2.999999999999984
 30
0.0
 11
19.00000000000003
 21
2.999999999999984
 31
0.0
  0
ARC
  5
221ED
330
1F
100
AcDbEntity
  8
1
100
AcDbCircle
 10
28.05616744189999
 20
-10.95000000000006
 30
0.0
 40
8.0
100
AcDbArc
 50
235.0000000000008
 51
270.0
  0
ARC
  5
221EE
330
1F
100
AcDbEntity
  8
1
100
AcDbCircle
 10
28.05616744189999
 20
10.94999999999997
 30
0.0
 40
8.0
100
AcDbArc
 50
90.0
 51
124.9999999999992
  0
ARC
  5
221EF
330
1F
100
AcDbEntity
  8
1
100
AcDbCircle
 10
16.47756476113332
 20
22.37496854119995
 30
0.0
 40
8.0
100
AcDbArc
 50
270.1606807730017
 51
304.9999999999991
  0
ARC
  5
221F0
330
1F
100
AcDbEntity
  8
1
100
AcDbCircle
 10
16.47756476113332
 20
-22.37496854120003
 30
0.0
 40
8.0
100
AcDbArc
 50
55.00000000000084
 51
89.83931922699822
  0
ARC
  5
221F1
330
1F
100
AcDbEntity
  8
SK1
100
AcDbCircle
 10
-8.948286437599987
 20
7.66249999999995
 30
0.0
 40
1.0
100
AcDbArc
 50
225.0
 51
270.0
  0
ARC
  5
221F2
330
1F
100
AcDbEntity
  8
SK1
100
AcDbCircle
 10
-8.948286437599987
 20
-7.662500000000036
 30
0.0
 40
1.0
100
AcDbArc
 50
90.0
 51
135.0
  0
ARC
  5
221F3
330
1F
100
AcDbEntity
  8
SK1
100
AcDbCircle
 10
-6.999999999999971
 20
7.66249999999995
 30
0.0
 40
1.0
100
AcDbArc
 50
270.0
 51
0.0
  0
ARC
  5
221F4
330
1F
100
AcDbEntity
  8
SK1
100
AcDbCircle
 10
-6.999999999999971
 20
-7.662500000000036
 30
0.0
 40
1.0
100
AcDbArc
 50
0.0
 51
90.0
  0
ARC
  5
221F5
330
1F
100
AcDbEntity
  8
SK1
100
AcDbCircle
 10
-0.3877635896666618
 20
8.799999999999938
 30
0.0
 40
0.5
100
AcDbArc
 50
254.9999999999988
 51
270.0
  0
ARC
  5
221F6
330
1F
100
AcDbEntity
  8
SK1
100
AcDbCircle
 10
-0.3877635896666618
 20
-8.800000000000025
 30
0.0
 40
0.5
100
AcDbArc
 50
90.0
 51
105.0000000000011
  0
ARC
  5
221F7
330
1F
100
AcDbEntity
  8
SK1
100
AcDbCircle
 10
-0.200000000000017
 20
8.799999999999938
 30
0.0
 40
0.5
100
AcDbArc
 50
270.0
 51
293.5955953223989
  0
ARC
  5
221F8
330
1F
100
AcDbEntity
  8
SK1
100
AcDbCircle
 10
-0.200000000000017
 20
-8.800000000000025
 30
0.0
 40
0.5
100
AcDbArc
 50
66.40440467760106
 51
90.0
  0
ELLIPSE
  5
221F9
330
1F
100
AcDbEntity
  8
1
100
AcDbEllipse
 10
42.22023033893335
 20
-1.766605411133369
 30
0.0
 11
0.2417701498666666
 21
3.257618735566667
 31
0.0
210
0.0
220
0.0
230
-1.0
 40
0.1155738096
 41
0.0437825656
 42
1.317415959099998
  0
ELLIPSE
  5
221FA
330
1F
100
AcDbEntity
  8
1
100
AcDbEllipse
 10
42.59732765419996
 20
-12.57240429210005
 30
0.0
 11
-0.4026505055000002
 21
0.0016813712666667
 31
0.0
210
0.0
220
0.0
230
-1.0
 40
0.5773766806000002
 41
3.137825171999998
 42
5.0053274717
  0
ELLIPSE
  5
221FB
330
1F
100
AcDbEntity
  8
1
100
AcDbEllipse
 10
41.15242606400002
 20
-7.224966932200017
 30
0.0
 11
-0.400089483
 21
0.0009046623
 31
0.0
210
0.0
220
0.0
230
-1.0
 40
0.5847992650000001
 41
1.5560842657
 42
2.913148153699998
  0
ELLIPSE
  5
221FC
330
1F
100
AcDbEntity
  8
1
100
AcDbEllipse
 10
41.22172338919996
 20
-4.79279008336671
 30
0.0
 11
-0.3302173781
 21
2.394401660266665
 31
0.0
210
0.0
220
0.0
230
-0.9999999999999998
 40
0.0155573193
 41
-2.990666626799998
 42
-2.152372544899999
  0
ELLIPSE
  5
221FD
330
1F
100
AcDbEntity
  8
1
100
AcDbEllipse
 10
42.59732765419996
 20
10.56110689323326
 30
0.0
 11
-0.4026502200333334
 21
-0.0018094888333333
 31
0.0
210
0.0
220
0.0
230
-1.0
 40
0.5983670156000003
 41
3.0553083162
 42
3.145638177599998
  0
ELLIPSE
  5
221FE
330
1F
100
AcDbEntity
  8
1
100
AcDbEllipse
 10
41.15242606400002
 20
5.019257817166631
 30
0.0
 11
-0.4000893963666667
 21
-0.0009750707
 31
0.0
210
0.0
220
0.0
230
-1.0
 40
0.6060600195000001
 41
-2.912993424499998
 42
-1.4245527793
  0
ELLIPSE
  5
221FF
330
1F
100
AcDbEntity
  8
1
100
AcDbEllipse
 10
41.22172338919996
 20
7.868419741899955
 30
0.0
 11
-0.3184335861999999
 21
2.890282161166666
 31
0.0
210
0.0
220
0.0
230
-0.9999999999999998
 40
0.0328799887
 41
-3.168358055799998
 42
-1.973554825699999
  0
ELLIPSE
  5
22200
330
1F
100
AcDbEntity
  8
1
100
AcDbEllipse
 10
42.31129510399997
 20
12.47886537896663
 30
0.0
 11
-0.4026502200333334
 21
-0.0018094888333333
 31
0.0
210
0.0
220
0.0
230
-1.0
 40
0.5983670156000003
 41
8.834954578599997
 42
9.4288234847
  0
ELLIPSE
  5
22201
330
1F
100
AcDbEntity
  8
1
100
AcDbEllipse
 10
42.59732765419996
 20
19.0511753170333
 30
0.0
 11
-0.4023190645999998
 21
-0.0173072093333334
 31
0.0
210
0.0
220
0.0
230
-1.0
 40
0.9454344199999999
 41
1.316095731599999
 42
3.183598031199998
  0
ELLIPSE
  5
22202
330
1F
100
AcDbEntity
  8
1
100
AcDbEllipse
 10
42.31129510399997
 20
18.18547847846661
 30
0.0
 11
-0.4023190645999998
 21
-0.0173072093333334
 31
0.0
210
0.0
220
0.0
230
-1.0
 40
0.9454344199999999
 41
2.589729124999998
 42
3.183598031199998
  0
ELLIPSE
  5
22203
330
1F
100
AcDbEntity
  8
1
100
AcDbEllipse
 10
42.22023033893335
 20
17.90986481436663
 30
0.0
 11
0.2861170008666665
 21
1.498860238533331
 31
0.0
210
0.0
220
0.0
230
-0.9999999999999998
 40
0.2295103013
 41
6.2040226371
 42
7.477656030599999
  0
ELLIPSE
  5
22204
330
1F
100
AcDbEntity
  8
1
100
AcDbEllipse
 10
42.31129510399997
 20
-18.87508045833341
 30
0.0
 11
-0.4022383492333331
 21
0.0191868337
 31
0.0
210
0.0
220
0.0
230
-0.9999999999999996
 40
0.9506302087999998
 41
-2.7773502754
 42
-2.594394420199999
  0
ELLIPSE
  5
22205
330
1F
100
AcDbEntity
  8
1
100
AcDbEllipse
 10
41.15242606400002
 20
-9.443692831066712
 30
0.0
 11
-0.3998787279999999
 21
0.0134949366666667
 31
0.0
210
0.0
220
0.0
230
-1.0
 40
0.9629741931999998
 41
1.014481563399999
 42
2.881983863
  0
ELLIPSE
  5
22206
330
1F
100
AcDbEntity
  8
1
100
AcDbEllipse
 10
42.59732765419996
 20
-18.24988148433336
 30
0.0
 11
-0.4022383492333331
 21
0.0191868337
 31
0.0
210
0.0
220
0.0
230
-0.9999999999999996
 40
0.9506302087999998
 41
3.094921980799998
 42
4.9624242804
  0
ELLIPSE
  5
22207
330
1F
100
AcDbEntity
  8
1
100
AcDbEllipse
 10
33.90003093606666
 20
-15.04343184320005
 30
0.0
 11
-0.4006158806666667
 21
-0.0318626374666667
 31
0.0
210
0.0
220
0.0
230
-1.0
 40
0.9544885252
 41
-0.9667010342999999
 42
0.9008012653999999
  0
ELLIPSE
  5
22208
330
1F
100
AcDbEntity
  8
1
100
AcDbEllipse
 10
42.22023033893335
 20
-19.07412632793337
 30
0.0
 11
0.3232841937333333
 21
0.4160469489999999
 31
0.0
210
0.0
220
0.0
230
-1.0
 40
0.743512889
 41
-0.1928161091
 42
1.080817284399999
  0
ELLIPSE
  5
22209
330
1F
100
AcDbEntity
  8
1
100
AcDbEllipse
 10
66.53509819006663
 20
-11.67775297080005
 30
0.0
 11
-33.51125273290002
 21
27.59107748930001
 31
0.0
210
0.0
220
0.0
230
-1.0
 40
0.1407427303
 41
0.6452234346
 42
0.6552984908
  0
ELLIPSE
  5
2220A
330
1F
100
AcDbEntity
  8
1
100
AcDbEllipse
 10
66.53509819006663
 20
7.13028673903328
 30
0.0
 11
-32.19336240590001
 21
-21.84355131516667
 31
0.0
210
0.0
220
0.0
230
-1.0
 40
0.4616102280000002
 41
-0.4671333443
 42
-0.4120215029
  0
ELLIPSE
  5
2220B
330
1F
100
AcDbEntity
  8
1
100
AcDbEllipse
 10
51.87073475063332
 20
-0.0000000000000142
 30
0.0
 11
-21.22191864273333
 21
-15.67888769919999
 31
0.0
210
0.0
220
0.0
230
-1.0
 40
0.5015131821
 41
-0.7100258974
 42
-0.5963662401
  0
ELLIPSE
  5
2220C
330
1F
100
AcDbEntity
  8
1
100
AcDbEllipse
 10
38.50259689096666
 20
-17.22870217756669
 30
0.0
 11
-0.3558801681
 21
0.7403623352666667
 31
0.0
210
0.0
220
0.0
230
-0.9999999999999998
 40
0.4743774524
 41
-4.221367305799998
 42
-3.920387847799998
  0
ELLIPSE
  5
2220D
330
1F
100
AcDbEntity
  8
1
100
AcDbEllipse
 10
38.50259689096666
 20
18.03560028413328
 30
0.0
 11
-0.1368207681
 21
1.712403333566665
 31
0.0
210
0.0
220
0.0
230
-0.9999999999999998
 40
0.2808426402999999
 41
1.546993916299999
 42
1.792407181199999
  0
ELLIPSE
  5
2220E
330
1F
100
AcDbEntity
  8
1
100
AcDbEllipse
 10
38.50259689096666
 20
1.502957235399988
 30
0.0
 11
-0.1738078286666667
 21
4.072124049366665
 31
0.0
210
0.0
220
0.0
230
-1.0
 40
0.1151287511
 41
-4.6583414632
 42
-4.357362005199998
  0
ELLIPSE
  5
2220F
330
1F
100
AcDbEntity
  8
1
100
AcDbEllipse
 10
66.53509819006663
 20
-0.0000000000000142
 30
0.0
 11
-33.73549525973333
 21
0.0
 31
0.0
210
0.0
220
0.0
230
-1.0
 40
0.7540722058000001
 41
0.7155509138
 42
0.7706627553000001
  0
ELLIPSE
  5
22210
330
1F
100
AcDbEntity
  8
1
100
AcDbEllipse
 10
66.53509819006663
 20
11.74219461576665
 30
0.0
 11
-33.53497141976666
 21
-27.66219119833335
 31
0.0
210
0.0
220
0.0
230
-1.0
 40
0.1327726575
 41
0.8246371140999999
 42
0.8797489555
  0
ELLIPSE
  5
22211
330
1F
100
AcDbEntity
  8
1
100
AcDbEllipse
 10
39.0888390479
 20
12.64510249123331
 30
0.0
 11
1.031040304599998
 21
1.4260473899
 31
0.0
210
0.0
220
0.0
230
-1.0
 40
0.7639823616000001
 41
4.625720829599998
 42
9.5665458902
  0
ELLIPSE
  5
22212
330
1F
100
AcDbEntity
  8
1
100
AcDbEllipse
 10
39.0888390479
 20
-6.503601134800034
 30
0.0
 11
-1.482053619466665
 21
-1.368376311733332
 31
0.0
210
0.0
220
0.0
230
-0.9999999999999998
 40
0.1690599019999999
 41
3.1208555955
 42
5.7668482486
  0
ELLIPSE
  5
22213
330
1F
100
AcDbEntity
  8
1
100
AcDbEllipse
 10
63.44769775963337
 20
-0.0000000000000142
 30
0.0
 11
-40.69658515876664
 21
-18.38128385186666
 31
0.0
210
0.0
220
0.0
230
-0.9999999999999998
 40
0.1132208142
 41
0.7724668214000002
 42
0.9095252420999999
  0
ELLIPSE
  5
22214
330
1F
100
AcDbEntity
  8
1
100
AcDbEllipse
 10
34.92852832586667
 20
-11.91543347843334
 30
0.0
 11
-1.027211110233333
 21
-0.5090445722000001
 31
0.0
210
0.0
220
0.0
230
-1.0
 40
0.2315857768
 41
-0.7740934665000001
 42
4.271694048399998
  0
ELLIPSE
  5
22215
330
1F
100
AcDbEntity
  8
1
100
AcDbEllipse
 10
51.87073475063332
 20
-0.0000000000000142
 30
0.0
 11
-22.46492519906668
 21
-18.65994988443333
 31
0.0
210
0.0
220
0.0
230
-1.0
 40
0.1470222016
 41
1.027800278299999
 42
1.186382853499998
  0
ELLIPSE
  5
22216
330
1F
100
AcDbEntity
  8
1
100
AcDbEllipse
 10
63.44769775963337
 20
-0.0000000000000142
 30
0.0
 11
-40.74976323386666
 21
0.0
 31
0.0
210
0.0
220
0.0
230
-1.0
 40
0.4650333768000002
 41
0.7213732806000001
 42
0.8584317013999999
  0
ELLIPSE
  5
22217
330
1F
100
AcDbEntity
  8
1
100
AcDbEllipse
 10
51.87073475063332
 20
-0.0000000000000142
 30
0.0
 11
-22.63181953429999
 21
0.0
 31
0.0
210
0.0
220
0.0
230
-0.9999999999999998
 40
0.8373166802
 41
0.9062815305
 42
1.064864099599998
  0
ELLIPSE
  5
22218
330
1F
100
AcDbEntity
  8
1
100
AcDbEllipse
 10
34.92852832586667
 20
2.624843204533291
 30
0.0
 11
-0.8704187444666665
 21
-0.5975325573333334
 31
0.0
210
0.0
220
0.0
230
-0.9999999999999998
 40
0.9339412956000002
 41
5.964948696499998
 42
11.0107362114
  0
DIMENSION
  5
22248
330
1F
100
AcDbEntity
  8
SK2
100
AcDbDimension
  2
*D2
 10
0.0000000000000863
 20
30.55270966617718
 30
0.0
 11
-11.99999999999994
 21
32.40377783202397
 31
0.0
 70
    32
 71
     5
 42
24.00000000000006
  3
STANDARD
100
AcDbAlignedDimension
 13
-23.99999999999997
 23
6.441154273199956
 33
0.0
 14
0.0000000000000853
 24
13.87500000000003
 34
0.0
100
AcDbRotatedDimension
  0
DIMENSION
  5
22267
330
1F
100
AcDbEntity
  8
SK2
100
AcDbDimension
  2
*D3
 10
-34.15789926731028
 20
-8.000000000000012
 30
0.0
 11
-36.11104051818871
 21
-0.0000000000000168
 31
0.0
 70
    32
  1
%%C<>
 71
     5
 42
16.0
  3
STANDARD
100
AcDbAlignedDimension
 13
-23.1
 23
7.999999999999985
 33
0.0
 14
-23.1
 24
-8.000000000000012
 34
0.0
 50
90.0
100
AcDbRotatedDimension
  0
DIMENSION
  5
22298
330
1F
100
AcDbEntity
  8
2
100
AcDbDimension
  2
*D4
 10
-45.92280571820853
 20
-14.375
 30
0.0
 11
-47.87594696908696
 21
-0.000000000000036
 31
0.0
 70
    32
  1
%%C29
 71
     5
 42
28.74999999999995
  3
STANDARD
100
AcDbAlignedDimension
 13
0.5000000000000285
 23
14.37499999999993
 33
0.0
 14
0.5000000000000285
 24
-14.37500000000001
 34
0.0
 50
90.0
100
AcDbRotatedDimension
  0
DIMENSION
  5
222D3
330
1F
100
AcDbEntity
  8
2
100
AcDbDimension
  2
*D5
 10
56.61159467344853
 20
19.99999999999998
 30
0.0
 11
54.65845342257011
 21
0.0018228332099784
 31
0.0
 70
    32
  1
%%C40
 71
     5
 42
39.99635433358003
  3
STANDARD
100
AcDbAlignedDimension
 13
42.54384999572002
 23
-19.99635433358004
 33
0.0
 14
43.00000000000003
 24
19.99999999999998
 34
0.0
 50
90.0
100
AcDbRotatedDimension
  0
LWPOLYLINE
  5
2244F
330
1F
100
AcDbEntity
  8
NOCUT
100
AcDbPolyline
 90
       12
 70
     1
 43
0.0
 10
41.07384247530593
 20
18.98015368956577
 10
40.90283240379995
 20
18.95
 10
28.0561674419
 20
18.95
 42
0.1539147210551242
 10
23.4675559512121
 20
17.50321635439628
 10
21.06617625175527
 20
15.82175218678088
 42
-0.1531970873144434
 10
16.49999999996201
 20
14.37500000000828
 10
0.5
 20
14.375
 10
0.0
 20
13.875
 10
0.0
 20
0.0
 10
42.5999999999999
 20
0.0
 10
42.59999999999999
 20
19.25
 42
0.5205670505624798
 10
42.33159597132851
 20
19.43793852415486
  0
VIEWPORT
  5
9C00
102
{ACAD_XDICTIONARY
360
22487
102
}
330
1B
100
AcDbEntity
 67
     1
  8
0
100
AcDbViewport
 10
108.2280559557949
 20
71.69854161746989
 30
0.0
 40
251.8950231529317
 41
201.8884082081047
 68
     1
 69
     1
 12
108.2280559557949
 22
71.69854161746989
 13
0.0
 23
0.0
 14
10.0
 24
10.0
 15
10.0
 25
10.0
 16
0.0
 26
0.0
 36
1.0
 17
0.0
 27
0.0
 37
0.0
 42
50.0
 43
0.0
 44
0.0
 45
201.8884082081047
 50
0.0
 51
0.0
 72
   100
 90
   557088
  1

281
     0
 71
     1
 74
     0
110
0.0
120
0.0
130
0.0
111
1.0
121
0.0
131
0.0
112
0.0
122
1.0
132
0.0
 79
     0
146
0.0
  0
VIEWPORT
  5
9C02
102
{ACAD_XDICTIONARY
360
22489
102
}
330
1B
100
AcDbEntity
 67
     1
  8
1
100
AcDbViewport
 10
143.457083940506
 20
98.18158769607544
 30
0.0
 40
229.5313343048095
 41
157.0905403137207
 68
     2
 69
     2
 12
-44.37697124786255
 22
-35.12342998133886
 13
0.0
 23
0.0
 14
10.0
 24
10.0
 15
10.0
 25
10.0
 16
0.0
 26
0.0
 36
1.0
 17
0.0
 27
0.0
 37
0.0
 42
50.0
 43
0.0
 44
0.0
 45
300.3886240724386
 50
0.0
 51
0.0
 72
   100
 90
   557088
  1

281
     0
 71
     1
 74
     0
110
0.0
120
0.0
130
0.0
111
1.0
121
0.0
131
0.0
112
0.0
122
1.0
132
0.0
 79
     0
146
0.0
  0
ENDSEC
  0
SECTION
  2
OBJECTS
  0
DICTIONARY
  5
3182
330
0
100
AcDbDictionary
281
     1
  3
ACAD_CIP_PREVIOUS_PRODUCT_INFO
350
1B2F4
  3
ACAD_COLOR
350
31A0
  3
ACAD_DETAILVIEWSTYLE
350
1B2F0
  3
ACAD_FIELDLIST
350
20CBF
  3
ACAD_GROUP
350
3183
  3
ACAD_LAYOUT
350
31A5
  3
ACAD_MATERIAL
350
318B
  3
ACAD_MLEADERSTYLE
350
1B221
  3
ACAD_MLINESTYLE
350
3184
  3
ACAD_PLOTSETTINGS
350
31A4
  3
ACAD_PLOTSTYLENAME
350
3189
  3
ACAD_SCALELIST
350
1B1FC
  3
ACAD_SECTIONVIEWSTYLE
350
1B2EE
  3
ACAD_TABLESTYLE
350
31A1
  3
ACAD_VISUALSTYLE
350
318F
  3
ACDB_RECOMPOSE_DATA
350
22460
  3
AcDbVariableDictionary
350
33A3
  3
DWGPROPS
350
22461
  0
DICTIONARY
  5
422A
330
2
100
AcDbDictionary
280
     1
281
     1
  3
ACAD_LAYERFILTERS
360
1B063
  3
ACAD_LAYERSTATES
360
9A1C
  3
ACLYDICTIONARY
360
1B062
  0
DICTIONARY
  5
1B2F5
330
10
100
AcDbDictionary
280
     1
281
     1
  3
ADSK_XREC_LAYER_RECONCILED
360
21B8E
  0
DICTIONARY
  5
1B2F7
330
3F8C
100
AcDbDictionary
280
     1
281
     1
  3
ADSK_XREC_LAYER_RECONCILED
360
21B8F
  0
DICTIONARY
  5
1B2F9
330
9C4A
100
AcDbDictionary
280
     1
281
     1
  3
ADSK_XREC_LAYER_RECONCILED
360
21B90
  0
DICTIONARY
  5
1B2FB
330
9C4B
100
AcDbDictionary
280
     1
281
     1
  3
ADSK_XREC_LAYER_RECONCILED
360
21B91
  0
DICTIONARY
  5
1B2FD
330
9C4D
100
AcDbDictionary
280
     1
281
     1
  3
ADSK_XREC_LAYER_RECONCILED
360
21B92
  0
DICTIONARY
  5
1B2FF
330
9C4E
100
AcDbDictionary
280
     1
281
     1
  3
ADSK_XREC_LAYER_RECONCILED
360
21B93
  0
DICTIONARY
  5
1B301
330
9C4F
100
AcDbDictionary
280
     1
281
     1
  3
ADSK_XREC_LAYER_RECONCILED
360
21B94
  0
DICTIONARY
  5
1B303
330
9C50
100
AcDbDictionary
280
     1
281
     1
  3
ADSK_XREC_LAYER_RECONCILED
360
21B95
  0
DICTIONARY
  5
1B305
330
9C51
100
AcDbDictionary
280
     1
281
     1
  3
ADSK_XREC_LAYER_RECONCILED
360
21B96
  0
DICTIONARY
  5
1B307
330
13335
100
AcDbDictionary
280
     1
281
     1
  3
ADSK_XREC_LAYER_RECONCILED
360
21B97
  0
DICTIONARY
  5
1B309
330
1686E
100
AcDbDictionary
280
     1
281
     1
  3
ADSK_XREC_LAYER_RECONCILED
360
21B98
  0
DICTIONARY
  5
20A84
330
20A83
100
AcDbDictionary
280
     1
281
     1
  3
ADSK_XREC_LAYER_RECONCILED
360
21B99
  0
DICTIONARY
  5
339C
330
1F
100
AcDbDictionary
280
     1
281
     1
  3
ACAD_SORTENTS
360
339D
  0
DICTIONARY
  5
1DE81
330
1B3D7
100
AcDbDictionary
280
     1
281
     1
  3
AcDbBlockTableRecordData
360
224A3
  0
DICTIONARY
  5
22487
330
9C00
100
AcDbDictionary
280
     1
281
     1
  3
ACAD_XREC_ROUNDTRIP
360
22488
  0
DICTIONARY
  5
22489
330
9C02
100
AcDbDictionary
280
     1
281
     1
  3
ACAD_XREC_ROUNDTRIP
360
2248A
  0
XRECORD
  5
1B2F4
102
{ACAD_REACTORS
330
3182
102
}
330
3182
100
AcDbXrecord
280
     1
300
ACDLT
300
2019
300
ACDLT_F_S
  0
DICTIONARY
  5
31A0
102
{ACAD_REACTORS
330
3182
102
}
330
3182
100
AcDbDictionary
281
     1
  0
DICTIONARY
  5
1B2F0
102
{ACAD_REACTORS
330
3182
102
}
330
3182
100
AcDbDictionary
281
     1
  3
Imperial24
350
20CB3
  3
Metric50
350
1B2F1
  0
FIELDLIST
  5
20CBF
102
{ACAD_REACTORS
330
3182
102
}
330
3182
100
AcDbIdSet
 90
        0
100
AcDbFieldList
  0
DICTIONARY
  5
3183
102
{ACAD_REACTORS
330
3182
102
}
330
3182
100
AcDbDictionary
281
     1
  0
DICTIONARY
  5
31A5
102
{ACAD_REACTORS
330
3182
102
}
330
3182
100
AcDbDictionary
281
     1
  3
Layout1
350
31A7
  3
Model
350
31A6
  0
DICTIONARY
  5
318B
102
{ACAD_REACTORS
330
3182
102
}
330
3182
100
AcDbDictionary
281
     1
  3
ByBlock
350
318D
  3
ByLayer
350
318C
  3
Global
350
318E
  0
DICTIONARY
  5
1B221
102
{ACAD_REACTORS
330
3182
102
}
330
3182
100
AcDbDictionary
281
     1
  3
Standard
350
1B2ED
  0
DICTIONARY
  5
3184
102
{ACAD_REACTORS
330
3182
102
}
330
3182
100
AcDbDictionary
281
     1
  3
STANDARD
350
3185
  0
DICTIONARY
  5
31A4
102
{ACAD_REACTORS
330
3182
102
}
330
3182
100
AcDbDictionary
281
     1
  0
ACDBDICTIONARYWDFLT
  5
3189
102
{ACAD_REACTORS
330
3182
102
}
330
3182
100
AcDbDictionary
281
     1
  3
Normal
350
318A
100
AcDbDictionaryWithDefault
340
318A
  0
DICTIONARY
  5
1B1FC
102
{ACAD_REACTORS
330
3182
102
}
330
3182
100
AcDbDictionary
281
     1
  3
A0
350
1B1FD
  3
A1
350
1B1FE
  3
A2
350
1B1FF
  3
A3
350
1B200
  3
A4
350
1B201
  3
A5
350
1B202
  3
A6
350
1B203
  3
A7
350
1B204
  3
A8
350
1B205
  3
A9
350
1B206
  3
B0
350
1B207
  3
B1
350
1B208
  3
B2
350
1B209
  3
B3
350
1B20A
  3
B4
350
1B20B
  3
B5
350
1B20C
  3
B6
350
1B20D
  3
B7
350
1B20E
  3
B8
350
1B20F
  3
B9
350
1B210
  3
C0
350
1B211
  3
C1
350
1B212
  3
C2
350
1B213
  3
C3
350
1B214
  3
C4
350
1B215
  3
C5
350
1B216
  3
C6
350
1B217
  3
C7
350
1B218
  3
C8
350
1B219
  3
C9
350
1B21A
  3
D0
350
1B21B
  3
D1
350
1B21C
  3
D2
350
1B21D
  0
DICTIONARY
  5
1B2EE
102
{ACAD_REACTORS
330
3182
102
}
330
3182
100
AcDbDictionary
281
     1
  3
Imperial24
350
20CB1
  3
Metric50
350
1B2EF
  0
DICTIONARY
  5
31A1
102
{ACAD_REACTORS
330
3182
102
}
330
3182
100
AcDbDictionary
281
     1
  3
Standard
350
31A2
  0
DICTIONARY
  5
318F
102
{ACAD_REACTORS
330
3182
102
}
330
3182
100
AcDbDictionary
281
     1
  3
2dWireframe
350
3195
  3
3D Hidden
350
3197
  3
3dWireframe
350
3196
  3
Basic
350
3194
  3
Brighten
350
319B
  3
ColorChange
350
319F
  3
Conceptual
350
3198
  3
Dim
350
319A
  3
EdgeColorOff
350
1B2EC
  3
Facepattern
350
319E
  3
Flat
350
3190
  3
FlatWithEdges
350
3191
  3
Gouraud
350
3192
  3
GouraudWithEdges
350
3193
  3
Hidden
350
1B2E4
  3
JitterOff
350
1B2EA
  3
Linepattern
350
319D
  3
OverhangOff
350
1B2EB
  3
Realistic
350
3199
  3
Shaded
350
1B2E9
  3
Shaded with edges
350
1B2E8
  3
Shades of Gray
350
1B2E5
  3
Sketchy
350
1B2E6
  3
Thicken
350
319C
  3
Wireframe
350
1B2E3
  3
X-Ray
350
1B2E7
  0
XRECORD
  5
22460
102
{ACAD_REACTORS
330
3182
102
}
330
3182
100
AcDbXrecord
280
     1
 90
        1
330
31A2
  0
DICTIONARY
  5
33A3
102
{ACAD_REACTORS
330
3182
102
}
330
3182
100
AcDbDictionary
281
     1
  3
CANNOSCALE
350
1B222
  3
CMLEADERSTYLE
350
1B30F
  3
CTABLESTYLE
350
33A4
  3
CVIEWDETAILSTYLE
350
1B310
  3
CVIEWSECTIONSTYLE
350
1B311
  3
DIMASSOC
350
9BE8
  3
INDEXCTL
350
9BE7
  3
LAYEREVAL
350
20993
  3
LAYERNOTIFY
350
20994
  3
LIGHTINGUNITS
350
20992
  3
LOFTANG1
350
2245B
  3
LOFTANG2
350
2245C
  3
LONGITUDE
350
2245D
  3
MSLTSCALE
350
20991
  3
SORTENTS
350
9BE6
  3
XCLIPFRAME
350
2245E
  0
XRECORD
  5
22461
102
{ACAD_REACTORS
330
3182
102
}
330
3182
100
AcDbXrecord
280
     1
  1
DWGPROPS COOKIE
  2

  3

  4

  6

  7

  8
ruebsamenm
  9

300
=
301
=
302
=
303
=
304
=
305
=
306
=
307
=
308
=
309
=
 40
0.0811713541666667
 41
2458446.363553241
 42
2458936.546041667
  1

 90
        0
  0
DICTIONARY
  5
1B063
102
{ACAD_REACTORS
330
422A
102
}
330
422A
100
AcDbDictionary
281
     1
  0
DICTIONARY
  5
9A1C
102
{ACAD_REACTORS
330
422A
102
}
330
422A
100
AcDbDictionary
281
     1
  0
DICTIONARY
  5
1B062
102
{ACAD_REACTORS
330
422A
102
}
330
422A
100
AcDbDictionary
281
     1
1001
ACAD
1000
<All
  0
XRECORD
  5
21B8E
102
{ACAD_REACTORS
330
1B2F5
102
}
330
1B2F5
100
AcDbXrecord
280
     1
290
     1
  0
XRECORD
  5
21B8F
102
{ACAD_REACTORS
330
1B2F7
102
}
330
1B2F7
100
AcDbXrecord
280
     1
290
     1
  0
XRECORD
  5
21B90
102
{ACAD_REACTORS
330
1B2F9
102
}
330
1B2F9
100
AcDbXrecord
280
     1
290
     1
  0
XRECORD
  5
21B91
102
{ACAD_REACTORS
330
1B2FB
102
}
330
1B2FB
100
AcDbXrecord
280
     1
290
     1
  0
XRECORD
  5
21B92
102
{ACAD_REACTORS
330
1B2FD
102
}
330
1B2FD
100
AcDbXrecord
280
     1
290
     1
  0
XRECORD
  5
21B93
102
{ACAD_REACTORS
330
1B2FF
102
}
330
1B2FF
100
AcDbXrecord
280
     1
290
     1
  0
XRECORD
  5
21B94
102
{ACAD_REACTORS
330
1B301
102
}
330
1B301
100
AcDbXrecord
280
     1
290
     1
  0
XRECORD
  5
21B95
102
{ACAD_REACTORS
330
1B303
102
}
330
1B303
100
AcDbXrecord
280
     1
290
     1
  0
XRECORD
  5
21B96
102
{ACAD_REACTORS
330
1B305
102
}
330
1B305
100
AcDbXrecord
280
     1
290
     1
  0
XRECORD
  5
21B97
102
{ACAD_REACTORS
330
1B307
102
}
330
1B307
100
AcDbXrecord
280
     1
290
     1
  0
XRECORD
  5
21B98
102
{ACAD_REACTORS
330
1B309
102
}
330
1B309
100
AcDbXrecord
280
     1
290
     1
  0
XRECORD
  5
21B99
102
{ACAD_REACTORS
330
20A84
102
}
330
20A84
100
AcDbXrecord
280
     1
290
     1
  0
SORTENTSTABLE
  5
339D
102
{ACAD_REACTORS
330
339C
102
}
330
339C
100
AcDbSortentsTable
330
1F
331
220BE
  5
220CE
331
220BF
  5
220CF
331
220C0
  5
220D0
331
220C1
  5
220D1
331
220C3
  5
220D3
331
220C5
  5
220D5
331
220C6
  5
220D6
331
220C7
  5
220D7
331
220C8
  5
220D8
331
220C9
  5
220D9
331
220CA
  5
220DA
331
220CB
  5
220DB
331
220CC
  5
220DC
331
220CD
  5
220DD
331
220CE
  5
220DE
331
220CF
  5
220DF
331
220D0
  5
220E0
331
220D1
  5
220E1
331
220D2
  5
220E2
331
220D3
  5
220E3
331
220D4
  5
220E4
331
220D5
  5
220E5
331
220D6
  5
220E6
331
220D7
  5
220E7
331
220D8
  5
220E8
331
220D9
  5
220E9
331
220DA
  5
220EA
331
220DB
  5
220EB
331
220DC
  5
220EC
331
220DD
  5
220ED
331
220DE
  5
220EE
331
220DF
  5
220EF
331
220E0
  5
220F0
331
220E1
  5
220F1
331
220E2
  5
220F2
331
220E3
  5
220F3
331
220E4
  5
220F4
331
220E5
  5
220F5
331
220E6
  5
220F6
331
220E7
  5
220F7
331
220E8
  5
220F8
331
220E9
  5
220F9
331
220EA
  5
220FA
331
220EB
  5
220FB
331
220EC
  5
220FC
331
220ED
  5
220FD
331
220EE
  5
220FE
331
220EF
  5
220FF
331
220F0
  5
22100
331
220F1
  5
22101
331
220F2
  5
22102
331
220F3
  5
22103
331
220F4
  5
22104
331
220F5
  5
22105
331
220F6
  5
22106
331
220F7
  5
22107
331
220F8
  5
22108
331
220F9
  5
22109
331
220FA
  5
2210A
331
220FB
  5
2210B
331
220FC
  5
2210C
331
220FD
  5
2210D
331
220FE
  5
2210E
331
220FF
  5
2210F
331
22100
  5
22110
331
22101
  5
22111
331
22102
  5
22112
331
22103
  5
22113
331
22104
  5
22114
331
22105
  5
22115
331
22106
  5
22116
331
22107
  5
22117
331
22108
  5
22118
331
22109
  5
22119
331
2210A
  5
2211A
331
2210B
  5
2211B
331
2210C
  5
2211C
331
2210D
  5
2211D
331
2210E
  5
2211E
331
2210F
  5
2211F
331
22110
  5
22120
331
22111
  5
22121
331
22112
  5
22122
331
22113
  5
22123
331
22114
  5
22124
331
22115
  5
22125
331
22116
  5
22126
331
22117
  5
22127
331
22118
  5
22128
331
22119
  5
22129
331
2211A
  5
2212A
331
2211B
  5
2212B
331
2211C
  5
2212C
331
2211D
  5
2212D
331
2211E
  5
2212E
331
2211F
  5
2212F
331
22120
  5
22130
331
22121
  5
22131
331
22122
  5
22132
331
22123
  5
22133
331
22124
  5
22134
331
22125
  5
22135
331
22126
  5
22136
331
22127
  5
22137
331
22128
  5
22138
331
22129
  5
22139
331
2212A
  5
2213A
331
2212B
  5
2213B
331
2212C
  5
2213C
331
2212D
  5
2213D
331
2212E
  5
2213E
331
2212F
  5
2213F
331
22130
  5
22140
331
22131
  5
22141
331
22132
  5
22142
331
22133
  5
22143
331
22134
  5
22144
331
22135
  5
22145
331
22136
  5
22146
331
22137
  5
22147
331
22138
  5
22148
331
22139
  5
22149
331
2213A
  5
2214A
331
2213B
  5
2214B
331
2213C
  5
2214C
331
2213D
  5
2214D
331
2213E
  5
2214E
331
2213F
  5
2214F
331
22140
  5
22150
331
22141
  5
22151
331
22142
  5
22152
331
22143
  5
22153
331
22144
  5
22154
331
22145
  5
22155
331
22146
  5
22156
331
22147
  5
22157
331
22148
  5
22158
331
22149
  5
22159
331
2214A
  5
2215A
331
2214B
  5
2215B
331
2214C
  5
2215C
331
2214D
  5
2215D
331
2214E
  5
2215E
331
2214F
  5
2215F
331
22150
  5
22160
331
22151
  5
22161
331
22152
  5
22162
331
22153
  5
22163
331
22154
  5
22164
331
22155
  5
22165
331
22156
  5
22166
331
22157
  5
22167
331
22158
  5
22168
331
22159
  5
22169
331
2215A
  5
2216A
331
2215B
  5
2216B
331
2215C
  5
2216C
331
2215D
  5
2216D
331
2215E
  5
2216E
331
2215F
  5
2216F
331
22160
  5
22170
331
22161
  5
22171
331
22162
  5
22172
331
22163
  5
22173
331
22164
  5
22174
331
22165
  5
22175
331
22166
  5
22176
331
22167
  5
22177
331
22168
  5
22178
331
22169
  5
22179
331
2216A
  5
2217A
331
2216B
  5
2217B
331
2216C
  5
2217C
331
2216D
  5
2217D
331
2216E
  5
2217E
331
2216F
  5
2217F
331
22170
  5
22180
331
22171
  5
22181
331
22172
  5
22182
331
22173
  5
22183
331
22174
  5
22184
331
22175
  5
22185
331
22176
  5
22186
331
22177
  5
22187
331
22178
  5
22188
331
22179
  5
22189
331
2217A
  5
2218A
331
2217B
  5
2218B
331
2217C
  5
2218C
331
2217D
  5
2218D
331
2217E
  5
2218E
331
2217F
  5
2218F
331
22180
  5
22190
331
22181
  5
22191
331
22182
  5
22192
331
22183
  5
22193
331
22184
  5
22194
331
22185
  5
22195
331
22186
  5
22196
331
22187
  5
22197
331
22188
  5
22198
331
22189
  5
22199
331
2218A
  5
2219A
331
2218B
  5
2219B
331
2218C
  5
2219C
331
2218D
  5
2219D
331
2218E
  5
2219E
331
2218F
  5
2219F
331
22190
  5
221A0
331
22191
  5
221A1
331
22192
  5
221A2
331
22193
  5
221A3
331
22194
  5
221A4
331
22195
  5
221A5
331
22196
  5
221A6
331
22197
  5
221A7
331
22198
  5
221A8
331
22199
  5
221A9
331
2219A
  5
221AA
331
2219B
  5
221AB
331
2219C
  5
221AC
331
2219D
  5
221AD
331
2219E
  5
221AE
331
2219F
  5
221AF
331
221A0
  5
221B0
331
221A1
  5
221B1
331
221A2
  5
221B2
331
221A3
  5
221B3
331
221A4
  5
221B4
331
221A5
  5
221B5
331
221A6
  5
221B6
331
221A7
  5
221B7
331
221A8
  5
221B8
331
221A9
  5
221B9
331
221AA
  5
221BA
331
221AB
  5
221BB
331
221AC
  5
221BC
331
221AD
  5
221BD
331
221AE
  5
221BE
331
221AF
  5
221BF
331
221B0
  5
221C0
331
221B1
  5
221C1
331
221B2
  5
221C2
331
221B3
  5
221C3
331
221B4
  5
221C4
331
221B5
  5
221C5
331
221B6
  5
221C6
331
221B7
  5
221C7
331
221B8
  5
221C8
331
221B9
  5
221C9
331
221BA
  5
221CA
331
221BB
  5
221CB
331
221BC
  5
221CC
331
221BD
  5
221CD
331
221BE
  5
221CE
331
221C0
  5
221D0
331
221C1
  5
221D1
331
221C2
  5
221D2
331
221C3
  5
221D3
331
221C4
  5
221D4
331
221C5
  5
221D5
331
221C6
  5
221D6
331
221C7
  5
221D7
331
221C9
  5
221D9
331
221CB
  5
221DB
331
221CC
  5
221DC
331
221CD
  5
221DD
331
221CE
  5
221DE
331
221CF
  5
221DF
331
221D0
  5
221E0
331
221D1
  5
221E1
331
221D2
  5
221E2
331
221D3
  5
221E3
331
221D4
  5
221E4
331
221D5
  5
221E5
331
221D6
  5
221E6
331
221D7
  5
221E7
331
221D8
  5
221E8
331
221D9
  5
221E9
331
221DA
  5
221EA
331
221DB
  5
221EB
331
221DC
  5
221EC
331
221DE
  5
221EE
331
221DF
  5
221EF
331
221E0
  5
221F0
331
221E1
  5
221F1
331
221E2
  5
221F2
331
221E3
  5
221F3
331
221E5
  5
221F5
331
221E6
  5
221F6
331
221E7
  5
221F7
331
221E8
  5
221F8
331
221E9
  5
221F9
331
221EA
  5
221FA
331
221EB
  5
221FB
331
221EC
  5
221FC
331
221ED
  5
221FD
331
221EE
  5
221FE
331
221EF
  5
221FF
331
221F0
  5
22200
331
221F1
  5
22201
331
221F2
  5
22202
331
221F3
  5
22203
331
221F4
  5
22204
331
221F5
  5
22205
331
221F6
  5
22206
331
221F7
  5
22207
331
221F8
  5
22208
331
221F9
  5
22209
331
221FA
  5
2220A
331
221FB
  5
2220B
331
221FC
  5
2220C
331
221FD
  5
2220D
331
221FE
  5
2220E
331
221FF
  5
2220F
331
22200
  5
22210
331
22201
  5
22211
331
22202
  5
22212
331
22203
  5
22213
331
22204
  5
22214
331
22205
  5
22215
331
22206
  5
22216
331
22207
  5
22217
331
22208
  5
22218
331
22209
  5
2222E
331
2220A
  5
2222F
331
2220B
  5
22230
331
2220C
  5
22231
331
2220D
  5
22232
331
2220E
  5
22233
331
2220F
  5
22234
331
22210
  5
22235
331
22211
  5
22236
331
22212
  5
22237
331
22213
  5
22238
331
22214
  5
22239
331
22215
  5
2223A
331
22216
  5
2223B
331
22217
  5
2223C
331
22218
  5
2223D
331
2244F
  5
22439
  0
DICTIONARY
  5
224A3
102
{ACAD_REACTORS
330
1DE81
102
}
330
1DE81
100
AcDbDictionary
280
     1
281
     1
  3
Edit
360
224A4
  0
XRECORD
  5
22488
102
{ACAD_REACTORS
330
22487
102
}
330
22487
100
AcDbXrecord
280
     1
102
SHADEPLOT
 70
     0
  0
XRECORD
  5
2248A
102
{ACAD_REACTORS
330
22489
102
}
330
22489
100
AcDbXrecord
280
     1
102
SHADEPLOT
 70
     0
  0
ACDBDETAILVIEWSTYLE
  5
20CB3
102
{ACAD_XDICTIONARY
360
224A7
102
}
102
{ACAD_REACTORS
330
1B2F0
102
}
330
1B2F0
100
AcDbModelDocViewStyle
 70
     0
  3
Imperial24
290
     0
100
AcDbDetailViewStyle
 70
     0
 71
     0
 90
        3
 71
     1
340
11
 40
0.24
340
0
 40
0.24
300

 40
0.36
280
     3
 71
     2
340
16
 90
       25
 71
     3
340
11
 40
0.24
 90
        1
 40
0.75
 90
        1
300
%<\AcVar ViewType \f "%tc1">% %<\AcVar ViewDetailId>%\PVARIA %<\AcVar ViewScale \f "%sn">%
 71
     4
340
16
 90
       25
340
16
 90
       25
280
     0
  0
ACDBDETAILVIEWSTYLE
  5
1B2F1
102
{ACAD_XDICTIONARY
360
224A1
102
}
102
{ACAD_REACTORS
330
1B2F0
102
}
330
1B2F0
100
AcDbModelDocViewStyle
 70
     0
  3
Metric50
290
     0
100
AcDbDetailViewStyle
 70
     0
 71
     0
 90
        3
 71
     1
340
11
 40
5.0
340
0
 40
5.0
300

 40
0.0
280
     1
 71
     2
340
16
 90
       25
 71
     3
340
11
 40
5.0
 90
        0
 40
15.0
 90
        1
300
%<\AcVar ViewDetailId>% (%<\AcVar ViewScale \f "%sn">%)
 71
     4
340
16
 90
       25
340
16
 90
       25
280
     0
  0
LAYOUT
  5
31A7
102
{ACAD_XDICTIONARY
360
22485
102
}
102
{ACAD_REACTORS
330
31A5
102
}
330
31A5
100
AcDbPlotSettings
  1

  2
\\ingdc01\ITB3
  4
A4
  6

 40
6.805083274841307
 41
5.027085781097412
 42
6.805068969726562
 43
5.027069091796875
 44
209.9733276367186
 45
296.9683227539062
 46
0.0
 47
0.0
 48
0.0
 49
0.0
140
0.0
141
0.0
142
1.0
143
1.0
 70
   688
 72
     1
 73
     1
 74
     5
  7

 75
    16
147
1.0
148
0.0
149
0.0
100
AcDbLayout
  1
Layout1
 70
     1
 71
     1
 10
-5.027069091796875
 20
-6.805083274841307
 11
291.9412536621094
 21
203.1682443618775
 12
0.0
 22
0.0
 32
0.0
 14
28.69141678810127
 24
19.6363175392151
 34
0.0
 15
258.2227510929107
 25
176.7268578529358
 35
0.0
146
0.0
 13
0.0
 23
0.0
 33
0.0
 16
1.0
 26
0.0
 36
0.0
 17
0.0
 27
1.0
 37
0.0
 76
     0
330
1B
331
9C00
1001
ACAD_PSEXT
1000
\\ingdc01\ITB3
1000
HP LaserJet 5000 Series PCL
1000
TB
1000

1070
     0
  0
LAYOUT
  5
31A6
102
{ACAD_XDICTIONARY
360
22483
102
}
102
{ACAD_REACTORS
330
31A5
102
}
330
31A5
100
AcDbPlotSettings
  1

  2
\\ingdc01\ITB3
  4
A4
  6

 40
6.805083274841307
 41
5.027085781097412
 42
6.805068969726562
 43
5.027069091796875
 44
209.9733276367186
 45
296.9683227539062
 46
0.0
 47
0.0
 48
0.0
 49
0.0
140
0.0
141
0.0
142
1.0
143
1.500313223655698
 70
 11952
 72
     1
 73
     1
 74
     0
  7

 75
     0
147
0.6665274852163048
148
239.0155119930048
149
102.2558208723354
100
AcDbLayout
  1
Model
 70
     1
 71
     0
 10
0.0
 20
0.0
 11
12.0
 21
9.0
 12
0.0
 22
0.0
 32
0.0
 14
0.0
 24
0.0
 34
0.0
 15
0.0
 25
0.0
 35
0.0
146
0.0
 13
0.0
 23
0.0
 33
0.0
 16
1.0
 26
0.0
 36
0.0
 17
0.0
 27
1.0
 37
0.0
 76
     0
330
1F
331
1F4
1001
ACAD_PSEXT
1000
\\ingdc01\ITB3
1000
HP LaserJet 5000 Series PCL
1000
TB
1000

1070
     0
  0
MATERIAL
  5
318D
102
{ACAD_XDICTIONARY
360
1B22B
102
}
102
{ACAD_REACTORS
330
318B
102
}
330
318B
100
AcDbMaterial
  1
ByBlock
  0
MATERIAL
  5
318C
102
{ACAD_XDICTIONARY
360
1B22D
102
}
102
{ACAD_REACTORS
330
318B
102
}
330
318B
100
AcDbMaterial
  1
ByLayer
  0
MATERIAL
  5
318E
102
{ACAD_XDICTIONARY
360
1B22F
102
}
102
{ACAD_REACTORS
330
318B
102
}
330
318B
100
AcDbMaterial
  1
Global
  0
MLEADERSTYLE
  5
1B2ED
102
{ACAD_REACTORS
330
1B221
102
}
330
1B221
100
AcDbMLeaderStyle
170
     2
171
     1
172
     0
 90
        2
 40
0.0
 41
0.0
173
     1
 91
-1056964608
340
14
 92
       -2
290
     1
 42
2.0
291
     1
 43
0.36
  3
Standard
 44
4.0
300

342
11
174
     1
178
     6
175
     1
176
     0
 93
-1056964608
 45
4.0
292
     0
297
     0
 46
4.0
 94
-1056964608
 47
1.0
 49
1.0
140
1.0
293
     1
141
0.0
294
     1
177
     0
142
1.0
295
     0
296
     0
143
0.125
1001
ACAD_MLEADERVER
1070
     2
  0
MLINESTYLE
  5
3185
102
{ACAD_REACTORS
330
3184
102
}
330
3184
100
AcDbMlineStyle
  2
STANDARD
 70
     0
  3

 62
   256
 51
90.0
 52
90.0
 71
     2
 49
0.5
 62
   256
  6
BYLAYER
 49
-0.5
 62
   256
  6
BYLAYER
  0
ACDBPLACEHOLDER
  5
318A
102
{ACAD_REACTORS
330
3189
102
}
330
3189
  0
SCALE
  5
1B1FD
102
{ACAD_REACTORS
330
1B1FC
102
}
330
1B1FC
100
AcDbScale
 70
     0
300
1:1
140
1.0
141
1.0
290
     1
1001
ACAD
1000
AcRTDxfName
1000
SCALE
  0
SCALE
  5
1B1FE
102
{ACAD_REACTORS
330
1B1FC
102
}
330
1B1FC
100
AcDbScale
 70
     0
300
1:2
140
1.0
141
2.0
290
     0
1001
ACAD
1000
AcRTDxfName
1000
SCALE
  0
SCALE
  5
1B1FF
102
{ACAD_REACTORS
330
1B1FC
102
}
330
1B1FC
100
AcDbScale
 70
     0
300
1:4
140
1.0
141
4.0
290
     0
1001
ACAD
1000
AcRTDxfName
1000
SCALE
  0
SCALE
  5
1B200
102
{ACAD_REACTORS
330
1B1FC
102
}
330
1B1FC
100
AcDbScale
 70
     0
300
1:5
140
1.0
141
5.0
290
     0
1001
ACAD
1000
AcRTDxfName
1000
SCALE
  0
SCALE
  5
1B201
102
{ACAD_REACTORS
330
1B1FC
102
}
330
1B1FC
100
AcDbScale
 70
     0
300
1:8
140
1.0
141
8.0
290
     0
1001
ACAD
1000
AcRTDxfName
1000
SCALE
  0
SCALE
  5
1B202
102
{ACAD_REACTORS
330
1B1FC
102
}
330
1B1FC
100
AcDbScale
 70
     0
300
1:10
140
1.0
141
10.0
290
     0
1001
ACAD
1000
AcRTDxfName
1000
SCALE
  0
SCALE
  5
1B203
102
{ACAD_REACTORS
330
1B1FC
102
}
330
1B1FC
100
AcDbScale
 70
     0
300
1:16
140
1.0
141
16.0
290
     0
1001
ACAD
1000
AcRTDxfName
1000
SCALE
  0
SCALE
  5
1B204
102
{ACAD_REACTORS
330
1B1FC
102
}
330
1B1FC
100
AcDbScale
 70
     0
300
1:20
140
1.0
141
20.0
290
     0
1001
ACAD
1000
AcRTDxfName
1000
SCALE
  0
SCALE
  5
1B205
102
{ACAD_REACTORS
330
1B1FC
102
}
330
1B1FC
100
AcDbScale
 70
     0
300
1:30
140
1.0
141
30.0
290
     0
1001
ACAD
1000
AcRTDxfName
1000
SCALE
  0
SCALE
  5
1B206
102
{ACAD_REACTORS
330
1B1FC
102
}
330
1B1FC
100
AcDbScale
 70
     0
300
1:40
140
1.0
141
40.0
290
     0
1001
ACAD
1000
AcRTDxfName
1000
SCALE
  0
SCALE
  5
1B207
102
{ACAD_REACTORS
330
1B1FC
102
}
330
1B1FC
100
AcDbScale
 70
     0
300
1:50
140
1.0
141
50.0
290
     0
1001
ACAD
1000
AcRTDxfName
1000
SCALE
  0
SCALE
  5
1B208
102
{ACAD_REACTORS
330
1B1FC
102
}
330
1B1FC
100
AcDbScale
 70
     0
300
1:100
140
1.0
141
100.0
290
     0
1001
ACAD
1000
AcRTDxfName
1000
SCALE
  0
SCALE
  5
1B209
102
{ACAD_REACTORS
330
1B1FC
102
}
330
1B1FC
100
AcDbScale
 70
     0
300
2:1
140
2.0
141
1.0
290
     0
1001
ACAD
1000
AcRTDxfName
1000
SCALE
  0
SCALE
  5
1B20A
102
{ACAD_REACTORS
330
1B1FC
102
}
330
1B1FC
100
AcDbScale
 70
     0
300
4:1
140
4.0
141
1.0
290
     0
1001
ACAD
1000
AcRTDxfName
1000
SCALE
  0
SCALE
  5
1B20B
102
{ACAD_REACTORS
330
1B1FC
102
}
330
1B1FC
100
AcDbScale
 70
     0
300
8:1
140
8.0
141
1.0
290
     0
1001
ACAD
1000
AcRTDxfName
1000
SCALE
  0
SCALE
  5
1B20C
102
{ACAD_REACTORS
330
1B1FC
102
}
330
1B1FC
100
AcDbScale
 70
     0
300
10:1
140
10.0
141
1.0
290
     0
1001
ACAD
1000
AcRTDxfName
1000
SCALE
  0
SCALE
  5
1B20D
102
{ACAD_REACTORS
330
1B1FC
102
}
330
1B1FC
100
AcDbScale
 70
     0
300
100:1
140
100.0
141
1.0
290
     0
1001
ACAD
1000
AcRTDxfName
1000
SCALE
  0
SCALE
  5
1B20E
102
{ACAD_REACTORS
330
1B1FC
102
}
330
1B1FC
100
AcDbScale
 70
     0
300
1/128" = 1'-0"
140
0.0078125
141
12.0
290
     0
1001
ACAD
1000
AcRTDxfName
1000
SCALE
  0
SCALE
  5
1B20F
102
{ACAD_REACTORS
330
1B1FC
102
}
330
1B1FC
100
AcDbScale
 70
     0
300
1/64" = 1'-0"
140
0.015625
141
12.0
290
     0
1001
ACAD
1000
AcRTDxfName
1000
SCALE
  0
SCALE
  5
1B210
102
{ACAD_REACTORS
330
1B1FC
102
}
330
1B1FC
100
AcDbScale
 70
     0
300
1/32" = 1'-0"
140
0.03125
141
12.0
290
     0
1001
ACAD
1000
AcRTDxfName
1000
SCALE
  0
SCALE
  5
1B211
102
{ACAD_REACTORS
330
1B1FC
102
}
330
1B1FC
100
AcDbScale
 70
     0
300
1/16" = 1'-0"
140
0.0625
141
12.0
290
     0
1001
ACAD
1000
AcRTDxfName
1000
SCALE
  0
SCALE
  5
1B212
102
{ACAD_REACTORS
330
1B1FC
102
}
330
1B1FC
100
AcDbScale
 70
     0
300
3/32" = 1'-0"
140
0.09375
141
12.0
290
     0
1001
ACAD
1000
AcRTDxfName
1000
SCALE
  0
SCALE
  5
1B213
102
{ACAD_REACTORS
330
1B1FC
102
}
330
1B1FC
100
AcDbScale
 70
     0
300
1/8" = 1'-0"
140
0.125
141
12.0
290
     0
1001
ACAD
1000
AcRTDxfName
1000
SCALE
  0
SCALE
  5
1B214
102
{ACAD_REACTORS
330
1B1FC
102
}
330
1B1FC
100
AcDbScale
 70
     0
300
3/16" = 1'-0"
140
0.1875
141
12.0
290
     0
1001
ACAD
1000
AcRTDxfName
1000
SCALE
  0
SCALE
  5
1B215
102
{ACAD_REACTORS
330
1B1FC
102
}
330
1B1FC
100
AcDbScale
 70
     0
300
1/4" = 1'-0"
140
0.25
141
12.0
290
     0
1001
ACAD
1000
AcRTDxfName
1000
SCALE
  0
SCALE
  5
1B216
102
{ACAD_REACTORS
330
1B1FC
102
}
330
1B1FC
100
AcDbScale
 70
     0
300
3/8" = 1'-0"
140
0.375
141
12.0
290
     0
1001
ACAD
1000
AcRTDxfName
1000
SCALE
  0
SCALE
  5
1B217
102
{ACAD_REACTORS
330
1B1FC
102
}
330
1B1FC
100
AcDbScale
 70
     0
300
1/2" = 1'-0"
140
0.5
141
12.0
290
     0
1001
ACAD
1000
AcRTDxfName
1000
SCALE
  0
SCALE
  5
1B218
102
{ACAD_REACTORS
330
1B1FC
102
}
330
1B1FC
100
AcDbScale
 70
     0
300
3/4" = 1'-0"
140
0.75
141
12.0
290
     0
1001
ACAD
1000
AcRTDxfName
1000
SCALE
  0
SCALE
  5
1B219
102
{ACAD_REACTORS
330
1B1FC
102
}
330
1B1FC
100
AcDbScale
 70
     0
300
1" = 1'-0"
140
1.0
141
12.0
290
     0
1001
ACAD
1000
AcRTDxfName
1000
SCALE
  0
SCALE
  5
1B21A
102
{ACAD_REACTORS
330
1B1FC
102
}
330
1B1FC
100
AcDbScale
 70
     0
300
1-1/2" = 1'-0"
140
1.5
141
12.0
290
     0
1001
ACAD
1000
AcRTDxfName
1000
SCALE
  0
SCALE
  5
1B21B
102
{ACAD_REACTORS
330
1B1FC
102
}
330
1B1FC
100
AcDbScale
 70
     0
300
3" = 1'-0"
140
3.0
141
12.0
290
     0
1001
ACAD
1000
AcRTDxfName
1000
SCALE
  0
SCALE
  5
1B21C
102
{ACAD_REACTORS
330
1B1FC
102
}
330
1B1FC
100
AcDbScale
 70
     0
300
6" = 1'-0"
140
6.0
141
12.0
290
     0
1001
ACAD
1000
AcRTDxfName
1000
SCALE
  0
SCALE
  5
1B21D
102
{ACAD_REACTORS
330
1B1FC
102
}
330
1B1FC
100
AcDbScale
 70
     0
300
1'-0" = 1'-0"
140
12.0
141
12.0
290
     0
1001
ACAD
1000
AcRTDxfName
1000
SCALE
  0
ACDBSECTIONVIEWSTYLE
  5
20CB1
102
{ACAD_XDICTIONARY
360
224A5
102
}
102
{ACAD_REACTORS
330
1B2EE
102
}
330
1B2EE
100
AcDbModelDocViewStyle
 70
     0
  3
Imperial24
290
     0
100
AcDbSectionViewStyle
 70
     0
 71
     0
 90
       78
 71
     1
340
11
 40
0.24
340
0
340
0
 40
0.24
300
I, O, Q, S, X, Z
 40
0.48
 90
        3
 40
0.18
 90
        1
 71
     2
340
16
 90
       25
340
16
 90
       50
 40
0.24
 40
0.0
 40
0.24
 71
     3
340
11
 40
0.24
 90
        1
 40
0.75
 90
        1
300
%<\AcVar ViewType \f "%tc1">% %<\AcVar ViewSectionStartId>%-%<\AcVar ViewSectionEndId>%\PVARIA %<\AcVar ViewScale \f "%sn">%
 71
     4
300
ANSI31
 40
1.0
 90
        0
290
     0
290
     0
 90
        6
 40
0.0
 40
1.570796326794896
 40
0.2617993877991494
 40
1.308996938995747
 40
-0.2617993877991494
 40
1.832595714594044
  0
ACDBSECTIONVIEWSTYLE
  5
1B2EF
102
{ACAD_XDICTIONARY
360
2249F
102
}
102
{ACAD_REACTORS
330
1B2EE
102
}
330
1B2EE
100
AcDbModelDocViewStyle
 70
     0
  3
Metric50
290
     0
100
AcDbSectionViewStyle
 70
     0
 71
     0
 90
      102
 71
     1
340
11
 40
5.0
340
0
340
0
 40
5.0
300
I, O, Q, S, X, Z
 40
10.0
 90
        0
 40
2.5
 90
        0
 71
     2
340
16
 90
       25
340
16
 90
       50
 40
5.0
 40
2.5
 40
5.0
 71
     3
340
11
 40
5.0
 90
        0
 40
15.0
 90
        1
300
%<\AcVar ViewSectionStartId>%-%<\AcVar ViewSectionEndId>% (%<\AcVar ViewScale \f "%sn">%)
 71
     4
300
ANSI31
 40
1.0
 90
        0
290
     0
290
     0
 90
        6
 40
0.0
 40
1.570796326794896
 40
0.2617993877991494
 40
1.308996938995747
 40
-0.2617993877991494
 40
1.832595714594044
  0
TABLESTYLE
  5
31A2
102
{ACAD_XDICTIONARY
360
1B314
102
}
102
{ACAD_REACTORS
330
31A1
102
}
330
31A1
100
AcDbTableStyle
  3
Standard
 70
     0
 71
     0
 40
1.5
 41
1.5
280
     0
281
     0
  7
STANDARD
140
4.5
170
     2
 62
     0
 63
     7
283
     0
274
    -2
284
     1
 64
     0
275
    -2
285
     1
 65
     0
276
    -2
286
     1
 66
     0
277
    -2
287
     1
 67
     0
278
    -2
288
     1
 68
     0
279
    -2
289
     1
 69
     0
  7
STANDARD
140
6.0
170
     5
 62
     0
 63
     7
283
     0
274
    -2
284
     1
 64
     0
275
    -2
285
     1
 65
     0
276
    -2
286
     1
 66
     0
277
    -2
287
     1
 67
     0
278
    -2
288
     1
 68
     0
279
    -2
289
     1
 69
     0
  7
STANDARD
140
4.5
170
     5
 62
     0
 63
     7
283
     0
274
    -2
284
     1
 64
     0
275
    -2
285
     1
 65
     0
276
    -2
286
     1
 66
     0
277
    -2
287
     1
 67
     0
278
    -2
288
     1
 68
     0
279
    -2
289
     1
 69
     0
  0
VISUALSTYLE
  5
3195
102
{ACAD_XDICTIONARY
360
2246C
102
}
102
{ACAD_REACTORS
330
318F
102
}
330
318F
100
AcDbVisualStyle
  2

 70
     4
 71
     0
 72
     2
 73
     0
 90
        0
 40
-0.6
 41
-30.0
 62
     5
 63
     7
 74
     1
 91
        4
 64
     7
 65
   257
 75
     1
175
     1
 42
1.0
 92
        0
 66
   257
 43
1.0
 76
     1
 77
     6
 78
     2
 67
     7
 79
     5
170
     0
171
     0
290
     0
174
     0
 93
        1
 44
0.0
173
     0
291
     0
 45
0.0
1001
ACAD
1000
AcDbSavedByObjectVersion
1070
     0
  0
VISUALSTYLE
  5
3197
102
{ACAD_XDICTIONARY
360
22470
102
}
102
{ACAD_REACTORS
330
318F
102
}
330
318F
100
AcDbVisualStyle
  2

 70
     6
 71
     1
 72
     2
 73
     2
 90
        0
 40
-0.6
 41
-30.0
 62
     5
 63
     7
 74
     2
 91
        2
 64
     7
 65
   257
 75
     2
175
     1
 42
40.0
 92
        0
 66
   257
 43
1.0
 76
     1
 77
     6
 78
     2
 67
     7
 79
     3
170
     0
171
     0
290
     0
174
     0
 93
        1
 44
0.0
173
     0
291
     0
 45
0.0
1001
ACAD
1000
AcDbSavedByObjectVersion
1070
     0
  0
VISUALSTYLE
  5
3196
102
{ACAD_XDICTIONARY
360
2246E
102
}
102
{ACAD_REACTORS
330
318F
102
}
330
318F
100
AcDbVisualStyle
  2

 70
     5
 71
     0
 72
     2
 73
     0
 90
        0
 40
-0.6
 41
-30.0
 62
     5
 63
     7
 74
     1
 91
        4
 64
     7
 65
   257
 75
     1
175
     1
 42
1.0
 92
        0
 66
   257
 43
1.0
 76
     1
 77
     6
 78
     2
 67
     7
 79
     5
170
     0
171
     0
290
     0
174
     0
 93
        1
 44
0.0
173
     0
291
     0
 45
0.0
1001
ACAD
1000
AcDbSavedByObjectVersion
1070
     0
  0
VISUALSTYLE
  5
3194
102
{ACAD_XDICTIONARY
360
2246A
102
}
102
{ACAD_REACTORS
330
318F
102
}
330
318F
100
AcDbVisualStyle
  2

 70
     7
 71
     1
 72
     0
 73
     1
 90
        0
 40
-0.6
 41
-30.0
 62
     5
 63
     7
 74
     0
 91
        4
 64
     7
 65
   257
 75
     1
175
     1
 42
1.0
 92
        8
 66
     7
 43
1.0
 76
     1
 77
     6
 78
     2
 67
     7
 79
     5
170
     0
171
     0
290
     0
174
     0
 93
        1
 44
0.0
173
     0
291
     1
 45
0.0
1001
ACAD
1000
AcDbSavedByObjectVersion
1070
     0
  0
VISUALSTYLE
  5
319B
102
{ACAD_XDICTIONARY
360
22478
102
}
102
{ACAD_REACTORS
330
318F
102
}
330
318F
100
AcDbVisualStyle
  2

 70
    12
 71
     2
 72
     2
 73
     0
 90
        0
 40
-0.6
 41
-30.0
 62
     5
 63
     7
 74
     1
 91
        4
 64
     7
 65
   257
 75
     1
175
     1
 42
1.0
 92
        8
 66
     7
 43
1.0
 76
     1
 77
     6
 78
     2
 67
     7
 79
     5
170
     0
171
     0
290
     0
174
     0
 93
        1
 44
50.0
173
     0
291
     1
 45
0.0
1001
ACAD
1000
AcDbSavedByObjectVersion
1070
     0
  0
VISUALSTYLE
  5
319F
102
{ACAD_XDICTIONARY
360
22480
102
}
102
{ACAD_REACTORS
330
318F
102
}
330
318F
100
AcDbVisualStyle
  2

 70
    16
 71
     2
 72
     2
 73
     3
 90
        0
 40
-0.6
 41
-30.0
 62
     5
 63
     8
 74
     1
 91
        4
 64
     7
 65
   257
 75
     1
175
     1
 42
1.0
 92
        8
 66
     8
 43
1.0
 76
     1
 77
     6
 78
     2
 67
     7
 79
     5
170
     0
171
     0
290
     0
174
     0
 93
        1
 44
0.0
173
     0
291
     1
 45
0.0
1001
ACAD
1000
AcDbSavedByObjectVersion
1070
     0
  0
VISUALSTYLE
  5
3198
102
{ACAD_XDICTIONARY
360
22472
102
}
102
{ACAD_REACTORS
330
318F
102
}
330
318F
100
AcDbVisualStyle
  2

 70
     9
 71
     3
 72
     2
 73
     0
 90
        0
 40
-0.6
 41
-30.0
 62
     5
 63
     7
 74
     2
 91
        2
 64
     7
 65
   257
 75
     1
175
     1
 42
40.0
 92
        8
 66
     7
 43
1.0
 76
     1
 77
     6
 78
     2
 67
     7
 79
     3
170
     0
171
     0
290
     0
174
     0
 93
        1
 44
0.0
173
     0
291
     0
 45
0.0
1001
ACAD
1000
AcDbSavedByObjectVersion
1070
     0
  0
VISUALSTYLE
  5
319A
102
{ACAD_XDICTIONARY
360
22476
102
}
102
{ACAD_REACTORS
330
318F
102
}
330
318F
100
AcDbVisualStyle
  2

 70
    11
 71
     2
 72
     2
 73
     0
 90
        0
 40
-0.6
 41
-30.0
 62
     5
 63
     7
 74
     1
 91
        4
 64
     7
 65
   257
 75
     1
175
     1
 42
1.0
 92
        8
 66
     7
 43
1.0
 76
     1
 77
     6
 78
     2
 67
     7
 79
     5
170
     0
171
     0
290
     0
174
     0
 93
        1
 44
-50.0
173
     0
291
     1
 45
0.0
1001
ACAD
1000
AcDbSavedByObjectVersion
1070
     0
  0
VISUALSTYLE
  5
1B2EC
102
{ACAD_XDICTIONARY
360
2249D
102
}
102
{ACAD_REACTORS
330
318F
102
}
330
318F
100
AcDbVisualStyle
  2

 70
    22
 71
     2
 72
     2
 73
     0
 90
        0
 40
-0.6
 41
-30.0
 62
     5
 63
     7
 74
     1
 91
        4
 64
     7
 65
   257
 75
     1
175
     1
 42
1.0
 92
        8
 66
     7
 43
1.0
 76
     1
 77
     6
 78
     2
 67
     7
 79
     5
170
     0
171
     0
290
     0
174
     0
 93
        1
 44
0.0
173
     0
291
     1
 45
0.0
1001
ACAD
1000
AcDbSavedByObjectVersion
1070
     0
  0
VISUALSTYLE
  5
319E
102
{ACAD_XDICTIONARY
360
2247E
102
}
102
{ACAD_REACTORS
330
318F
102
}
330
318F
100
AcDbVisualStyle
  2

 70
    15
 71
     2
 72
     2
 73
     0
 90
        0
 40
-0.6
 41
-30.0
 62
     5
 63
     7
 74
     1
 91
        4
 64
     7
 65
   257
 75
     1
175
     1
 42
1.0
 92
        8
 66
     7
 43
1.0
 76
     1
 77
     6
 78
     2
 67
     7
 79
     5
170
     0
171
     0
290
     0
174
     0
 93
        1
 44
0.0
173
     0
291
     1
 45
0.0
1001
ACAD
1000
AcDbSavedByObjectVersion
1070
     0
  0
VISUALSTYLE
  5
3190
102
{ACAD_XDICTIONARY
360
22462
102
}
102
{ACAD_REACTORS
330
318F
102
}
330
318F
100
AcDbVisualStyle
  2

 70
     0
 71
     2
 72
     1
 73
     1
 90
        2
 40
-0.6
 41
30.0
 62
     5
 63
     7
 74
     0
 91
        4
 64
     7
 65
   257
 75
     1
175
     1
 42
1.0
 92
        8
 66
     7
 43
1.0
 76
     1
 77
     6
 78
     2
 67
     7
 79
     5
170
     0
171
     0
290
     0
174
     0
 93
       13
 44
0.0
173
     0
291
     1
 45
0.0
1001
ACAD
1000
AcDbSavedByObjectVersion
1070
     0
  0
VISUALSTYLE
  5
3191
102
{ACAD_XDICTIONARY
360
22464
102
}
102
{ACAD_REACTORS
330
318F
102
}
330
318F
100
AcDbVisualStyle
  2

 70
     1
 71
     2
 72
     1
 73
     1
 90
        2
 40
-0.6
 41
30.0
 62
     5
 63
     7
 74
     1
 91
        4
 64
     7
 65
   257
 75
     1
175
     1
 42
1.0
 92
        0
 66
   257
 43
1.0
 76
     1
 77
     6
 78
     2
 67
     7
 79
     5
170
     0
171
     0
290
     0
174
     0
 93
       13
 44
0.0
173
     0
291
     1
 45
0.0
1001
ACAD
1000
AcDbSavedByObjectVersion
1070
     0
  0
VISUALSTYLE
  5
3192
102
{ACAD_XDICTIONARY
360
22466
102
}
102
{ACAD_REACTORS
330
318F
102
}
330
318F
100
AcDbVisualStyle
  2

 70
     2
 71
     2
 72
     2
 73
     1
 90
        2
 40
-0.6
 41
30.0
 62
     5
 63
     7
 74
     0
 91
        4
 64
     7
 65
   257
 75
     1
175
     1
 42
1.0
 92
        0
 66
     7
 43
1.0
 76
     1
 77
     6
 78
     2
 67
     7
 79
     5
170
     0
171
     0
290
     0
174
     0
 93
       13
 44
0.0
173
     0
291
     1
 45
0.0
1001
ACAD
1000
AcDbSavedByObjectVersion
1070
     0
  0
VISUALSTYLE
  5
3193
102
{ACAD_XDICTIONARY
360
22468
102
}
102
{ACAD_REACTORS
330
318F
102
}
330
318F
100
AcDbVisualStyle
  2

 70
     3
 71
     2
 72
     2
 73
     1
 90
        2
 40
-0.6
 41
30.0
 62
     5
 63
     7
 74
     1
 91
        4
 64
     7
 65
   257
 75
     1
175
     1
 42
1.0
 92
        0
 66
   257
 43
1.0
 76
     1
 77
     6
 78
     2
 67
     7
 79
     5
170
     0
171
     0
290
     0
174
     0
 93
       13
 44
0.0
173
     0
291
     1
 45
0.0
1001
ACAD
1000
AcDbSavedByObjectVersion
1070
     0
  0
VISUALSTYLE
  5
1B2E4
102
{ACAD_XDICTIONARY
360
2248D
102
}
102
{ACAD_REACTORS
330
318F
102
}
330
318F
100
AcDbVisualStyle
  2

 70
     6
 71
     1
 72
     2
 73
     2
 90
        0
 40
-0.6
 41
-30.0
 62
     5
 63
     7
 74
     2
 91
        2
 64
     7
 65
   257
 75
     2
175
     1
 42
40.0
 92
        0
 66
   257
 43
1.0
 76
     1
 77
     6
 78
     2
 67
     7
 79
     3
170
     0
171
     0
290
     0
174
     0
 93
        1
 44
0.0
173
     0
291
     0
 45
0.0
1001
ACAD
1000
AcDbSavedByObjectVersion
1070
     0
  0
VISUALSTYLE
  5
1B2EA
102
{ACAD_XDICTIONARY
360
22499
102
}
102
{ACAD_REACTORS
330
318F
102
}
330
318F
100
AcDbVisualStyle
  2

 70
    20
 71
     2
 72
     2
 73
     0
 90
        0
 40
-0.6
 41
-30.0
 62
     5
 63
     7
 74
     1
 91
        4
 64
     7
 65
   257
 75
     1
175
     1
 42
1.0
 92
       10
 66
     7
 43
1.0
 76
     1
 77
     6
 78
     2
 67
     7
 79
     5
170
     0
171
     0
290
     0
174
     0
 93
        1
 44
0.0
173
     0
291
     1
 45
0.0
1001
ACAD
1000
AcDbSavedByObjectVersion
1070
     0
  0
VISUALSTYLE
  5
319D
102
{ACAD_XDICTIONARY
360
2247C
102
}
102
{ACAD_REACTORS
330
318F
102
}
330
318F
100
AcDbVisualStyle
  2

 70
    14
 71
     2
 72
     2
 73
     0
 90
        0
 40
-0.6
 41
-30.0
 62
     5
 63
     7
 74
     1
 91
        4
 64
     7
 65
   257
 75
     7
175
     7
 42
1.0
 92
        8
 66
     7
 43
1.0
 76
     1
 77
     6
 78
     2
 67
     7
 79
     5
170
     0
171
     0
290
     0
174
     0
 93
        1
 44
0.0
173
     0
291
     1
 45
0.0
1001
ACAD
1000
AcDbSavedByObjectVersion
1070
     0
  0
VISUALSTYLE
  5
1B2EB
102
{ACAD_XDICTIONARY
360
2249B
102
}
102
{ACAD_REACTORS
330
318F
102
}
330
318F
100
AcDbVisualStyle
  2

 70
    21
 71
     2
 72
     2
 73
     0
 90
        0
 40
-0.6
 41
-30.0
 62
     5
 63
     7
 74
     1
 91
        4
 64
     7
 65
   257
 75
     1
175
     1
 42
1.0
 92
        9
 66
     7
 43
1.0
 76
     1
 77
     6
 78
     2
 67
     7
 79
     5
170
     0
171
     0
290
     0
174
     0
 93
        1
 44
0.0
173
     0
291
     1
 45
0.0
1001
ACAD
1000
AcDbSavedByObjectVersion
1070
     0
  0
VISUALSTYLE
  5
3199
102
{ACAD_XDICTIONARY
360
22474
102
}
102
{ACAD_REACTORS
330
318F
102
}
330
318F
100
AcDbVisualStyle
  2

 70
     8
 71
     2
 72
     2
 73
     0
 90
        0
 40
-0.6
 41
-30.0
 62
     5
 63
     7
 74
     1
 91
        0
 64
     7
 65
   257
 75
     1
175
     1
 42
1.0
 92
        8
 66
     8
 43
1.0
 76
     1
 77
     6
 78
     2
 67
     7
 79
     5
170
     0
171
     0
290
     0
174
     0
 93
       13
 44
0.0
173
     0
291
     0
 45
0.0
1001
ACAD
1000
AcDbSavedByObjectVersion
1070
     0
  0
VISUALSTYLE
  5
1B2E9
102
{ACAD_XDICTIONARY
360
22497
102
}
102
{ACAD_REACTORS
330
318F
102
}
330
318F
100
AcDbVisualStyle
  2

 70
    27
 71
     2
 72
     2
 73
     1
 90
        2
 40
-0.6
 41
30.0
 62
     5
 63
     7
 74
     0
 91
        4
 64
     7
 65
   257
 75
     1
175
     1
 42
1.0
 92
        8
 66
   257
 43
1.0
 76
     1
 77
     6
 78
     2
 67
     8
 79
     3
170
     0
171
     0
290
     0
174
     0
 93
        5
 44
0.0
173
     0
291
     0
 45
0.0
1001
ACAD
1000
AcDbSavedByObjectVersion
1070
     0
  0
VISUALSTYLE
  5
1B2E8
102
{ACAD_XDICTIONARY
360
22495
102
}
102
{ACAD_REACTORS
330
318F
102
}
330
318F
100
AcDbVisualStyle
  2

 70
    26
 71
     2
 72
     2
 73
     1
 90
        2
 40
-0.6
 41
30.0
 62
     5
 63
     7
 74
     1
 91
       10
 64
     7
 65
   257
 75
     2
175
     1
 42
1.0
 92
        8
 66
   257
 43
1.0
 76
     1
 77
     6
 78
     2
 67
     7
 79
     3
170
     0
171
     0
290
     0
174
     0
 93
        5
 44
0.0
173
     0
291
     0
 45
0.0
1001
ACAD
1000
AcDbSavedByObjectVersion
1070
     0
  0
VISUALSTYLE
  5
1B2E5
102
{ACAD_XDICTIONARY
360
2248F
102
}
102
{ACAD_REACTORS
330
318F
102
}
330
318F
100
AcDbVisualStyle
  2

 70
    23
 71
     2
 72
     2
 73
     3
 90
        0
 40
-0.6
 41
-30.0
 62
     5
 63
     7
 74
     2
 91
        2
 64
     7
 65
     7
 75
     1
175
     1
 42
40.0
 92
        8
 66
     7
 43
1.0
 76
     1
 77
     6
 78
     2
 67
     7
 79
     3
170
     0
171
     0
290
     0
174
     0
 93
        1
 44
0.0
173
     0
291
     0
 45
0.0
1001
ACAD
1000
AcDbSavedByObjectVersion
1070
     0
  0
VISUALSTYLE
  5
1B2E6
102
{ACAD_XDICTIONARY
360
22491
102
}
102
{ACAD_REACTORS
330
318F
102
}
330
318F
100
AcDbVisualStyle
  2

 70
    24
 71
     1
 72
     2
 73
     2
 90
        0
 40
-0.6
 41
-30.0
 62
     5
 63
     7
 74
     2
 91
        2
 64
     7
 65
     7
 75
     1
175
     1
 42
40.0
 92
       11
 66
     7
 43
1.0
 76
     1
 77
     6
 78
     2
 67
     7
 79
     6
170
     0
171
     0
290
     0
174
     0
 93
        1
 44
0.0
173
     0
291
     0
 45
0.0
1001
ACAD
1000
AcDbSavedByObjectVersion
1070
     0
  0
VISUALSTYLE
  5
319C
102
{ACAD_XDICTIONARY
360
2247A
102
}
102
{ACAD_REACTORS
330
318F
102
}
330
318F
100
AcDbVisualStyle
  2

 70
    13
 71
     2
 72
     2
 73
     0
 90
        0
 40
-0.6
 41
-30.0
 62
     5
 63
     7
 74
     1
 91
        4
 64
     7
 65
   257
 75
     1
175
     1
 42
1.0
 92
       12
 66
     7
 43
1.0
 76
     1
 77
     6
 78
     2
 67
     7
 79
     5
170
     0
171
     0
290
     0
174
     0
 93
        1
 44
0.0
173
     0
291
     1
 45
0.0
1001
ACAD
1000
AcDbSavedByObjectVersion
1070
     0
  0
VISUALSTYLE
  5
1B2E3
102
{ACAD_XDICTIONARY
360
2248B
102
}
102
{ACAD_REACTORS
330
318F
102
}
330
318F
100
AcDbVisualStyle
  2

 70
     5
 71
     0
 72
     2
 73
     0
 90
        0
 40
-0.6
 41
-30.0
 62
     5
 63
     7
 74
     1
 91
        4
 64
     7
 65
   257
 75
     1
175
     1
 42
1.0
 92
        0
 66
   257
 43
1.0
 76
     1
 77
     6
 78
     2
 67
     7
 79
     3
170
     0
171
     0
290
     0
174
     0
 93
        1
 44
0.0
173
     0
291
     0
 45
0.0
1001
ACAD
1000
AcDbSavedByObjectVersion
1070
     0
  0
VISUALSTYLE
  5
1B2E7
102
{ACAD_XDICTIONARY
360
22493
102
}
102
{ACAD_REACTORS
330
318F
102
}
330
318F
100
AcDbVisualStyle
  2

 70
    25
 71
     2
 72
     2
 73
     1
 90
        1
 40
0.5
 41
-30.0
 62
     5
 63
     7
 74
     1
 91
        0
 64
     7
 65
   257
 75
     1
175
     1
 42
1.0
 92
        8
 66
     7
 43
1.0
 76
     1
 77
     6
 78
     2
 67
     7
 79
     3
170
     0
171
     0
290
     0
174
     0
 93
       13
 44
0.0
173
     0
291
     0
 45
0.0
1001
ACAD
1000
AcDbSavedByObjectVersion
1070
     0
  0
DICTIONARYVAR
  5
1B222
102
{ACAD_REACTORS
330
33A3
102
}
330
33A3
100
DictionaryVariables
280
     0
  1
1:1
  0
DICTIONARYVAR
  5
1B30F
102
{ACAD_REACTORS
330
33A3
102
}
330
33A3
100
DictionaryVariables
280
     0
  1
STANDARD
  0
DICTIONARYVAR
  5
33A4
102
{ACAD_REACTORS
330
33A3
102
}
330
33A3
100
DictionaryVariables
280
     0
  1
STANDARD
  0
DICTIONARYVAR
  5
1B310
102
{ACAD_REACTORS
330
33A3
102
}
330
33A3
100
DictionaryVariables
280
     0
  1
Metric50
  0
DICTIONARYVAR
  5
1B311
102
{ACAD_REACTORS
330
33A3
102
}
330
33A3
100
DictionaryVariables
280
     0
  1
Metric50
  0
DICTIONARYVAR
  5
9BE8
102
{ACAD_REACTORS
330
33A3
102
}
330
33A3
100
DictionaryVariables
280
     0
  1
1
  0
DICTIONARYVAR
  5
9BE7
102
{ACAD_REACTORS
330
33A3
102
}
330
33A3
100
DictionaryVariables
280
     0
  1
0
  0
DICTIONARYVAR
  5
20993
102
{ACAD_REACTORS
330
33A3
102
}
330
33A3
100
DictionaryVariables
280
     0
  1
1
  0
DICTIONARYVAR
  5
20994
102
{ACAD_REACTORS
330
33A3
102
}
330
33A3
100
DictionaryVariables
280
     0
  1
15
  0
DICTIONARYVAR
  5
20992
102
{ACAD_REACTORS
330
33A3
102
}
330
33A3
100
DictionaryVariables
280
     0
  1
0
  0
DICTIONARYVAR
  5
2245B
102
{ACAD_REACTORS
330
33A3
102
}
330
33A3
100
DictionaryVariables
280
     0
  1
1.570796
  0
DICTIONARYVAR
  5
2245C
102
{ACAD_REACTORS
330
33A3
102
}
330
33A3
100
DictionaryVariables
280
     0
  1
1.570796
  0
DICTIONARYVAR
  5
2245D
102
{ACAD_REACTORS
330
33A3
102
}
330
33A3
100
DictionaryVariables
280
     0
  1
-122.394000
  0
DICTIONARYVAR
  5
20991
102
{ACAD_REACTORS
330
33A3
102
}
330
33A3
100
DictionaryVariables
280
     0
  1
0
  0
DICTIONARYVAR
  5
9BE6
102
{ACAD_REACTORS
330
33A3
102
}
330
33A3
100
DictionaryVariables
280
     0
  1
127
  0
DICTIONARYVAR
  5
2245E
102
{ACAD_REACTORS
330
33A3
102
}
330
33A3
100
DictionaryVariables
280
     0
  1
2
  0
XRECORD
  5
224A4
102
{ACAD_REACTORS
330
224A3
102
}
330
224A3
100
AcDbXrecord
280
     1
1070
     0
1070
     1
1070
     1
  0
DICTIONARY
  5
224A7
330
20CB3
100
AcDbDictionary
280
     1
281
     1
  3
ACAD_XREC_ROUNDTRIP
360
224A8
  0
DICTIONARY
  5
224A1
330
1B2F1
100
AcDbDictionary
280
     1
281
     1
  3
ACAD_XREC_ROUNDTRIP
360
224A2
  0
DICTIONARY
  5
22485
330
31A7
100
AcDbDictionary
280
     1
281
     1
  3
ACAD_XREC_ROUNDTRIP
360
22486
  0
DICTIONARY
  5
22483
330
31A6
100
AcDbDictionary
280
     1
281
     1
  3
ACAD_XREC_ROUNDTRIP
360
22484
  0
DICTIONARY
  5
1B22B
330
318D
100
AcDbDictionary
280
     1
281
     1
  3
ACAD_XREC_ROUNDTRIP
360
1B22C
  0
DICTIONARY
  5
1B22D
330
318C
100
AcDbDictionary
280
     1
281
     1
  3
ACAD_XREC_ROUNDTRIP
360
1B22E
  0
DICTIONARY
  5
1B22F
330
318E
100
AcDbDictionary
280
     1
281
     1
  3
ACAD_XREC_ROUNDTRIP
360
1B230
  0
DICTIONARY
  5
224A5
330
20CB1
100
AcDbDictionary
280
     1
281
     1
  3
ACAD_XREC_ROUNDTRIP
360
224A6
  0
DICTIONARY
  5
2249F
330
1B2EF
100
AcDbDictionary
280
     1
281
     1
  3
ACAD_XREC_ROUNDTRIP
360
224A0
  0
DICTIONARY
  5
1B314
330
31A2
100
AcDbDictionary
280
     1
281
     1
  3
ACAD_ROUNDTRIP_2008_TABLESTYLE_CELLSTYLEMAP
360
2245F
  3
ACAD_XREC_ROUNDTRIP
360
22482
  0
DICTIONARY
  5
2246C
330
3195
100
AcDbDictionary
280
     1
281
     1
  3
ACAD_XREC_ROUNDTRIP
360
2246D
  0
DICTIONARY
  5
22470
330
3197
100
AcDbDictionary
280
     1
281
     1
  3
ACAD_XREC_ROUNDTRIP
360
22471
  0
DICTIONARY
  5
2246E
330
3196
100
AcDbDictionary
280
     1
281
     1
  3
ACAD_XREC_ROUNDTRIP
360
2246F
  0
DICTIONARY
  5
2246A
330
3194
100
AcDbDictionary
280
     1
281
     1
  3
ACAD_XREC_ROUNDTRIP
360
2246B
  0
DICTIONARY
  5
22478
330
319B
100
AcDbDictionary
280
     1
281
     1
  3
ACAD_XREC_ROUNDTRIP
360
22479
  0
DICTIONARY
  5
22480
330
319F
100
AcDbDictionary
280
     1
281
     1
  3
ACAD_XREC_ROUNDTRIP
360
22481
  0
DICTIONARY
  5
22472
330
3198
100
AcDbDictionary
280
     1
281
     1
  3
ACAD_XREC_ROUNDTRIP
360
22473
  0
DICTIONARY
  5
22476
330
319A
100
AcDbDictionary
280
     1
281
     1
  3
ACAD_XREC_ROUNDTRIP
360
22477
  0
DICTIONARY
  5
2249D
330
1B2EC
100
AcDbDictionary
280
     1
281
     1
  3
ACAD_XREC_ROUNDTRIP
360
2249E
  0
DICTIONARY
  5
2247E
330
319E
100
AcDbDictionary
280
     1
281
     1
  3
ACAD_XREC_ROUNDTRIP
360
2247F
  0
DICTIONARY
  5
22462
330
3190
100
AcDbDictionary
280
     1
281
     1
  3
ACAD_XREC_ROUNDTRIP
360
22463
  0
DICTIONARY
  5
22464
330
3191
100
AcDbDictionary
280
     1
281
     1
  3
ACAD_XREC_ROUNDTRIP
360
22465
  0
DICTIONARY
  5
22466
330
3192
100
AcDbDictionary
280
     1
281
     1
  3
ACAD_XREC_ROUNDTRIP
360
22467
  0
DICTIONARY
  5
22468
330
3193
100
AcDbDictionary
280
     1
281
     1
  3
ACAD_XREC_ROUNDTRIP
360
22469
  0
DICTIONARY
  5
2248D
330
1B2E4
100
AcDbDictionary
280
     1
281
     1
  3
ACAD_XREC_ROUNDTRIP
360
2248E
  0
DICTIONARY
  5
22499
330
1B2EA
100
AcDbDictionary
280
     1
281
     1
  3
ACAD_XREC_ROUNDTRIP
360
2249A
  0
DICTIONARY
  5
2247C
330
319D
100
AcDbDictionary
280
     1
281
     1
  3
ACAD_XREC_ROUNDTRIP
360
2247D
  0
DICTIONARY
  5
2249B
330
1B2EB
100
AcDbDictionary
280
     1
281
     1
  3
ACAD_XREC_ROUNDTRIP
360
2249C
  0
DICTIONARY
  5
22474
330
3199
100
AcDbDictionary
280
     1
281
     1
  3
ACAD_XREC_ROUNDTRIP
360
22475
  0
DICTIONARY
  5
22497
330
1B2E9
100
AcDbDictionary
280
     1
281
     1
  3
ACAD_XREC_ROUNDTRIP
360
22498
  0
DICTIONARY
  5
22495
330
1B2E8
100
AcDbDictionary
280
     1
281
     1
  3
ACAD_XREC_ROUNDTRIP
360
22496
  0
DICTIONARY
  5
2248F
330
1B2E5
100
AcDbDictionary
280
     1
281
     1
  3
ACAD_XREC_ROUNDTRIP
360
22490
  0
DICTIONARY
  5
22491
330
1B2E6
100
AcDbDictionary
280
     1
281
     1
  3
ACAD_XREC_ROUNDTRIP
360
22492
  0
DICTIONARY
  5
2247A
330
319C
100
AcDbDictionary
280
     1
281
     1
  3
ACAD_XREC_ROUNDTRIP
360
2247B
  0
DICTIONARY
  5
2248B
330
1B2E3
100
AcDbDictionary
280
     1
281
     1
  3
ACAD_XREC_ROUNDTRIP
360
2248C
  0
DICTIONARY
  5
22493
330
1B2E7
100
AcDbDictionary
280
     1
281
     1
  3
ACAD_XREC_ROUNDTRIP
360
22494
  0
XRECORD
  5
224A8
102
{ACAD_REACTORS
330
224A7
102
}
330
224A7
100
AcDbXrecord
280
     1
102
DISPLAYNAME
  1
Imperial24
102
FLAGS
 90
        0
  0
XRECORD
  5
224A2
102
{ACAD_REACTORS
330
224A1
102
}
330
224A1
100
AcDbXrecord
280
     1
102
DISPLAYNAME
  1
Metric50
102
FLAGS
 90
        0
  0
XRECORD
  5
22486
102
{ACAD_REACTORS
330
22485
102
}
330
22485
100
AcDbXrecord
280
     1
102
SHADEPLOT
 70
     0
102
SHADEPLOTRESLEVEL
 70
     2
102
SHADEPLOTCUSTOMDPI
 70
   300
  0
XRECORD
  5
22484
102
{ACAD_REACTORS
330
22483
102
}
330
22483
100
AcDbXrecord
280
     1
102
SHADEPLOT
 70
     0
102
SHADEPLOTRESLEVEL
 70
     2
102
SHADEPLOTCUSTOMDPI
 70
   300
  0
XRECORD
  5
1B22C
102
{ACAD_REACTORS
330
1B22B
102
}
330
1B22B
100
AcDbXrecord
280
     1
102
MATERIAL
148
0.0
149
0.0
149
0.0
 93
        0
 94
      127
282
     0
 72
     1
 77
     1
171
     1
175
     1
179
     1
273
     0
  0
XRECORD
  5
1B22E
102
{ACAD_REACTORS
330
1B22D
102
}
330
1B22D
100
AcDbXrecord
280
     1
102
MATERIAL
148
0.0
149
0.0
149
0.0
 93
        0
 94
      127
282
     0
 72
     1
 77
     1
171
     1
175
     1
179
     1
273
     0
  0
XRECORD
  5
1B230
102
{ACAD_REACTORS
330
1B22F
102
}
330
1B22F
100
AcDbXrecord
280
     1
102
MATERIAL
148
0.0
149
0.0
149
0.0
 93
        0
 94
      127
282
     0
 72
     1
 77
     1
171
     1
175
     1
179
     1
273
     0
  0
XRECORD
  5
224A6
102
{ACAD_REACTORS
330
224A5
102
}
330
224A5
100
AcDbXrecord
280
     1
102
DISPLAYNAME
  1
Imperial24
102
FLAGS
 90
        0
  0
XRECORD
  5
224A0
102
{ACAD_REACTORS
330
2249F
102
}
330
2249F
100
AcDbXrecord
280
     1
102
DISPLAYNAME
  1
Metric50
102
FLAGS
 90
        0
  0
CELLSTYLEMAP
  5
2245F
102
{ACAD_REACTORS
330
1B314
102
}
330
1B314
100
AcDbCellStyleMap
 90
        3
300
CELLSTYLE
  1
TABLEFORMAT_BEGIN
 90
        5
170
     1
 91
        0
 92
    32768
 62
   257
 93
        1
300
CONTENTFORMAT
  1
CONTENTFORMAT_BEGIN
 90
        0
 91
        0
 92
        4
 93
        0
300

 40
0.0
140
1.0
 94
        5
 62
     0
340
11
144
6.0
309
CONTENTFORMAT_END
171
     1
301
MARGIN
  1
CELLMARGIN_BEGIN
 40
1.5
 40
1.5
 40
1.5
 40
1.5
 40
0.18
 40
0.18
309
CELLMARGIN_END
 94
        6
 95
        1
302
GRIDFORMAT
  1
GRIDFORMAT_BEGIN
 90
        0
 91
        1
 62
     0
 92
       -2
340
0
 93
        0
 40
0.045
309
GRIDFORMAT_END
 95
        2
302
GRIDFORMAT
  1
GRIDFORMAT_BEGIN
 90
        0
 91
        1
 62
     0
 92
       -2
340
0
 93
        0
 40
0.045
309
GRIDFORMAT_END
 95
        4
302
GRIDFORMAT
  1
GRIDFORMAT_BEGIN
 90
        0
 91
        1
 62
     0
 92
       -2
340
0
 93
        0
 40
0.045
309
GRIDFORMAT_END
 95
        8
302
GRIDFORMAT
  1
GRIDFORMAT_BEGIN
 90
        0
 91
        1
 62
     0
 92
       -2
340
0
 93
        0
 40
0.045
309
GRIDFORMAT_END
 95
       16
302
GRIDFORMAT
  1
GRIDFORMAT_BEGIN
 90
        0
 91
        1
 62
     0
 92
       -2
340
0
 93
        0
 40
0.045
309
GRIDFORMAT_END
 95
       32
302
GRIDFORMAT
  1
GRIDFORMAT_BEGIN
 90
        0
 91
        1
 62
     0
 92
       -2
340
0
 93
        0
 40
0.045
309
GRIDFORMAT_END
309
TABLEFORMAT_END
  1
CELLSTYLE_BEGIN
 90
        1
 91
        1
300
_TITLE
309
CELLSTYLE_END
300
CELLSTYLE
  1
TABLEFORMAT_BEGIN
 90
        5
170
     1
 91
        0
 92
        0
 62
   257
 93
        1
300
CONTENTFORMAT
  1
CONTENTFORMAT_BEGIN
 90
        0
 91
        0
 92
        4
 93
        0
300

 40
0.0
140
1.0
 94
        5
 62
     0
340
11
144
4.5
309
CONTENTFORMAT_END
171
     1
301
MARGIN
  1
CELLMARGIN_BEGIN
 40
1.5
 40
1.5
 40
1.5
 40
1.5
 40
0.18
 40
0.18
309
CELLMARGIN_END
 94
        6
 95
        1
302
GRIDFORMAT
  1
GRIDFORMAT_BEGIN
 90
        0
 91
        1
 62
     0
 92
       -2
340
0
 93
        0
 40
0.045
309
GRIDFORMAT_END
 95
        2
302
GRIDFORMAT
  1
GRIDFORMAT_BEGIN
 90
        0
 91
        1
 62
     0
 92
       -2
340
0
 93
        0
 40
0.045
309
GRIDFORMAT_END
 95
        4
302
GRIDFORMAT
  1
GRIDFORMAT_BEGIN
 90
        0
 91
        1
 62
     0
 92
       -2
340
0
 93
        0
 40
0.045
309
GRIDFORMAT_END
 95
        8
302
GRIDFORMAT
  1
GRIDFORMAT_BEGIN
 90
        0
 91
        1
 62
     0
 92
       -2
340
0
 93
        0
 40
0.045
309
GRIDFORMAT_END
 95
       16
302
GRIDFORMAT
  1
GRIDFORMAT_BEGIN
 90
        0
 91
        1
 62
     0
 92
       -2
340
0
 93
        0
 40
0.045
309
GRIDFORMAT_END
 95
       32
302
GRIDFORMAT
  1
GRIDFORMAT_BEGIN
 90
        0
 91
        1
 62
     0
 92
       -2
340
0
 93
        0
 40
0.045
309
GRIDFORMAT_END
309
TABLEFORMAT_END
  1
CELLSTYLE_BEGIN
 90
        2
 91
        1
300
_HEADER
309
CELLSTYLE_END
300
CELLSTYLE
  1
TABLEFORMAT_BEGIN
 90
        5
170
     1
 91
        0
 92
        0
 62
   257
 93
        1
300
CONTENTFORMAT
  1
CONTENTFORMAT_BEGIN
 90
        0
 91
        0
 92
        4
 93
        0
300

 40
0.0
140
1.0
 94
        2
 62
     0
340
11
144
4.5
309
CONTENTFORMAT_END
171
     1
301
MARGIN
  1
CELLMARGIN_BEGIN
 40
1.5
 40
1.5
 40
1.5
 40
1.5
 40
0.18
 40
0.18
309
CELLMARGIN_END
 94
        6
 95
        1
302
GRIDFORMAT
  1
GRIDFORMAT_BEGIN
 90
        0
 91
        1
 62
     0
 92
       -2
340
0
 93
        0
 40
0.045
309
GRIDFORMAT_END
 95
        2
302
GRIDFORMAT
  1
GRIDFORMAT_BEGIN
 90
        0
 91
        1
 62
     0
 92
       -2
340
0
 93
        0
 40
0.045
309
GRIDFORMAT_END
 95
        4
302
GRIDFORMAT
  1
GRIDFORMAT_BEGIN
 90
        0
 91
        1
 62
     0
 92
       -2
340
0
 93
        0
 40
0.045
309
GRIDFORMAT_END
 95
        8
302
GRIDFORMAT
  1
GRIDFORMAT_BEGIN
 90
        0
 91
        1
 62
     0
 92
       -2
340
0
 93
        0
 40
0.045
309
GRIDFORMAT_END
 95
       16
302
GRIDFORMAT
  1
GRIDFORMAT_BEGIN
 90
        0
 91
        1
 62
     0
 92
       -2
340
0
 93
        0
 40
0.045
309
GRIDFORMAT_END
 95
       32
302
GRIDFORMAT
  1
GRIDFORMAT_BEGIN
 90
        0
 91
        1
 62
     0
 92
       -2
340
0
 93
        0
 40
0.045
309
GRIDFORMAT_END
309
TABLEFORMAT_END
  1
CELLSTYLE_BEGIN
 90
        3
 91
        2
300
_DATA
309
CELLSTYLE_END
  0
XRECORD
  5
22482
102
{ACAD_REACTORS
330
1B314
102
}
330
1B314
100
AcDbXrecord
280
     1
102
ACAD_ROUNDTRIP_PRE2007_TABLESTYLE
 90
        4
 91
        0
  1

 92
        4
 93
        0
  2

 94
        4
 95
        0
  3

  0
XRECORD
  5
2246D
102
{ACAD_REACTORS
330
2246C
102
}
330
2246C
100
AcDbXrecord
280
     1
102
RTVSPost2010Prop28
280
     1
102
RTVSPost2010PropOp28
 70
     1
102
RTVSPost2010Prop29
280
     1
102
RTVSPost2010PropOp29
 70
     1
102
RTVSPost2010Prop30
280
     0
102
RTVSPost2010PropOp30
 70
     1
102
RTVSPost2010Prop31
280
     0
102
RTVSPost2010PropOp31
 70
     1
102
RTVSPost2010Prop32
280
     0
102
RTVSPost2010PropOp32
 70
     1
102
RTVSPost2010Prop33
280
     0
102
RTVSPost2010PropOp33
 70
     1
102
RTVSPost2010Prop34
280
     0
102
RTVSPost2010PropOp34
 70
     1
102
RTVSPost2010Prop35
280
     0
102
RTVSPost2010PropOp35
 70
     1
102
RTVSPost2010Prop36
280
     0
102
RTVSPost2010PropOp36
 70
     1
102
RTVSPost2010Prop37
 90
       50
102
RTVSPost2010PropOp37
 70
     1
102
RTVSPost2010Prop38
140
0.0
102
RTVSPost2010PropOp38
 70
     1
102
RTVSPost2010Prop39
140
1.0
102
RTVSPost2010PropOp39
 70
     1
102
RTVSPost2010Prop40
 90
        0
102
RTVSPost2010PropOp40
 70
     1
102
RTVSPost2010Prop41ColorIndex
 90
       18
102
RTVSPost2010Prop41ColorRGB
 90
        0
102
RTVSPost2010PropOp41
 70
     1
102
RTVSPost2010Prop42
 90
       50
102
RTVSPost2010PropOp42
 70
     1
102
RTVSPost2010Prop43
 90
        3
102
RTVSPost2010PropOp43
 70
     1
102
RTVSPost2010Prop44ColorIndex
 90
        5
102
RTVSPost2010Prop44ColorRGB
 90
      255
102
RTVSPost2010PropOp44
 70
     1
102
RTVSPost2010Prop45
280
     0
102
RTVSPost2010PropOp45
 70
     1
102
RTVSPost2010Prop46
 90
       50
102
RTVSPost2010PropOp46
 70
     1
102
RTVSPost2010Prop47
 90
       50
102
RTVSPost2010PropOp47
 70
     1
102
RTVSPost2010Prop48
 90
       50
102
RTVSPost2010PropOp48
 70
     1
102
RTVSPost2010Prop49
280
     0
102
RTVSPost2010PropOp49
 70
     1
102
RTVSPost2010Prop50
 90
       50
102
RTVSPost2010PropOp50
 70
     1
102
RTVSPost2010Prop51ColorIndex
 90
      256
102
RTVSPost2010Prop51ColorRGB
 90
-16777216
102
RTVSPost2010PropOp51
 70
     0
102
RTVSPost2010Prop52
140
1.0
102
RTVSPost2010PropOp52
 70
     0
102
RTVSPost2010Prop53
 90
        2
102
RTVSPost2010PropOp53
 70
     1
102
RTVSPost2010Prop54
  1
strokes_ogs.tif
102
RTVSPost2010PropOp54
 70
     1
102
RTVSPost2010Prop55
280
     0
102
RTVSPost2010PropOp55
 70
     1
102
RTVSPost2010Prop56
140
1.0
102
RTVSPost2010PropOp56
 70
     1
102
RTVSPost2010Prop57
140
1.0
102
RTVSPost2010PropOp57
 70
     1
102
RTVSPropertyOp0
 70
     1
102
RTVSPropertyOp1
 70
     1
102
RTVSPropertyOp2
 70
     1
102
RTVSPropertyOp3
 70
     1
102
RTVSPropertyOp4
 70
     1
102
RTVSPropertyOp5
 70
     1
102
RTVSPropertyOp6
 70
     1
102
RTVSPropertyOp7
 70
     1
102
RTVSPropertyOp8
 70
     1
102
RTVSPropertyOp9
 70
     1
102
RTVSPropertyOp10
 70
     1
102
RTVSPropertyOp11
 70
     1
102
RTVSPropertyOp12
 70
     1
102
RTVSPropertyOp13
 70
     1
102
RTVSPropertyOp14
 70
     1
102
RTVSPropertyOp15
 70
     1
102
RTVSPropertyOp16
 70
     1
102
RTVSPropertyOp17
 70
     1
102
RTVSPropertyOp18
 70
     1
102
RTVSPropertyOp19
 70
     1
102
RTVSPropertyOp20
 70
     1
102
RTVSPropertyOp21
 70
     1
102
RTVSPropertyOp22
 70
     1
102
RTVSPropertyOp23
 70
     1
102
RTVSPropertyOp24
 70
     1
102
RTVSPropertyOp25
 70
     1
102
RTVSPropertyOp26
 70
     1
102
RTVSPropertyOp27
 70
     1
102
RTVSPropertyOp28
 70
     1
102
RTVSPropertyOp29
 70
     1
102
RTVSPropertyOp30
 70
     1
102
RTVSPropertyOp31
 70
     1
102
RTVSPropertyOp32
 70
     1
102
RTVSPropertyOp33
 70
     1
102
RTVSPropertyOp34
 70
     1
102
RTVSPropertyOp35
 70
     1
102
RTVSPropertyOp36
 70
     1
102
RTVSPropertyOp37
 70
     1
102
RTVSPropertyOp38
 70
     1
102
RTVSPropertyOp39
 70
     1
102
RTVSPropertyOp40
 70
     1
102
RTVSPropertyOp41
 70
     1
102
RTVSPropertyOp42
 70
     1
102
RTVSPropertyOp43
 70
     1
102
RTVSPropertyOp44
 70
     1
102
RTVSPropertyOp45
 70
     1
102
RTVSPropertyOp46
 70
     1
102
RTVSPropertyOp47
 70
     1
102
RTVSPropertyOp48
 70
     1
102
RTVSPropertyOp49
 70
     1
102
RTVSPropertyOp50
 70
     1
102
RTVSPropertyOp51
 70
     0
102
RTVSPropertyOp52
 70
     0
102
RTVSPropertyOp53
 70
     1
102
RTVSPropertyOp54
 70
     1
102
RTVSPropertyOp55
 70
     1
102
RTVSPropertyOp56
 70
     1
102
RTVSPropertyOp57
 70
     1
102
RTVSPropertyOp58
 70
     1
102
RTVSPropertyOp59
 70
     1
102
RTVSPropertyOp60
 70
     1
102
RTVSPropertyOp61
 70
     1
102
RTVSPropertyOp62
 70
     1
  0
XRECORD
  5
22471
102
{ACAD_REACTORS
330
22470
102
}
330
22470
100
AcDbXrecord
280
     1
102
RTVSPost2010Prop28
280
     0
102
RTVSPost2010PropOp28
 70
     1
102
RTVSPost2010Prop29
280
     1
102
RTVSPost2010PropOp29
 70
     1
102
RTVSPost2010Prop30
280
     1
102
RTVSPost2010PropOp30
 70
     1
102
RTVSPost2010Prop31
280
     0
102
RTVSPost2010PropOp31
 70
     1
102
RTVSPost2010Prop32
280
     0
102
RTVSPost2010PropOp32
 70
     1
102
RTVSPost2010Prop33
280
     0
102
RTVSPost2010PropOp33
 70
     1
102
RTVSPost2010Prop34
280
     0
102
RTVSPost2010PropOp34
 70
     1
102
RTVSPost2010Prop35
280
     0
102
RTVSPost2010PropOp35
 70
     1
102
RTVSPost2010Prop36
280
     0
102
RTVSPost2010PropOp36
 70
     1
102
RTVSPost2010Prop37
 90
       50
102
RTVSPost2010PropOp37
 70
     1
102
RTVSPost2010Prop38
140
0.0
102
RTVSPost2010PropOp38
 70
     1
102
RTVSPost2010Prop39
140
1.0
102
RTVSPost2010PropOp39
 70
     1
102
RTVSPost2010Prop40
 90
        0
102
RTVSPost2010PropOp40
 70
     1
102
RTVSPost2010Prop41ColorIndex
 90
       18
102
RTVSPost2010Prop41ColorRGB
 90
        0
102
RTVSPost2010PropOp41
 70
     1
102
RTVSPost2010Prop42
 90
       50
102
RTVSPost2010PropOp42
 70
     1
102
RTVSPost2010Prop43
 90
        3
102
RTVSPost2010PropOp43
 70
     1
102
RTVSPost2010Prop44ColorIndex
 90
        5
102
RTVSPost2010Prop44ColorRGB
 90
      255
102
RTVSPost2010PropOp44
 70
     1
102
RTVSPost2010Prop45
280
     0
102
RTVSPost2010PropOp45
 70
     1
102
RTVSPost2010Prop46
 90
       50
102
RTVSPost2010PropOp46
 70
     1
102
RTVSPost2010Prop47
 90
       50
102
RTVSPost2010PropOp47
 70
     1
102
RTVSPost2010Prop48
 90
       50
102
RTVSPost2010PropOp48
 70
     1
102
RTVSPost2010Prop49
280
     0
102
RTVSPost2010PropOp49
 70
     1
102
RTVSPost2010Prop50
 90
       50
102
RTVSPost2010PropOp50
 70
     1
102
RTVSPost2010Prop51ColorIndex
 90
      256
102
RTVSPost2010Prop51ColorRGB
 90
-16777216
102
RTVSPost2010PropOp51
 70
     0
102
RTVSPost2010Prop52
140
1.0
102
RTVSPost2010PropOp52
 70
     0
102
RTVSPost2010Prop53
 90
        2
102
RTVSPost2010PropOp53
 70
     1
102
RTVSPost2010Prop54
  1
strokes_ogs.tif
102
RTVSPost2010PropOp54
 70
     1
102
RTVSPost2010Prop55
280
     0
102
RTVSPost2010PropOp55
 70
     1
102
RTVSPost2010Prop56
140
1.0
102
RTVSPost2010PropOp56
 70
     1
102
RTVSPost2010Prop57
140
1.0
102
RTVSPost2010PropOp57
 70
     1
102
RTVSPropertyOp0
 70
     1
102
RTVSPropertyOp1
 70
     1
102
RTVSPropertyOp2
 70
     1
102
RTVSPropertyOp3
 70
     1
102
RTVSPropertyOp4
 70
     1
102
RTVSPropertyOp5
 70
     1
102
RTVSPropertyOp6
 70
     1
102
RTVSPropertyOp7
 70
     1
102
RTVSPropertyOp8
 70
     1
102
RTVSPropertyOp9
 70
     1
102
RTVSPropertyOp10
 70
     1
102
RTVSPropertyOp11
 70
     1
102
RTVSPropertyOp12
 70
     1
102
RTVSPropertyOp13
 70
     1
102
RTVSPropertyOp14
 70
     1
102
RTVSPropertyOp15
 70
     1
102
RTVSPropertyOp16
 70
     1
102
RTVSPropertyOp17
 70
     1
102
RTVSPropertyOp18
 70
     1
102
RTVSPropertyOp19
 70
     1
102
RTVSPropertyOp20
 70
     1
102
RTVSPropertyOp21
 70
     1
102
RTVSPropertyOp22
 70
     1
102
RTVSPropertyOp23
 70
     1
102
RTVSPropertyOp24
 70
     1
102
RTVSPropertyOp25
 70
     1
102
RTVSPropertyOp26
 70
     1
102
RTVSPropertyOp27
 70
     1
102
RTVSPropertyOp28
 70
     1
102
RTVSPropertyOp29
 70
     1
102
RTVSPropertyOp30
 70
     1
102
RTVSPropertyOp31
 70
     1
102
RTVSPropertyOp32
 70
     1
102
RTVSPropertyOp33
 70
     1
102
RTVSPropertyOp34
 70
     1
102
RTVSPropertyOp35
 70
     1
102
RTVSPropertyOp36
 70
     1
102
RTVSPropertyOp37
 70
     1
102
RTVSPropertyOp38
 70
     1
102
RTVSPropertyOp39
 70
     1
102
RTVSPropertyOp40
 70
     1
102
RTVSPropertyOp41
 70
     1
102
RTVSPropertyOp42
 70
     1
102
RTVSPropertyOp43
 70
     1
102
RTVSPropertyOp44
 70
     1
102
RTVSPropertyOp45
 70
     1
102
RTVSPropertyOp46
 70
     1
102
RTVSPropertyOp47
 70
     1
102
RTVSPropertyOp48
 70
     1
102
RTVSPropertyOp49
 70
     1
102
RTVSPropertyOp50
 70
     1
102
RTVSPropertyOp51
 70
     0
102
RTVSPropertyOp52
 70
     0
102
RTVSPropertyOp53
 70
     1
102
RTVSPropertyOp54
 70
     1
102
RTVSPropertyOp55
 70
     1
102
RTVSPropertyOp56
 70
     1
102
RTVSPropertyOp57
 70
     1
102
RTVSPropertyOp58
 70
     1
102
RTVSPropertyOp59
 70
     1
102
RTVSPropertyOp60
 70
     1
102
RTVSPropertyOp61
 70
     1
102
RTVSPropertyOp62
 70
     1
  0
XRECORD
  5
2246F
102
{ACAD_REACTORS
330
2246E
102
}
330
2246E
100
AcDbXrecord
280
     1
102
RTVSPost2010Prop28
280
     0
102
RTVSPost2010PropOp28
 70
     1
102
RTVSPost2010Prop29
280
     1
102
RTVSPost2010PropOp29
 70
     1
102
RTVSPost2010Prop30
280
     1
102
RTVSPost2010PropOp30
 70
     1
102
RTVSPost2010Prop31
280
     0
102
RTVSPost2010PropOp31
 70
     1
102
RTVSPost2010Prop32
280
     0
102
RTVSPost2010PropOp32
 70
     1
102
RTVSPost2010Prop33
280
     0
102
RTVSPost2010PropOp33
 70
     1
102
RTVSPost2010Prop34
280
     0
102
RTVSPost2010PropOp34
 70
     1
102
RTVSPost2010Prop35
280
     0
102
RTVSPost2010PropOp35
 70
     1
102
RTVSPost2010Prop36
280
     0
102
RTVSPost2010PropOp36
 70
     1
102
RTVSPost2010Prop37
 90
       50
102
RTVSPost2010PropOp37
 70
     1
102
RTVSPost2010Prop38
140
0.0
102
RTVSPost2010PropOp38
 70
     1
102
RTVSPost2010Prop39
140
1.0
102
RTVSPost2010PropOp39
 70
     1
102
RTVSPost2010Prop40
 90
        0
102
RTVSPost2010PropOp40
 70
     1
102
RTVSPost2010Prop41ColorIndex
 90
       18
102
RTVSPost2010Prop41ColorRGB
 90
        0
102
RTVSPost2010PropOp41
 70
     1
102
RTVSPost2010Prop42
 90
       50
102
RTVSPost2010PropOp42
 70
     1
102
RTVSPost2010Prop43
 90
        3
102
RTVSPost2010PropOp43
 70
     1
102
RTVSPost2010Prop44ColorIndex
 90
        5
102
RTVSPost2010Prop44ColorRGB
 90
      255
102
RTVSPost2010PropOp44
 70
     1
102
RTVSPost2010Prop45
280
     0
102
RTVSPost2010PropOp45
 70
     1
102
RTVSPost2010Prop46
 90
       50
102
RTVSPost2010PropOp46
 70
     1
102
RTVSPost2010Prop47
 90
       50
102
RTVSPost2010PropOp47
 70
     1
102
RTVSPost2010Prop48
 90
       50
102
RTVSPost2010PropOp48
 70
     1
102
RTVSPost2010Prop49
280
     0
102
RTVSPost2010PropOp49
 70
     1
102
RTVSPost2010Prop50
 90
       50
102
RTVSPost2010PropOp50
 70
     1
102
RTVSPost2010Prop51ColorIndex
 90
      256
102
RTVSPost2010Prop51ColorRGB
 90
-16777216
102
RTVSPost2010PropOp51
 70
     0
102
RTVSPost2010Prop52
140
1.0
102
RTVSPost2010PropOp52
 70
     0
102
RTVSPost2010Prop53
 90
        2
102
RTVSPost2010PropOp53
 70
     1
102
RTVSPost2010Prop54
  1
strokes_ogs.tif
102
RTVSPost2010PropOp54
 70
     1
102
RTVSPost2010Prop55
280
     0
102
RTVSPost2010PropOp55
 70
     1
102
RTVSPost2010Prop56
140
1.0
102
RTVSPost2010PropOp56
 70
     1
102
RTVSPost2010Prop57
140
1.0
102
RTVSPost2010PropOp57
 70
     1
102
RTVSPropertyOp0
 70
     1
102
RTVSPropertyOp1
 70
     1
102
RTVSPropertyOp2
 70
     1
102
RTVSPropertyOp3
 70
     1
102
RTVSPropertyOp4
 70
     1
102
RTVSPropertyOp5
 70
     1
102
RTVSPropertyOp6
 70
     1
102
RTVSPropertyOp7
 70
     1
102
RTVSPropertyOp8
 70
     1
102
RTVSPropertyOp9
 70
     1
102
RTVSPropertyOp10
 70
     1
102
RTVSPropertyOp11
 70
     1
102
RTVSPropertyOp12
 70
     1
102
RTVSPropertyOp13
 70
     1
102
RTVSPropertyOp14
 70
     1
102
RTVSPropertyOp15
 70
     1
102
RTVSPropertyOp16
 70
     1
102
RTVSPropertyOp17
 70
     1
102
RTVSPropertyOp18
 70
     1
102
RTVSPropertyOp19
 70
     1
102
RTVSPropertyOp20
 70
     1
102
RTVSPropertyOp21
 70
     1
102
RTVSPropertyOp22
 70
     1
102
RTVSPropertyOp23
 70
     1
102
RTVSPropertyOp24
 70
     1
102
RTVSPropertyOp25
 70
     1
102
RTVSPropertyOp26
 70
     1
102
RTVSPropertyOp27
 70
     1
102
RTVSPropertyOp28
 70
     1
102
RTVSPropertyOp29
 70
     1
102
RTVSPropertyOp30
 70
     1
102
RTVSPropertyOp31
 70
     1
102
RTVSPropertyOp32
 70
     1
102
RTVSPropertyOp33
 70
     1
102
RTVSPropertyOp34
 70
     1
102
RTVSPropertyOp35
 70
     1
102
RTVSPropertyOp36
 70
     1
102
RTVSPropertyOp37
 70
     1
102
RTVSPropertyOp38
 70
     1
102
RTVSPropertyOp39
 70
     1
102
RTVSPropertyOp40
 70
     1
102
RTVSPropertyOp41
 70
     1
102
RTVSPropertyOp42
 70
     1
102
RTVSPropertyOp43
 70
     1
102
RTVSPropertyOp44
 70
     1
102
RTVSPropertyOp45
 70
     1
102
RTVSPropertyOp46
 70
     1
102
RTVSPropertyOp47
 70
     1
102
RTVSPropertyOp48
 70
     1
102
RTVSPropertyOp49
 70
     1
102
RTVSPropertyOp50
 70
     1
102
RTVSPropertyOp51
 70
     0
102
RTVSPropertyOp52
 70
     0
102
RTVSPropertyOp53
 70
     1
102
RTVSPropertyOp54
 70
     1
102
RTVSPropertyOp55
 70
     1
102
RTVSPropertyOp56
 70
     1
102
RTVSPropertyOp57
 70
     1
102
RTVSPropertyOp58
 70
     1
102
RTVSPropertyOp59
 70
     1
102
RTVSPropertyOp60
 70
     1
102
RTVSPropertyOp61
 70
     1
102
RTVSPropertyOp62
 70
     1
  0
XRECORD
  5
2246B
102
{ACAD_REACTORS
330
2246A
102
}
330
2246A
100
AcDbXrecord
280
     1
102
RTVSPost2010Prop28
280
     0
102
RTVSPost2010PropOp28
 70
     1
102
RTVSPost2010Prop29
280
     1
102
RTVSPost2010PropOp29
 70
     1
102
RTVSPost2010Prop30
280
     1
102
RTVSPost2010PropOp30
 70
     1
102
RTVSPost2010Prop31
280
     0
102
RTVSPost2010PropOp31
 70
     1
102
RTVSPost2010Prop32
280
     0
102
RTVSPost2010PropOp32
 70
     1
102
RTVSPost2010Prop33
280
     0
102
RTVSPost2010PropOp33
 70
     1
102
RTVSPost2010Prop34
280
     0
102
RTVSPost2010PropOp34
 70
     1
102
RTVSPost2010Prop35
280
     0
102
RTVSPost2010PropOp35
 70
     1
102
RTVSPost2010Prop36
280
     0
102
RTVSPost2010PropOp36
 70
     1
102
RTVSPost2010Prop37
 90
       50
102
RTVSPost2010PropOp37
 70
     1
102
RTVSPost2010Prop38
140
0.0
102
RTVSPost2010PropOp38
 70
     1
102
RTVSPost2010Prop39
140
1.0
102
RTVSPost2010PropOp39
 70
     1
102
RTVSPost2010Prop40
 90
        0
102
RTVSPost2010PropOp40
 70
     1
102
RTVSPost2010Prop41ColorIndex
 90
       18
102
RTVSPost2010Prop41ColorRGB
 90
        0
102
RTVSPost2010PropOp41
 70
     1
102
RTVSPost2010Prop42
 90
       50
102
RTVSPost2010PropOp42
 70
     1
102
RTVSPost2010Prop43
 90
        3
102
RTVSPost2010PropOp43
 70
     1
102
RTVSPost2010Prop44ColorIndex
 90
        5
102
RTVSPost2010Prop44ColorRGB
 90
      255
102
RTVSPost2010PropOp44
 70
     1
102
RTVSPost2010Prop45
280
     0
102
RTVSPost2010PropOp45
 70
     1
102
RTVSPost2010Prop46
 90
       50
102
RTVSPost2010PropOp46
 70
     1
102
RTVSPost2010Prop47
 90
       50
102
RTVSPost2010PropOp47
 70
     1
102
RTVSPost2010Prop48
 90
       50
102
RTVSPost2010PropOp48
 70
     1
102
RTVSPost2010Prop49
280
     0
102
RTVSPost2010PropOp49
 70
     1
102
RTVSPost2010Prop50
 90
       50
102
RTVSPost2010PropOp50
 70
     1
102
RTVSPost2010Prop51ColorIndex
 90
      256
102
RTVSPost2010Prop51ColorRGB
 90
-16777216
102
RTVSPost2010PropOp51
 70
     0
102
RTVSPost2010Prop52
140
1.0
102
RTVSPost2010PropOp52
 70
     0
102
RTVSPost2010Prop53
 90
        2
102
RTVSPost2010PropOp53
 70
     1
102
RTVSPost2010Prop54
  1
strokes_ogs.tif
102
RTVSPost2010PropOp54
 70
     1
102
RTVSPost2010Prop55
280
     0
102
RTVSPost2010PropOp55
 70
     1
102
RTVSPost2010Prop56
140
1.0
102
RTVSPost2010PropOp56
 70
     1
102
RTVSPost2010Prop57
140
1.0
102
RTVSPost2010PropOp57
 70
     1
102
RTVSPropertyOp0
 70
     1
102
RTVSPropertyOp1
 70
     1
102
RTVSPropertyOp2
 70
     1
102
RTVSPropertyOp3
 70
     1
102
RTVSPropertyOp4
 70
     1
102
RTVSPropertyOp5
 70
     1
102
RTVSPropertyOp6
 70
     1
102
RTVSPropertyOp7
 70
     1
102
RTVSPropertyOp8
 70
     1
102
RTVSPropertyOp9
 70
     1
102
RTVSPropertyOp10
 70
     1
102
RTVSPropertyOp11
 70
     1
102
RTVSPropertyOp12
 70
     1
102
RTVSPropertyOp13
 70
     1
102
RTVSPropertyOp14
 70
     1
102
RTVSPropertyOp15
 70
     1
102
RTVSPropertyOp16
 70
     1
102
RTVSPropertyOp17
 70
     1
102
RTVSPropertyOp18
 70
     1
102
RTVSPropertyOp19
 70
     1
102
RTVSPropertyOp20
 70
     1
102
RTVSPropertyOp21
 70
     1
102
RTVSPropertyOp22
 70
     1
102
RTVSPropertyOp23
 70
     1
102
RTVSPropertyOp24
 70
     1
102
RTVSPropertyOp25
 70
     1
102
RTVSPropertyOp26
 70
     1
102
RTVSPropertyOp27
 70
     1
102
RTVSPropertyOp28
 70
     1
102
RTVSPropertyOp29
 70
     1
102
RTVSPropertyOp30
 70
     1
102
RTVSPropertyOp31
 70
     1
102
RTVSPropertyOp32
 70
     1
102
RTVSPropertyOp33
 70
     1
102
RTVSPropertyOp34
 70
     1
102
RTVSPropertyOp35
 70
     1
102
RTVSPropertyOp36
 70
     1
102
RTVSPropertyOp37
 70
     1
102
RTVSPropertyOp38
 70
     1
102
RTVSPropertyOp39
 70
     1
102
RTVSPropertyOp40
 70
     1
102
RTVSPropertyOp41
 70
     1
102
RTVSPropertyOp42
 70
     1
102
RTVSPropertyOp43
 70
     1
102
RTVSPropertyOp44
 70
     1
102
RTVSPropertyOp45
 70
     1
102
RTVSPropertyOp46
 70
     1
102
RTVSPropertyOp47
 70
     1
102
RTVSPropertyOp48
 70
     1
102
RTVSPropertyOp49
 70
     1
102
RTVSPropertyOp50
 70
     1
102
RTVSPropertyOp51
 70
     0
102
RTVSPropertyOp52
 70
     0
102
RTVSPropertyOp53
 70
     1
102
RTVSPropertyOp54
 70
     1
102
RTVSPropertyOp55
 70
     1
102
RTVSPropertyOp56
 70
     1
102
RTVSPropertyOp57
 70
     1
102
RTVSPropertyOp58
 70
     1
102
RTVSPropertyOp59
 70
     1
102
RTVSPropertyOp60
 70
     1
102
RTVSPropertyOp61
 70
     1
102
RTVSPropertyOp62
 70
     1
  0
XRECORD
  5
22479
102
{ACAD_REACTORS
330
22478
102
}
330
22478
100
AcDbXrecord
280
     1
102
RTVSPost2010Prop28
280
     0
102
RTVSPost2010PropOp28
 70
     1
102
RTVSPost2010Prop29
280
     1
102
RTVSPost2010PropOp29
 70
     1
102
RTVSPost2010Prop30
280
     1
102
RTVSPost2010PropOp30
 70
     1
102
RTVSPost2010Prop31
280
     0
102
RTVSPost2010PropOp31
 70
     1
102
RTVSPost2010Prop32
280
     0
102
RTVSPost2010PropOp32
 70
     1
102
RTVSPost2010Prop33
280
     0
102
RTVSPost2010PropOp33
 70
     1
102
RTVSPost2010Prop34
280
     0
102
RTVSPost2010PropOp34
 70
     1
102
RTVSPost2010Prop35
280
     0
102
RTVSPost2010PropOp35
 70
     1
102
RTVSPost2010Prop36
280
     0
102
RTVSPost2010PropOp36
 70
     1
102
RTVSPost2010Prop37
 90
       50
102
RTVSPost2010PropOp37
 70
     1
102
RTVSPost2010Prop38
140
0.0
102
RTVSPost2010PropOp38
 70
     1
102
RTVSPost2010Prop39
140
1.0
102
RTVSPost2010PropOp39
 70
     1
102
RTVSPost2010Prop40
 90
        0
102
RTVSPost2010PropOp40
 70
     1
102
RTVSPost2010Prop41ColorIndex
 90
       18
102
RTVSPost2010Prop41ColorRGB
 90
        0
102
RTVSPost2010PropOp41
 70
     1
102
RTVSPost2010Prop42
 90
       50
102
RTVSPost2010PropOp42
 70
     1
102
RTVSPost2010Prop43
 90
        3
102
RTVSPost2010PropOp43
 70
     1
102
RTVSPost2010Prop44ColorIndex
 90
        5
102
RTVSPost2010Prop44ColorRGB
 90
      255
102
RTVSPost2010PropOp44
 70
     1
102
RTVSPost2010Prop45
280
     0
102
RTVSPost2010PropOp45
 70
     1
102
RTVSPost2010Prop46
 90
       50
102
RTVSPost2010PropOp46
 70
     1
102
RTVSPost2010Prop47
 90
       50
102
RTVSPost2010PropOp47
 70
     1
102
RTVSPost2010Prop48
 90
       50
102
RTVSPost2010PropOp48
 70
     1
102
RTVSPost2010Prop49
280
     0
102
RTVSPost2010PropOp49
 70
     1
102
RTVSPost2010Prop50
 90
       50
102
RTVSPost2010PropOp50
 70
     1
102
RTVSPost2010Prop51ColorIndex
 90
      256
102
RTVSPost2010Prop51ColorRGB
 90
-16777216
102
RTVSPost2010PropOp51
 70
     0
102
RTVSPost2010Prop52
140
1.0
102
RTVSPost2010PropOp52
 70
     0
102
RTVSPost2010Prop53
 90
        2
102
RTVSPost2010PropOp53
 70
     1
102
RTVSPost2010Prop54
  1
strokes_ogs.tif
102
RTVSPost2010PropOp54
 70
     1
102
RTVSPost2010Prop55
280
     0
102
RTVSPost2010PropOp55
 70
     1
102
RTVSPost2010Prop56
140
1.0
102
RTVSPost2010PropOp56
 70
     1
102
RTVSPost2010Prop57
140
1.0
102
RTVSPost2010PropOp57
 70
     1
102
RTVSPropertyOp0
 70
     1
102
RTVSPropertyOp1
 70
     1
102
RTVSPropertyOp2
 70
     1
102
RTVSPropertyOp3
 70
     1
102
RTVSPropertyOp4
 70
     1
102
RTVSPropertyOp5
 70
     1
102
RTVSPropertyOp6
 70
     1
102
RTVSPropertyOp7
 70
     1
102
RTVSPropertyOp8
 70
     1
102
RTVSPropertyOp9
 70
     1
102
RTVSPropertyOp10
 70
     1
102
RTVSPropertyOp11
 70
     1
102
RTVSPropertyOp12
 70
     1
102
RTVSPropertyOp13
 70
     1
102
RTVSPropertyOp14
 70
     1
102
RTVSPropertyOp15
 70
     1
102
RTVSPropertyOp16
 70
     1
102
RTVSPropertyOp17
 70
     1
102
RTVSPropertyOp18
 70
     1
102
RTVSPropertyOp19
 70
     1
102
RTVSPropertyOp20
 70
     1
102
RTVSPropertyOp21
 70
     1
102
RTVSPropertyOp22
 70
     1
102
RTVSPropertyOp23
 70
     1
102
RTVSPropertyOp24
 70
     1
102
RTVSPropertyOp25
 70
     1
102
RTVSPropertyOp26
 70
     1
102
RTVSPropertyOp27
 70
     1
102
RTVSPropertyOp28
 70
     1
102
RTVSPropertyOp29
 70
     1
102
RTVSPropertyOp30
 70
     1
102
RTVSPropertyOp31
 70
     1
102
RTVSPropertyOp32
 70
     1
102
RTVSPropertyOp33
 70
     1
102
RTVSPropertyOp34
 70
     1
102
RTVSPropertyOp35
 70
     1
102
RTVSPropertyOp36
 70
     1
102
RTVSPropertyOp37
 70
     1
102
RTVSPropertyOp38
 70
     1
102
RTVSPropertyOp39
 70
     1
102
RTVSPropertyOp40
 70
     1
102
RTVSPropertyOp41
 70
     1
102
RTVSPropertyOp42
 70
     1
102
RTVSPropertyOp43
 70
     1
102
RTVSPropertyOp44
 70
     1
102
RTVSPropertyOp45
 70
     1
102
RTVSPropertyOp46
 70
     1
102
RTVSPropertyOp47
 70
     1
102
RTVSPropertyOp48
 70
     1
102
RTVSPropertyOp49
 70
     1
102
RTVSPropertyOp50
 70
     1
102
RTVSPropertyOp51
 70
     0
102
RTVSPropertyOp52
 70
     0
102
RTVSPropertyOp53
 70
     1
102
RTVSPropertyOp54
 70
     1
102
RTVSPropertyOp55
 70
     1
102
RTVSPropertyOp56
 70
     1
102
RTVSPropertyOp57
 70
     1
102
RTVSPropertyOp58
 70
     1
102
RTVSPropertyOp59
 70
     1
102
RTVSPropertyOp60
 70
     1
102
RTVSPropertyOp61
 70
     1
102
RTVSPropertyOp62
 70
     1
  0
XRECORD
  5
22481
102
{ACAD_REACTORS
330
22480
102
}
330
22480
100
AcDbXrecord
280
     1
102
RTVSPost2010Prop28
280
     0
102
RTVSPost2010PropOp28
 70
     1
102
RTVSPost2010Prop29
280
     1
102
RTVSPost2010PropOp29
 70
     1
102
RTVSPost2010Prop30
280
     1
102
RTVSPost2010PropOp30
 70
     1
102
RTVSPost2010Prop31
280
     0
102
RTVSPost2010PropOp31
 70
     1
102
RTVSPost2010Prop32
280
     0
102
RTVSPost2010PropOp32
 70
     1
102
RTVSPost2010Prop33
280
     0
102
RTVSPost2010PropOp33
 70
     1
102
RTVSPost2010Prop34
280
     0
102
RTVSPost2010PropOp34
 70
     1
102
RTVSPost2010Prop35
280
     0
102
RTVSPost2010PropOp35
 70
     1
102
RTVSPost2010Prop36
280
     0
102
RTVSPost2010PropOp36
 70
     1
102
RTVSPost2010Prop37
 90
       50
102
RTVSPost2010PropOp37
 70
     1
102
RTVSPost2010Prop38
140
0.0
102
RTVSPost2010PropOp38
 70
     1
102
RTVSPost2010Prop39
140
1.0
102
RTVSPost2010PropOp39
 70
     1
102
RTVSPost2010Prop40
 90
        0
102
RTVSPost2010PropOp40
 70
     1
102
RTVSPost2010Prop41ColorIndex
 90
       18
102
RTVSPost2010Prop41ColorRGB
 90
        0
102
RTVSPost2010PropOp41
 70
     1
102
RTVSPost2010Prop42
 90
       50
102
RTVSPost2010PropOp42
 70
     1
102
RTVSPost2010Prop43
 90
        3
102
RTVSPost2010PropOp43
 70
     1
102
RTVSPost2010Prop44ColorIndex
 90
        5
102
RTVSPost2010Prop44ColorRGB
 90
      255
102
RTVSPost2010PropOp44
 70
     1
102
RTVSPost2010Prop45
280
     0
102
RTVSPost2010PropOp45
 70
     1
102
RTVSPost2010Prop46
 90
       50
102
RTVSPost2010PropOp46
 70
     1
102
RTVSPost2010Prop47
 90
       50
102
RTVSPost2010PropOp47
 70
     1
102
RTVSPost2010Prop48
 90
       50
102
RTVSPost2010PropOp48
 70
     1
102
RTVSPost2010Prop49
280
     0
102
RTVSPost2010PropOp49
 70
     1
102
RTVSPost2010Prop50
 90
       50
102
RTVSPost2010PropOp50
 70
     1
102
RTVSPost2010Prop51ColorIndex
 90
      256
102
RTVSPost2010Prop51ColorRGB
 90
-16777216
102
RTVSPost2010PropOp51
 70
     0
102
RTVSPost2010Prop52
140
1.0
102
RTVSPost2010PropOp52
 70
     0
102
RTVSPost2010Prop53
 90
        2
102
RTVSPost2010PropOp53
 70
     1
102
RTVSPost2010Prop54
  1
strokes_ogs.tif
102
RTVSPost2010PropOp54
 70
     1
102
RTVSPost2010Prop55
280
     0
102
RTVSPost2010PropOp55
 70
     1
102
RTVSPost2010Prop56
140
1.0
102
RTVSPost2010PropOp56
 70
     1
102
RTVSPost2010Prop57
140
1.0
102
RTVSPost2010PropOp57
 70
     1
102
RTVSPropertyOp0
 70
     1
102
RTVSPropertyOp1
 70
     1
102
RTVSPropertyOp2
 70
     1
102
RTVSPropertyOp3
 70
     1
102
RTVSPropertyOp4
 70
     1
102
RTVSPropertyOp5
 70
     1
102
RTVSPropertyOp6
 70
     1
102
RTVSPropertyOp7
 70
     1
102
RTVSPropertyOp8
 70
     1
102
RTVSPropertyOp9
 70
     1
102
RTVSPropertyOp10
 70
     1
102
RTVSPropertyOp11
 70
     1
102
RTVSPropertyOp12
 70
     1
102
RTVSPropertyOp13
 70
     1
102
RTVSPropertyOp14
 70
     1
102
RTVSPropertyOp15
 70
     1
102
RTVSPropertyOp16
 70
     1
102
RTVSPropertyOp17
 70
     1
102
RTVSPropertyOp18
 70
     1
102
RTVSPropertyOp19
 70
     1
102
RTVSPropertyOp20
 70
     1
102
RTVSPropertyOp21
 70
     1
102
RTVSPropertyOp22
 70
     1
102
RTVSPropertyOp23
 70
     1
102
RTVSPropertyOp24
 70
     1
102
RTVSPropertyOp25
 70
     1
102
RTVSPropertyOp26
 70
     1
102
RTVSPropertyOp27
 70
     1
102
RTVSPropertyOp28
 70
     1
102
RTVSPropertyOp29
 70
     1
102
RTVSPropertyOp30
 70
     1
102
RTVSPropertyOp31
 70
     1
102
RTVSPropertyOp32
 70
     1
102
RTVSPropertyOp33
 70
     1
102
RTVSPropertyOp34
 70
     1
102
RTVSPropertyOp35
 70
     1
102
RTVSPropertyOp36
 70
     1
102
RTVSPropertyOp37
 70
     1
102
RTVSPropertyOp38
 70
     1
102
RTVSPropertyOp39
 70
     1
102
RTVSPropertyOp40
 70
     1
102
RTVSPropertyOp41
 70
     1
102
RTVSPropertyOp42
 70
     1
102
RTVSPropertyOp43
 70
     1
102
RTVSPropertyOp44
 70
     1
102
RTVSPropertyOp45
 70
     1
102
RTVSPropertyOp46
 70
     1
102
RTVSPropertyOp47
 70
     1
102
RTVSPropertyOp48
 70
     1
102
RTVSPropertyOp49
 70
     1
102
RTVSPropertyOp50
 70
     1
102
RTVSPropertyOp51
 70
     0
102
RTVSPropertyOp52
 70
     0
102
RTVSPropertyOp53
 70
     1
102
RTVSPropertyOp54
 70
     1
102
RTVSPropertyOp55
 70
     1
102
RTVSPropertyOp56
 70
     1
102
RTVSPropertyOp57
 70
     1
102
RTVSPropertyOp58
 70
     1
102
RTVSPropertyOp59
 70
     1
102
RTVSPropertyOp60
 70
     1
102
RTVSPropertyOp61
 70
     1
102
RTVSPropertyOp62
 70
     1
  0
XRECORD
  5
22473
102
{ACAD_REACTORS
330
22472
102
}
330
22472
100
AcDbXrecord
280
     1
102
RTVSPost2010Prop28
280
     0
102
RTVSPost2010PropOp28
 70
     1
102
RTVSPost2010Prop29
280
     1
102
RTVSPost2010PropOp29
 70
     1
102
RTVSPost2010Prop30
280
     1
102
RTVSPost2010PropOp30
 70
     1
102
RTVSPost2010Prop31
280
     0
102
RTVSPost2010PropOp31
 70
     1
102
RTVSPost2010Prop32
280
     0
102
RTVSPost2010PropOp32
 70
     1
102
RTVSPost2010Prop33
280
     0
102
RTVSPost2010PropOp33
 70
     1
102
RTVSPost2010Prop34
280
     0
102
RTVSPost2010PropOp34
 70
     1
102
RTVSPost2010Prop35
280
     0
102
RTVSPost2010PropOp35
 70
     1
102
RTVSPost2010Prop36
280
     0
102
RTVSPost2010PropOp36
 70
     1
102
RTVSPost2010Prop37
 90
       50
102
RTVSPost2010PropOp37
 70
     1
102
RTVSPost2010Prop38
140
0.0
102
RTVSPost2010PropOp38
 70
     1
102
RTVSPost2010Prop39
140
1.0
102
RTVSPost2010PropOp39
 70
     1
102
RTVSPost2010Prop40
 90
        0
102
RTVSPost2010PropOp40
 70
     1
102
RTVSPost2010Prop41ColorIndex
 90
       18
102
RTVSPost2010Prop41ColorRGB
 90
        0
102
RTVSPost2010PropOp41
 70
     1
102
RTVSPost2010Prop42
 90
       50
102
RTVSPost2010PropOp42
 70
     1
102
RTVSPost2010Prop43
 90
        3
102
RTVSPost2010PropOp43
 70
     1
102
RTVSPost2010Prop44ColorIndex
 90
        5
102
RTVSPost2010Prop44ColorRGB
 90
      255
102
RTVSPost2010PropOp44
 70
     1
102
RTVSPost2010Prop45
280
     0
102
RTVSPost2010PropOp45
 70
     1
102
RTVSPost2010Prop46
 90
       50
102
RTVSPost2010PropOp46
 70
     1
102
RTVSPost2010Prop47
 90
       50
102
RTVSPost2010PropOp47
 70
     1
102
RTVSPost2010Prop48
 90
       50
102
RTVSPost2010PropOp48
 70
     1
102
RTVSPost2010Prop49
280
     0
102
RTVSPost2010PropOp49
 70
     1
102
RTVSPost2010Prop50
 90
       50
102
RTVSPost2010PropOp50
 70
     1
102
RTVSPost2010Prop51ColorIndex
 90
      256
102
RTVSPost2010Prop51ColorRGB
 90
-16777216
102
RTVSPost2010PropOp51
 70
     0
102
RTVSPost2010Prop52
140
1.0
102
RTVSPost2010PropOp52
 70
     0
102
RTVSPost2010Prop53
 90
        2
102
RTVSPost2010PropOp53
 70
     1
102
RTVSPost2010Prop54
  1
strokes_ogs.tif
102
RTVSPost2010PropOp54
 70
     1
102
RTVSPost2010Prop55
280
     0
102
RTVSPost2010PropOp55
 70
     1
102
RTVSPost2010Prop56
140
1.0
102
RTVSPost2010PropOp56
 70
     1
102
RTVSPost2010Prop57
140
1.0
102
RTVSPost2010PropOp57
 70
     1
102
RTVSPropertyOp0
 70
     1
102
RTVSPropertyOp1
 70
     1
102
RTVSPropertyOp2
 70
     1
102
RTVSPropertyOp3
 70
     1
102
RTVSPropertyOp4
 70
     1
102
RTVSPropertyOp5
 70
     1
102
RTVSPropertyOp6
 70
     1
102
RTVSPropertyOp7
 70
     1
102
RTVSPropertyOp8
 70
     1
102
RTVSPropertyOp9
 70
     1
102
RTVSPropertyOp10
 70
     1
102
RTVSPropertyOp11
 70
     1
102
RTVSPropertyOp12
 70
     1
102
RTVSPropertyOp13
 70
     1
102
RTVSPropertyOp14
 70
     1
102
RTVSPropertyOp15
 70
     1
102
RTVSPropertyOp16
 70
     1
102
RTVSPropertyOp17
 70
     1
102
RTVSPropertyOp18
 70
     1
102
RTVSPropertyOp19
 70
     1
102
RTVSPropertyOp20
 70
     1
102
RTVSPropertyOp21
 70
     1
102
RTVSPropertyOp22
 70
     1
102
RTVSPropertyOp23
 70
     1
102
RTVSPropertyOp24
 70
     1
102
RTVSPropertyOp25
 70
     1
102
RTVSPropertyOp26
 70
     1
102
RTVSPropertyOp27
 70
     1
102
RTVSPropertyOp28
 70
     1
102
RTVSPropertyOp29
 70
     1
102
RTVSPropertyOp30
 70
     1
102
RTVSPropertyOp31
 70
     1
102
RTVSPropertyOp32
 70
     1
102
RTVSPropertyOp33
 70
     1
102
RTVSPropertyOp34
 70
     1
102
RTVSPropertyOp35
 70
     1
102
RTVSPropertyOp36
 70
     1
102
RTVSPropertyOp37
 70
     1
102
RTVSPropertyOp38
 70
     1
102
RTVSPropertyOp39
 70
     1
102
RTVSPropertyOp40
 70
     1
102
RTVSPropertyOp41
 70
     1
102
RTVSPropertyOp42
 70
     1
102
RTVSPropertyOp43
 70
     1
102
RTVSPropertyOp44
 70
     1
102
RTVSPropertyOp45
 70
     1
102
RTVSPropertyOp46
 70
     1
102
RTVSPropertyOp47
 70
     1
102
RTVSPropertyOp48
 70
     1
102
RTVSPropertyOp49
 70
     1
102
RTVSPropertyOp50
 70
     1
102
RTVSPropertyOp51
 70
     0
102
RTVSPropertyOp52
 70
     0
102
RTVSPropertyOp53
 70
     1
102
RTVSPropertyOp54
 70
     1
102
RTVSPropertyOp55
 70
     1
102
RTVSPropertyOp56
 70
     1
102
RTVSPropertyOp57
 70
     1
102
RTVSPropertyOp58
 70
     1
102
RTVSPropertyOp59
 70
     1
102
RTVSPropertyOp60
 70
     1
102
RTVSPropertyOp61
 70
     1
102
RTVSPropertyOp62
 70
     1
  0
XRECORD
  5
22477
102
{ACAD_REACTORS
330
22476
102
}
330
22476
100
AcDbXrecord
280
     1
102
RTVSPost2010Prop28
280
     0
102
RTVSPost2010PropOp28
 70
     1
102
RTVSPost2010Prop29
280
     1
102
RTVSPost2010PropOp29
 70
     1
102
RTVSPost2010Prop30
280
     1
102
RTVSPost2010PropOp30
 70
     1
102
RTVSPost2010Prop31
280
     0
102
RTVSPost2010PropOp31
 70
     1
102
RTVSPost2010Prop32
280
     0
102
RTVSPost2010PropOp32
 70
     1
102
RTVSPost2010Prop33
280
     0
102
RTVSPost2010PropOp33
 70
     1
102
RTVSPost2010Prop34
280
     0
102
RTVSPost2010PropOp34
 70
     1
102
RTVSPost2010Prop35
280
     0
102
RTVSPost2010PropOp35
 70
     1
102
RTVSPost2010Prop36
280
     0
102
RTVSPost2010PropOp36
 70
     1
102
RTVSPost2010Prop37
 90
       50
102
RTVSPost2010PropOp37
 70
     1
102
RTVSPost2010Prop38
140
0.0
102
RTVSPost2010PropOp38
 70
     1
102
RTVSPost2010Prop39
140
1.0
102
RTVSPost2010PropOp39
 70
     1
102
RTVSPost2010Prop40
 90
        0
102
RTVSPost2010PropOp40
 70
     1
102
RTVSPost2010Prop41ColorIndex
 90
       18
102
RTVSPost2010Prop41ColorRGB
 90
        0
102
RTVSPost2010PropOp41
 70
     1
102
RTVSPost2010Prop42
 90
       50
102
RTVSPost2010PropOp42
 70
     1
102
RTVSPost2010Prop43
 90
        3
102
RTVSPost2010PropOp43
 70
     1
102
RTVSPost2010Prop44ColorIndex
 90
        5
102
RTVSPost2010Prop44ColorRGB
 90
      255
102
RTVSPost2010PropOp44
 70
     1
102
RTVSPost2010Prop45
280
     0
102
RTVSPost2010PropOp45
 70
     1
102
RTVSPost2010Prop46
 90
       50
102
RTVSPost2010PropOp46
 70
     1
102
RTVSPost2010Prop47
 90
       50
102
RTVSPost2010PropOp47
 70
     1
102
RTVSPost2010Prop48
 90
       50
102
RTVSPost2010PropOp48
 70
     1
102
RTVSPost2010Prop49
280
     0
102
RTVSPost2010PropOp49
 70
     1
102
RTVSPost2010Prop50
 90
       50
102
RTVSPost2010PropOp50
 70
     1
102
RTVSPost2010Prop51ColorIndex
 90
      256
102
RTVSPost2010Prop51ColorRGB
 90
-16777216
102
RTVSPost2010PropOp51
 70
     0
102
RTVSPost2010Prop52
140
1.0
102
RTVSPost2010PropOp52
 70
     0
102
RTVSPost2010Prop53
 90
        2
102
RTVSPost2010PropOp53
 70
     1
102
RTVSPost2010Prop54
  1
strokes_ogs.tif
102
RTVSPost2010PropOp54
 70
     1
102
RTVSPost2010Prop55
280
     0
102
RTVSPost2010PropOp55
 70
     1
102
RTVSPost2010Prop56
140
1.0
102
RTVSPost2010PropOp56
 70
     1
102
RTVSPost2010Prop57
140
1.0
102
RTVSPost2010PropOp57
 70
     1
102
RTVSPropertyOp0
 70
     1
102
RTVSPropertyOp1
 70
     1
102
RTVSPropertyOp2
 70
     1
102
RTVSPropertyOp3
 70
     1
102
RTVSPropertyOp4
 70
     1
102
RTVSPropertyOp5
 70
     1
102
RTVSPropertyOp6
 70
     1
102
RTVSPropertyOp7
 70
     1
102
RTVSPropertyOp8
 70
     1
102
RTVSPropertyOp9
 70
     1
102
RTVSPropertyOp10
 70
     1
102
RTVSPropertyOp11
 70
     1
102
RTVSPropertyOp12
 70
     1
102
RTVSPropertyOp13
 70
     1
102
RTVSPropertyOp14
 70
     1
102
RTVSPropertyOp15
 70
     1
102
RTVSPropertyOp16
 70
     1
102
RTVSPropertyOp17
 70
     1
102
RTVSPropertyOp18
 70
     1
102
RTVSPropertyOp19
 70
     1
102
RTVSPropertyOp20
 70
     1
102
RTVSPropertyOp21
 70
     1
102
RTVSPropertyOp22
 70
     1
102
RTVSPropertyOp23
 70
     1
102
RTVSPropertyOp24
 70
     1
102
RTVSPropertyOp25
 70
     1
102
RTVSPropertyOp26
 70
     1
102
RTVSPropertyOp27
 70
     1
102
RTVSPropertyOp28
 70
     1
102
RTVSPropertyOp29
 70
     1
102
RTVSPropertyOp30
 70
     1
102
RTVSPropertyOp31
 70
     1
102
RTVSPropertyOp32
 70
     1
102
RTVSPropertyOp33
 70
     1
102
RTVSPropertyOp34
 70
     1
102
RTVSPropertyOp35
 70
     1
102
RTVSPropertyOp36
 70
     1
102
RTVSPropertyOp37
 70
     1
102
RTVSPropertyOp38
 70
     1
102
RTVSPropertyOp39
 70
     1
102
RTVSPropertyOp40
 70
     1
102
RTVSPropertyOp41
 70
     1
102
RTVSPropertyOp42
 70
     1
102
RTVSPropertyOp43
 70
     1
102
RTVSPropertyOp44
 70
     1
102
RTVSPropertyOp45
 70
     1
102
RTVSPropertyOp46
 70
     1
102
RTVSPropertyOp47
 70
     1
102
RTVSPropertyOp48
 70
     1
102
RTVSPropertyOp49
 70
     1
102
RTVSPropertyOp50
 70
     1
102
RTVSPropertyOp51
 70
     0
102
RTVSPropertyOp52
 70
     0
102
RTVSPropertyOp53
 70
     1
102
RTVSPropertyOp54
 70
     1
102
RTVSPropertyOp55
 70
     1
102
RTVSPropertyOp56
 70
     1
102
RTVSPropertyOp57
 70
     1
102
RTVSPropertyOp58
 70
     1
102
RTVSPropertyOp59
 70
     1
102
RTVSPropertyOp60
 70
     1
102
RTVSPropertyOp61
 70
     1
102
RTVSPropertyOp62
 70
     1
  0
XRECORD
  5
2249E
102
{ACAD_REACTORS
330
2249D
102
}
330
2249D
100
AcDbXrecord
280
     1
102
RTVSPost2010Prop28
280
     0
102
RTVSPost2010PropOp28
 70
     1
102
RTVSPost2010Prop29
280
     1
102
RTVSPost2010PropOp29
 70
     1
102
RTVSPost2010Prop30
280
     1
102
RTVSPost2010PropOp30
 70
     1
102
RTVSPost2010Prop31
280
     0
102
RTVSPost2010PropOp31
 70
     1
102
RTVSPost2010Prop32
280
     0
102
RTVSPost2010PropOp32
 70
     1
102
RTVSPost2010Prop33
280
     0
102
RTVSPost2010PropOp33
 70
     1
102
RTVSPost2010Prop34
280
     0
102
RTVSPost2010PropOp34
 70
     1
102
RTVSPost2010Prop35
280
     0
102
RTVSPost2010PropOp35
 70
     1
102
RTVSPost2010Prop36
280
     0
102
RTVSPost2010PropOp36
 70
     1
102
RTVSPost2010Prop37
 90
       50
102
RTVSPost2010PropOp37
 70
     0
102
RTVSPost2010Prop38
140
0.0
102
RTVSPost2010PropOp38
 70
     0
102
RTVSPost2010Prop39
140
1.0
102
RTVSPost2010PropOp39
 70
     0
102
RTVSPost2010Prop40
 90
        0
102
RTVSPost2010PropOp40
 70
     0
102
RTVSPost2010Prop41ColorIndex
 90
       18
102
RTVSPost2010Prop41ColorRGB
 90
        0
102
RTVSPost2010PropOp41
 70
     0
102
RTVSPost2010Prop42
 90
       50
102
RTVSPost2010PropOp42
 70
     0
102
RTVSPost2010Prop43
 90
        3
102
RTVSPost2010PropOp43
 70
     0
102
RTVSPost2010Prop44ColorIndex
 90
        5
102
RTVSPost2010Prop44ColorRGB
 90
      255
102
RTVSPost2010PropOp44
 70
     0
102
RTVSPost2010Prop45
280
     0
102
RTVSPost2010PropOp45
 70
     1
102
RTVSPost2010Prop46
 90
       50
102
RTVSPost2010PropOp46
 70
     0
102
RTVSPost2010Prop47
 90
       50
102
RTVSPost2010PropOp47
 70
     0
102
RTVSPost2010Prop48
 90
       50
102
RTVSPost2010PropOp48
 70
     0
102
RTVSPost2010Prop49
280
     0
102
RTVSPost2010PropOp49
 70
     1
102
RTVSPost2010Prop50
 90
       50
102
RTVSPost2010PropOp50
 70
     0
102
RTVSPost2010Prop51ColorIndex
 90
      256
102
RTVSPost2010Prop51ColorRGB
 90
-16777216
102
RTVSPost2010PropOp51
 70
     0
102
RTVSPost2010Prop52
140
1.0
102
RTVSPost2010PropOp52
 70
     0
102
RTVSPost2010Prop53
 90
        2
102
RTVSPost2010PropOp53
 70
     0
102
RTVSPost2010Prop54
  1
strokes_ogs.tif
102
RTVSPost2010PropOp54
 70
     0
102
RTVSPost2010Prop55
280
     0
102
RTVSPost2010PropOp55
 70
     1
102
RTVSPost2010Prop56
140
1.0
102
RTVSPost2010PropOp56
 70
     0
102
RTVSPost2010Prop57
140
1.0
102
RTVSPost2010PropOp57
 70
     0
102
RTVSPropertyOp0
 70
     0
102
RTVSPropertyOp1
 70
     0
102
RTVSPropertyOp2
 70
     0
102
RTVSPropertyOp3
 70
     0
102
RTVSPropertyOp4
 70
     0
102
RTVSPropertyOp5
 70
     0
102
RTVSPropertyOp6
 70
     0
102
RTVSPropertyOp7
 70
     0
102
RTVSPropertyOp8
 70
     0
102
RTVSPropertyOp9
 70
     0
102
RTVSPropertyOp10
 70
     0
102
RTVSPropertyOp11
 70
     0
102
RTVSPropertyOp12
 70
     0
102
RTVSPropertyOp13
 70
     0
102
RTVSPropertyOp14
 70
     2
102
RTVSPropertyOp15
 70
     0
102
RTVSPropertyOp16
 70
     0
102
RTVSPropertyOp17
 70
     0
102
RTVSPropertyOp18
 70
     0
102
RTVSPropertyOp19
 70
     0
102
RTVSPropertyOp20
 70
     0
102
RTVSPropertyOp21
 70
     0
102
RTVSPropertyOp22
 70
     0
102
RTVSPropertyOp23
 70
     0
102
RTVSPropertyOp24
 70
     0
102
RTVSPropertyOp25
 70
     0
102
RTVSPropertyOp26
 70
     0
102
RTVSPropertyOp27
 70
     0
102
RTVSPropertyOp28
 70
     1
102
RTVSPropertyOp29
 70
     1
102
RTVSPropertyOp30
 70
     1
102
RTVSPropertyOp31
 70
     1
102
RTVSPropertyOp32
 70
     1
102
RTVSPropertyOp33
 70
     1
102
RTVSPropertyOp34
 70
     1
102
RTVSPropertyOp35
 70
     1
102
RTVSPropertyOp36
 70
     1
102
RTVSPropertyOp37
 70
     0
102
RTVSPropertyOp38
 70
     0
102
RTVSPropertyOp39
 70
     0
102
RTVSPropertyOp40
 70
     0
102
RTVSPropertyOp41
 70
     0
102
RTVSPropertyOp42
 70
     0
102
RTVSPropertyOp43
 70
     0
102
RTVSPropertyOp44
 70
     0
102
RTVSPropertyOp45
 70
     1
102
RTVSPropertyOp46
 70
     0
102
RTVSPropertyOp47
 70
     0
102
RTVSPropertyOp48
 70
     0
102
RTVSPropertyOp49
 70
     1
102
RTVSPropertyOp50
 70
     0
102
RTVSPropertyOp51
 70
     0
102
RTVSPropertyOp52
 70
     0
102
RTVSPropertyOp53
 70
     0
102
RTVSPropertyOp54
 70
     0
102
RTVSPropertyOp55
 70
     1
102
RTVSPropertyOp56
 70
     0
102
RTVSPropertyOp57
 70
     0
102
RTVSPropertyOp58
 70
     1
102
RTVSPropertyOp59
 70
     1
102
RTVSPropertyOp60
 70
     1
102
RTVSPropertyOp61
 70
     1
102
RTVSPropertyOp62
 70
     1
  0
XRECORD
  5
2247F
102
{ACAD_REACTORS
330
2247E
102
}
330
2247E
100
AcDbXrecord
280
     1
102
RTVSPost2010Prop28
280
     0
102
RTVSPost2010PropOp28
 70
     1
102
RTVSPost2010Prop29
280
     1
102
RTVSPost2010PropOp29
 70
     1
102
RTVSPost2010Prop30
280
     1
102
RTVSPost2010PropOp30
 70
     1
102
RTVSPost2010Prop31
280
     0
102
RTVSPost2010PropOp31
 70
     1
102
RTVSPost2010Prop32
280
     0
102
RTVSPost2010PropOp32
 70
     1
102
RTVSPost2010Prop33
280
     0
102
RTVSPost2010PropOp33
 70
     1
102
RTVSPost2010Prop34
280
     0
102
RTVSPost2010PropOp34
 70
     1
102
RTVSPost2010Prop35
280
     0
102
RTVSPost2010PropOp35
 70
     1
102
RTVSPost2010Prop36
280
     0
102
RTVSPost2010PropOp36
 70
     1
102
RTVSPost2010Prop37
 90
       50
102
RTVSPost2010PropOp37
 70
     1
102
RTVSPost2010Prop38
140
0.0
102
RTVSPost2010PropOp38
 70
     1
102
RTVSPost2010Prop39
140
1.0
102
RTVSPost2010PropOp39
 70
     1
102
RTVSPost2010Prop40
 90
        0
102
RTVSPost2010PropOp40
 70
     1
102
RTVSPost2010Prop41ColorIndex
 90
       18
102
RTVSPost2010Prop41ColorRGB
 90
        0
102
RTVSPost2010PropOp41
 70
     1
102
RTVSPost2010Prop42
 90
       50
102
RTVSPost2010PropOp42
 70
     1
102
RTVSPost2010Prop43
 90
        3
102
RTVSPost2010PropOp43
 70
     1
102
RTVSPost2010Prop44ColorIndex
 90
        5
102
RTVSPost2010Prop44ColorRGB
 90
      255
102
RTVSPost2010PropOp44
 70
     1
102
RTVSPost2010Prop45
280
     0
102
RTVSPost2010PropOp45
 70
     1
102
RTVSPost2010Prop46
 90
       50
102
RTVSPost2010PropOp46
 70
     1
102
RTVSPost2010Prop47
 90
       50
102
RTVSPost2010PropOp47
 70
     1
102
RTVSPost2010Prop48
 90
       50
102
RTVSPost2010PropOp48
 70
     1
102
RTVSPost2010Prop49
280
     0
102
RTVSPost2010PropOp49
 70
     1
102
RTVSPost2010Prop50
 90
       50
102
RTVSPost2010PropOp50
 70
     1
102
RTVSPost2010Prop51ColorIndex
 90
      256
102
RTVSPost2010Prop51ColorRGB
 90
-16777216
102
RTVSPost2010PropOp51
 70
     0
102
RTVSPost2010Prop52
140
1.0
102
RTVSPost2010PropOp52
 70
     0
102
RTVSPost2010Prop53
 90
        2
102
RTVSPost2010PropOp53
 70
     1
102
RTVSPost2010Prop54
  1
strokes_ogs.tif
102
RTVSPost2010PropOp54
 70
     1
102
RTVSPost2010Prop55
280
     0
102
RTVSPost2010PropOp55
 70
     1
102
RTVSPost2010Prop56
140
1.0
102
RTVSPost2010PropOp56
 70
     1
102
RTVSPost2010Prop57
140
1.0
102
RTVSPost2010PropOp57
 70
     1
102
RTVSPropertyOp0
 70
     1
102
RTVSPropertyOp1
 70
     1
102
RTVSPropertyOp2
 70
     1
102
RTVSPropertyOp3
 70
     1
102
RTVSPropertyOp4
 70
     1
102
RTVSPropertyOp5
 70
     1
102
RTVSPropertyOp6
 70
     1
102
RTVSPropertyOp7
 70
     1
102
RTVSPropertyOp8
 70
     1
102
RTVSPropertyOp9
 70
     1
102
RTVSPropertyOp10
 70
     1
102
RTVSPropertyOp11
 70
     1
102
RTVSPropertyOp12
 70
     1
102
RTVSPropertyOp13
 70
     1
102
RTVSPropertyOp14
 70
     1
102
RTVSPropertyOp15
 70
     1
102
RTVSPropertyOp16
 70
     1
102
RTVSPropertyOp17
 70
     1
102
RTVSPropertyOp18
 70
     1
102
RTVSPropertyOp19
 70
     1
102
RTVSPropertyOp20
 70
     1
102
RTVSPropertyOp21
 70
     1
102
RTVSPropertyOp22
 70
     1
102
RTVSPropertyOp23
 70
     1
102
RTVSPropertyOp24
 70
     1
102
RTVSPropertyOp25
 70
     1
102
RTVSPropertyOp26
 70
     1
102
RTVSPropertyOp27
 70
     1
102
RTVSPropertyOp28
 70
     1
102
RTVSPropertyOp29
 70
     1
102
RTVSPropertyOp30
 70
     1
102
RTVSPropertyOp31
 70
     1
102
RTVSPropertyOp32
 70
     1
102
RTVSPropertyOp33
 70
     1
102
RTVSPropertyOp34
 70
     1
102
RTVSPropertyOp35
 70
     1
102
RTVSPropertyOp36
 70
     1
102
RTVSPropertyOp37
 70
     1
102
RTVSPropertyOp38
 70
     1
102
RTVSPropertyOp39
 70
     1
102
RTVSPropertyOp40
 70
     1
102
RTVSPropertyOp41
 70
     1
102
RTVSPropertyOp42
 70
     1
102
RTVSPropertyOp43
 70
     1
102
RTVSPropertyOp44
 70
     1
102
RTVSPropertyOp45
 70
     1
102
RTVSPropertyOp46
 70
     1
102
RTVSPropertyOp47
 70
     1
102
RTVSPropertyOp48
 70
     1
102
RTVSPropertyOp49
 70
     1
102
RTVSPropertyOp50
 70
     1
102
RTVSPropertyOp51
 70
     0
102
RTVSPropertyOp52
 70
     0
102
RTVSPropertyOp53
 70
     1
102
RTVSPropertyOp54
 70
     1
102
RTVSPropertyOp55
 70
     1
102
RTVSPropertyOp56
 70
     1
102
RTVSPropertyOp57
 70
     1
102
RTVSPropertyOp58
 70
     1
102
RTVSPropertyOp59
 70
     1
102
RTVSPropertyOp60
 70
     1
102
RTVSPropertyOp61
 70
     1
102
RTVSPropertyOp62
 70
     1
  0
XRECORD
  5
22463
102
{ACAD_REACTORS
330
22462
102
}
330
22462
100
AcDbXrecord
280
     1
102
RTVSPost2010Prop28
280
     0
102
RTVSPost2010PropOp28
 70
     1
102
RTVSPost2010Prop29
280
     1
102
RTVSPost2010PropOp29
 70
     1
102
RTVSPost2010Prop30
280
     1
102
RTVSPost2010PropOp30
 70
     1
102
RTVSPost2010Prop31
280
     0
102
RTVSPost2010PropOp31
 70
     1
102
RTVSPost2010Prop32
280
     0
102
RTVSPost2010PropOp32
 70
     1
102
RTVSPost2010Prop33
280
     0
102
RTVSPost2010PropOp33
 70
     1
102
RTVSPost2010Prop34
280
     0
102
RTVSPost2010PropOp34
 70
     1
102
RTVSPost2010Prop35
280
     0
102
RTVSPost2010PropOp35
 70
     1
102
RTVSPost2010Prop36
280
     0
102
RTVSPost2010PropOp36
 70
     1
102
RTVSPost2010Prop37
 90
       50
102
RTVSPost2010PropOp37
 70
     1
102
RTVSPost2010Prop38
140
0.0
102
RTVSPost2010PropOp38
 70
     1
102
RTVSPost2010Prop39
140
1.0
102
RTVSPost2010PropOp39
 70
     1
102
RTVSPost2010Prop40
 90
        0
102
RTVSPost2010PropOp40
 70
     1
102
RTVSPost2010Prop41ColorIndex
 90
       18
102
RTVSPost2010Prop41ColorRGB
 90
        0
102
RTVSPost2010PropOp41
 70
     1
102
RTVSPost2010Prop42
 90
       50
102
RTVSPost2010PropOp42
 70
     1
102
RTVSPost2010Prop43
 90
        3
102
RTVSPost2010PropOp43
 70
     1
102
RTVSPost2010Prop44ColorIndex
 90
        5
102
RTVSPost2010Prop44ColorRGB
 90
      255
102
RTVSPost2010PropOp44
 70
     1
102
RTVSPost2010Prop45
280
     0
102
RTVSPost2010PropOp45
 70
     1
102
RTVSPost2010Prop46
 90
       50
102
RTVSPost2010PropOp46
 70
     1
102
RTVSPost2010Prop47
 90
       50
102
RTVSPost2010PropOp47
 70
     1
102
RTVSPost2010Prop48
 90
       50
102
RTVSPost2010PropOp48
 70
     1
102
RTVSPost2010Prop49
280
     0
102
RTVSPost2010PropOp49
 70
     1
102
RTVSPost2010Prop50
 90
       50
102
RTVSPost2010PropOp50
 70
     1
102
RTVSPost2010Prop51ColorIndex
 90
      256
102
RTVSPost2010Prop51ColorRGB
 90
-16777216
102
RTVSPost2010PropOp51
 70
     0
102
RTVSPost2010Prop52
140
1.0
102
RTVSPost2010PropOp52
 70
     0
102
RTVSPost2010Prop53
 90
        2
102
RTVSPost2010PropOp53
 70
     1
102
RTVSPost2010Prop54
  1
strokes_ogs.tif
102
RTVSPost2010PropOp54
 70
     1
102
RTVSPost2010Prop55
280
     0
102
RTVSPost2010PropOp55
 70
     1
102
RTVSPost2010Prop56
140
1.0
102
RTVSPost2010PropOp56
 70
     1
102
RTVSPost2010Prop57
140
1.0
102
RTVSPost2010PropOp57
 70
     1
102
RTVSPropertyOp0
 70
     1
102
RTVSPropertyOp1
 70
     1
102
RTVSPropertyOp2
 70
     1
102
RTVSPropertyOp3
 70
     1
102
RTVSPropertyOp4
 70
     1
102
RTVSPropertyOp5
 70
     1
102
RTVSPropertyOp6
 70
     1
102
RTVSPropertyOp7
 70
     1
102
RTVSPropertyOp8
 70
     1
102
RTVSPropertyOp9
 70
     1
102
RTVSPropertyOp10
 70
     1
102
RTVSPropertyOp11
 70
     1
102
RTVSPropertyOp12
 70
     1
102
RTVSPropertyOp13
 70
     1
102
RTVSPropertyOp14
 70
     1
102
RTVSPropertyOp15
 70
     1
102
RTVSPropertyOp16
 70
     1
102
RTVSPropertyOp17
 70
     1
102
RTVSPropertyOp18
 70
     1
102
RTVSPropertyOp19
 70
     1
102
RTVSPropertyOp20
 70
     1
102
RTVSPropertyOp21
 70
     1
102
RTVSPropertyOp22
 70
     1
102
RTVSPropertyOp23
 70
     1
102
RTVSPropertyOp24
 70
     1
102
RTVSPropertyOp25
 70
     1
102
RTVSPropertyOp26
 70
     1
102
RTVSPropertyOp27
 70
     1
102
RTVSPropertyOp28
 70
     1
102
RTVSPropertyOp29
 70
     1
102
RTVSPropertyOp30
 70
     1
102
RTVSPropertyOp31
 70
     1
102
RTVSPropertyOp32
 70
     1
102
RTVSPropertyOp33
 70
     1
102
RTVSPropertyOp34
 70
     1
102
RTVSPropertyOp35
 70
     1
102
RTVSPropertyOp36
 70
     1
102
RTVSPropertyOp37
 70
     1
102
RTVSPropertyOp38
 70
     1
102
RTVSPropertyOp39
 70
     1
102
RTVSPropertyOp40
 70
     1
102
RTVSPropertyOp41
 70
     1
102
RTVSPropertyOp42
 70
     1
102
RTVSPropertyOp43
 70
     1
102
RTVSPropertyOp44
 70
     1
102
RTVSPropertyOp45
 70
     1
102
RTVSPropertyOp46
 70
     1
102
RTVSPropertyOp47
 70
     1
102
RTVSPropertyOp48
 70
     1
102
RTVSPropertyOp49
 70
     1
102
RTVSPropertyOp50
 70
     1
102
RTVSPropertyOp51
 70
     0
102
RTVSPropertyOp52
 70
     0
102
RTVSPropertyOp53
 70
     1
102
RTVSPropertyOp54
 70
     1
102
RTVSPropertyOp55
 70
     1
102
RTVSPropertyOp56
 70
     1
102
RTVSPropertyOp57
 70
     1
102
RTVSPropertyOp58
 70
     1
102
RTVSPropertyOp59
 70
     1
102
RTVSPropertyOp60
 70
     1
102
RTVSPropertyOp61
 70
     1
102
RTVSPropertyOp62
 70
     1
  0
XRECORD
  5
22465
102
{ACAD_REACTORS
330
22464
102
}
330
22464
100
AcDbXrecord
280
     1
102
RTVSPost2010Prop28
280
     0
102
RTVSPost2010PropOp28
 70
     1
102
RTVSPost2010Prop29
280
     1
102
RTVSPost2010PropOp29
 70
     1
102
RTVSPost2010Prop30
280
     1
102
RTVSPost2010PropOp30
 70
     1
102
RTVSPost2010Prop31
280
     0
102
RTVSPost2010PropOp31
 70
     1
102
RTVSPost2010Prop32
280
     0
102
RTVSPost2010PropOp32
 70
     1
102
RTVSPost2010Prop33
280
     0
102
RTVSPost2010PropOp33
 70
     1
102
RTVSPost2010Prop34
280
     0
102
RTVSPost2010PropOp34
 70
     1
102
RTVSPost2010Prop35
280
     0
102
RTVSPost2010PropOp35
 70
     1
102
RTVSPost2010Prop36
280
     0
102
RTVSPost2010PropOp36
 70
     1
102
RTVSPost2010Prop37
 90
       50
102
RTVSPost2010PropOp37
 70
     1
102
RTVSPost2010Prop38
140
0.0
102
RTVSPost2010PropOp38
 70
     1
102
RTVSPost2010Prop39
140
1.0
102
RTVSPost2010PropOp39
 70
     1
102
RTVSPost2010Prop40
 90
        0
102
RTVSPost2010PropOp40
 70
     1
102
RTVSPost2010Prop41ColorIndex
 90
       18
102
RTVSPost2010Prop41ColorRGB
 90
        0
102
RTVSPost2010PropOp41
 70
     1
102
RTVSPost2010Prop42
 90
       50
102
RTVSPost2010PropOp42
 70
     1
102
RTVSPost2010Prop43
 90
        3
102
RTVSPost2010PropOp43
 70
     1
102
RTVSPost2010Prop44ColorIndex
 90
        5
102
RTVSPost2010Prop44ColorRGB
 90
      255
102
RTVSPost2010PropOp44
 70
     1
102
RTVSPost2010Prop45
280
     0
102
RTVSPost2010PropOp45
 70
     1
102
RTVSPost2010Prop46
 90
       50
102
RTVSPost2010PropOp46
 70
     1
102
RTVSPost2010Prop47
 90
       50
102
RTVSPost2010PropOp47
 70
     1
102
RTVSPost2010Prop48
 90
       50
102
RTVSPost2010PropOp48
 70
     1
102
RTVSPost2010Prop49
280
     0
102
RTVSPost2010PropOp49
 70
     1
102
RTVSPost2010Prop50
 90
       50
102
RTVSPost2010PropOp50
 70
     1
102
RTVSPost2010Prop51ColorIndex
 90
      256
102
RTVSPost2010Prop51ColorRGB
 90
-16777216
102
RTVSPost2010PropOp51
 70
     0
102
RTVSPost2010Prop52
140
1.0
102
RTVSPost2010PropOp52
 70
     0
102
RTVSPost2010Prop53
 90
        2
102
RTVSPost2010PropOp53
 70
     1
102
RTVSPost2010Prop54
  1
strokes_ogs.tif
102
RTVSPost2010PropOp54
 70
     1
102
RTVSPost2010Prop55
280
     0
102
RTVSPost2010PropOp55
 70
     1
102
RTVSPost2010Prop56
140
1.0
102
RTVSPost2010PropOp56
 70
     1
102
RTVSPost2010Prop57
140
1.0
102
RTVSPost2010PropOp57
 70
     1
102
RTVSPropertyOp0
 70
     1
102
RTVSPropertyOp1
 70
     1
102
RTVSPropertyOp2
 70
     1
102
RTVSPropertyOp3
 70
     1
102
RTVSPropertyOp4
 70
     1
102
RTVSPropertyOp5
 70
     1
102
RTVSPropertyOp6
 70
     1
102
RTVSPropertyOp7
 70
     1
102
RTVSPropertyOp8
 70
     1
102
RTVSPropertyOp9
 70
     1
102
RTVSPropertyOp10
 70
     1
102
RTVSPropertyOp11
 70
     1
102
RTVSPropertyOp12
 70
     1
102
RTVSPropertyOp13
 70
     1
102
RTVSPropertyOp14
 70
     1
102
RTVSPropertyOp15
 70
     1
102
RTVSPropertyOp16
 70
     1
102
RTVSPropertyOp17
 70
     1
102
RTVSPropertyOp18
 70
     1
102
RTVSPropertyOp19
 70
     1
102
RTVSPropertyOp20
 70
     1
102
RTVSPropertyOp21
 70
     1
102
RTVSPropertyOp22
 70
     1
102
RTVSPropertyOp23
 70
     1
102
RTVSPropertyOp24
 70
     1
102
RTVSPropertyOp25
 70
     1
102
RTVSPropertyOp26
 70
     1
102
RTVSPropertyOp27
 70
     1
102
RTVSPropertyOp28
 70
     1
102
RTVSPropertyOp29
 70
     1
102
RTVSPropertyOp30
 70
     1
102
RTVSPropertyOp31
 70
     1
102
RTVSPropertyOp32
 70
     1
102
RTVSPropertyOp33
 70
     1
102
RTVSPropertyOp34
 70
     1
102
RTVSPropertyOp35
 70
     1
102
RTVSPropertyOp36
 70
     1
102
RTVSPropertyOp37
 70
     1
102
RTVSPropertyOp38
 70
     1
102
RTVSPropertyOp39
 70
     1
102
RTVSPropertyOp40
 70
     1
102
RTVSPropertyOp41
 70
     1
102
RTVSPropertyOp42
 70
     1
102
RTVSPropertyOp43
 70
     1
102
RTVSPropertyOp44
 70
     1
102
RTVSPropertyOp45
 70
     1
102
RTVSPropertyOp46
 70
     1
102
RTVSPropertyOp47
 70
     1
102
RTVSPropertyOp48
 70
     1
102
RTVSPropertyOp49
 70
     1
102
RTVSPropertyOp50
 70
     1
102
RTVSPropertyOp51
 70
     0
102
RTVSPropertyOp52
 70
     0
102
RTVSPropertyOp53
 70
     1
102
RTVSPropertyOp54
 70
     1
102
RTVSPropertyOp55
 70
     1
102
RTVSPropertyOp56
 70
     1
102
RTVSPropertyOp57
 70
     1
102
RTVSPropertyOp58
 70
     1
102
RTVSPropertyOp59
 70
     1
102
RTVSPropertyOp60
 70
     1
102
RTVSPropertyOp61
 70
     1
102
RTVSPropertyOp62
 70
     1
  0
XRECORD
  5
22467
102
{ACAD_REACTORS
330
22466
102
}
330
22466
100
AcDbXrecord
280
     1
102
RTVSPost2010Prop28
280
     0
102
RTVSPost2010PropOp28
 70
     1
102
RTVSPost2010Prop29
280
     1
102
RTVSPost2010PropOp29
 70
     1
102
RTVSPost2010Prop30
280
     1
102
RTVSPost2010PropOp30
 70
     1
102
RTVSPost2010Prop31
280
     0
102
RTVSPost2010PropOp31
 70
     1
102
RTVSPost2010Prop32
280
     0
102
RTVSPost2010PropOp32
 70
     1
102
RTVSPost2010Prop33
280
     0
102
RTVSPost2010PropOp33
 70
     1
102
RTVSPost2010Prop34
280
     0
102
RTVSPost2010PropOp34
 70
     1
102
RTVSPost2010Prop35
280
     0
102
RTVSPost2010PropOp35
 70
     1
102
RTVSPost2010Prop36
280
     0
102
RTVSPost2010PropOp36
 70
     1
102
RTVSPost2010Prop37
 90
       50
102
RTVSPost2010PropOp37
 70
     1
102
RTVSPost2010Prop38
140
0.0
102
RTVSPost2010PropOp38
 70
     1
102
RTVSPost2010Prop39
140
1.0
102
RTVSPost2010PropOp39
 70
     1
102
RTVSPost2010Prop40
 90
        0
102
RTVSPost2010PropOp40
 70
     1
102
RTVSPost2010Prop41ColorIndex
 90
       18
102
RTVSPost2010Prop41ColorRGB
 90
        0
102
RTVSPost2010PropOp41
 70
     1
102
RTVSPost2010Prop42
 90
       50
102
RTVSPost2010PropOp42
 70
     1
102
RTVSPost2010Prop43
 90
        3
102
RTVSPost2010PropOp43
 70
     1
102
RTVSPost2010Prop44ColorIndex
 90
        5
102
RTVSPost2010Prop44ColorRGB
 90
      255
102
RTVSPost2010PropOp44
 70
     1
102
RTVSPost2010Prop45
280
     0
102
RTVSPost2010PropOp45
 70
     1
102
RTVSPost2010Prop46
 90
       50
102
RTVSPost2010PropOp46
 70
     1
102
RTVSPost2010Prop47
 90
       50
102
RTVSPost2010PropOp47
 70
     1
102
RTVSPost2010Prop48
 90
       50
102
RTVSPost2010PropOp48
 70
     1
102
RTVSPost2010Prop49
280
     0
102
RTVSPost2010PropOp49
 70
     1
102
RTVSPost2010Prop50
 90
       50
102
RTVSPost2010PropOp50
 70
     1
102
RTVSPost2010Prop51ColorIndex
 90
      256
102
RTVSPost2010Prop51ColorRGB
 90
-16777216
102
RTVSPost2010PropOp51
 70
     0
102
RTVSPost2010Prop52
140
1.0
102
RTVSPost2010PropOp52
 70
     0
102
RTVSPost2010Prop53
 90
        2
102
RTVSPost2010PropOp53
 70
     1
102
RTVSPost2010Prop54
  1
strokes_ogs.tif
102
RTVSPost2010PropOp54
 70
     1
102
RTVSPost2010Prop55
280
     0
102
RTVSPost2010PropOp55
 70
     1
102
RTVSPost2010Prop56
140
1.0
102
RTVSPost2010PropOp56
 70
     1
102
RTVSPost2010Prop57
140
1.0
102
RTVSPost2010PropOp57
 70
     1
102
RTVSPropertyOp0
 70
     1
102
RTVSPropertyOp1
 70
     1
102
RTVSPropertyOp2
 70
     1
102
RTVSPropertyOp3
 70
     1
102
RTVSPropertyOp4
 70
     1
102
RTVSPropertyOp5
 70
     1
102
RTVSPropertyOp6
 70
     1
102
RTVSPropertyOp7
 70
     1
102
RTVSPropertyOp8
 70
     1
102
RTVSPropertyOp9
 70
     1
102
RTVSPropertyOp10
 70
     1
102
RTVSPropertyOp11
 70
     1
102
RTVSPropertyOp12
 70
     1
102
RTVSPropertyOp13
 70
     1
102
RTVSPropertyOp14
 70
     1
102
RTVSPropertyOp15
 70
     1
102
RTVSPropertyOp16
 70
     1
102
RTVSPropertyOp17
 70
     1
102
RTVSPropertyOp18
 70
     1
102
RTVSPropertyOp19
 70
     1
102
RTVSPropertyOp20
 70
     1
102
RTVSPropertyOp21
 70
     1
102
RTVSPropertyOp22
 70
     1
102
RTVSPropertyOp23
 70
     1
102
RTVSPropertyOp24
 70
     1
102
RTVSPropertyOp25
 70
     1
102
RTVSPropertyOp26
 70
     1
102
RTVSPropertyOp27
 70
     1
102
RTVSPropertyOp28
 70
     1
102
RTVSPropertyOp29
 70
     1
102
RTVSPropertyOp30
 70
     1
102
RTVSPropertyOp31
 70
     1
102
RTVSPropertyOp32
 70
     1
102
RTVSPropertyOp33
 70
     1
102
RTVSPropertyOp34
 70
     1
102
RTVSPropertyOp35
 70
     1
102
RTVSPropertyOp36
 70
     1
102
RTVSPropertyOp37
 70
     1
102
RTVSPropertyOp38
 70
     1
102
RTVSPropertyOp39
 70
     1
102
RTVSPropertyOp40
 70
     1
102
RTVSPropertyOp41
 70
     1
102
RTVSPropertyOp42
 70
     1
102
RTVSPropertyOp43
 70
     1
102
RTVSPropertyOp44
 70
     1
102
RTVSPropertyOp45
 70
     1
102
RTVSPropertyOp46
 70
     1
102
RTVSPropertyOp47
 70
     1
102
RTVSPropertyOp48
 70
     1
102
RTVSPropertyOp49
 70
     1
102
RTVSPropertyOp50
 70
     1
102
RTVSPropertyOp51
 70
     0
102
RTVSPropertyOp52
 70
     0
102
RTVSPropertyOp53
 70
     1
102
RTVSPropertyOp54
 70
     1
102
RTVSPropertyOp55
 70
     1
102
RTVSPropertyOp56
 70
     1
102
RTVSPropertyOp57
 70
     1
102
RTVSPropertyOp58
 70
     1
102
RTVSPropertyOp59
 70
     1
102
RTVSPropertyOp60
 70
     1
102
RTVSPropertyOp61
 70
     1
102
RTVSPropertyOp62
 70
     1
  0
XRECORD
  5
22469
102
{ACAD_REACTORS
330
22468
102
}
330
22468
100
AcDbXrecord
280
     1
102
RTVSPost2010Prop28
280
     0
102
RTVSPost2010PropOp28
 70
     1
102
RTVSPost2010Prop29
280
     1
102
RTVSPost2010PropOp29
 70
     1
102
RTVSPost2010Prop30
280
     1
102
RTVSPost2010PropOp30
 70
     1
102
RTVSPost2010Prop31
280
     0
102
RTVSPost2010PropOp31
 70
     1
102
RTVSPost2010Prop32
280
     0
102
RTVSPost2010PropOp32
 70
     1
102
RTVSPost2010Prop33
280
     0
102
RTVSPost2010PropOp33
 70
     1
102
RTVSPost2010Prop34
280
     0
102
RTVSPost2010PropOp34
 70
     1
102
RTVSPost2010Prop35
280
     0
102
RTVSPost2010PropOp35
 70
     1
102
RTVSPost2010Prop36
280
     0
102
RTVSPost2010PropOp36
 70
     1
102
RTVSPost2010Prop37
 90
       50
102
RTVSPost2010PropOp37
 70
     1
102
RTVSPost2010Prop38
140
0.0
102
RTVSPost2010PropOp38
 70
     1
102
RTVSPost2010Prop39
140
1.0
102
RTVSPost2010PropOp39
 70
     1
102
RTVSPost2010Prop40
 90
        0
102
RTVSPost2010PropOp40
 70
     1
102
RTVSPost2010Prop41ColorIndex
 90
       18
102
RTVSPost2010Prop41ColorRGB
 90
        0
102
RTVSPost2010PropOp41
 70
     1
102
RTVSPost2010Prop42
 90
       50
102
RTVSPost2010PropOp42
 70
     1
102
RTVSPost2010Prop43
 90
        3
102
RTVSPost2010PropOp43
 70
     1
102
RTVSPost2010Prop44ColorIndex
 90
        5
102
RTVSPost2010Prop44ColorRGB
 90
      255
102
RTVSPost2010PropOp44
 70
     1
102
RTVSPost2010Prop45
280
     0
102
RTVSPost2010PropOp45
 70
     1
102
RTVSPost2010Prop46
 90
       50
102
RTVSPost2010PropOp46
 70
     1
102
RTVSPost2010Prop47
 90
       50
102
RTVSPost2010PropOp47
 70
     1
102
RTVSPost2010Prop48
 90
       50
102
RTVSPost2010PropOp48
 70
     1
102
RTVSPost2010Prop49
280
     0
102
RTVSPost2010PropOp49
 70
     1
102
RTVSPost2010Prop50
 90
       50
102
RTVSPost2010PropOp50
 70
     1
102
RTVSPost2010Prop51ColorIndex
 90
      256
102
RTVSPost2010Prop51ColorRGB
 90
-16777216
102
RTVSPost2010PropOp51
 70
     0
102
RTVSPost2010Prop52
140
1.0
102
RTVSPost2010PropOp52
 70
     0
102
RTVSPost2010Prop53
 90
        2
102
RTVSPost2010PropOp53
 70
     1
102
RTVSPost2010Prop54
  1
strokes_ogs.tif
102
RTVSPost2010PropOp54
 70
     1
102
RTVSPost2010Prop55
280
     0
102
RTVSPost2010PropOp55
 70
     1
102
RTVSPost2010Prop56
140
1.0
102
RTVSPost2010PropOp56
 70
     1
102
RTVSPost2010Prop57
140
1.0
102
RTVSPost2010PropOp57
 70
     1
102
RTVSPropertyOp0
 70
     1
102
RTVSPropertyOp1
 70
     1
102
RTVSPropertyOp2
 70
     1
102
RTVSPropertyOp3
 70
     1
102
RTVSPropertyOp4
 70
     1
102
RTVSPropertyOp5
 70
     1
102
RTVSPropertyOp6
 70
     1
102
RTVSPropertyOp7
 70
     1
102
RTVSPropertyOp8
 70
     1
102
RTVSPropertyOp9
 70
     1
102
RTVSPropertyOp10
 70
     1
102
RTVSPropertyOp11
 70
     1
102
RTVSPropertyOp12
 70
     1
102
RTVSPropertyOp13
 70
     1
102
RTVSPropertyOp14
 70
     1
102
RTVSPropertyOp15
 70
     1
102
RTVSPropertyOp16
 70
     1
102
RTVSPropertyOp17
 70
     1
102
RTVSPropertyOp18
 70
     1
102
RTVSPropertyOp19
 70
     1
102
RTVSPropertyOp20
 70
     1
102
RTVSPropertyOp21
 70
     1
102
RTVSPropertyOp22
 70
     1
102
RTVSPropertyOp23
 70
     1
102
RTVSPropertyOp24
 70
     1
102
RTVSPropertyOp25
 70
     1
102
RTVSPropertyOp26
 70
     1
102
RTVSPropertyOp27
 70
     1
102
RTVSPropertyOp28
 70
     1
102
RTVSPropertyOp29
 70
     1
102
RTVSPropertyOp30
 70
     1
102
RTVSPropertyOp31
 70
     1
102
RTVSPropertyOp32
 70
     1
102
RTVSPropertyOp33
 70
     1
102
RTVSPropertyOp34
 70
     1
102
RTVSPropertyOp35
 70
     1
102
RTVSPropertyOp36
 70
     1
102
RTVSPropertyOp37
 70
     1
102
RTVSPropertyOp38
 70
     1
102
RTVSPropertyOp39
 70
     1
102
RTVSPropertyOp40
 70
     1
102
RTVSPropertyOp41
 70
     1
102
RTVSPropertyOp42
 70
     1
102
RTVSPropertyOp43
 70
     1
102
RTVSPropertyOp44
 70
     1
102
RTVSPropertyOp45
 70
     1
102
RTVSPropertyOp46
 70
     1
102
RTVSPropertyOp47
 70
     1
102
RTVSPropertyOp48
 70
     1
102
RTVSPropertyOp49
 70
     1
102
RTVSPropertyOp50
 70
     1
102
RTVSPropertyOp51
 70
     0
102
RTVSPropertyOp52
 70
     0
102
RTVSPropertyOp53
 70
     1
102
RTVSPropertyOp54
 70
     1
102
RTVSPropertyOp55
 70
     1
102
RTVSPropertyOp56
 70
     1
102
RTVSPropertyOp57
 70
     1
102
RTVSPropertyOp58
 70
     1
102
RTVSPropertyOp59
 70
     1
102
RTVSPropertyOp60
 70
     1
102
RTVSPropertyOp61
 70
     1
102
RTVSPropertyOp62
 70
     1
  0
XRECORD
  5
2248E
102
{ACAD_REACTORS
330
2248D
102
}
330
2248D
100
AcDbXrecord
280
     1
102
RTVSPost2010Prop28
280
     0
102
RTVSPost2010PropOp28
 70
     1
102
RTVSPost2010Prop29
280
     1
102
RTVSPost2010PropOp29
 70
     1
102
RTVSPost2010Prop30
280
     1
102
RTVSPost2010PropOp30
 70
     1
102
RTVSPost2010Prop31
280
     0
102
RTVSPost2010PropOp31
 70
     1
102
RTVSPost2010Prop32
280
     0
102
RTVSPost2010PropOp32
 70
     1
102
RTVSPost2010Prop33
280
     0
102
RTVSPost2010PropOp33
 70
     1
102
RTVSPost2010Prop34
280
     0
102
RTVSPost2010PropOp34
 70
     1
102
RTVSPost2010Prop35
280
     0
102
RTVSPost2010PropOp35
 70
     1
102
RTVSPost2010Prop36
280
     0
102
RTVSPost2010PropOp36
 70
     1
102
RTVSPost2010Prop37
 90
       50
102
RTVSPost2010PropOp37
 70
     1
102
RTVSPost2010Prop38
140
0.0
102
RTVSPost2010PropOp38
 70
     1
102
RTVSPost2010Prop39
140
1.0
102
RTVSPost2010PropOp39
 70
     1
102
RTVSPost2010Prop40
 90
        0
102
RTVSPost2010PropOp40
 70
     1
102
RTVSPost2010Prop41ColorIndex
 90
       18
102
RTVSPost2010Prop41ColorRGB
 90
        0
102
RTVSPost2010PropOp41
 70
     1
102
RTVSPost2010Prop42
 90
       50
102
RTVSPost2010PropOp42
 70
     1
102
RTVSPost2010Prop43
 90
        3
102
RTVSPost2010PropOp43
 70
     1
102
RTVSPost2010Prop44ColorIndex
 90
        5
102
RTVSPost2010Prop44ColorRGB
 90
      255
102
RTVSPost2010PropOp44
 70
     1
102
RTVSPost2010Prop45
280
     0
102
RTVSPost2010PropOp45
 70
     1
102
RTVSPost2010Prop46
 90
       50
102
RTVSPost2010PropOp46
 70
     1
102
RTVSPost2010Prop47
 90
       50
102
RTVSPost2010PropOp47
 70
     1
102
RTVSPost2010Prop48
 90
       50
102
RTVSPost2010PropOp48
 70
     1
102
RTVSPost2010Prop49
280
     0
102
RTVSPost2010PropOp49
 70
     1
102
RTVSPost2010Prop50
 90
       50
102
RTVSPost2010PropOp50
 70
     1
102
RTVSPost2010Prop51ColorIndex
 90
      256
102
RTVSPost2010Prop51ColorRGB
 90
-16777216
102
RTVSPost2010PropOp51
 70
     0
102
RTVSPost2010Prop52
140
1.0
102
RTVSPost2010PropOp52
 70
     0
102
RTVSPost2010Prop53
 90
        2
102
RTVSPost2010PropOp53
 70
     1
102
RTVSPost2010Prop54
  1
strokes_ogs.tif
102
RTVSPost2010PropOp54
 70
     1
102
RTVSPost2010Prop55
280
     0
102
RTVSPost2010PropOp55
 70
     1
102
RTVSPost2010Prop56
140
1.0
102
RTVSPost2010PropOp56
 70
     1
102
RTVSPost2010Prop57
140
1.0
102
RTVSPost2010PropOp57
 70
     1
102
RTVSPropertyOp0
 70
     1
102
RTVSPropertyOp1
 70
     1
102
RTVSPropertyOp2
 70
     1
102
RTVSPropertyOp3
 70
     1
102
RTVSPropertyOp4
 70
     1
102
RTVSPropertyOp5
 70
     1
102
RTVSPropertyOp6
 70
     1
102
RTVSPropertyOp7
 70
     1
102
RTVSPropertyOp8
 70
     1
102
RTVSPropertyOp9
 70
     1
102
RTVSPropertyOp10
 70
     1
102
RTVSPropertyOp11
 70
     1
102
RTVSPropertyOp12
 70
     1
102
RTVSPropertyOp13
 70
     1
102
RTVSPropertyOp14
 70
     1
102
RTVSPropertyOp15
 70
     1
102
RTVSPropertyOp16
 70
     1
102
RTVSPropertyOp17
 70
     1
102
RTVSPropertyOp18
 70
     1
102
RTVSPropertyOp19
 70
     1
102
RTVSPropertyOp20
 70
     1
102
RTVSPropertyOp21
 70
     1
102
RTVSPropertyOp22
 70
     1
102
RTVSPropertyOp23
 70
     1
102
RTVSPropertyOp24
 70
     1
102
RTVSPropertyOp25
 70
     1
102
RTVSPropertyOp26
 70
     1
102
RTVSPropertyOp27
 70
     1
102
RTVSPropertyOp28
 70
     1
102
RTVSPropertyOp29
 70
     1
102
RTVSPropertyOp30
 70
     1
102
RTVSPropertyOp31
 70
     1
102
RTVSPropertyOp32
 70
     1
102
RTVSPropertyOp33
 70
     1
102
RTVSPropertyOp34
 70
     1
102
RTVSPropertyOp35
 70
     1
102
RTVSPropertyOp36
 70
     1
102
RTVSPropertyOp37
 70
     1
102
RTVSPropertyOp38
 70
     1
102
RTVSPropertyOp39
 70
     1
102
RTVSPropertyOp40
 70
     1
102
RTVSPropertyOp41
 70
     1
102
RTVSPropertyOp42
 70
     1
102
RTVSPropertyOp43
 70
     1
102
RTVSPropertyOp44
 70
     1
102
RTVSPropertyOp45
 70
     1
102
RTVSPropertyOp46
 70
     1
102
RTVSPropertyOp47
 70
     1
102
RTVSPropertyOp48
 70
     1
102
RTVSPropertyOp49
 70
     1
102
RTVSPropertyOp50
 70
     1
102
RTVSPropertyOp51
 70
     0
102
RTVSPropertyOp52
 70
     0
102
RTVSPropertyOp53
 70
     1
102
RTVSPropertyOp54
 70
     1
102
RTVSPropertyOp55
 70
     1
102
RTVSPropertyOp56
 70
     1
102
RTVSPropertyOp57
 70
     1
102
RTVSPropertyOp58
 70
     1
102
RTVSPropertyOp59
 70
     1
102
RTVSPropertyOp60
 70
     1
102
RTVSPropertyOp61
 70
     1
102
RTVSPropertyOp62
 70
     1
  0
XRECORD
  5
2249A
102
{ACAD_REACTORS
330
22499
102
}
330
22499
100
AcDbXrecord
280
     1
102
RTVSPost2010Prop28
280
     0
102
RTVSPost2010PropOp28
 70
     1
102
RTVSPost2010Prop29
280
     1
102
RTVSPost2010PropOp29
 70
     1
102
RTVSPost2010Prop30
280
     1
102
RTVSPost2010PropOp30
 70
     1
102
RTVSPost2010Prop31
280
     0
102
RTVSPost2010PropOp31
 70
     1
102
RTVSPost2010Prop32
280
     0
102
RTVSPost2010PropOp32
 70
     1
102
RTVSPost2010Prop33
280
     0
102
RTVSPost2010PropOp33
 70
     1
102
RTVSPost2010Prop34
280
     0
102
RTVSPost2010PropOp34
 70
     1
102
RTVSPost2010Prop35
280
     0
102
RTVSPost2010PropOp35
 70
     1
102
RTVSPost2010Prop36
280
     0
102
RTVSPost2010PropOp36
 70
     1
102
RTVSPost2010Prop37
 90
       50
102
RTVSPost2010PropOp37
 70
     0
102
RTVSPost2010Prop38
140
0.0
102
RTVSPost2010PropOp38
 70
     0
102
RTVSPost2010Prop39
140
1.0
102
RTVSPost2010PropOp39
 70
     0
102
RTVSPost2010Prop40
 90
        0
102
RTVSPost2010PropOp40
 70
     0
102
RTVSPost2010Prop41ColorIndex
 90
       18
102
RTVSPost2010Prop41ColorRGB
 90
        0
102
RTVSPost2010PropOp41
 70
     0
102
RTVSPost2010Prop42
 90
       50
102
RTVSPost2010PropOp42
 70
     0
102
RTVSPost2010Prop43
 90
        3
102
RTVSPost2010PropOp43
 70
     0
102
RTVSPost2010Prop44ColorIndex
 90
        5
102
RTVSPost2010Prop44ColorRGB
 90
      255
102
RTVSPost2010PropOp44
 70
     0
102
RTVSPost2010Prop45
280
     0
102
RTVSPost2010PropOp45
 70
     1
102
RTVSPost2010Prop46
 90
       50
102
RTVSPost2010PropOp46
 70
     0
102
RTVSPost2010Prop47
 90
       50
102
RTVSPost2010PropOp47
 70
     0
102
RTVSPost2010Prop48
 90
       50
102
RTVSPost2010PropOp48
 70
     0
102
RTVSPost2010Prop49
280
     0
102
RTVSPost2010PropOp49
 70
     1
102
RTVSPost2010Prop50
 90
       50
102
RTVSPost2010PropOp50
 70
     0
102
RTVSPost2010Prop51ColorIndex
 90
      256
102
RTVSPost2010Prop51ColorRGB
 90
-16777216
102
RTVSPost2010PropOp51
 70
     0
102
RTVSPost2010Prop52
140
1.0
102
RTVSPost2010PropOp52
 70
     0
102
RTVSPost2010Prop53
 90
        2
102
RTVSPost2010PropOp53
 70
     0
102
RTVSPost2010Prop54
  1
strokes_ogs.tif
102
RTVSPost2010PropOp54
 70
     0
102
RTVSPost2010Prop55
280
     0
102
RTVSPost2010PropOp55
 70
     1
102
RTVSPost2010Prop56
140
1.0
102
RTVSPost2010PropOp56
 70
     0
102
RTVSPost2010Prop57
140
1.0
102
RTVSPost2010PropOp57
 70
     0
102
RTVSPropertyOp0
 70
     0
102
RTVSPropertyOp1
 70
     0
102
RTVSPropertyOp2
 70
     0
102
RTVSPropertyOp3
 70
     0
102
RTVSPropertyOp4
 70
     0
102
RTVSPropertyOp5
 70
     0
102
RTVSPropertyOp6
 70
     0
102
RTVSPropertyOp7
 70
     0
102
RTVSPropertyOp8
 70
     0
102
RTVSPropertyOp9
 70
     0
102
RTVSPropertyOp10
 70
     0
102
RTVSPropertyOp11
 70
     0
102
RTVSPropertyOp12
 70
     0
102
RTVSPropertyOp13
 70
     0
102
RTVSPropertyOp14
 70
     2
102
RTVSPropertyOp15
 70
     0
102
RTVSPropertyOp16
 70
     0
102
RTVSPropertyOp17
 70
     0
102
RTVSPropertyOp18
 70
     0
102
RTVSPropertyOp19
 70
     0
102
RTVSPropertyOp20
 70
     0
102
RTVSPropertyOp21
 70
     0
102
RTVSPropertyOp22
 70
     0
102
RTVSPropertyOp23
 70
     0
102
RTVSPropertyOp24
 70
     0
102
RTVSPropertyOp25
 70
     0
102
RTVSPropertyOp26
 70
     0
102
RTVSPropertyOp27
 70
     0
102
RTVSPropertyOp28
 70
     1
102
RTVSPropertyOp29
 70
     1
102
RTVSPropertyOp30
 70
     1
102
RTVSPropertyOp31
 70
     1
102
RTVSPropertyOp32
 70
     1
102
RTVSPropertyOp33
 70
     1
102
RTVSPropertyOp34
 70
     1
102
RTVSPropertyOp35
 70
     1
102
RTVSPropertyOp36
 70
     1
102
RTVSPropertyOp37
 70
     0
102
RTVSPropertyOp38
 70
     0
102
RTVSPropertyOp39
 70
     0
102
RTVSPropertyOp40
 70
     0
102
RTVSPropertyOp41
 70
     0
102
RTVSPropertyOp42
 70
     0
102
RTVSPropertyOp43
 70
     0
102
RTVSPropertyOp44
 70
     0
102
RTVSPropertyOp45
 70
     1
102
RTVSPropertyOp46
 70
     0
102
RTVSPropertyOp47
 70
     0
102
RTVSPropertyOp48
 70
     0
102
RTVSPropertyOp49
 70
     1
102
RTVSPropertyOp50
 70
     0
102
RTVSPropertyOp51
 70
     0
102
RTVSPropertyOp52
 70
     0
102
RTVSPropertyOp53
 70
     0
102
RTVSPropertyOp54
 70
     0
102
RTVSPropertyOp55
 70
     1
102
RTVSPropertyOp56
 70
     0
102
RTVSPropertyOp57
 70
     0
102
RTVSPropertyOp58
 70
     1
102
RTVSPropertyOp59
 70
     1
102
RTVSPropertyOp60
 70
     1
102
RTVSPropertyOp61
 70
     1
102
RTVSPropertyOp62
 70
     1
  0
XRECORD
  5
2247D
102
{ACAD_REACTORS
330
2247C
102
}
330
2247C
100
AcDbXrecord
280
     1
102
RTVSPost2010Prop28
280
     0
102
RTVSPost2010PropOp28
 70
     1
102
RTVSPost2010Prop29
280
     1
102
RTVSPost2010PropOp29
 70
     1
102
RTVSPost2010Prop30
280
     1
102
RTVSPost2010PropOp30
 70
     1
102
RTVSPost2010Prop31
280
     0
102
RTVSPost2010PropOp31
 70
     1
102
RTVSPost2010Prop32
280
     0
102
RTVSPost2010PropOp32
 70
     1
102
RTVSPost2010Prop33
280
     0
102
RTVSPost2010PropOp33
 70
     1
102
RTVSPost2010Prop34
280
     0
102
RTVSPost2010PropOp34
 70
     1
102
RTVSPost2010Prop35
280
     0
102
RTVSPost2010PropOp35
 70
     1
102
RTVSPost2010Prop36
280
     0
102
RTVSPost2010PropOp36
 70
     1
102
RTVSPost2010Prop37
 90
       50
102
RTVSPost2010PropOp37
 70
     1
102
RTVSPost2010Prop38
140
0.0
102
RTVSPost2010PropOp38
 70
     1
102
RTVSPost2010Prop39
140
1.0
102
RTVSPost2010PropOp39
 70
     1
102
RTVSPost2010Prop40
 90
        0
102
RTVSPost2010PropOp40
 70
     1
102
RTVSPost2010Prop41ColorIndex
 90
       18
102
RTVSPost2010Prop41ColorRGB
 90
        0
102
RTVSPost2010PropOp41
 70
     1
102
RTVSPost2010Prop42
 90
       50
102
RTVSPost2010PropOp42
 70
     1
102
RTVSPost2010Prop43
 90
        3
102
RTVSPost2010PropOp43
 70
     1
102
RTVSPost2010Prop44ColorIndex
 90
        5
102
RTVSPost2010Prop44ColorRGB
 90
      255
102
RTVSPost2010PropOp44
 70
     1
102
RTVSPost2010Prop45
280
     0
102
RTVSPost2010PropOp45
 70
     1
102
RTVSPost2010Prop46
 90
       50
102
RTVSPost2010PropOp46
 70
     1
102
RTVSPost2010Prop47
 90
       50
102
RTVSPost2010PropOp47
 70
     1
102
RTVSPost2010Prop48
 90
       50
102
RTVSPost2010PropOp48
 70
     1
102
RTVSPost2010Prop49
280
     0
102
RTVSPost2010PropOp49
 70
     1
102
RTVSPost2010Prop50
 90
       50
102
RTVSPost2010PropOp50
 70
     1
102
RTVSPost2010Prop51ColorIndex
 90
      256
102
RTVSPost2010Prop51ColorRGB
 90
-16777216
102
RTVSPost2010PropOp51
 70
     0
102
RTVSPost2010Prop52
140
1.0
102
RTVSPost2010PropOp52
 70
     0
102
RTVSPost2010Prop53
 90
        2
102
RTVSPost2010PropOp53
 70
     1
102
RTVSPost2010Prop54
  1
strokes_ogs.tif
102
RTVSPost2010PropOp54
 70
     1
102
RTVSPost2010Prop55
280
     0
102
RTVSPost2010PropOp55
 70
     1
102
RTVSPost2010Prop56
140
1.0
102
RTVSPost2010PropOp56
 70
     1
102
RTVSPost2010Prop57
140
1.0
102
RTVSPost2010PropOp57
 70
     1
102
RTVSPropertyOp0
 70
     1
102
RTVSPropertyOp1
 70
     1
102
RTVSPropertyOp2
 70
     1
102
RTVSPropertyOp3
 70
     1
102
RTVSPropertyOp4
 70
     1
102
RTVSPropertyOp5
 70
     1
102
RTVSPropertyOp6
 70
     1
102
RTVSPropertyOp7
 70
     1
102
RTVSPropertyOp8
 70
     1
102
RTVSPropertyOp9
 70
     1
102
RTVSPropertyOp10
 70
     1
102
RTVSPropertyOp11
 70
     1
102
RTVSPropertyOp12
 70
     1
102
RTVSPropertyOp13
 70
     1
102
RTVSPropertyOp14
 70
     1
102
RTVSPropertyOp15
 70
     1
102
RTVSPropertyOp16
 70
     1
102
RTVSPropertyOp17
 70
     1
102
RTVSPropertyOp18
 70
     1
102
RTVSPropertyOp19
 70
     1
102
RTVSPropertyOp20
 70
     1
102
RTVSPropertyOp21
 70
     1
102
RTVSPropertyOp22
 70
     1
102
RTVSPropertyOp23
 70
     1
102
RTVSPropertyOp24
 70
     1
102
RTVSPropertyOp25
 70
     1
102
RTVSPropertyOp26
 70
     1
102
RTVSPropertyOp27
 70
     1
102
RTVSPropertyOp28
 70
     1
102
RTVSPropertyOp29
 70
     1
102
RTVSPropertyOp30
 70
     1
102
RTVSPropertyOp31
 70
     1
102
RTVSPropertyOp32
 70
     1
102
RTVSPropertyOp33
 70
     1
102
RTVSPropertyOp34
 70
     1
102
RTVSPropertyOp35
 70
     1
102
RTVSPropertyOp36
 70
     1
102
RTVSPropertyOp37
 70
     1
102
RTVSPropertyOp38
 70
     1
102
RTVSPropertyOp39
 70
     1
102
RTVSPropertyOp40
 70
     1
102
RTVSPropertyOp41
 70
     1
102
RTVSPropertyOp42
 70
     1
102
RTVSPropertyOp43
 70
     1
102
RTVSPropertyOp44
 70
     1
102
RTVSPropertyOp45
 70
     1
102
RTVSPropertyOp46
 70
     1
102
RTVSPropertyOp47
 70
     1
102
RTVSPropertyOp48
 70
     1
102
RTVSPropertyOp49
 70
     1
102
RTVSPropertyOp50
 70
     1
102
RTVSPropertyOp51
 70
     0
102
RTVSPropertyOp52
 70
     0
102
RTVSPropertyOp53
 70
     1
102
RTVSPropertyOp54
 70
     1
102
RTVSPropertyOp55
 70
     1
102
RTVSPropertyOp56
 70
     1
102
RTVSPropertyOp57
 70
     1
102
RTVSPropertyOp58
 70
     1
102
RTVSPropertyOp59
 70
     1
102
RTVSPropertyOp60
 70
     1
102
RTVSPropertyOp61
 70
     1
102
RTVSPropertyOp62
 70
     1
  0
XRECORD
  5
2249C
102
{ACAD_REACTORS
330
2249B
102
}
330
2249B
100
AcDbXrecord
280
     1
102
RTVSPost2010Prop28
280
     0
102
RTVSPost2010PropOp28
 70
     1
102
RTVSPost2010Prop29
280
     1
102
RTVSPost2010PropOp29
 70
     1
102
RTVSPost2010Prop30
280
     1
102
RTVSPost2010PropOp30
 70
     1
102
RTVSPost2010Prop31
280
     0
102
RTVSPost2010PropOp31
 70
     1
102
RTVSPost2010Prop32
280
     0
102
RTVSPost2010PropOp32
 70
     1
102
RTVSPost2010Prop33
280
     0
102
RTVSPost2010PropOp33
 70
     1
102
RTVSPost2010Prop34
280
     0
102
RTVSPost2010PropOp34
 70
     1
102
RTVSPost2010Prop35
280
     0
102
RTVSPost2010PropOp35
 70
     1
102
RTVSPost2010Prop36
280
     0
102
RTVSPost2010PropOp36
 70
     1
102
RTVSPost2010Prop37
 90
       50
102
RTVSPost2010PropOp37
 70
     0
102
RTVSPost2010Prop38
140
0.0
102
RTVSPost2010PropOp38
 70
     0
102
RTVSPost2010Prop39
140
1.0
102
RTVSPost2010PropOp39
 70
     0
102
RTVSPost2010Prop40
 90
        0
102
RTVSPost2010PropOp40
 70
     0
102
RTVSPost2010Prop41ColorIndex
 90
       18
102
RTVSPost2010Prop41ColorRGB
 90
        0
102
RTVSPost2010PropOp41
 70
     0
102
RTVSPost2010Prop42
 90
       50
102
RTVSPost2010PropOp42
 70
     0
102
RTVSPost2010Prop43
 90
        3
102
RTVSPost2010PropOp43
 70
     0
102
RTVSPost2010Prop44ColorIndex
 90
        5
102
RTVSPost2010Prop44ColorRGB
 90
      255
102
RTVSPost2010PropOp44
 70
     0
102
RTVSPost2010Prop45
280
     0
102
RTVSPost2010PropOp45
 70
     1
102
RTVSPost2010Prop46
 90
       50
102
RTVSPost2010PropOp46
 70
     0
102
RTVSPost2010Prop47
 90
       50
102
RTVSPost2010PropOp47
 70
     0
102
RTVSPost2010Prop48
 90
       50
102
RTVSPost2010PropOp48
 70
     0
102
RTVSPost2010Prop49
280
     0
102
RTVSPost2010PropOp49
 70
     1
102
RTVSPost2010Prop50
 90
       50
102
RTVSPost2010PropOp50
 70
     0
102
RTVSPost2010Prop51ColorIndex
 90
      256
102
RTVSPost2010Prop51ColorRGB
 90
-16777216
102
RTVSPost2010PropOp51
 70
     0
102
RTVSPost2010Prop52
140
1.0
102
RTVSPost2010PropOp52
 70
     0
102
RTVSPost2010Prop53
 90
        2
102
RTVSPost2010PropOp53
 70
     0
102
RTVSPost2010Prop54
  1
strokes_ogs.tif
102
RTVSPost2010PropOp54
 70
     0
102
RTVSPost2010Prop55
280
     0
102
RTVSPost2010PropOp55
 70
     1
102
RTVSPost2010Prop56
140
1.0
102
RTVSPost2010PropOp56
 70
     0
102
RTVSPost2010Prop57
140
1.0
102
RTVSPost2010PropOp57
 70
     0
102
RTVSPropertyOp0
 70
     0
102
RTVSPropertyOp1
 70
     0
102
RTVSPropertyOp2
 70
     0
102
RTVSPropertyOp3
 70
     0
102
RTVSPropertyOp4
 70
     0
102
RTVSPropertyOp5
 70
     0
102
RTVSPropertyOp6
 70
     0
102
RTVSPropertyOp7
 70
     0
102
RTVSPropertyOp8
 70
     0
102
RTVSPropertyOp9
 70
     0
102
RTVSPropertyOp10
 70
     0
102
RTVSPropertyOp11
 70
     0
102
RTVSPropertyOp12
 70
     0
102
RTVSPropertyOp13
 70
     0
102
RTVSPropertyOp14
 70
     2
102
RTVSPropertyOp15
 70
     0
102
RTVSPropertyOp16
 70
     0
102
RTVSPropertyOp17
 70
     0
102
RTVSPropertyOp18
 70
     0
102
RTVSPropertyOp19
 70
     0
102
RTVSPropertyOp20
 70
     0
102
RTVSPropertyOp21
 70
     0
102
RTVSPropertyOp22
 70
     0
102
RTVSPropertyOp23
 70
     0
102
RTVSPropertyOp24
 70
     0
102
RTVSPropertyOp25
 70
     0
102
RTVSPropertyOp26
 70
     0
102
RTVSPropertyOp27
 70
     0
102
RTVSPropertyOp28
 70
     1
102
RTVSPropertyOp29
 70
     1
102
RTVSPropertyOp30
 70
     1
102
RTVSPropertyOp31
 70
     1
102
RTVSPropertyOp32
 70
     1
102
RTVSPropertyOp33
 70
     1
102
RTVSPropertyOp34
 70
     1
102
RTVSPropertyOp35
 70
     1
102
RTVSPropertyOp36
 70
     1
102
RTVSPropertyOp37
 70
     0
102
RTVSPropertyOp38
 70
     0
102
RTVSPropertyOp39
 70
     0
102
RTVSPropertyOp40
 70
     0
102
RTVSPropertyOp41
 70
     0
102
RTVSPropertyOp42
 70
     0
102
RTVSPropertyOp43
 70
     0
102
RTVSPropertyOp44
 70
     0
102
RTVSPropertyOp45
 70
     1
102
RTVSPropertyOp46
 70
     0
102
RTVSPropertyOp47
 70
     0
102
RTVSPropertyOp48
 70
     0
102
RTVSPropertyOp49
 70
     1
102
RTVSPropertyOp50
 70
     0
102
RTVSPropertyOp51
 70
     0
102
RTVSPropertyOp52
 70
     0
102
RTVSPropertyOp53
 70
     0
102
RTVSPropertyOp54
 70
     0
102
RTVSPropertyOp55
 70
     1
102
RTVSPropertyOp56
 70
     0
102
RTVSPropertyOp57
 70
     0
102
RTVSPropertyOp58
 70
     1
102
RTVSPropertyOp59
 70
     1
102
RTVSPropertyOp60
 70
     1
102
RTVSPropertyOp61
 70
     1
102
RTVSPropertyOp62
 70
     1
  0
XRECORD
  5
22475
102
{ACAD_REACTORS
330
22474
102
}
330
22474
100
AcDbXrecord
280
     1
102
RTVSPost2010Prop28
280
     0
102
RTVSPost2010PropOp28
 70
     1
102
RTVSPost2010Prop29
280
     1
102
RTVSPost2010PropOp29
 70
     1
102
RTVSPost2010Prop30
280
     1
102
RTVSPost2010PropOp30
 70
     1
102
RTVSPost2010Prop31
280
     0
102
RTVSPost2010PropOp31
 70
     1
102
RTVSPost2010Prop32
280
     0
102
RTVSPost2010PropOp32
 70
     1
102
RTVSPost2010Prop33
280
     0
102
RTVSPost2010PropOp33
 70
     1
102
RTVSPost2010Prop34
280
     0
102
RTVSPost2010PropOp34
 70
     1
102
RTVSPost2010Prop35
280
     0
102
RTVSPost2010PropOp35
 70
     1
102
RTVSPost2010Prop36
280
     0
102
RTVSPost2010PropOp36
 70
     1
102
RTVSPost2010Prop37
 90
       50
102
RTVSPost2010PropOp37
 70
     1
102
RTVSPost2010Prop38
140
0.0
102
RTVSPost2010PropOp38
 70
     1
102
RTVSPost2010Prop39
140
1.0
102
RTVSPost2010PropOp39
 70
     1
102
RTVSPost2010Prop40
 90
        0
102
RTVSPost2010PropOp40
 70
     1
102
RTVSPost2010Prop41ColorIndex
 90
       18
102
RTVSPost2010Prop41ColorRGB
 90
        0
102
RTVSPost2010PropOp41
 70
     1
102
RTVSPost2010Prop42
 90
       50
102
RTVSPost2010PropOp42
 70
     1
102
RTVSPost2010Prop43
 90
        3
102
RTVSPost2010PropOp43
 70
     1
102
RTVSPost2010Prop44ColorIndex
 90
        5
102
RTVSPost2010Prop44ColorRGB
 90
      255
102
RTVSPost2010PropOp44
 70
     1
102
RTVSPost2010Prop45
280
     0
102
RTVSPost2010PropOp45
 70
     1
102
RTVSPost2010Prop46
 90
       50
102
RTVSPost2010PropOp46
 70
     1
102
RTVSPost2010Prop47
 90
       50
102
RTVSPost2010PropOp47
 70
     1
102
RTVSPost2010Prop48
 90
       50
102
RTVSPost2010PropOp48
 70
     1
102
RTVSPost2010Prop49
280
     0
102
RTVSPost2010PropOp49
 70
     1
102
RTVSPost2010Prop50
 90
       50
102
RTVSPost2010PropOp50
 70
     1
102
RTVSPost2010Prop51ColorIndex
 90
      256
102
RTVSPost2010Prop51ColorRGB
 90
-16777216
102
RTVSPost2010PropOp51
 70
     0
102
RTVSPost2010Prop52
140
1.0
102
RTVSPost2010PropOp52
 70
     0
102
RTVSPost2010Prop53
 90
        2
102
RTVSPost2010PropOp53
 70
     1
102
RTVSPost2010Prop54
  1
strokes_ogs.tif
102
RTVSPost2010PropOp54
 70
     1
102
RTVSPost2010Prop55
280
     0
102
RTVSPost2010PropOp55
 70
     1
102
RTVSPost2010Prop56
140
1.0
102
RTVSPost2010PropOp56
 70
     1
102
RTVSPost2010Prop57
140
1.0
102
RTVSPost2010PropOp57
 70
     1
102
RTVSPropertyOp0
 70
     1
102
RTVSPropertyOp1
 70
     1
102
RTVSPropertyOp2
 70
     1
102
RTVSPropertyOp3
 70
     1
102
RTVSPropertyOp4
 70
     1
102
RTVSPropertyOp5
 70
     1
102
RTVSPropertyOp6
 70
     1
102
RTVSPropertyOp7
 70
     1
102
RTVSPropertyOp8
 70
     1
102
RTVSPropertyOp9
 70
     1
102
RTVSPropertyOp10
 70
     1
102
RTVSPropertyOp11
 70
     1
102
RTVSPropertyOp12
 70
     1
102
RTVSPropertyOp13
 70
     1
102
RTVSPropertyOp14
 70
     1
102
RTVSPropertyOp15
 70
     1
102
RTVSPropertyOp16
 70
     1
102
RTVSPropertyOp17
 70
     1
102
RTVSPropertyOp18
 70
     1
102
RTVSPropertyOp19
 70
     1
102
RTVSPropertyOp20
 70
     1
102
RTVSPropertyOp21
 70
     1
102
RTVSPropertyOp22
 70
     1
102
RTVSPropertyOp23
 70
     1
102
RTVSPropertyOp24
 70
     1
102
RTVSPropertyOp25
 70
     1
102
RTVSPropertyOp26
 70
     1
102
RTVSPropertyOp27
 70
     1
102
RTVSPropertyOp28
 70
     1
102
RTVSPropertyOp29
 70
     1
102
RTVSPropertyOp30
 70
     1
102
RTVSPropertyOp31
 70
     1
102
RTVSPropertyOp32
 70
     1
102
RTVSPropertyOp33
 70
     1
102
RTVSPropertyOp34
 70
     1
102
RTVSPropertyOp35
 70
     1
102
RTVSPropertyOp36
 70
     1
102
RTVSPropertyOp37
 70
     1
102
RTVSPropertyOp38
 70
     1
102
RTVSPropertyOp39
 70
     1
102
RTVSPropertyOp40
 70
     1
102
RTVSPropertyOp41
 70
     1
102
RTVSPropertyOp42
 70
     1
102
RTVSPropertyOp43
 70
     1
102
RTVSPropertyOp44
 70
     1
102
RTVSPropertyOp45
 70
     1
102
RTVSPropertyOp46
 70
     1
102
RTVSPropertyOp47
 70
     1
102
RTVSPropertyOp48
 70
     1
102
RTVSPropertyOp49
 70
     1
102
RTVSPropertyOp50
 70
     1
102
RTVSPropertyOp51
 70
     0
102
RTVSPropertyOp52
 70
     0
102
RTVSPropertyOp53
 70
     1
102
RTVSPropertyOp54
 70
     1
102
RTVSPropertyOp55
 70
     1
102
RTVSPropertyOp56
 70
     1
102
RTVSPropertyOp57
 70
     1
102
RTVSPropertyOp58
 70
     1
102
RTVSPropertyOp59
 70
     1
102
RTVSPropertyOp60
 70
     1
102
RTVSPropertyOp61
 70
     1
102
RTVSPropertyOp62
 70
     1
  0
XRECORD
  5
22498
102
{ACAD_REACTORS
330
22497
102
}
330
22497
100
AcDbXrecord
280
     1
102
RTVSPost2010Prop28
280
     0
102
RTVSPost2010PropOp28
 70
     1
102
RTVSPost2010Prop29
280
     1
102
RTVSPost2010PropOp29
 70
     1
102
RTVSPost2010Prop30
280
     1
102
RTVSPost2010PropOp30
 70
     1
102
RTVSPost2010Prop31
280
     0
102
RTVSPost2010PropOp31
 70
     1
102
RTVSPost2010Prop32
280
     0
102
RTVSPost2010PropOp32
 70
     1
102
RTVSPost2010Prop33
280
     0
102
RTVSPost2010PropOp33
 70
     1
102
RTVSPost2010Prop34
280
     0
102
RTVSPost2010PropOp34
 70
     1
102
RTVSPost2010Prop35
280
     0
102
RTVSPost2010PropOp35
 70
     1
102
RTVSPost2010Prop36
280
     0
102
RTVSPost2010PropOp36
 70
     1
102
RTVSPost2010Prop37
 90
       50
102
RTVSPost2010PropOp37
 70
     1
102
RTVSPost2010Prop38
140
0.0
102
RTVSPost2010PropOp38
 70
     1
102
RTVSPost2010Prop39
140
1.0
102
RTVSPost2010PropOp39
 70
     1
102
RTVSPost2010Prop40
 90
        0
102
RTVSPost2010PropOp40
 70
     1
102
RTVSPost2010Prop41ColorIndex
 90
       18
102
RTVSPost2010Prop41ColorRGB
 90
        0
102
RTVSPost2010PropOp41
 70
     1
102
RTVSPost2010Prop42
 90
       50
102
RTVSPost2010PropOp42
 70
     1
102
RTVSPost2010Prop43
 90
        3
102
RTVSPost2010PropOp43
 70
     1
102
RTVSPost2010Prop44ColorIndex
 90
        5
102
RTVSPost2010Prop44ColorRGB
 90
      255
102
RTVSPost2010PropOp44
 70
     1
102
RTVSPost2010Prop45
280
     0
102
RTVSPost2010PropOp45
 70
     1
102
RTVSPost2010Prop46
 90
       50
102
RTVSPost2010PropOp46
 70
     1
102
RTVSPost2010Prop47
 90
       50
102
RTVSPost2010PropOp47
 70
     1
102
RTVSPost2010Prop48
 90
       50
102
RTVSPost2010PropOp48
 70
     1
102
RTVSPost2010Prop49
280
     0
102
RTVSPost2010PropOp49
 70
     1
102
RTVSPost2010Prop50
 90
       50
102
RTVSPost2010PropOp50
 70
     1
102
RTVSPost2010Prop51ColorIndex
 90
      256
102
RTVSPost2010Prop51ColorRGB
 90
-16777216
102
RTVSPost2010PropOp51
 70
     0
102
RTVSPost2010Prop52
140
1.0
102
RTVSPost2010PropOp52
 70
     0
102
RTVSPost2010Prop53
 90
        2
102
RTVSPost2010PropOp53
 70
     1
102
RTVSPost2010Prop54
  1
strokes_ogs.tif
102
RTVSPost2010PropOp54
 70
     1
102
RTVSPost2010Prop55
280
     0
102
RTVSPost2010PropOp55
 70
     1
102
RTVSPost2010Prop56
140
1.0
102
RTVSPost2010PropOp56
 70
     1
102
RTVSPost2010Prop57
140
1.0
102
RTVSPost2010PropOp57
 70
     1
102
RTVSPropertyOp0
 70
     1
102
RTVSPropertyOp1
 70
     1
102
RTVSPropertyOp2
 70
     1
102
RTVSPropertyOp3
 70
     1
102
RTVSPropertyOp4
 70
     1
102
RTVSPropertyOp5
 70
     1
102
RTVSPropertyOp6
 70
     1
102
RTVSPropertyOp7
 70
     1
102
RTVSPropertyOp8
 70
     1
102
RTVSPropertyOp9
 70
     1
102
RTVSPropertyOp10
 70
     1
102
RTVSPropertyOp11
 70
     1
102
RTVSPropertyOp12
 70
     1
102
RTVSPropertyOp13
 70
     1
102
RTVSPropertyOp14
 70
     1
102
RTVSPropertyOp15
 70
     1
102
RTVSPropertyOp16
 70
     1
102
RTVSPropertyOp17
 70
     1
102
RTVSPropertyOp18
 70
     1
102
RTVSPropertyOp19
 70
     1
102
RTVSPropertyOp20
 70
     1
102
RTVSPropertyOp21
 70
     1
102
RTVSPropertyOp22
 70
     1
102
RTVSPropertyOp23
 70
     1
102
RTVSPropertyOp24
 70
     1
102
RTVSPropertyOp25
 70
     1
102
RTVSPropertyOp26
 70
     1
102
RTVSPropertyOp27
 70
     1
102
RTVSPropertyOp28
 70
     1
102
RTVSPropertyOp29
 70
     1
102
RTVSPropertyOp30
 70
     1
102
RTVSPropertyOp31
 70
     1
102
RTVSPropertyOp32
 70
     1
102
RTVSPropertyOp33
 70
     1
102
RTVSPropertyOp34
 70
     1
102
RTVSPropertyOp35
 70
     1
102
RTVSPropertyOp36
 70
     1
102
RTVSPropertyOp37
 70
     1
102
RTVSPropertyOp38
 70
     1
102
RTVSPropertyOp39
 70
     1
102
RTVSPropertyOp40
 70
     1
102
RTVSPropertyOp41
 70
     1
102
RTVSPropertyOp42
 70
     1
102
RTVSPropertyOp43
 70
     1
102
RTVSPropertyOp44
 70
     1
102
RTVSPropertyOp45
 70
     1
102
RTVSPropertyOp46
 70
     1
102
RTVSPropertyOp47
 70
     1
102
RTVSPropertyOp48
 70
     1
102
RTVSPropertyOp49
 70
     1
102
RTVSPropertyOp50
 70
     1
102
RTVSPropertyOp51
 70
     0
102
RTVSPropertyOp52
 70
     0
102
RTVSPropertyOp53
 70
     1
102
RTVSPropertyOp54
 70
     1
102
RTVSPropertyOp55
 70
     1
102
RTVSPropertyOp56
 70
     1
102
RTVSPropertyOp57
 70
     1
102
RTVSPropertyOp58
 70
     1
102
RTVSPropertyOp59
 70
     1
102
RTVSPropertyOp60
 70
     1
102
RTVSPropertyOp61
 70
     1
102
RTVSPropertyOp62
 70
     1
  0
XRECORD
  5
22496
102
{ACAD_REACTORS
330
22495
102
}
330
22495
100
AcDbXrecord
280
     1
102
RTVSPost2010Prop28
280
     0
102
RTVSPost2010PropOp28
 70
     1
102
RTVSPost2010Prop29
280
     1
102
RTVSPost2010PropOp29
 70
     1
102
RTVSPost2010Prop30
280
     1
102
RTVSPost2010PropOp30
 70
     1
102
RTVSPost2010Prop31
280
     0
102
RTVSPost2010PropOp31
 70
     1
102
RTVSPost2010Prop32
280
     0
102
RTVSPost2010PropOp32
 70
     1
102
RTVSPost2010Prop33
280
     0
102
RTVSPost2010PropOp33
 70
     1
102
RTVSPost2010Prop34
280
     0
102
RTVSPost2010PropOp34
 70
     1
102
RTVSPost2010Prop35
280
     0
102
RTVSPost2010PropOp35
 70
     1
102
RTVSPost2010Prop36
280
     0
102
RTVSPost2010PropOp36
 70
     1
102
RTVSPost2010Prop37
 90
       50
102
RTVSPost2010PropOp37
 70
     1
102
RTVSPost2010Prop38
140
0.0
102
RTVSPost2010PropOp38
 70
     1
102
RTVSPost2010Prop39
140
1.0
102
RTVSPost2010PropOp39
 70
     1
102
RTVSPost2010Prop40
 90
        0
102
RTVSPost2010PropOp40
 70
     1
102
RTVSPost2010Prop41ColorIndex
 90
       18
102
RTVSPost2010Prop41ColorRGB
 90
        0
102
RTVSPost2010PropOp41
 70
     1
102
RTVSPost2010Prop42
 90
       50
102
RTVSPost2010PropOp42
 70
     1
102
RTVSPost2010Prop43
 90
        3
102
RTVSPost2010PropOp43
 70
     1
102
RTVSPost2010Prop44ColorIndex
 90
        5
102
RTVSPost2010Prop44ColorRGB
 90
      255
102
RTVSPost2010PropOp44
 70
     1
102
RTVSPost2010Prop45
280
     0
102
RTVSPost2010PropOp45
 70
     1
102
RTVSPost2010Prop46
 90
       50
102
RTVSPost2010PropOp46
 70
     1
102
RTVSPost2010Prop47
 90
       50
102
RTVSPost2010PropOp47
 70
     1
102
RTVSPost2010Prop48
 90
       50
102
RTVSPost2010PropOp48
 70
     1
102
RTVSPost2010Prop49
280
     0
102
RTVSPost2010PropOp49
 70
     1
102
RTVSPost2010Prop50
 90
       50
102
RTVSPost2010PropOp50
 70
     1
102
RTVSPost2010Prop51ColorIndex
 90
      256
102
RTVSPost2010Prop51ColorRGB
 90
-16777216
102
RTVSPost2010PropOp51
 70
     0
102
RTVSPost2010Prop52
140
1.0
102
RTVSPost2010PropOp52
 70
     0
102
RTVSPost2010Prop53
 90
        2
102
RTVSPost2010PropOp53
 70
     1
102
RTVSPost2010Prop54
  1
strokes_ogs.tif
102
RTVSPost2010PropOp54
 70
     1
102
RTVSPost2010Prop55
280
     0
102
RTVSPost2010PropOp55
 70
     1
102
RTVSPost2010Prop56
140
1.0
102
RTVSPost2010PropOp56
 70
     1
102
RTVSPost2010Prop57
140
1.0
102
RTVSPost2010PropOp57
 70
     1
102
RTVSPropertyOp0
 70
     1
102
RTVSPropertyOp1
 70
     1
102
RTVSPropertyOp2
 70
     1
102
RTVSPropertyOp3
 70
     1
102
RTVSPropertyOp4
 70
     1
102
RTVSPropertyOp5
 70
     1
102
RTVSPropertyOp6
 70
     1
102
RTVSPropertyOp7
 70
     1
102
RTVSPropertyOp8
 70
     1
102
RTVSPropertyOp9
 70
     1
102
RTVSPropertyOp10
 70
     1
102
RTVSPropertyOp11
 70
     1
102
RTVSPropertyOp12
 70
     1
102
RTVSPropertyOp13
 70
     1
102
RTVSPropertyOp14
 70
     1
102
RTVSPropertyOp15
 70
     1
102
RTVSPropertyOp16
 70
     1
102
RTVSPropertyOp17
 70
     1
102
RTVSPropertyOp18
 70
     1
102
RTVSPropertyOp19
 70
     1
102
RTVSPropertyOp20
 70
     1
102
RTVSPropertyOp21
 70
     1
102
RTVSPropertyOp22
 70
     1
102
RTVSPropertyOp23
 70
     1
102
RTVSPropertyOp24
 70
     1
102
RTVSPropertyOp25
 70
     1
102
RTVSPropertyOp26
 70
     1
102
RTVSPropertyOp27
 70
     1
102
RTVSPropertyOp28
 70
     1
102
RTVSPropertyOp29
 70
     1
102
RTVSPropertyOp30
 70
     1
102
RTVSPropertyOp31
 70
     1
102
RTVSPropertyOp32
 70
     1
102
RTVSPropertyOp33
 70
     1
102
RTVSPropertyOp34
 70
     1
102
RTVSPropertyOp35
 70
     1
102
RTVSPropertyOp36
 70
     1
102
RTVSPropertyOp37
 70
     1
102
RTVSPropertyOp38
 70
     1
102
RTVSPropertyOp39
 70
     1
102
RTVSPropertyOp40
 70
     1
102
RTVSPropertyOp41
 70
     1
102
RTVSPropertyOp42
 70
     1
102
RTVSPropertyOp43
 70
     1
102
RTVSPropertyOp44
 70
     1
102
RTVSPropertyOp45
 70
     1
102
RTVSPropertyOp46
 70
     1
102
RTVSPropertyOp47
 70
     1
102
RTVSPropertyOp48
 70
     1
102
RTVSPropertyOp49
 70
     1
102
RTVSPropertyOp50
 70
     1
102
RTVSPropertyOp51
 70
     0
102
RTVSPropertyOp52
 70
     0
102
RTVSPropertyOp53
 70
     1
102
RTVSPropertyOp54
 70
     1
102
RTVSPropertyOp55
 70
     1
102
RTVSPropertyOp56
 70
     1
102
RTVSPropertyOp57
 70
     1
102
RTVSPropertyOp58
 70
     1
102
RTVSPropertyOp59
 70
     1
102
RTVSPropertyOp60
 70
     1
102
RTVSPropertyOp61
 70
     1
102
RTVSPropertyOp62
 70
     1
  0
XRECORD
  5
22490
102
{ACAD_REACTORS
330
2248F
102
}
330
2248F
100
AcDbXrecord
280
     1
102
RTVSPost2010Prop28
280
     0
102
RTVSPost2010PropOp28
 70
     1
102
RTVSPost2010Prop29
280
     1
102
RTVSPost2010PropOp29
 70
     1
102
RTVSPost2010Prop30
280
     1
102
RTVSPost2010PropOp30
 70
     1
102
RTVSPost2010Prop31
280
     0
102
RTVSPost2010PropOp31
 70
     1
102
RTVSPost2010Prop32
280
     0
102
RTVSPost2010PropOp32
 70
     1
102
RTVSPost2010Prop33
280
     0
102
RTVSPost2010PropOp33
 70
     1
102
RTVSPost2010Prop34
280
     0
102
RTVSPost2010PropOp34
 70
     1
102
RTVSPost2010Prop35
280
     0
102
RTVSPost2010PropOp35
 70
     1
102
RTVSPost2010Prop36
280
     0
102
RTVSPost2010PropOp36
 70
     1
102
RTVSPost2010Prop37
 90
       50
102
RTVSPost2010PropOp37
 70
     1
102
RTVSPost2010Prop38
140
0.0
102
RTVSPost2010PropOp38
 70
     1
102
RTVSPost2010Prop39
140
1.0
102
RTVSPost2010PropOp39
 70
     1
102
RTVSPost2010Prop40
 90
        0
102
RTVSPost2010PropOp40
 70
     1
102
RTVSPost2010Prop41ColorIndex
 90
       18
102
RTVSPost2010Prop41ColorRGB
 90
        0
102
RTVSPost2010PropOp41
 70
     1
102
RTVSPost2010Prop42
 90
       50
102
RTVSPost2010PropOp42
 70
     1
102
RTVSPost2010Prop43
 90
        3
102
RTVSPost2010PropOp43
 70
     1
102
RTVSPost2010Prop44ColorIndex
 90
        5
102
RTVSPost2010Prop44ColorRGB
 90
      255
102
RTVSPost2010PropOp44
 70
     1
102
RTVSPost2010Prop45
280
     0
102
RTVSPost2010PropOp45
 70
     1
102
RTVSPost2010Prop46
 90
       50
102
RTVSPost2010PropOp46
 70
     1
102
RTVSPost2010Prop47
 90
       50
102
RTVSPost2010PropOp47
 70
     1
102
RTVSPost2010Prop48
 90
       50
102
RTVSPost2010PropOp48
 70
     1
102
RTVSPost2010Prop49
280
     0
102
RTVSPost2010PropOp49
 70
     1
102
RTVSPost2010Prop50
 90
       50
102
RTVSPost2010PropOp50
 70
     1
102
RTVSPost2010Prop51ColorIndex
 90
      256
102
RTVSPost2010Prop51ColorRGB
 90
-16777216
102
RTVSPost2010PropOp51
 70
     0
102
RTVSPost2010Prop52
140
1.0
102
RTVSPost2010PropOp52
 70
     0
102
RTVSPost2010Prop53
 90
        2
102
RTVSPost2010PropOp53
 70
     1
102
RTVSPost2010Prop54
  1
strokes_ogs.tif
102
RTVSPost2010PropOp54
 70
     1
102
RTVSPost2010Prop55
280
     0
102
RTVSPost2010PropOp55
 70
     1
102
RTVSPost2010Prop56
140
1.0
102
RTVSPost2010PropOp56
 70
     1
102
RTVSPost2010Prop57
140
1.0
102
RTVSPost2010PropOp57
 70
     1
102
RTVSPropertyOp0
 70
     1
102
RTVSPropertyOp1
 70
     1
102
RTVSPropertyOp2
 70
     1
102
RTVSPropertyOp3
 70
     1
102
RTVSPropertyOp4
 70
     1
102
RTVSPropertyOp5
 70
     1
102
RTVSPropertyOp6
 70
     1
102
RTVSPropertyOp7
 70
     1
102
RTVSPropertyOp8
 70
     1
102
RTVSPropertyOp9
 70
     1
102
RTVSPropertyOp10
 70
     1
102
RTVSPropertyOp11
 70
     1
102
RTVSPropertyOp12
 70
     1
102
RTVSPropertyOp13
 70
     1
102
RTVSPropertyOp14
 70
     1
102
RTVSPropertyOp15
 70
     1
102
RTVSPropertyOp16
 70
     1
102
RTVSPropertyOp17
 70
     1
102
RTVSPropertyOp18
 70
     1
102
RTVSPropertyOp19
 70
     1
102
RTVSPropertyOp20
 70
     1
102
RTVSPropertyOp21
 70
     1
102
RTVSPropertyOp22
 70
     1
102
RTVSPropertyOp23
 70
     1
102
RTVSPropertyOp24
 70
     1
102
RTVSPropertyOp25
 70
     1
102
RTVSPropertyOp26
 70
     1
102
RTVSPropertyOp27
 70
     1
102
RTVSPropertyOp28
 70
     1
102
RTVSPropertyOp29
 70
     1
102
RTVSPropertyOp30
 70
     1
102
RTVSPropertyOp31
 70
     1
102
RTVSPropertyOp32
 70
     1
102
RTVSPropertyOp33
 70
     1
102
RTVSPropertyOp34
 70
     1
102
RTVSPropertyOp35
 70
     1
102
RTVSPropertyOp36
 70
     1
102
RTVSPropertyOp37
 70
     1
102
RTVSPropertyOp38
 70
     1
102
RTVSPropertyOp39
 70
     1
102
RTVSPropertyOp40
 70
     1
102
RTVSPropertyOp41
 70
     1
102
RTVSPropertyOp42
 70
     1
102
RTVSPropertyOp43
 70
     1
102
RTVSPropertyOp44
 70
     1
102
RTVSPropertyOp45
 70
     1
102
RTVSPropertyOp46
 70
     1
102
RTVSPropertyOp47
 70
     1
102
RTVSPropertyOp48
 70
     1
102
RTVSPropertyOp49
 70
     1
102
RTVSPropertyOp50
 70
     1
102
RTVSPropertyOp51
 70
     0
102
RTVSPropertyOp52
 70
     0
102
RTVSPropertyOp53
 70
     1
102
RTVSPropertyOp54
 70
     1
102
RTVSPropertyOp55
 70
     1
102
RTVSPropertyOp56
 70
     1
102
RTVSPropertyOp57
 70
     1
102
RTVSPropertyOp58
 70
     1
102
RTVSPropertyOp59
 70
     1
102
RTVSPropertyOp60
 70
     1
102
RTVSPropertyOp61
 70
     1
102
RTVSPropertyOp62
 70
     1
  0
XRECORD
  5
22492
102
{ACAD_REACTORS
330
22491
102
}
330
22491
100
AcDbXrecord
280
     1
102
RTVSPost2010Prop28
280
     0
102
RTVSPost2010PropOp28
 70
     1
102
RTVSPost2010Prop29
280
     1
102
RTVSPost2010PropOp29
 70
     1
102
RTVSPost2010Prop30
280
     1
102
RTVSPost2010PropOp30
 70
     1
102
RTVSPost2010Prop31
280
     0
102
RTVSPost2010PropOp31
 70
     1
102
RTVSPost2010Prop32
280
     0
102
RTVSPost2010PropOp32
 70
     1
102
RTVSPost2010Prop33
280
     0
102
RTVSPost2010PropOp33
 70
     1
102
RTVSPost2010Prop34
280
     0
102
RTVSPost2010PropOp34
 70
     1
102
RTVSPost2010Prop35
280
     0
102
RTVSPost2010PropOp35
 70
     1
102
RTVSPost2010Prop36
280
     0
102
RTVSPost2010PropOp36
 70
     1
102
RTVSPost2010Prop37
 90
       50
102
RTVSPost2010PropOp37
 70
     1
102
RTVSPost2010Prop38
140
0.0
102
RTVSPost2010PropOp38
 70
     1
102
RTVSPost2010Prop39
140
1.0
102
RTVSPost2010PropOp39
 70
     1
102
RTVSPost2010Prop40
 90
        0
102
RTVSPost2010PropOp40
 70
     1
102
RTVSPost2010Prop41ColorIndex
 90
       18
102
RTVSPost2010Prop41ColorRGB
 90
        0
102
RTVSPost2010PropOp41
 70
     1
102
RTVSPost2010Prop42
 90
       50
102
RTVSPost2010PropOp42
 70
     1
102
RTVSPost2010Prop43
 90
        3
102
RTVSPost2010PropOp43
 70
     1
102
RTVSPost2010Prop44ColorIndex
 90
        5
102
RTVSPost2010Prop44ColorRGB
 90
      255
102
RTVSPost2010PropOp44
 70
     1
102
RTVSPost2010Prop45
280
     0
102
RTVSPost2010PropOp45
 70
     1
102
RTVSPost2010Prop46
 90
       50
102
RTVSPost2010PropOp46
 70
     1
102
RTVSPost2010Prop47
 90
       50
102
RTVSPost2010PropOp47
 70
     1
102
RTVSPost2010Prop48
 90
       50
102
RTVSPost2010PropOp48
 70
     1
102
RTVSPost2010Prop49
280
     0
102
RTVSPost2010PropOp49
 70
     1
102
RTVSPost2010Prop50
 90
       50
102
RTVSPost2010PropOp50
 70
     1
102
RTVSPost2010Prop51ColorIndex
 90
      256
102
RTVSPost2010Prop51ColorRGB
 90
-16777216
102
RTVSPost2010PropOp51
 70
     0
102
RTVSPost2010Prop52
140
1.0
102
RTVSPost2010PropOp52
 70
     0
102
RTVSPost2010Prop53
 90
        2
102
RTVSPost2010PropOp53
 70
     1
102
RTVSPost2010Prop54
  1
strokes_ogs.tif
102
RTVSPost2010PropOp54
 70
     1
102
RTVSPost2010Prop55
280
     0
102
RTVSPost2010PropOp55
 70
     1
102
RTVSPost2010Prop56
140
1.0
102
RTVSPost2010PropOp56
 70
     1
102
RTVSPost2010Prop57
140
1.0
102
RTVSPost2010PropOp57
 70
     1
102
RTVSPropertyOp0
 70
     1
102
RTVSPropertyOp1
 70
     1
102
RTVSPropertyOp2
 70
     1
102
RTVSPropertyOp3
 70
     1
102
RTVSPropertyOp4
 70
     1
102
RTVSPropertyOp5
 70
     1
102
RTVSPropertyOp6
 70
     1
102
RTVSPropertyOp7
 70
     1
102
RTVSPropertyOp8
 70
     1
102
RTVSPropertyOp9
 70
     1
102
RTVSPropertyOp10
 70
     1
102
RTVSPropertyOp11
 70
     1
102
RTVSPropertyOp12
 70
     1
102
RTVSPropertyOp13
 70
     1
102
RTVSPropertyOp14
 70
     1
102
RTVSPropertyOp15
 70
     1
102
RTVSPropertyOp16
 70
     1
102
RTVSPropertyOp17
 70
     1
102
RTVSPropertyOp18
 70
     1
102
RTVSPropertyOp19
 70
     1
102
RTVSPropertyOp20
 70
     1
102
RTVSPropertyOp21
 70
     1
102
RTVSPropertyOp22
 70
     1
102
RTVSPropertyOp23
 70
     1
102
RTVSPropertyOp24
 70
     1
102
RTVSPropertyOp25
 70
     1
102
RTVSPropertyOp26
 70
     1
102
RTVSPropertyOp27
 70
     1
102
RTVSPropertyOp28
 70
     1
102
RTVSPropertyOp29
 70
     1
102
RTVSPropertyOp30
 70
     1
102
RTVSPropertyOp31
 70
     1
102
RTVSPropertyOp32
 70
     1
102
RTVSPropertyOp33
 70
     1
102
RTVSPropertyOp34
 70
     1
102
RTVSPropertyOp35
 70
     1
102
RTVSPropertyOp36
 70
     1
102
RTVSPropertyOp37
 70
     1
102
RTVSPropertyOp38
 70
     1
102
RTVSPropertyOp39
 70
     1
102
RTVSPropertyOp40
 70
     1
102
RTVSPropertyOp41
 70
     1
102
RTVSPropertyOp42
 70
     1
102
RTVSPropertyOp43
 70
     1
102
RTVSPropertyOp44
 70
     1
102
RTVSPropertyOp45
 70
     1
102
RTVSPropertyOp46
 70
     1
102
RTVSPropertyOp47
 70
     1
102
RTVSPropertyOp48
 70
     1
102
RTVSPropertyOp49
 70
     1
102
RTVSPropertyOp50
 70
     1
102
RTVSPropertyOp51
 70
     0
102
RTVSPropertyOp52
 70
     0
102
RTVSPropertyOp53
 70
     1
102
RTVSPropertyOp54
 70
     1
102
RTVSPropertyOp55
 70
     1
102
RTVSPropertyOp56
 70
     1
102
RTVSPropertyOp57
 70
     1
102
RTVSPropertyOp58
 70
     1
102
RTVSPropertyOp59
 70
     1
102
RTVSPropertyOp60
 70
     1
102
RTVSPropertyOp61
 70
     1
102
RTVSPropertyOp62
 70
     1
  0
XRECORD
  5
2247B
102
{ACAD_REACTORS
330
2247A
102
}
330
2247A
100
AcDbXrecord
280
     1
102
RTVSPost2010Prop28
280
     0
102
RTVSPost2010PropOp28
 70
     1
102
RTVSPost2010Prop29
280
     1
102
RTVSPost2010PropOp29
 70
     1
102
RTVSPost2010Prop30
280
     1
102
RTVSPost2010PropOp30
 70
     1
102
RTVSPost2010Prop31
280
     0
102
RTVSPost2010PropOp31
 70
     1
102
RTVSPost2010Prop32
280
     0
102
RTVSPost2010PropOp32
 70
     1
102
RTVSPost2010Prop33
280
     0
102
RTVSPost2010PropOp33
 70
     1
102
RTVSPost2010Prop34
280
     0
102
RTVSPost2010PropOp34
 70
     1
102
RTVSPost2010Prop35
280
     0
102
RTVSPost2010PropOp35
 70
     1
102
RTVSPost2010Prop36
280
     0
102
RTVSPost2010PropOp36
 70
     1
102
RTVSPost2010Prop37
 90
       50
102
RTVSPost2010PropOp37
 70
     1
102
RTVSPost2010Prop38
140
0.0
102
RTVSPost2010PropOp38
 70
     1
102
RTVSPost2010Prop39
140
1.0
102
RTVSPost2010PropOp39
 70
     1
102
RTVSPost2010Prop40
 90
        0
102
RTVSPost2010PropOp40
 70
     1
102
RTVSPost2010Prop41ColorIndex
 90
       18
102
RTVSPost2010Prop41ColorRGB
 90
        0
102
RTVSPost2010PropOp41
 70
     1
102
RTVSPost2010Prop42
 90
       50
102
RTVSPost2010PropOp42
 70
     1
102
RTVSPost2010Prop43
 90
        3
102
RTVSPost2010PropOp43
 70
     1
102
RTVSPost2010Prop44ColorIndex
 90
        5
102
RTVSPost2010Prop44ColorRGB
 90
      255
102
RTVSPost2010PropOp44
 70
     1
102
RTVSPost2010Prop45
280
     0
102
RTVSPost2010PropOp45
 70
     1
102
RTVSPost2010Prop46
 90
       50
102
RTVSPost2010PropOp46
 70
     1
102
RTVSPost2010Prop47
 90
       50
102
RTVSPost2010PropOp47
 70
     1
102
RTVSPost2010Prop48
 90
       50
102
RTVSPost2010PropOp48
 70
     1
102
RTVSPost2010Prop49
280
     0
102
RTVSPost2010PropOp49
 70
     1
102
RTVSPost2010Prop50
 90
       50
102
RTVSPost2010PropOp50
 70
     1
102
RTVSPost2010Prop51ColorIndex
 90
      256
102
RTVSPost2010Prop51ColorRGB
 90
-16777216
102
RTVSPost2010PropOp51
 70
     0
102
RTVSPost2010Prop52
140
1.0
102
RTVSPost2010PropOp52
 70
     0
102
RTVSPost2010Prop53
 90
        2
102
RTVSPost2010PropOp53
 70
     1
102
RTVSPost2010Prop54
  1
strokes_ogs.tif
102
RTVSPost2010PropOp54
 70
     1
102
RTVSPost2010Prop55
280
     0
102
RTVSPost2010PropOp55
 70
     1
102
RTVSPost2010Prop56
140
1.0
102
RTVSPost2010PropOp56
 70
     1
102
RTVSPost2010Prop57
140
1.0
102
RTVSPost2010PropOp57
 70
     1
102
RTVSPropertyOp0
 70
     1
102
RTVSPropertyOp1
 70
     1
102
RTVSPropertyOp2
 70
     1
102
RTVSPropertyOp3
 70
     1
102
RTVSPropertyOp4
 70
     1
102
RTVSPropertyOp5
 70
     1
102
RTVSPropertyOp6
 70
     1
102
RTVSPropertyOp7
 70
     1
102
RTVSPropertyOp8
 70
     1
102
RTVSPropertyOp9
 70
     1
102
RTVSPropertyOp10
 70
     1
102
RTVSPropertyOp11
 70
     1
102
RTVSPropertyOp12
 70
     1
102
RTVSPropertyOp13
 70
     1
102
RTVSPropertyOp14
 70
     1
102
RTVSPropertyOp15
 70
     1
102
RTVSPropertyOp16
 70
     1
102
RTVSPropertyOp17
 70
     1
102
RTVSPropertyOp18
 70
     1
102
RTVSPropertyOp19
 70
     1
102
RTVSPropertyOp20
 70
     1
102
RTVSPropertyOp21
 70
     1
102
RTVSPropertyOp22
 70
     1
102
RTVSPropertyOp23
 70
     1
102
RTVSPropertyOp24
 70
     1
102
RTVSPropertyOp25
 70
     1
102
RTVSPropertyOp26
 70
     1
102
RTVSPropertyOp27
 70
     1
102
RTVSPropertyOp28
 70
     1
102
RTVSPropertyOp29
 70
     1
102
RTVSPropertyOp30
 70
     1
102
RTVSPropertyOp31
 70
     1
102
RTVSPropertyOp32
 70
     1
102
RTVSPropertyOp33
 70
     1
102
RTVSPropertyOp34
 70
     1
102
RTVSPropertyOp35
 70
     1
102
RTVSPropertyOp36
 70
     1
102
RTVSPropertyOp37
 70
     1
102
RTVSPropertyOp38
 70
     1
102
RTVSPropertyOp39
 70
     1
102
RTVSPropertyOp40
 70
     1
102
RTVSPropertyOp41
 70
     1
102
RTVSPropertyOp42
 70
     1
102
RTVSPropertyOp43
 70
     1
102
RTVSPropertyOp44
 70
     1
102
RTVSPropertyOp45
 70
     1
102
RTVSPropertyOp46
 70
     1
102
RTVSPropertyOp47
 70
     1
102
RTVSPropertyOp48
 70
     1
102
RTVSPropertyOp49
 70
     1
102
RTVSPropertyOp50
 70
     1
102
RTVSPropertyOp51
 70
     0
102
RTVSPropertyOp52
 70
     0
102
RTVSPropertyOp53
 70
     1
102
RTVSPropertyOp54
 70
     1
102
RTVSPropertyOp55
 70
     1
102
RTVSPropertyOp56
 70
     1
102
RTVSPropertyOp57
 70
     1
102
RTVSPropertyOp58
 70
     1
102
RTVSPropertyOp59
 70
     1
102
RTVSPropertyOp60
 70
     1
102
RTVSPropertyOp61
 70
     1
102
RTVSPropertyOp62
 70
     1
  0
XRECORD
  5
2248C
102
{ACAD_REACTORS
330
2248B
102
}
330
2248B
100
AcDbXrecord
280
     1
102
RTVSPost2010Prop28
280
     0
102
RTVSPost2010PropOp28
 70
     1
102
RTVSPost2010Prop29
280
     1
102
RTVSPost2010PropOp29
 70
     1
102
RTVSPost2010Prop30
280
     1
102
RTVSPost2010PropOp30
 70
     1
102
RTVSPost2010Prop31
280
     0
102
RTVSPost2010PropOp31
 70
     1
102
RTVSPost2010Prop32
280
     0
102
RTVSPost2010PropOp32
 70
     1
102
RTVSPost2010Prop33
280
     0
102
RTVSPost2010PropOp33
 70
     1
102
RTVSPost2010Prop34
280
     0
102
RTVSPost2010PropOp34
 70
     1
102
RTVSPost2010Prop35
280
     0
102
RTVSPost2010PropOp35
 70
     1
102
RTVSPost2010Prop36
280
     0
102
RTVSPost2010PropOp36
 70
     1
102
RTVSPost2010Prop37
 90
       50
102
RTVSPost2010PropOp37
 70
     1
102
RTVSPost2010Prop38
140
0.0
102
RTVSPost2010PropOp38
 70
     1
102
RTVSPost2010Prop39
140
1.0
102
RTVSPost2010PropOp39
 70
     1
102
RTVSPost2010Prop40
 90
        0
102
RTVSPost2010PropOp40
 70
     1
102
RTVSPost2010Prop41ColorIndex
 90
       18
102
RTVSPost2010Prop41ColorRGB
 90
        0
102
RTVSPost2010PropOp41
 70
     1
102
RTVSPost2010Prop42
 90
       50
102
RTVSPost2010PropOp42
 70
     1
102
RTVSPost2010Prop43
 90
        3
102
RTVSPost2010PropOp43
 70
     1
102
RTVSPost2010Prop44ColorIndex
 90
        5
102
RTVSPost2010Prop44ColorRGB
 90
      255
102
RTVSPost2010PropOp44
 70
     1
102
RTVSPost2010Prop45
280
     0
102
RTVSPost2010PropOp45
 70
     1
102
RTVSPost2010Prop46
 90
       50
102
RTVSPost2010PropOp46
 70
     1
102
RTVSPost2010Prop47
 90
       50
102
RTVSPost2010PropOp47
 70
     1
102
RTVSPost2010Prop48
 90
       50
102
RTVSPost2010PropOp48
 70
     1
102
RTVSPost2010Prop49
280
     0
102
RTVSPost2010PropOp49
 70
     1
102
RTVSPost2010Prop50
 90
       50
102
RTVSPost2010PropOp50
 70
     1
102
RTVSPost2010Prop51ColorIndex
 90
      256
102
RTVSPost2010Prop51ColorRGB
 90
-16777216
102
RTVSPost2010PropOp51
 70
     0
102
RTVSPost2010Prop52
140
1.0
102
RTVSPost2010PropOp52
 70
     0
102
RTVSPost2010Prop53
 90
        2
102
RTVSPost2010PropOp53
 70
     1
102
RTVSPost2010Prop54
  1
strokes_ogs.tif
102
RTVSPost2010PropOp54
 70
     1
102
RTVSPost2010Prop55
280
     0
102
RTVSPost2010PropOp55
 70
     1
102
RTVSPost2010Prop56
140
1.0
102
RTVSPost2010PropOp56
 70
     1
102
RTVSPost2010Prop57
140
1.0
102
RTVSPost2010PropOp57
 70
     1
102
RTVSPropertyOp0
 70
     1
102
RTVSPropertyOp1
 70
     1
102
RTVSPropertyOp2
 70
     1
102
RTVSPropertyOp3
 70
     1
102
RTVSPropertyOp4
 70
     1
102
RTVSPropertyOp5
 70
     1
102
RTVSPropertyOp6
 70
     1
102
RTVSPropertyOp7
 70
     1
102
RTVSPropertyOp8
 70
     1
102
RTVSPropertyOp9
 70
     1
102
RTVSPropertyOp10
 70
     1
102
RTVSPropertyOp11
 70
     1
102
RTVSPropertyOp12
 70
     1
102
RTVSPropertyOp13
 70
     1
102
RTVSPropertyOp14
 70
     1
102
RTVSPropertyOp15
 70
     1
102
RTVSPropertyOp16
 70
     1
102
RTVSPropertyOp17
 70
     1
102
RTVSPropertyOp18
 70
     1
102
RTVSPropertyOp19
 70
     1
102
RTVSPropertyOp20
 70
     1
102
RTVSPropertyOp21
 70
     1
102
RTVSPropertyOp22
 70
     1
102
RTVSPropertyOp23
 70
     1
102
RTVSPropertyOp24
 70
     1
102
RTVSPropertyOp25
 70
     1
102
RTVSPropertyOp26
 70
     1
102
RTVSPropertyOp27
 70
     1
102
RTVSPropertyOp28
 70
     1
102
RTVSPropertyOp29
 70
     1
102
RTVSPropertyOp30
 70
     1
102
RTVSPropertyOp31
 70
     1
102
RTVSPropertyOp32
 70
     1
102
RTVSPropertyOp33
 70
     1
102
RTVSPropertyOp34
 70
     1
102
RTVSPropertyOp35
 70
     1
102
RTVSPropertyOp36
 70
     1
102
RTVSPropertyOp37
 70
     1
102
RTVSPropertyOp38
 70
     1
102
RTVSPropertyOp39
 70
     1
102
RTVSPropertyOp40
 70
     1
102
RTVSPropertyOp41
 70
     1
102
RTVSPropertyOp42
 70
     1
102
RTVSPropertyOp43
 70
     1
102
RTVSPropertyOp44
 70
     1
102
RTVSPropertyOp45
 70
     1
102
RTVSPropertyOp46
 70
     1
102
RTVSPropertyOp47
 70
     1
102
RTVSPropertyOp48
 70
     1
102
RTVSPropertyOp49
 70
     1
102
RTVSPropertyOp50
 70
     1
102
RTVSPropertyOp51
 70
     0
102
RTVSPropertyOp52
 70
     0
102
RTVSPropertyOp53
 70
     1
102
RTVSPropertyOp54
 70
     1
102
RTVSPropertyOp55
 70
     1
102
RTVSPropertyOp56
 70
     1
102
RTVSPropertyOp57
 70
     1
102
RTVSPropertyOp58
 70
     1
102
RTVSPropertyOp59
 70
     1
102
RTVSPropertyOp60
 70
     1
102
RTVSPropertyOp61
 70
     1
102
RTVSPropertyOp62
 70
     1
  0
XRECORD
  5
22494
102
{ACAD_REACTORS
330
22493
102
}
330
22493
100
AcDbXrecord
280
     1
102
RTVSPost2010Prop28
280
     0
102
RTVSPost2010PropOp28
 70
     1
102
RTVSPost2010Prop29
280
     1
102
RTVSPost2010PropOp29
 70
     1
102
RTVSPost2010Prop30
280
     1
102
RTVSPost2010PropOp30
 70
     1
102
RTVSPost2010Prop31
280
     0
102
RTVSPost2010PropOp31
 70
     1
102
RTVSPost2010Prop32
280
     0
102
RTVSPost2010PropOp32
 70
     1
102
RTVSPost2010Prop33
280
     0
102
RTVSPost2010PropOp33
 70
     1
102
RTVSPost2010Prop34
280
     0
102
RTVSPost2010PropOp34
 70
     1
102
RTVSPost2010Prop35
280
     0
102
RTVSPost2010PropOp35
 70
     1
102
RTVSPost2010Prop36
280
     0
102
RTVSPost2010PropOp36
 70
     1
102
RTVSPost2010Prop37
 90
       50
102
RTVSPost2010PropOp37
 70
     1
102
RTVSPost2010Prop38
140
0.0
102
RTVSPost2010PropOp38
 70
     1
102
RTVSPost2010Prop39
140
1.0
102
RTVSPost2010PropOp39
 70
     1
102
RTVSPost2010Prop40
 90
        0
102
RTVSPost2010PropOp40
 70
     1
102
RTVSPost2010Prop41ColorIndex
 90
       18
102
RTVSPost2010Prop41ColorRGB
 90
        0
102
RTVSPost2010PropOp41
 70
     1
102
RTVSPost2010Prop42
 90
       50
102
RTVSPost2010PropOp42
 70
     1
102
RTVSPost2010Prop43
 90
        3
102
RTVSPost2010PropOp43
 70
     1
102
RTVSPost2010Prop44ColorIndex
 90
        5
102
RTVSPost2010Prop44ColorRGB
 90
      255
102
RTVSPost2010PropOp44
 70
     1
102
RTVSPost2010Prop45
280
     0
102
RTVSPost2010PropOp45
 70
     1
102
RTVSPost2010Prop46
 90
       50
102
RTVSPost2010PropOp46
 70
     1
102
RTVSPost2010Prop47
 90
       50
102
RTVSPost2010PropOp47
 70
     1
102
RTVSPost2010Prop48
 90
       50
102
RTVSPost2010PropOp48
 70
     1
102
RTVSPost2010Prop49
280
     0
102
RTVSPost2010PropOp49
 70
     1
102
RTVSPost2010Prop50
 90
       50
102
RTVSPost2010PropOp50
 70
     1
102
RTVSPost2010Prop51ColorIndex
 90
      256
102
RTVSPost2010Prop51ColorRGB
 90
-16777216
102
RTVSPost2010PropOp51
 70
     0
102
RTVSPost2010Prop52
140
1.0
102
RTVSPost2010PropOp52
 70
     0
102
RTVSPost2010Prop53
 90
        2
102
RTVSPost2010PropOp53
 70
     1
102
RTVSPost2010Prop54
  1
strokes_ogs.tif
102
RTVSPost2010PropOp54
 70
     1
102
RTVSPost2010Prop55
280
     0
102
RTVSPost2010PropOp55
 70
     1
102
RTVSPost2010Prop56
140
1.0
102
RTVSPost2010PropOp56
 70
     1
102
RTVSPost2010Prop57
140
1.0
102
RTVSPost2010PropOp57
 70
     1
102
RTVSPropertyOp0
 70
     1
102
RTVSPropertyOp1
 70
     1
102
RTVSPropertyOp2
 70
     1
102
RTVSPropertyOp3
 70
     1
102
RTVSPropertyOp4
 70
     1
102
RTVSPropertyOp5
 70
     1
102
RTVSPropertyOp6
 70
     1
102
RTVSPropertyOp7
 70
     1
102
RTVSPropertyOp8
 70
     1
102
RTVSPropertyOp9
 70
     1
102
RTVSPropertyOp10
 70
     1
102
RTVSPropertyOp11
 70
     1
102
RTVSPropertyOp12
 70
     1
102
RTVSPropertyOp13
 70
     1
102
RTVSPropertyOp14
 70
     1
102
RTVSPropertyOp15
 70
     1
102
RTVSPropertyOp16
 70
     1
102
RTVSPropertyOp17
 70
     1
102
RTVSPropertyOp18
 70
     1
102
RTVSPropertyOp19
 70
     1
102
RTVSPropertyOp20
 70
     1
102
RTVSPropertyOp21
 70
     1
102
RTVSPropertyOp22
 70
     1
102
RTVSPropertyOp23
 70
     1
102
RTVSPropertyOp24
 70
     1
102
RTVSPropertyOp25
 70
     1
102
RTVSPropertyOp26
 70
     1
102
RTVSPropertyOp27
 70
     1
102
RTVSPropertyOp28
 70
     1
102
RTVSPropertyOp29
 70
     1
102
RTVSPropertyOp30
 70
     1
102
RTVSPropertyOp31
 70
     1
102
RTVSPropertyOp32
 70
     1
102
RTVSPropertyOp33
 70
     1
102
RTVSPropertyOp34
 70
     1
102
RTVSPropertyOp35
 70
     1
102
RTVSPropertyOp36
 70
     1
102
RTVSPropertyOp37
 70
     1
102
RTVSPropertyOp38
 70
     1
102
RTVSPropertyOp39
 70
     1
102
RTVSPropertyOp40
 70
     1
102
RTVSPropertyOp41
 70
     1
102
RTVSPropertyOp42
 70
     1
102
RTVSPropertyOp43
 70
     1
102
RTVSPropertyOp44
 70
     1
102
RTVSPropertyOp45
 70
     1
102
RTVSPropertyOp46
 70
     1
102
RTVSPropertyOp47
 70
     1
102
RTVSPropertyOp48
 70
     1
102
RTVSPropertyOp49
 70
     1
102
RTVSPropertyOp50
 70
     1
102
RTVSPropertyOp51
 70
     0
102
RTVSPropertyOp52
 70
     0
102
RTVSPropertyOp53
 70
     1
102
RTVSPropertyOp54
 70
     1
102
RTVSPropertyOp55
 70
     1
102
RTVSPropertyOp56
 70
     1
102
RTVSPropertyOp57
 70
     1
102
RTVSPropertyOp58
 70
     1
102
RTVSPropertyOp59
 70
     1
102
RTVSPropertyOp60
 70
     1
102
RTVSPropertyOp61
 70
     1
102
RTVSPropertyOp62
 70
     1
  0
ENDSEC
  0
EOF
